  0
SECTION
  2
HEADER
  9
$ACADVER
  1
AC1015
  9
$ACADMAINTVER
 70
     6
  9
$DWGCODEPAGE
  3
ANSI_932
  9
$INSBASE
 10
0.0
 20
0.0
 30
0.0
  9
$EXTMIN
 10
0.0
 20
-0.00000000000004
 30
0.0
  9
$EXTMAX
 10
210.0
 20
297.0
 30
0.0
  9
$LIMMIN
 10
0.0
 20
0.0
  9
$LIMMAX
 10
12.0
 20
9.0
  9
$ORTHOMODE
 70
     0
  9
$REGENMODE
 70
     1
  9
$FILLMODE
 70
     1
  9
$QTEXTMODE
 70
     0
  9
$MIRRTEXT
 70
     1
  9
$LTSCALE
 40
1.0
  9
$ATTMODE
 70
     1
  9
$TEXTSIZE
 40
0.2
  9
$TRACEWID
 40
0.05
  9
$TEXTSTYLE
  7
Standard
  9
$CLAYER
  8
0
  9
$CELTYPE
  6
ByLayer
  9
$CECOLOR
 62
   256
  9
$CELTSCALE
 40
1.0
  9
$DISPSILH
 70
     0
  9
$DIMSCALE
 40
1.0
  9
$DIMASZ
 40
0.18
  9
$DIMEXO
 40
0.0625
  9
$DIMDLI
 40
0.38
  9
$DIMRND
 40
0.0
  9
$DIMDLE
 40
0.0
  9
$DIMEXE
 40
0.18
  9
$DIMTP
 40
0.0
  9
$DIMTM
 40
0.0
  9
$DIMTXT
 40
0.18
  9
$DIMCEN
 40
0.09
  9
$DIMTSZ
 40
0.0
  9
$DIMTOL
 70
     0
  9
$DIMLIM
 70
     0
  9
$DIMTIH
 70
     1
  9
$DIMTOH
 70
     1
  9
$DIMSE1
 70
     0
  9
$DIMSE2
 70
     0
  9
$DIMTAD
 70
     0
  9
$DIMZIN
 70
     0
  9
$DIMBLK
  1

  9
$DIMASO
 70
     1
  9
$DIMSHO
 70
     1
  9
$DIMPOST
  1

  9
$DIMAPOST
  1

  9
$DIMALT
 70
     0
  9
$DIMALTD
 70
     2
  9
$DIMALTF
 40
25.4
  9
$DIMLFAC
 40
1.0
  9
$DIMTOFL
 70
     0
  9
$DIMTVP
 40
0.0
  9
$DIMTIX
 70
     0
  9
$DIMSOXD
 70
     0
  9
$DIMSAH
 70
     0
  9
$DIMBLK1
  1

  9
$DIMBLK2
  1

  9
$DIMSTYLE
  2
Standard
  9
$DIMCLRD
 70
     0
  9
$DIMCLRE
 70
     0
  9
$DIMCLRT
 70
     0
  9
$DIMTFAC
 40
1.0
  9
$DIMGAP
 40
0.09
  9
$DIMJUST
 70
     0
  9
$DIMSD1
 70
     0
  9
$DIMSD2
 70
     0
  9
$DIMTOLJ
 70
     1
  9
$DIMTZIN
 70
     0
  9
$DIMALTZ
 70
     0
  9
$DIMALTTZ
 70
     0
  9
$DIMUPT
 70
     0
  9
$DIMDEC
 70
     4
  9
$DIMTDEC
 70
     4
  9
$DIMALTU
 70
     2
  9
$DIMALTTD
 70
     2
  9
$DIMTXSTY
  7
Standard
  9
$DIMAUNIT
 70
     0
  9
$DIMADEC
 70
     0
  9
$DIMALTRND
 40
0.0
  9
$DIMAZIN
 70
     0
  9
$DIMDSEP
 70
    46
  9
$DIMATFIT
 70
     3
  9
$DIMFRAC
 70
     0
  9
$DIMLDRBLK
  1

  9
$DIMLUNIT
 70
     2
  9
$DIMLWD
 70
    -2
  9
$DIMLWE
 70
    -2
  9
$DIMTMOVE
 70
     0
  9
$LUNITS
 70
     2
  9
$LUPREC
 70
     4
  9
$SKETCHINC
 40
0.1
  9
$FILLETRAD
 40
0.5
  9
$AUNITS
 70
     0
  9
$AUPREC
 70
     0
  9
$MENU
  1
.
  9
$ELEVATION
 40
0.0
  9
$PELEVATION
 40
0.0
  9
$THICKNESS
 40
0.0
  9
$LIMCHECK
 70
     0
  9
$CHAMFERA
 40
0.5
  9
$CHAMFERB
 40
0.5
  9
$CHAMFERC
 40
1.0
  9
$CHAMFERD
 40
0.0
  9
$SKPOLY
 70
     0
  9
$TDCREATE
 40
2459636.449787859
  9
$TDUCREATE
 40
2459636.074787859
  9
$TDUPDATE
 40
2459636.44978985
  9
$TDUUPDATE
 40
2459636.07478985
  9
$TDINDWG
 40
0.0000000116
  9
$TDUSRTIMER
 40
0.0000000116
  9
$USRTIMER
 70
     1
  9
$ANGBASE
 50
0.0
  9
$ANGDIR
 70
     0
  9
$PDMODE
 70
     0
  9
$PDSIZE
 40
0.0
  9
$PLINEWID
 40
0.0
  9
$SPLFRAME
 70
     0
  9
$SPLINETYPE
 70
     6
  9
$SPLINESEGS
 70
     8
  9
$HANDSEED
  5
2B6
  9
$SURFTAB1
 70
     6
  9
$SURFTAB2
 70
     6
  9
$SURFTYPE
 70
     6
  9
$SURFU
 70
     6
  9
$SURFV
 70
     6
  9
$UCSBASE
  2

  9
$UCSNAME
  2

  9
$UCSORG
 10
0.0
 20
0.0
 30
0.0
  9
$UCSXDIR
 10
1.0
 20
0.0
 30
0.0
  9
$UCSYDIR
 10
0.0
 20
1.0
 30
0.0
  9
$UCSORTHOREF
  2

  9
$UCSORTHOVIEW
 70
     0
  9
$UCSORGTOP
 10
0.0
 20
0.0
 30
0.0
  9
$UCSORGBOTTOM
 10
0.0
 20
0.0
 30
0.0
  9
$UCSORGLEFT
 10
0.0
 20
0.0
 30
0.0
  9
$UCSORGRIGHT
 10
0.0
 20
0.0
 30
0.0
  9
$UCSORGFRONT
 10
0.0
 20
0.0
 30
0.0
  9
$UCSORGBACK
 10
0.0
 20
0.0
 30
0.0
  9
$PUCSBASE
  2

  9
$PUCSNAME
  2

  9
$PUCSORG
 10
0.0
 20
0.0
 30
0.0
  9
$PUCSXDIR
 10
1.0
 20
0.0
 30
0.0
  9
$PUCSYDIR
 10
0.0
 20
1.0
 30
0.0
  9
$PUCSORTHOREF
  2

  9
$PUCSORTHOVIEW
 70
     0
  9
$PUCSORGTOP
 10
0.0
 20
0.0
 30
0.0
  9
$PUCSORGBOTTOM
 10
0.0
 20
0.0
 30
0.0
  9
$PUCSORGLEFT
 10
0.0
 20
0.0
 30
0.0
  9
$PUCSORGRIGHT
 10
0.0
 20
0.0
 30
0.0
  9
$PUCSORGFRONT
 10
0.0
 20
0.0
 30
0.0
  9
$PUCSORGBACK
 10
0.0
 20
0.0
 30
0.0
  9
$USERI1
 70
     0
  9
$USERI2
 70
     0
  9
$USERI3
 70
     0
  9
$USERI4
 70
     0
  9
$USERI5
 70
     0
  9
$USERR1
 40
18.1
  9
$USERR2
 40
0.0
  9
$USERR3
 40
0.0
  9
$USERR4
 40
0.0
  9
$USERR5
 40
0.0
  9
$WORLDVIEW
 70
     1
  9
$SHADEDGE
 70
     3
  9
$SHADEDIF
 70
    70
  9
$TILEMODE
 70
     1
  9
$MAXACTVP
 70
    64
  9
$PINSBASE
 10
0.0
 20
0.0
 30
0.0
  9
$PLIMCHECK
 70
     0
  9
$PEXTMIN
 10
1.00000000000000E+20
 20
1.00000000000000E+20
 30
1.00000000000000E+20
  9
$PEXTMAX
 10
-1.00000000000000E+20
 20
-1.00000000000000E+20
 30
-1.00000000000000E+20
  9
$PLIMMIN
 10
0.0
 20
0.0
  9
$PLIMMAX
 10
12.0
 20
9.0
  9
$UNITMODE
 70
     0
  9
$VISRETAIN
 70
     1
  9
$PLINEGEN
 70
     0
  9
$PSLTSCALE
 70
     1
  9
$TREEDEPTH
 70
  3020
  9
$CMLSTYLE
  2
Standard
  9
$CMLJUST
 70
     0
  9
$CMLSCALE
 40
1.0
  9
$PROXYGRAPHICS
 70
     1
  9
$MEASUREMENT
 70
     1
  9
$CELWEIGHT
370
    -1
  9
$ENDCAPS
280
     0
  9
$JOINSTYLE
280
     0
  9
$LWDISPLAY
290
     0
  9
$INSUNITS
 70
     4
  9
$HYPERLINKBASE
  1

  9
$STYLESHEET
  1

  9
$XEDIT
290
     1
  9
$CEPSNTYPE
380
     0
  9
$PSTYLEMODE
290
     1
  9
$FINGERPRINTGUID
  2
{CFFBDE64-6F24-4803-8DD0-5F5C57599BE2}
  9
$VERSIONGUID
  2
{FAEB1C32-E019-11D5-929B-00C0DF256EC4}
  9
$EXTNAMES
290
     1
  9
$PSVPSCALE
 40
0.0
  9
$OLESTARTUP
290
     0
  0
ENDSEC
  0
SECTION
  2
CLASSES
  0
CLASS
  1
ACDBDICTIONARYWDFLT
  2
AcDbDictionaryWithDefault
  3
ObjectDBX Classes
 90
        0
280
     0
281
     0
  0
CLASS
  1
VISUALSTYLE
  2
AcDbVisualStyle
  3
ObjectDBX Classes
 90
     4095
280
     0
281
     0
  0
CLASS
  1
MATERIAL
  2
AcDbMaterial
  3
ObjectDBX Classes
 90
     1153
280
     0
281
     0
  0
CLASS
  1
DICTIONARYVAR
  2
AcDbDictionaryVar
  3
ObjectDBX Classes
 90
        0
280
     0
281
     0
  0
CLASS
  1
ACDBPLACEHOLDER
  2
AcDbPlaceHolder
  3
ObjectDBX Classes
 90
        0
280
     0
281
     0
  0
CLASS
  1
LAYOUT
  2
AcDbLayout
  3
ObjectDBX Classes
 90
        0
280
     0
281
     0
  0
ENDSEC
  0
SECTION
  2
TABLES
  0
TABLE
  2
VPORT
  5
8
330
0
100
AcDbSymbolTable
 70
     1
  0
VPORT
  5
29
330
8
100
AcDbSymbolTableRecord
100
AcDbViewportTableRecord
  2
*Active
 70
     0
 10
0.0
 20
0.0
 11
1.0
 21
1.0
 12
105.0
 22
148.5
 13
0.0
 23
0.0
 14
0.5
 24
0.5
 15
0.5
 25
0.5
 16
0.0
 26
0.0
 36
1.0
 17
0.0
 27
0.0
 37
0.0
 40
326.7000000000001
 41
1.60267857142857
 42
50.0
 43
0.0
 44
0.0
 50
0.0
 51
0.0
 71
     0
 72
   100
 73
     1
 74
     3
 75
     0
 76
     0
 77
     0
 78
     0
281
     0
 65
     1
110
0.0
120
0.0
130
0.0
111
1.0
121
0.0
131
0.0
112
0.0
122
1.0
132
0.0
 79
     0
146
0.0
  0
ENDTAB
  0
TABLE
  2
LTYPE
  5
5
330
0
100
AcDbSymbolTable
 70
     8
  0
LTYPE
  5
14
330
5
100
AcDbSymbolTableRecord
100
AcDbLinetypeTableRecord
  2
ByBlock
 70
     0
  3

 72
    65
 73
     0
 40
0.0
  0
LTYPE
  5
15
330
5
100
AcDbSymbolTableRecord
100
AcDbLinetypeTableRecord
  2
ByLayer
 70
     0
  3

 72
    65
 73
     0
 40
0.0
  0
LTYPE
  5
16
330
5
100
AcDbSymbolTableRecord
100
AcDbLinetypeTableRecord
  2
Continuous
 70
     0
  3
Solid line
 72
    65
 73
     0
 40
0.0
  0
LTYPE
  5
3F
330
5
100
AcDbSymbolTableRecord
100
AcDbLinetypeTableRecord
  2
DASHED
 70
     0
  3
Dashed
 72
    65
 73
     2
 40
15.0
 49
7.0
 74
     0
 49
-8.0
 74
     0
  0
LTYPE
  5
40
330
5
100
AcDbSymbolTableRecord
100
AcDbLinetypeTableRecord
  2
DOTTED
 70
     0
  3
Dotted
 72
    65
 73
     2
 40
1.0
 49
0.0
 74
     0
 49
-1.0
 74
     0
  0
LTYPE
  5
41
330
5
100
AcDbSymbolTableRecord
100
AcDbLinetypeTableRecord
  2
DOT_CENTER
 70
     0
  3
Dot_Center
 72
    65
 73
     4
 40
14.0
 49
12.0
 74
     0
 49
-1.0
 74
     0
 49
0.0
 74
     0
 49
-1.0
 74
     0
  0
LTYPE
  5
42
330
5
100
AcDbSymbolTableRecord
100
AcDbLinetypeTableRecord
  2
LONG_DASHED
 70
     0
  3
Long_Dashed
 72
    65
 73
     2
 40
15.0
 49
10.0
 74
     0
 49
-5.0
 74
     0
  0
LTYPE
  5
43
330
5
100
AcDbSymbolTableRecord
100
AcDbLinetypeTableRecord
  2
DASH_CENTER
 70
     0
  3
Dash_Center
 72
    65
 73
     4
 40
14.0
 49
11.0
 74
     0
 49
-1.0
 74
     0
 49
1.0
 74
     0
 49
-1.0
 74
     0
  0
LTYPE
  5
44
330
5
100
AcDbSymbolTableRecord
100
AcDbLinetypeTableRecord
  2
PHANTOM
 70
     0
  3
Phantom
 72
    65
 73
     6
 40
13.0
 49
10.0
 74
     0
 49
-1.0
 74
     0
 49
0.0
 74
     0
 49
-1.0
 74
     0
 49
0.0
 74
     0
 49
-1.0
 74
     0
  0
LTYPE
  5
45
330
5
100
AcDbSymbolTableRecord
100
AcDbLinetypeTableRecord
  2
CENTER_DASH_DASH
 70
     0
  3
Center_Dash_Dash
 72
    65
 73
     6
 40
14.0
 49
9.0
 74
     0
 49
-1.0
 74
     0
 49
1.0
 74
     0
 49
-1.0
 74
     0
 49
1.0
 74
     0
 49
-1.0
 74
     0
  0
ENDTAB
  0
TABLE
  2
LAYER
  5
2
330
0
100
AcDbSymbolTable
 70
     4
  0
LAYER
  5
10
330
2
100
AcDbSymbolTableRecord
100
AcDbLayerTableRecord
  2
0
 70
     0
 62
     7
  6
Continuous
370
    -3
390
F
  0
LAYER
  5
46
330
2
100
AcDbSymbolTableRecord
100
AcDbLayerTableRecord
  2
1
 70
     0
 62
     7
  6
Continuous
370
    -3
390
F
  0
LAYER
  5
47
330
2
100
AcDbSymbolTableRecord
100
AcDbLayerTableRecord
  2
_U_30EC_U_30A4_U_30E4_U_30FC_1
 70
     0
 62
     7
  6
Continuous
370
    -3
390
F
  0
LAYER
  5
48
330
2
100
AcDbSymbolTableRecord
100
AcDbLayerTableRecord
  2
レイヤー_1
 70
     0
 62
     7
  6
Continuous
370
    -3
390
F
  0
ENDTAB
  0
TABLE
  2
STYLE
  5
3
330
0
100
AcDbSymbolTable
 70
     4
  0
STYLE
  5
11
330
3
100
AcDbSymbolTableRecord
100
AcDbTextStyleTableRecord
  2
Standard
 70
     0
 40
0.0
 41
1.0
 50
0.0
 71
     0
 42
0.2
  3
txt
  4

  0
STYLE
  5
BB
330
3
100
AcDbSymbolTableRecord
100
AcDbTextStyleTableRecord
  2
CONVERTER_11
 70
     0
 40
0.0
 41
0.89
 50
0.0
 71
     0
 42
0.2
  3
MS Mincho.ttf
  4

1001
ACAD
1000
MS Mincho
1071
    32785
  0
STYLE
  5
231
330
3
100
AcDbSymbolTableRecord
100
AcDbTextStyleTableRecord
  2
CONVERTER_12
 70
     0
 40
0.0
 41
0.98888888888889
 50
0.0
 71
     0
 42
0.2
  3
MS Mincho.ttf
  4

1001
ACAD
1000
MS Mincho
1071
    32785
  0
STYLE
  5
236
330
3
100
AcDbSymbolTableRecord
100
AcDbTextStyleTableRecord
  2
CONVERTER_13
 70
     0
 40
0.0
 41
0.9
 50
0.0
 71
     0
 42
0.2
  3
txt.shx
  4

  0
ENDTAB
  0
TABLE
  2
VIEW
  5
6
330
0
100
AcDbSymbolTable
 70
     0
  0
ENDTAB
  0
TABLE
  2
UCS
  5
7
330
0
100
AcDbSymbolTable
 70
     0
  0
ENDTAB
  0
TABLE
  2
APPID
  5
9
330
0
100
AcDbSymbolTable
 70
     1
  0
APPID
  5
12
330
9
100
AcDbSymbolTableRecord
100
AcDbRegAppTableRecord
  2
ACAD
 70
     0
  0
ENDTAB
  0
TABLE
  2
DIMSTYLE
  5
A
330
0
100
AcDbSymbolTable
 70
     5
100
AcDbDimStyleTable
  0
DIMSTYLE
105
27
330
A
100
AcDbSymbolTableRecord
100
AcDbDimStyleTableRecord
  2
Standard
 70
     0
178
     0
340
11
  0
DIMSTYLE
105
250
102
{ACAD_REACTORS
330
251
102
}
330
A
100
AcDbSymbolTableRecord
100
AcDbDimStyleTableRecord
  2
ME10_DIM_10
 70
     0
  3
{\Fgdt;n}<>
 41
3.5
 42
0.0
 44
2.0
 73
     0
 74
     0
 77
     1
 78
     8
140
3.0
147
2.0
172
     1
173
     1
174
     1
175
     1
176
     2
177
     2
271
     2
178
     7
271
     2
340
236
  0
DIMSTYLE
105
25B
102
{ACAD_REACTORS
330
25C
102
}
330
A
100
AcDbSymbolTableRecord
100
AcDbDimStyleTableRecord
  2
ME10_DIM_11
 70
     0
  3
{\Fgdt;n}<>
 41
3.5
 42
0.0
 44
2.0
 73
     0
 74
     0
 77
     1
 78
     8
140
3.0
147
2.0
172
     1
173
     1
174
     1
175
     1
176
     2
177
     2
271
     2
178
     7
271
     2
340
236
  0
DIMSTYLE
105
266
102
{ACAD_REACTORS
330
267
102
}
330
A
100
AcDbSymbolTableRecord
100
AcDbDimStyleTableRecord
  2
ME10_DIM_12
 70
     0
  3
{\Fgdt;n}<>
 41
3.5
 42
0.0
 44
2.0
 73
     0
 74
     0
 77
     1
 78
     8
140
3.0
147
2.0
172
     1
173
     1
174
     1
175
     1
176
     2
177
     2
271
     2
178
     7
271
     2
340
236
  0
DIMSTYLE
105
271
102
{ACAD_REACTORS
330
272
102
}
330
A
100
AcDbSymbolTableRecord
100
AcDbDimStyleTableRecord
  2
ME10_DIM_13
 70
     0
 41
3.5
 42
0.0
 44
2.0
 73
     0
 74
     0
 77
     1
 78
     8
140
3.0
147
2.0
172
     1
173
     1
174
     1
175
     1
176
     2
177
     2
271
     2
178
     7
271
     2
340
236
  0
ENDTAB
  0
TABLE
  2
BLOCK_RECORD
  5
1
330
0
100
AcDbSymbolTable
 70
    12
  0
BLOCK_RECORD
  5
1F
330
1
100
AcDbSymbolTableRecord
100
AcDbBlockTableRecord
  2
*Model_Space
340
22
  0
BLOCK_RECORD
  5
1B
330
1
100
AcDbSymbolTableRecord
100
AcDbBlockTableRecord
  2
*Paper_Space
340
1E
  0
BLOCK_RECORD
  5
23
330
1
100
AcDbSymbolTableRecord
100
AcDbBlockTableRecord
  2
*Paper_Space0
340
26
  0
BLOCK_RECORD
  5
49
330
1
100
AcDbSymbolTableRecord
100
AcDbBlockTableRecord
  2
開示A4
340
0
102
{BLKREFS
331
4D
102
}
  0
BLOCK_RECORD
  5
4C
330
1
100
AcDbSymbolTableRecord
100
AcDbBlockTableRecord
  2
開示A4枠
340
0
102
{BLKREFS
331
56
102
}
  0
BLOCK_RECORD
  5
50
330
1
100
AcDbSymbolTableRecord
100
AcDbBlockTableRecord
  2
オーリング
340
0
102
{BLKREFS
331
57
102
}
  0
BLOCK_RECORD
  5
53
330
1
100
AcDbSymbolTableRecord
100
AcDbBlockTableRecord
  2
パッキン
340
0
102
{BLKREFS
331
58
102
}
  0
BLOCK_RECORD
  5
247
330
1
100
AcDbSymbolTableRecord
100
AcDbBlockTableRecord
  2
*D5
340
0
  0
BLOCK_RECORD
  5
252
330
1
100
AcDbSymbolTableRecord
100
AcDbBlockTableRecord
  2
*D6
340
0
  0
BLOCK_RECORD
  5
25D
330
1
100
AcDbSymbolTableRecord
100
AcDbBlockTableRecord
  2
*D7
340
0
  0
BLOCK_RECORD
  5
268
330
1
100
AcDbSymbolTableRecord
100
AcDbBlockTableRecord
  2
*D8
340
0
  0
BLOCK_RECORD
  5
273
330
1
100
AcDbSymbolTableRecord
100
AcDbBlockTableRecord
  2
*D9
340
0
102
{BLKREFS
331
27A
102
}
  0
BLOCK_RECORD
  5
27B
330
1
100
AcDbSymbolTableRecord
100
AcDbBlockTableRecord
  2
*D10
340
0
102
{BLKREFS
331
282
102
}
  0
BLOCK_RECORD
  5
283
330
1
100
AcDbSymbolTableRecord
100
AcDbBlockTableRecord
  2
*D11
340
0
102
{BLKREFS
331
28A
102
}
  0
ENDTAB
  0
ENDSEC
  0
SECTION
  2
BLOCKS
  0
BLOCK
  5
20
330
1F
100
AcDbEntity
  8
0
100
AcDbBlockBegin
  2
*Model_Space
 70
     0
 10
0.0
 20
0.0
 30
0.0
  3
*Model_Space
  1

  0
ENDBLK
  5
21
330
1F
100
AcDbEntity
  8
0
100
AcDbBlockEnd
  0
BLOCK
  5
1C
330
1B
100
AcDbEntity
 67
     1
  8
0
100
AcDbBlockBegin
  2
*Paper_Space
 70
     0
 10
0.0
 20
0.0
 30
0.0
  3
*Paper_Space
  1

  0
ENDBLK
  5
1D
330
1B
100
AcDbEntity
 67
     1
  8
0
100
AcDbBlockEnd
  0
BLOCK
  5
24
330
23
100
AcDbEntity
  8
0
100
AcDbBlockBegin
  2
*Paper_Space0
 70
     0
 10
0.0
 20
0.0
 30
0.0
  3
*Paper_Space0
  1

  0
ENDBLK
  5
25
330
23
100
AcDbEntity
  8
0
100
AcDbBlockEnd
  0
BLOCK
  5
4A
330
49
100
AcDbEntity
  8
0
100
AcDbBlockBegin
  2
開示A4
 70
     0
 10
0.0
 20
-0.00000000000004
 30
0.0
  3
開示A4
  1

  0
POINT
  5
59
330
49
100
AcDbEntity
  8
1
 62
     4
100
AcDbPoint
 10
183.0
 20
14.99999999999997
 30
0.0
  0
POINT
  5
5A
330
49
100
AcDbEntity
  8
1
 62
     4
100
AcDbPoint
 10
93.75
 20
16.99999999999996
 30
0.0
  0
POINT
  5
5B
330
49
100
AcDbEntity
  8
1
 62
     4
100
AcDbPoint
 10
85.25
 20
16.99999999999996
 30
0.0
  0
POINT
  5
5C
330
49
100
AcDbEntity
  8
1
 62
     4
100
AcDbPoint
 10
106.5
 20
18.99999999999997
 30
0.0
  0
POINT
  5
5D
330
49
100
AcDbEntity
  8
1
 62
     4
100
AcDbPoint
 10
106.5
 20
12.49999999999996
 30
0.0
  0
POINT
  5
5E
330
49
100
AcDbEntity
  8
1
 62
     4
100
AcDbPoint
 10
112.25
 20
12.49999999999996
 30
0.0
  0
POINT
  5
5F
330
49
100
AcDbEntity
  8
1
 62
     4
100
AcDbPoint
 10
100.75
 20
12.49999999999996
 30
0.0
  0
POINT
  5
60
330
49
100
AcDbEntity
  8
1
 62
     4
100
AcDbPoint
 10
123.5
 20
18.99999999999997
 30
0.0
  0
POINT
  5
61
330
49
100
AcDbEntity
  8
1
 62
     4
100
AcDbPoint
 10
123.5
 20
12.49999999999996
 30
0.0
  0
POINT
  5
62
330
49
100
AcDbEntity
  8
1
 62
     4
100
AcDbPoint
 10
129.25
 20
12.49999999999996
 30
0.0
  0
POINT
  5
63
330
49
100
AcDbEntity
  8
1
 62
     4
100
AcDbPoint
 10
117.75
 20
12.49999999999996
 30
0.0
  0
POINT
  5
64
330
49
100
AcDbEntity
  8
1
 62
     4
100
AcDbPoint
 10
140.5
 20
18.99999999999997
 30
0.0
  0
POINT
  5
65
330
49
100
AcDbEntity
  8
1
 62
     4
100
AcDbPoint
 10
140.5
 20
12.49999999999996
 30
0.0
  0
POINT
  5
66
330
49
100
AcDbEntity
  8
1
 62
     4
100
AcDbPoint
 10
146.25
 20
12.49999999999996
 30
0.0
  0
POINT
  5
67
330
49
100
AcDbEntity
  8
1
 62
     4
100
AcDbPoint
 10
134.75
 20
12.49999999999996
 30
0.0
  0
POINT
  5
68
330
49
100
AcDbEntity
  8
1
 62
     4
100
AcDbPoint
 10
151.75
 20
12.49999999999996
 30
0.0
  0
POINT
  5
69
330
49
100
AcDbEntity
  8
1
 62
     4
100
AcDbPoint
 10
163.25
 20
12.49999999999996
 30
0.0
  0
POINT
  5
6A
330
49
100
AcDbEntity
  8
1
 62
     4
100
AcDbPoint
 10
157.5
 20
12.49999999999996
 30
0.0
  0
POINT
  5
6B
330
49
100
AcDbEntity
  8
1
 62
     4
100
AcDbPoint
 10
57.0
 20
14.24999999999996
 30
0.0
  0
POINT
  5
6C
330
49
100
AcDbEntity
  8
1
 62
     4
100
AcDbPoint
 10
57.0
 20
22.74999999999997
 30
0.0
  0
POINT
  5
6D
330
49
100
AcDbEntity
  8
1
 62
     4
100
AcDbPoint
 10
47.5
 20
282.0000000000002
 30
0.0
  0
POINT
  5
6E
330
49
100
AcDbEntity
  8
1
 62
     4
100
AcDbPoint
 10
157.5
 20
18.99999999999997
 30
0.0
  0
POINT
  5
6F
330
49
100
AcDbEntity
  8
1
 62
     4
100
AcDbPoint
 10
57.0
 20
16.24999999999996
 30
0.0
  0
POINT
  5
70
330
49
100
AcDbEntity
  8
1
 62
     4
100
AcDbPoint
 10
57.0
 20
24.74999999999997
 30
0.0
  0
POINT
  5
71
330
49
100
AcDbEntity
  8
1
 62
     4
100
AcDbPoint
 10
57.0
 20
20.74999999999997
 30
0.0
  0
POINT
  5
72
330
49
100
AcDbEntity
  8
1
 62
     4
100
AcDbPoint
 10
57.0
 20
12.24999999999996
 30
0.0
  0
POINT
  5
73
330
49
100
AcDbEntity
  8
1
 62
     4
100
AcDbPoint
 10
34.0
 20
33.99999999999996
 30
0.0
  0
LINE
  5
78
330
49
100
AcDbEntity
  8
1
  6
Continuous
 62
     7
100
AcDbLine
 10
105.0
 20
9.99999999999996
 30
0.0
 11
200.0
 21
9.99999999999996
 31
0.0
  0
LINE
  5
79
330
49
100
AcDbEntity
  8
1
  6
Continuous
 62
     2
100
AcDbLine
 10
105.0
 20
9.99999999999996
 30
0.0
 11
105.0
 21
4.99999999999996
 31
0.0
  0
LINE
  5
7A
330
49
100
AcDbEntity
  8
1
  6
Continuous
 62
     7
100
AcDbLine
 10
200.0
 20
148.4999999999999
 30
0.0
 11
200.0
 21
287.0000000000002
 31
0.0
  0
LINE
  5
7B
330
49
100
AcDbEntity
  8
1
  6
Continuous
 62
     2
100
AcDbLine
 10
200.0
 20
148.4999999999999
 30
0.0
 11
205.0
 21
148.4999999999999
 31
0.0
  0
LINE
  5
7C
330
49
100
AcDbEntity
  8
1
  6
Continuous
 62
     7
100
AcDbLine
 10
25.0
 20
148.4999999999999
 30
0.0
 11
25.0
 21
287.0000000000002
 31
0.0
  0
LINE
  5
7D
330
49
100
AcDbEntity
  8
1
  6
Continuous
 62
     2
100
AcDbLine
 10
25.0
 20
148.4999999999999
 30
0.0
 11
20.0
 21
148.4999999999999
 31
0.0
  0
LINE
  5
7E
330
49
100
AcDbEntity
  8
1
  6
Continuous
 62
     7
100
AcDbLine
 10
105.0
 20
287.0000000000002
 30
0.0
 11
25.0
 21
287.0000000000002
 31
0.0
  0
LINE
  5
7F
330
49
100
AcDbEntity
  8
1
  6
Continuous
 62
     2
100
AcDbLine
 10
105.0
 20
287.0000000000002
 30
0.0
 11
105.0
 21
292.0000000000002
 31
0.0
  0
LINE
  5
80
330
49
100
AcDbEntity
  8
1
  6
Continuous
 62
     2
100
AcDbLine
 10
166.0
 20
19.99999999999997
 30
0.0
 11
200.0
 21
19.99999999999997
 31
0.0
  0
LINE
  5
81
330
49
100
AcDbEntity
  8
1
  6
Continuous
 62
     2
100
AcDbLine
 10
98.0
 20
26.99999999999996
 30
0.0
 11
98.0
 21
9.99999999999996
 31
0.0
  0
LINE
  5
82
330
49
100
AcDbEntity
  8
1
  6
Continuous
 62
     2
100
AcDbLine
 10
115.0
 20
26.99999999999996
 30
0.0
 11
115.0
 21
9.99999999999994
 31
0.0
  0
LINE
  5
83
330
49
100
AcDbEntity
  8
1
  6
Continuous
 62
     2
100
AcDbLine
 10
149.0
 20
26.99999999999996
 30
0.0
 11
149.0
 21
9.99999999999996
 31
0.0
  0
LINE
  5
84
330
49
100
AcDbEntity
  8
1
  6
Continuous
 62
     2
100
AcDbLine
 10
132.0
 20
26.99999999999996
 30
0.0
 11
132.0
 21
9.99999999999994
 31
0.0
  0
LINE
  5
85
330
49
100
AcDbEntity
  8
1
  6
Continuous
 62
     2
100
AcDbLine
 10
166.0
 20
26.99999999999996
 30
0.0
 11
166.0
 21
9.99999999999996
 31
0.0
  0
LINE
  5
86
330
49
100
AcDbEntity
  8
1
  6
Continuous
 62
     2
100
AcDbLine
 10
55.0
 20
277.0000000000002
 30
0.0
 11
25.0
 21
277.0000000000002
 31
0.0
  0
LINE
  5
87
330
49
100
AcDbEntity
  8
1
  6
Continuous
 62
     7
100
AcDbLine
 10
25.0
 20
9.99999999999996
 30
0.0
 11
25.0
 21
148.4999999999999
 31
0.0
  0
LINE
  5
88
330
49
100
AcDbEntity
  8
1
  6
Continuous
 62
     2
100
AcDbLine
 10
40.0
 20
287.0000000000002
 30
0.0
 11
40.0
 21
277.0000000000002
 31
0.0
  0
LINE
  5
89
330
49
100
AcDbEntity
  8
1
  6
Continuous
 62
     2
100
AcDbLine
 10
55.0
 20
287.0000000000002
 30
0.0
 11
55.0
 21
277.0000000000002
 31
0.0
  0
LINE
  5
8A
330
49
100
AcDbEntity
  8
1
  6
Continuous
 62
     2
100
AcDbLine
 10
33.0
 20
40.99999999999996
 30
0.0
 11
33.0
 21
26.99999999999996
 31
0.0
  0
LINE
  5
8B
330
49
100
AcDbEntity
  8
1
  6
Continuous
 62
     7
100
AcDbLine
 10
200.0
 20
26.99999999999996
 30
0.0
 11
25.0
 21
26.99999999999996
 31
0.0
  0
LINE
  5
8C
330
49
100
AcDbEntity
  8
1
  6
Continuous
 62
     7
100
AcDbLine
 10
25.0
 20
40.99999999999996
 30
0.0
 11
200.0
 21
40.99999999999996
 31
0.0
  0
LINE
  5
8D
330
49
100
AcDbEntity
  8
1
  6
PHANTOM
 62
     4
100
AcDbLine
 10
0.0
 20
-0.00000000000004
 30
0.0
 11
210.0
 21
-0.00000000000004
 31
0.0
  0
LINE
  5
8E
330
49
100
AcDbEntity
  8
1
  6
PHANTOM
 62
     4
100
AcDbLine
 10
210.0
 20
-0.00000000000004
 30
0.0
 11
210.0
 21
297.0
 31
0.0
  0
LINE
  5
8F
330
49
100
AcDbEntity
  8
1
  6
PHANTOM
 62
     4
100
AcDbLine
 10
210.0
 20
297.0
 30
0.0
 11
0.0
 21
297.0
 31
0.0
  0
LINE
  5
90
330
49
100
AcDbEntity
  8
1
  6
PHANTOM
 62
     4
100
AcDbLine
 10
0.0
 20
297.0
 30
0.0
 11
0.0
 21
-0.00000000000004
 31
0.0
  0
LINE
  5
91
330
49
100
AcDbEntity
  8
1
  6
Continuous
 62
     7
100
AcDbLine
 10
25.0
 20
9.99999999999996
 30
0.0
 11
105.0
 21
9.99999999999996
 31
0.0
  0
LINE
  5
92
330
49
100
AcDbEntity
  8
1
  6
Continuous
 62
     7
100
AcDbLine
 10
200.0
 20
9.99999999999996
 30
0.0
 11
200.0
 21
148.4999999999999
 31
0.0
  0
LINE
  5
93
330
49
100
AcDbEntity
  8
1
  6
Continuous
 62
     7
100
AcDbLine
 10
200.0
 20
287.0000000000002
 30
0.0
 11
105.0
 21
287.0000000000002
 31
0.0
  0
LINE
  5
94
330
49
100
AcDbEntity
  8
1
  6
Continuous
 62
     2
100
AcDbLine
 10
25.0
 20
18.49999999999997
 30
0.0
 11
81.0
 21
18.49999999999997
 31
0.0
  0
LINE
  5
95
330
49
100
AcDbEntity
  8
1
  6
Continuous
 62
     2
100
AcDbLine
 10
33.0
 20
26.99999999999996
 30
0.0
 11
33.0
 21
9.99999999999996
 31
0.0
  0
LINE
  5
96
330
49
100
AcDbEntity
  8
1
  6
Continuous
 62
     7
100
AcDbLine
 10
191.0
 20
24.69999999999997
 30
0.0
 11
191.0
 21
22.29999999999997
 31
0.0
  0
LINE
  5
97
330
49
100
AcDbEntity
  8
1
  6
Continuous
 62
     7
100
AcDbLine
 10
191.0
 20
24.69999999999997
 30
0.0
 11
196.0
 21
25.49999999999996
 31
0.0
  0
LINE
  5
98
330
49
100
AcDbEntity
  8
1
  6
Continuous
 62
     7
100
AcDbLine
 10
196.0
 20
25.49999999999996
 30
0.0
 11
196.0
 21
21.49999999999997
 31
0.0
  0
LINE
  5
99
330
49
100
AcDbEntity
  8
1
  6
Continuous
 62
     7
100
AcDbLine
 10
196.0
 20
21.49999999999997
 30
0.0
 11
191.0
 21
22.29999999999997
 31
0.0
  0
LINE
  5
9A
330
49
100
AcDbEntity
  8
1
  6
DOT_CENTER
 62
     2
100
AcDbLine
 10
184.0
 20
23.49999999999997
 30
0.0
 11
197.0
 21
23.49999999999997
 31
0.0
  0
LINE
  5
9B
330
49
100
AcDbEntity
  8
1
  6
DOT_CENTER
 62
     2
100
AcDbLine
 10
187.0
 20
26.49999999999996
 30
0.0
 11
187.0
 21
20.49999999999997
 31
0.0
  0
LINE
  5
9C
330
49
100
AcDbEntity
  8
1
  6
Continuous
 62
     2
100
AcDbLine
 10
81.0
 20
26.99999999999996
 30
0.0
 11
81.0
 21
9.99999999999996
 31
0.0
  0
CIRCLE
  5
9D
330
49
100
AcDbEntity
  8
1
  6
Continuous
 62
     7
100
AcDbCircle
 10
103.5
 20
12.49999999999996
 30
0.0
 40
0.2999999999999972
  0
CIRCLE
  5
9E
330
49
100
AcDbEntity
  8
1
  6
Continuous
 62
     7
100
AcDbCircle
 10
109.5
 20
12.49999999999996
 30
0.0
 40
0.2999999999999972
  0
CIRCLE
  5
9F
330
49
100
AcDbEntity
  8
1
  6
Continuous
 62
     7
100
AcDbCircle
 10
120.5
 20
12.49999999999996
 30
0.0
 40
0.2999999999999972
  0
CIRCLE
  5
A0
330
49
100
AcDbEntity
  8
1
  6
Continuous
 62
     7
100
AcDbCircle
 10
126.5
 20
12.49999999999996
 30
0.0
 40
0.2999999999999972
  0
CIRCLE
  5
A1
330
49
100
AcDbEntity
  8
1
  6
Continuous
 62
     7
100
AcDbCircle
 10
137.5
 20
12.49999999999996
 30
0.0
 40
0.3000000000000114
  0
CIRCLE
  5
A2
330
49
100
AcDbEntity
  8
1
  6
Continuous
 62
     7
100
AcDbCircle
 10
143.5
 20
12.49999999999996
 30
0.0
 40
0.3000000000000114
  0
CIRCLE
  5
A3
330
49
100
AcDbEntity
  8
1
  6
Continuous
 62
     7
100
AcDbCircle
 10
160.5
 20
12.49999999999996
 30
0.0
 40
0.3000000000000114
  0
CIRCLE
  5
A4
330
49
100
AcDbEntity
  8
1
  6
Continuous
 62
     7
100
AcDbCircle
 10
154.5
 20
12.49999999999996
 30
0.0
 40
0.3000000000000114
  0
CIRCLE
  5
A5
330
49
100
AcDbEntity
  8
1
  6
Continuous
 62
     7
100
AcDbCircle
 10
187.0
 20
23.49999999999997
 30
0.0
 40
1.200000000000102
  0
CIRCLE
  5
A6
330
49
100
AcDbEntity
  8
1
  6
Continuous
 62
     7
100
AcDbCircle
 10
187.0
 20
23.49999999999997
 30
0.0
 40
2.0
  0
CIRCLE
  5
A7
330
49
100
AcDbEntity
  8
1
  6
DOT_CENTER
 62
     7
100
AcDbCircle
 10
89.5
 20
15.99999999999996
 30
0.0
 40
0.1000000000000227
  0
CIRCLE
  5
A8
330
49
100
AcDbEntity
  8
1
  6
DOT_CENTER
 62
     7
100
AcDbCircle
 10
89.5
 20
17.99999999999996
 30
0.0
 40
0.1000000000000227
  0
SPLINE
  5
A9
102
{ACAD_REACTORS
330
C8
102
}
330
49
100
AcDbEntity
  8
_U_30EC_U_30A4_U_30E4_U_30FC_1
  6
Continuous
 62
     2
100
AcDbSpline
210
0.0
220
0.0
230
1.0
 70
     8
 71
     3
 72
    70
 73
    66
 74
    64
 42
0.000000001
 43
0.0000000001
 44
0.00000001
 40
0.0
 40
0.0
 40
0.0
 40
0.0
 40
0.0241731073021472
 40
0.0846058988987013
 40
0.1631685280353284
 40
0.2417311571789756
 40
0.3021639488292751
 40
0.3263370654895541
 40
0.3533118254248899
 40
0.4228783438922076
 40
0.5179999095313367
 40
0.6216398239466031
 40
0.7167613891499599
 40
0.7863279069649792
 40
0.8133026791761729
 40
0.8372943998771567
 40
0.8945054261372762
 40
0.9627895541962532
 40
1.020000580349063
 40
1.043992300975161
 40
1.071934345522888
 40
1.113121768772903
 40
1.145225199332227
 40
1.225483775412759
 40
1.329819923771467
 40
1.434156071994355
 40
1.514414647795773
 40
1.546518078208379
 40
1.578974764260153
 40
1.662678849314148
 40
1.777131373668368
 40
1.901833377474759
 40
2.016285900500549
 40
2.099989982527916
 40
2.132446666570274
 40
2.158782354486
 40
2.216720867907787
 40
2.274659381334212
 40
2.300995069256146
 40
2.333451754066118
 40
2.417155836543799
 40
2.531608358985238
 40
2.656310362283733
 40
2.770762886388866
 40
2.854466971340031
 40
2.886923657363837
 40
2.913597976833271
 40
2.982389642875074
 40
3.07645171694694
 40
3.178937260458554
 40
3.272999334739955
 40
3.341791001059178
 40
3.368465320663491
 40
3.396976080738712
 40
3.472140811845948
 40
3.578408190308638
 40
3.700226892456074
 40
3.822045594634291
 40
3.928312973256398
 40
4.003477705314795
 40
4.031988456866861
 40
4.058324144797663
 40
4.116262658236826
 40
4.174201171400629
 40
4.200536849608563
 40
4.200536849608563
 40
4.200536849608563
 40
4.200536849608563
 10
185.9857704961609
 20
15.75844135397701
 30
0.0
 10
185.9938259544679
 20
15.75844359811683
 30
0.0
 10
186.0220200663241
 20
15.75845146032793
 30
0.0
 10
186.0765534803672
 20
15.75830754828368
 30
0.0
 10
186.1482891808604
 20
15.75909120499894
 30
0.0
 10
186.2236240137062
 20
15.75627570463807
 30
0.0
 10
186.2713052366439
 20
15.76298403400953
 30
0.0
 10
186.3195071245616
 20
15.75197563692428
 30
0.0
 10
186.3062571799873
 20
15.80546402997029
 30
0.0
 10
186.3151093964538
 20
15.86049583543087
 30
0.0
 10
186.3108698036285
 20
15.95419908726105
 30
0.0
 10
186.313348348128
 20
16.04959482218528
 30
0.0
 10
186.3090938706059
 20
16.14356821983382
 30
0.0
 10
186.3179818665846
 20
16.19795062438007
 30
0.0
 10
186.3046977409945
 20
16.25233997691455
 30
0.0
 10
186.3514119277109
 20
16.23842216335353
 30
0.0
 10
186.3943254545736
 20
16.24103877374038
 30
0.0
 10
186.4605443456686
 20
16.2364842245075
 30
0.0
 10
186.5013342271798
 20
16.22778162134156
 30
0.0
 10
186.5525145690819
 20
16.2353179989019
 30
0.0
 10
186.52537204872
 20
16.19349970223281
 30
0.0
 10
186.4803096055707
 20
16.20284992072591
 30
0.0
 10
186.4942065045051
 20
16.13841207371832
 30
0.0
 10
186.4858414431653
 20
16.07378219627394
 30
0.0
 10
186.4903632178398
 20
15.97529141193883
 30
0.0
 10
186.4854741311167
 20
15.87595932842566
 30
0.0
 10
186.4950258992081
 20
15.81293115552965
 30
0.0
 10
186.47997614552
 20
15.74964011499784
 30
0.0
 10
186.5449159457208
 20
15.76515072944266
 30
0.0
 10
186.6116246399496
 20
15.75499387697808
 30
0.0
 10
186.7241435470828
 20
15.75988800099363
 30
0.0
 10
186.8390235448953
 20
15.75691204732779
 30
0.0
 10
186.9519871999747
 20
15.76221664184987
 30
0.0
 10
187.0176267597677
 20
15.75107306472085
 30
0.0
 10
187.0816276691053
 20
15.76744532319853
 30
0.0
 10
187.0703142889189
 20
15.7176168990527
 30
0.0
 10
187.077533987151
 20
15.67416715212119
 30
0.0
 10
187.070314261127
 20
15.63071745587441
 30
0.0
 10
187.0816277175993
 20
15.58088895196873
 30
0.0
 10
187.0176263598972
 20
15.59726166091358
 30
0.0
 10
186.9519921240459
 20
15.58611271661584
 30
0.0
 10
186.838997431733
 20
15.5914485720685
 30
0.0
 10
186.7242456548644
 20
15.58834345663818
 30
0.0
 10
186.611318368686
 20
15.59364894682584
 30
0.0
 10
186.5455220903585
 20
15.5825730001959
 30
0.0
 10
186.4816097975358
 20
15.59887597847613
 30
0.0
 10
186.4936015165126
 20
15.54423524395738
 30
0.0
 10
186.4862104613005
 20
15.48854295047838
 30
0.0
 10
186.4892684841983
 20
15.39649689140566
 30
0.0
 10
186.4893422785683
 20
15.30179109873097
 30
0.0
 10
186.4860313578359
 20
15.20952782902261
 30
0.0
 10
186.4939505989903
 20
15.15435768736135
 30
0.0
 10
186.4815076611618
 20
15.10058169100132
 30
0.0
 10
186.5389116551631
 20
15.11453768862776
 30
0.0
 10
186.5994708140383
 20
15.10511457884222
 30
0.0
 10
186.7048680855081
 20
15.10942885928701
 30
0.0
 10
186.8204294070622
 20
15.10835504612027
 30
0.0
 10
186.9359688877796
 20
15.10725965900991
 30
0.0
 10
187.0414181130841
 20
15.11162525770628
 30
0.0
 10
187.1018680471803
 20
15.10209426030667
 30
0.0
 10
187.1592837739111
 20
15.11617289606375
 30
0.0
 10
187.1477773876708
 20
15.06707153265678
 30
0.0
 10
187.1537566781749
 20
15.02564658018644
 30
0.0
 10
187.1520311050801
 20
14.97651677966691
 30
0.0
 10
187.1521500122971
 20
14.94854428447603
 30
0.0
 10
187.1521871691833
 20
14.93980288195945
 30
0.0
 11
185.9857704961609
 21
15.75844135397701
 31
0.0
 11
186.0099436128282
 21
15.75844135397701
 31
0.0
 11
186.0703764044962
 21
15.75844135397701
 31
0.0
 11
186.1489390336648
 21
15.75844135397701
 31
0.0
 11
186.2275016628334
 21
15.75844135397701
 31
0.0
 11
186.2879344545015
 21
15.75844135397701
 31
0.0
 11
186.3121075711687
 21
15.75844135397701
 31
0.0
 11
186.3121075711687
 21
15.78541612620059
 31
0.0
 11
186.3121075711687
 21
15.85498264404034
 31
0.0
 11
186.3121075711687
 21
15.95010420924981
 31
0.0
 11
186.3121075711687
 21
16.05374412358251
 31
0.0
 11
186.3121075711687
 21
16.14886568879197
 31
0.0
 11
186.3121075711687
 21
16.21843220663173
 31
0.0
 11
186.3121075711687
 21
16.24540697885531
 31
0.0
 11
186.3360407604892
 21
16.24373213107795
 31
0.0
 11
186.3931122119458
 21
16.23973826330116
 31
0.0
 11
186.461229750781
 21
16.2349713888579
 31
0.0
 11
186.5183012022376
 21
16.23097752108112
 31
0.0
 11
186.5422343915581
 21
16.22930267330376
 31
0.0
 11
186.5274972731229
 21
16.20556293372636
 31
0.0
 11
186.4886640249976
 21
16.19183767331307
 31
0.0
 11
186.4886640249976
 21
16.15973424225114
 31
0.0
 11
186.4886640249976
 21
16.07947566459632
 31
0.0
 11
186.4886640249976
 21
15.97513951364504
 31
0.0
 11
186.4886640249976
 21
15.87080336269377
 31
0.0
 11
186.4886640249976
 21
15.79054478503894
 31
0.0
 11
186.4886640249976
 21
15.75844135397701
 31
0.0
 11
186.5211207110824
 21
15.75844135397701
 31
0.0
 11
186.6048247962486
 21
15.75844135397701
 31
0.0
 11
186.7192773208634
 21
15.75844135397701
 31
0.0
 11
186.8439793252946
 21
15.75844135397701
 31
0.0
 11
186.9584318499095
 21
15.75844135397701
 31
0.0
 11
187.0421359350756
 21
15.75844135397701
 31
0.0
 11
187.0745926211604
 21
15.75844135397701
 31
0.0
 11
187.0745926211604
 21
15.73210566604957
 31
0.0
 11
187.0745926211604
 21
15.67416715260921
 31
0.0
 11
187.0745926211604
 21
15.61622863916884
 31
0.0
 11
187.0745926211604
 21
15.5898929512414
 31
0.0
 11
187.0421359350756
 21
15.5898929512414
 31
0.0
 11
186.9584318499095
 21
15.5898929512414
 31
0.0
 11
186.8439793252946
 21
15.5898929512414
 31
0.0
 11
186.7192773208634
 21
15.5898929512414
 31
0.0
 11
186.6048247962485
 21
15.5898929512414
 31
0.0
 11
186.5211207110824
 21
15.5898929512414
 31
0.0
 11
186.4886640249976
 21
15.5898929512414
 31
0.0
 11
186.4886640249976
 21
15.56321863152018
 31
0.0
 11
186.4886640249976
 21
15.49442696487071
 31
0.0
 11
186.4886640249976
 21
15.4003648900643
 31
0.0
 11
186.4886640249976
 21
15.29787934587223
 31
0.0
 11
186.4886640249976
 21
15.20381727106582
 31
0.0
 11
186.4886640249976
 21
15.13502560441635
 31
0.0
 11
186.4886640249976
 21
15.10835128469513
 31
0.0
 11
186.5171747850993
 21
15.10835128469513
 31
0.0
 11
186.5923395162766
 21
15.10835128469513
 31
0.0
 11
186.6986068948376
 21
15.10835128469513
 31
0.0
 11
186.8204255970904
 21
15.10835128469513
 31
0.0
 11
186.9422442993433
 21
15.10835128469513
 31
0.0
 11
187.0485116779043
 21
15.10835128469513
 31
0.0
 11
187.1236764090816
 21
15.10835128469513
 31
0.0
 11
187.1521871691833
 21
15.10835128469513
 31
0.0
 11
187.1521871691833
 21
15.08201559676768
 31
0.0
 11
187.1521871691833
 21
15.02407708332729
 31
0.0
 11
187.1521871691833
 21
14.9661385698869
 31
0.0
 11
187.1521871691833
 21
14.93980288195945
 31
0.0
  0
SPLINE
  5
AA
102
{ACAD_REACTORS
330
C8
102
}
330
49
100
AcDbEntity
  8
_U_30EC_U_30A4_U_30E4_U_30FC_1
  6
Continuous
 62
     2
100
AcDbSpline
210
0.0
220
0.0
230
1.0
 70
     8
 71
     3
 72
    24
 73
    20
 74
    18
 42
0.000000001
 43
0.0000000001
 44
0.00000001
 40
0.0
 40
0.0
 40
0.0
 40
0.0
 40
0.221107500875402
 40
0.4273218586245452
 40
0.5080174679239462
 40
0.5914835907870342
 40
0.8143265690192794
 40
1.054651302686594
 40
1.295452694023183
 40
1.518109231328841
 40
1.540864321905455
 40
1.595126460622717
 40
1.659890947896031
 40
1.714153085187389
 40
1.736908174961689
 40
1.764951100735379
 40
1.801562291220968
 40
1.953914424543646
 40
2.126104167379725
 40
2.126104167379725
 40
2.126104167379725
 40
2.126104167379725
 10
185.9375369556889
 20
15.58989295113013
 30
0.0
 10
185.9112579081812
 20
15.53097628234371
 30
0.0
 10
185.8604698894425
 20
15.41711139679253
 30
0.0
 10
185.8131784839111
 20
15.14441958233111
 30
0.0
 10
185.7043482802619
 20
15.24445482575451
 30
0.0
 10
185.5514800279637
 20
15.27118593367326
 30
0.0
 10
185.7686155181199
 20
15.48518135017628
 30
0.0
 10
185.7838483674381
 20
15.70332117782483
 30
0.0
 10
185.8906889492
 20
15.88451579066421
 30
0.0
 10
185.8305380947079
 20
16.16913226311399
 30
0.0
 10
185.9334317395401
 20
16.14114089222447
 30
0.0
 10
185.977993346815
 20
16.13243251602296
 30
0.0
 10
186.0380842395397
 20
16.12139654183351
 30
0.0
 10
186.0756619587438
 20
16.10767523055555
 30
0.0
 10
186.1252466928606
 20
16.10756076160218
 30
0.0
 10
186.0930158919325
 20
16.07306592398619
 30
0.0
 10
186.0171802221881
 20
16.0840410453796
 30
0.0
 10
186.0429447159693
 20
15.89858969582445
 30
0.0
 10
186.0055896763849
 20
15.80702313549585
 30
0.0
 10
185.9857704961609
 20
15.75844135397701
 30
0.0
 11
185.9375369556889
 21
15.58989295113013
 31
0.0
 11
185.8616471328552
 21
15.38221708318555
 31
0.0
 11
185.7717402238433
 21
15.19663392356188
 31
0.0
 11
185.701149392311
 21
15.23573272563547
 31
0.0
 11
185.6245525192651
 21
15.26889163187715
 31
0.0
 11
185.7214026947455
 21
15.46958801203533
 31
0.0
 11
185.7994641467471
 21
15.69688163177019
 31
0.0
 11
185.858971692972
 21
15.93021436608687
 31
0.0
 11
185.9001601511226
 21
16.1490280899905
 31
0.0
 11
185.9224183822214
 21
16.14429889221391
 31
0.0
 11
185.975495702534
 21
16.13302157443895
 31
0.0
 11
186.0388460525844
 21
16.11956154999788
 31
0.0
 11
186.091923372897
 21
16.10828423222292
 31
0.0
 11
186.1141816039958
 21
16.10355503444633
 31
0.0
 11
186.096409715746
 21
16.08186250841005
 31
0.0
 11
186.0606122998071
 21
16.07418628445363
 31
0.0
 11
186.028195330148
 21
15.92532288171309
 31
0.0
 11
185.9857704961609
 21
15.75844135397701
 31
0.0
  0
SPLINE
  5
AB
102
{ACAD_REACTORS
330
C8
102
}
330
49
100
AcDbEntity
  8
_U_30EC_U_30A4_U_30E4_U_30FC_1
  6
Continuous
 62
     2
100
AcDbSpline
210
0.0
220
0.0
230
1.0
 70
     8
 71
     3
 72
    62
 73
    58
 74
    56
 42
0.000000001
 43
0.0000000001
 44
0.00000001
 40
0.0
 40
0.0
 40
0.0
 40
0.0
 40
0.0598250028308485
 40
0.2024846486897331
 40
0.3727558389221031
 40
0.515415484793607
 40
0.5752404975785339
 40
0.9332326775487186
 40
1.29045176283947
 40
1.602077253145875
 40
1.699931634112126
 40
1.799359756425047
 40
2.27012014965709
 40
2.804661928461544
 40
2.882342287383255
 40
3.076543185719104
 40
3.329004354835564
 40
3.581465524568388
 40
3.77566642454367
 40
3.85334678455829
 40
3.899120679595035
 40
3.984129341792033
 40
4.029903236817382
 40
4.105797496059536
 40
4.295533144152498
 40
4.542189486611739
 40
4.788845828875689
 40
4.978581476410073
 40
5.054475735244316
 40
5.621734664339334
 40
6.130867242037344
 40
6.225249780948589
 40
6.318913039727281
 40
6.663579954558903
 40
7.047498900224753
 40
7.435230791575679
 40
7.498943906668091
 40
7.650875181210084
 40
7.832212509001595
 40
7.984143783696981
 40
8.047856898903108
 40
8.091554632732619
 40
8.172707566964279
 40
8.216405300768004
 40
8.289021782160889
 40
8.462184160757262
 40
8.668861838005343
 40
8.842024215263935
 40
8.91464069547513
 40
8.989881580861336
 40
9.155411528827244
 40
9.320941477744025
 40
9.396182352487278
 40
9.454709011143825
 40
9.58346766017076
 40
9.712226309013039
 40
9.770752957989492
 40
9.770752957989492
 40
9.770752957989492
 40
9.770752957989492
 10
187.1521871691833
 20
14.93980288195945
 30
0.0
 10
187.1322348171623
 20
14.93980875568666
 30
0.0
 10
187.0647037716466
 20
14.93982863806153
 30
0.0
 10
186.9410612161788
 20
14.93949362520321
 30
0.0
 10
186.7863180150056
 20
14.94107673750507
 30
0.0
 10
186.669734948248
 20
14.93686078860491
 30
0.0
 10
186.455094263424
 20
14.95215205331621
 30
0.0
 10
186.8518948407228
 20
14.59198721286188
 30
0.0
 10
186.8945656069267
 20
14.37510503397162
 30
0.0
 10
187.3189162146612
 20
14.19325062511441
 30
0.0
 10
187.1439821496073
 20
14.08985196568067
 30
0.0
 10
187.0194523925085
 20
13.87831523212719
 30
0.0
 10
186.7666277235942
 20
14.34806081001558
 30
0.0
 10
186.4797602893626
 20
14.99511516984516
 30
0.0
 10
186.490633592666
 20
14.68782672154689
 30
0.0
 10
186.488289277796
 20
14.52288616971774
 30
0.0
 10
186.4861096126411
 20
14.28879670711689
 30
0.0
 10
186.4980774396346
 20
14.04498072421779
 30
0.0
 10
186.4687984740631
 20
13.89855796860981
 30
0.0
 10
186.511452262547
 20
13.75113490174534
 30
0.0
 10
186.423981400564
 20
13.76685797306216
 30
0.0
 10
186.3768527606744
 20
13.7669430354345
 30
0.0
 10
186.2898973207713
 20
13.75109425482905
 30
0.0
 10
186.3313474021722
 20
13.89527771422758
 30
0.0
 10
186.3029875004285
 20
14.03855052698451
 30
0.0
 10
186.3145973775299
 20
14.27674947365261
 30
0.0
 10
186.3124175648272
 20
14.50517235240342
 30
0.0
 10
186.3103111127993
 20
14.6670572937599
 30
0.0
 10
186.3208035438324
 20
14.98153709333749
 30
0.0
 10
186.0128963252893
 20
14.29229470872431
 30
0.0
 10
185.7055258267456
 20
13.81476750243049
 30
0.0
 10
185.5851367066274
 20
14.03741112637423
 30
0.0
 10
185.4074607910721
 20
14.15011034955562
 30
0.0
 10
185.8853326362895
 20
14.32548143465457
 30
0.0
 10
185.9353959057208
 20
14.56091929252026
 30
0.0
 10
186.3583799621717
 20
14.95322989344603
 30
0.0
 10
186.127675427354
 20
14.9365530702906
 30
0.0
 10
186.004968585934
 20
14.94269518948765
 30
0.0
 10
185.8325483095662
 20
14.93312822699569
 30
0.0
 10
185.7213224694449
 20
14.95448818489661
 30
0.0
 10
185.6025779627447
 20
14.92136265357414
 30
0.0
 10
185.6183169706686
 20
15.00203900606879
 30
0.0
 10
185.6178550933763
 20
15.04645414290849
 30
0.0
 10
185.6027881889931
 20
15.12967081778529
 30
0.0
 10
185.7372380935443
 20
15.09062651983878
 30
0.0
 10
185.8619755545747
 20
15.11739729328418
 30
0.0
 10
186.062875523728
 20
15.10063949044047
 30
0.0
 10
186.1921540949352
 20
15.12204225913
 30
0.0
 10
186.3328419928295
 20
15.08868778853416
 30
0.0
 10
186.2980927452614
 20
15.22651875785063
 30
0.0
 10
186.3222185666713
 20
15.34963257349477
 30
0.0
 10
186.2967086182392
 20
15.47024055670331
 30
0.0
 10
186.3333251146685
 20
15.60539865141491
 30
0.0
 10
186.2211417027769
 20
15.58094545781886
 30
0.0
 10
186.1280356457136
 20
15.59307749842019
 30
0.0
 10
186.0191547579819
 20
15.58957630069989
 30
0.0
 10
185.9569697640964
 20
15.58981755951599
 30
0.0
 10
185.9375369557246
 20
15.5898929512414
 30
0.0
 11
187.1521871691833
 21
14.93980288195945
 31
0.0
 11
187.0923621563982
 21
14.93980288195945
 31
0.0
 11
186.949702510526
 21
14.93980288195945
 31
0.0
 11
186.7794313202913
 21
14.93980288195945
 31
0.0
 11
186.6367716744191
 21
14.93980288195945
 31
0.0
 11
186.576946661634
 21
14.93980288195945
 31
0.0
 11
186.7679960754842
 21
14.63705127966887
 31
0.0
 11
186.994127278563
 21
14.3605189057668
 31
0.0
 11
187.2244526173371
 21
14.15061253493452
 31
0.0
 11
187.1521596330704
 21
14.08466403668712
 31
0.0
 11
187.0879364402643
 21
14.00876059052555
 31
0.0
 11
186.7732818215558
 21
14.35891458349358
 31
0.0
 11
186.4886640249976
 21
14.81138295143596
 31
0.0
 11
186.4886640249976
 21
14.73370259137308
 31
0.0
 11
186.4886640249976
 21
14.53950169121588
 31
0.0
 11
186.4886640249976
 21
14.28704052101152
 31
0.0
 11
186.4886640249976
 21
14.03457935080716
 31
0.0
 11
186.4886640249976
 21
13.84037845064996
 31
0.0
 11
186.4886640249976
 21
13.76269809058708
 31
0.0
 11
186.4428901295605
 21
13.76269809058708
 31
0.0
 11
186.3578814666058
 21
13.76269809058708
 31
0.0
 11
186.3121075711687
 21
13.76269809058708
 31
0.0
 11
186.3121075711687
 21
13.83859234982736
 31
0.0
 11
186.3121075711687
 21
14.02832799792807
 31
0.0
 11
186.3121075711687
 21
14.27498434045899
 31
0.0
 11
186.3121075711687
 21
14.52164068298992
 31
0.0
 11
186.3121075711687
 21
14.71137633109063
 31
0.0
 11
186.3121075711687
 21
14.78727059033091
 31
0.0
 11
185.9987626399266
 21
14.31440946197689
 31
0.0
 11
185.6352328662148
 21
13.95795177109378
 31
0.0
 11
185.5773927461627
 21
14.03253450545018
 31
0.0
 11
185.5094852305341
 21
14.09704322939238
 31
0.0
 11
185.7750721898319
 21
14.31672219795886
 31
0.0
 11
186.0233764972061
 21
14.60953395971693
 31
0.0
 11
186.226498280526
 21
14.93980288195945
 31
0.0
 11
186.1627851652721
 21
14.93980288195945
 31
0.0
 11
186.0108538904359
 21
14.93980288195945
 31
0.0
 11
185.8295165624055
 21
14.93980288195945
 31
0.0
 11
185.6775852875693
 21
14.93980288195945
 31
0.0
 11
185.6138721723154
 21
14.93980288195945
 31
0.0
 11
185.6138721723154
 21
14.98350061600204
 31
0.0
 11
185.6138721723154
 21
15.06465355065255
 31
0.0
 11
185.6138721723154
 21
15.10835128469513
 31
0.0
 11
185.6864886537961
 21
15.10835128469513
 31
0.0
 11
185.8596510327118
 21
15.10835128469513
 31
0.0
 11
186.0663287107723
 21
15.10835128469513
 31
0.0
 11
186.239491089688
 21
15.10835128469513
 31
0.0
 11
186.3121075711687
 21
15.10835128469513
 31
0.0
 11
186.3121075711687
 21
15.18359217009299
 31
0.0
 11
186.3121075711687
 21
15.34912211796827
 31
0.0
 11
186.3121075711687
 21
15.51465206584354
 31
0.0
 11
186.3121075711687
 21
15.5898929512414
 31
0.0
 11
186.2535809125055
 21
15.5898929512414
 31
0.0
 11
186.1248222634467
 21
15.5898929512414
 31
0.0
 11
185.9960636143877
 21
15.5898929512414
 31
0.0
 11
185.9375369557246
 21
15.5898929512414
 31
0.0
  0
SPLINE
  5
AC
102
{ACAD_REACTORS
330
C9
102
}
330
49
100
AcDbEntity
  8
_U_30EC_U_30A4_U_30E4_U_30FC_1
  6
Continuous
 62
     2
100
AcDbSpline
210
0.0
220
0.0
230
1.0
 70
    11
 71
     3
 72
   124
 73
   120
 74
   118
 42
0.000000001
 43
0.0000000001
 44
0.00000001
 40
0.0
 40
0.0
 40
0.0
 40
0.0
 40
0.027818722962451
 40
0.1011590162384269
 40
0.2048470170590239
 40
0.3237088716559245
 40
0.4425707262522
 40
0.5462587270699547
 40
0.6195990203311798
 40
0.647417752257866
 40
0.6750060736115207
 40
0.7357003855242759
 40
0.7963946998054474
 40
0.8239830245571766
 40
0.854093381110286
 40
0.937339662940954
 40
1.063094687343235
 40
1.220731268638073
 40
1.399622220914748
 40
1.589140358637732
 40
1.778658496423898
 40
1.957549448940509
 40
2.115186030873159
 40
2.240941056914463
 40
2.324187341760532
 40
2.354297700109382
 40
2.381886024671888
 40
2.442580338710475
 40
2.503274652750499
 40
2.530862977314606
 40
2.560983949278559
 40
2.640393784452905
 40
2.752662861759128
 40
2.881361560118145
 40
3.010060258455192
 40
3.122329335705339
 40
3.201739170817953
 40
3.231860142753313
 40
3.264298024030368
 40
3.352343701778239
 40
3.482095226868762
 40
3.639650650173022
 40
3.811108022565478
 40
3.982565394927986
 40
4.140120818152567
 40
4.269872343141274
 40
4.357918020802338
 40
4.390355902043965
 40
4.423256253992535
 40
4.508104530073056
 40
4.624121560636824
 40
4.750528176031581
 40
4.866545206602027
 40
4.951393482691985
 40
4.984293834645386
 40
5.011450833242303
 40
5.071196230152085
 40
5.130941627057163
 40
5.158098625648829
 40
5.190998977601519
 40
5.275847253689345
 40
5.391864284256779
 40
5.518270899648324
 40
5.634287930209363
 40
5.719136206288037
 40
5.752036558235925
 40
5.78213094628295
 40
5.862783906229123
 40
5.979550131774992
 40
6.117984316640396
 40
6.263641154587943
 40
6.402075339414149
 40
6.518841564907945
 40
6.599494524815527
 40
6.629588912848765
 40
6.654403028226342
 40
6.713575149488109
 40
6.784199939329426
 40
6.843372060493528
 40
6.868186175802774
 40
6.896246243201863
 40
6.939586233758259
 40
6.967846564564891
 40
7.043584251089825
 40
7.153234334451682
 40
7.283231855734432
 40
7.420011856035462
 40
7.55000937657981
 40
7.659659458835211
 40
7.735397144417204
 40
7.763657474851374
 40
7.796409728011032
 40
7.880876065096306
 40
7.996370852465692
 40
8.122208446418586
 40
8.23770322479918
 40
8.322169562010874
 40
8.354921815205888
 40
8.38207881330767
 40
8.441824209206974
 40
8.501569605240123
 40
8.528726603485703
 40
8.561478856695752
 40
8.645945193877802
 40
8.761439980865314
 40
8.887277580764456
 40
9.002772362000977
 40
9.087238696661197
 40
9.119990949235651
 40
9.15242883061335
 40
9.240474508638567
 40
9.370226034149516
 40
9.5277814579844
 40
9.699238830981388
 40
9.870696203978579
 40
10.028251627814
 40
10.15800315332562
 40
10.24604883135117
 40
10.27848670378519
 40
10.27848670378519
 40
10.27848670378519
 40
10.27848670378519
 10
195.3821827564383
 20
14.01410517385753
 30
0.0
 10
195.3914554737523
 20
14.0141049851127
 30
0.0
 10
195.4251744536861
 20
14.0141043087671
 30
0.0
 10
195.4934706812465
 20
14.01411807243301
 30
0.0
 10
195.592014171158
 20
14.0140322421954
 30
0.0
 10
195.7062066464812
 20
14.01441755612247
 30
0.0
 10
195.818589441707
 20
14.01300835897541
 30
0.0
 10
195.9214376600118
 20
14.01719117422239
 30
0.0
 10
195.9806839874849
 20
14.00823089251979
 30
0.0
 10
196.0371265937032
 20
14.02164434526057
 30
0.0
 10
196.0246255586956
 20
13.97087198613357
 30
0.0
 10
196.0329549635703
 20
13.92589320939063
 30
0.0
 10
196.024817084112
 20
13.88056752990484
 30
0.0
 10
196.0370529214457
 20
13.82931932408462
 30
0.0
 10
195.9747773490333
 20
13.84447955365272
 30
0.0
 10
195.9060513026868
 20
13.83359750710738
 30
0.0
 10
195.7782756749592
 20
13.83911304747969
 30
0.0
 10
195.6262984511643
 20
13.83700851253694
 30
0.0
 10
195.4502695972523
 20
13.8377100258847
 30
0.0
 10
195.2644431934287
 20
13.83745237531287
 30
0.0
 10
195.0786167437175
 20
13.83771005144599
 30
0.0
 10
194.9025880142168
 20
13.83700841847727
 30
0.0
 10
194.7506104154195
 20
13.83911332229985
 30
0.0
 10
194.6228357664554
 20
13.83359680767636
 30
0.0
 10
194.554107783658
 20
13.84448077125938
 30
0.0
 10
194.4918349042883
 20
13.82931786684205
 30
0.0
 10
194.5040616290017
 20
13.88057510805167
 30
0.0
 10
194.4960004462597
 20
13.92582473272421
 30
0.0
 10
194.5040675809892
 20
13.97106357955319
 30
0.0
 10
194.4918238487084
 20
14.02234176909954
 30
0.0
 10
194.5525017120697
 20
14.00749577363131
 30
0.0
 10
194.6162810745736
 20
14.01756448170731
 30
0.0
 10
194.7277314353502
 20
14.01294644211995
 30
0.0
 10
194.8497533443824
 20
14.01413328905465
 30
0.0
 10
194.9719538137823
 20
14.01515863900631
 30
0.0
 10
195.0829794287392
 20
14.01092475623397
 30
0.0
 10
195.1476517413958
 20
14.02018584521735
 30
0.0
 10
195.2091162810501
 20
14.00604423049678
 30
0.0
 10
195.1930065601337
 20
14.07235527884513
 30
0.0
 10
195.2042980327358
 20
14.14447790121971
 30
0.0
 10
195.198740082256
 20
14.27513760888282
 30
0.0
 10
195.200803506169
 20
14.42607323708237
 30
0.0
 10
195.2000167127295
 20
14.59335873107882
 30
0.0
 10
195.2007845215628
 20
14.76061110332298
 30
0.0
 10
195.1988038785628
 20
14.9116328926991
 30
0.0
 10
195.2041306156621
 20
15.0420606955299
 30
0.0
 10
195.1933101388425
 20
15.11465442605895
 30
0.0
 10
195.2090326429876
 20
15.18150469436794
 30
0.0
 10
195.143270813249
 20
15.1658051249082
 30
0.0
 10
195.0756367830764
 20
15.17609243083991
 30
0.0
 10
194.9615885293809
 20
15.17113786847118
 30
0.0
 10
194.8451242674902
 20
15.1741412803047
 30
0.0
 10
194.7306554121477
 20
15.16880303143385
 30
0.0
 10
194.6640324657812
 20
15.18001268074821
 30
0.0
 10
194.5990769715185
 20
15.16349132665007
 30
0.0
 10
194.6107989758708
 20
15.21473720477055
 30
0.0
 10
194.6032830189121
 20
15.25950333784086
 30
0.0
 10
194.6107989878835
 20
15.30426944897957
 30
0.0
 10
194.5990769505347
 20
15.35551536129737
 30
0.0
 10
194.66403263392
 20
15.3389938176681
 30
0.0
 10
194.7306533339821
 20
15.3502057137394
 30
0.0
 10
194.8451352858063
 20
15.3448543671066
 30
0.0
 10
194.9615454436962
 20
15.34791188771113
 30
0.0
 10
195.0757660174641
 20
15.34278499010704
 30
0.0
 10
195.1430150439226
 20
15.35345733355594
 30
0.0
 10
195.2083325941438
 20
15.33742082669073
 30
0.0
 10
195.1941391448553
 20
15.3994968575005
 30
0.0
 10
195.2036059462995
 20
15.46586761628758
 30
0.0
 10
195.1990269004085
 20
15.58239972741962
 30
0.0
 10
195.2007696555948
 20
15.71426685022371
 30
0.0
 10
195.1997551495391
 20
15.85615960150269
 30
0.0
 10
195.2017191344373
 20
15.98769050702576
 30
0.0
 10
195.196466855385
 20
16.10524577282998
 30
0.0
 10
195.2073408763475
 20
16.1694778900158
 30
0.0
 10
195.1919536641853
 20
16.23108802545043
 30
0.0
 10
195.24075915378
 20
16.21702407382107
 30
0.0
 10
195.2853995564726
 20
16.2195474207531
 30
0.0
 10
195.3538643946743
 20
16.21512797401706
 30
0.0
 10
195.3959106169102
 20
16.20613025544031
 30
0.0
 10
195.4487544758775
 20
16.21411714866507
 30
0.0
 10
195.4207035002013
 20
16.17113917611668
 30
0.0
 10
195.3749142248594
 20
16.18259552043832
 30
0.0
 10
195.3869539073264
 20
16.12173520005132
 30
0.0
 10
195.3796086070641
 20
16.05769299468768
 30
0.0
 10
195.3831195826162
 20
15.94909368863906
 30
0.0
 10
195.3819806760173
 20
15.82494319144748
 30
0.0
 10
195.3819174780263
 20
15.69189719829873
 30
0.0
 10
195.3832872966867
 20
15.56797381249551
 30
0.0
 10
195.3791638801313
 20
15.45868337849334
 30
0.0
 10
195.3877763103564
 20
15.39608580094165
 30
0.0
 10
195.3746757454402
 20
15.33740133296362
 30
0.0
 10
195.4393884328198
 20
15.35362113810897
 30
0.0
 10
195.5060405953156
 20
15.34270260383308
 30
0.0
 10
195.6198779541102
 20
15.34793740173751
 30
0.0
 10
195.7357259122097
 20
15.3448554751691
 30
0.0
 10
195.849692426328
 20
15.35018259812507
 30
0.0
 10
195.9160341018099
 20
15.33904208166539
 30
0.0
 10
195.980718852548
 20
15.35546979593174
 30
0.0
 10
195.9689820772722
 20
15.30425925210046
 30
0.0
 10
195.9765168063041
 20
15.25950334120997
 30
0.0
 10
195.9689820992257
 20
15.21474739010023
 30
0.0
 10
195.9807188140737
 20
15.16353690871036
 30
0.0
 10
195.9160344075252
 20
15.17996427794215
 30
0.0
 10
195.8496886430824
 20
15.16882784447266
 30
0.0
 10
195.7357459487012
 20
15.17413115893116
 30
0.0
 10
195.6197995623054
 20
15.1711476459354
 30
0.0
 10
195.5062756882122
 20
15.17606892268389
 30
0.0
 10
195.4389231318804
 20
15.16585087513515
 30
0.0
 10
195.3734285122495
 20
15.18145996138812
 30
0.0
 10
195.3891713619218
 20
15.11463851827407
 30
0.0
 10
195.3783275998213
 20
15.04207057815874
 30
0.0
 10
195.3836581629792
 20
14.91162247614412
 30
0.0
 10
195.3817136151854
 20
14.76064558185221
 30
0.0
 10
195.3823133683215
 20
14.59322243934154
 30
0.0
 10
195.3821506559604
 20
14.42656176118367
 30
0.0
 10
195.3821895488136
 20
14.27360142921632
 30
0.0
 10
195.3821816413099
 20
14.14849178985702
 30
0.0
 10
195.3821828382744
 20
14.06507890991415
 30
0.0
 10
195.3821827716208
 20
14.02491778281972
 30
0.0
 10
195.3821827564383
 20
14.01410517385753
 30
0.0
 11
195.3821827564383
 21
14.01410517385753
 31
0.0
 11
195.4100014883675
 21
14.01410517385753
 31
0.0
 11
195.4833417816353
 21
14.01410517385753
 31
0.0
 11
195.5870297824622
 21
14.01410517385753
 31
0.0
 11
195.7058916370687
 21
14.01410517385753
 31
0.0
 11
195.8247534916751
 21
14.01410517385753
 31
0.0
 11
195.928441492502
 21
14.01410517385753
 31
0.0
 11
196.0017817857698
 21
14.01410517385753
 31
0.0
 11
196.029600517699
 21
14.01410517385753
 31
0.0
 11
196.029600517699
 21
13.98651684921166
 31
0.0
 11
196.029600517699
 21
13.92582253499073
 31
0.0
 11
196.029600517699
 21
13.8651282207698
 31
0.0
 11
196.029600517699
 21
13.83753989612393
 31
0.0
 11
195.9994901593494
 21
13.83753989612393
 31
0.0
 11
195.9162438745004
 21
13.83753989612393
 31
0.0
 11
195.7904888484521
 21
13.83753989612393
 31
0.0
 11
195.6328522665041
 21
13.83753989612393
 31
0.0
 11
195.4539613139564
 21
13.83753989612393
 31
0.0
 11
195.2644431761089
 21
13.83753989612393
 31
0.0
 11
195.0749250382613
 21
13.83753989612393
 31
0.0
 11
194.8960340857136
 21
13.83753989612393
 31
0.0
 11
194.7383975037656
 21
13.83753989612393
 31
0.0
 11
194.6126424777172
 21
13.83753989612393
 31
0.0
 11
194.5293961928683
 21
13.83753989612393
 31
0.0
 11
194.4992858345187
 21
13.83753989612393
 31
0.0
 11
194.4992858345187
 21
13.8651282207698
 31
0.0
 11
194.4992858345187
 21
13.92582253499073
 31
0.0
 11
194.4992858345187
 21
13.98651684921166
 31
0.0
 11
194.4992858345187
 21
14.01410517385753
 31
0.0
 11
194.5294068064947
 21
14.01410517385753
 31
0.0
 11
194.608816641704
 21
14.01410517385753
 31
0.0
 11
194.721085719069
 21
14.01410517385753
 31
0.0
 11
194.8497844175118
 21
14.01410517385753
 31
0.0
 11
194.9784831159545
 21
14.01410517385753
 31
0.0
 11
195.0907521933195
 21
14.01410517385753
 31
0.0
 11
195.1701620285289
 21
14.01410517385753
 31
0.0
 11
195.2002830005048
 21
14.01410517385753
 31
0.0
 11
195.2002830005048
 21
14.04654305523831
 31
0.0
 11
195.2002830005048
 21
14.13458873327186
 31
0.0
 11
195.2002830005048
 21
14.26434025879498
 31
0.0
 11
195.2002830005048
 21
14.42189568264449
 31
0.0
 11
195.2002830005048
 21
14.59335305565719
 31
0.0
 11
195.2002830005048
 21
14.7648104286699
 31
0.0
 11
195.2002830005048
 21
14.92236585251941
 31
0.0
 11
195.2002830005048
 21
15.05211737804253
 31
0.0
 11
195.2002830005048
 21
15.14016305607608
 31
0.0
 11
195.2002830005048
 21
15.17260093745686
 31
0.0
 11
195.1673826485529
 21
15.17260093745686
 31
0.0
 11
195.0825343724662
 21
15.17260093745686
 31
0.0
 11
194.9665173418988
 21
15.17260093745686
 31
0.0
 11
194.8401107265044
 21
15.17260093745686
 31
0.0
 11
194.724093695937
 21
15.17260093745686
 31
0.0
 11
194.6392454198503
 21
15.17260093745686
 31
0.0
 11
194.6063450678984
 21
15.17260093745686
 31
0.0
 11
194.6063450678984
 21
15.19975793614799
 31
0.0
 11
194.6063450678984
 21
15.25950333326846
 31
0.0
 11
194.6063450678984
 21
15.31924873038894
 31
0.0
 11
194.6063450678984
 21
15.34640572908006
 31
0.0
 11
194.6392454198504
 21
15.34640572908006
 31
0.0
 11
194.724093695937
 21
15.34640572908006
 31
0.0
 11
194.8401107265044
 21
15.34640572908006
 31
0.0
 11
194.9665173418988
 21
15.34640572908006
 31
0.0
 11
195.0825343724662
 21
15.34640572908006
 31
0.0
 11
195.1673826485529
 21
15.34640572908006
 31
0.0
 11
195.2002830005048
 21
15.34640572908006
 31
0.0
 11
195.2002830005048
 21
15.37650011731366
 31
0.0
 11
195.2002830005048
 21
15.45715307777969
 31
0.0
 11
195.2002830005048
 21
15.57391930412605
 31
0.0
 11
195.2002830005048
 21
15.71235349000059
 31
0.0
 11
195.2002830005048
 21
15.8580103290512
 31
0.0
 11
195.2002830005048
 21
15.99644451492574
 31
0.0
 11
195.2002830005048
 21
16.1132107412721
 31
0.0
 11
195.2002830005048
 21
16.19386370173813
 31
0.0
 11
195.2002830005048
 21
16.22395808997173
 31
0.0
 11
195.2250405288618
 21
16.22228324219438
 31
0.0
 11
195.2840777118669
 21
16.21828937441761
 31
0.0
 11
195.3545414464214
 21
16.21352249997437
 31
0.0
 11
195.4135786294265
 21
16.20952863219761
 31
0.0
 11
195.4383361577835
 21
16.20785378442025
 31
0.0
 11
195.423306722403
 21
16.18415814206505
 31
0.0
 11
195.3821827564383
 21
16.17047697887399
 31
0.0
 11
195.3821827564383
 21
16.14221664794827
 31
0.0
 11
195.3821827564383
 21
16.06647896106735
 31
0.0
 11
195.3821827564383
 21
15.95682887707556
 31
0.0
 11
195.3821827564383
 21
15.82683135481726
 31
0.0
 11
195.3821827564383
 21
15.69005135313679
 31
0.0
 11
195.3821827564383
 21
15.56005383087849
 31
0.0
 11
195.3821827564383
 21
15.4504037468867
 31
0.0
 11
195.3821827564383
 21
15.37466606000578
 31
0.0
 11
195.3821827564383
 21
15.34640572908006
 31
0.0
 11
195.4149350096115
 21
15.34640572908006
 31
0.0
 11
195.4994013467422
 21
15.34640572908006
 31
0.0
 11
195.6148961342476
 21
15.34640572908006
 31
0.0
 11
195.7407337385445
 21
15.34640572908006
 31
0.0
 11
195.8562285260498
 21
15.34640572908006
 31
0.0
 11
195.9406948631806
 21
15.34640572908006
 31
0.0
 11
195.9734471163538
 21
15.34640572908006
 31
0.0
 11
195.9734471163538
 21
15.31924873038893
 31
0.0
 11
195.9734471163538
 21
15.25950333326846
 31
0.0
 11
195.9734471163538
 21
15.19975793614799
 31
0.0
 11
195.9734471163538
 21
15.17260093745686
 31
0.0
 11
195.9406948631806
 21
15.17260093745686
 31
0.0
 11
195.8562285260498
 21
15.17260093745686
 31
0.0
 11
195.7407337385445
 21
15.17260093745686
 31
0.0
 11
195.6148961342476
 21
15.17260093745686
 31
0.0
 11
195.4994013467422
 21
15.17260093745686
 31
0.0
 11
195.4149350096114
 21
15.17260093745686
 31
0.0
 11
195.3821827564383
 21
15.17260093745686
 31
0.0
 11
195.3821827564383
 21
15.14016305607608
 31
0.0
 11
195.3821827564383
 21
15.05211737804253
 31
0.0
 11
195.3821827564383
 21
14.92236585251941
 31
0.0
 11
195.3821827564383
 21
14.7648104286699
 31
0.0
 11
195.3821827564383
 21
14.59335305565719
 31
0.0
 11
195.3821827564383
 21
14.42189568264449
 31
0.0
 11
195.3821827564383
 21
14.26434025879499
 31
0.0
 11
195.3821827564383
 21
14.13458873327186
 31
0.0
 11
195.3821827564383
 21
14.04654305523831
 31
0.0
 11
195.3821827564383
 21
14.01410517385753
 31
0.0
  0
SPLINE
  5
AD
102
{ACAD_REACTORS
330
CA
102
}
330
49
100
AcDbEntity
  8
_U_30EC_U_30A4_U_30E4_U_30FC_1
  6
Continuous
 62
     2
100
AcDbSpline
210
0.0
220
0.0
230
1.0
 70
    11
 71
     3
 72
   131
 73
   127
 74
   125
 42
0.000000001
 43
0.0000000001
 44
0.00000001
 40
0.0
 40
0.0
 40
0.0
 40
0.0
 40
0.0195577029826156
 40
0.042649053746146
 40
0.2863607575856616
 40
0.5344948436189341
 40
0.7842238845573267
 40
0.8737315789467432
 40
0.9803832810312908
 40
1.092842274517035
 40
1.199761146656793
 40
1.289788768186497
 40
1.351573580786192
 40
1.37072711756142
 40
1.416400936017832
 40
1.470914848355972
 40
1.516588666791765
 40
1.535742203552844
 40
1.634216592293193
 40
1.760283341175027
 40
1.897966686682088
 40
2.031216387368909
 40
2.049689751137901
 40
2.101115601646837
 40
2.179502577739953
 40
2.278859318314069
 40
2.393194462258726
 40
2.516516648383838
 40
2.642834515405963
 40
2.766156701983465
 40
2.88049184675458
 40
2.979848588358619
 40
3.058235565443796
 40
3.10966141666895
 40
3.128134780704126
 40
3.146783742386443
 40
3.191254343315304
 40
3.244332157315962
 40
3.288802758225866
 40
3.307451719895109
 40
3.327717853844722
 40
3.383747753580081
 40
3.468388665924473
 40
3.574487837698779
 40
3.694892515728884
 40
3.822449946852021
 40
3.95000737792041
 40
4.070412055800503
 40
4.176511227368058
 40
4.261152139501505
 40
4.317182039076696
 40
4.337448172964617
 40
4.620011002696233
 40
4.885096638397503
 40
4.945373043518323
 40
5.014107710488637
 40
5.070481727652033
 40
5.319246955636556
 40
5.58481216450603
 40
5.859000912056882
 40
6.133746937542063
 40
6.401732212968867
 40
6.420736683995458
 40
6.472845717451109
 40
6.550702743894036
 40
6.646951193874245
 40
6.754234497930569
 40
6.865196086587347
 40
6.972479390357806
 40
7.068727839771968
 40
7.146584865450976
 40
7.198693898189206
 40
7.217698368905347
 40
7.234950401630823
 40
7.27608986426987
 40
7.325191803515977
 40
7.366331266090365
 40
7.383583298769715
 40
7.402779163492093
 40
7.453386443254524
 40
7.524934666445525
 40
7.606953361405865
 40
7.688972056429017
 40
7.760520279784267
 40
7.811127559734509
 40
7.830323424546131
 40
7.847844055299755
 40
7.894799345666798
 40
7.962779392744484
 40
8.043374293560532
 40
8.128174145149439
 40
8.20876904481724
 40
8.27674909037694
 40
8.323704379669502
 40
8.341225010056233
 40
8.358497614800381
 40
8.401679126686586
 40
8.457815092185644
 40
8.513951057728049
 40
8.557132569708005
 40
8.574405174505047
 40
8.602340668616405
 40
8.643455660539948
 40
8.663225271966615
 40
8.71534515656426
 40
8.789031889628594
 40
8.873502045520324
 40
8.957972194323943
 40
9.031658925567836
 40
9.083778811234522
 40
9.103548423002986
 40
9.119550083123523
 40
9.160817522379824
 40
9.21724442911019
 40
9.278724491644676
 40
9.33515139829546
 40
9.376418837357756
 40
9.392420497300543
 40
9.401196302734762
 40
9.417494229384237
 40
9.42627002774951
 40
9.440875075477543
 40
9.475702496998723
 40
9.517270709865887
 40
9.552098131994056
 40
9.566703169884264
 40
9.566703169884264
 40
9.566703169884264
 40
9.566703169884264
 10
194.6170254148479
 20
15.67015871511023
 30
0.0
 10
194.6134345093371
 20
15.66453690702155
 30
0.0
 10
194.6056039123624
 20
15.65227754419107
 30
0.0
 10
194.5129968974551
 20
15.61601916040972
 30
0.0
 10
194.4887622233245
 20
15.40148444212708
 30
0.0
 10
194.3858709845938
 20
15.22197284509704
 30
0.0
 10
194.1220492364305
 20
15.0361557379814
 30
0.0
 10
194.2845471569179
 20
14.95959336566076
 30
0.0
 10
194.3607225760838
 20
14.89856693195438
 30
0.0
 10
194.4492171072758
 20
14.83515804544755
 30
0.0
 10
194.538993023311
 20
14.77525634219557
 30
0.0
 10
194.5883817636045
 20
14.72102154849204
 30
0.0
 10
194.6745708157382
 20
14.6928624054183
 30
0.0
 10
194.6411260674229
 20
14.65713309652807
 30
0.0
 10
194.6214671166311
 20
14.62550387991902
 30
0.0
 10
194.5919888217882
 20
14.58475872796065
 30
0.0
 10
194.5688989446031
 20
14.5550466348964
 30
0.0
 10
194.5380205968356
 20
14.5021142266849
 30
0.0
 10
194.472919336574
 20
14.62740334938898
 30
0.0
 10
194.3796000122415
 20
14.68213900233929
 30
0.0
 10
194.2950636285139
 20
14.73916423939339
 30
0.0
 10
194.1722498125741
 20
14.89675287427517
 30
0.0
 10
194.1764450847301
 20
14.82035806766832
 30
0.0
 10
194.1751478652676
 20
14.7736128016129
 30
0.0
 10
194.1758126448077
 20
14.69584785812597
 30
0.0
 10
194.1755549986956
 20
14.59902068324418
 30
0.0
 10
194.1756431239922
 20
14.48650279078805
 30
0.0
 10
194.1756077302281
 20
14.36524085945694
 30
0.0
 10
194.1756511758279
 20
14.24086897858957
 30
0.0
 10
194.1755199942405
 20
14.11967683631332
 30
0.0
 10
194.1759477562046
 20
14.00691148919739
 30
0.0
 10
194.174667820231
 20
13.9108291376874
 30
0.0
 10
194.1779759851043
 20
13.83113826468696
 30
0.0
 10
194.1715197740086
 20
13.7881517578878
 30
0.0
 10
194.1806208705556
 20
13.74955432372039
 30
0.0
 10
194.1447910339935
 20
13.75810887724067
 30
0.0
 10
194.1115223815252
 20
13.75342519985442
 30
0.0
 10
194.060456257604
 20
13.7535129875978
 30
0.0
 10
194.0269723972813
 20
13.75794430283817
 30
0.0
 10
193.9907585408754
 20
13.74960793842505
 30
0.0
 10
194.0009782568665
 20
13.7914527717928
 30
0.0
 10
193.9936487887773
 20
13.8377856082017
 30
0.0
 10
193.9973633136103
 20
13.9237483110601
 30
0.0
 10
193.9959480554896
 20
14.02605142704845
 30
0.0
 10
193.9964105554637
 20
14.14453223931507
 30
0.0
 10
193.9962773686231
 20
14.26957683153352
 30
0.0
 10
193.9963015910045
 20
14.39475828107046
 30
0.0
 10
193.9963354925551
 20
14.51286645379053
 30
0.0
 10
193.9962060293132
 20
14.61628748709512
 30
0.0
 10
193.9965507549081
 20
14.69932036153663
 30
0.0
 10
193.995869827869
 20
14.75143368521238
 30
0.0
 10
193.9994586600623
 20
14.87912907821359
 30
0.0
 10
193.7826171386436
 20
14.58048716819614
 30
0.0
 10
193.6021354921951
 20
14.35263981511511
 30
0.0
 10
193.5490322295611
 20
14.49373443289809
 30
0.0
 10
193.5200429133149
 20
14.54325767560939
 30
0.0
 10
193.419664806282
 20
14.64641779790101
 30
0.0
 10
193.7405127723261
 20
14.72695035023775
 30
0.0
 10
193.8689897005429
 20
14.9106628303643
 30
0.0
 10
194.0906454325359
 20
15.11931995771758
 30
0.0
 10
194.1770224894068
 20
15.29339211228339
 30
0.0
 10
194.4549394229075
 20
15.56967051342509
 30
0.0
 10
194.3346247839283
 20
15.5653455955111
 30
0.0
 10
194.2863197351349
 20
15.56614856202549
 30
0.0
 10
194.2102377454905
 20
15.5657458214658
 30
0.0
 10
194.116701000975
 20
15.56590275611605
 30
0.0
 10
194.0117594788557
 20
15.5658250257622
 30
0.0
 10
193.9033887738717
 20
15.5659546437855
 30
0.0
 10
193.7981454235897
 20
15.56554393490688
 30
0.0
 10
193.7056237819412
 20
15.56682073671587
 30
0.0
 10
193.6268130800707
 20
15.56340766534846
 30
0.0
 10
193.5839674565379
 20
15.57023350036316
 30
0.0
 10
193.5449499586515
 20
15.56065064201119
 30
0.0
 10
193.5526365271864
 20
15.59420779565539
 30
0.0
 10
193.5485464404311
 20
15.62523550322229
 30
0.0
 10
193.5485531368814
 20
15.67236529270896
 30
0.0
 10
193.5526239724911
 20
15.70340941646775
 30
0.0
 10
193.5449495574582
 20
15.73701861635897
 30
0.0
 10
193.5834819405494
 20
15.72748410420868
 30
0.0
 10
193.624122801448
 20
15.73397435498066
 30
0.0
 10
193.6951471850463
 20
15.7310015065025
 30
0.0
 10
193.7729318149633
 20
15.73174761399153
 30
0.0
 10
193.8507292246474
 20
15.73247814044521
 30
0.0
 10
193.9217232089907
 20
15.72954235514156
 30
0.0
 10
193.962427979182
 20
15.73595468772947
 30
0.0
 10
194.0009853489909
 20
15.72650524176
 30
0.0
 10
193.9927342754928
 20
15.7626469215878
 30
0.0
 10
193.9982346669358
 20
15.80129837613222
 30
0.0
 10
193.9955754206164
 20
15.86913528561834
 30
0.0
 10
193.9965815471532
 20
15.94591641538735
 30
0.0
 10
193.996017801832
 20
16.02849393582753
 30
0.0
 10
193.9970714526592
 20
16.10517329229873
 30
0.0
 10
193.994267586313
 20
16.17331990776695
 30
0.0
 10
194.0000702721303
 20
16.21132399809341
 30
0.0
 10
193.9915654551159
 20
16.24758448077641
 30
0.0
 10
194.0255610233125
 20
16.23755723771847
 30
0.0
 10
194.0594575683099
 20
16.24073266813702
 30
0.0
 10
194.1126669060346
 20
16.23508965640604
 30
0.0
 10
194.1660768574482
 20
16.2343477443642
 30
0.0
 10
194.1995914649491
 20
16.22819223482975
 30
0.0
 10
194.2388086183039
 20
16.23346029773588
 30
0.0
 10
194.2120263698492
 20
16.19253380793486
 30
0.0
 10
194.1708111001724
 20
16.20371204538105
 30
0.0
 10
194.1782641540873
 20
16.1586705619212
 30
0.0
 10
194.1742227952184
 20
16.11412278028139
 30
0.0
 10
194.1761714049641
 20
16.04223572621698
 30
0.0
 10
194.1752364849758
 20
15.96168630588766
 30
0.0
 10
194.176510719003
 20
15.8817399540499
 30
0.0
 10
194.1732043793864
 20
15.80841837083179
 30
0.0
 10
194.1802106179961
 20
15.76688643002564
 30
0.0
 10
194.1701440380126
 20
15.72752418568109
 30
0.0
 10
194.2029814803921
 20
15.73468063430977
 30
0.0
 10
194.236457729648
 20
15.73027243137941
 30
0.0
 10
194.2915053476019
 20
15.73217943347893
 30
0.0
 10
194.3489502595314
 20
15.73185366407284
 30
0.0
 10
194.4023026248309
 20
15.73106308733077
 30
0.0
 10
194.4398540896638
 20
15.7331395911807
 30
0.0
 10
194.4623172523237
 20
15.73022338167105
 30
0.0
 10
194.4751678073731
 20
15.73572552644052
 30
0.0
 10
194.4858255685888
 20
15.73801118197786
 30
0.0
 10
194.4986635650144
 20
15.74494972588049
 30
0.0
 10
194.5145991033069
 20
15.72853046313667
 30
0.0
 10
194.5410623920892
 20
15.71709122319445
 30
0.0
 10
194.5726805253758
 20
15.69644687835186
 30
0.0
 10
194.5987255892151
 20
15.68116869628289
 30
0.0
 10
194.6128517723973
 20
15.6726697632318
 30
0.0
 10
194.6170254148479
 20
15.67015871511023
 30
0.0
 11
194.6170254148479
 21
15.67015871511023
 31
0.0
 11
194.6049990002243
 21
15.65473571164183
 31
0.0
 11
194.5848961795565
 21
15.64337406233913
 31
0.0
 11
194.4778986355813
 21
15.42440620231154
 31
0.0
 11
194.3477039934324
 21
15.21317201512156
 31
0.0
 11
194.1996540366071
 21
15.01206059027474
 31
0.0
 11
194.2734958253735
 21
14.96147384935374
 31
0.0
 11
194.36056643118
 21
14.89988411653735
 31
0.0
 11
194.4518003750404
 21
14.83413160594421
 31
0.0
 11
194.5381321779687
 21
14.77105653169301
 31
0.0
 11
194.6104963609787
 21
14.71749910790238
 31
0.0
 11
194.6598274450843
 21
14.680299548691
 31
0.0
 11
194.6486940702213
 21
14.6647141086949
 31
0.0
 11
194.6221452532403
 21
14.62754882870419
 31
0.0
 11
194.5904579555533
 21
14.58319026871529
 31
0.0
 11
194.5639091385723
 21
14.54602498872458
 31
0.0
 11
194.5527757637093
 21
14.53043954872848
 31
0.0
 11
194.4807013362947
 21
14.59754008690613
 31
0.0
 11
194.385285698538
 21
14.67993354174665
 31
0.0
 11
194.279326415217
 21
14.76785017366912
 31
0.0
 11
194.175621051109
 21
14.85152024309262
 31
0.0
 11
194.175621051109
 21
14.83304687900858
 31
0.0
 11
194.175621051109
 21
14.7816210276395
 31
0.0
 11
194.175621051109
 21
14.70323405030994
 31
0.0
 11
194.175621051109
 21
14.60387730834444
 31
0.0
 11
194.175621051109
 21
14.48954216306755
 31
0.0
 11
194.175621051109
 21
14.36621997580384
 31
0.0
 11
194.175621051109
 21
14.23990210787786
 31
0.0
 11
194.175621051109
 21
14.11657992061415
 31
0.0
 11
194.175621051109
 21
14.00224477533726
 31
0.0
 11
194.175621051109
 21
13.90288803337176
 31
0.0
 11
194.175621051109
 21
13.82450105604219
 31
0.0
 11
194.175621051109
 21
13.77307520467312
 31
0.0
 11
194.175621051109
 21
13.75460184058908
 31
0.0
 11
194.1569720893626
 21
13.75460184058908
 31
0.0
 11
194.1125014882749
 21
13.75460184058908
 31
0.0
 11
194.0594236740736
 21
13.75460184058908
 31
0.0
 11
194.0149530729859
 21
13.75460184058908
 31
0.0
 11
193.9963041112395
 21
13.75460184058908
 31
0.0
 11
193.9963041112395
 21
13.77486797460215
 31
0.0
 11
193.9963041112395
 21
13.83089787452063
 31
0.0
 11
193.9963041112395
 21
13.91553878716343
 31
0.0
 11
193.9963041112395
 21
14.02163795934949
 31
0.0
 11
193.9963041112395
 21
14.14204263789771
 31
0.0
 11
193.9963041112395
 21
14.26960006962701
 31
0.0
 11
193.9963041112395
 21
14.39715750135632
 31
0.0
 11
193.9963041112395
 21
14.51756217990454
 31
0.0
 11
193.9963041112395
 21
14.6236613520906
 31
0.0
 11
193.9963041112395
 21
14.7083022647334
 31
0.0
 11
193.9963041112395
 21
14.76433216465188
 31
0.0
 11
193.9963041112395
 21
14.78459829866495
 31
0.0
 11
193.7883272849481
 21
14.59331998274052
 31
0.0
 11
193.5763486358425
 21
14.43414885430806
 31
0.0
 11
193.5495629014482
 21
14.4881467195209
 31
0.0
 11
193.5138765415024
 21
14.54689140572022
 31
0.0
 11
193.4799697494124
 21
14.59192871537972
 31
0.0
 11
193.6830287742319
 21
14.73563387201049
 31
0.0
 11
193.881853195826
 21
14.91168423529984
 31
0.0
 11
194.0677041444178
 21
15.11327514524946
 31
0.0
 11
194.2318427502303
 21
15.33360194186105
 31
0.0
 11
194.3655301434864
 21
15.56585996513631
 31
0.0
 11
194.3465256724482
 21
15.56585996513631
 31
0.0
 11
194.2944166389562
 21
15.56585996513631
 31
0.0
 11
194.2165596124447
 21
15.56585996513631
 31
0.0
 11
194.1203111623478
 21
15.56585996513631
 31
0.0
 11
194.0130278580997
 21
15.56585996513631
 31
0.0
 11
193.9020662691345
 21
15.56585996513631
 31
0.0
 11
193.7947829648864
 21
15.56585996513631
 31
0.0
 11
193.6985345147895
 21
15.56585996513631
 31
0.0
 11
193.620677488278
 21
15.56585996513631
 31
0.0
 11
193.568568454786
 21
15.56585996513631
 31
0.0
 11
193.5495639837478
 21
15.56585996513631
 31
0.0
 11
193.5495639837478
 21
15.58311199790977
 31
0.0
 11
193.5495639837478
 21
15.62425146067728
 31
0.0
 11
193.5495639837478
 21
15.67335340010945
 31
0.0
 11
193.5495639837478
 21
15.71449286287694
 31
0.0
 11
193.5495639837478
 21
15.73174489565041
 31
0.0
 11
193.5687598486009
 21
15.73174489565041
 31
0.0
 11
193.6193671286684
 21
15.73174489565041
 31
0.0
 11
193.690915352212
 21
15.73174489565041
 31
0.0
 11
193.7729340474937
 21
15.73174489565041
 31
0.0
 11
193.8549527427753
 21
15.73174489565041
 31
0.0
 11
193.9265009663189
 21
15.73174489565041
 31
0.0
 11
193.9771082463864
 21
15.73174489565041
 31
0.0
 11
193.9963041112395
 21
15.73174489565041
 31
0.0
 11
193.9963041112395
 21
15.74926552655214
 31
0.0
 11
193.9963041112395
 21
15.79622081736877
 31
0.0
 11
193.9963041112395
 21
15.86420086526749
 31
0.0
 11
193.9963041112395
 21
15.94479576741544
 31
0.0
 11
193.9963041112395
 21
16.02959562097982
 31
0.0
 11
193.9963041112395
 21
16.11019052312777
 31
0.0
 11
193.9963041112395
 21
16.17817057102648
 31
0.0
 11
193.9963041112395
 21
16.22512586184312
 31
0.0
 11
193.9963041112395
 21
16.24264649274485
 31
0.0
 11
194.0135484112111
 21
16.24165806167514
 31
0.0
 11
194.0566591611401
 21
16.23918698400086
 31
0.0
 11
194.1127031360477
 21
16.2359745830243
 31
0.0
 11
194.1687471109553
 21
16.23276218204775
 31
0.0
 11
194.2118578608843
 21
16.23029110437347
 31
0.0
 11
194.2291021608559
 21
16.22930267330376
 31
0.0
 11
194.2143774674851
 21
16.20556293372636
 31
0.0
 11
194.175621051109
 21
16.19183767331307
 31
0.0
 11
194.175621051109
 21
16.17206806177288
 31
0.0
 11
194.175621051109
 21
16.11994817680328
 31
0.0
 11
194.175621051109
 21
16.04626144288074
 31
0.0
 11
194.175621051109
 21
15.96179128448174
 31
0.0
 11
194.175621051109
 21
15.87732112608274
 31
0.0
 11
194.175621051109
 21
15.8036343921602
 31
0.0
 11
194.175621051109
 21
15.7515145071906
 31
0.0
 11
194.175621051109
 21
15.73174489565041
 31
0.0
 11
194.1916227112935
 21
15.73174489565041
 31
0.0
 11
194.232890150717
 21
15.73174489565041
 31
0.0
 11
194.2893170576837
 21
15.73174489565041
 31
0.0
 11
194.3507971204981
 21
15.73174489565041
 31
0.0
 11
194.4072240274648
 21
15.73174489565041
 31
0.0
 11
194.4484914668882
 21
15.73174489565041
 31
0.0
 11
194.4644931270728
 21
15.73174489565041
 31
0.0
 11
194.4728206422924
 21
15.73451387455917
 31
0.0
 11
194.4882860277004
 21
15.73965626396114
 31
0.0
 11
194.49661354292
 21
15.7424252428699
 31
0.0
 11
194.5091363776005
 21
15.73490952398289
 31
0.0
 11
194.5389985218386
 21
15.71698742509849
 31
0.0
 11
194.5746404359293
 21
15.69559653288163
 31
0.0
 11
194.6045025801674
 21
15.67767443399724
 31
0.0
 11
194.6170254148479
 21
15.67015871511023
 31
0.0
  0
SPLINE
  5
AE
102
{ACAD_REACTORS
330
CB
102
}
330
49
100
AcDbEntity
  8
_U_30EC_U_30A4_U_30E4_U_30FC_1
  6
Continuous
 62
     2
100
AcDbSpline
210
0.0
220
0.0
230
1.0
 70
    11
 71
     3
 72
    91
 73
    87
 74
    85
 42
0.000000001
 43
0.0000000001
 44
0.00000001
 40
0.0
 40
0.0
 40
0.0
 40
0.0
 40
0.0267532254356701
 40
0.0856103386464084
 40
0.1444674521996621
 40
0.1712206856618514
 40
0.2039416005642536
 40
0.2955601971652484
 40
0.4362601844616918
 40
0.616225284450725
 40
0.8256392189704698
 40
1.054685709844411
 40
1.293548478893531
 40
1.532411247938303
 40
1.761457738799568
 40
1.970871673298537
 40
2.150836773256732
 40
2.291536760495593
 40
2.3831553568367
 40
2.41587628410132
 40
2.442629517487963
 40
2.501486630949095
 40
2.560343744424242
 40
2.587096977826515
 40
2.617068194440942
 40
2.699247336756083
 40
2.822032643466396
 40
2.973822353257925
 40
3.143014704823368
 40
3.318007936879947
 40
3.48720028818678
 40
3.63898999754826
 40
3.761775303794759
 40
3.843954445753094
 40
3.87392566222979
 40
3.890812773500499
 40
3.90769988477168
 40
3.93796076785728
 40
3.980983618142312
 40
4.199085915228466
 40
4.439444339237253
 40
4.677588241260893
 40
5.050698317837779
 40
5.448212454763165
 40
5.85529121804469
 40
6.138575438885354
 40
6.417434507584193
 40
6.444551104393876
 40
6.504207617363176
 40
6.563864130314499
 40
6.590980727104093
 40
6.84860946038147
 40
7.109611990668427
 40
7.352910904446091
 40
7.557830220705462
 40
7.58751892591338
 40
7.652834077375799
 40
7.718149228845737
 40
7.74783793406204
 40
7.854880190300995
 40
7.976511257403541
 40
8.369487896592341
 40
8.757514959223634
 40
9.126072419331097
 40
9.46063938039216
 40
9.7466955930359
 40
9.777569943118676
 40
9.807050320931776
 40
9.83037733612891
 40
9.886003295435984
 40
9.952395569429896
 40
10.00802152870625
 40
10.03134854388217
 40
10.21356951009587
 40
10.4220347929287
 40
10.66154556731062
 40
10.91693789564303
 40
11.15832906556565
 40
11.18982674596623
 40
11.27286608520407
 40
11.39026653033349
 40
11.52484752840885
 40
11.65942852648447
 40
11.77682897161483
 40
11.85986831085682
 40
11.89136598230428
 40
11.89136598230428
 40
11.89136598230428
 40
11.89136598230428
 10
190.7027885008196
 20
14.70699600701768
 30
0.0
 10
190.7028237765288
 20
14.71587847311981
 30
0.0
 10
190.7029366710796
 20
14.74430237047342
 30
0.0
 10
190.7012984568489
 20
14.79409639169799
 30
0.0
 10
190.7069750292911
 20
14.8365756447815
 30
0.0
 10
190.6956928731706
 20
14.88730154856843
 30
0.0
 10
190.7632296979032
 20
14.87012900740105
 30
0.0
 10
190.8388029210699
 20
14.88290227165991
 30
0.0
 10
190.9828357056001
 20
14.87629729457378
 30
0.0
 10
191.1569419185426
 20
14.87888462206462
 30
0.0
 10
191.3639599611004
 20
14.87800591955549
 30
0.0
 10
191.5894688172378
 20
14.87828207920023
 30
0.0
 10
191.8251162293406
 20
14.87818339658658
 30
0.0
 10
192.0607640531348
 20
14.87828184412763
 30
0.0
 10
192.2862717580626
 20
14.87800678190785
 30
0.0
 10
192.4932934632805
 20
14.87888186270731
 30
0.0
 10
192.6673888915288
 20
14.87630522678442
 30
0.0
 10
192.8114492071986
 20
14.8828829044921
 30
0.0
 10
192.8869691915292
 20
14.87016243405599
 30
0.0
 10
192.954577603703
 20
14.88726400191683
 30
0.0
 10
192.9430840140676
 20
14.83674785802936
 30
0.0
 10
192.9505104581733
 20
14.79253252226497
 30
0.0
 10
192.9428838927986
 20
14.74867966503606
 30
0.0
 10
192.9546489459425
 20
14.69878374479324
 30
0.0
 10
192.8930788491983
 20
14.71393227712508
 30
0.0
 10
192.8256791738672
 20
14.70310665350669
 30
0.0
 10
192.7013004056221
 20
14.70852031626233
 30
0.0
 10
192.555442823657
 20
14.7064920539078
 30
0.0
 10
192.3893576440085
 20
14.70715777578383
 30
0.0
 10
192.2188412621724
 20
14.70689643521238
 30
0.0
 10
192.0519790855388
 20
14.7072155339109
 30
0.0
 10
191.9087346827105
 20
14.70635302590758
 30
0.0
 10
191.7773313869834
 20
14.70863300482984
 30
0.0
 10
191.7239859134656
 20
14.70407704374198
 30
0.0
 10
191.6485188456912
 20
14.70999914992873
 30
0.0
 10
191.6769075779232
 20
14.70094169343349
 30
0.0
 10
191.7033652409542
 20
14.69725912268924
 30
0.0
 10
191.6633522907701
 20
14.6665427196827
 30
0.0
 10
191.5713663691868
 20
14.67667591174631
 30
0.0
 10
191.5439396207069
 20
14.4303250224778
 30
0.0
 10
191.4478793967234
 20
14.27499558764371
 30
0.0
 10
191.1917277964473
 20
13.94525417931564
 30
0.0
 10
191.7627537732762
 20
14.08430022210447
 30
0.0
 10
192.0173656320516
 20
14.08291779973359
 30
0.0
 10
192.6279647048617
 20
13.99790569242081
 30
0.0
 10
192.3340698578084
 20
14.296854175582
 30
0.0
 10
192.0133304286516
 20
14.44330856901774
 30
0.0
 10
192.1313543360434
 20
14.50025540818282
 30
0.0
 10
192.172471646626
 20
14.52420099873343
 30
0.0
 10
192.2156812394411
 20
14.54599758811225
 30
0.0
 10
192.317457409445
 20
14.60928721253898
 30
0.0
 10
192.4328867625247
 20
14.35147151408776
 30
0.0
 10
192.6329591642277
 20
14.21616041113679
 30
0.0
 10
192.7269077387227
 20
14.03792795138878
 30
0.0
 10
192.9558829746392
 20
13.87997821027045
 30
0.0
 10
192.8596031846708
 20
13.82915972576296
 30
0.0
 10
192.8167959763779
 20
13.7988129252305
 30
0.0
 10
192.7718243528779
 20
13.77466130281454
 30
0.0
 10
192.7121720925213
 20
13.72552146747564
 30
0.0
 10
192.6789731061325
 20
13.85997475673605
 30
0.0
 10
192.5582013350796
 20
14.01594265286576
 30
0.0
 10
192.1970976005978
 20
13.88569928059553
 30
0.0
 10
191.8385061955541
 20
13.90224694409479
 30
0.0
 10
191.4570920450081
 20
13.89331229351861
 30
0.0
 10
191.170345528289
 20
13.82882671672404
 30
0.0
 10
190.8592055599715
 20
13.9423066819282
 30
0.0
 10
190.8268737818788
 20
13.83122259927764
 30
0.0
 10
190.7896178253318
 20
13.81196313850008
 30
0.0
 10
190.7865737632753
 20
13.85874784087292
 30
0.0
 10
190.7679892860608
 20
13.89806853919131
 30
0.0
 10
190.7512436616777
 20
13.95765983478227
 30
0.0
 10
190.7383730915754
 20
14.00201969871279
 30
0.0
 10
190.7042327806428
 20
14.09106331120196
 30
0.0
 10
190.9482714457754
 20
14.02181042943765
 30
0.0
 10
191.1441394486671
 20
14.00030369057739
 30
0.0
 10
191.2395426381277
 20
14.28226484478458
 30
0.0
 10
191.2945135769597
 20
14.44363045421118
 30
0.0
 10
191.5159619357155
 20
14.71391177589734
 30
0.0
 10
191.3849239381216
 20
14.70548446853731
 30
0.0
 10
191.3110026555854
 20
14.70779008496966
 30
0.0
 10
191.1977459876244
 20
14.70671378321653
 30
0.0
 10
191.0694251807484
 20
14.70707639076506
 30
0.0
 10
190.9404252030415
 20
14.70697724466082
 30
0.0
 10
190.828784094629
 20
14.70699932712568
 30
0.0
 10
190.7514663970026
 20
14.70699579189666
 30
0.0
 10
190.713287653201
 20
14.70699595845077
 30
0.0
 10
190.7027885008196
 20
14.70699600701768
 30
0.0
 11
190.7027885008196
 21
14.70699600701768
 31
0.0
 11
190.7027885008196
 21
14.73374924051794
 31
0.0
 11
190.7027885008196
 21
14.79260635421849
 31
0.0
 11
190.7027885008196
 21
14.85146346791906
 31
0.0
 11
190.7027885008196
 21
14.87821670141931
 31
0.0
 11
190.7355094280989
 21
14.87821670141931
 31
0.0
 11
190.8271280244809
 21
14.87821670141931
 31
0.0
 11
190.9678280117818
 21
14.87821670141931
 31
0.0
 11
191.1477931118179
 21
14.87821670141931
 31
0.0
 11
191.3572070464054
 21
14.87821670141931
 31
0.0
 11
191.5862535373604
 21
14.87821670141931
 31
0.0
 11
191.8251163064992
 21
14.87821670141931
 31
0.0
 11
192.0639790756381
 21
14.87821670141931
 31
0.0
 11
192.2930255665931
 21
14.87821670141931
 31
0.0
 11
192.5024395011806
 21
14.87821670141931
 31
0.0
 11
192.6824046012167
 21
14.87821670141931
 31
0.0
 11
192.8231045885176
 21
14.87821670141931
 31
0.0
 11
192.9147231848996
 21
14.87821670141931
 31
0.0
 11
192.9474441121789
 21
14.87821670141931
 31
0.0
 11
192.9474441121789
 21
14.85146346791906
 31
0.0
 11
192.9474441121789
 21
14.7926063542185
 31
0.0
 11
192.9474441121789
 21
14.73374924051794
 31
0.0
 11
192.9474441121789
 21
14.70699600701768
 31
0.0
 11
192.9174728954758
 21
14.70699600701768
 31
0.0
 11
192.8352937529027
 21
14.70699600701768
 31
0.0
 11
192.7125084457639
 21
14.70699600701768
 31
0.0
 11
192.5607187353642
 21
14.70699600701768
 31
0.0
 11
192.3915263830077
 21
14.70699600701768
 31
0.0
 11
192.2165331499991
 21
14.70699600701768
 31
0.0
 11
192.0473407976426
 21
14.70699600701768
 31
0.0
 11
191.8955510872428
 21
14.70699600701768
 31
0.0
 11
191.7727657801042
 21
14.70699600701768
 31
0.0
 11
191.690586637531
 21
14.70699600701768
 31
0.0
 11
191.6606154208279
 21
14.70699600701768
 31
0.0
 11
191.6766359412525
 21
14.70165583340789
 31
0.0
 11
191.6926564616771
 21
14.6963156597981
 31
0.0
 11
191.670615568142
 21
14.67558114591438
 31
0.0
 11
191.6284861855363
 21
14.66685871536106
 31
0.0
 11
191.5365235541377
 21
14.46909247312652
 31
0.0
 11
191.4279078521763
 21
14.25467511978504
 31
0.0
 11
191.3127500824807
 21
14.04622559051616
 31
0.0
 11
191.685736667502
 21
14.05582441253025
 31
0.0
 11
192.083070003615
 21
14.06781232404991
 31
0.0
 11
192.4899342191145
 21
14.08102711828528
 31
0.0
 11
192.2983119496978
 21
14.28966761302476
 31
0.0
 11
192.0966752013698
 21
14.48229420151827
 31
0.0
 11
192.1204947794749
 21
14.4952532726956
 31
0.0
 11
192.1728978513061
 21
14.52376322928571
 31
0.0
 11
192.2253009231374
 21
14.55227318587583
 31
0.0
 11
192.2491205012425
 21
14.56523225705315
 31
0.0
 11
192.4387101558627
 21
14.39079508370264
 31
0.0
 11
192.6200310940435
 21
14.20305846374087
 31
0.0
 11
192.7777729231147
 21
14.01782380992432
 31
0.0
 11
192.8966252504058
 21
13.85089253500945
 31
0.0
 11
192.8715408217923
 21
13.83501202286065
 31
0.0
 11
192.8163550788425
 21
13.80007489613328
 31
0.0
 11
192.7611693358928
 21
13.76513776940591
 31
0.0
 11
192.7360849072793
 21
13.74925725725711
 31
0.0
 11
192.6775518151612
 21
13.83887824681805
 31
0.0
 11
192.6050015078457
 21
13.93650288221028
 31
0.0
 11
192.2125412924095
 21
13.91636286943755
 31
0.0
 11
191.824947406956
 21
13.89803302999769
 31
0.0
 11
191.4567378976213
 21
13.88202178722391
 31
0.0
 11
191.1224308105412
 21
13.86883756444943
 31
0.0
 11
190.8365441918518
 21
13.85898878500746
 31
0.0
 11
190.821186232174
 21
13.83220523466691
 31
0.0
 11
190.7937434290546
 21
13.82143559057241
 31
0.0
 11
190.7867927192319
 21
13.84370299445573
 31
0.0
 11
190.7702179496548
 21
13.89680218833134
 31
0.0
 11
190.7504351601596
 21
13.96017864553772
 31
0.0
 11
190.7338603905825
 21
14.01327783941333
 31
0.0
 11
190.7269096807598
 21
14.03554524329665
 31
0.0
 11
190.9091199859153
 21
14.03751638912948
 31
0.0
 11
191.1174975848588
 21
14.04356211829467
 31
0.0
 11
191.2303203127216
 21
14.25483550301549
 31
0.0
 11
191.3407936722035
 21
14.48509813155874
 31
0.0
 11
191.4358254265627
 21
14.70699600701768
 31
0.0
 11
191.4043277461597
 21
14.70699600701768
 31
0.0
 11
191.3212884069153
 21
14.70699600701768
 31
0.0
 11
191.2038879617768
 21
14.70699600701768
 31
0.0
 11
191.0693069636912
 21
14.70699600701768
 31
0.0
 11
190.9347259656055
 21
14.70699600701768
 31
0.0
 11
190.817325520467
 21
14.70699600701768
 31
0.0
 11
190.7342861812226
 21
14.70699600701768
 31
0.0
 11
190.7027885008196
 21
14.70699600701768
 31
0.0
  0
SPLINE
  5
AF
102
{ACAD_REACTORS
330
CC
102
}
330
49
100
AcDbEntity
  8
_U_30EC_U_30A4_U_30E4_U_30FC_1
  6
Continuous
 62
     2
100
AcDbSpline
210
0.0
220
0.0
230
1.0
 70
    11
 71
     3
 72
    35
 73
    31
 74
    29
 42
0.000000001
 43
0.0000000001
 44
0.00000001
 40
0.0
 40
0.0
 40
0.0
 40
0.0
 40
0.0335231036620562
 40
0.0713218571711968
 40
0.4278866681486973
 40
0.8116865841963994
 40
1.19819023800006
 40
1.561379546812692
 40
1.659983174622054
 40
1.759315573807189
 40
2.132719617231073
 40
2.525233363588825
 40
2.910815397779692
 40
3.265244364303275
 40
3.592606723582012
 40
3.964386154603957
 40
4.359942131737779
 40
4.758154118639288
 40
4.843846538699898
 40
4.936650065543219
 40
5.256616602537298
 40
5.581707404416035
 40
5.899719158308132
 40
6.198363494280737
 40
6.46630104661577
 40
6.493895311537091
 40
6.559697020196884
 40
6.63823454344246
 40
6.704036252154213
 40
6.731630508423019
 40
6.731630508423019
 40
6.731630508423019
 40
6.731630508423019
 10
191.9736010568669
 20
16.23463843719129
 30
0.0
 10
191.9676006097788
 20
16.22480690542318
 30
0.0
 10
191.9548344099156
 20
16.20388988579794
 30
0.0
 10
191.7949362006556
 20
16.17127126532686
 30
0.0
 10
192.2322025842336
 20
15.88206680336697
 30
0.0
 10
192.4345394828262
 20
15.68041138358434
 30
0.0
 10
192.6819564267973
 20
15.43749387603273
 30
0.0
 10
193.1831513624605
 20
15.36047662757771
 30
0.0
 10
193.012556219897
 20
15.21876939174652
 30
0.0
 10
192.93832994632
 20
15.01710366209103
 30
0.0
 10
192.6131432248188
 20
15.36956287174722
 30
0.0
 10
192.3277741670664
 20
15.53175212559558
 30
0.0
 10
192.0337604077658
 20
15.73687130053045
 30
0.0
 10
191.8084452691134
 20
16.21827488595449
 30
0.0
 10
191.5993085055522
 20
15.75343046609218
 30
0.0
 10
191.3207873674833
 20
15.54350952252907
 30
0.0
 10
191.0371383177209
 20
15.3742445635998
 30
0.0
 10
190.7078639527831
 20
15.00142360907932
 30
0.0
 10
190.6277012318224
 20
15.19708014458997
 30
0.0
 10
190.4759724909744
 20
15.32491104190591
 30
0.0
 10
190.9083395826795
 20
15.40454031765931
 30
0.0
 10
191.0962565329766
 20
15.60026634915469
 30
0.0
 10
191.3468477420502
 20
15.81632996916751
 30
0.0
 10
191.5714350470162
 20
15.98190992300054
 30
0.0
 10
191.6259775409712
 20
16.26133964636823
 30
0.0
 10
191.7494661029011
 20
16.24737950408074
 30
0.0
 10
191.806027334452
 20
16.24521268867643
 30
0.0
 10
191.8761870984945
 20
16.24046859881356
 30
0.0
 10
191.9333414022105
 20
16.23709429350536
 30
0.0
 10
191.9644190320839
 20
16.23519854711114
 30
0.0
 10
191.9736010568669
 20
16.23463843719129
 30
0.0
 11
191.9736010568669
 21
16.23463843719129
 31
0.0
 11
191.9525319069884
 21
16.20856374969781
 31
0.0
 11
191.9174464559425
 21
16.19450114553465
 31
0.0
 11
192.1512374769094
 21
15.92527961131378
 31
0.0
 11
192.4414585957566
 21
15.67413407969256
 31
0.0
 11
192.7612797483684
 21
15.4571098761878
 31
0.0
 11
193.0838708706289
 21
15.29025232631632
 31
0.0
 11
193.0213299868076
 21
15.21402035584924
 31
0.0
 11
192.9688035818975
 21
15.1297119791342
 31
0.0
 11
192.6436279095814
 21
15.31326404831576
 31
0.0
 11
192.3237227768436
 21
15.54070139743424
 31
0.0
 11
192.0354200158608
 21
15.79673855123306
 31
0.0
 11
191.8050514588095
 21
16.06609003445561
 31
0.0
 11
191.5995531719516
 21
15.81126348721031
 31
0.0
 11
191.3288301341535
 21
15.55645182277751
 31
0.0
 11
191.0119538423246
 21
15.31969466354851
 31
0.0
 11
190.6679957933741
 21
15.11903163191462
 31
0.0
 11
190.6218855341338
 21
15.19126067703549
 31
0.0
 11
190.5636970460348
 21
15.26355586798962
 31
0.0
 11
190.8433040489015
 21
15.4191145696174
 31
0.0
 11
191.1093004621154
 21
15.60601009790401
 31
0.0
 11
191.3499997459746
 21
15.81384496285204
 31
0.0
 11
191.5537153607774
 21
16.03222167446412
 31
0.0
 11
191.7087607668218
 21
16.25074274274283
 31
0.0
 11
191.7363041569865
 21
16.24906789496547
 31
0.0
 11
191.8019845489177
 21
16.24507402718869
 31
0.0
 11
191.880377274771
 21
16.24030715274543
 31
0.0
 11
191.9460576667022
 21
16.23631328496865
 31
0.0
 11
191.9736010568669
 21
16.23463843719129
 31
0.0
  0
SPLINE
  5
B0
102
{ACAD_REACTORS
330
CD
102
}
330
49
100
AcDbEntity
  8
_U_30EC_U_30A4_U_30E4_U_30FC_1
  6
Continuous
 62
     2
100
AcDbSpline
210
0.0
220
0.0
230
1.0
 70
    11
 71
     3
 72
    15
 73
    11
 74
     9
 42
0.000000001
 43
0.0000000001
 44
0.00000001
 40
0.0
 40
0.0
 40
0.0
 40
0.0
 40
0.2785535985096532
 40
0.5215624748198819
 40
0.6076917376040443
 40
0.6938210001741176
 40
0.9405019146454952
 40
1.221691403489126
 40
1.300471877081043
 40
1.379252341684808
 40
1.379252341684808
 40
1.379252341684808
 40
1.379252341684808
 10
189.5681493630999
 20
16.22930267330376
 30
0.0
 10
189.6296017794177
 20
16.17691646592711
 30
0.0
 10
189.7446649974114
 20
16.07882876798218
 30
0.0
 10
190.0397348497243
 20
15.92889785897217
 30
0.0
 10
189.9025147631857
 20
15.84343227515011
 30
0.0
 10
189.8041227843777
 20
15.7108578520155
 30
0.0
 10
189.713003359065
 20
16.01616985781416
 30
0.0
 10
189.3636839480655
 20
16.0796786946537
 30
0.0
 10
189.511925837657
 20
16.17896509880873
 30
0.0
 10
189.5494081874236
 20
16.21252348402377
 30
0.0
 10
189.5681493630999
 20
16.22930267330376
 30
0.0
 11
189.5681493630999
 21
16.22930267330376
 31
0.0
 11
189.7919222440596
 21
16.06341774278968
 31
0.0
 11
189.9695046306383
 21
15.8975328122756
 31
0.0
 11
189.9066308127979
 21
15.83866743034588
 31
0.0
 11
189.8437569949575
 21
15.77980204841616
 31
0.0
 11
189.6688535117725
 21
15.95375677059487
 31
0.0
 11
189.447825685614
 21
16.12757920110698
 31
0.0
 11
189.507987524357
 21
16.17844093720537
 31
0.0
 11
189.5681493630999
 21
16.22930267330376
 31
0.0
  0
SPLINE
  5
B1
102
{ACAD_REACTORS
330
CE
102
}
330
49
100
AcDbEntity
  8
_U_30EC_U_30A4_U_30E4_U_30FC_1
  6
Continuous
 62
     2
100
AcDbSpline
210
0.0
220
0.0
230
1.0
 70
    11
 71
     3
 72
    75
 73
    71
 74
    69
 42
0.000000001
 43
0.0000000001
 44
0.00000001
 40
0.0
 40
0.0
 40
0.0
 40
0.0
 40
0.0342546099129673
 40
0.1245622414432329
 40
0.25223854808975
 40
0.3985991922940627
 40
0.5449598364980768
 40
0.6726361431438763
 40
0.7629437746736853
 40
0.7971983935297884
 40
1.10172362344965
 40
1.408591244036654
 40
1.43333247169036
 40
1.487763172450157
 40
1.542193873081986
 40
1.566935100592536
 40
1.923523931821847
 40
2.271755704953647
 40
2.590579755100889
 40
2.858943305581147
 40
2.889120339309172
 40
2.918305855191116
 40
2.941366645531239
 40
2.996357760973126
 40
3.061992318140672
 40
3.116983433626864
 40
3.140044223997543
 40
3.411273122936463
 40
3.732441619741128
 40
3.761068217532828
 40
3.837787499630388
 40
3.94885869912603
 40
4.080541049104409
 40
4.219093782625793
 40
4.350776132722346
 40
4.46184733240568
 40
4.538566614678415
 40
4.567193212544661
 40
4.59490757399892
 40
4.666381453557459
 40
4.764111044011069
 40
4.870592538125872
 40
4.968322128642323
 40
5.039796008287008
 40
5.067510369784467
 40
5.094263603185682
 40
5.153120716668316
 40
5.211977830150762
 40
5.238731063551769
 40
5.272290535139008
 40
5.363380529444869
 40
5.497618415781546
 40
5.660621563453788
 40
5.838007341749489
 40
6.015393119910841
 40
6.178396267038466
 40
6.312634151842418
 40
6.403724143059407
 40
6.437283612672503
 40
6.464036846261117
 40
6.522893960004736
 40
6.581751071484001
 40
6.608504301590947
 40
6.637253941281094
 40
6.711397748902946
 40
6.812778057283558
 40
6.923237199249335
 40
7.024617507623979
 40
7.098761315207631
 40
7.127510946007582
 40
7.127510946007582
 40
7.127510946007582
 40
7.127510946007582
 10
188.4418622390564
 20
14.9584912847326
 30
0.0
 10
188.4418622819707
 20
14.94707313408716
 30
0.0
 10
188.4418624481129
 20
14.90555257842625
 30
0.0
 10
188.4418593081786
 20
14.82146922003768
 30
0.0
 10
188.4418788279801
 20
14.70004497322324
 30
0.0
 10
188.4417912187737
 20
14.55980494047445
 30
0.0
 10
188.442111623523
 20
14.42006556794573
 30
0.0
 10
188.4411605909741
 20
14.29745038894925
 30
0.0
 10
188.4431978595967
 20
14.2158707443804
 30
0.0
 10
188.4349433178746
 20
14.06271267077694
 30
0.0
 10
188.7430797940901
 20
14.22560236054716
 30
0.0
 10
189.0350645173736
 20
14.39482938688001
 30
0.0
 10
189.0408354448707
 20
14.25973235781906
 30
0.0
 10
189.0455471719891
 20
14.2161722116044
 30
0.0
 10
189.0482535411918
 20
14.17211249350541
 30
0.0
 10
189.0672545672958
 20
14.02272590363129
 30
0.0
 10
188.6583942247302
 20
14.08681172241258
 30
0.0
 10
188.3793710348832
 20
13.97296341411013
 30
0.0
 10
188.1018081587167
 20
13.87364095811139
 30
0.0
 10
187.8099837184399
 20
13.91630687596351
 30
0.0
 10
187.7869144678658
 20
13.81321679744536
 30
0.0
 10
187.7537474383332
 20
13.78691091244465
 30
0.0
 10
187.7480653962739
 20
13.834553090363
 30
0.0
 10
187.7284214559044
 20
13.87180336115065
 30
0.0
 10
187.7095089485623
 20
13.9300738784756
 30
0.0
 10
187.6942849867707
 20
13.97385201007799
 30
0.0
 10
187.6477246372937
 20
14.08759421046308
 30
0.0
 10
187.9890897312448
 20
14.05576301120041
 30
0.0
 10
188.2679649367388
 20
14.02161435106474
 30
0.0
 10
188.2617753034906
 20
14.16913976479647
 30
0.0
 10
188.2630935452774
 20
14.24013150908827
 30
0.0
 10
188.2624831689947
 20
14.34719767958656
 30
0.0
 10
188.2625871570725
 20
14.47398529785993
 30
0.0
 10
188.2629987964054
 20
14.60849243496045
 30
0.0
 10
188.261390784197
 20
14.7339554995118
 30
0.0
 10
188.2659902567924
 20
14.84505246719113
 30
0.0
 10
188.2564186502211
 20
14.90761886800684
 30
0.0
 10
188.2704001783691
 20
14.96595388294997
 30
0.0
 10
188.2147384386704
 20
14.95289710582233
 30
0.0
 10
188.1575655197821
 20
14.96136307749495
 30
0.0
 10
188.0616048925648
 20
14.95729976080632
 30
0.0
 10
187.963376752282
 20
14.9597088985247
 30
0.0
 10
187.8672582457561
 20
14.95551600613384
 30
0.0
 10
187.810464852581
 20
14.96429346441158
 30
0.0
 10
187.7550356873384
 20
14.95094936850117
 30
0.0
 10
187.7670679427917
 20
15.00036910959253
 30
0.0
 10
187.7592003173938
 20
15.04393988030391
 30
0.0
 10
187.7666295563828
 20
15.08830469118521
 30
0.0
 10
187.7551930564144
 20
15.13902297763987
 30
0.0
 10
187.8232102370133
 20
15.12162460757739
 30
0.0
 10
187.8968496879747
 20
15.13417450237185
 30
0.0
 10
188.0325064058211
 20
15.12799677011093
 30
0.0
 10
188.1884909024525
 20
15.1302920309308
 30
0.0
 10
188.3615926358143
 20
15.12940968262525
 30
0.0
 10
188.5346942964181
 20
15.13029207142404
 30
0.0
 10
188.6906789811216
 20
15.12799662955546
 30
0.0
 10
188.8263351889797
 20
15.13417486262427
 30
0.0
 10
188.8999756705652
 20
15.12162394218331
 30
0.0
 10
188.9679914174724
 20
15.13902373012138
 30
0.0
 10
188.9565590885922
 20
15.08830130414551
 30
0.0
 10
188.9639539458298
 20
15.04397060811104
 30
0.0
 10
188.956203991227
 20
15.00028307550192
 30
0.0
 10
188.9681203741877
 20
14.95063590098473
 30
0.0
 10
188.9108170223617
 20
14.96461411338421
 30
0.0
 10
188.8520145789772
 20
14.9553975567325
 30
0.0
 10
188.7525293633199
 20
14.95952268164925
 30
0.0
 10
188.649428009835
 20
14.95822760025884
 30
0.0
 10
188.5537846354573
 20
14.95854077077636
 30
0.0
 10
188.4857467971617
 20
14.95848776697141
 30
0.0
 10
188.4514462213443
 20
14.95849051871652
 30
0.0
 10
188.4418622390564
 20
14.9584912847326
 30
0.0
 11
188.4418622390564
 21
14.9584912847326
 31
0.0
 11
188.4418622390564
 21
14.92423666587181
 31
0.0
 11
188.4418622390564
 21
14.83392903432971
 31
0.0
 11
188.4418622390564
 21
14.70625272766675
 31
0.0
 11
188.4418622390564
 21
14.55989208344336
 31
0.0
 11
188.4418622390564
 21
14.41353143921997
 31
0.0
 11
188.4418622390564
 21
14.28585513255701
 31
0.0
 11
188.4418622390564
 21
14.19554750101491
 31
0.0
 11
188.4418622390564
 21
14.16129288215412
 31
0.0
 11
188.7391932644567
 21
14.22709475713764
 31
0.0
 11
189.0384623627245
 21
14.29496038212068
 31
0.0
 11
189.0405487124976
 21
14.27030727882823
 31
0.0
 11
189.0451386819987
 21
14.21607045158486
 31
0.0
 11
189.0497286514996
 21
14.16183362434148
 31
0.0
 11
189.0518150012728
 21
14.13718052104903
 31
0.0
 11
188.705639688924
 21
14.05163370140893
 31
0.0
 11
188.3669653138838
 21
13.97060877629897
 31
0.0
 11
188.0563731516688
 21
13.89862764024925
 31
0.0
 11
187.7944444777955
 21
13.84021218778987
 31
0.0
 11
187.7817515029292
 21
13.81283442738008
 31
0.0
 11
187.7569794787513
 21
13.79740260446731
 31
0.0
 11
187.7491867589501
 21
13.81910683390632
 31
0.0
 11
187.7306041194242
 21
13.87086307333781
 31
0.0
 11
187.70842483999
 21
13.93263664943347
 31
0.0
 11
187.689842200464
 21
13.98439288886496
 31
0.0
 11
187.6820494806628
 21
14.00609711830397
 31
0.0
 11
187.9482776335931
 21
14.05794001759661
 31
0.0
 11
188.2626334936289
 21
14.12373968771905
 31
0.0
 11
188.2626334936289
 21
14.1523662856962
 31
0.0
 11
188.2626334936289
 21
14.22908556827494
 31
0.0
 11
188.2626334936289
 21
14.34015676842627
 31
0.0
 11
188.2626334936289
 21
14.47183911912113
 31
0.0
 11
188.2626334936289
 21
14.61039185333052
 31
0.0
 11
188.2626334936289
 21
14.74207420402538
 31
0.0
 11
188.2626334936289
 21
14.8531454041767
 31
0.0
 11
188.2626334936289
 21
14.92986468675546
 31
0.0
 11
188.2626334936289
 21
14.9584912847326
 31
0.0
 11
188.2349191321108
 21
14.9584912847326
 31
0.0
 11
188.1634452524063
 21
14.9584912847326
 31
0.0
 11
188.06571566179
 21
14.9584912847326
 31
0.0
 11
187.9592341675364
 21
14.9584912847326
 31
0.0
 11
187.8615045769201
 21
14.9584912847326
 31
0.0
 11
187.7900306972156
 21
14.9584912847326
 31
0.0
 11
187.7623163356975
 21
14.9584912847326
 31
0.0
 11
187.7623163356975
 21
14.98524451823285
 31
0.0
 11
187.7623163356975
 21
15.0441016319334
 31
0.0
 11
187.7623163356975
 21
15.10295874563395
 31
0.0
 11
187.7623163356975
 21
15.1297119791342
 31
0.0
 11
187.7958758072874
 21
15.1297119791342
 31
0.0
 11
187.8869658016031
 21
15.1297119791342
 31
0.0
 11
188.0212036879629
 21
15.1297119791342
 31
0.0
 11
188.1842068356856
 21
15.1297119791342
 31
0.0
 11
188.3615926140897
 21
15.1297119791342
 31
0.0
 11
188.5389783924938
 21
15.1297119791342
 31
0.0
 11
188.7019815402164
 21
15.1297119791342
 31
0.0
 11
188.8362194265763
 21
15.1297119791342
 31
0.0
 11
188.9273094208918
 21
15.1297119791342
 31
0.0
 11
188.9608688924818
 21
15.1297119791342
 31
0.0
 11
188.9608688924818
 21
15.10295874563395
 31
0.0
 11
188.9608688924818
 21
15.0441016319334
 31
0.0
 11
188.9608688924818
 21
14.98524451823285
 31
0.0
 11
188.9608688924818
 21
14.9584912847326
 31
0.0
 11
188.9321192527877
 21
14.9584912847326
 31
0.0
 11
188.8579754451555
 21
14.9584912847326
 31
0.0
 11
188.7565951367604
 21
14.9584912847326
 31
0.0
 11
188.6461359947778
 21
14.9584912847326
 31
0.0
 11
188.5447556863827
 21
14.9584912847326
 31
0.0
 11
188.4706118787505
 21
14.9584912847326
 31
0.0
 11
188.4418622390564
 21
14.9584912847326
 31
0.0
  0
SPLINE
  5
B2
102
{ACAD_REACTORS
330
CF
102
}
330
49
100
AcDbEntity
  8
_U_30EC_U_30A4_U_30E4_U_30FC_1
  6
Continuous
 62
     2
100
AcDbSpline
210
0.0
220
0.0
230
1.0
 70
    11
 71
     3
 72
    91
 73
    87
 74
    85
 42
0.000000001
 43
0.0000000001
 44
0.00000001
 40
0.0
 40
0.0
 40
0.0
 40
0.0
 40
0.0345987051695718
 40
0.1258134969461369
 40
0.2547723404888987
 40
0.4026032099154125
 40
0.5504340793416704
 40
0.679392922883608
 40
0.7706077146571035
 40
0.8052064287780925
 40
1.124852390615276
 40
1.42740223630887
 40
1.706356627453507
 40
1.95554141787519
 40
2.169485938566333
 40
2.344350786664786
 40
2.480568411561938
 40
2.59044055742896
 40
2.649189927151114
 40
2.749320643306313
 40
2.912632739880016
 40
3.147745656000211
 40
3.244827496385101
 40
3.338490056946689
 40
3.583815413207118
 40
3.761423943238478
 40
3.88695610436264
 40
3.985855451886801
 40
4.091766255337686
 40
4.250186473811879
 40
4.422734315084523
 40
4.628285684838616
 40
4.872093227758448
 40
5.152549652145556
 40
5.464967135837536
 40
5.803201477852451
 40
6.160362988813925
 40
6.19344944827598
 40
6.284170385501635
 40
6.419718138764504
 40
6.587285046385754
 40
6.774063446723669
 40
6.967245678113652
 40
7.154024078817637
 40
7.321590987026023
 40
7.457138740890382
 40
7.547859678556118
 40
7.580946138182678
 40
7.608533084714732
 40
7.669224367077709
 40
7.729915649429929
 40
7.757502595949982
 40
7.790278062553436
 40
7.880146277430934
 40
8.014419963180398
 40
8.180411842397898
 40
8.365434637679368
 40
8.556801071622669
 40
8.741823866830781
 40
8.907815745916292
 40
9.042089431507446
 40
9.131957646249571
 40
9.164733112797148
 40
9.415425063140077
 40
9.667986180958533
 40
9.6941698074627
 40
9.756607686047658
 40
9.831130315322465
 40
9.89356819389993
 40
9.919751820398746
 40
9.950967964690573
 40
9.996421631210685
 40
10.22087981037457
 40
10.44341866197545
 40
10.47847970788857
 40
10.57091337438758
 40
10.70159545461232
 40
10.85140174170363
 40
11.0012080288048
 40
11.13189010907386
 40
11.22432377583013
 40
11.2593848093896
 40
11.28697175596148
 40
11.34766303835922
 40
11.40835432042073
 40
11.43594125892108
 40
11.43594125892108
 40
11.43594125892108
 40
11.43594125892108
 10
190.0818114333289
 20
15.55242795125072
 30
0.0
 10
190.0702785844941
 20
15.5524279028791
 30
0.0
 10
190.0283409444998
 20
15.55242773704159
 30
0.0
 10
189.9434129719026
 20
15.55243125800904
 30
0.0
 10
189.8207688553128
 20
15.55240926435873
 30
0.0
 10
189.6791206916993
 20
15.55250801177049
 30
0.0
 10
189.537975369849
 20
15.55214686232416
 30
0.0
 10
189.4141351317905
 20
15.55321883609084
 30
0.0
 10
189.3317217825381
 20
15.55092249091263
 30
0.0
 10
189.1727791229693
 20
15.56048569373415
 30
0.0
 10
189.3503402353375
 20
15.19785394311365
 30
0.0
 10
189.3379739205453
 20
14.9524312772311
 30
0.0
 10
189.4064519473864
 20
14.6686250132483
 30
0.0
 10
189.469302432097
 20
14.43250999939032
 30
0.0
 10
189.5452253431727
 20
14.23326740396125
 30
0.0
 10
189.6303189577017
 20
14.0774534745137
 30
0.0
 10
189.7244607592935
 20
13.97657857781388
 30
0.0
 10
189.8282648207728
 20
13.92465852638961
 30
0.0
 10
189.9125872030773
 20
13.97606484379613
 30
0.0
 10
189.9351322179452
 20
14.09144544037513
 30
0.0
 10
189.9745730975371
 20
14.21885149702375
 30
0.0
 10
189.9202919734942
 20
14.5362232808675
 30
0.0
 10
190.0451218072473
 20
14.389821801409
 30
0.0
 10
190.2019291513603
 20
14.35795300331168
 30
0.0
 10
190.0947720007057
 20
14.12421357767623
 30
0.0
 10
190.0808711209867
 20
13.95972776583653
 30
0.0
 10
190.0234709467225
 20
13.83130869122479
 30
0.0
 10
189.9335020145008
 20
13.76018802352822
 30
0.0
 10
189.8095274657878
 20
13.7443232414225
 30
0.0
 10
189.663427319686
 20
13.77993797554167
 30
0.0
 10
189.5243894320284
 20
13.90000570500272
 30
0.0
 10
189.4102003962144
 20
14.07435682550315
 30
0.0
 10
189.3146141301485
 20
14.29946603111236
 30
0.0
 10
189.2318652572626
 20
14.56388246006438
 30
0.0
 10
189.1807179256411
 20
14.88187933098538
 30
0.0
 10
189.0770189207339
 20
15.15543728488908
 30
0.0
 10
189.2042841208519
 20
15.56005818612861
 30
0.0
 10
189.0357890623019
 20
15.55112367849673
 30
0.0
 10
188.9511995787077
 20
15.55315961418358
 30
0.0
 10
188.8189876387627
 20
15.55213937388401
 30
0.0
 10
188.6560505094104
 20
15.55253230318424
 30
0.0
 10
188.4733759170532
 20
15.55235696313363
 30
0.0
 10
188.2847057373383
 20
15.55260105307463
 30
0.0
 10
188.1014469020189
 20
15.55185657906231
 30
0.0
 10
187.9404746832718
 20
15.55416360522421
 30
0.0
 10
187.8029808335276
 20
15.54799804883657
 30
0.0
 10
187.728959037231
 20
15.56032838458206
 30
0.0
 10
187.6613215186857
 20
15.54329323723551
 30
0.0
 10
187.6732373719269
 20
15.59524438447523
 30
0.0
 10
187.6655677285694
 20
15.64071424966524
 30
0.0
 10
187.6732592225115
 20
15.686144537037
 30
0.0
 10
187.6613141797762
 20
15.73802395984565
 30
0.0
 10
187.7283588305866
 20
15.72119143490259
 30
0.0
 10
187.8017375665676
 20
15.73335409092665
 30
0.0
 10
187.9379128305272
 20
15.72727231074954
 30
0.0
 10
188.0973811801512
 20
15.72954834315053
 30
0.0
 10
188.2789173085836
 20
15.72881233998957
 30
0.0
 10
188.4658034862179
 20
15.72905954196128
 30
0.0
 10
188.6468012316836
 20
15.72886400799248
 30
0.0
 10
188.8080802578878
 20
15.72932234714834
 30
0.0
 10
188.9393882124887
 20
15.728126737512
 30
0.0
 10
189.0225051322597
 20
15.73051347319738
 30
0.0
 10
189.1556236547813
 20
15.72230605725459
 30
0.0
 10
189.0645893502657
 20
15.97752868952649
 30
0.0
 10
188.9789633074422
 20
16.24164358328243
 30
0.0
 10
189.0990589003454
 20
16.22904442969159
 30
0.0
 10
189.1514264948544
 20
16.2269423576307
 30
0.0
 10
189.2214497569715
 20
16.22535399889651
 30
0.0
 10
189.2671922337817
 20
16.21602567538108
 30
0.0
 10
189.3220812646933
 20
16.22545966915421
 30
0.0
 10
189.2963574785681
 20
16.17733028655168
 30
0.0
 10
189.1825397571453
 20
16.18266829744161
 30
0.0
 10
189.3159346621136
 20
15.95449174576772
 30
0.0
 10
189.1943658735472
 20
15.72156856595918
 30
0.0
 10
189.3223188769412
 20
15.73087258884433
 30
0.0
 10
189.4049048406461
 20
15.72801001754675
 30
0.0
 10
189.5307214850824
 20
15.72923437412297
 30
0.0
 10
189.6741469838057
 20
15.7293243188896
 30
0.0
 10
189.8157420951728
 20
15.72746163183848
 30
0.0
 10
189.9459127249967
 20
15.73333075937158
 30
0.0
 10
190.0193452286191
 20
15.72070340823198
 30
0.0
 10
190.0891112922096
 20
15.73877563110407
 30
0.0
 10
190.0775772605396
 20
15.68612850546321
 30
0.0
 10
190.0833184346682
 20
15.64221317686542
 30
0.0
 10
190.0816615770911
 20
15.59089982676544
 30
0.0
 10
190.0817757561669
 20
15.56158792021629
 30
0.0
 10
190.0818114333289
 20
15.55242795125072
 30
0.0
 11
190.0818114333289
 21
15.55242795125072
 31
0.0
 11
190.0472127192051
 21
15.55242795125072
 31
0.0
 11
189.9559979274241
 21
15.55242795125072
 31
0.0
 11
189.8270390838717
 21
15.55242795125072
 31
0.0
 11
189.6792082144335
 21
15.55242795125072
 31
0.0
 11
189.5313773449954
 21
15.55242795125072
 31
0.0
 11
189.402418501443
 21
15.55242795125072
 31
0.0
 11
189.311203709662
 21
15.55242795125072
 31
0.0
 11
189.2766049955382
 21
15.55242795125072
 31
0.0
 11
189.3083140497693
 21
15.23435864930116
 31
0.0
 11
189.3527866656865
 21
14.93509522788076
 31
0.0
 11
189.4092389118319
 21
14.66191269512571
 31
0.0
 11
189.4768868567478
 21
14.42208605917223
 31
0.0
 11
189.5549465689761
 21
14.2228903281565
 31
0.0
 11
189.6426341170591
 21
14.07160051021474
 31
0.0
 11
189.7391655695388
 21
13.97549161348313
 31
0.0
 11
189.8437569949575
 21
13.94183864609788
 31
0.0
 11
189.8943077302786
 21
13.97177376978831
 31
0.0
 11
189.9310588991551
 21
14.06491619815043
 31
0.0
 11
189.9562640977528
 21
14.2262715171205
 31
0.0
 11
189.9721769222368
 21
14.46084531263477
 31
0.0
 11
190.0494082682583
 21
14.40202182306613
 31
0.0
 11
190.1327184184385
 21
14.35921885432686
 31
0.0
 11
190.1066365811217
 21
14.11528388661006
 31
0.0
 11
190.0673317805105
 21
13.94207902887558
 31
0.0
 11
190.0105702596765
 21
13.83011272445913
 31
0.0
 11
189.932118261691
 21
13.76989341669642
 31
0.0
 11
189.8277420296256
 21
13.75192954892313
 31
0.0
 11
189.6738595065097
 21
13.78957440012357
 31
0.0
 11
189.5388902376747
 21
13.89707348877399
 31
0.0
 11
189.4221739916163
 21
14.06627361744804
 31
0.0
 11
189.32305053683
 21
14.28902158871939
 31
0.0
 11
189.2408596418113
 21
14.55716420516167
 31
0.0
 11
189.1749410750559
 21
14.86254826934855
 31
0.0
 11
189.1246346050593
 21
15.19702058385369
 31
0.0
 11
189.0892800003171
 21
15.55242795125072
 31
0.0
 11
189.0561935405844
 21
15.55242795125072
 31
0.0
 11
188.9654726026075
 21
15.55242795125072
 31
0.0
 11
188.8299248482185
 21
15.55242795125072
 31
0.0
 11
188.6623579392495
 21
15.55242795125072
 31
0.0
 11
188.4755795375324
 21
15.55242795125072
 31
0.0
 11
188.2823973048992
 21
15.55242795125072
 31
0.0
 11
188.0956189031822
 21
15.55242795125072
 31
0.0
 11
187.9280519942131
 21
15.55242795125072
 31
0.0
 11
187.7925042398241
 21
15.55242795125072
 31
0.0
 11
187.7017833018473
 21
15.55242795125072
 31
0.0
 11
187.6686968421145
 21
15.55242795125072
 31
0.0
 11
187.6686968421145
 21
15.58001489785841
 31
0.0
 11
187.6686968421145
 21
15.64070618039533
 31
0.0
 11
187.6686968421145
 21
15.70139746293224
 31
0.0
 11
187.6686968421145
 21
15.72898440953993
 31
0.0
 11
187.7014723087631
 21
15.72898440953993
 31
0.0
 11
187.7913405237673
 21
15.72898440953993
 31
0.0
 11
187.9256142097148
 21
15.72898440953993
 31
0.0
 11
188.0916060891932
 21
15.72898440953993
 31
0.0
 11
188.2766288847901
 21
15.72898440953993
 31
0.0
 11
188.4679953190932
 21
15.72898440953993
 31
0.0
 11
188.6530181146902
 21
15.72898440953993
 31
0.0
 11
188.8190099941685
 21
15.72898440953993
 31
0.0
 11
188.953283680116
 21
15.72898440953993
 31
0.0
 11
189.0431518951202
 21
15.72898440953993
 31
0.0
 11
189.0759273617688
 21
15.72898440953993
 31
0.0
 11
189.0659183950103
 21
15.97947647544954
 31
0.0
 11
189.0599112510663
 21
16.23196614552526
 31
0.0
 11
189.0860575870659
 21
16.23056921608116
 31
0.0
 11
189.1484065421419
 21
16.22723807663755
 31
0.0
 11
189.2228230369099
 21
16.22326220052744
 31
0.0
 11
189.2851719919859
 21
16.21993106108383
 31
0.0
 11
189.3113183279855
 21
16.21853413163974
 31
0.0
 11
189.298293111304
 21
16.19016528616075
 31
0.0
 11
189.2551649266405
 21
16.17581274276159
 31
0.0
 11
189.2574991961821
 21
15.95136670115103
 31
0.0
 11
189.2658452735903
 21
15.72898440953993
 31
0.0
 11
189.3009063195165
 21
15.72898440953993
 31
0.0
 11
189.3933399860495
 21
15.72898440953993
 31
0.0
 11
189.5240220663201
 21
15.72898440953993
 31
0.0
 11
189.6738283534596
 21
15.72898440953993
 31
0.0
 11
189.8236346405991
 21
15.72898440953993
 31
0.0
 11
189.9543167208697
 21
15.72898440953993
 31
0.0
 11
190.0467503874027
 21
15.72898440953993
 31
0.0
 11
190.0818114333289
 21
15.72898440953993
 31
0.0
 11
190.0818114333289
 21
15.70139746293224
 31
0.0
 11
190.0818114333289
 21
15.64070618039533
 31
0.0
 11
190.0818114333289
 21
15.58001489785841
 31
0.0
 11
190.0818114333289
 21
15.55242795125072
 31
0.0
  0
SPLINE
  5
B3
102
{ACAD_REACTORS
330
D0
102
}
330
49
100
AcDbEntity
  8
_U_30EC_U_30A4_U_30E4_U_30FC_1
  6
Continuous
 62
     2
100
AcDbSpline
210
0.0
220
0.0
230
1.0
 70
    11
 71
     3
 72
   118
 73
   114
 74
   112
 42
0.000000001
 43
0.0000000001
 44
0.00000001
 40
0.0
 40
0.0
 40
0.0
 40
0.0
 40
0.105470816297341
 40
0.246609827005191
 40
0.3965912874591263
 40
0.5285525069754033
 40
0.6156245055642274
 40
0.6431434105797601
 40
0.7036850037986291
 40
0.7642265984504688
 40
0.7917455052354992
 40
0.9287404319990007
 40
1.106572819088054
 40
1.287544879681055
 40
1.317578308030574
 40
1.399928030857209
 40
1.522968204799984
 40
1.675072986590608
 40
1.844616533180684
 40
2.019973001638748
 40
2.189516548880061
 40
2.341621331585399
 40
2.464661506320537
 40
2.547011229647099
 40
2.577044658168065
 40
2.603797890893135
 40
2.662655002908823
 40
2.721512114949634
 40
2.748265347702814
 40
2.774215307344889
 40
2.845959313407223
 40
2.95433855658842
 40
3.090194227585597
 40
3.244367517100564
 40
3.40769961584432
 40
3.571031714539471
 40
3.725205003920147
 40
3.861060674729647
 40
3.969439917716342
 40
4.041183923629013
 40
4.067133883213007
 40
4.3118867460122
 40
4.54789725833557
 40
4.76474708304401
 40
4.952749679951813
 40
5.045772974195939
 40
5.137862019645024
 40
5.330543169793079
 40
5.553448265244073
 40
5.795083855888229
 40
6.043293412177291
 40
6.285761695541233
 40
6.313902908752716
 40
6.384255941793306
 40
6.475714884766894
 40
6.567173827758957
 40
6.637526860839735
 40
6.665668074074098
 40
6.692018920328072
 40
6.749990782071142
 40
6.807962643790509
 40
6.834313490017983
 40
6.856393084245262
 40
6.913335195649886
 40
6.991194817302549
 40
7.076026942283811
 40
7.153886563725301
 40
7.210828674844883
 40
7.232908268931219
 40
7.258199334923741
 40
7.324875781592388
 40
7.419142481925045
 40
7.527204308841988
 40
7.635266135230568
 40
7.72953283416855
 40
7.796209279292873
 40
7.821500344594819
 40
7.844652988850889
 40
7.899863140541668
 40
7.965759128053834
 40
8.02096927977112
 40
8.044121924046586
 40
8.069356610160666
 40
8.109134395441437
 40
8.132238100191149
 40
8.193147867786514
 40
8.27926167887669
 40
8.377977512673905
 40
8.476693347146693
 40
8.562807160411749
 40
8.623716930826532
 40
8.646820636853487
 40
8.6719887937743
 40
8.734909185828212
 40
8.816705695188926
 40
8.898502204815497
 40
8.961422597377958
 40
8.98659075455107
 40
9.012941600733226
 40
9.070913462380311
 40
9.128885324081805
 40
9.155236170325125
 40
9.180404327929168
 40
9.243324721948241
 40
9.325121234212034
 40
9.406917746637689
 40
9.469838141978144
 40
9.495006288270918
 40
9.51781118437906
 40
9.572192090487055
 40
9.637098333281285
 40
9.691479239515482
 40
9.71428412564352
 40
9.71428412564352
 40
9.71428412564352
 40
9.71428412564352
 10
185.2874469028653
 20
15.26889163187715
 30
0.0
 10
185.3090990569037
 20
15.24111869242807
 30
0.0
 10
185.3597257109473
 20
15.17618054561232
 30
0.0
 10
185.4349383202592
 20
15.06891060312894
 30
0.0
 10
185.5248482274346
 20
14.95377438266621
 30
0.0
 10
185.5709169676673
 20
14.85357045748315
 30
0.0
 10
185.6655825294655
 20
14.78434006814938
 30
0.0
 10
185.6204439320412
 20
14.73771639678268
 30
0.0
 10
185.594704778579
 20
14.69660308866034
 30
0.0
 10
185.5645196708011
 20
14.66065971727934
 30
0.0
 10
185.5193684730562
 20
14.58579782596088
 30
0.0
 10
185.4710504458562
 20
14.80782524253601
 30
0.0
 10
185.3968539713073
 20
14.84510677337705
 30
0.0
 10
185.2836047324608
 20
15.11610202130597
 30
0.0
 10
185.2885133578168
 20
15.00095328446224
 30
0.0
 10
185.2868486556306
 20
14.92836675781624
 30
0.0
 10
185.2876830076713
 20
14.80625588483982
 30
0.0
 10
185.2873609540265
 20
14.65913800810457
 30
0.0
 10
185.2875076912455
 20
14.49307063956553
 30
0.0
 10
185.2872950092723
 20
14.32187554608598
 30
0.0
 10
185.2879497252034
 20
14.15552828635494
 30
0.0
 10
185.2859192461139
 20
14.00935173055689
 30
0.0
 10
185.291346039993
 20
13.88471047474607
 30
0.0
 10
185.2804930868708
 20
13.81718656540622
 30
0.0
 10
185.2956739155554
 20
13.75549061417018
 30
0.0
 10
185.2457895108134
 20
13.76727503896997
 30
0.0
 10
185.2017150342522
 20
13.75943822779966
 30
0.0
 10
185.1582371630201
 20
13.76760441372699
 30
0.0
 10
185.1092346786488
 20
13.75538056738463
 30
0.0
 10
185.1218731234825
 20
13.80960667249309
 30
0.0
 10
185.1130182968449
 20
13.86936918907553
 30
0.0
 10
185.1175058770314
 20
13.97922029044367
 30
0.0
 10
185.1157960135991
 20
14.11029975405674
 30
0.0
 10
185.1163550915986
 20
14.26198011444324
 30
0.0
 10
185.1161928768694
 20
14.42211074929949
 30
0.0
 10
185.1162269924675
 20
14.58236865674563
 30
0.0
 10
185.1162514960126
 20
14.73370247520435
 30
0.0
 10
185.1161453543225
 20
14.86582156338597
 30
0.0
 10
185.1164299141931
 20
14.97294802533189
 30
0.0
 10
185.1158675547567
 20
15.0380861957947
 30
0.0
 10
185.1180765083689
 20
15.16618957858671
 30
0.0
 10
185.0319435998603
 20
14.79097610391571
 30
0.0
 10
184.9555140818499
 20
14.6391819312339
 30
0.0
 10
184.8660040767833
 20
14.47766206446301
 30
0.0
 10
184.7640413217327
 20
14.20471848820166
 30
0.0
 10
184.7187976491039
 20
14.36717346596506
 30
0.0
 10
184.610235594167
 20
14.45605432058115
 30
0.0
 10
184.7995791751752
 20
14.60549794961404
 30
0.0
 10
184.85653405457
 20
14.79749136974921
 30
0.0
 10
184.9717520993353
 20
15.02899622906753
 30
0.0
 10
184.9940151630132
 20
15.21797259759058
 30
0.0
 10
185.1771905152139
 20
15.49454089325926
 30
0.0
 10
185.0538033597552
 20
15.48698978832089
 30
0.0
 10
184.9925684166834
 20
15.48856772366114
 30
0.0
 10
184.9081999617064
 20
15.48882592573667
 30
0.0
 10
184.8204235085966
 20
15.48544845751201
 30
0.0
 10
184.7656768696122
 20
15.49394814982015
 30
0.0
 10
184.7104703026025
 20
15.48048561049783
 30
0.0
 10
184.7222823035536
 20
15.52931442126758
 30
0.0
 10
184.7142496151795
 20
15.57269004896704
 30
0.0
 10
184.7228186104677
 20
15.61509438309567
 30
0.0
 10
184.7102943409157
 20
15.66267796552113
 30
0.0
 10
184.7555101538735
 20
15.65267212995104
 30
0.0
 10
184.8014815562723
 20
15.65894105174056
 30
0.0
 10
184.877722204771
 20
15.65593561405867
 30
0.0
 10
184.9561296131993
 20
15.65770448278536
 30
0.0
 10
185.0323992648932
 20
15.65464793981655
 30
0.0
 10
185.0783009459475
 20
15.66103971376172
 30
0.0
 10
185.12317339654
 20
15.65093822978891
 30
0.0
 10
185.1105552275634
 20
15.70157201581894
 30
0.0
 10
185.1191936582707
 20
15.75501261882065
 30
0.0
 10
185.1152361595442
 20
15.84863255131675
 30
0.0
 10
185.1162325068335
 20
15.95112606688919
 30
0.0
 10
185.1171927413073
 20
16.05353270248158
 30
0.0
 10
185.1133211458005
 20
16.14735929609316
 30
0.0
 10
185.1217789814364
 20
16.20036542840347
 30
0.0
 10
185.1093075932835
 20
16.25211435651184
 30
0.0
 10
185.1542106389849
 20
16.23850747226751
 30
0.0
 10
185.1955083836772
 20
16.24100480320581
 30
0.0
 10
185.259534428105
 20
16.23648060574482
 30
0.0
 10
185.2986111148785
 20
16.22781003043303
 30
0.0
 10
185.3476543498742
 20
16.23515102070682
 30
0.0
 10
185.322508003059
 20
16.19602896051754
 30
0.0
 10
185.2815901333723
 20
16.20563842455804
 30
0.0
 10
185.2910109616604
 20
16.15540148169774
 30
0.0
 10
185.2855647318746
 20
16.10385945639486
 30
0.0
 10
185.2881699601804
 20
16.01959707584517
 30
0.0
 10
185.2870102202153
 20
15.92559135583403
 30
0.0
 10
185.2883591064232
 20
15.83196865395521
 30
0.0
 10
185.2849970101508
 20
15.74679517552218
 30
0.0
 10
185.2920959917769
 20
15.69716856072039
 30
0.0
 10
185.2812569154545
 20
15.64993694969984
 30
0.0
 10
185.3304010225245
 20
15.66201674936847
 30
0.0
 10
185.3794877630147
 20
15.65447393363006
 30
0.0
 10
185.4573714280641
 20
15.65686070361428
 30
0.0
 10
185.5350365172896
 20
15.65899381905409
 30
0.0
 10
185.5845393931355
 20
15.6519339192245
 30
0.0
 10
185.6344594750639
 20
15.66360151936209
 30
0.0
 10
185.622319851688
 20
15.61540235371387
 30
0.0
 10
185.6305838229144
 20
15.57249219801231
 30
0.0
 10
185.6223198650783
 20
15.52958201851379
 30
0.0
 10
185.6344594549855
 20
15.4813828875486
 30
0.0
 10
185.5845395158746
 20
15.49305034471505
 30
0.0
 10
185.5350350651203
 20
15.48599202435041
 30
0.0
 10
185.4573784382972
 20
15.48811665228598
 30
0.0
 10
185.379464386576
 20
15.49053389365755
 30
0.0
 10
185.3304500352716
 20
15.4829184819448
 30
0.0
 10
185.2813246108943
 20
15.49507952557587
 30
0.0
 10
185.2915559988571
 20
15.45073013424153
 30
0.0
 10
185.2856677678053
 20
15.40925436202907
 30
0.0
 10
185.2878788305569
 20
15.34915394315298
 30
0.0
 10
185.2874109346146
 20
15.30225782762885
 30
0.0
 10
185.2874386992913
 20
15.27650146418192
 30
0.0
 10
185.2874469028653
 20
15.26889163187715
 30
0.0
 11
185.2874469028653
 21
15.26889163187715
 31
0.0
 11
185.3516977534484
 21
15.18524999634252
 31
0.0
 11
185.4348258835499
 21
15.07118889748216
 31
0.0
 11
185.5216831568896
 21
14.94891767195719
 31
0.0
 11
185.5971214371872
 21
14.84064565642871
 31
0.0
 11
185.6459925881626
 21
14.76858218755785
 31
0.0
 11
185.6296821285093
 21
14.74641782124394
 31
0.0
 11
185.5937991172719
 21
14.69765621535334
 31
0.0
 11
185.5579161060346
 21
14.64889460946275
 31
0.0
 11
185.5416056463813
 21
14.62673024314884
 31
0.0
 11
185.4763067109446
 21
14.74716139023809
 31
0.0
 11
185.3848434243234
 21
14.89966983670203
 31
0.0
 11
185.2874469028653
 21
15.05219788193138
 31
0.0
 11
185.2874469028653
 21
15.02216445328249
 31
0.0
 11
185.2874469028653
 21
14.93981472956779
 31
0.0
 11
185.2874469028653
 21
14.81677455413524
 31
0.0
 11
185.2874469028653
 21
14.66466977033279
 31
0.0
 11
185.2874469028653
 21
14.49512622150841
 31
0.0
 11
185.2874469028653
 21
14.31976975101005
 31
0.0
 11
185.2874469028653
 21
14.15022620218567
 31
0.0
 11
185.2874469028653
 21
13.99812141838322
 31
0.0
 11
185.2874469028653
 21
13.87508124295067
 31
0.0
 11
185.2874469028653
 21
13.79273151923597
 31
0.0
 11
185.2874469028653
 21
13.76269809058708
 31
0.0
 11
185.2606936700409
 21
13.76269809058708
 31
0.0
 11
185.2018365578272
 21
13.76269809058708
 31
0.0
 11
185.1429794456134
 21
13.76269809058708
 31
0.0
 11
185.116226212789
 21
13.76269809058708
 31
0.0
 11
185.116226212789
 21
13.78864805031246
 31
0.0
 11
185.116226212789
 21
13.86039205661204
 31
0.0
 11
185.116226212789
 21
13.96877130017097
 31
0.0
 11
185.116226212789
 21
14.10462697167443
 31
0.0
 11
185.116226212789
 21
14.25880026180757
 31
0.0
 11
185.116226212789
 21
14.42213236125554
 31
0.0
 11
185.116226212789
 21
14.58546446070352
 31
0.0
 11
185.116226212789
 21
14.73963775083666
 31
0.0
 11
185.116226212789
 21
14.87549342234011
 31
0.0
 11
185.116226212789
 21
14.98387266589905
 31
0.0
 11
185.116226212789
 21
15.05561667219863
 31
0.0
 11
185.116226212789
 21
15.08156663192401
 31
0.0
 11
185.0379865861721
 21
14.84965603302367
 31
0.0
 11
184.9497110789303
 21
14.63077616328673
 31
0.0
 11
184.8544106930045
 21
14.43598991333542
 31
0.0
 11
184.7550964303356
 21
14.27636017379197
 31
0.0
 11
184.7109198342406
 21
14.35822446196594
 31
0.0
 11
184.658805738348
 21
14.43414885430806
 31
0.0
 11
184.7627302590299
 21
14.59640087926753
 31
0.0
 11
184.8629319864735
 21
14.79551465421777
 31
0.0
 11
184.9550446607901
 21
15.01890447916192
 31
0.0
 11
185.0347020220912
 21
15.25398465410315
 31
0.0
 11
185.097537810488
 21
15.4881694790446
 31
0.0
 11
185.0693965972142
 21
15.4881694790446
 31
0.0
 11
184.9990435640297
 21
15.4881694790446
 31
0.0
 11
184.9075846208898
 21
15.4881694790446
 31
0.0
 11
184.8161256777499
 21
15.4881694790446
 31
0.0
 11
184.7457726445654
 21
15.4881694790446
 31
0.0
 11
184.7176314312916
 21
15.4881694790446
 31
0.0
 11
184.7176314312916
 21
15.51452032539217
 31
0.0
 11
184.7176314312916
 21
15.57249218735684
 31
0.0
 11
184.7176314312916
 21
15.6304640493215
 31
0.0
 11
184.7176314312916
 21
15.65681489566907
 31
0.0
 11
184.739711025602
 21
15.65681489566907
 31
0.0
 11
184.7966531372444
 21
15.65681489566907
 31
0.0
 11
184.8745127592862
 21
15.65681489566907
 31
0.0
 11
184.9593448847944
 21
15.65681489566907
 31
0.0
 11
185.0372045068361
 21
15.65681489566907
 31
0.0
 11
185.0941466184786
 21
15.65681489566907
 31
0.0
 11
185.116226212789
 21
15.65681489566907
 31
0.0
 11
185.116226212789
 21
15.68210596174348
 31
0.0
 11
185.116226212789
 21
15.74878240866692
 31
0.0
 11
185.116226212789
 21
15.84304910948972
 31
0.0
 11
185.116226212789
 21
15.95111093726219
 31
0.0
 11
185.116226212789
 21
16.05917276503467
 31
0.0
 11
185.116226212789
 21
16.15343946585746
 31
0.0
 11
185.116226212789
 21
16.2201159127809
 31
0.0
 11
185.116226212789
 21
16.24540697885531
 31
0.0
 11
185.1393181988665
 21
16.24373213107795
 31
0.0
 11
185.1943837041284
 21
16.23973826330117
 31
0.0
 11
185.2601070491184
 21
16.23497138885791
 31
0.0
 11
185.3151725543802
 21
16.23097752108112
 31
0.0
 11
185.3382645404578
 21
16.22930267330376
 31
0.0
 11
185.3249012644362
 21
16.20789677921187
 31
0.0
 11
185.2874469028653
 21
16.19450114553465
 31
0.0
 11
185.2874469028653
 21
16.17139743948574
 31
0.0
 11
185.2874469028653
 21
16.11048766899316
 31
0.0
 11
185.2874469028653
 21
16.02437385553812
 31
0.0
 11
185.2874469028653
 21
15.92565802060186
 31
0.0
 11
185.2874469028653
 21
15.8269421856656
 31
0.0
 11
185.2874469028653
 21
15.74082837221057
 31
0.0
 11
185.2874469028653
 21
15.67991860171798
 31
0.0
 11
185.2874469028653
 21
15.65681489566907
 31
0.0
 11
185.3126150604809
 21
15.65681489566907
 31
0.0
 11
185.3755354545199
 21
15.65681489566907
 31
0.0
 11
185.4573319667706
 21
15.65681489566907
 31
0.0
 11
185.5391284790212
 21
15.65681489566907
 31
0.0
 11
185.6020488730602
 21
15.65681489566907
 31
0.0
 11
185.6272170306758
 21
15.65681489566907
 31
0.0
 11
185.6272170306758
 21
15.6304640493215
 31
0.0
 11
185.6272170306758
 21
15.57249218735683
 31
0.0
 11
185.6272170306758
 21
15.51452032539217
 31
0.0
 11
185.6272170306758
 21
15.4881694790446
 31
0.0
 11
185.6020488730602
 21
15.4881694790446
 31
0.0
 11
185.5391284790212
 21
15.4881694790446
 31
0.0
 11
185.4573319667705
 21
15.4881694790446
 31
0.0
 11
185.3755354545199
 21
15.4881694790446
 31
0.0
 11
185.3126150604809
 21
15.4881694790446
 31
0.0
 11
185.2874469028653
 21
15.4881694790446
 31
0.0
 11
185.2874469028653
 21
15.46536458293919
 31
0.0
 11
185.2874469028653
 21
15.41098367684166
 31
0.0
 11
185.2874469028653
 21
15.34607743408009
 31
0.0
 11
185.2874469028653
 21
15.29169652798256
 31
0.0
 11
185.2874469028653
 21
15.26889163187715
 31
0.0
  0
SPLINE
  5
B4
102
{ACAD_REACTORS
330
D1
102
}
330
49
100
AcDbEntity
  8
_U_30EC_U_30A4_U_30E4_U_30FC_1
  6
Continuous
 62
     2
100
AcDbSpline
210
0.0
220
0.0
230
1.0
 70
    11
 71
     3
 72
    47
 73
    43
 74
    41
 42
0.000000001
 43
0.0000000001
 44
0.00000001
 40
0.0
 40
0.0
 40
0.0
 40
0.0
 40
0.2207912809957177
 40
0.4459404186303042
 40
0.4902387190459267
 40
0.532747389272222
 40
0.5742260451225542
 40
0.6155432630560833
 40
0.6568164066315749
 40
0.6982511618780674
 40
0.7407663929317182
 40
0.7851366743175253
 40
1.010288833836329
 40
1.231080507002174
 40
1.451765243652406
 40
1.67663820589169
 40
1.720461045359661
 40
1.830018144043528
 40
1.972442372353161
 40
2.11486660067753
 40
2.224423699395157
 40
2.2682465388834
 40
2.493628801207222
 40
2.715602830286622
 40
2.934211330706378
 40
3.149502369855378
 40
3.231387784851024
 40
3.318231873854059
 40
3.405143198198047
 40
3.486970301720484
 40
3.702258172493933
 40
3.920866283534166
 40
4.142839325931956
 40
4.368221903865409
 40
4.412044743359889
 40
4.521601842095908
 40
4.664026070452389
 40
4.8064502988091
 40
4.916007397546794
 40
4.959830237043118
 40
5.184703515847149
 40
5.405387250767528
 40
5.405387250767528
 40
5.405387250767528
 40
5.405387250767528
 10
182.6507427258645
 20
15.73406440953868
 30
0.0
 10
182.6568139420002
 20
15.79758482501206
 30
0.0
 10
182.6690762107242
 20
15.92587938689621
 30
0.0
 10
182.5604706879413
 20
16.20166220174076
 30
0.0
 10
182.6761985896603
 20
16.17188133432047
 30
0.0
 10
182.7171842509015
 20
16.16765556262816
 30
0.0
 10
182.7591205797518
 20
16.16310446389603
 30
0.0
 10
182.800419662571
 20
16.16201982929481
 30
0.0
 10
182.8417032115555
 20
16.16310338195222
 30
0.0
 10
182.8836148270647
 20
16.16766112711339
 30
0.0
 10
182.9245983549019
 20
16.17187430209723
 30
0.0
 10
183.0404922843489
 20
16.20177611317531
 30
0.0
 10
182.9295652727455
 20
15.92339806609884
 30
0.0
 10
182.9574856365267
 20
15.74283140824949
 30
0.0
 10
182.9404267346969
 20
15.50961042346467
 30
0.0
 10
182.9414637282102
 20
15.34906622543142
 30
0.0
 10
182.9414099399404
 20
15.22284817558717
 30
0.0
 10
182.9414277372481
 20
15.12428963336237
 30
0.0
 10
182.941418858108
 20
14.99280702442958
 30
0.0
 10
182.9414263928034
 20
14.86132844968646
 30
0.0
 10
182.9414129405128
 20
14.76276222694085
 30
0.0
 10
182.9414531717492
 20
14.63639735624148
 30
0.0
 10
182.9406746403817
 20
14.47482068822865
 30
0.0
 10
182.9565958319267
 20
14.2436182189291
 30
0.0
 10
182.9333468885407
 20
14.05874351971997
 30
0.0
 10
183.0360183444366
 20
13.78935602770049
 30
0.0
 10
182.8820238362836
 20
13.82660112685812
 30
0.0
 10
182.8004129802832
 20
13.8213799468053
 30
0.0
 10
182.7188192292583
 20
13.82660620378347
 30
0.0
 10
182.5648513666842
 20
13.7893706988538
 30
0.0
 10
182.6674183421918
 20
14.05875129862875
 30
0.0
 10
182.6442045316088
 20
14.24361585325411
 30
0.0
 10
182.6600444655138
 20
14.47482218565634
 30
0.0
 10
182.6593296313427
 20
14.63639712308499
 30
0.0
 10
182.6593664569907
 20
14.76276231210515
 30
0.0
 10
182.659354900027
 20
14.86132756635977
 30
0.0
 10
182.6593575019213
 20
14.99281127417215
 30
0.0
 10
182.659364853178
 20
15.12427548031195
 30
0.0
 10
182.6593442541351
 20
15.22287786275322
 30
0.0
 10
182.6594082192028
 20
15.34896149354423
 30
0.0
 10
182.658173394759
 20
15.51210091383767
 30
0.0
 10
182.6532040396745
 20
15.66054183777546
 30
0.0
 10
182.6507427258645
 20
15.73406440953868
 30
0.0
 11
182.6507427258645
 21
15.73406440953868
 31
0.0
 11
182.6417328200379
 21
15.95467178795573
 31
0.0
 11
182.6318769706146
 21
16.17960510387175
 31
0.0
 11
182.6756985840801
 21
16.17312391463724
 31
0.0
 11
182.7178400934215
 21
16.1675489233192
 31
0.0
 11
182.759137140979
 21
16.16367167505626
 31
0.0
 11
182.8004341885365
 21
16.16238072887603
 31
0.0
 11
182.841687138873
 21
16.16367167505626
 31
0.0
 11
182.8829400892097
 21
16.1675489233192
 31
0.0
 11
182.9250882131343
 21
16.17312391463724
 31
0.0
 11
182.9689825870145
 21
16.17960510387175
 31
0.0
 11
182.9590577693891
 21
15.95467178795573
 31
0.0
 11
182.950038420831
 21
15.73406440953868
 31
0.0
 11
182.9435638463435
 21
15.5134746700105
 31
0.0
 11
182.9414218238286
 21
15.28861190965003
 31
0.0
 11
182.9414218238286
 21
15.24478907015481
 31
0.0
 11
182.9414218238286
 21
15.13523197141678
 31
0.0
 11
182.9414218238286
 21
14.99280774305732
 31
0.0
 11
182.9414218238286
 21
14.85038351469788
 31
0.0
 11
182.9414218238286
 21
14.74082641595984
 31
0.0
 11
182.9414218238286
 21
14.69700357646462
 31
0.0
 11
182.9435638463435
 21
14.47163149318762
 31
0.0
 11
182.950038420831
 21
14.24975190990976
 31
0.0
 11
182.9590577693891
 21
14.03132954885325
 31
0.0
 11
182.9689825870145
 21
13.81626739612922
 31
0.0
 11
182.887261616877
 21
13.82145433189181
 31
0.0
 11
182.8004341885365
 21
13.82315538223858
 31
0.0
 11
182.7135395119339
 21
13.82145433189181
 31
0.0
 11
182.6318769706146
 21
13.81626739612922
 31
0.0
 11
182.6417328200379
 21
14.03132954885325
 31
0.0
 11
182.6507427258645
 21
14.24975190990976
 31
0.0
 11
182.6571833838798
 21
14.47163149318762
 31
0.0
 11
182.6593583588023
 21
14.69700357646462
 31
0.0
 11
182.6593583588023
 21
14.74082641595983
 31
0.0
 11
182.6593583588023
 21
14.85038351469788
 31
0.0
 11
182.6593583588023
 21
14.99280774305732
 31
0.0
 11
182.6593583588023
 21
15.13523197141678
 31
0.0
 11
182.6593583588023
 21
15.24478907015481
 31
0.0
 11
182.6593583588023
 21
15.28861190965003
 31
0.0
 11
182.6571833838798
 21
15.5134746700105
 31
0.0
 11
182.6507427258645
 21
15.73406440953868
 31
0.0
  0
SPLINE
  5
B5
102
{ACAD_REACTORS
330
D2
102
}
330
49
100
AcDbEntity
  8
_U_30EC_U_30A4_U_30E4_U_30FC_1
  6
Continuous
 62
     2
100
AcDbSpline
210
0.0
220
0.0
230
1.0
 70
    11
 71
     3
 72
   110
 73
   106
 74
   104
 42
0.000000001
 43
0.0000000001
 44
0.00000001
 40
0.0
 40
0.0
 40
0.0
 40
0.0
 40
0.2203406257277755
 40
0.4407808782838109
 40
0.5952494494615089
 40
0.7488431659393093
 40
0.9023581831309077
 40
1.056801968670406
 40
1.210736449099906
 40
1.363041386539785
 40
1.515315729683128
 40
1.669377239148079
 40
1.721611652756566
 40
1.773199502942949
 40
1.824933793209999
 40
1.877110426487981
 40
1.982682281206745
 40
2.078781667087553
 40
2.172809640822274
 40
2.271937807378928
 40
2.378349933379321
 40
2.49413155773651
 40
2.626681683943643
 40
2.783145050796071
 40
2.89070123294092
 40
2.993130312454818
 40
3.099869730691805
 40
3.2202378166913
 40
3.352695482737586
 40
3.48173280638984
 40
3.593499473690366
 40
3.674323013331876
 40
3.817951711952826
 40
3.946167120793823
 40
4.061405053453509
 40
4.16648079600315
 40
4.262478775059187
 40
4.350736673551143
 40
4.433071991254028
 40
4.511216293814631
 40
4.564262454117956
 40
4.618474415571573
 40
4.670128488754176
 40
4.722296879126366
 40
4.819540945314235
 40
4.931194984128091
 40
5.049996040257732
 40
5.168643755415278
 40
5.283970811762489
 40
5.392260784910315
 40
5.48651225487639
 40
5.559178233949789
 40
5.591425852853448
 40
5.626215969637822
 40
5.667155838674376
 40
5.717449290214185
 40
5.738402360944798
 40
5.78449911655377
 40
5.830595872164743
 40
5.851548942897601
 40
5.873019280661712
 40
5.924217778408257
 40
5.985325662817631
 40
6.036524160567646
 40
6.057994498334173
 40
6.236847789607426
 40
6.381409928945596
 40
6.493190424178626
 40
6.574067534230435
 40
6.69101808620553
 40
6.814881554220447
 40
6.9443078232404
 40
7.071266716066024
 40
7.193488604461868
 40
7.309042773128096
 40
7.414007203170721
 40
7.505140441886478
 40
7.531150360599636
 40
7.55922164532223
 40
7.587202218920885
 40
7.612569159499092
 40
7.662550809480969
 40
7.702878875764108
 40
7.857328205230923
 40
8.010799568088569
 40
8.165256399657519
 40
8.322232698713858
 40
8.479564855016545
 40
8.635216230290748
 40
8.790882550925666
 40
8.948305154947231
 40
9.168271839032924
 40
9.387358980987193
 40
9.60804796103344
 40
9.832914234792646
 40
9.85833869496298
 40
9.92536681722999
 40
10.02013071422757
 40
10.12876249858996
 40
10.23739428295246
 40
10.33215817995188
 40
10.39918630222391
 40
10.4246107623978
 40
10.6499201933694
 40
10.87188524531185
 40
10.87188524531185
 40
10.87188524531185
 40
10.87188524531185
 10
179.9057788376618
 20
15.73923260398186
 30
0.0
 10
179.9092864933542
 20
15.806164620738
 30
0.0
 10
179.9163033987662
 20
15.94005891915855
 30
0.0
 10
179.8198027599072
 20
16.22548554971466
 30
0.0
 10
180.0510134726108
 20
16.16284386190278
 30
0.0
 10
180.1919290057156
 20
16.17001554055986
 30
0.0
 10
180.3490417757588
 20
16.1623588307824
 30
0.0
 10
180.5025913427287
 20
16.16252752283036
 30
0.0
 10
180.6545104935081
 20
16.16182040535428
 30
0.0
 10
180.8142214813232
 20
16.17210158351635
 30
0.0
 10
180.9408972601117
 20
16.15496511080746
 30
0.0
 10
181.1370821122081
 20
16.22727260107142
 30
0.0
 10
181.1034395279077
 20
16.12640699080113
 30
0.0
 10
181.1052011317184
 20
16.07619253947666
 30
0.0
 10
181.1027342073457
 20
16.02712335586461
 30
0.0
 10
181.1347076966011
 20
15.94063490846995
 30
0.0
 10
181.0010399903255
 20
15.98997438608331
 30
0.0
 10
180.9172208688057
 20
15.98430634314165
 30
0.0
 10
180.8173861139323
 20
15.99465516706293
 30
0.0
 10
180.7186576720146
 20
16.00086450411082
 30
0.0
 10
180.612153277111
 20
16.00697763816773
 30
0.0
 10
180.491051169806
 20
16.01588883484582
 30
0.0
 10
180.3703381502453
 20
16.00521605912378
 30
0.0
 10
180.1812553843437
 20
16.06468503080362
 30
0.0
 10
180.2129028505311
 20
15.90558320077535
 30
0.0
 10
180.1995563316833
 20
15.808391283399
 30
0.0
 10
180.197495842645
 20
15.69634065110098
 30
0.0
 10
180.195818804467
 20
15.57699685629345
 30
0.0
 10
180.1973336794233
 20
15.45032592155106
 30
0.0
 10
180.1956582478669
 20
15.32301588016111
 30
0.0
 10
180.2058844271657
 20
15.22451566404459
 30
0.0
 10
180.1779006596583
 20
15.08388702625626
 30
0.0
 10
180.3508029999304
 20
15.1398955113409
 30
0.0
 10
180.4645020202772
 20
15.12719951478494
 30
0.0
 10
180.5840151672239
 20
15.13448377051249
 30
0.0
 10
180.6888491425071
 20
15.13878017056751
 30
0.0
 10
180.7843084898612
 20
15.14330568258973
 30
0.0
 10
180.8763823507032
 20
15.15149201146196
 30
0.0
 10
180.9476551782439
 20
15.14643850638106
 30
0.0
 10
181.0544931705685
 20
15.1853642503167
 30
0.0
 10
181.0226603598035
 20
15.10517122005874
 30
0.0
 10
181.026616450393
 20
15.05562936846029
 30
0.0
 10
181.0234502392013
 20
15.00557478039814
 30
0.0
 10
181.0550791490585
 20
14.92128847612018
 30
0.0
 10
180.9210133677691
 20
14.97425365495153
 30
0.0
 10
180.8292322793199
 20
14.96540080890436
 30
0.0
 10
180.7079729189603
 20
14.9757004996515
 30
0.0
 10
180.5914113119771
 20
14.97748911767499
 30
0.0
 10
180.4783375745878
 20
14.97787017109689
 30
0.0
 10
180.3679246308471
 20
14.98415449472175
 30
0.0
 10
180.289812406784
 20
14.97189133255359
 30
0.0
 10
180.1913625833644
 20
15.00453887616121
 30
0.0
 10
180.2012355173561
 20
14.94769748054201
 30
0.0
 10
180.1973923244403
 20
14.9139213055798
 30
0.0
 10
180.1966789884268
 20
14.87119604709407
 30
0.0
 10
180.1963369642975
 20
14.83401607262149
 30
0.0
 10
180.1963834255346
 20
14.79487237370766
 30
0.0
 10
180.1963649429927
 20
14.75716849497681
 30
0.0
 10
180.1963703431806
 20
14.71944955232398
 30
0.0
 10
180.19636972142
 20
14.68994324745145
 30
0.0
 10
180.1963698151545
 20
14.65873577699296
 30
0.0
 10
180.1963704287921
 20
14.6141442490808
 30
0.0
 10
180.1963671499337
 20
14.55963956508847
 30
0.0
 10
180.1963759623481
 20
14.51505540201443
 30
0.0
 10
180.1963359653417
 20
14.43117808585735
 30
0.0
 10
180.1976024270255
 20
14.31737520677674
 30
0.0
 10
180.1950274117842
 20
14.16830395933705
 30
0.0
 10
180.2065009381719
 20
14.06597203813901
 30
0.0
 10
180.1823506222264
 20
13.9333890388583
 30
0.0
 10
180.3332993946476
 20
13.97895732272017
 30
0.0
 10
180.4428436671556
 20
13.96427012162345
 30
0.0
 10
180.573397047392
 20
13.96920435125059
 30
0.0
 10
180.6990312209514
 20
13.97257705323357
 30
0.0
 10
180.8188730625601
 20
13.97711497498769
 30
0.0
 10
180.9391362611426
 20
13.99048536182001
 30
0.0
 10
181.0222761663515
 20
13.98068712782591
 30
0.0
 10
181.1456080421075
 20
14.04126214623315
 30
0.0
 10
181.1244269203956
 20
13.98532460134016
 30
0.0
 10
181.1235950270116
 20
13.95939249372341
 30
0.0
 10
181.1218963707558
 20
13.93197256190934
 30
0.0
 10
181.1217974888829
 20
13.8973819520638
 30
0.0
 10
181.120365930133
 20
13.86050408220763
 30
0.0
 10
181.1532804192189
 20
13.76846841021801
 30
0.0
 10
180.9551306988108
 20
13.84132015974827
 30
0.0
 10
180.830054829489
 20
13.81825726508601
 30
0.0
 10
180.6673071295156
 20
13.82454021985782
 30
0.0
 10
180.5129366450001
 20
13.82260943909922
 30
0.0
 10
180.3566670436943
 20
13.82393762599263
 30
0.0
 10
180.1970544465282
 20
13.82059872487858
 30
0.0
 10
180.0540326342237
 20
13.83265795728236
 30
0.0
 10
179.8197144881627
 20
13.76952001976912
 30
0.0
 10
179.9173810751197
 20
14.05620527466312
 30
0.0
 10
179.9006868780058
 20
14.24988308142655
 30
0.0
 10
179.9146296709684
 20
14.4784824288029
 30
0.0
 10
179.9142987846633
 20
14.63384593955045
 30
0.0
 10
179.9143078119263
 20
14.73966336444121
 30
0.0
 10
179.9143055876316
 20
14.80205784124211
 30
0.0
 10
179.9143065551888
 20
14.89220425248322
 30
0.0
 10
179.9143065473262
 20
14.99621167157434
 30
0.0
 10
179.9143053861101
 20
15.10022131375292
 30
0.0
 10
179.9143090971504
 20
15.19036243688764
 30
0.0
 10
179.9143011051051
 20
15.25276803097211
 30
0.0
 10
179.9143334275019
 20
15.35868835961115
 30
0.0
 10
179.9131440788318
 20
15.51626716544735
 30
0.0
 10
179.9082216489256
 20
15.66528219822061
 30
0.0
 10
179.9057788376618
 20
15.73923260398186
 30
0.0
 11
179.9057788376618
 21
15.73923260398186
 31
0.0
 11
179.896691822374
 21
15.95938578101014
 31
0.0
 11
179.8868249573133
 21
16.17960510387175
 31
0.0
 11
180.04115751414
 21
16.17312391463724
 31
0.0
 11
180.1946500189046
 21
16.1675489233192
 31
0.0
 11
180.3481160653366
 21
16.16367167505626
 31
0.0
 11
180.5025544554939
 21
16.16238072887603
 31
0.0
 11
180.6564835227473
 21
16.16367167505626
 31
0.0
 11
180.80873910046
 21
16.1675489233192
 31
0.0
 11
180.9609113551074
 21
16.17312391463724
 31
0.0
 11
181.1148364762483
 21
16.17960510387175
 31
0.0
 11
181.1070811703123
 21
16.12794961777354
 31
0.0
 11
181.1044991623591
 21
16.076426423342
 31
0.0
 11
181.1070811703123
 21
16.02475660564656
 31
0.0
 11
181.1148364762483
 21
15.9731595483678
 31
0.0
 11
181.0094874054411
 21
15.98001446156053
 31
0.0
 11
180.913637570006
 21
15.98693552058653
 31
0.0
 11
180.8198593171903
 21
15.99378381919594
 31
0.0
 11
180.7209679915881
 21
16.00063211780535
 31
0.0
 11
180.6147532199924
 21
16.00710999974819
 31
0.0
 11
180.4991060528038
 21
16.0126882983579
 31
0.0
 11
180.3666126447258
 21
16.01656554662083
 31
0.0
 11
180.2101546018423
 21
16.01785649280107
 31
0.0
 11
180.2062663293721
 21
15.91037061609182
 31
0.0
 11
180.20153800484
 21
15.8080507289646
 31
0.0
 11
180.1976607566749
 21
15.70138175329682
 31
0.0
 11
180.1963698105272
 21
15.58102059013245
 31
0.0
 11
180.1967799146836
 21
15.4485635589156
 31
0.0
 11
180.1980896021502
 21
15.3195328818645
 31
0.0
 11
180.1994074577049
 21
15.20777398432304
 31
0.0
 11
180.199819115366
 21
15.1269514930238
 31
0.0
 11
180.3434452935874
 21
15.12780256941246
 31
0.0
 11
180.4716343930758
 21
15.13039989580072
 31
0.0
 11
180.5868078221795
 21
15.13425509545249
 31
0.0
 11
180.691775631222
 21
15.13901649302072
 31
0.0
 11
180.7876346289421
 21
15.14418027774171
 31
0.0
 11
180.8757413374193
 21
15.14934406246263
 31
0.0
 11
180.9578881438496
 21
15.15491243919734
 31
0.0
 11
181.0357692335571
 21
15.1613208680152
 31
0.0
 11
181.0280180445186
 21
15.10884407115332
 31
0.0
 11
181.0254328449317
 21
15.05469378470853
 31
0.0
 11
181.0280180445186
 21
15.00310444444362
 31
0.0
 11
181.0357692335571
 21
14.95151510417878
 31
0.0
 11
180.9389813454014
 21
14.96092324653753
 31
0.0
 11
180.8275950722015
 21
14.96865128473007
 31
0.0
 11
180.7089261429373
 21
14.97425273438141
 31
0.0
 11
180.5903167449213
 21
14.97726788195007
 31
0.0
 11
180.4750025117521
 21
14.97898767361634
 31
0.0
 11
180.36672619507
 21
14.98070746528252
 31
0.0
 11
180.2724839317708
 21
14.98202486979612
 31
0.0
 11
180.199819115366
 21
14.98243607639324
 31
0.0
 11
180.199407457705
 21
14.95019108508187
 31
0.0
 11
180.1980896021502
 21
14.91542593752114
 31
0.0
 11
180.1967799146836
 21
14.8745070226008
 31
0.0
 11
180.1963698105272
 21
14.82421524309947
 31
0.0
 11
180.1963698105272
 21
14.80326217235817
 31
0.0
 11
180.1963698105272
 21
14.75716541672731
 31
0.0
 11
180.1963698105272
 21
14.71106866109646
 31
0.0
 11
180.1963698105272
 21
14.69011559035516
 31
0.0
 11
180.1963698105272
 21
14.66864525258276
 31
0.0
 11
180.1963698105272
 21
14.61744675481779
 31
0.0
 11
180.1963698105272
 21
14.55633887038863
 31
0.0
 11
180.1963698105272
 21
14.50514037262366
 31
0.0
 11
180.1963698105272
 21
14.48367003485126
 31
0.0
 11
180.1967799146836
 21
14.30481721371543
 31
0.0
 11
180.1980896021502
 21
14.16026100715438
 31
0.0
 11
180.2002868589709
 21
14.04850210961285
 31
0.0
 11
180.2032586986985
 21
13.96767961831361
 31
0.0
 11
180.3202092517447
 21
13.96767961831361
 31
0.0
 11
180.4440727208746
 21
13.96767961831361
 31
0.0
 11
180.5734925526422
 21
13.96897056449385
 31
0.0
 11
180.7003922282244
 21
13.97284781275678
 31
0.0
 11
180.8224658067973
 21
13.97886708358861
 31
0.0
 11
180.9377587499463
 21
13.98663260441998
 31
0.0
 11
181.0421754573518
 21
13.99734161483397
 31
0.0
 11
181.1320599255448
 21
14.01237656274688
 31
0.0
 11
181.1264254031191
 21
13.98698427976711
 31
0.0
 11
181.1234433285423
 21
13.95907184053797
 31
0.0
 11
181.12213398812
 21
13.93112191866997
 31
0.0
 11
181.1217235369195
 21
13.90575829888468
 31
0.0
 11
181.1243087365064
 21
13.85584355063322
 31
0.0
 11
181.1320599255448
 21
13.81626739612922
 31
0.0
 11
180.9776977178344
 21
13.82145433189181
 31
0.0
 11
180.8242357818765
 21
13.82315538223858
 31
0.0
 11
180.6697789496483
 21
13.82315538223858
 31
0.0
 11
180.5128026496768
 21
13.82315538223858
 31
0.0
 11
180.3554704921536
 21
13.82315538223858
 31
0.0
 11
180.199819115366
 21
13.82315538223858
 31
0.0
 11
180.0441620874241
 21
13.82145433189181
 31
0.0
 11
179.8868249573133
 21
13.81626739612922
 31
0.0
 11
179.896691822374
 21
14.03601267385205
 31
0.0
 11
179.9057788376618
 21
14.25491128490846
 31
0.0
 11
179.91217215184
 21
14.47550763901998
 31
0.0
 11
179.9143063455009
 21
14.70036378479711
 31
0.0
 11
179.9143063455009
 21
14.7257882449687
 31
0.0
 11
179.9143063455009
 21
14.79281636723928
 31
0.0
 11
179.9143063455009
 21
14.88758026424249
 31
0.0
 11
179.9143063455009
 21
14.99621204861204
 31
0.0
 11
179.9143063455009
 21
15.10484383298158
 31
0.0
 11
179.9143063455009
 21
15.19960772998479
 31
0.0
 11
179.9143063455009
 21
15.26663585225537
 31
0.0
 11
179.9143063455009
 21
15.29206031242696
 31
0.0
 11
179.91217215184
 21
15.5173596352873
 31
0.0
 11
179.9057788376618
 21
15.73923260398186
 31
0.0
  0
SPLINE
  5
B6
102
{ACAD_REACTORS
330
D3
102
}
330
49
100
AcDbEntity
  8
_U_30EC_U_30A4_U_30E4_U_30FC_1
  6
Continuous
 62
     2
100
AcDbSpline
210
0.0
220
0.0
230
1.0
 70
    11
 71
     3
 72
    95
 73
    91
 74
    89
 42
0.000000001
 43
0.0000000001
 44
0.00000001
 40
0.0
 40
0.0
 40
0.0
 40
0.0
 40
0.6550406656911534
 40
1.30808728903194
 40
1.420803739835813
 40
1.566130759770802
 40
1.757067341888476
 40
2.006513545026482
 40
2.087328263121568
 40
2.185328872295643
 40
2.294612454748387
 40
2.408936380534837
 40
2.526802767798579
 40
2.646360524615623
 40
2.762535723971598
 40
2.870057342870172
 40
2.966883448431664
 40
3.05080324351831
 40
3.115818222436625
 40
3.156030057150268
 40
3.213914225080171
 40
3.276689026450572
 40
3.342960320981349
 40
3.404230667150598
 40
3.453822809493416
 40
3.532499827188463
 40
3.634775188507211
 40
3.754909333008209
 40
3.889736761660703
 40
4.035769602175272
 40
4.187256681197657
 40
4.338733685676004
 40
4.488478734676171
 40
4.634708317831635
 40
4.771493189921322
 40
4.892686571561248
 40
5.199775528944492
 40
5.460353566929684
 40
5.667603142345561
 40
5.81472290540454
 40
5.828990806219839
 40
5.855488336304536
 40
5.869756237118867
 40
6.189796507762879
 40
6.531890469873067
 40
6.883053637017056
 40
7.230512024911526
 40
7.566966656764637
 40
7.885203559707467
 40
8.172887439719268
 40
8.418011594062822
 40
8.443926721190744
 40
8.510760470613233
 40
8.602145393795745
 40
8.701714041647186
 40
8.79309896507542
 40
8.859932715057994
 40
8.885847842603644
 40
9.242301256612855
 40
9.589275455016804
 40
9.921808543164214
 40
10.23479624298473
 40
10.29968150889183
 40
10.35323493887772
 40
10.40154625355156
 40
10.46482922477832
 40
10.55973900668413
 40
10.69239545985625
 40
10.84920353475679
 40
11.01626328594787
 40
11.18672024367451
 40
11.35372582577218
 40
11.50257442292435
 40
11.61866495023298
 40
11.71329869152883
 40
11.82511050573916
 40
11.94464880845724
 40
12.06929242642514
 40
12.19707290435184
 40
12.32562632860536
 40
12.45034565331287
 40
12.56646595170335
 40
12.67099007414643
 40
12.7607762593679
 40
12.82703233506703
 40
12.87429132786001
 40
12.8983199032334
 40
12.92234847860028
 40
13.53984767410328
 40
14.18294284359373
 40
14.18294284359373
 40
14.18294284359373
 40
14.18294284359373
 10
177.3067935648021
 20
14.7089803820172
 30
0.0
 10
177.1752019758551
 20
14.82265058603227
 30
0.0
 10
176.9124193802728
 20
15.04964496316153
 30
0.0
 10
176.399739344102
 20
15.89214462956284
 30
0.0
 10
176.4106654595363
 20
15.53423377577016
 30
0.0
 10
176.4041226527991
 20
15.39267392272129
 30
0.0
 10
176.4028026631773
 20
15.19421305299277
 30
0.0
 10
176.4018117602538
 20
15.02150296045979
 30
0.0
 10
176.4024101751974
 20
14.87865373257575
 30
0.0
 10
176.4038994301883
 20
14.78265005413354
 30
0.0
 10
176.4055683588472
 20
14.67545503263137
 30
0.0
 10
176.4071934954618
 20
14.56164211517577
 30
0.0
 10
176.4092429501685
 20
14.44441572604584
 30
0.0
 10
176.4123165501927
 20
14.32656411232965
 30
0.0
 10
176.4156339697042
 20
14.21228087320616
 30
0.0
 10
176.419360534028
 20
14.10521401867273
 30
0.0
 10
176.4217338161424
 20
14.01007408766917
 30
0.0
 10
176.4278718888357
 20
13.92558557205691
 30
0.0
 10
176.4239784495947
 20
13.86923087298137
 30
0.0
 10
176.4455230443077
 20
13.7982502247235
 30
0.0
 10
176.3680940058618
 20
13.82902677604479
 30
0.0
 10
176.3116353240191
 20
13.82011242517609
 30
0.0
 10
176.2540495896807
 20
13.82896218398271
 30
0.0
 10
176.1690163478472
 20
13.79738225225939
 30
0.0
 10
176.2009714146382
 20
13.88095155992185
 30
0.0
 10
176.1990705282539
 20
13.94882608968305
 30
0.0
 10
176.21079600473
 20
14.05233256764414
 30
0.0
 10
176.2164241053
 20
14.1700212561669
 30
0.0
 10
176.2237902178941
 20
14.30388609164419
 30
0.0
 10
176.232075970161
 20
14.44764152872627
 30
0.0
 10
176.2398851897426
 20
14.59714022843441
 30
0.0
 10
176.2457571222658
 20
14.74792549402074
 30
0.0
 10
176.2503667817969
 20
14.89699943878434
 30
0.0
 10
176.2542632117542
 20
15.04122913163018
 30
0.0
 10
176.2570715126564
 20
15.17583905213013
 30
0.0
 10
176.2576698755023
 20
15.3646961434735
 30
0.0
 10
176.261602386715
 20
15.58975494313149
 30
0.0
 10
176.2442175378497
 20
15.86367091125703
 30
0.0
 10
176.2850417342584
 20
16.02787112098593
 30
0.0
 10
176.1995153256001
 20
16.22749661465092
 30
0.0
 10
176.2660558907688
 20
16.22385458403974
 30
0.0
 10
176.283872427323
 20
16.22413447160849
 30
0.0
 10
176.4056801797502
 20
16.22632927398613
 30
0.0
 10
176.5080770335462
 20
15.94675118721507
 30
0.0
 10
176.7580021509356
 20
15.74563008535998
 30
0.0
 10
176.987003533111
 20
15.47792614987912
 30
0.0
 10
177.2245151213108
 20
15.22646413862372
 30
0.0
 10
177.4486090740772
 20
14.98969974061354
 30
0.0
 10
177.6750716283009
 20
14.73218692583074
 30
0.0
 10
177.8325687886515
 20
14.61649335056917
 30
0.0
 10
178.0472129612672
 20
14.27997152538787
 30
0.0
 10
178.0422645974619
 20
14.40464754091599
 30
0.0
 10
178.0433931602546
 20
14.46327691935732
 30
0.0
 10
178.0428877841517
 20
14.55043662371972
 30
0.0
 10
178.0430475158113
 20
14.64416143182867
 30
0.0
 10
178.0430054891318
 20
14.73018971297031
 30
0.0
 10
178.0430202040372
 20
14.79153891945491
 30
0.0
 10
178.0429706255986
 20
14.94135231520989
 30
0.0
 10
178.045881152281
 20
15.17989612510099
 30
0.0
 10
178.0259521041162
 20
15.54486509868697
 30
0.0
 10
178.0750433936247
 20
15.80799631993407
 30
0.0
 10
177.9177951509179
 20
16.21928904947749
 30
0.0
 10
178.0762112872421
 20
16.16398282551743
 30
0.0
 10
178.1311680478629
 20
16.16199686500171
 30
0.0
 10
178.182788776674
 20
16.16264778248248
 30
0.0
 10
178.2713198965366
 20
16.20369527738242
 30
0.0
 10
178.2204898303169
 20
16.05696326622982
 30
0.0
 10
178.2313389930283
 20
15.95019971954429
 30
0.0
 10
178.2166036994847
 20
15.79085705414107
 30
0.0
 10
178.2099976446204
 20
15.62853061652869
 30
0.0
 10
178.2014961399915
 20
15.45992521892391
 30
0.0
 10
178.1943227202199
 20
15.29814814703537
 30
0.0
 10
178.1889063215389
 20
15.15422331457928
 30
0.0
 10
178.1871713967648
 20
15.03437493466921
 30
0.0
 10
178.1875440672319
 20
14.9268610159051
 30
0.0
 10
178.1873656126263
 20
14.81820024645581
 30
0.0
 10
178.187701086314
 20
14.69953570165525
 30
0.0
 10
178.1890040622184
 20
14.57555163512737
 30
0.0
 10
178.1908887351574
 20
14.448582941711
 30
0.0
 10
178.1925004454851
 20
14.32153861551027
 30
0.0
 10
178.194140313743
 20
14.19854884492173
 30
0.0
 10
178.1962570745752
 20
14.08300931383755
 30
0.0
 10
178.1963848422363
 20
13.98090903955833
 30
0.0
 10
178.2006514396554
 20
13.89009848838151
 30
0.0
 10
178.1908440085289
 20
13.83213621208782
 30
0.0
 10
178.2118474771689
 20
13.76517130132025
 30
0.0
 10
178.1725639739897
 20
13.77291153966684
 30
0.0
 10
177.9595307117744
 20
13.75755254145188
 30
0.0
 10
177.7636297943187
 20
14.31403058094466
 30
0.0
 10
177.4611197631544
 20
14.57556035348506
 30
0.0
 10
177.3067935648021
 20
14.7089803820172
 30
0.0
 11
177.3067935648021
 21
14.7089803820172
 31
0.0
 11
176.8595529338511
 21
15.18757635411973
 31
0.0
 11
176.4124049070643
 21
15.66352649288966
 31
0.0
 11
176.4089664262494
 21
15.55086249986228
 31
0.0
 11
176.40556101835
 21
15.40557538184307
 31
0.0
 11
176.4029636920274
 21
15.21465645827964
 31
0.0
 11
176.4021126156603
 21
14.96521170139752
 31
0.0
 11
176.4025239230289
 21
14.88439802954275
 31
0.0
 11
176.4038420329817
 21
14.78640628477557
 31
0.0
 11
176.4055192267718
 21
14.67713557299734
 31
0.0
 11
176.4072367127518
 21
14.56282454872034
 31
0.0
 11
176.4094007838772
 21
14.44497802965261
 31
0.0
 11
176.4124049070643
 21
14.32545802100195
 31
0.0
 11
176.4158359733138
 21
14.20933349846152
 31
0.0
 11
176.4192928929998
 21
14.10186746550225
 31
0.0
 11
176.4227085253088
 21
14.0051016235126
 31
0.0
 11
176.4261896983793
 21
13.92125406276968
 31
0.0
 11
176.4296006184313
 21
13.85632862007755
 31
0.0
 11
176.4330776843148
 21
13.81626739612922
 31
0.0
 11
176.3754263821571
 21
13.82145433189181
 31
0.0
 11
176.3126746318309
 21
13.82315538223858
 31
0.0
 11
176.2464251717157
 21
13.82145433189181
 31
0.0
 11
176.1853747739675
 21
13.81626739612922
 31
0.0
 11
176.1926772737812
 21
13.86531894125586
 31
0.0
 11
176.2008793569054
 21
13.9435672572085
 31
0.0
 11
176.2090098822348
 21
14.04551893253025
 31
0.0
 11
176.2163406441397
 21
14.16542920159748
 31
0.0
 11
176.2236358280421
 21
14.30005912343885
 31
0.0
 11
176.2318444255596
 21
14.44586107652741
 31
0.0
 11
176.2395504149465
 21
14.59715203135069
 31
0.0
 11
176.2455763002093
 21
14.7485091320073
 31
0.0
 11
176.2503046247416
 21
14.89817951391432
 31
0.0
 11
176.254192897212
 21
15.04435739582218
 31
0.0
 11
176.2567527408965
 21
15.18111831592692
 31
0.0
 11
176.2576324804574
 21
15.30230850686885
 31
0.0
 11
176.257192610677
 21
15.6093971526254
 31
0.0
 11
176.2559126888347
 21
15.86997204839361
 31
0.0
 11
176.2528658717893
 21
16.07719922716121
 31
0.0
 11
176.2473049112763
 21
16.22421385386058
 31
0.0
 11
176.2615728121469
 21
16.22421385386058
 31
0.0
 11
176.2880703423352
 21
16.22421385386058
 31
0.0
 11
176.3023382432058
 21
16.22421385386058
 31
0.0
 11
176.5194743650277
 21
15.98910179662768
 31
0.0
 11
176.7512744123079
 21
15.73751281231557
 31
0.0
 11
176.9894816018839
 21
15.47949555543566
 31
0.0
 11
177.2260074557521
 21
15.22497079855485
 31
0.0
 11
177.4555698717705
 21
14.97899759549133
 31
0.0
 11
177.6731797360103
 21
14.74678934034102
 31
0.0
 11
177.8713724913707
 21
14.53826680567095
 31
0.0
 11
178.0430143099086
 21
14.36326697932584
 31
0.0
 11
178.0430143099086
 21
14.38918210687038
 31
0.0
 11
178.0430143099086
 21
14.45601585685366
 31
0.0
 11
178.0430143099086
 21
14.5474007803002
 31
0.0
 11
178.0430143099086
 21
14.64696942823449
 31
0.0
 11
178.0430143099086
 21
14.73835435168102
 31
0.0
 11
178.0430143099086
 21
14.80518810166431
 31
0.0
 11
178.0430143099086
 21
14.83110322920885
 31
0.0
 11
178.0417233637609
 21
15.18755430550863
 31
0.0
 11
178.0378461155958
 21
15.5345068401441
 31
0.0
 11
178.0296197790002
 21
15.86693815950547
 31
0.0
 11
178.0154535467228
 21
16.17960510387175
 31
0.0
 11
178.0790351249618
 21
16.1666636715833
 31
0.0
 11
178.1324170159611
 21
16.16238072887603
 31
0.0
 11
178.1805381084833
 21
16.1666636715833
 31
0.0
 11
178.2424836798197
 21
16.17960510387175
 31
0.0
 11
178.2351216487575
 21
16.08498128445096
 31
0.0
 11
178.2269790968818
 21
15.9525749650396
 31
0.0
 11
178.2183705364004
 21
15.79600336785651
 31
0.0
 11
178.2097547223215
 21
15.62916593734266
 31
0.0
 11
178.2016187850288
 21
15.45890325509356
 31
0.0
 11
178.1942501393835
 21
15.29206031242696
 31
0.0
 11
178.1891406931522
 21
15.14329943572805
 31
0.0
 11
178.1874503478904
 21
15.02722121527097
 31
0.0
 11
178.1874503478904
 21
14.93258747397514
 31
0.0
 11
178.1874503478904
 21
14.82077565976702
 31
0.0
 11
178.1878461204497
 21
14.70123801222744
 31
0.0
 11
178.1890819450708
 21
14.57660052093915
 31
0.0
 11
178.1908392193317
 21
14.44883212687387
 31
0.0
 11
178.1925303477608
 21
14.32028982655875
 31
0.0
 11
178.1942876220214
 21
14.1955828821455
 31
0.0
 11
178.1959787504505
 21
14.07947489606345
 31
0.0
 11
178.1972884379172
 21
13.97495896727013
 31
0.0
 11
178.1976985420735
 21
13.88517371555648
 31
0.0
 11
178.1976985420735
 21
13.81891763918411
 31
0.0
 11
178.1976985420735
 21
13.77165864614037
 31
0.0
 11
178.1736699662976
 21
13.77165864614037
 31
0.0
 11
178.1496413905217
 21
13.77165864614037
 31
0.0
 11
177.7410729200423
 21
14.23466735262186
 31
0.0
 11
177.3067935648021
 21
14.7089803820172
 31
0.0
  0
SPLINE
  5
B7
102
{ACAD_REACTORS
330
D4
102
}
330
49
100
AcDbEntity
  8
_U_30EC_U_30A4_U_30E4_U_30FC_1
  6
Continuous
 62
     2
100
AcDbSpline
210
0.0
220
0.0
230
1.0
 70
    11
 71
     3
 72
    25
 73
    21
 74
    19
 42
0.000000001
 43
0.0000000001
 44
0.00000001
 40
0.0
 40
0.0
 40
0.0
 40
0.0
 40
0.0911479969064822
 40
0.1858117896204668
 40
0.280412839973449
 40
0.3715889190714509
 40
0.4679080494218707
 40
0.564268380922923
 40
0.660568322264499
 40
0.7569653015810256
 40
0.8561348172522739
 40
1.092615965104292
 40
1.374867658141875
 40
1.611348812011599
 40
1.710518328425247
 40
1.809403163726564
 40
2.045205463294069
 40
2.326646917622127
 40
2.562449217190589
 40
2.661334043833909
 40
2.661334043833909
 40
2.661334043833909
 40
2.661334043833909
 10
173.2683700567199
 20
14.88614538197288
 30
0.0
 10
173.2987525917923
 20
14.88598079714551
 30
0.0
 10
173.3606895889112
 20
14.88564528689918
 30
0.0
 10
173.454135696033
 20
14.88269055451994
 30
0.0
 10
173.5475095236357
 20
14.87977752877147
 30
0.0
 10
173.6417760753476
 20
14.87894201643413
 30
0.0
 10
173.7354964790966
 20
14.87996644658042
 30
0.0
 10
173.8352040303204
 20
14.87916977470968
 30
0.0
 10
173.9188949546312
 20
14.88921410235215
 30
0.0
 10
174.0637996315045
 20
14.86234617674161
 30
0.0
 10
173.9396132444801
 20
15.03665530280045
 30
0.0
 10
173.8965867286282
 20
15.19651711006087
 30
0.0
 10
173.780892214221
 20
15.45518458550212
 30
0.0
 10
173.7017565431256
 20
15.59231052861853
 30
0.0
 10
173.6431576621816
 20
15.80937033134073
 30
0.0
 10
173.5864803939438
 20
15.59266134213424
 30
0.0
 10
173.5052809900477
 20
15.45327012438232
 30
0.0
 10
173.4063701281488
 20
15.20406969370191
 30
0.0
 10
173.3253625094259
 20
15.01925830226069
 30
0.0
 10
173.2813683325838
 20
14.91650446856113
 30
0.0
 10
173.2683700567199
 20
14.88614538197288
 30
0.0
 11
173.2683700567199
 21
14.88614538197288
 31
0.0
 11
173.359513773782
 21
14.88526123266755
 31
0.0
 11
173.4541428297581
 21
14.88269697919594
 31
0.0
 11
173.5487082179706
 21
14.88009965280773
 31
0.0
 11
173.6398803250196
 21
14.87924857641906
 31
0.0
 11
173.7361985777706
 21
14.87965978301617
 31
0.0
 11
173.8325499034376
 21
14.88097718752967
 31
0.0
 11
173.9288262638286
 21
14.88310818579308
 31
0.0
 11
174.0251753846343
 21
14.88614538197288
 31
0.0
 11
173.9854633323141
 21
14.97701642195016
 31
0.0
 11
173.8907653613968
 21
15.19370890189598
 31
0.0
 11
173.7777387509471
 21
15.45234186183131
 31
0.0
 11
173.6830407800297
 21
15.66903434177713
 31
0.0
 11
173.6433287277095
 21
15.75990538175441
 31
0.0
 11
173.6043330259266
 21
15.66903434177713
 31
0.0
 11
173.5113432755212
 21
15.45234186183131
 31
0.0
 11
173.4003555089082
 21
15.19370890189598
 31
0.0
 11
173.3073657585028
 21
14.97701642195016
 31
0.0
 11
173.2683700567199
 21
14.88614538197288
 31
0.0
  0
SPLINE
  5
B8
102
{ACAD_REACTORS
330
D4
102
}
330
49
100
AcDbEntity
  8
_U_30EC_U_30A4_U_30E4_U_30FC_1
  6
Continuous
 62
     2
100
AcDbSpline
210
0.0
220
0.0
230
1.0
 70
    11
 71
     3
 72
    57
 73
    53
 74
    51
 42
0.000000001
 43
0.0000000001
 44
0.00000001
 40
0.0
 40
0.0
 40
0.0
 40
0.0
 40
0.047163208280924
 40
0.0914861054632161
 40
0.1357762519702396
 40
0.1826527001610691
 40
0.22952032885726
 40
0.2737751972220769
 40
0.3181310461543079
 40
0.365260719839853
 40
0.4571007286314569
 40
0.5671851029165313
 40
0.6894623283868451
 40
0.8181758272546087
 40
0.9510087229274028
 40
1.085852229674067
 40
1.218126164475324
 40
1.343545131142396
 40
1.454537202956812
 40
1.567187607530821
 40
1.68071096664244
 40
1.794226869736804
 40
1.900009184247603
 40
2.004085860447883
 40
2.108162674451771
 40
2.214000150155315
 40
2.496038577352156
 40
2.7623507454793
 40
2.997275353279422
 40
3.185110082137755
 40
3.246407890063983
 40
3.312607550212713
 40
3.378877742711615
 40
3.440140399651471
 40
4.100501696006503
 40
4.754913085563547
 40
5.411331693423953
 40
6.077890432568744
 40
6.110575292671022
 40
6.143260152775802
 40
6.367989363395198
 40
6.610525374951592
 40
6.863389136467358
 40
7.119380025547628
 40
7.376036605091139
 40
7.631164770966322
 40
7.876722425456456
 40
8.104953735856002
 40
8.312916685924339
 40
8.497730294941352
 40
8.651018984313895
 40
8.764738853624637
 40
8.764738853624637
 40
8.764738853624637
 40
8.764738853624637
 10
174.7922649500513
 20
13.81626739612922
 30
0.0
 10
174.7766616726931
 20
13.81826231079073
 30
0.0
 10
174.7463947960302
 20
13.82213201360294
 30
0.0
 10
174.7010994202251
 20
13.82341984967264
 30
0.0
 10
174.6559553129349
 20
13.82308683554047
 30
0.0
 10
174.6099017123399
 20
13.8231465867422
 30
0.0
 10
174.5640496172097
 20
13.82325813649997
 30
0.0
 10
174.5183711648165
 20
13.82277833456586
 30
0.0
 10
174.4750811541608
 20
13.82461109618717
 30
0.0
 10
174.4039947951514
 20
13.80049556814651
 30
0.0
 10
174.4057477261441
 20
13.92184693977247
 30
0.0
 10
174.358619637057
 20
14.00726239751229
 30
0.0
 10
174.3191478251761
 20
14.12486929345131
 30
0.0
 10
174.2706635532645
 20
14.24232752540435
 30
0.0
 10
174.2201017402522
 20
14.36405935761505
 30
0.0
 10
174.1718634610477
 20
14.49075967862461
 30
0.0
 10
174.1135232947594
 20
14.59933687784947
 30
0.0
 10
174.0980892667261
 20
14.75620657134406
 30
0.0
 10
173.9566586330636
 20
14.72373446548317
 30
0.0
 10
173.8508397414903
 20
14.73512888682174
 30
0.0
 10
173.7358569725222
 20
14.73392591514611
 30
0.0
 10
173.625314225214
 20
14.73506945347403
 30
0.0
 10
173.5176583522783
 20
14.73418350037522
 30
0.0
 10
173.4121322529242
 20
14.73416602390513
 30
0.0
 10
173.3109192682013
 20
14.7271403247241
 30
0.0
 10
173.1266804827753
 20
14.75135859859864
 30
0.0
 10
173.1157393685411
 20
14.4474169112188
 30
0.0
 10
173.008769163475
 20
14.22353177253392
 30
0.0
 10
172.9098148604346
 20
14.03895314292492
 30
0.0
 10
172.9225090524008
 20
13.795302048042
 30
0.0
 10
172.8050091716397
 20
13.82508046753193
 30
0.0
 10
172.742205586831
 20
13.822580895096
 30
0.0
 10
172.6785872093399
 20
13.82344075102801
 30
0.0
 10
172.3946014194075
 20
13.78098039941938
 30
0.0
 10
173.0251638499381
 20
14.50081952444783
 30
0.0
 10
173.1087645289071
 20
15.01276539435724
 30
0.0
 10
173.4929252789338
 20
15.53353743550037
 30
0.0
 10
173.4777208288565
 20
16.23519626253213
 30
0.0
 10
173.7239265722697
 20
16.22345633081252
 30
0.0
 10
173.8256346157561
 20
16.23225004452769
 30
0.0
 10
173.8249752035818
 20
15.98059650730342
 30
0.0
 10
173.9428317155828
 20
15.79818020733954
 30
0.0
 10
174.0315515260485
 20
15.55563740662862
 30
0.0
 10
174.1322292485259
 20
15.32340030530124
 30
0.0
 10
174.2311142712243
 20
15.08674644566908
 30
0.0
 10
174.3299676990669
 20
14.8546173917009
 30
0.0
 10
174.4256166390925
 20
14.63122222788784
 30
0.0
 10
174.5159904573271
 20
14.42272549049312
 30
0.0
 10
174.5989944568188
 20
14.23308448529315
 30
0.0
 10
174.6726088582799
 20
14.06663106068095
 30
0.0
 10
174.7342815895545
 20
13.92917699626092
 30
0.0
 10
174.7749458885604
 20
13.84999239430029
 30
0.0
 10
174.7922649500513
 20
13.81626739612922
 30
0.0
 11
174.7922649500513
 21
13.81626739612922
 31
0.0
 11
174.7453878317448
 21
13.82145433189181
 31
0.0
 11
174.7010975896125
 21
13.82315538223858
 31
0.0
 11
174.6568074431729
 21
13.82315538223858
 31
0.0
 11
174.6099309947159
 21
13.82315538223858
 31
0.0
 11
174.5630633657033
 21
13.82315538223858
 31
0.0
 11
174.5188084970408
 21
13.82315538223858
 31
0.0
 11
174.4744852776854
 21
13.82145433189181
 31
0.0
 11
174.4276419021443
 21
13.81626739612922
 31
0.0
 11
174.3992532136325
 21
13.9036096617324
 31
0.0
 11
174.3622721815898
 21
14.00729656274815
 31
0.0
 11
174.3188386236701
 21
14.12159987001123
 31
0.0
 11
174.2711055866936
 21
14.24113531268965
 31
0.0
 11
174.2208160133237
 21
14.3640805730756
 31
0.0
 11
174.1696467003932
 21
14.48883822929442
 31
0.0
 11
174.1197531801326
 21
14.61134141502768
 31
0.0
 11
174.0733119111841
 21
14.72784517367913
 31
0.0
 11
173.9623611907589
 21
14.73087465284501
 31
0.0
 11
173.8497309225089
 21
14.73300454867785
 31
0.0
 11
173.7362152069449
 21
14.73432195319136
 31
0.0
 11
173.62270004768
 21
14.73473315978848
 31
0.0
 11
173.5169185312816
 21
14.73432195319136
 31
0.0
 11
173.4128501919225
 21
14.73300454867785
 31
0.0
 11
173.3087951724045
 21
14.73087465284501
 31
0.0
 11
173.2030010615596
 21
14.72784517367913
 31
0.0
 11
173.0980914750139
 21
14.46604437513346
 31
0.0
 11
173.0034868690331
 21
14.21710232658455
 31
0.0
 11
172.9252231210298
 21
13.99559756969552
 31
0.0
 11
172.8693431224555
 21
13.81626739612922
 31
0.0
 11
172.8082651639442
 21
13.82145433189181
 31
0.0
 11
172.742087361813
 21
13.82315538223858
 31
0.0
 11
172.6758390041282
 21
13.82145433189181
 31
0.0
 11
172.6147963233938
 21
13.81626739612922
 31
0.0
 11
172.889968495193
 21
14.41656508695139
 31
0.0
 11
173.158294573417
 21
15.0134364236077
 31
0.0
 11
173.4240277350405
 21
15.61366245644376
 31
0.0
 11
173.6914740737033
 21
16.22421385386058
 31
0.0
 11
173.7241589339806
 21
16.22421385386058
 31
0.0
 11
173.7568437942579
 21
16.22421385386058
 31
0.0
 11
173.8428300681057
 21
16.01658539037079
 31
0.0
 11
173.9357285813609
 21
15.79254614563513
 31
0.0
 11
174.0328714521463
 21
15.55908663180464
 31
0.0
 11
174.1317936458031
 21
15.32298128464142
 31
0.0
 11
174.2315341249927
 21
15.08649780379779
 31
0.0
 11
174.3313071129353
 21
14.85168781253707
 31
0.0
 11
174.4280608257448
 21
14.62599492196846
 31
0.0
 11
174.5188084970408
 21
14.41658052097915
 31
0.0
 11
174.6022150834546
 21
14.22607611130456
 31
0.0
 11
174.6770293263377
 21
14.05708232662462
 31
0.0
 11
174.7410729186603
 21
13.91781337700663
 31
0.0
 11
174.7922649500513
 21
13.81626739612922
 31
0.0
  0
SPLINE
  5
B9
102
{ACAD_REACTORS
330
D5
102
}
330
49
100
AcDbEntity
  8
_U_30EC_U_30A4_U_30E4_U_30FC_1
  6
Continuous
 62
     2
100
AcDbSpline
210
0.0
220
0.0
230
1.0
 70
    11
 71
     3
 72
    99
 73
    95
 74
    93
 42
0.000000001
 43
0.0000000001
 44
0.00000001
 40
0.0
 40
0.0
 40
0.0
 40
0.0
 40
0.0796417172272575
 40
0.1621768542356109
 40
0.2486489160957724
 40
0.3404969668524675
 40
0.4381912511164698
 40
0.5434463660244999
 40
0.6518115192847318
 40
0.7530190937886901
 40
0.8492196919725147
 40
0.9419290312998165
 40
1.034249663570041
 40
1.1290786006202
 40
1.226697027573245
 40
1.32722042542171
 40
1.470572134938019
 40
1.595489863371214
 40
1.7199341253484
 40
1.850576620127418
 40
1.989059629987309
 40
2.134139054226926
 40
2.280698007207215
 40
2.424529739039479
 40
2.565929576985849
 40
2.708239260773539
 40
2.861717887443665
 40
3.045168540347369
 40
3.183798301138613
 40
3.314813961455457
 40
3.442083470447313
 40
3.569912708372973
 40
3.702177512509368
 40
3.842307559659536
 40
3.99287222324594
 40
4.156750662218329
 40
4.310981861107551
 40
4.445859909322597
 40
4.57239393613159
 40
4.701656719781983
 40
4.768279086008471
 40
4.835960697898416
 40
4.912788918729341
 40
5.006285208481549
 40
5.026909478751626
 40
5.04753374902119
 40
5.101808031471265
 40
5.162325165538552
 40
5.226919745995867
 40
5.294231806596737
 40
5.364544852554886
 40
5.43831905546793
 40
5.517877651324266
 40
5.607647714861578
 40
5.700449642544425
 40
5.788251142364156
 40
5.872714706039782
 40
5.955167292575298
 40
6.037192395190389
 40
6.120669181469117
 40
6.206848616686363
 40
6.296680855416779
 40
6.442558392872607
 40
6.568190371608297
 40
6.692904567360377
 40
6.824220446557151
 40
6.963121850329389
 40
7.107843738851177
 40
7.253431663907291
 40
7.39518746803671
 40
7.533140753237769
 40
7.67055045717526
 40
7.816236511769273
 40
7.987691657359232
 40
8.142277421969258
 40
8.293662615415041
 40
8.44296246087929
 40
8.59159831618534
 40
8.743678992361811
 40
8.9037253236992
 40
9.076307008890547
 40
9.2655786046806
 40
9.459203795360775
 40
9.61761981027356
 40
9.753609671361923
 40
9.87487330000409
 40
9.9545201849778
 40
10.02416413719247
 40
10.09769764405447
 40
10.18909955924974
 40
10.20974586420135
 40
10.23039218263381
 40
10.30057101881266
 40
10.37632012987545
 40
10.37632012987545
 40
10.37632012987545
 40
10.37632012987545
 10
170.1465954835851
 20
14.1379566321599
 30
0.0
 10
170.1632217851219
 20
14.11720608845308
 30
0.0
 10
170.1970784206576
 20
14.07495111711896
 30
0.0
 10
170.2599822541036
 20
14.02029811392067
 30
0.0
 10
170.3332500940392
 20
13.97299025121046
 30
0.0
 10
170.4175969238636
 20
13.9352723143793
 30
0.0
 10
170.513224061546
 20
13.91040619731947
 30
0.0
 10
170.6171853775346
 20
13.90309559345933
 30
0.0
 10
170.7224020220405
 20
13.91142322794049
 30
0.0
 10
170.8206626371334
 20
13.94149179651525
 30
0.0
 10
170.9058986427548
 20
13.98848822971871
 30
0.0
 10
170.9779220206103
 20
14.04952991250853
 30
0.0
 10
171.0350917709096
 20
14.12412969578578
 30
0.0
 10
171.076786874744
 20
14.2100246466017
 30
0.0
 10
171.1026952846292
 20
14.30485850432207
 30
0.0
 10
171.1118037332654
 20
14.41854979038363
 30
0.0
 10
171.0986864796486
 20
14.54332587770774
 30
0.0
 10
171.0325330334414
 20
14.66014719171888
 30
0.0
 10
170.9369370919568
 20
14.74512539577368
 30
0.0
 10
170.8249681022369
 20
14.81416684459157
 30
0.0
 10
170.699365958327
 20
14.87204142045887
 30
0.0
 10
170.5656691620856
 20
14.92373723284336
 30
0.0
 10
170.4313122818831
 20
14.97899092397178
 30
0.0
 10
170.3051983986877
 20
15.04939770641643
 30
0.0
 10
170.1926579987535
 20
15.13785540731245
 30
0.0
 10
170.0969963064458
 20
15.24981067868467
 30
0.0
 10
170.0334157151826
 20
15.39949910101379
 30
0.0
 10
170.0200706505015
 20
15.55932794385137
 30
0.0
 10
170.0320510987449
 20
15.7104840530684
 30
0.0
 10
170.071229892884
 20
15.83809244591534
 30
0.0
 10
170.135498775091
 20
15.9508087403084
 30
0.0
 10
170.223820499974
 20
16.04648609268682
 30
0.0
 10
170.3338091207627
 20
16.12354214985748
 30
0.0
 10
170.4632284401265
 20
16.18151396936273
 30
0.0
 10
170.6111838967793
 20
16.21739177588818
 30
0.0
 10
170.7682069455486
 20
16.2274671905056
 30
0.0
 10
170.917494046643
 20
16.21863637762585
 30
0.0
 10
171.059625361417
 20
16.19074899340347
 30
0.0
 10
171.1595922609625
 20
16.13413314701133
 30
0.0
 10
171.3125074736186
 20
16.08674602105503
 30
0.0
 10
171.2455131717168
 20
16.0019755300118
 30
0.0
 10
171.2296479120269
 20
15.9343890187348
 30
0.0
 10
171.1978750531297
 20
15.86926092793186
 30
0.0
 10
171.2150202209571
 20
15.76723453256948
 30
0.0
 10
171.1666427208232
 20
15.77493211681898
 30
0.0
 10
171.1315789440765
 20
15.76806771724803
 30
0.0
 10
171.1296697985718
 20
15.83263831158191
 30
0.0
 10
171.0985692931988
 20
15.87825639621391
 30
0.0
 10
171.0664551628456
 20
15.9356103662845
 30
0.0
 10
171.0208038475168
 20
15.98540462692554
 30
0.0
 10
170.9658508218387
 20
16.02994813718991
 30
0.0
 10
170.9010841173007
 20
16.06763988836545
 30
0.0
 10
170.8232377310597
 20
16.09283375791347
 30
0.0
 10
170.7355160553352
 20
16.09931230998106
 30
0.0
 10
170.6452903277806
 20
16.09235709285602
 30
0.0
 10
170.5594594694065
 20
16.06909190460916
 30
0.0
 10
170.4828343638596
 20
16.03131644107541
 30
0.0
 10
170.4165265636201
 20
15.9805164108957
 30
0.0
 10
170.3622560536963
 20
15.91731143407205
 30
0.0
 10
170.3224925345459
 20
15.84276455710363
 30
0.0
 10
170.2976775510588
 20
15.75917313997759
 30
0.0
 10
170.289212426287
 20
15.6519294838228
 30
0.0
 10
170.3019697987104
 20
15.52965457267555
 30
0.0
 10
170.3681548409273
 20
15.41149724291207
 30
0.0
 10
170.4640977399831
 20
15.32606325709522
 30
0.0
 10
170.5757914963182
 20
15.25583362306718
 30
0.0
 10
170.7010863668702
 20
15.19659162305299
 30
0.0
 10
170.8349823941447
 20
15.14616708086128
 30
0.0
 10
170.9689930333149
 20
15.09322516984377
 30
0.0
 10
171.0950885316915
 20
15.02750170625172
 30
0.0
 10
171.2076216638417
 20
14.94480352537316
 30
0.0
 10
171.3031370284232
 20
14.83996006310069
 30
0.0
 10
171.3672706486962
 20
14.69937117251565
 30
0.0
 10
171.3811103725278
 20
14.54065409451588
 30
0.0
 10
171.367395471223
 20
14.38153155217871
 30
0.0
 10
171.3244739153984
 20
14.23483828819206
 30
0.0
 10
171.2545906329066
 20
14.10119796587137
 30
0.0
 10
171.1574592213829
 20
13.98532387699287
 30
0.0
 10
171.0347806023657
 20
13.89089981770084
 30
0.0
 10
170.8874408413168
 20
13.82179270651976
 30
0.0
 10
170.7177132497125
 20
13.77953210858849
 30
0.0
 10
170.5317404979596
 20
13.76781736230403
 30
0.0
 10
170.3528955926184
 20
13.77809486683433
 30
0.0
 10
170.1881733753742
 20
13.81966573769147
 30
0.0
 10
170.0834410841057
 20
13.88797642883937
 30
0.0
 10
169.9350960790365
 20
13.93675219032101
 30
0.0
 10
169.9980378194729
 20
14.02976591290837
 30
0.0
 10
170.0072274430059
 20
14.10296536248276
 30
0.0
 10
170.0303711301232
 20
14.16936294501342
 30
0.0
 10
170.0034588335317
 20
14.26974809527575
 30
0.0
 10
170.0521338956339
 20
14.26234033517374
 30
0.0
 10
170.0916530580696
 20
14.26894063620889
 30
0.0
 10
170.0996204944702
 20
14.19078703218927
 30
0.0
 10
170.1305436967922
 20
14.15600927375852
 30
0.0
 10
170.1465954835851
 20
14.1379566321599
 30
0.0
 11
170.1465954835851
 21
14.1379566321599
 31
0.0
 11
170.1982038075864
 21
14.07729869814731
 31
0.0
 11
170.2601105501335
 21
14.02271295163315
 31
0.0
 11
170.3327764009802
 21
13.97583980928379
 31
0.0
 11
170.4166468655843
 21
13.93839906276533
 31
0.0
 11
170.511221073241
 21
13.91390636311873
 31
0.0
 11
170.6161603327165
 21
13.90575829888468
 31
0.0
 11
170.7240739497552
 21
13.91564048638218
 31
0.0
 11
170.8208419941616
 21
13.94528704887478
 31
0.0
 11
170.9050776083319
 21
13.99175118948814
 31
0.0
 11
170.9756144207686
 21
14.05191413218145
 31
0.0
 11
171.031944210998
 21
14.12505819466315
 31
0.0
 11
171.0736690016003
 21
14.21021434047518
 31
0.0
 11
171.0994680808032
 21
14.30436190989608
 31
0.0
 11
171.1080824729446
 21
14.40451552098216
 31
0.0
 11
171.0878517703357
 21
14.54643250879393
 31
0.0
 11
171.0272522666731
 21
14.65566684036382
 31
0.0
 11
170.9364971286285
 21
14.7408130643009
 31
0.0
 11
170.826010188474
 21
14.81052746532512
 31
0.0
 11
170.7008523531254
 21
14.86979854169918
 31
0.0
 11
170.5662951950998
 21
14.92404253474116
 31
0.0
 11
170.4316884277007
 21
14.98201274306
 31
0.0
 11
170.3065802017258
 21
15.05297399304227
 31
0.0
 11
170.196027609828
 21
15.1411331596869
 31
0.0
 11
170.1053381235265
 21
15.25080295132612
 31
0.0
 11
170.0447055469484
 21
15.39179720476311
 31
0.0
 11
170.0245079172553
 21
15.57413260402309
 31
0.0
 11
170.0374030471347
 21
15.71216131926637
 31
0.0
 11
170.0761016659391
 21
15.83733128451284
 31
0.0
 11
170.1393141731506
 21
15.94779262129079
 31
0.0
 11
170.2257499954545
 21
16.04196885390617
 31
0.0
 11
170.3336492808962
 21
16.11846540770646
 31
0.0
 11
170.4613526283328
 21
16.17615670109483
 31
0.0
 11
170.6075393259923
 21
16.21220066809969
 31
0.0
 11
170.770976856545
 21
16.22421385386058
 31
0.0
 11
170.9248918431289
 21
16.21434269066859
 31
0.0
 11
171.0564887242607
 21
16.18477329831492
 31
0.0
 11
171.172563634494
 21
16.13439993895247
 31
0.0
 11
171.2800792741122
 21
16.06264163167873
 31
0.0
 11
171.2516994050444
 21
16.00236624106882
 31
0.0
 11
171.2284855254283
 21
15.93879017337643
 31
0.0
 11
171.2078381040801
 21
15.86478841992265
 31
0.0
 11
171.1871840681487
 21
15.77360197897323
 31
0.0
 11
171.1665597978415
 21
15.77360197897323
 31
0.0
 11
171.1459355275343
 21
15.77360197897323
 31
0.0
 11
171.1256706495791
 21
15.82395108486343
 31
0.0
 11
171.0994658759421
 21
15.87850045116925
 31
0.0
 11
171.0650468924451
 21
15.9331611629611
 31
0.0
 11
171.0203554612937
 21
15.98349593725406
 31
0.0
 11
170.9657333359511
 21
16.02777175321524
 31
0.0
 11
170.9016722004326
 21
16.06436142334496
 31
0.0
 11
170.825968296114
 21
16.08882545979722
 31
0.0
 11
170.7365722046449
 21
16.09701100667017
 31
0.0
 11
170.6440937174207
 21
16.08926973931096
 31
0.0
 11
170.5594072091645
 21
16.06609003445561
 31
0.0
 11
170.483702448884
 21
16.02863495634004
 31
0.0
 11
170.4183754766516
 21
15.97832774281098
 31
0.0
 11
170.3650487887664
 21
15.91600293379875
 31
0.0
 11
170.3254809233901
 21
15.84249947895603
 31
0.0
 11
170.3009523754711
 21
15.75988443557387
 31
0.0
 11
170.2927954104108
 21
15.67042329844348
 31
0.0
 11
170.3130095765617
 21
15.52595308146569
 31
0.0
 11
170.373625616682
 21
15.41591177072932
 31
0.0
 11
170.4643479320758
 21
15.33033670130627
 31
0.0
 11
170.5748676948813
 21
15.25941954854621
 31
0.0
 11
170.7000089937719
 21
15.19914305550575
 31
0.0
 11
170.8345826882553
 21
15.14590447913017
 31
0.0
 11
170.9691729191968
 21
15.09039489581069
 31
0.0
 11
171.0942976816297
 21
15.02377281249406
 31
0.0
 11
171.204800907977
 21
14.94118863716745
 31
0.0
 11
171.2955397598288
 21
14.83800003476267
 31
0.0
 11
171.3561557999489
 21
14.7055231597958
 31
0.0
 11
171.3763699660998
 21
14.53526378483835
 31
0.0
 11
171.3621839747998
 21
14.38133030397409
 31
0.0
 11
171.3196087009193
 21
14.23605531269092
 31
0.0
 11
171.2499752884265
 21
14.10398854189064
 31
0.0
 11
171.1544992078713
 21
13.99007218775243
 31
0.0
 11
171.0341060772624
 21
13.89715272597013
 31
0.0
 11
170.8896160201846
 21
13.82832357668175
 31
0.0
 11
170.7223519532713
 21
13.78581275203963
 31
0.0
 11
170.5336103348226
 21
13.77165864614037
 31
0.0
 11
170.3405031726387
 21
13.78581275203963
 31
0.0
 11
170.1878975900911
 21
13.82832357668175
 31
0.0
 11
170.0661897942203
 21
13.88899033013885
 31
0.0
 11
169.9660261826363
 21
13.95734322942732
 31
0.0
 11
169.9922320587039
 21
14.03255545163072
 31
0.0
 11
170.0090121537618
 21
14.10014767383608
 31
0.0
 11
170.0206196447852
 21
14.17275926235958
 31
0.0
 11
170.0313606254139
 21
14.26352788212854
 31
0.0
 11
170.0520069443315
 21
14.26352788212854
 31
0.0
 11
170.0726532632492
 21
14.26352788212854
 31
0.0
 11
170.1048916391629
 21
14.20119204881079
 31
0.0
 11
170.1465954835851
 21
14.1379566321599
 31
0.0
  0
LWPOLYLINE
  5
BA
102
{ACAD_REACTORS
330
C7
102
}
330
49
100
AcDbEntity
  8
_U_30EC_U_30A4_U_30E4_U_30FC_1
  6
Continuous
 62
     2
100
AcDbPolyline
 90
        5
 70
     1
 43
0.0
 10
192.4578138032672
 20
15.39722336795622
 10
192.4578138032672
 20
15.22875434022053
 10
191.1602971697031
 20
15.22875434022053
 10
191.1602971697031
 20
15.39722336795622
 10
192.4578138032672
 20
15.39722336795622
  0
MTEXT
  5
BC
330
49
100
AcDbEntity
  8
1
 62
     2
100
AcDbMText
 10
32.5
 20
282.0000000000002
 30
0.0
 40
5.0
 41
0.0
 71
     5
 72
     1
  1
図番
  7
CONVERTER_11
 73
     1
 44
0.45454545454545
  0
MTEXT
  5
BD
330
49
100
AcDbEntity
  8
1
 62
     2
100
AcDbMText
 10
29.0
 20
33.99999999999996
 30
0.0
 40
3.5
 41
0.0
 71
     5
 72
     1
  1
備考
  7
CONVERTER_11
 73
     1
 44
0.45454545454545
  0
MTEXT
  5
BE
330
49
100
AcDbEntity
  8
1
 62
     2
100
AcDbMText
 10
29.0
 20
22.74999999999996
 30
0.0
 40
3.5
 41
0.0
 71
     5
 72
     1
  1
品名
  7
CONVERTER_11
 73
     1
 44
0.72727272727273
  0
MTEXT
  5
BF
330
49
100
AcDbEntity
  8
1
 62
     2
100
AcDbMText
 10
29.0
 20
14.24999999999996
 30
0.0
 40
3.5
 41
0.0
 71
     5
 72
     1
  1
品番
  7
CONVERTER_11
 73
     1
 44
0.72727272727273
  0
MTEXT
  5
C0
330
49
100
AcDbEntity
  8
1
 62
     2
100
AcDbMText
 10
101.5
 20
24.99999999999997
 30
0.0
 40
3.0
 41
0.0
 71
     5
 72
     1
  1
承認
  7
CONVERTER_11
 73
     1
 44
0.59090909090909
  0
MTEXT
  5
C1
330
49
100
AcDbEntity
  8
1
 62
     2
100
AcDbMText
 10
175.0
 20
23.49999999999997
 30
0.0
 40
3.5
 41
0.0
 71
     5
 72
     1
  1
第三角法
  7
CONVERTER_11
 73
     1
 44
0.54545454545455
  0
MTEXT
  5
C2
330
49
100
AcDbEntity
  8
1
 62
     2
100
AcDbMText
 10
118.5
 20
24.99999999999997
 30
0.0
 40
3.0
 41
0.0
 71
     5
 72
     1
  1
検図
  7
CONVERTER_11
 73
     1
 44
0.59090909090909
  0
MTEXT
  5
C3
330
49
100
AcDbEntity
  8
1
 62
     2
100
AcDbMText
 10
152.5
 20
24.99999999999997
 30
0.0
 40
3.0
 41
0.0
 71
     5
 72
     1
  1
設計
  7
CONVERTER_11
 73
     1
 44
0.59090909090909
  0
MTEXT
  5
C4
330
49
100
AcDbEntity
  8
1
 62
     2
100
AcDbMText
 10
135.5
 20
24.99999999999997
 30
0.0
 40
3.0
 41
0.0
 71
     5
 72
     1
  1
製図
  7
CONVERTER_11
 73
     1
 44
0.59090909090909
  0
MTEXT
  5
C5
330
49
100
AcDbEntity
  8
1
 62
     2
100
AcDbMText
 10
89.5
 20
23.99999999999997
 30
0.0
 40
3.5
 41
0.0
 71
     5
 72
     1
  1
尺度
  7
CONVERTER_11
 73
     1
 44
0.54545454545455
  0
MTEXT
  5
C6
330
49
100
AcDbEntity
  8
1
 62
   250
100
AcDbMText
 10
25.0
 20
4.99999999999996
 30
0.0
 40
3.5
 41
0.0
 71
     4
 72
     1
  1
備考欄の文字列 原点位置=4
  7
CONVERTER_11
 73
     1
 44
0.54545454545455
  0
HATCH
  5
C7
330
49
100
AcDbEntity
  8
1
  6
Continuous
 62
     2
100
AcDbHatch
 10
0.0
 20
0.0
 30
0.0
210
0.0
220
0.0
230
1.0
  2
CUSTOM0
 70
     0
 71
     1
 91
        1
 92
        1
 93
        4
 72
     1
 10
192.4578138032672
 20
15.39722336795622
 11
192.4578138032672
 21
15.22875434022053
 72
     1
 10
192.4578138032672
 20
15.22875434022053
 11
191.1602971697031
 21
15.22875434022053
 72
     1
 10
191.1602971697031
 20
15.22875434022053
 11
191.1602971697031
 21
15.39722336795622
 72
     1
 10
191.1602971697031
 20
15.39722336795622
 11
192.4578138032672
 21
15.39722336795622
 97
        1
330
BA
 75
     1
 76
     2
 52
45.0
 41
0.1
 77
     0
 78
     1
 53
45.0
 43
0.0
 44
0.0
 45
-0.282842712474619
 46
0.0
 79
     0
 98
        1
 10
0.0
 20
0.0
  0
HATCH
  5
C8
330
49
100
AcDbEntity
  8
1
  6
Continuous
 62
     2
100
AcDbHatch
 10
0.0
 20
0.0
 30
0.0
210
0.0
220
0.0
230
1.0
  2
CUSTOM1
 70
     0
 71
     1
 91
        1
 92
        1
 93
        3
 72
     4
 94
        3
 73
     0
 74
     0
 95
       24
 96
       20
 40
0.0
 40
0.0
 40
0.0
 40
0.0
 40
0.221107500875402
 40
0.4273218586245452
 40
0.5080174679239462
 40
0.5914835907870342
 40
0.8143265690192794
 40
1.054651302686594
 40
1.295452694023183
 40
1.518109231328841
 40
1.540864321905455
 40
1.595126460622717
 40
1.659890947896031
 40
1.714153085187389
 40
1.736908174961689
 40
1.764951100735379
 40
1.801562291220968
 40
1.953914424543646
 40
2.126104167379725
 40
2.126104167379725
 40
2.126104167379725
 40
2.126104167379725
 10
185.9375369556889
 20
15.58989295113013
 10
185.9112579081812
 20
15.53097628234371
 10
185.8604698894425
 20
15.41711139679253
 10
185.8131784839111
 20
15.14441958233111
 10
185.7043482802619
 20
15.24445482575451
 10
185.5514800279637
 20
15.27118593367326
 10
185.7686155181199
 20
15.48518135017628
 10
185.7838483674381
 20
15.70332117782483
 10
185.8906889492
 20
15.88451579066421
 10
185.8305380947079
 20
16.16913226311399
 10
185.9334317395401
 20
16.14114089222447
 10
185.977993346815
 20
16.13243251602296
 10
186.0380842395397
 20
16.12139654183351
 10
186.0756619587438
 20
16.10767523055555
 10
186.1252466928606
 20
16.10756076160218
 10
186.0930158919325
 20
16.07306592398619
 10
186.0171802221881
 20
16.0840410453796
 10
186.0429447159693
 20
15.89858969582445
 10
186.0055896763849
 20
15.80702313549585
 10
185.9857704961609
 20
15.75844135397701
 72
     4
 94
        3
 73
     0
 74
     0
 95
       70
 96
       66
 40
0.0
 40
0.0
 40
0.0
 40
0.0
 40
0.0241731073021472
 40
0.0846058988987013
 40
0.1631685280353284
 40
0.2417311571789756
 40
0.3021639488292751
 40
0.3263370654895541
 40
0.3533118254248899
 40
0.4228783438922076
 40
0.5179999095313367
 40
0.6216398239466031
 40
0.7167613891499599
 40
0.7863279069649792
 40
0.8133026791761729
 40
0.8372943998771567
 40
0.8945054261372762
 40
0.9627895541962532
 40
1.020000580349063
 40
1.043992300975161
 40
1.071934345522888
 40
1.113121768772903
 40
1.145225199332227
 40
1.225483775412759
 40
1.329819923771467
 40
1.434156071994355
 40
1.514414647795773
 40
1.546518078208379
 40
1.578974764260153
 40
1.662678849314148
 40
1.777131373668368
 40
1.901833377474759
 40
2.016285900500549
 40
2.099989982527916
 40
2.132446666570274
 40
2.158782354486
 40
2.216720867907787
 40
2.274659381334212
 40
2.300995069256146
 40
2.333451754066118
 40
2.417155836543799
 40
2.531608358985238
 40
2.656310362283733
 40
2.770762886388866
 40
2.854466971340031
 40
2.886923657363837
 40
2.913597976833271
 40
2.982389642875074
 40
3.07645171694694
 40
3.178937260458554
 40
3.272999334739955
 40
3.341791001059178
 40
3.368465320663491
 40
3.396976080738712
 40
3.472140811845948
 40
3.578408190308638
 40
3.700226892456074
 40
3.822045594634291
 40
3.928312973256398
 40
4.003477705314795
 40
4.031988456866861
 40
4.058324144797663
 40
4.116262658236826
 40
4.174201171400629
 40
4.200536849608563
 40
4.200536849608563
 40
4.200536849608563
 40
4.200536849608563
 10
185.9857704961609
 20
15.75844135397701
 10
185.9938259544679
 20
15.75844359811683
 10
186.0220200663241
 20
15.75845146032793
 10
186.0765534803672
 20
15.75830754828368
 10
186.1482891808604
 20
15.75909120499894
 10
186.2236240137062
 20
15.75627570463807
 10
186.2713052366439
 20
15.76298403400953
 10
186.3195071245616
 20
15.75197563692428
 10
186.3062571799873
 20
15.80546402997029
 10
186.3151093964538
 20
15.86049583543087
 10
186.3108698036285
 20
15.95419908726105
 10
186.313348348128
 20
16.04959482218528
 10
186.3090938706059
 20
16.14356821983382
 10
186.3179818665846
 20
16.19795062438007
 10
186.3046977409945
 20
16.25233997691455
 10
186.3514119277109
 20
16.23842216335353
 10
186.3943254545736
 20
16.24103877374038
 10
186.4605443456686
 20
16.2364842245075
 10
186.5013342271798
 20
16.22778162134156
 10
186.5525145690819
 20
16.2353179989019
 10
186.52537204872
 20
16.19349970223281
 10
186.4803096055707
 20
16.20284992072591
 10
186.4942065045051
 20
16.13841207371832
 10
186.4858414431653
 20
16.07378219627394
 10
186.4903632178398
 20
15.97529141193883
 10
186.4854741311167
 20
15.87595932842566
 10
186.4950258992081
 20
15.81293115552965
 10
186.47997614552
 20
15.74964011499784
 10
186.5449159457208
 20
15.76515072944266
 10
186.6116246399496
 20
15.75499387697808
 10
186.7241435470828
 20
15.75988800099363
 10
186.8390235448953
 20
15.75691204732779
 10
186.9519871999747
 20
15.76221664184987
 10
187.0176267597677
 20
15.75107306472085
 10
187.0816276691053
 20
15.76744532319853
 10
187.0703142889189
 20
15.7176168990527
 10
187.077533987151
 20
15.67416715212119
 10
187.070314261127
 20
15.63071745587441
 10
187.0816277175993
 20
15.58088895196873
 10
187.0176263598972
 20
15.59726166091358
 10
186.9519921240459
 20
15.58611271661584
 10
186.838997431733
 20
15.5914485720685
 10
186.7242456548644
 20
15.58834345663818
 10
186.611318368686
 20
15.59364894682584
 10
186.5455220903585
 20
15.5825730001959
 10
186.4816097975358
 20
15.59887597847613
 10
186.4936015165126
 20
15.54423524395738
 10
186.4862104613005
 20
15.48854295047838
 10
186.4892684841983
 20
15.39649689140566
 10
186.4893422785683
 20
15.30179109873097
 10
186.4860313578359
 20
15.20952782902261
 10
186.4939505989903
 20
15.15435768736135
 10
186.4815076611618
 20
15.10058169100132
 10
186.5389116551631
 20
15.11453768862776
 10
186.5994708140383
 20
15.10511457884222
 10
186.7048680855081
 20
15.10942885928701
 10
186.8204294070622
 20
15.10835504612027
 10
186.9359688877796
 20
15.10725965900991
 10
187.0414181130841
 20
15.11162525770628
 10
187.1018680471803
 20
15.10209426030667
 10
187.1592837739111
 20
15.11617289606375
 10
187.1477773876708
 20
15.06707153265678
 10
187.1537566781749
 20
15.02564658018644
 10
187.1520311050801
 20
14.97651677966691
 10
187.1521500122971
 20
14.94854428447603
 10
187.1521871691833
 20
14.93980288195945
 72
     4
 94
        3
 73
     0
 74
     0
 95
       62
 96
       58
 40
0.0
 40
0.0
 40
0.0
 40
0.0
 40
0.0598250028308485
 40
0.2024846486897331
 40
0.3727558389221031
 40
0.515415484793607
 40
0.5752404975785339
 40
0.9332326775487186
 40
1.29045176283947
 40
1.602077253145875
 40
1.699931634112126
 40
1.799359756425047
 40
2.27012014965709
 40
2.804661928461544
 40
2.882342287383255
 40
3.076543185719104
 40
3.329004354835564
 40
3.581465524568388
 40
3.77566642454367
 40
3.85334678455829
 40
3.899120679595035
 40
3.984129341792033
 40
4.029903236817382
 40
4.105797496059536
 40
4.295533144152498
 40
4.542189486611739
 40
4.788845828875689
 40
4.978581476410073
 40
5.054475735244316
 40
5.621734664339334
 40
6.130867242037344
 40
6.225249780948589
 40
6.318913039727281
 40
6.663579954558903
 40
7.047498900224753
 40
7.435230791575679
 40
7.498943906668091
 40
7.650875181210084
 40
7.832212509001595
 40
7.984143783696981
 40
8.047856898903108
 40
8.091554632732619
 40
8.172707566964279
 40
8.216405300768004
 40
8.289021782160889
 40
8.462184160757262
 40
8.668861838005343
 40
8.842024215263935
 40
8.91464069547513
 40
8.989881580861336
 40
9.155411528827244
 40
9.320941477744025
 40
9.396182352487278
 40
9.454709011143825
 40
9.58346766017076
 40
9.712226309013039
 40
9.770752957989492
 40
9.770752957989492
 40
9.770752957989492
 40
9.770752957989492
 10
187.1521871691833
 20
14.93980288195945
 10
187.1322348171623
 20
14.93980875568666
 10
187.0647037716466
 20
14.93982863806153
 10
186.9410612161788
 20
14.93949362520321
 10
186.7863180150056
 20
14.94107673750507
 10
186.669734948248
 20
14.93686078860491
 10
186.455094263424
 20
14.95215205331621
 10
186.8518948407228
 20
14.59198721286188
 10
186.8945656069267
 20
14.37510503397162
 10
187.3189162146612
 20
14.19325062511441
 10
187.1439821496073
 20
14.08985196568067
 10
187.0194523925085
 20
13.87831523212719
 10
186.7666277235942
 20
14.34806081001558
 10
186.4797602893626
 20
14.99511516984516
 10
186.490633592666
 20
14.68782672154689
 10
186.488289277796
 20
14.52288616971774
 10
186.4861096126411
 20
14.28879670711689
 10
186.4980774396346
 20
14.04498072421779
 10
186.4687984740631
 20
13.89855796860981
 10
186.511452262547
 20
13.75113490174534
 10
186.423981400564
 20
13.76685797306216
 10
186.3768527606744
 20
13.7669430354345
 10
186.2898973207713
 20
13.75109425482905
 10
186.3313474021722
 20
13.89527771422758
 10
186.3029875004285
 20
14.03855052698451
 10
186.3145973775299
 20
14.27674947365261
 10
186.3124175648272
 20
14.50517235240342
 10
186.3103111127993
 20
14.6670572937599
 10
186.3208035438324
 20
14.98153709333749
 10
186.0128963252893
 20
14.29229470872431
 10
185.7055258267456
 20
13.81476750243049
 10
185.5851367066274
 20
14.03741112637423
 10
185.4074607910721
 20
14.15011034955562
 10
185.8853326362895
 20
14.32548143465457
 10
185.9353959057208
 20
14.56091929252026
 10
186.3583799621717
 20
14.95322989344603
 10
186.127675427354
 20
14.9365530702906
 10
186.004968585934
 20
14.94269518948765
 10
185.8325483095662
 20
14.93312822699569
 10
185.7213224694449
 20
14.95448818489661
 10
185.6025779627447
 20
14.92136265357414
 10
185.6183169706686
 20
15.00203900606879
 10
185.6178550933763
 20
15.04645414290849
 10
185.6027881889931
 20
15.12967081778529
 10
185.7372380935443
 20
15.09062651983878
 10
185.8619755545747
 20
15.11739729328418
 10
186.062875523728
 20
15.10063949044047
 10
186.1921540949352
 20
15.12204225913
 10
186.3328419928295
 20
15.08868778853416
 10
186.2980927452614
 20
15.22651875785063
 10
186.3222185666713
 20
15.34963257349477
 10
186.2967086182392
 20
15.47024055670331
 10
186.3333251146685
 20
15.60539865141491
 10
186.2211417027769
 20
15.58094545781886
 10
186.1280356457136
 20
15.59307749842019
 10
186.0191547579819
 20
15.58957630069989
 10
185.9569697640964
 20
15.58981755951599
 10
185.9375369557246
 20
15.5898929512414
 97
        3
330
AB
330
AA
330
A9
 75
     1
 76
     2
 52
45.0
 41
0.1
 77
     0
 78
     1
 53
45.0
 43
0.0
 44
0.0
 45
-0.282842712474619
 46
0.0
 79
     0
 98
        1
 10
0.0
 20
0.0
  0
HATCH
  5
C9
330
49
100
AcDbEntity
  8
1
  6
Continuous
 62
     2
100
AcDbHatch
 10
0.0
 20
0.0
 30
0.0
210
0.0
220
0.0
230
1.0
  2
CUSTOM2
 70
     0
 71
     1
 91
        1
 92
        1
 93
        1
 72
     4
 94
        3
 73
     0
 74
     0
 95
      124
 96
      120
 40
0.0
 40
0.0
 40
0.0
 40
0.0
 40
0.027818722962451
 40
0.1011590162384269
 40
0.2048470170590239
 40
0.3237088716559245
 40
0.4425707262522
 40
0.5462587270699547
 40
0.6195990203311798
 40
0.647417752257866
 40
0.6750060736115207
 40
0.7357003855242759
 40
0.7963946998054474
 40
0.8239830245571766
 40
0.854093381110286
 40
0.937339662940954
 40
1.063094687343235
 40
1.220731268638073
 40
1.399622220914748
 40
1.589140358637732
 40
1.778658496423898
 40
1.957549448940509
 40
2.115186030873159
 40
2.240941056914463
 40
2.324187341760532
 40
2.354297700109382
 40
2.381886024671888
 40
2.442580338710475
 40
2.503274652750499
 40
2.530862977314606
 40
2.560983949278559
 40
2.640393784452905
 40
2.752662861759128
 40
2.881361560118145
 40
3.010060258455192
 40
3.122329335705339
 40
3.201739170817953
 40
3.231860142753313
 40
3.264298024030368
 40
3.352343701778239
 40
3.482095226868762
 40
3.639650650173022
 40
3.811108022565478
 40
3.982565394927986
 40
4.140120818152567
 40
4.269872343141274
 40
4.357918020802338
 40
4.390355902043965
 40
4.423256253992535
 40
4.508104530073056
 40
4.624121560636824
 40
4.750528176031581
 40
4.866545206602027
 40
4.951393482691985
 40
4.984293834645386
 40
5.011450833242303
 40
5.071196230152085
 40
5.130941627057163
 40
5.158098625648829
 40
5.190998977601519
 40
5.275847253689345
 40
5.391864284256779
 40
5.518270899648324
 40
5.634287930209363
 40
5.719136206288037
 40
5.752036558235925
 40
5.78213094628295
 40
5.862783906229123
 40
5.979550131774992
 40
6.117984316640396
 40
6.263641154587943
 40
6.402075339414149
 40
6.518841564907945
 40
6.599494524815527
 40
6.629588912848765
 40
6.654403028226342
 40
6.713575149488109
 40
6.784199939329426
 40
6.843372060493528
 40
6.868186175802774
 40
6.896246243201863
 40
6.939586233758259
 40
6.967846564564891
 40
7.043584251089825
 40
7.153234334451682
 40
7.283231855734432
 40
7.420011856035462
 40
7.55000937657981
 40
7.659659458835211
 40
7.735397144417204
 40
7.763657474851374
 40
7.796409728011032
 40
7.880876065096306
 40
7.996370852465692
 40
8.122208446418586
 40
8.23770322479918
 40
8.322169562010874
 40
8.354921815205888
 40
8.38207881330767
 40
8.441824209206974
 40
8.501569605240123
 40
8.528726603485703
 40
8.561478856695752
 40
8.645945193877802
 40
8.761439980865314
 40
8.887277580764456
 40
9.002772362000977
 40
9.087238696661197
 40
9.119990949235651
 40
9.15242883061335
 40
9.240474508638567
 40
9.370226034149516
 40
9.5277814579844
 40
9.699238830981388
 40
9.870696203978579
 40
10.028251627814
 40
10.15800315332562
 40
10.24604883135117
 40
10.27848670378519
 40
10.27848670378519
 40
10.27848670378519
 40
10.27848670378519
 10
195.3821827564383
 20
14.01410517385753
 10
195.3914554737523
 20
14.0141049851127
 10
195.4251744536861
 20
14.0141043087671
 10
195.4934706812465
 20
14.01411807243301
 10
195.592014171158
 20
14.0140322421954
 10
195.7062066464812
 20
14.01441755612247
 10
195.818589441707
 20
14.01300835897541
 10
195.9214376600118
 20
14.01719117422239
 10
195.9806839874849
 20
14.00823089251979
 10
196.0371265937032
 20
14.02164434526057
 10
196.0246255586956
 20
13.97087198613357
 10
196.0329549635703
 20
13.92589320939063
 10
196.024817084112
 20
13.88056752990484
 10
196.0370529214457
 20
13.82931932408462
 10
195.9747773490333
 20
13.84447955365272
 10
195.9060513026868
 20
13.83359750710738
 10
195.7782756749592
 20
13.83911304747969
 10
195.6262984511643
 20
13.83700851253694
 10
195.4502695972523
 20
13.8377100258847
 10
195.2644431934287
 20
13.83745237531287
 10
195.0786167437175
 20
13.83771005144599
 10
194.9025880142168
 20
13.83700841847727
 10
194.7506104154195
 20
13.83911332229985
 10
194.6228357664554
 20
13.83359680767636
 10
194.554107783658
 20
13.84448077125938
 10
194.4918349042883
 20
13.82931786684205
 10
194.5040616290017
 20
13.88057510805167
 10
194.4960004462597
 20
13.92582473272421
 10
194.5040675809892
 20
13.97106357955319
 10
194.4918238487084
 20
14.02234176909954
 10
194.5525017120697
 20
14.00749577363131
 10
194.6162810745736
 20
14.01756448170731
 10
194.7277314353502
 20
14.01294644211995
 10
194.8497533443824
 20
14.01413328905465
 10
194.9719538137823
 20
14.01515863900631
 10
195.0829794287392
 20
14.01092475623397
 10
195.1476517413958
 20
14.02018584521735
 10
195.2091162810501
 20
14.00604423049678
 10
195.1930065601337
 20
14.07235527884513
 10
195.2042980327358
 20
14.14447790121971
 10
195.198740082256
 20
14.27513760888282
 10
195.200803506169
 20
14.42607323708237
 10
195.2000167127295
 20
14.59335873107882
 10
195.2007845215628
 20
14.76061110332298
 10
195.1988038785628
 20
14.9116328926991
 10
195.2041306156621
 20
15.0420606955299
 10
195.1933101388425
 20
15.11465442605895
 10
195.2090326429876
 20
15.18150469436794
 10
195.143270813249
 20
15.1658051249082
 10
195.0756367830764
 20
15.17609243083991
 10
194.9615885293809
 20
15.17113786847118
 10
194.8451242674902
 20
15.1741412803047
 10
194.7306554121477
 20
15.16880303143385
 10
194.6640324657812
 20
15.18001268074821
 10
194.5990769715185
 20
15.16349132665007
 10
194.6107989758708
 20
15.21473720477055
 10
194.6032830189121
 20
15.25950333784086
 10
194.6107989878835
 20
15.30426944897957
 10
194.5990769505347
 20
15.35551536129737
 10
194.66403263392
 20
15.3389938176681
 10
194.7306533339821
 20
15.3502057137394
 10
194.8451352858063
 20
15.3448543671066
 10
194.9615454436962
 20
15.34791188771113
 10
195.0757660174641
 20
15.34278499010704
 10
195.1430150439226
 20
15.35345733355594
 10
195.2083325941438
 20
15.33742082669073
 10
195.1941391448553
 20
15.3994968575005
 10
195.2036059462995
 20
15.46586761628758
 10
195.1990269004085
 20
15.58239972741962
 10
195.2007696555948
 20
15.71426685022371
 10
195.1997551495391
 20
15.85615960150269
 10
195.2017191344373
 20
15.98769050702576
 10
195.196466855385
 20
16.10524577282998
 10
195.2073408763475
 20
16.1694778900158
 10
195.1919536641853
 20
16.23108802545043
 10
195.24075915378
 20
16.21702407382107
 10
195.2853995564726
 20
16.2195474207531
 10
195.3538643946743
 20
16.21512797401706
 10
195.3959106169102
 20
16.20613025544031
 10
195.4487544758775
 20
16.21411714866507
 10
195.4207035002013
 20
16.17113917611668
 10
195.3749142248594
 20
16.18259552043832
 10
195.3869539073264
 20
16.12173520005132
 10
195.3796086070641
 20
16.05769299468768
 10
195.3831195826162
 20
15.94909368863906
 10
195.3819806760173
 20
15.82494319144748
 10
195.3819174780263
 20
15.69189719829873
 10
195.3832872966867
 20
15.56797381249551
 10
195.3791638801313
 20
15.45868337849334
 10
195.3877763103564
 20
15.39608580094165
 10
195.3746757454402
 20
15.33740133296362
 10
195.4393884328198
 20
15.35362113810897
 10
195.5060405953156
 20
15.34270260383308
 10
195.6198779541102
 20
15.34793740173751
 10
195.7357259122097
 20
15.3448554751691
 10
195.849692426328
 20
15.35018259812507
 10
195.9160341018099
 20
15.33904208166539
 10
195.980718852548
 20
15.35546979593174
 10
195.9689820772722
 20
15.30425925210046
 10
195.9765168063041
 20
15.25950334120997
 10
195.9689820992257
 20
15.21474739010023
 10
195.9807188140737
 20
15.16353690871036
 10
195.9160344075252
 20
15.17996427794215
 10
195.8496886430824
 20
15.16882784447266
 10
195.7357459487012
 20
15.17413115893116
 10
195.6197995623054
 20
15.1711476459354
 10
195.5062756882122
 20
15.17606892268389
 10
195.4389231318804
 20
15.16585087513515
 10
195.3734285122495
 20
15.18145996138812
 10
195.3891713619218
 20
15.11463851827407
 10
195.3783275998213
 20
15.04207057815874
 10
195.3836581629792
 20
14.91162247614412
 10
195.3817136151854
 20
14.76064558185221
 10
195.3823133683215
 20
14.59322243934154
 10
195.3821506559604
 20
14.42656176118367
 10
195.3821895488136
 20
14.27360142921632
 10
195.3821816413099
 20
14.14849178985702
 10
195.3821828382744
 20
14.06507890991415
 10
195.3821827716208
 20
14.02491778281972
 10
195.3821827564383
 20
14.01410517385753
 97
        1
330
AC
 75
     1
 76
     2
 52
45.0
 41
0.1
 77
     0
 78
     1
 53
45.0
 43
0.0
 44
0.0
 45
-0.282842712474619
 46
0.0
 79
     0
 98
        1
 10
0.0
 20
0.0
  0
HATCH
  5
CA
330
49
100
AcDbEntity
  8
1
  6
Continuous
 62
     2
100
AcDbHatch
 10
0.0
 20
0.0
 30
0.0
210
0.0
220
0.0
230
1.0
  2
CUSTOM3
 70
     0
 71
     1
 91
        1
 92
        1
 93
        1
 72
     4
 94
        3
 73
     0
 74
     0
 95
      131
 96
      127
 40
0.0
 40
0.0
 40
0.0
 40
0.0
 40
0.0195577029826156
 40
0.042649053746146
 40
0.2863607575856616
 40
0.5344948436189341
 40
0.7842238845573267
 40
0.8737315789467432
 40
0.9803832810312908
 40
1.092842274517035
 40
1.199761146656793
 40
1.289788768186497
 40
1.351573580786192
 40
1.37072711756142
 40
1.416400936017832
 40
1.470914848355972
 40
1.516588666791765
 40
1.535742203552844
 40
1.634216592293193
 40
1.760283341175027
 40
1.897966686682088
 40
2.031216387368909
 40
2.049689751137901
 40
2.101115601646837
 40
2.179502577739953
 40
2.278859318314069
 40
2.393194462258726
 40
2.516516648383838
 40
2.642834515405963
 40
2.766156701983465
 40
2.88049184675458
 40
2.979848588358619
 40
3.058235565443796
 40
3.10966141666895
 40
3.128134780704126
 40
3.146783742386443
 40
3.191254343315304
 40
3.244332157315962
 40
3.288802758225866
 40
3.307451719895109
 40
3.327717853844722
 40
3.383747753580081
 40
3.468388665924473
 40
3.574487837698779
 40
3.694892515728884
 40
3.822449946852021
 40
3.95000737792041
 40
4.070412055800503
 40
4.176511227368058
 40
4.261152139501505
 40
4.317182039076696
 40
4.337448172964617
 40
4.620011002696233
 40
4.885096638397503
 40
4.945373043518323
 40
5.014107710488637
 40
5.070481727652033
 40
5.319246955636556
 40
5.58481216450603
 40
5.859000912056882
 40
6.133746937542063
 40
6.401732212968867
 40
6.420736683995458
 40
6.472845717451109
 40
6.550702743894036
 40
6.646951193874245
 40
6.754234497930569
 40
6.865196086587347
 40
6.972479390357806
 40
7.068727839771968
 40
7.146584865450976
 40
7.198693898189206
 40
7.217698368905347
 40
7.234950401630823
 40
7.27608986426987
 40
7.325191803515977
 40
7.366331266090365
 40
7.383583298769715
 40
7.402779163492093
 40
7.453386443254524
 40
7.524934666445525
 40
7.606953361405865
 40
7.688972056429017
 40
7.760520279784267
 40
7.811127559734509
 40
7.830323424546131
 40
7.847844055299755
 40
7.894799345666798
 40
7.962779392744484
 40
8.043374293560532
 40
8.128174145149439
 40
8.20876904481724
 40
8.27674909037694
 40
8.323704379669502
 40
8.341225010056233
 40
8.358497614800381
 40
8.401679126686586
 40
8.457815092185644
 40
8.513951057728049
 40
8.557132569708005
 40
8.574405174505047
 40
8.602340668616405
 40
8.643455660539948
 40
8.663225271966615
 40
8.71534515656426
 40
8.789031889628594
 40
8.873502045520324
 40
8.957972194323943
 40
9.031658925567836
 40
9.083778811234522
 40
9.103548423002986
 40
9.119550083123523
 40
9.160817522379824
 40
9.21724442911019
 40
9.278724491644676
 40
9.33515139829546
 40
9.376418837357756
 40
9.392420497300543
 40
9.401196302734762
 40
9.417494229384237
 40
9.42627002774951
 40
9.440875075477543
 40
9.475702496998723
 40
9.517270709865887
 40
9.552098131994056
 40
9.566703169884264
 40
9.566703169884264
 40
9.566703169884264
 40
9.566703169884264
 10
194.6170254148479
 20
15.67015871511023
 10
194.6134345093371
 20
15.66453690702155
 10
194.6056039123624
 20
15.65227754419107
 10
194.5129968974551
 20
15.61601916040972
 10
194.4887622233245
 20
15.40148444212708
 10
194.3858709845938
 20
15.22197284509704
 10
194.1220492364305
 20
15.0361557379814
 10
194.2845471569179
 20
14.95959336566076
 10
194.3607225760838
 20
14.89856693195438
 10
194.4492171072758
 20
14.83515804544755
 10
194.538993023311
 20
14.77525634219557
 10
194.5883817636045
 20
14.72102154849204
 10
194.6745708157382
 20
14.6928624054183
 10
194.6411260674229
 20
14.65713309652807
 10
194.6214671166311
 20
14.62550387991902
 10
194.5919888217882
 20
14.58475872796065
 10
194.5688989446031
 20
14.5550466348964
 10
194.5380205968356
 20
14.5021142266849
 10
194.472919336574
 20
14.62740334938898
 10
194.3796000122415
 20
14.68213900233929
 10
194.2950636285139
 20
14.73916423939339
 10
194.1722498125741
 20
14.89675287427517
 10
194.1764450847301
 20
14.82035806766832
 10
194.1751478652676
 20
14.7736128016129
 10
194.1758126448077
 20
14.69584785812597
 10
194.1755549986956
 20
14.59902068324418
 10
194.1756431239922
 20
14.48650279078805
 10
194.1756077302281
 20
14.36524085945694
 10
194.1756511758279
 20
14.24086897858957
 10
194.1755199942405
 20
14.11967683631332
 10
194.1759477562046
 20
14.00691148919739
 10
194.174667820231
 20
13.9108291376874
 10
194.1779759851043
 20
13.83113826468696
 10
194.1715197740086
 20
13.7881517578878
 10
194.1806208705556
 20
13.74955432372039
 10
194.1447910339935
 20
13.75810887724067
 10
194.1115223815252
 20
13.75342519985442
 10
194.060456257604
 20
13.7535129875978
 10
194.0269723972813
 20
13.75794430283817
 10
193.9907585408754
 20
13.74960793842505
 10
194.0009782568665
 20
13.7914527717928
 10
193.9936487887773
 20
13.8377856082017
 10
193.9973633136103
 20
13.9237483110601
 10
193.9959480554896
 20
14.02605142704845
 10
193.9964105554637
 20
14.14453223931507
 10
193.9962773686231
 20
14.26957683153352
 10
193.9963015910045
 20
14.39475828107046
 10
193.9963354925551
 20
14.51286645379053
 10
193.9962060293132
 20
14.61628748709512
 10
193.9965507549081
 20
14.69932036153663
 10
193.995869827869
 20
14.75143368521238
 10
193.9994586600623
 20
14.87912907821359
 10
193.7826171386436
 20
14.58048716819614
 10
193.6021354921951
 20
14.35263981511511
 10
193.5490322295611
 20
14.49373443289809
 10
193.5200429133149
 20
14.54325767560939
 10
193.419664806282
 20
14.64641779790101
 10
193.7405127723261
 20
14.72695035023775
 10
193.8689897005429
 20
14.9106628303643
 10
194.0906454325359
 20
15.11931995771758
 10
194.1770224894068
 20
15.29339211228339
 10
194.4549394229075
 20
15.56967051342509
 10
194.3346247839283
 20
15.5653455955111
 10
194.2863197351349
 20
15.56614856202549
 10
194.2102377454905
 20
15.5657458214658
 10
194.116701000975
 20
15.56590275611605
 10
194.0117594788557
 20
15.5658250257622
 10
193.9033887738717
 20
15.5659546437855
 10
193.7981454235897
 20
15.56554393490688
 10
193.7056237819412
 20
15.56682073671587
 10
193.6268130800707
 20
15.56340766534846
 10
193.5839674565379
 20
15.57023350036316
 10
193.5449499586515
 20
15.56065064201119
 10
193.5526365271864
 20
15.59420779565539
 10
193.5485464404311
 20
15.62523550322229
 10
193.5485531368814
 20
15.67236529270896
 10
193.5526239724911
 20
15.70340941646775
 10
193.5449495574582
 20
15.73701861635897
 10
193.5834819405494
 20
15.72748410420868
 10
193.624122801448
 20
15.73397435498066
 10
193.6951471850463
 20
15.7310015065025
 10
193.7729318149633
 20
15.73174761399153
 10
193.8507292246474
 20
15.73247814044521
 10
193.9217232089907
 20
15.72954235514156
 10
193.962427979182
 20
15.73595468772947
 10
194.0009853489909
 20
15.72650524176
 10
193.9927342754928
 20
15.7626469215878
 10
193.9982346669358
 20
15.80129837613222
 10
193.9955754206164
 20
15.86913528561834
 10
193.9965815471532
 20
15.94591641538735
 10
193.996017801832
 20
16.02849393582753
 10
193.9970714526592
 20
16.10517329229873
 10
193.994267586313
 20
16.17331990776695
 10
194.0000702721303
 20
16.21132399809341
 10
193.9915654551159
 20
16.24758448077641
 10
194.0255610233125
 20
16.23755723771847
 10
194.0594575683099
 20
16.24073266813702
 10
194.1126669060346
 20
16.23508965640604
 10
194.1660768574482
 20
16.2343477443642
 10
194.1995914649491
 20
16.22819223482975
 10
194.2388086183039
 20
16.23346029773588
 10
194.2120263698492
 20
16.19253380793486
 10
194.1708111001724
 20
16.20371204538105
 10
194.1782641540873
 20
16.1586705619212
 10
194.1742227952184
 20
16.11412278028139
 10
194.1761714049641
 20
16.04223572621698
 10
194.1752364849758
 20
15.96168630588766
 10
194.176510719003
 20
15.8817399540499
 10
194.1732043793864
 20
15.80841837083179
 10
194.1802106179961
 20
15.76688643002564
 10
194.1701440380126
 20
15.72752418568109
 10
194.2029814803921
 20
15.73468063430977
 10
194.236457729648
 20
15.73027243137941
 10
194.2915053476019
 20
15.73217943347893
 10
194.3489502595314
 20
15.73185366407284
 10
194.4023026248309
 20
15.73106308733077
 10
194.4398540896638
 20
15.7331395911807
 10
194.4623172523237
 20
15.73022338167105
 10
194.4751678073731
 20
15.73572552644052
 10
194.4858255685888
 20
15.73801118197786
 10
194.4986635650144
 20
15.74494972588049
 10
194.5145991033069
 20
15.72853046313667
 10
194.5410623920892
 20
15.71709122319445
 10
194.5726805253758
 20
15.69644687835186
 10
194.5987255892151
 20
15.68116869628289
 10
194.6128517723973
 20
15.6726697632318
 10
194.6170254148479
 20
15.67015871511023
 97
        1
330
AD
 75
     1
 76
     2
 52
45.0
 41
0.1
 77
     0
 78
     1
 53
45.0
 43
0.0
 44
0.0
 45
-0.282842712474619
 46
0.0
 79
     0
 98
        1
 10
0.0
 20
0.0
  0
HATCH
  5
CB
330
49
100
AcDbEntity
  8
1
  6
Continuous
 62
     2
100
AcDbHatch
 10
0.0
 20
0.0
 30
0.0
210
0.0
220
0.0
230
1.0
  2
CUSTOM4
 70
     0
 71
     1
 91
        1
 92
        1
 93
        1
 72
     4
 94
        3
 73
     0
 74
     0
 95
       91
 96
       87
 40
0.0
 40
0.0
 40
0.0
 40
0.0
 40
0.0267532254356701
 40
0.0856103386464084
 40
0.1444674521996621
 40
0.1712206856618514
 40
0.2039416005642536
 40
0.2955601971652484
 40
0.4362601844616918
 40
0.616225284450725
 40
0.8256392189704698
 40
1.054685709844411
 40
1.293548478893531
 40
1.532411247938303
 40
1.761457738799568
 40
1.970871673298537
 40
2.150836773256732
 40
2.291536760495593
 40
2.3831553568367
 40
2.41587628410132
 40
2.442629517487963
 40
2.501486630949095
 40
2.560343744424242
 40
2.587096977826515
 40
2.617068194440942
 40
2.699247336756083
 40
2.822032643466396
 40
2.973822353257925
 40
3.143014704823368
 40
3.318007936879947
 40
3.48720028818678
 40
3.63898999754826
 40
3.761775303794759
 40
3.843954445753094
 40
3.87392566222979
 40
3.890812773500499
 40
3.90769988477168
 40
3.93796076785728
 40
3.980983618142312
 40
4.199085915228466
 40
4.439444339237253
 40
4.677588241260893
 40
5.050698317837779
 40
5.448212454763165
 40
5.85529121804469
 40
6.138575438885354
 40
6.417434507584193
 40
6.444551104393876
 40
6.504207617363176
 40
6.563864130314499
 40
6.590980727104093
 40
6.84860946038147
 40
7.109611990668427
 40
7.352910904446091
 40
7.557830220705462
 40
7.58751892591338
 40
7.652834077375799
 40
7.718149228845737
 40
7.74783793406204
 40
7.854880190300995
 40
7.976511257403541
 40
8.369487896592341
 40
8.757514959223634
 40
9.126072419331097
 40
9.46063938039216
 40
9.7466955930359
 40
9.777569943118676
 40
9.807050320931776
 40
9.83037733612891
 40
9.886003295435984
 40
9.952395569429896
 40
10.00802152870625
 40
10.03134854388217
 40
10.21356951009587
 40
10.4220347929287
 40
10.66154556731062
 40
10.91693789564303
 40
11.15832906556565
 40
11.18982674596623
 40
11.27286608520407
 40
11.39026653033349
 40
11.52484752840885
 40
11.65942852648447
 40
11.77682897161483
 40
11.85986831085682
 40
11.89136598230428
 40
11.89136598230428
 40
11.89136598230428
 40
11.89136598230428
 10
190.7027885008196
 20
14.70699600701768
 10
190.7028237765288
 20
14.71587847311981
 10
190.7029366710796
 20
14.74430237047342
 10
190.7012984568489
 20
14.79409639169799
 10
190.7069750292911
 20
14.8365756447815
 10
190.6956928731706
 20
14.88730154856843
 10
190.7632296979032
 20
14.87012900740105
 10
190.8388029210699
 20
14.88290227165991
 10
190.9828357056001
 20
14.87629729457378
 10
191.1569419185426
 20
14.87888462206462
 10
191.3639599611004
 20
14.87800591955549
 10
191.5894688172378
 20
14.87828207920023
 10
191.8251162293406
 20
14.87818339658658
 10
192.0607640531348
 20
14.87828184412763
 10
192.2862717580626
 20
14.87800678190785
 10
192.4932934632805
 20
14.87888186270731
 10
192.6673888915288
 20
14.87630522678442
 10
192.8114492071986
 20
14.8828829044921
 10
192.8869691915292
 20
14.87016243405599
 10
192.954577603703
 20
14.88726400191683
 10
192.9430840140676
 20
14.83674785802936
 10
192.9505104581733
 20
14.79253252226497
 10
192.9428838927986
 20
14.74867966503606
 10
192.9546489459425
 20
14.69878374479324
 10
192.8930788491983
 20
14.71393227712508
 10
192.8256791738672
 20
14.70310665350669
 10
192.7013004056221
 20
14.70852031626233
 10
192.555442823657
 20
14.7064920539078
 10
192.3893576440085
 20
14.70715777578383
 10
192.2188412621724
 20
14.70689643521238
 10
192.0519790855388
 20
14.7072155339109
 10
191.9087346827105
 20
14.70635302590758
 10
191.7773313869834
 20
14.70863300482984
 10
191.7239859134656
 20
14.70407704374198
 10
191.6485188456912
 20
14.70999914992873
 10
191.6769075779232
 20
14.70094169343349
 10
191.7033652409542
 20
14.69725912268924
 10
191.6633522907701
 20
14.6665427196827
 10
191.5713663691868
 20
14.67667591174631
 10
191.5439396207069
 20
14.4303250224778
 10
191.4478793967234
 20
14.27499558764371
 10
191.1917277964473
 20
13.94525417931564
 10
191.7627537732762
 20
14.08430022210447
 10
192.0173656320516
 20
14.08291779973359
 10
192.6279647048617
 20
13.99790569242081
 10
192.3340698578084
 20
14.296854175582
 10
192.0133304286516
 20
14.44330856901774
 10
192.1313543360434
 20
14.50025540818282
 10
192.172471646626
 20
14.52420099873343
 10
192.2156812394411
 20
14.54599758811225
 10
192.317457409445
 20
14.60928721253898
 10
192.4328867625247
 20
14.35147151408776
 10
192.6329591642277
 20
14.21616041113679
 10
192.7269077387227
 20
14.03792795138878
 10
192.9558829746392
 20
13.87997821027045
 10
192.8596031846708
 20
13.82915972576296
 10
192.8167959763779
 20
13.7988129252305
 10
192.7718243528779
 20
13.77466130281454
 10
192.7121720925213
 20
13.72552146747564
 10
192.6789731061325
 20
13.85997475673605
 10
192.5582013350796
 20
14.01594265286576
 10
192.1970976005978
 20
13.88569928059553
 10
191.8385061955541
 20
13.90224694409479
 10
191.4570920450081
 20
13.89331229351861
 10
191.170345528289
 20
13.82882671672404
 10
190.8592055599715
 20
13.9423066819282
 10
190.8268737818788
 20
13.83122259927764
 10
190.7896178253318
 20
13.81196313850008
 10
190.7865737632753
 20
13.85874784087292
 10
190.7679892860608
 20
13.89806853919131
 10
190.7512436616777
 20
13.95765983478227
 10
190.7383730915754
 20
14.00201969871279
 10
190.7042327806428
 20
14.09106331120196
 10
190.9482714457754
 20
14.02181042943765
 10
191.1441394486671
 20
14.00030369057739
 10
191.2395426381277
 20
14.28226484478458
 10
191.2945135769597
 20
14.44363045421118
 10
191.5159619357155
 20
14.71391177589734
 10
191.3849239381216
 20
14.70548446853731
 10
191.3110026555854
 20
14.70779008496966
 10
191.1977459876244
 20
14.70671378321653
 10
191.0694251807484
 20
14.70707639076506
 10
190.9404252030415
 20
14.70697724466082
 10
190.828784094629
 20
14.70699932712568
 10
190.7514663970026
 20
14.70699579189666
 10
190.713287653201
 20
14.70699595845077
 10
190.7027885008196
 20
14.70699600701768
 97
        1
330
AE
 75
     1
 76
     2
 52
45.0
 41
0.1
 77
     0
 78
     1
 53
45.0
 43
0.0
 44
0.0
 45
-0.282842712474619
 46
0.0
 79
     0
 98
        1
 10
0.0
 20
0.0
  0
HATCH
  5
CC
330
49
100
AcDbEntity
  8
1
  6
Continuous
 62
     2
100
AcDbHatch
 10
0.0
 20
0.0
 30
0.0
210
0.0
220
0.0
230
1.0
  2
CUSTOM5
 70
     0
 71
     1
 91
        1
 92
        1
 93
        1
 72
     4
 94
        3
 73
     0
 74
     0
 95
       35
 96
       31
 40
0.0
 40
0.0
 40
0.0
 40
0.0
 40
0.0335231036620562
 40
0.0713218571711968
 40
0.4278866681486973
 40
0.8116865841963994
 40
1.19819023800006
 40
1.561379546812692
 40
1.659983174622054
 40
1.759315573807189
 40
2.132719617231073
 40
2.525233363588825
 40
2.910815397779692
 40
3.265244364303275
 40
3.592606723582012
 40
3.964386154603957
 40
4.359942131737779
 40
4.758154118639288
 40
4.843846538699898
 40
4.936650065543219
 40
5.256616602537298
 40
5.581707404416035
 40
5.899719158308132
 40
6.198363494280737
 40
6.46630104661577
 40
6.493895311537091
 40
6.559697020196884
 40
6.63823454344246
 40
6.704036252154213
 40
6.731630508423019
 40
6.731630508423019
 40
6.731630508423019
 40
6.731630508423019
 10
191.9736010568669
 20
16.23463843719129
 10
191.9676006097788
 20
16.22480690542318
 10
191.9548344099156
 20
16.20388988579794
 10
191.7949362006556
 20
16.17127126532686
 10
192.2322025842336
 20
15.88206680336697
 10
192.4345394828262
 20
15.68041138358434
 10
192.6819564267973
 20
15.43749387603273
 10
193.1831513624605
 20
15.36047662757771
 10
193.012556219897
 20
15.21876939174652
 10
192.93832994632
 20
15.01710366209103
 10
192.6131432248188
 20
15.36956287174722
 10
192.3277741670664
 20
15.53175212559558
 10
192.0337604077658
 20
15.73687130053045
 10
191.8084452691134
 20
16.21827488595449
 10
191.5993085055522
 20
15.75343046609218
 10
191.3207873674833
 20
15.54350952252907
 10
191.0371383177209
 20
15.3742445635998
 10
190.7078639527831
 20
15.00142360907932
 10
190.6277012318224
 20
15.19708014458997
 10
190.4759724909744
 20
15.32491104190591
 10
190.9083395826795
 20
15.40454031765931
 10
191.0962565329766
 20
15.60026634915469
 10
191.3468477420502
 20
15.81632996916751
 10
191.5714350470162
 20
15.98190992300054
 10
191.6259775409712
 20
16.26133964636823
 10
191.7494661029011
 20
16.24737950408074
 10
191.806027334452
 20
16.24521268867643
 10
191.8761870984945
 20
16.24046859881356
 10
191.9333414022105
 20
16.23709429350536
 10
191.9644190320839
 20
16.23519854711114
 10
191.9736010568669
 20
16.23463843719129
 97
        1
330
AF
 75
     1
 76
     2
 52
45.0
 41
0.1
 77
     0
 78
     1
 53
45.0
 43
0.0
 44
0.0
 45
-0.282842712474619
 46
0.0
 79
     0
 98
        1
 10
0.0
 20
0.0
  0
HATCH
  5
CD
330
49
100
AcDbEntity
  8
1
  6
Continuous
 62
     2
100
AcDbHatch
 10
0.0
 20
0.0
 30
0.0
210
0.0
220
0.0
230
1.0
  2
CUSTOM6
 70
     0
 71
     1
 91
        1
 92
        1
 93
        1
 72
     4
 94
        3
 73
     0
 74
     0
 95
       15
 96
       11
 40
0.0
 40
0.0
 40
0.0
 40
0.0
 40
0.2785535985096532
 40
0.5215624748198819
 40
0.6076917376040443
 40
0.6938210001741176
 40
0.9405019146454952
 40
1.221691403489126
 40
1.300471877081043
 40
1.379252341684808
 40
1.379252341684808
 40
1.379252341684808
 40
1.379252341684808
 10
189.5681493630999
 20
16.22930267330376
 10
189.6296017794177
 20
16.17691646592711
 10
189.7446649974114
 20
16.07882876798218
 10
190.0397348497243
 20
15.92889785897217
 10
189.9025147631857
 20
15.84343227515011
 10
189.8041227843777
 20
15.7108578520155
 10
189.713003359065
 20
16.01616985781416
 10
189.3636839480655
 20
16.0796786946537
 10
189.511925837657
 20
16.17896509880873
 10
189.5494081874236
 20
16.21252348402377
 10
189.5681493630999
 20
16.22930267330376
 97
        1
330
B0
 75
     1
 76
     2
 52
45.0
 41
0.1
 77
     0
 78
     1
 53
45.0
 43
0.0
 44
0.0
 45
-0.282842712474619
 46
0.0
 79
     0
 98
        1
 10
0.0
 20
0.0
  0
HATCH
  5
CE
330
49
100
AcDbEntity
  8
1
  6
Continuous
 62
     2
100
AcDbHatch
 10
0.0
 20
0.0
 30
0.0
210
0.0
220
0.0
230
1.0
  2
CUSTOM7
 70
     0
 71
     1
 91
        1
 92
        1
 93
        1
 72
     4
 94
        3
 73
     0
 74
     0
 95
       75
 96
       71
 40
0.0
 40
0.0
 40
0.0
 40
0.0
 40
0.0342546099129673
 40
0.1245622414432329
 40
0.25223854808975
 40
0.3985991922940627
 40
0.5449598364980768
 40
0.6726361431438763
 40
0.7629437746736853
 40
0.7971983935297884
 40
1.10172362344965
 40
1.408591244036654
 40
1.43333247169036
 40
1.487763172450157
 40
1.542193873081986
 40
1.566935100592536
 40
1.923523931821847
 40
2.271755704953647
 40
2.590579755100889
 40
2.858943305581147
 40
2.889120339309172
 40
2.918305855191116
 40
2.941366645531239
 40
2.996357760973126
 40
3.061992318140672
 40
3.116983433626864
 40
3.140044223997543
 40
3.411273122936463
 40
3.732441619741128
 40
3.761068217532828
 40
3.837787499630388
 40
3.94885869912603
 40
4.080541049104409
 40
4.219093782625793
 40
4.350776132722346
 40
4.46184733240568
 40
4.538566614678415
 40
4.567193212544661
 40
4.59490757399892
 40
4.666381453557459
 40
4.764111044011069
 40
4.870592538125872
 40
4.968322128642323
 40
5.039796008287008
 40
5.067510369784467
 40
5.094263603185682
 40
5.153120716668316
 40
5.211977830150762
 40
5.238731063551769
 40
5.272290535139008
 40
5.363380529444869
 40
5.497618415781546
 40
5.660621563453788
 40
5.838007341749489
 40
6.015393119910841
 40
6.178396267038466
 40
6.312634151842418
 40
6.403724143059407
 40
6.437283612672503
 40
6.464036846261117
 40
6.522893960004736
 40
6.581751071484001
 40
6.608504301590947
 40
6.637253941281094
 40
6.711397748902946
 40
6.812778057283558
 40
6.923237199249335
 40
7.024617507623979
 40
7.098761315207631
 40
7.127510946007582
 40
7.127510946007582
 40
7.127510946007582
 40
7.127510946007582
 10
188.4418622390564
 20
14.9584912847326
 10
188.4418622819707
 20
14.94707313408716
 10
188.4418624481129
 20
14.90555257842625
 10
188.4418593081786
 20
14.82146922003768
 10
188.4418788279801
 20
14.70004497322324
 10
188.4417912187737
 20
14.55980494047445
 10
188.442111623523
 20
14.42006556794573
 10
188.4411605909741
 20
14.29745038894925
 10
188.4431978595967
 20
14.2158707443804
 10
188.4349433178746
 20
14.06271267077694
 10
188.7430797940901
 20
14.22560236054716
 10
189.0350645173736
 20
14.39482938688001
 10
189.0408354448707
 20
14.25973235781906
 10
189.0455471719891
 20
14.2161722116044
 10
189.0482535411918
 20
14.17211249350541
 10
189.0672545672958
 20
14.02272590363129
 10
188.6583942247302
 20
14.08681172241258
 10
188.3793710348832
 20
13.97296341411013
 10
188.1018081587167
 20
13.87364095811139
 10
187.8099837184399
 20
13.91630687596351
 10
187.7869144678658
 20
13.81321679744536
 10
187.7537474383332
 20
13.78691091244465
 10
187.7480653962739
 20
13.834553090363
 10
187.7284214559044
 20
13.87180336115065
 10
187.7095089485623
 20
13.9300738784756
 10
187.6942849867707
 20
13.97385201007799
 10
187.6477246372937
 20
14.08759421046308
 10
187.9890897312448
 20
14.05576301120041
 10
188.2679649367388
 20
14.02161435106474
 10
188.2617753034906
 20
14.16913976479647
 10
188.2630935452774
 20
14.24013150908827
 10
188.2624831689947
 20
14.34719767958656
 10
188.2625871570725
 20
14.47398529785993
 10
188.2629987964054
 20
14.60849243496045
 10
188.261390784197
 20
14.7339554995118
 10
188.2659902567924
 20
14.84505246719113
 10
188.2564186502211
 20
14.90761886800684
 10
188.2704001783691
 20
14.96595388294997
 10
188.2147384386704
 20
14.95289710582233
 10
188.1575655197821
 20
14.96136307749495
 10
188.0616048925648
 20
14.95729976080632
 10
187.963376752282
 20
14.9597088985247
 10
187.8672582457561
 20
14.95551600613384
 10
187.810464852581
 20
14.96429346441158
 10
187.7550356873384
 20
14.95094936850117
 10
187.7670679427917
 20
15.00036910959253
 10
187.7592003173938
 20
15.04393988030391
 10
187.7666295563828
 20
15.08830469118521
 10
187.7551930564144
 20
15.13902297763987
 10
187.8232102370133
 20
15.12162460757739
 10
187.8968496879747
 20
15.13417450237185
 10
188.0325064058211
 20
15.12799677011093
 10
188.1884909024525
 20
15.1302920309308
 10
188.3615926358143
 20
15.12940968262525
 10
188.5346942964181
 20
15.13029207142404
 10
188.6906789811216
 20
15.12799662955546
 10
188.8263351889797
 20
15.13417486262427
 10
188.8999756705652
 20
15.12162394218331
 10
188.9679914174724
 20
15.13902373012138
 10
188.9565590885922
 20
15.08830130414551
 10
188.9639539458298
 20
15.04397060811104
 10
188.956203991227
 20
15.00028307550192
 10
188.9681203741877
 20
14.95063590098473
 10
188.9108170223617
 20
14.96461411338421
 10
188.8520145789772
 20
14.9553975567325
 10
188.7525293633199
 20
14.95952268164925
 10
188.649428009835
 20
14.95822760025884
 10
188.5537846354573
 20
14.95854077077636
 10
188.4857467971617
 20
14.95848776697141
 10
188.4514462213443
 20
14.95849051871652
 10
188.4418622390564
 20
14.9584912847326
 97
        1
330
B1
 75
     1
 76
     2
 52
45.0
 41
0.1
 77
     0
 78
     1
 53
45.0
 43
0.0
 44
0.0
 45
-0.282842712474619
 46
0.0
 79
     0
 98
        1
 10
0.0
 20
0.0
  0
HATCH
  5
CF
330
49
100
AcDbEntity
  8
1
  6
Continuous
 62
     2
100
AcDbHatch
 10
0.0
 20
0.0
 30
0.0
210
0.0
220
0.0
230
1.0
  2
CUSTOM8
 70
     0
 71
     1
 91
        1
 92
        1
 93
        1
 72
     4
 94
        3
 73
     0
 74
     0
 95
       91
 96
       87
 40
0.0
 40
0.0
 40
0.0
 40
0.0
 40
0.0345987051695718
 40
0.1258134969461369
 40
0.2547723404888987
 40
0.4026032099154125
 40
0.5504340793416704
 40
0.679392922883608
 40
0.7706077146571035
 40
0.8052064287780925
 40
1.124852390615276
 40
1.42740223630887
 40
1.706356627453507
 40
1.95554141787519
 40
2.169485938566333
 40
2.344350786664786
 40
2.480568411561938
 40
2.59044055742896
 40
2.649189927151114
 40
2.749320643306313
 40
2.912632739880016
 40
3.147745656000211
 40
3.244827496385101
 40
3.338490056946689
 40
3.583815413207118
 40
3.761423943238478
 40
3.88695610436264
 40
3.985855451886801
 40
4.091766255337686
 40
4.250186473811879
 40
4.422734315084523
 40
4.628285684838616
 40
4.872093227758448
 40
5.152549652145556
 40
5.464967135837536
 40
5.803201477852451
 40
6.160362988813925
 40
6.19344944827598
 40
6.284170385501635
 40
6.419718138764504
 40
6.587285046385754
 40
6.774063446723669
 40
6.967245678113652
 40
7.154024078817637
 40
7.321590987026023
 40
7.457138740890382
 40
7.547859678556118
 40
7.580946138182678
 40
7.608533084714732
 40
7.669224367077709
 40
7.729915649429929
 40
7.757502595949982
 40
7.790278062553436
 40
7.880146277430934
 40
8.014419963180398
 40
8.180411842397898
 40
8.365434637679368
 40
8.556801071622669
 40
8.741823866830781
 40
8.907815745916292
 40
9.042089431507446
 40
9.131957646249571
 40
9.164733112797148
 40
9.415425063140077
 40
9.667986180958533
 40
9.6941698074627
 40
9.756607686047658
 40
9.831130315322465
 40
9.89356819389993
 40
9.919751820398746
 40
9.950967964690573
 40
9.996421631210685
 40
10.22087981037457
 40
10.44341866197545
 40
10.47847970788857
 40
10.57091337438758
 40
10.70159545461232
 40
10.85140174170363
 40
11.0012080288048
 40
11.13189010907386
 40
11.22432377583013
 40
11.2593848093896
 40
11.28697175596148
 40
11.34766303835922
 40
11.40835432042073
 40
11.43594125892108
 40
11.43594125892108
 40
11.43594125892108
 40
11.43594125892108
 10
190.0818114333289
 20
15.55242795125072
 10
190.0702785844941
 20
15.5524279028791
 10
190.0283409444998
 20
15.55242773704159
 10
189.9434129719026
 20
15.55243125800904
 10
189.8207688553128
 20
15.55240926435873
 10
189.6791206916993
 20
15.55250801177049
 10
189.537975369849
 20
15.55214686232416
 10
189.4141351317905
 20
15.55321883609084
 10
189.3317217825381
 20
15.55092249091263
 10
189.1727791229693
 20
15.56048569373415
 10
189.3503402353375
 20
15.19785394311365
 10
189.3379739205453
 20
14.9524312772311
 10
189.4064519473864
 20
14.6686250132483
 10
189.469302432097
 20
14.43250999939032
 10
189.5452253431727
 20
14.23326740396125
 10
189.6303189577017
 20
14.0774534745137
 10
189.7244607592935
 20
13.97657857781388
 10
189.8282648207728
 20
13.92465852638961
 10
189.9125872030773
 20
13.97606484379613
 10
189.9351322179452
 20
14.09144544037513
 10
189.9745730975371
 20
14.21885149702375
 10
189.9202919734942
 20
14.5362232808675
 10
190.0451218072473
 20
14.389821801409
 10
190.2019291513603
 20
14.35795300331168
 10
190.0947720007057
 20
14.12421357767623
 10
190.0808711209867
 20
13.95972776583653
 10
190.0234709467225
 20
13.83130869122479
 10
189.9335020145008
 20
13.76018802352822
 10
189.8095274657878
 20
13.7443232414225
 10
189.663427319686
 20
13.77993797554167
 10
189.5243894320284
 20
13.90000570500272
 10
189.4102003962144
 20
14.07435682550315
 10
189.3146141301485
 20
14.29946603111236
 10
189.2318652572626
 20
14.56388246006438
 10
189.1807179256411
 20
14.88187933098538
 10
189.0770189207339
 20
15.15543728488908
 10
189.2042841208519
 20
15.56005818612861
 10
189.0357890623019
 20
15.55112367849673
 10
188.9511995787077
 20
15.55315961418358
 10
188.8189876387627
 20
15.55213937388401
 10
188.6560505094104
 20
15.55253230318424
 10
188.4733759170532
 20
15.55235696313363
 10
188.2847057373383
 20
15.55260105307463
 10
188.1014469020189
 20
15.55185657906231
 10
187.9404746832718
 20
15.55416360522421
 10
187.8029808335276
 20
15.54799804883657
 10
187.728959037231
 20
15.56032838458206
 10
187.6613215186857
 20
15.54329323723551
 10
187.6732373719269
 20
15.59524438447523
 10
187.6655677285694
 20
15.64071424966524
 10
187.6732592225115
 20
15.686144537037
 10
187.6613141797762
 20
15.73802395984565
 10
187.7283588305866
 20
15.72119143490259
 10
187.8017375665676
 20
15.73335409092665
 10
187.9379128305272
 20
15.72727231074954
 10
188.0973811801512
 20
15.72954834315053
 10
188.2789173085836
 20
15.72881233998957
 10
188.4658034862179
 20
15.72905954196128
 10
188.6468012316836
 20
15.72886400799248
 10
188.8080802578878
 20
15.72932234714834
 10
188.9393882124887
 20
15.728126737512
 10
189.0225051322597
 20
15.73051347319738
 10
189.1556236547813
 20
15.72230605725459
 10
189.0645893502657
 20
15.97752868952649
 10
188.9789633074422
 20
16.24164358328243
 10
189.0990589003454
 20
16.22904442969159
 10
189.1514264948544
 20
16.2269423576307
 10
189.2214497569715
 20
16.22535399889651
 10
189.2671922337817
 20
16.21602567538108
 10
189.3220812646933
 20
16.22545966915421
 10
189.2963574785681
 20
16.17733028655168
 10
189.1825397571453
 20
16.18266829744161
 10
189.3159346621136
 20
15.95449174576772
 10
189.1943658735472
 20
15.72156856595918
 10
189.3223188769412
 20
15.73087258884433
 10
189.4049048406461
 20
15.72801001754675
 10
189.5307214850824
 20
15.72923437412297
 10
189.6741469838057
 20
15.7293243188896
 10
189.8157420951728
 20
15.72746163183848
 10
189.9459127249967
 20
15.73333075937158
 10
190.0193452286191
 20
15.72070340823198
 10
190.0891112922096
 20
15.73877563110407
 10
190.0775772605396
 20
15.68612850546321
 10
190.0833184346682
 20
15.64221317686542
 10
190.0816615770911
 20
15.59089982676544
 10
190.0817757561669
 20
15.56158792021629
 10
190.0818114333289
 20
15.55242795125072
 97
        1
330
B2
 75
     1
 76
     2
 52
45.0
 41
0.1
 77
     0
 78
     1
 53
45.0
 43
0.0
 44
0.0
 45
-0.282842712474619
 46
0.0
 79
     0
 98
        1
 10
0.0
 20
0.0
  0
HATCH
  5
D0
330
49
100
AcDbEntity
  8
1
  6
Continuous
 62
     2
100
AcDbHatch
 10
0.0
 20
0.0
 30
0.0
210
0.0
220
0.0
230
1.0
  2
CUSTOM9
 70
     0
 71
     1
 91
        1
 92
        1
 93
        1
 72
     4
 94
        3
 73
     0
 74
     0
 95
      118
 96
      114
 40
0.0
 40
0.0
 40
0.0
 40
0.0
 40
0.105470816297341
 40
0.246609827005191
 40
0.3965912874591263
 40
0.5285525069754033
 40
0.6156245055642274
 40
0.6431434105797601
 40
0.7036850037986291
 40
0.7642265984504688
 40
0.7917455052354992
 40
0.9287404319990007
 40
1.106572819088054
 40
1.287544879681055
 40
1.317578308030574
 40
1.399928030857209
 40
1.522968204799984
 40
1.675072986590608
 40
1.844616533180684
 40
2.019973001638748
 40
2.189516548880061
 40
2.341621331585399
 40
2.464661506320537
 40
2.547011229647099
 40
2.577044658168065
 40
2.603797890893135
 40
2.662655002908823
 40
2.721512114949634
 40
2.748265347702814
 40
2.774215307344889
 40
2.845959313407223
 40
2.95433855658842
 40
3.090194227585597
 40
3.244367517100564
 40
3.40769961584432
 40
3.571031714539471
 40
3.725205003920147
 40
3.861060674729647
 40
3.969439917716342
 40
4.041183923629013
 40
4.067133883213007
 40
4.3118867460122
 40
4.54789725833557
 40
4.76474708304401
 40
4.952749679951813
 40
5.045772974195939
 40
5.137862019645024
 40
5.330543169793079
 40
5.553448265244073
 40
5.795083855888229
 40
6.043293412177291
 40
6.285761695541233
 40
6.313902908752716
 40
6.384255941793306
 40
6.475714884766894
 40
6.567173827758957
 40
6.637526860839735
 40
6.665668074074098
 40
6.692018920328072
 40
6.749990782071142
 40
6.807962643790509
 40
6.834313490017983
 40
6.856393084245262
 40
6.913335195649886
 40
6.991194817302549
 40
7.076026942283811
 40
7.153886563725301
 40
7.210828674844883
 40
7.232908268931219
 40
7.258199334923741
 40
7.324875781592388
 40
7.419142481925045
 40
7.527204308841988
 40
7.635266135230568
 40
7.72953283416855
 40
7.796209279292873
 40
7.821500344594819
 40
7.844652988850889
 40
7.899863140541668
 40
7.965759128053834
 40
8.02096927977112
 40
8.044121924046586
 40
8.069356610160666
 40
8.109134395441437
 40
8.132238100191149
 40
8.193147867786514
 40
8.27926167887669
 40
8.377977512673905
 40
8.476693347146693
 40
8.562807160411749
 40
8.623716930826532
 40
8.646820636853487
 40
8.6719887937743
 40
8.734909185828212
 40
8.816705695188926
 40
8.898502204815497
 40
8.961422597377958
 40
8.98659075455107
 40
9.012941600733226
 40
9.070913462380311
 40
9.128885324081805
 40
9.155236170325125
 40
9.180404327929168
 40
9.243324721948241
 40
9.325121234212034
 40
9.406917746637689
 40
9.469838141978144
 40
9.495006288270918
 40
9.51781118437906
 40
9.572192090487055
 40
9.637098333281285
 40
9.691479239515482
 40
9.71428412564352
 40
9.71428412564352
 40
9.71428412564352
 40
9.71428412564352
 10
185.2874469028653
 20
15.26889163187715
 10
185.3090990569037
 20
15.24111869242807
 10
185.3597257109473
 20
15.17618054561232
 10
185.4349383202592
 20
15.06891060312894
 10
185.5248482274346
 20
14.95377438266621
 10
185.5709169676673
 20
14.85357045748315
 10
185.6655825294655
 20
14.78434006814938
 10
185.6204439320412
 20
14.73771639678268
 10
185.594704778579
 20
14.69660308866034
 10
185.5645196708011
 20
14.66065971727934
 10
185.5193684730562
 20
14.58579782596088
 10
185.4710504458562
 20
14.80782524253601
 10
185.3968539713073
 20
14.84510677337705
 10
185.2836047324608
 20
15.11610202130597
 10
185.2885133578168
 20
15.00095328446224
 10
185.2868486556306
 20
14.92836675781624
 10
185.2876830076713
 20
14.80625588483982
 10
185.2873609540265
 20
14.65913800810457
 10
185.2875076912455
 20
14.49307063956553
 10
185.2872950092723
 20
14.32187554608598
 10
185.2879497252034
 20
14.15552828635494
 10
185.2859192461139
 20
14.00935173055689
 10
185.291346039993
 20
13.88471047474607
 10
185.2804930868708
 20
13.81718656540622
 10
185.2956739155554
 20
13.75549061417018
 10
185.2457895108134
 20
13.76727503896997
 10
185.2017150342522
 20
13.75943822779966
 10
185.1582371630201
 20
13.76760441372699
 10
185.1092346786488
 20
13.75538056738463
 10
185.1218731234825
 20
13.80960667249309
 10
185.1130182968449
 20
13.86936918907553
 10
185.1175058770314
 20
13.97922029044367
 10
185.1157960135991
 20
14.11029975405674
 10
185.1163550915986
 20
14.26198011444324
 10
185.1161928768694
 20
14.42211074929949
 10
185.1162269924675
 20
14.58236865674563
 10
185.1162514960126
 20
14.73370247520435
 10
185.1161453543225
 20
14.86582156338597
 10
185.1164299141931
 20
14.97294802533189
 10
185.1158675547567
 20
15.0380861957947
 10
185.1180765083689
 20
15.16618957858671
 10
185.0319435998603
 20
14.79097610391571
 10
184.9555140818499
 20
14.6391819312339
 10
184.8660040767833
 20
14.47766206446301
 10
184.7640413217327
 20
14.20471848820166
 10
184.7187976491039
 20
14.36717346596506
 10
184.610235594167
 20
14.45605432058115
 10
184.7995791751752
 20
14.60549794961404
 10
184.85653405457
 20
14.79749136974921
 10
184.9717520993353
 20
15.02899622906753
 10
184.9940151630132
 20
15.21797259759058
 10
185.1771905152139
 20
15.49454089325926
 10
185.0538033597552
 20
15.48698978832089
 10
184.9925684166834
 20
15.48856772366114
 10
184.9081999617064
 20
15.48882592573667
 10
184.8204235085966
 20
15.48544845751201
 10
184.7656768696122
 20
15.49394814982015
 10
184.7104703026025
 20
15.48048561049783
 10
184.7222823035536
 20
15.52931442126758
 10
184.7142496151795
 20
15.57269004896704
 10
184.7228186104677
 20
15.61509438309567
 10
184.7102943409157
 20
15.66267796552113
 10
184.7555101538735
 20
15.65267212995104
 10
184.8014815562723
 20
15.65894105174056
 10
184.877722204771
 20
15.65593561405867
 10
184.9561296131993
 20
15.65770448278536
 10
185.0323992648932
 20
15.65464793981655
 10
185.0783009459475
 20
15.66103971376172
 10
185.12317339654
 20
15.65093822978891
 10
185.1105552275634
 20
15.70157201581894
 10
185.1191936582707
 20
15.75501261882065
 10
185.1152361595442
 20
15.84863255131675
 10
185.1162325068335
 20
15.95112606688919
 10
185.1171927413073
 20
16.05353270248158
 10
185.1133211458005
 20
16.14735929609316
 10
185.1217789814364
 20
16.20036542840347
 10
185.1093075932835
 20
16.25211435651184
 10
185.1542106389849
 20
16.23850747226751
 10
185.1955083836772
 20
16.24100480320581
 10
185.259534428105
 20
16.23648060574482
 10
185.2986111148785
 20
16.22781003043303
 10
185.3476543498742
 20
16.23515102070682
 10
185.322508003059
 20
16.19602896051754
 10
185.2815901333723
 20
16.20563842455804
 10
185.2910109616604
 20
16.15540148169774
 10
185.2855647318746
 20
16.10385945639486
 10
185.2881699601804
 20
16.01959707584517
 10
185.2870102202153
 20
15.92559135583403
 10
185.2883591064232
 20
15.83196865395521
 10
185.2849970101508
 20
15.74679517552218
 10
185.2920959917769
 20
15.69716856072039
 10
185.2812569154545
 20
15.64993694969984
 10
185.3304010225245
 20
15.66201674936847
 10
185.3794877630147
 20
15.65447393363006
 10
185.4573714280641
 20
15.65686070361428
 10
185.5350365172896
 20
15.65899381905409
 10
185.5845393931355
 20
15.6519339192245
 10
185.6344594750639
 20
15.66360151936209
 10
185.622319851688
 20
15.61540235371387
 10
185.6305838229144
 20
15.57249219801231
 10
185.6223198650783
 20
15.52958201851379
 10
185.6344594549855
 20
15.4813828875486
 10
185.5845395158746
 20
15.49305034471505
 10
185.5350350651203
 20
15.48599202435041
 10
185.4573784382972
 20
15.48811665228598
 10
185.379464386576
 20
15.49053389365755
 10
185.3304500352716
 20
15.4829184819448
 10
185.2813246108943
 20
15.49507952557587
 10
185.2915559988571
 20
15.45073013424153
 10
185.2856677678053
 20
15.40925436202907
 10
185.2878788305569
 20
15.34915394315298
 10
185.2874109346146
 20
15.30225782762885
 10
185.2874386992913
 20
15.27650146418192
 10
185.2874469028653
 20
15.26889163187715
 97
        1
330
B3
 75
     1
 76
     2
 52
45.0
 41
0.1
 77
     0
 78
     1
 53
45.0
 43
0.0
 44
0.0
 45
-0.282842712474619
 46
0.0
 79
     0
 98
        1
 10
0.0
 20
0.0
  0
HATCH
  5
D1
330
49
100
AcDbEntity
  8
1
  6
Continuous
 62
     2
100
AcDbHatch
 10
0.0
 20
0.0
 30
0.0
210
0.0
220
0.0
230
1.0
  2
CUSTOM10
 70
     0
 71
     1
 91
        1
 92
        1
 93
        1
 72
     4
 94
        3
 73
     0
 74
     0
 95
       47
 96
       43
 40
0.0
 40
0.0
 40
0.0
 40
0.0
 40
0.2207912809957177
 40
0.4459404186303042
 40
0.4902387190459267
 40
0.532747389272222
 40
0.5742260451225542
 40
0.6155432630560833
 40
0.6568164066315749
 40
0.6982511618780674
 40
0.7407663929317182
 40
0.7851366743175253
 40
1.010288833836329
 40
1.231080507002174
 40
1.451765243652406
 40
1.67663820589169
 40
1.720461045359661
 40
1.830018144043528
 40
1.972442372353161
 40
2.11486660067753
 40
2.224423699395157
 40
2.2682465388834
 40
2.493628801207222
 40
2.715602830286622
 40
2.934211330706378
 40
3.149502369855378
 40
3.231387784851024
 40
3.318231873854059
 40
3.405143198198047
 40
3.486970301720484
 40
3.702258172493933
 40
3.920866283534166
 40
4.142839325931956
 40
4.368221903865409
 40
4.412044743359889
 40
4.521601842095908
 40
4.664026070452389
 40
4.8064502988091
 40
4.916007397546794
 40
4.959830237043118
 40
5.184703515847149
 40
5.405387250767528
 40
5.405387250767528
 40
5.405387250767528
 40
5.405387250767528
 10
182.6507427258645
 20
15.73406440953868
 10
182.6568139420002
 20
15.79758482501206
 10
182.6690762107242
 20
15.92587938689621
 10
182.5604706879413
 20
16.20166220174076
 10
182.6761985896603
 20
16.17188133432047
 10
182.7171842509015
 20
16.16765556262816
 10
182.7591205797518
 20
16.16310446389603
 10
182.800419662571
 20
16.16201982929481
 10
182.8417032115555
 20
16.16310338195222
 10
182.8836148270647
 20
16.16766112711339
 10
182.9245983549019
 20
16.17187430209723
 10
183.0404922843489
 20
16.20177611317531
 10
182.9295652727455
 20
15.92339806609884
 10
182.9574856365267
 20
15.74283140824949
 10
182.9404267346969
 20
15.50961042346467
 10
182.9414637282102
 20
15.34906622543142
 10
182.9414099399404
 20
15.22284817558717
 10
182.9414277372481
 20
15.12428963336237
 10
182.941418858108
 20
14.99280702442958
 10
182.9414263928034
 20
14.86132844968646
 10
182.9414129405128
 20
14.76276222694085
 10
182.9414531717492
 20
14.63639735624148
 10
182.9406746403817
 20
14.47482068822865
 10
182.9565958319267
 20
14.2436182189291
 10
182.9333468885407
 20
14.05874351971997
 10
183.0360183444366
 20
13.78935602770049
 10
182.8820238362836
 20
13.82660112685812
 10
182.8004129802832
 20
13.8213799468053
 10
182.7188192292583
 20
13.82660620378347
 10
182.5648513666842
 20
13.7893706988538
 10
182.6674183421918
 20
14.05875129862875
 10
182.6442045316088
 20
14.24361585325411
 10
182.6600444655138
 20
14.47482218565634
 10
182.6593296313427
 20
14.63639712308499
 10
182.6593664569907
 20
14.76276231210515
 10
182.659354900027
 20
14.86132756635977
 10
182.6593575019213
 20
14.99281127417215
 10
182.659364853178
 20
15.12427548031195
 10
182.6593442541351
 20
15.22287786275322
 10
182.6594082192028
 20
15.34896149354423
 10
182.658173394759
 20
15.51210091383767
 10
182.6532040396745
 20
15.66054183777546
 10
182.6507427258645
 20
15.73406440953868
 97
        1
330
B4
 75
     1
 76
     2
 52
45.0
 41
0.1
 77
     0
 78
     1
 53
45.0
 43
0.0
 44
0.0
 45
-0.282842712474619
 46
0.0
 79
     0
 98
        1
 10
0.0
 20
0.0
  0
HATCH
  5
D2
330
49
100
AcDbEntity
  8
1
  6
Continuous
 62
     2
100
AcDbHatch
 10
0.0
 20
0.0
 30
0.0
210
0.0
220
0.0
230
1.0
  2
CUSTOM11
 70
     0
 71
     1
 91
        1
 92
        1
 93
        1
 72
     4
 94
        3
 73
     0
 74
     0
 95
      110
 96
      106
 40
0.0
 40
0.0
 40
0.0
 40
0.0
 40
0.2203406257277755
 40
0.4407808782838109
 40
0.5952494494615089
 40
0.7488431659393093
 40
0.9023581831309077
 40
1.056801968670406
 40
1.210736449099906
 40
1.363041386539785
 40
1.515315729683128
 40
1.669377239148079
 40
1.721611652756566
 40
1.773199502942949
 40
1.824933793209999
 40
1.877110426487981
 40
1.982682281206745
 40
2.078781667087553
 40
2.172809640822274
 40
2.271937807378928
 40
2.378349933379321
 40
2.49413155773651
 40
2.626681683943643
 40
2.783145050796071
 40
2.89070123294092
 40
2.993130312454818
 40
3.099869730691805
 40
3.2202378166913
 40
3.352695482737586
 40
3.48173280638984
 40
3.593499473690366
 40
3.674323013331876
 40
3.817951711952826
 40
3.946167120793823
 40
4.061405053453509
 40
4.16648079600315
 40
4.262478775059187
 40
4.350736673551143
 40
4.433071991254028
 40
4.511216293814631
 40
4.564262454117956
 40
4.618474415571573
 40
4.670128488754176
 40
4.722296879126366
 40
4.819540945314235
 40
4.931194984128091
 40
5.049996040257732
 40
5.168643755415278
 40
5.283970811762489
 40
5.392260784910315
 40
5.48651225487639
 40
5.559178233949789
 40
5.591425852853448
 40
5.626215969637822
 40
5.667155838674376
 40
5.717449290214185
 40
5.738402360944798
 40
5.78449911655377
 40
5.830595872164743
 40
5.851548942897601
 40
5.873019280661712
 40
5.924217778408257
 40
5.985325662817631
 40
6.036524160567646
 40
6.057994498334173
 40
6.236847789607426
 40
6.381409928945596
 40
6.493190424178626
 40
6.574067534230435
 40
6.69101808620553
 40
6.814881554220447
 40
6.9443078232404
 40
7.071266716066024
 40
7.193488604461868
 40
7.309042773128096
 40
7.414007203170721
 40
7.505140441886478
 40
7.531150360599636
 40
7.55922164532223
 40
7.587202218920885
 40
7.612569159499092
 40
7.662550809480969
 40
7.702878875764108
 40
7.857328205230923
 40
8.010799568088569
 40
8.165256399657519
 40
8.322232698713858
 40
8.479564855016545
 40
8.635216230290748
 40
8.790882550925666
 40
8.948305154947231
 40
9.168271839032924
 40
9.387358980987193
 40
9.60804796103344
 40
9.832914234792646
 40
9.85833869496298
 40
9.92536681722999
 40
10.02013071422757
 40
10.12876249858996
 40
10.23739428295246
 40
10.33215817995188
 40
10.39918630222391
 40
10.4246107623978
 40
10.6499201933694
 40
10.87188524531185
 40
10.87188524531185
 40
10.87188524531185
 40
10.87188524531185
 10
179.9057788376618
 20
15.73923260398186
 10
179.9092864933542
 20
15.806164620738
 10
179.9163033987662
 20
15.94005891915855
 10
179.8198027599072
 20
16.22548554971466
 10
180.0510134726108
 20
16.16284386190278
 10
180.1919290057156
 20
16.17001554055986
 10
180.3490417757588
 20
16.1623588307824
 10
180.5025913427287
 20
16.16252752283036
 10
180.6545104935081
 20
16.16182040535428
 10
180.8142214813232
 20
16.17210158351635
 10
180.9408972601117
 20
16.15496511080746
 10
181.1370821122081
 20
16.22727260107142
 10
181.1034395279077
 20
16.12640699080113
 10
181.1052011317184
 20
16.07619253947666
 10
181.1027342073457
 20
16.02712335586461
 10
181.1347076966011
 20
15.94063490846995
 10
181.0010399903255
 20
15.98997438608331
 10
180.9172208688057
 20
15.98430634314165
 10
180.8173861139323
 20
15.99465516706293
 10
180.7186576720146
 20
16.00086450411082
 10
180.612153277111
 20
16.00697763816773
 10
180.491051169806
 20
16.01588883484582
 10
180.3703381502453
 20
16.00521605912378
 10
180.1812553843437
 20
16.06468503080362
 10
180.2129028505311
 20
15.90558320077535
 10
180.1995563316833
 20
15.808391283399
 10
180.197495842645
 20
15.69634065110098
 10
180.195818804467
 20
15.57699685629345
 10
180.1973336794233
 20
15.45032592155106
 10
180.1956582478669
 20
15.32301588016111
 10
180.2058844271657
 20
15.22451566404459
 10
180.1779006596583
 20
15.08388702625626
 10
180.3508029999304
 20
15.1398955113409
 10
180.4645020202772
 20
15.12719951478494
 10
180.5840151672239
 20
15.13448377051249
 10
180.6888491425071
 20
15.13878017056751
 10
180.7843084898612
 20
15.14330568258973
 10
180.8763823507032
 20
15.15149201146196
 10
180.9476551782439
 20
15.14643850638106
 10
181.0544931705685
 20
15.1853642503167
 10
181.0226603598035
 20
15.10517122005874
 10
181.026616450393
 20
15.05562936846029
 10
181.0234502392013
 20
15.00557478039814
 10
181.0550791490585
 20
14.92128847612018
 10
180.9210133677691
 20
14.97425365495153
 10
180.8292322793199
 20
14.96540080890436
 10
180.7079729189603
 20
14.9757004996515
 10
180.5914113119771
 20
14.97748911767499
 10
180.4783375745878
 20
14.97787017109689
 10
180.3679246308471
 20
14.98415449472175
 10
180.289812406784
 20
14.97189133255359
 10
180.1913625833644
 20
15.00453887616121
 10
180.2012355173561
 20
14.94769748054201
 10
180.1973923244403
 20
14.9139213055798
 10
180.1966789884268
 20
14.87119604709407
 10
180.1963369642975
 20
14.83401607262149
 10
180.1963834255346
 20
14.79487237370766
 10
180.1963649429927
 20
14.75716849497681
 10
180.1963703431806
 20
14.71944955232398
 10
180.19636972142
 20
14.68994324745145
 10
180.1963698151545
 20
14.65873577699296
 10
180.1963704287921
 20
14.6141442490808
 10
180.1963671499337
 20
14.55963956508847
 10
180.1963759623481
 20
14.51505540201443
 10
180.1963359653417
 20
14.43117808585735
 10
180.1976024270255
 20
14.31737520677674
 10
180.1950274117842
 20
14.16830395933705
 10
180.2065009381719
 20
14.06597203813901
 10
180.1823506222264
 20
13.9333890388583
 10
180.3332993946476
 20
13.97895732272017
 10
180.4428436671556
 20
13.96427012162345
 10
180.573397047392
 20
13.96920435125059
 10
180.6990312209514
 20
13.97257705323357
 10
180.8188730625601
 20
13.97711497498769
 10
180.9391362611426
 20
13.99048536182001
 10
181.0222761663515
 20
13.98068712782591
 10
181.1456080421075
 20
14.04126214623315
 10
181.1244269203956
 20
13.98532460134016
 10
181.1235950270116
 20
13.95939249372341
 10
181.1218963707558
 20
13.93197256190934
 10
181.1217974888829
 20
13.8973819520638
 10
181.120365930133
 20
13.86050408220763
 10
181.1532804192189
 20
13.76846841021801
 10
180.9551306988108
 20
13.84132015974827
 10
180.830054829489
 20
13.81825726508601
 10
180.6673071295156
 20
13.82454021985782
 10
180.5129366450001
 20
13.82260943909922
 10
180.3566670436943
 20
13.82393762599263
 10
180.1970544465282
 20
13.82059872487858
 10
180.0540326342237
 20
13.83265795728236
 10
179.8197144881627
 20
13.76952001976912
 10
179.9173810751197
 20
14.05620527466312
 10
179.9006868780058
 20
14.24988308142655
 10
179.9146296709684
 20
14.4784824288029
 10
179.9142987846633
 20
14.63384593955045
 10
179.9143078119263
 20
14.73966336444121
 10
179.9143055876316
 20
14.80205784124211
 10
179.9143065551888
 20
14.89220425248322
 10
179.9143065473262
 20
14.99621167157434
 10
179.9143053861101
 20
15.10022131375292
 10
179.9143090971504
 20
15.19036243688764
 10
179.9143011051051
 20
15.25276803097211
 10
179.9143334275019
 20
15.35868835961115
 10
179.9131440788318
 20
15.51626716544735
 10
179.9082216489256
 20
15.66528219822061
 10
179.9057788376618
 20
15.73923260398186
 97
        1
330
B5
 75
     1
 76
     2
 52
45.0
 41
0.1
 77
     0
 78
     1
 53
45.0
 43
0.0
 44
0.0
 45
-0.282842712474619
 46
0.0
 79
     0
 98
        1
 10
0.0
 20
0.0
  0
HATCH
  5
D3
330
49
100
AcDbEntity
  8
1
  6
Continuous
 62
     2
100
AcDbHatch
 10
0.0
 20
0.0
 30
0.0
210
0.0
220
0.0
230
1.0
  2
CUSTOM12
 70
     0
 71
     1
 91
        1
 92
        1
 93
        1
 72
     4
 94
        3
 73
     0
 74
     0
 95
       95
 96
       91
 40
0.0
 40
0.0
 40
0.0
 40
0.0
 40
0.6550406656911534
 40
1.30808728903194
 40
1.420803739835813
 40
1.566130759770802
 40
1.757067341888476
 40
2.006513545026482
 40
2.087328263121568
 40
2.185328872295643
 40
2.294612454748387
 40
2.408936380534837
 40
2.526802767798579
 40
2.646360524615623
 40
2.762535723971598
 40
2.870057342870172
 40
2.966883448431664
 40
3.05080324351831
 40
3.115818222436625
 40
3.156030057150268
 40
3.213914225080171
 40
3.276689026450572
 40
3.342960320981349
 40
3.404230667150598
 40
3.453822809493416
 40
3.532499827188463
 40
3.634775188507211
 40
3.754909333008209
 40
3.889736761660703
 40
4.035769602175272
 40
4.187256681197657
 40
4.338733685676004
 40
4.488478734676171
 40
4.634708317831635
 40
4.771493189921322
 40
4.892686571561248
 40
5.199775528944492
 40
5.460353566929684
 40
5.667603142345561
 40
5.81472290540454
 40
5.828990806219839
 40
5.855488336304536
 40
5.869756237118867
 40
6.189796507762879
 40
6.531890469873067
 40
6.883053637017056
 40
7.230512024911526
 40
7.566966656764637
 40
7.885203559707467
 40
8.172887439719268
 40
8.418011594062822
 40
8.443926721190744
 40
8.510760470613233
 40
8.602145393795745
 40
8.701714041647186
 40
8.79309896507542
 40
8.859932715057994
 40
8.885847842603644
 40
9.242301256612855
 40
9.589275455016804
 40
9.921808543164214
 40
10.23479624298473
 40
10.29968150889183
 40
10.35323493887772
 40
10.40154625355156
 40
10.46482922477832
 40
10.55973900668413
 40
10.69239545985625
 40
10.84920353475679
 40
11.01626328594787
 40
11.18672024367451
 40
11.35372582577218
 40
11.50257442292435
 40
11.61866495023298
 40
11.71329869152883
 40
11.82511050573916
 40
11.94464880845724
 40
12.06929242642514
 40
12.19707290435184
 40
12.32562632860536
 40
12.45034565331287
 40
12.56646595170335
 40
12.67099007414643
 40
12.7607762593679
 40
12.82703233506703
 40
12.87429132786001
 40
12.8983199032334
 40
12.92234847860028
 40
13.53984767410328
 40
14.18294284359373
 40
14.18294284359373
 40
14.18294284359373
 40
14.18294284359373
 10
177.3067935648021
 20
14.7089803820172
 10
177.1752019758551
 20
14.82265058603227
 10
176.9124193802728
 20
15.04964496316153
 10
176.399739344102
 20
15.89214462956284
 10
176.4106654595363
 20
15.53423377577016
 10
176.4041226527991
 20
15.39267392272129
 10
176.4028026631773
 20
15.19421305299277
 10
176.4018117602538
 20
15.02150296045979
 10
176.4024101751974
 20
14.87865373257575
 10
176.4038994301883
 20
14.78265005413354
 10
176.4055683588472
 20
14.67545503263137
 10
176.4071934954618
 20
14.56164211517577
 10
176.4092429501685
 20
14.44441572604584
 10
176.4123165501927
 20
14.32656411232965
 10
176.4156339697042
 20
14.21228087320616
 10
176.419360534028
 20
14.10521401867273
 10
176.4217338161424
 20
14.01007408766917
 10
176.4278718888357
 20
13.92558557205691
 10
176.4239784495947
 20
13.86923087298137
 10
176.4455230443077
 20
13.7982502247235
 10
176.3680940058618
 20
13.82902677604479
 10
176.3116353240191
 20
13.82011242517609
 10
176.2540495896807
 20
13.82896218398271
 10
176.1690163478472
 20
13.79738225225939
 10
176.2009714146382
 20
13.88095155992185
 10
176.1990705282539
 20
13.94882608968305
 10
176.21079600473
 20
14.05233256764414
 10
176.2164241053
 20
14.1700212561669
 10
176.2237902178941
 20
14.30388609164419
 10
176.232075970161
 20
14.44764152872627
 10
176.2398851897426
 20
14.59714022843441
 10
176.2457571222658
 20
14.74792549402074
 10
176.2503667817969
 20
14.89699943878434
 10
176.2542632117542
 20
15.04122913163018
 10
176.2570715126564
 20
15.17583905213013
 10
176.2576698755023
 20
15.3646961434735
 10
176.261602386715
 20
15.58975494313149
 10
176.2442175378497
 20
15.86367091125703
 10
176.2850417342584
 20
16.02787112098593
 10
176.1995153256001
 20
16.22749661465092
 10
176.2660558907688
 20
16.22385458403974
 10
176.283872427323
 20
16.22413447160849
 10
176.4056801797502
 20
16.22632927398613
 10
176.5080770335462
 20
15.94675118721507
 10
176.7580021509356
 20
15.74563008535998
 10
176.987003533111
 20
15.47792614987912
 10
177.2245151213108
 20
15.22646413862372
 10
177.4486090740772
 20
14.98969974061354
 10
177.6750716283009
 20
14.73218692583074
 10
177.8325687886515
 20
14.61649335056917
 10
178.0472129612672
 20
14.27997152538787
 10
178.0422645974619
 20
14.40464754091599
 10
178.0433931602546
 20
14.46327691935732
 10
178.0428877841517
 20
14.55043662371972
 10
178.0430475158113
 20
14.64416143182867
 10
178.0430054891318
 20
14.73018971297031
 10
178.0430202040372
 20
14.79153891945491
 10
178.0429706255986
 20
14.94135231520989
 10
178.045881152281
 20
15.17989612510099
 10
178.0259521041162
 20
15.54486509868697
 10
178.0750433936247
 20
15.80799631993407
 10
177.9177951509179
 20
16.21928904947749
 10
178.0762112872421
 20
16.16398282551743
 10
178.1311680478629
 20
16.16199686500171
 10
178.182788776674
 20
16.16264778248248
 10
178.2713198965366
 20
16.20369527738242
 10
178.2204898303169
 20
16.05696326622982
 10
178.2313389930283
 20
15.95019971954429
 10
178.2166036994847
 20
15.79085705414107
 10
178.2099976446204
 20
15.62853061652869
 10
178.2014961399915
 20
15.45992521892391
 10
178.1943227202199
 20
15.29814814703537
 10
178.1889063215389
 20
15.15422331457928
 10
178.1871713967648
 20
15.03437493466921
 10
178.1875440672319
 20
14.9268610159051
 10
178.1873656126263
 20
14.81820024645581
 10
178.187701086314
 20
14.69953570165525
 10
178.1890040622184
 20
14.57555163512737
 10
178.1908887351574
 20
14.448582941711
 10
178.1925004454851
 20
14.32153861551027
 10
178.194140313743
 20
14.19854884492173
 10
178.1962570745752
 20
14.08300931383755
 10
178.1963848422363
 20
13.98090903955833
 10
178.2006514396554
 20
13.89009848838151
 10
178.1908440085289
 20
13.83213621208782
 10
178.2118474771689
 20
13.76517130132025
 10
178.1725639739897
 20
13.77291153966684
 10
177.9595307117744
 20
13.75755254145188
 10
177.7636297943187
 20
14.31403058094466
 10
177.4611197631544
 20
14.57556035348506
 10
177.3067935648021
 20
14.7089803820172
 97
        1
330
B6
 75
     1
 76
     2
 52
45.0
 41
0.1
 77
     0
 78
     1
 53
45.0
 43
0.0
 44
0.0
 45
-0.282842712474619
 46
0.0
 79
     0
 98
        1
 10
0.0
 20
0.0
  0
HATCH
  5
D4
330
49
100
AcDbEntity
  8
1
  6
Continuous
 62
     2
100
AcDbHatch
 10
0.0
 20
0.0
 30
0.0
210
0.0
220
0.0
230
1.0
  2
CUSTOM13
 70
     0
 71
     1
 91
        2
 92
        1
 93
        1
 72
     4
 94
        3
 73
     0
 74
     0
 95
       57
 96
       53
 40
0.0
 40
0.0
 40
0.0
 40
0.0
 40
0.047163208280924
 40
0.0914861054632161
 40
0.1357762519702396
 40
0.1826527001610691
 40
0.22952032885726
 40
0.2737751972220769
 40
0.3181310461543079
 40
0.365260719839853
 40
0.4571007286314569
 40
0.5671851029165313
 40
0.6894623283868451
 40
0.8181758272546087
 40
0.9510087229274028
 40
1.085852229674067
 40
1.218126164475324
 40
1.343545131142396
 40
1.454537202956812
 40
1.567187607530821
 40
1.68071096664244
 40
1.794226869736804
 40
1.900009184247603
 40
2.004085860447883
 40
2.108162674451771
 40
2.214000150155315
 40
2.496038577352156
 40
2.7623507454793
 40
2.997275353279422
 40
3.185110082137755
 40
3.246407890063983
 40
3.312607550212713
 40
3.378877742711615
 40
3.440140399651471
 40
4.100501696006503
 40
4.754913085563547
 40
5.411331693423953
 40
6.077890432568744
 40
6.110575292671022
 40
6.143260152775802
 40
6.367989363395198
 40
6.610525374951592
 40
6.863389136467358
 40
7.119380025547628
 40
7.376036605091139
 40
7.631164770966322
 40
7.876722425456456
 40
8.104953735856002
 40
8.312916685924339
 40
8.497730294941352
 40
8.651018984313895
 40
8.764738853624637
 40
8.764738853624637
 40
8.764738853624637
 40
8.764738853624637
 10
174.7922649500513
 20
13.81626739612922
 10
174.7766616726931
 20
13.81826231079073
 10
174.7463947960302
 20
13.82213201360294
 10
174.7010994202251
 20
13.82341984967264
 10
174.6559553129349
 20
13.82308683554047
 10
174.6099017123399
 20
13.8231465867422
 10
174.5640496172097
 20
13.82325813649997
 10
174.5183711648165
 20
13.82277833456586
 10
174.4750811541608
 20
13.82461109618717
 10
174.4039947951514
 20
13.80049556814651
 10
174.4057477261441
 20
13.92184693977247
 10
174.358619637057
 20
14.00726239751229
 10
174.3191478251761
 20
14.12486929345131
 10
174.2706635532645
 20
14.24232752540435
 10
174.2201017402522
 20
14.36405935761505
 10
174.1718634610477
 20
14.49075967862461
 10
174.1135232947594
 20
14.59933687784947
 10
174.0980892667261
 20
14.75620657134406
 10
173.9566586330636
 20
14.72373446548317
 10
173.8508397414903
 20
14.73512888682174
 10
173.7358569725222
 20
14.73392591514611
 10
173.625314225214
 20
14.73506945347403
 10
173.5176583522783
 20
14.73418350037522
 10
173.4121322529242
 20
14.73416602390513
 10
173.3109192682013
 20
14.7271403247241
 10
173.1266804827753
 20
14.75135859859864
 10
173.1157393685411
 20
14.4474169112188
 10
173.008769163475
 20
14.22353177253392
 10
172.9098148604346
 20
14.03895314292492
 10
172.9225090524008
 20
13.795302048042
 10
172.8050091716397
 20
13.82508046753193
 10
172.742205586831
 20
13.822580895096
 10
172.6785872093399
 20
13.82344075102801
 10
172.3946014194075
 20
13.78098039941938
 10
173.0251638499381
 20
14.50081952444783
 10
173.1087645289071
 20
15.01276539435724
 10
173.4929252789338
 20
15.53353743550037
 10
173.4777208288565
 20
16.23519626253213
 10
173.7239265722697
 20
16.22345633081252
 10
173.8256346157561
 20
16.23225004452769
 10
173.8249752035818
 20
15.98059650730342
 10
173.9428317155828
 20
15.79818020733954
 10
174.0315515260485
 20
15.55563740662862
 10
174.1322292485259
 20
15.32340030530124
 10
174.2311142712243
 20
15.08674644566908
 10
174.3299676990669
 20
14.8546173917009
 10
174.4256166390925
 20
14.63122222788784
 10
174.5159904573271
 20
14.42272549049312
 10
174.5989944568188
 20
14.23308448529315
 10
174.6726088582799
 20
14.06663106068095
 10
174.7342815895545
 20
13.92917699626092
 10
174.7749458885604
 20
13.84999239430029
 10
174.7922649500513
 20
13.81626739612922
 97
        1
330
B8
 92
       16
 93
        1
 72
     4
 94
        3
 73
     0
 74
     0
 95
       25
 96
       21
 40
0.0
 40
0.0
 40
0.0
 40
0.0
 40
0.0911479969064822
 40
0.1858117896204668
 40
0.280412839973449
 40
0.3715889190714509
 40
0.4679080494218707
 40
0.564268380922923
 40
0.660568322264499
 40
0.7569653015810256
 40
0.8561348172522739
 40
1.092615965104292
 40
1.374867658141875
 40
1.611348812011599
 40
1.710518328425247
 40
1.809403163726564
 40
2.045205463294069
 40
2.326646917622127
 40
2.562449217190589
 40
2.661334043833909
 40
2.661334043833909
 40
2.661334043833909
 40
2.661334043833909
 10
173.2683700567199
 20
14.88614538197288
 10
173.2987525917923
 20
14.88598079714551
 10
173.3606895889112
 20
14.88564528689918
 10
173.454135696033
 20
14.88269055451994
 10
173.5475095236357
 20
14.87977752877147
 10
173.6417760753476
 20
14.87894201643413
 10
173.7354964790966
 20
14.87996644658042
 10
173.8352040303204
 20
14.87916977470968
 10
173.9188949546312
 20
14.88921410235215
 10
174.0637996315045
 20
14.86234617674161
 10
173.9396132444801
 20
15.03665530280045
 10
173.8965867286282
 20
15.19651711006087
 10
173.780892214221
 20
15.45518458550212
 10
173.7017565431256
 20
15.59231052861853
 10
173.6431576621816
 20
15.80937033134073
 10
173.5864803939438
 20
15.59266134213424
 10
173.5052809900477
 20
15.45327012438232
 10
173.4063701281488
 20
15.20406969370191
 10
173.3253625094259
 20
15.01925830226069
 10
173.2813683325838
 20
14.91650446856113
 10
173.2683700567199
 20
14.88614538197288
 97
        1
330
B7
 75
     1
 76
     2
 52
45.0
 41
0.1
 77
     0
 78
     1
 53
45.0
 43
0.0
 44
0.0
 45
-0.282842712474619
 46
0.0
 79
     0
 98
        1
 10
0.0
 20
0.0
  0
HATCH
  5
D5
330
49
100
AcDbEntity
  8
1
  6
Continuous
 62
     2
100
AcDbHatch
 10
0.0
 20
0.0
 30
0.0
210
0.0
220
0.0
230
1.0
  2
CUSTOM14
 70
     0
 71
     1
 91
        1
 92
        1
 93
        1
 72
     4
 94
        3
 73
     0
 74
     0
 95
       99
 96
       95
 40
0.0
 40
0.0
 40
0.0
 40
0.0
 40
0.0796417172272575
 40
0.1621768542356109
 40
0.2486489160957724
 40
0.3404969668524675
 40
0.4381912511164698
 40
0.5434463660244999
 40
0.6518115192847318
 40
0.7530190937886901
 40
0.8492196919725147
 40
0.9419290312998165
 40
1.034249663570041
 40
1.1290786006202
 40
1.226697027573245
 40
1.32722042542171
 40
1.470572134938019
 40
1.595489863371214
 40
1.7199341253484
 40
1.850576620127418
 40
1.989059629987309
 40
2.134139054226926
 40
2.280698007207215
 40
2.424529739039479
 40
2.565929576985849
 40
2.708239260773539
 40
2.861717887443665
 40
3.045168540347369
 40
3.183798301138613
 40
3.314813961455457
 40
3.442083470447313
 40
3.569912708372973
 40
3.702177512509368
 40
3.842307559659536
 40
3.99287222324594
 40
4.156750662218329
 40
4.310981861107551
 40
4.445859909322597
 40
4.57239393613159
 40
4.701656719781983
 40
4.768279086008471
 40
4.835960697898416
 40
4.912788918729341
 40
5.006285208481549
 40
5.026909478751626
 40
5.04753374902119
 40
5.101808031471265
 40
5.162325165538552
 40
5.226919745995867
 40
5.294231806596737
 40
5.364544852554886
 40
5.43831905546793
 40
5.517877651324266
 40
5.607647714861578
 40
5.700449642544425
 40
5.788251142364156
 40
5.872714706039782
 40
5.955167292575298
 40
6.037192395190389
 40
6.120669181469117
 40
6.206848616686363
 40
6.296680855416779
 40
6.442558392872607
 40
6.568190371608297
 40
6.692904567360377
 40
6.824220446557151
 40
6.963121850329389
 40
7.107843738851177
 40
7.253431663907291
 40
7.39518746803671
 40
7.533140753237769
 40
7.67055045717526
 40
7.816236511769273
 40
7.987691657359232
 40
8.142277421969258
 40
8.293662615415041
 40
8.44296246087929
 40
8.59159831618534
 40
8.743678992361811
 40
8.9037253236992
 40
9.076307008890547
 40
9.2655786046806
 40
9.459203795360775
 40
9.61761981027356
 40
9.753609671361923
 40
9.87487330000409
 40
9.9545201849778
 40
10.02416413719247
 40
10.09769764405447
 40
10.18909955924974
 40
10.20974586420135
 40
10.23039218263381
 40
10.30057101881266
 40
10.37632012987545
 40
10.37632012987545
 40
10.37632012987545
 40
10.37632012987545
 10
170.1465954835851
 20
14.1379566321599
 10
170.1632217851219
 20
14.11720608845308
 10
170.1970784206576
 20
14.07495111711896
 10
170.2599822541036
 20
14.02029811392067
 10
170.3332500940392
 20
13.97299025121046
 10
170.4175969238636
 20
13.9352723143793
 10
170.513224061546
 20
13.91040619731947
 10
170.6171853775346
 20
13.90309559345933
 10
170.7224020220405
 20
13.91142322794049
 10
170.8206626371334
 20
13.94149179651525
 10
170.9058986427548
 20
13.98848822971871
 10
170.9779220206103
 20
14.04952991250853
 10
171.0350917709096
 20
14.12412969578578
 10
171.076786874744
 20
14.2100246466017
 10
171.1026952846292
 20
14.30485850432207
 10
171.1118037332654
 20
14.41854979038363
 10
171.0986864796486
 20
14.54332587770774
 10
171.0325330334414
 20
14.66014719171888
 10
170.9369370919568
 20
14.74512539577368
 10
170.8249681022369
 20
14.81416684459157
 10
170.699365958327
 20
14.87204142045887
 10
170.5656691620856
 20
14.92373723284336
 10
170.4313122818831
 20
14.97899092397178
 10
170.3051983986877
 20
15.04939770641643
 10
170.1926579987535
 20
15.13785540731245
 10
170.0969963064458
 20
15.24981067868467
 10
170.0334157151826
 20
15.39949910101379
 10
170.0200706505015
 20
15.55932794385137
 10
170.0320510987449
 20
15.7104840530684
 10
170.071229892884
 20
15.83809244591534
 10
170.135498775091
 20
15.9508087403084
 10
170.223820499974
 20
16.04648609268682
 10
170.3338091207627
 20
16.12354214985748
 10
170.4632284401265
 20
16.18151396936273
 10
170.6111838967793
 20
16.21739177588818
 10
170.7682069455486
 20
16.2274671905056
 10
170.917494046643
 20
16.21863637762585
 10
171.059625361417
 20
16.19074899340347
 10
171.1595922609625
 20
16.13413314701133
 10
171.3125074736186
 20
16.08674602105503
 10
171.2455131717168
 20
16.0019755300118
 10
171.2296479120269
 20
15.9343890187348
 10
171.1978750531297
 20
15.86926092793186
 10
171.2150202209571
 20
15.76723453256948
 10
171.1666427208232
 20
15.77493211681898
 10
171.1315789440765
 20
15.76806771724803
 10
171.1296697985718
 20
15.83263831158191
 10
171.0985692931988
 20
15.87825639621391
 10
171.0664551628456
 20
15.9356103662845
 10
171.0208038475168
 20
15.98540462692554
 10
170.9658508218387
 20
16.02994813718991
 10
170.9010841173007
 20
16.06763988836545
 10
170.8232377310597
 20
16.09283375791347
 10
170.7355160553352
 20
16.09931230998106
 10
170.6452903277806
 20
16.09235709285602
 10
170.5594594694065
 20
16.06909190460916
 10
170.4828343638596
 20
16.03131644107541
 10
170.4165265636201
 20
15.9805164108957
 10
170.3622560536963
 20
15.91731143407205
 10
170.3224925345459
 20
15.84276455710363
 10
170.2976775510588
 20
15.75917313997759
 10
170.289212426287
 20
15.6519294838228
 10
170.3019697987104
 20
15.52965457267555
 10
170.3681548409273
 20
15.41149724291207
 10
170.4640977399831
 20
15.32606325709522
 10
170.5757914963182
 20
15.25583362306718
 10
170.7010863668702
 20
15.19659162305299
 10
170.8349823941447
 20
15.14616708086128
 10
170.9689930333149
 20
15.09322516984377
 10
171.0950885316915
 20
15.02750170625172
 10
171.2076216638417
 20
14.94480352537316
 10
171.3031370284232
 20
14.83996006310069
 10
171.3672706486962
 20
14.69937117251565
 10
171.3811103725278
 20
14.54065409451588
 10
171.367395471223
 20
14.38153155217871
 10
171.3244739153984
 20
14.23483828819206
 10
171.2545906329066
 20
14.10119796587137
 10
171.1574592213829
 20
13.98532387699287
 10
171.0347806023657
 20
13.89089981770084
 10
170.8874408413168
 20
13.82179270651976
 10
170.7177132497125
 20
13.77953210858849
 10
170.5317404979596
 20
13.76781736230403
 10
170.3528955926184
 20
13.77809486683433
 10
170.1881733753742
 20
13.81966573769147
 10
170.0834410841057
 20
13.88797642883937
 10
169.9350960790365
 20
13.93675219032101
 10
169.9980378194729
 20
14.02976591290837
 10
170.0072274430059
 20
14.10296536248276
 10
170.0303711301232
 20
14.16936294501342
 10
170.0034588335317
 20
14.26974809527575
 10
170.0521338956339
 20
14.26234033517374
 10
170.0916530580696
 20
14.26894063620889
 10
170.0996204944702
 20
14.19078703218927
 10
170.1305436967922
 20
14.15600927375852
 10
170.1465954835851
 20
14.1379566321599
 97
        1
330
B9
 75
     1
 76
     2
 52
45.0
 41
0.1
 77
     0
 78
     1
 53
45.0
 43
0.0
 44
0.0
 45
-0.282842712474619
 46
0.0
 79
     0
 98
        1
 10
0.0
 20
0.0
  0
ENDBLK
  5
4B
330
49
100
AcDbEntity
  8
0
100
AcDbBlockEnd
  0
BLOCK
  5
4E
330
4C
100
AcDbEntity
  8
0
100
AcDbBlockBegin
  2
開示A4枠
 70
     0
 10
0.0
 20
-0.00000000000004
 30
0.0
  3
開示A4枠
  1

  0
INSERT
  5
4D
330
4C
100
AcDbEntity
  8
1
100
AcDbBlockReference
  2
開示A4
 10
0.0
 20
-0.00000000000004
 30
0.0
  0
ENDBLK
  5
4F
330
4C
100
AcDbEntity
  8
0
100
AcDbBlockEnd
  0
BLOCK
  5
51
330
50
100
AcDbEntity
  8
0
100
AcDbBlockBegin
  2
オーリング
 70
     0
 10
82.0658278592415
 20
92.79902466182719
 30
0.0
  3
オーリング
  1

  0
LINE
  5
D6
330
50
100
AcDbEntity
  8
1
  6
Continuous
 62
     7
100
AcDbLine
 10
85.0658278592415
 20
116.9141604007218
 30
0.0
 11
111.0133394660151
 21
116.9141604007218
 31
0.0
  0
LINE
  5
D7
330
50
100
AcDbEntity
  8
1
  6
Continuous
 62
     7
100
AcDbLine
 10
85.0658278592415
 20
110.9141604007218
 30
0.0
 11
111.0133394660151
 21
110.9141604007218
 31
0.0
  0
LINE
  5
D8
330
50
100
AcDbEntity
  8
1
  6
Continuous
 62
     7
100
AcDbLine
 10
85.0658278592415
 20
92.79902466182719
 30
0.0
 11
111.0133394660151
 21
92.79902466182719
 31
0.0
  0
LINE
  5
D9
330
50
100
AcDbEntity
  8
1
  6
Continuous
 62
     7
100
AcDbLine
 10
85.0658278592415
 20
98.79902466182719
 30
0.0
 11
111.0133394660151
 21
98.79902466182719
 31
0.0
  0
LINE
  5
DA
330
50
100
AcDbEntity
  8
1
  6
Continuous
 62
     7
100
AcDbLine
 10
111.0133394660151
 20
98.79902466182719
 30
0.0
 11
136.9608510727887
 21
98.79902466182719
 31
0.0
  0
LINE
  5
DB
330
50
100
AcDbEntity
  8
1
  6
Continuous
 62
     7
100
AcDbLine
 10
111.0133394660151
 20
92.79902466182719
 30
0.0
 11
136.9608510727887
 21
92.79902466182719
 31
0.0
  0
LINE
  5
DC
330
50
100
AcDbEntity
  8
1
  6
Continuous
 62
     7
100
AcDbLine
 10
111.0133394660151
 20
110.9141604007218
 30
0.0
 11
136.9608510727887
 21
110.9141604007218
 31
0.0
  0
LINE
  5
DD
330
50
100
AcDbEntity
  8
1
  6
Continuous
 62
     7
100
AcDbLine
 10
111.0133394660151
 20
116.9141604007218
 30
0.0
 11
136.9608510727887
 21
116.9141604007218
 31
0.0
  0
ARC
  5
DE
330
50
100
AcDbEntity
  8
1
  6
Continuous
 62
     7
100
AcDbCircle
 10
85.0658278592415
 20
113.9141604007218
 30
0.0
 40
3.0
100
AcDbArc
 50
90.0
 51
270.0
  0
ARC
  5
DF
330
50
100
AcDbEntity
  8
1
  6
Continuous
 62
     7
100
AcDbCircle
 10
85.0658278592415
 20
95.79902466182719
 30
0.0
 40
3.000000000000001
100
AcDbArc
 50
178.7627774125584
 51
270.0
  0
ARC
  5
E0
330
50
100
AcDbEntity
  8
1
  6
Continuous
 62
     7
100
AcDbCircle
 10
136.9608510727887
 20
95.79902466182719
 30
0.0
 40
3.000000000000085
100
AcDbArc
 50
359.4905640483569
 51
90.0
  0
ARC
  5
E1
330
50
100
AcDbEntity
  8
1
  6
Continuous
 62
     7
100
AcDbCircle
 10
136.9608510727887
 20
113.9141604007218
 30
0.0
 40
3.0
100
AcDbArc
 50
270.0
 51
90.0
  0
ARC
  5
E2
330
50
100
AcDbEntity
  8
1
  6
Continuous
 62
     7
100
AcDbCircle
 10
85.0658278592415
 20
95.79902466182719
 30
0.0
 40
3.0
100
AcDbArc
 50
90.0
 51
178.7627774125584
  0
ARC
  5
E3
330
50
100
AcDbEntity
  8
1
  6
Continuous
 62
     7
100
AcDbCircle
 10
136.9608510727887
 20
95.79902466182719
 30
0.0
 40
3.0
100
AcDbArc
 50
270.0
 51
359.4905640483569
  0
ENDBLK
  5
52
330
50
100
AcDbEntity
  8
0
100
AcDbBlockEnd
  0
BLOCK
  5
54
330
53
100
AcDbEntity
  8
0
100
AcDbBlockBegin
  2
パッキン
 70
     0
 10
111.0133394660151
 20
168.3249480872443
 30
0.0
  3
パッキン
  1

  0
LINE
  5
E4
330
53
100
AcDbEntity
  8
1
  6
Continuous
 62
     7
100
AcDbLine
 10
111.0133394660151
 20
121.833495808495
 30
0.0
 11
135.0698529853451
 21
121.833495808495
 31
0.0
  0
LINE
  5
E5
330
53
100
AcDbEntity
  8
1
  6
Continuous
 62
     7
100
AcDbLine
 10
86.95682594668513
 20
121.833495808495
 30
0.0
 11
111.0133394660151
 21
121.833495808495
 31
0.0
  0
LINE
  5
E6
330
53
100
AcDbEntity
  8
レイヤー_1
  6
Continuous
 62
     7
100
AcDbLine
 10
86.42776506044483
 20
122.1953322929242
 30
0.0
 11
85.39257789325013
 21
126.3950475404138
 31
0.0
  0
LINE
  5
E7
330
53
100
AcDbEntity
  8
レイヤー_1
  6
Continuous
 62
     7
100
AcDbLine
 10
73.51333946601513
 20
127.8905012822274
 30
0.0
 11
111.0133394660151
 21
127.8905012822274
 31
0.0
  0
LINE
  5
E8
330
53
100
AcDbEntity
  8
レイヤー_1
  6
Continuous
 62
     7
100
AcDbLine
 10
73.51333946601513
 20
126.3950475404138
 30
0.0
 11
111.0133394660151
 21
126.3950475404138
 31
0.0
  0
LINE
  5
E9
330
53
100
AcDbEntity
  8
レイヤー_1
  6
Continuous
 62
     7
100
AcDbLine
 10
85.84402699938305
 20
111.0168502519301
 30
0.0
 11
111.0133394660151
 21
111.0168502519301
 31
0.0
  0
LINE
  5
EA
330
53
100
AcDbEntity
  8
レイヤー_1
  6
Continuous
 62
     7
100
AcDbLine
 10
85.84402699938305
 20
107.8002188817728
 30
0.0
 11
111.0133394660151
 21
107.8002188817728
 31
0.0
  0
LINE
  5
EB
330
53
100
AcDbEntity
  8
レイヤー_1
  6
Continuous
 62
     7
100
AcDbLine
 10
85.84402699938305
 20
102.0156560319845
 30
0.0
 11
111.0133394660151
 21
102.0156560319845
 31
0.0
  0
LINE
  5
EC
330
53
100
AcDbEntity
  8
レイヤー_1
  6
Continuous
 62
     7
100
AcDbLine
 10
85.84402699938305
 20
98.79902466182719
 30
0.0
 11
111.0133394660151
 21
98.79902466182719
 31
0.0
  0
LINE
  5
ED
330
53
100
AcDbEntity
  8
レイヤー_1
  6
Continuous
 62
     7
100
AcDbLine
 10
85.84402699938305
 20
93.0146917670985
 30
0.0
 11
111.0133394660151
 21
93.0146917670985
 31
0.0
  0
LINE
  5
EE
330
53
100
AcDbEntity
  8
レイヤー_1
  6
Continuous
 62
     7
100
AcDbLine
 10
85.84402699938305
 20
89.7415721031779
 30
0.0
 11
111.0133394660151
 21
89.7415721031779
 31
0.0
  0
LINE
  5
1FC
330
53
100
AcDbEntity
  8
レイヤー_1
  6
Continuous
 62
     7
100
AcDbLine
 10
84.15552272123097
 20
117.2050539011844
 30
0.0
 11
86.34758926504819
 21
121.5015381573845
 31
0.0
  0
LINE
  5
1FD
330
53
100
AcDbEntity
  8
1
  6
Continuous
 62
     7
100
AcDbLine
 10
85.06582785923956
 20
116.9141604007218
 30
0.0
 11
84.33367538490359
 21
116.9141604007218
 31
0.0
  0
LINE
  5
1FE
330
53
100
AcDbEntity
  8
1
  6
Continuous
 62
     7
100
AcDbLine
 10
85.84402699938305
 20
89.7415721031779
 30
0.0
 11
88.01665373385961
 21
87.39959446513654
 31
0.0
  0
LINE
  5
1FF
330
53
100
AcDbEntity
  8
1
  6
Continuous
 62
     7
100
AcDbLine
 10
88.01665373385961
 20
87.39959446513654
 30
0.0
 11
111.0133394660151
 21
87.39959446513654
 31
0.0
  0
LINE
  5
200
330
53
100
AcDbEntity
  8
1
  6
Continuous
 62
     7
100
AcDbLine
 10
111.0133394660151
 20
87.39959446513654
 30
0.0
 11
134.0100251981707
 21
87.39959446513654
 31
0.0
  0
LINE
  5
201
330
53
100
AcDbEntity
  8
1
  6
Continuous
 62
     7
100
AcDbLine
 10
134.0100251981707
 20
87.39959446513654
 30
0.0
 11
136.1826519326472
 21
89.7415721031779
 31
0.0
  0
LINE
  5
202
330
53
100
AcDbEntity
  8
1
  6
Continuous
 62
     7
100
AcDbLine
 10
137.6930035471267
 20
116.9141604007218
 30
0.0
 11
136.9608510727907
 21
116.9141604007218
 31
0.0
  0
LINE
  5
203
330
53
100
AcDbEntity
  8
レイヤー_1
  6
Continuous
 62
     7
100
AcDbLine
 10
135.6790896669821
 20
121.5015381573845
 30
0.0
 11
137.8711562107993
 21
117.2050539011844
 31
0.0
  0
LINE
  5
209
330
53
100
AcDbEntity
  8
レイヤー_1
  6
Continuous
 62
     7
100
AcDbLine
 10
111.0133394660151
 20
89.7415721031779
 30
0.0
 11
136.1826519326472
 21
89.7415721031779
 31
0.0
  0
LINE
  5
20A
330
53
100
AcDbEntity
  8
レイヤー_1
  6
Continuous
 62
     7
100
AcDbLine
 10
111.0133394660151
 20
93.0146917670985
 30
0.0
 11
136.1826519326472
 21
93.0146917670985
 31
0.0
  0
LINE
  5
20B
330
53
100
AcDbEntity
  8
レイヤー_1
  6
Continuous
 62
     7
100
AcDbLine
 10
111.0133394660151
 20
98.79902466182719
 30
0.0
 11
136.1826519326472
 21
98.79902466182719
 31
0.0
  0
LINE
  5
20C
330
53
100
AcDbEntity
  8
レイヤー_1
  6
Continuous
 62
     7
100
AcDbLine
 10
111.0133394660151
 20
102.0156560319845
 30
0.0
 11
136.1826519326472
 21
102.0156560319845
 31
0.0
  0
LINE
  5
20D
330
53
100
AcDbEntity
  8
レイヤー_1
  6
Continuous
 62
     7
100
AcDbLine
 10
111.0133394660151
 20
107.8002188817728
 30
0.0
 11
136.1826519326472
 21
107.8002188817728
 31
0.0
  0
LINE
  5
20E
330
53
100
AcDbEntity
  8
レイヤー_1
  6
Continuous
 62
     7
100
AcDbLine
 10
111.0133394660151
 20
111.0168502519301
 30
0.0
 11
136.1826519326472
 21
111.0168502519301
 31
0.0
  0
LINE
  5
20F
330
53
100
AcDbEntity
  8
レイヤー_1
  6
Continuous
 62
     7
100
AcDbLine
 10
111.0133394660151
 20
126.3950475404138
 30
0.0
 11
148.5133394660152
 21
126.3950475404138
 31
0.0
  0
LINE
  5
210
330
53
100
AcDbEntity
  8
レイヤー_1
  6
Continuous
 62
     7
100
AcDbLine
 10
111.0133394660151
 20
127.8905012822274
 30
0.0
 11
148.5133394660152
 21
127.8905012822274
 31
0.0
  0
LINE
  5
211
330
53
100
AcDbEntity
  8
レイヤー_1
  6
Continuous
 62
     7
100
AcDbLine
 10
136.6341010387802
 20
126.3950475404138
 30
0.0
 11
135.5989138715855
 21
122.1953322929242
 31
0.0
  0
ARC
  5
212
330
53
100
AcDbEntity
  8
1
  6
Continuous
 62
     7
100
AcDbCircle
 10
87.03285863469928
 20
109.4085345668515
 30
0.0
 40
1.999999999999625
100
AcDbArc
 50
126.4709982615408
 51
233.5290017384609
  0
ARC
  5
213
330
53
100
AcDbEntity
  8
1
  6
Continuous
 62
     7
100
AcDbCircle
 10
85.04734126509933
 20
104.9079374568787
 30
0.0
 40
2.999999999999861
100
AcDbArc
 50
285.4003443317389
 51
74.59965566826068
  0
ARC
  5
214
330
53
100
AcDbEntity
  8
1
  6
Continuous
 62
     7
100
AcDbCircle
 10
87.03285863469928
 20
100.4073403469059
 30
0.0
 40
1.999999999999636
100
AcDbArc
 50
126.4709982615405
 51
233.5290017384612
  0
ARC
  5
215
330
53
100
AcDbEntity
  8
1
  6
Continuous
 62
     7
100
AcDbCircle
 10
134.993820297331
 20
100.4073403469059
 30
0.0
 40
1.999999999999682
100
AcDbArc
 50
306.4709982615375
 51
53.52900173846079
  0
ARC
  5
216
330
53
100
AcDbEntity
  8
1
  6
Continuous
 62
     7
100
AcDbCircle
 10
136.979337666931
 20
104.9079374568787
 30
0.0
 40
2.999999999999805
100
AcDbArc
 50
105.4003443317412
 51
254.5996556682593
  0
ARC
  5
217
330
53
100
AcDbEntity
  8
1
  6
Continuous
 62
     7
100
AcDbCircle
 10
134.993820297331
 20
109.4085345668515
 30
0.0
 40
1.999999999999671
100
AcDbArc
 50
306.4709982615378
 51
53.52900173846054
  0
ARC
  5
218
330
53
100
AcDbEntity
  8
1
  6
Continuous
 62
     7
100
AcDbCircle
 10
134.9858804478076
 20
91.3781319351382
 30
0.0
 40
2.027459018207509
100
AcDbArc
 50
0.0
 51
53.82301545797965
  0
ARC
  5
219
330
53
100
AcDbEntity
  8
1
  6
Continuous
 62
     7
100
AcDbCircle
 10
134.9858804478076
 20
91.3781319351382
 30
0.0
 40
2.027459018207537
100
AcDbArc
 50
306.1769845420204
 51
0.0
  0
ARC
  5
21A
330
53
100
AcDbEntity
  8
1
  6
Continuous
 62
     7
100
AcDbCircle
 10
87.04079848422268
 20
91.3781319351382
 30
0.0
 40
2.027459018207562
100
AcDbArc
 50
126.1769845420213
 51
180.0
  0
ARC
  5
21B
330
53
100
AcDbEntity
  8
1
  6
Continuous
 62
     7
100
AcDbCircle
 10
87.04079848422268
 20
91.3781319351382
 30
0.0
 40
2.027459018207566
100
AcDbArc
 50
180.0
 51
233.8230154579787
  0
CIRCLE
  5
21C
330
53
100
AcDbEntity
  8
1
  6
Continuous
 62
     7
100
AcDbCircle
 10
111.0133394660151
 20
211.750301709352
 30
0.0
 40
37.50000000000001
  0
CIRCLE
  5
21D
330
53
100
AcDbEntity
  8
1
  6
Continuous
 62
     7
100
AcDbCircle
 10
111.0133394660151
 20
211.750301709352
 30
0.0
 40
12.0
  0
CIRCLE
  5
21E
330
53
100
AcDbEntity
  8
1
  6
Continuous
 62
     7
100
AcDbCircle
 10
111.0133394660151
 20
211.750301709352
 30
0.0
 40
16.5
  0
CIRCLE
  5
21F
330
53
100
AcDbEntity
  8
1
  6
Continuous
 62
     7
100
AcDbCircle
 10
111.0133394660151
 20
211.750301709352
 30
0.0
 40
19.75000000000001
  0
SPLINE
  5
220
330
53
100
AcDbEntity
  8
レイヤー_1
  6
Continuous
 62
     7
100
AcDbSpline
210
0.0
220
0.0
230
1.0
 70
    11
 71
     3
 72
    15
 73
    11
 74
     9
 42
0.000000001
 43
0.0000000001
 44
0.00000001
 40
0.0
 40
0.0
 40
0.0
 40
0.0
 40
21.80914871777814
 40
43.61835971103061
 40
65.42748103329775
 40
87.23654612095632
 40
109.045743849371
 40
130.8548542103321
 40
152.6641035680535
 40
174.4732655498791
 40
174.4732655498791
 40
174.4732655498791
 40
174.4732655498791
 10
139.5405043913103
 20
211.7361796622373
 30
0.0
 10
137.7684222528812
 20
219.1847919867723
 30
0.0
 10
134.224252917242
 20
234.0820379044518
 30
0.0
 10
110.8341118972944
 20
243.2902963225606
 30
0.0
 10
88.77305970144486
 20
234.0819745743068
 30
0.0
 10
79.46984333389042
 20
211.7361444293109
 30
0.0
 10
88.7730048831051
 20
189.39025761537
 30
0.0
 10
110.8341445858708
 20
180.181925752138
 30
0.0
 10
134.224239517356
 20
189.3903253481246
 30
0.0
 10
137.7684184660932
 20
204.2875715046249
 30
0.0
 10
139.5405043913103
 20
211.7361796622373
 30
0.0
 11
139.5405043913103
 21
211.7361796622373
 31
0.0
 11
131.2119485830673
 21
231.8924225256976
 31
0.0
 11
111.0555909055287
 21
240.2208635198628
 31
0.0
 11
90.89934804206781
 21
231.8923794704185
 31
0.0
 11
82.57090704790262
 21
211.7361796622373
 31
0.0
 11
90.89934804206781
 21
191.5798363364582
 31
0.0
 11
111.0555909055287
 21
183.2513809905333
 31
0.0
 11
131.2119485830673
 21
191.5799224470166
 31
0.0
 11
139.5405043913103
 21
211.7361796622373
 31
0.0
  0
SPLINE
  5
221
330
53
100
AcDbEntity
  8
レイヤー_1
  6
Continuous
 62
     7
100
AcDbSpline
210
0.0
220
0.0
230
1.0
 70
    11
 71
     3
 72
    15
 73
    11
 74
     9
 42
0.000000001
 43
0.0000000001
 44
0.00000001
 40
0.0
 40
0.0
 40
0.0
 40
0.0
 40
19.51906840122408
 40
39.03824927898021
 40
58.55735057211269
 40
78.07645186479618
 40
97.59563274179729
 40
117.1147011509159
 40
136.6338491447922
 40
156.152997130468
 40
156.152997130468
 40
156.152997130468
 40
156.152997130468
 10
136.5493680322737
 20
211.7503017938261
 30
0.0
 10
134.9633945643651
 20
218.4167707469618
 30
0.0
 10
131.7914384909012
 20
231.7497470673285
 30
0.0
 10
110.8573567664707
 20
239.991260208404
 30
0.0
 10
91.11283321892998
 20
231.7497014232697
 30
0.0
 10
82.786310466067
 20
211.7502897697917
 30
0.0
 10
91.11279165710863
 20
191.750798406205
 30
0.0
 10
110.8573569451203
 20
183.5094012781954
 30
0.0
 10
131.7914816234858
 20
191.7507603406828
 30
0.0
 10
134.9634058957815
 20
205.0837879768068
 30
0.0
 10
136.5493680322737
 20
211.7503017938261
 30
0.0
 11
136.5493680322737
 21
211.7503017938261
 31
0.0
 11
129.0954371664171
 21
229.7900619441562
 31
0.0
 11
111.0555909055287
 21
237.2440789205712
 31
0.0
 11
93.01583075519862
 21
229.7900619441562
 31
0.0
 11
85.56181377878364
 21
211.7503017938261
 31
0.0
 11
93.01583075519862
 21
193.7104555329378
 31
0.0
 11
111.0555909055287
 21
186.2565246670813
 31
0.0
 11
129.095437166417
 21
193.7104555329378
 31
0.0
 11
136.5493680322737
 21
211.7503017938261
 31
0.0
  0
SPLINE
  5
222
330
53
100
AcDbEntity
  8
レイヤー_1
  6
Continuous
 62
     7
100
AcDbSpline
210
0.0
220
0.0
230
1.0
 70
    11
 71
     3
 72
    15
 73
    11
 74
     9
 42
0.000000001
 43
0.0000000001
 44
0.00000001
 40
0.0
 40
0.0
 40
0.0
 40
0.0
 40
17.79081951030734
 40
35.5816701624145
 40
53.37253725616404
 40
71.16331698177275
 40
88.95417629168593
 40
106.7450105016284
 40
124.5358447118764
 40
142.3267040143439
 40
142.3267040143439
 40
142.3267040143439
 40
142.3267040143439
 10
134.2921232595624
 20
211.7361796622373
 30
0.0
 10
132.8465522060837
 20
217.8123868931704
 30
0.0
 10
129.9554075700927
 20
229.9648119903705
 30
0.0
 10
110.8748828559158
 20
237.4765053663322
 30
0.0
 10
92.87858484157132
 20
229.9647664068973
 30
0.0
 10
85.28930836827305
 20
211.7361667996674
 30
0.0
 10
92.87854190823575
 20
193.507492513295
 30
0.0
 10
110.874894064715
 20
185.9958978039032
 30
0.0
 10
129.9554278260053
 20
193.5074960985543
 30
0.0
 10
132.8465574349832
 20
205.6599489508002
 30
0.0
 10
134.2921232595624
 20
211.7361796622373
 30
0.0
 11
134.2921232595624
 21
211.7361796622373
 31
0.0
 11
127.4981150103057
 21
228.1786463599752
 31
0.0
 11
111.0555909055287
 21
234.9725972021933
 31
0.0
 11
94.61306680075138
 21
228.178603304696
 31
0.0
 11
87.81905855149434
 21
211.7361796622373
 31
0.0
 11
94.61306680075137
 21
195.2936699092197
 31
0.0
 11
111.0555909055287
 21
188.4997621222809
 31
0.0
 11
127.4981150103057
 21
195.2936699092197
 31
0.0
 11
134.2921232595624
 21
211.7361796622373
 31
0.0
  0
SPLINE
  5
223
330
53
100
AcDbEntity
  8
レイヤー_1
  6
Continuous
 62
     7
100
AcDbSpline
210
0.0
220
0.0
230
1.0
 70
    11
 71
     3
 72
    15
 73
    11
 74
     9
 42
0.000000001
 43
0.0000000001
 44
0.00000001
 40
0.0
 40
0.0
 40
0.0
 40
0.0
 40
15.86809685939125
 40
31.73619976002766
 40
47.60421298960186
 40
63.47222621872655
 40
79.34033229634571
 40
95.20835100658385
 40
111.0764758296628
 40
126.9446257452015
 40
126.9446257452015
 40
126.9446257452015
 40
126.9446257452015
 10
131.7809097464022
 20
211.7361796622373
 30
0.0
 10
130.4915494781106
 20
217.1557051638534
 30
0.0
 10
127.9128284520017
 20
227.9947582296729
 30
0.0
 10
110.8944521927904
 20
234.6945398665906
 30
0.0
 10
94.84312412718984
 20
227.9946963748104
 30
0.0
 10
88.07419520839184
 20
211.7361521184892
 30
0.0
 10
94.8430928329487
 20
195.47758098584
 30
0.0
 10
110.8944627313421
 20
188.7776813649544
 30
0.0
 10
127.912839239282
 20
195.4775632241995
 30
0.0
 10
130.4915522306193
 20
206.3166379926616
 30
0.0
 10
131.7809097464022
 20
211.7361796622373
 30
0.0
 11
131.7809097464022
 21
211.7361796622373
 31
0.0
 11
125.7211088221856
 21
226.4016258200955
 31
0.0
 11
111.0555909055287
 21
232.4612688749546
 31
0.0
 11
96.39018780294934
 21
226.4015827648161
 31
0.0
 11
90.33050169281076
 21
211.7361796622373
 31
0.0
 11
96.39018780294934
 21
197.0706760973396
 31
0.0
 11
111.0555909055287
 21
191.0109756354412
 31
0.0
 11
125.7211088221856
 21
197.0706760973396
 31
0.0
 11
131.7809097464022
 21
211.7361796622373
 31
0.0
  0
SPLINE
  5
224
330
53
100
AcDbEntity
  8
レイヤー_1
  6
Continuous
 62
     7
100
AcDbSpline
210
0.0
220
0.0
230
1.0
 70
    11
 71
     3
 72
    15
 73
    11
 74
     9
 42
0.000000001
 43
0.0000000001
 44
0.00000001
 40
0.0
 40
0.0
 40
0.0
 40
0.0
 40
13.98849165101862
 40
27.97701444360418
 40
41.96553723588404
 40
55.95402889434816
 40
69.94265319322491
 40
83.93116502419403
 40
97.91975643992951
 40
111.9083478474645
 40
111.9083478474645
 40
111.9083478474645
 40
111.9083478474645
 10
129.3259551314429
 20
211.7503017938261
 30
0.0
 10
128.1893161873726
 20
216.5278643608685
 30
0.0
 10
125.9160357701699
 20
226.0830001301799
 30
0.0
 10
110.9135127148292
 20
231.9893298035498
 30
0.0
 10
96.76345822130872
 20
226.0829966246074
 30
0.0
 10
90.79611998604669
 20
211.7502705374088
 30
0.0
 10
96.7634104061676
 20
197.4174639237751
 30
0.0
 10
110.9135275933498
 20
191.5111879401198
 30
0.0
 10
125.9161802815321
 20
197.4174255803072
 30
0.0
 10
128.1893635145764
 20
206.972676390015
 30
0.0
 10
129.3259551314429
 20
211.7503017938261
 30
0.0
 11
129.3259551314429
 21
211.7503017938261
 31
0.0
 11
123.9839431191181
 21
224.678596600377
 31
0.0
 11
111.0555909055287
 21
230.0205512056627
 31
0.0
 11
98.12723869193897
 21
224.678596600377
 31
0.0
 11
92.78522667961444
 21
211.7503017938261
 31
0.0
 11
98.12723869193896
 21
198.8218634696781
 31
0.0
 11
111.0555909055287
 21
193.4799375679119
 31
0.0
 11
123.9840292296767
 21
198.8218634696781
 31
0.0
 11
129.3259551314429
 21
211.7503017938261
 31
0.0
  0
ARC
  5
225
330
53
100
AcDbEntity
  8
1
  6
Continuous
 62
     7
100
AcDbCircle
 10
85.45682594668511
 20
121.9560056596977
 30
0.0
 40
0.9999999999999907
100
AcDbArc
 50
332.9693223748865
 51
13.84680112982346
  0
ARC
  5
226
330
53
100
AcDbEntity
  8
1
  6
Continuous
 62
     7
100
AcDbCircle
 10
84.33367538490359
 20
117.1141604007218
 30
0.0
 40
0.1999999999999851
100
AcDbArc
 50
152.9693223748974
 51
270.0
  0
ARC
  5
227
330
53
100
AcDbEntity
  8
1
  6
Continuous
 62
     7
100
AcDbCircle
 10
137.6930035471267
 20
117.1141604007218
 30
0.0
 40
0.2000000000000028
100
AcDbArc
 50
270.0
 51
27.03067762510256
  0
ARC
  5
228
330
53
100
AcDbEntity
  8
1
  6
Continuous
 62
     7
100
AcDbCircle
 10
136.5698529853452
 20
121.9560056596977
 30
0.0
 40
1.000000000000002
100
AcDbArc
 50
166.1531988701763
 51
207.0306776251127
  0
LWPOLYLINE
  5
229
330
53
100
AcDbEntity
  8
レイヤー_1
  6
Continuous
 62
     7
100
AcDbPolyline
 90
       67
 70
     0
 43
0.0
 10
106.0189268629528
 20
227.4387270362921
 10
106.1881631222559
 20
227.4387270362921
 10
106.3576286700823
 20
227.4104825561422
 10
106.526864262849
 20
227.4104825561422
 10
106.6961005221522
 20
227.3823533867904
 10
106.8373215898287
 20
227.3541089066406
 10
107.0065578491318
 20
227.3541089066406
 10
107.1757934418985
 20
227.3258650930271
 10
107.3450297012017
 20
227.2976206128772
 10
107.5144952490281
 20
227.269490776989
 10
107.6837308417948
 20
227.2412469633755
 10
107.8529671010979
 20
227.2130024832257
 10
107.9941881687744
 20
227.1847580030758
 10
108.1634244280776
 20
227.1283843535741
 10
108.3326600208443
 20
227.1001405399606
 10
108.5021255686707
 20
227.0718960598108
 10
108.6713618279738
 20
227.0155224103091
 10
108.8123536071271
 20
226.9872779301592
 10
108.9815891998938
 20
226.9307896363959
 10
109.1510547477202
 20
226.9026598005076
 10
109.2920465268734
 20
226.8461715067443
 10
109.4612827861766
 20
226.7897978572426
 10
109.6307483340029
 20
226.7615533770927
 10
109.7717401131562
 20
226.7050650833294
 10
109.940975705923
 20
226.6486914338277
 10
110.1104412537493
 20
226.5922031400644
 10
110.2514330329026
 20
226.5358288240263
 10
110.4206692922057
 20
226.4793405302629
 10
110.5618903598822
 20
226.4229668807613
 10
110.7311266191854
 20
226.3382341068481
 10
110.8721177318022
 20
226.2818604573464
 10
111.0415832796286
 20
226.2253721635831
 10
111.1825750587819
 20
226.1407540339315
 10
111.3237967929948
 20
226.0843803844298
 10
111.4930323857615
 20
225.9996476105166
 10
111.6340241649148
 20
225.9432739610149
 10
111.7752452325913
 20
225.8586558313633
 10
111.9444814918944
 20
225.7739230574502
 10
112.0854732710477
 20
225.7175494079484
 10
112.2266943387242
 20
225.6328166340353
 10
112.3676861178774
 20
225.5481985043837
 10
112.5369223771806
 20
225.4635803747321
 10
112.6781434448571
 20
225.3789622450805
 10
112.8191352240104
 20
225.2942294711674
 10
112.9603562916869
 20
225.2096120080522
 10
113.1013480708401
 20
225.1249938784007
 10
113.2423398499934
 20
225.0121312685992
 10
113.3835609176699
 20
224.927398494686
 10
113.5245526968232
 20
224.8427810315709
 10
113.6657744310361
 20
224.7299184217694
 10
113.7785217300395
 20
224.6453002921179
 10
113.9195135091928
 20
224.5324383488528
 10
114.0607345768693
 20
224.4478202192013
 10
114.2017263560226
 20
224.3348429651382
 10
114.3147036100856
 20
224.2502255020231
 10
114.4556947227025
 20
224.1373628922216
 10
114.5969164569154
 20
224.0245009489566
 10
114.7096637559188
 20
223.9116383391551
 10
114.8508848235953
 20
223.7987763958901
 10
114.9636327891351
 20
223.7141582662386
 10
115.0766093766617
 20
223.6012963229735
 10
115.217601155815
 20
223.4884337131721
 10
115.3303484548184
 20
223.3755717699071
 10
115.4433257088815
 20
223.2344653464922
 10
115.5843174880347
 20
223.1216027366908
 10
115.6972947420978
 20
223.0087407934257
 10
116.007751402541
 20
222.6701536305579
  0
LWPOLYLINE
  5
22A
330
53
100
AcDbEntity
  8
レイヤー_1
  6
Continuous
 62
     7
100
AcDbPolyline
 90
       67
 70
     0
 43
0.0
 10
115.9512631087777
 20
195.9771436084987
 10
115.8100420411012
 20
195.9771436084987
 10
115.6408057817981
 20
196.0053880886486
 10
115.4715701890313
 20
196.0336325687984
 10
115.3023339297282
 20
196.0336325687984
 10
115.1328683819018
 20
196.0616470938887
 10
114.9636327891351
 20
196.0898909075021
 10
114.794396529832
 20
196.118135387652
 10
114.6249309820056
 20
196.1463798678018
 10
114.4839392028523
 20
196.1746236814153
 10
114.3147036100856
 20
196.2028681615652
 10
114.1454673507824
 20
196.231112641715
 10
113.9760018029561
 20
196.2593564553285
 10
113.8067655436529
 20
196.2876009354784
 10
113.6375299508862
 20
196.3438599407184
 10
113.4963088832097
 20
196.3721044208683
 10
113.3270726239066
 20
196.4285927146316
 10
113.1578363646035
 20
196.4568371947815
 10
113.016615296927
 20
196.5133254885448
 10
112.8473797041602
 20
196.5695844937849
 10
112.6781434448571
 20
196.5978289739348
 10
112.5369223771806
 20
196.6543172676981
 10
112.3676861178774
 20
196.7108055614614
 10
112.1984505251107
 20
196.7670645667015
 10
112.0572287908978
 20
196.8235528604648
 10
111.8879931981311
 20
196.8800418207645
 10
111.7470014189778
 20
196.9365301145279
 10
111.5775358711514
 20
196.9930184082912
 10
111.4365440919982
 20
197.0492774135313
 10
111.267307832695
 20
197.1340101874444
 10
111.1260867650185
 20
197.1904991477442
 10
110.9568505057154
 20
197.2467581529843
 10
110.8158593930985
 20
197.3314909268974
 10
110.6463938452722
 20
197.3879792206608
 10
110.5054020661189
 20
197.4724820395143
 10
110.3644102869656
 20
197.5572148134275
 10
110.2231885527527
 20
197.6137037737272
 10
110.053952959986
 20
197.6984365476404
 10
109.9129611808327
 20
197.782939366494
 10
109.7717401131562
 20
197.8676721404071
 10
109.6307483340029
 20
197.9521756257971
 10
109.48952659979
 20
198.0369083997103
 10
109.3485354871732
 20
198.1216411736235
 10
109.17929922787
 20
198.206143992477
 10
109.0380781601935
 20
198.2908767663902
 10
108.8970863810402
 20
198.3756095403034
 10
108.7841091269772
 20
198.4883575058432
 10
108.6431173478239
 20
198.5730902797564
 10
108.5021255686707
 20
198.6575930986099
 10
108.3609045009941
 20
198.7705703526729
 10
108.2199127218409
 20
198.8553031265861
 10
108.0786916541644
 20
198.9680504255896
 10
107.9659443551609
 20
199.0527831995027
 10
107.8247226209481
 20
199.1655304985061
 10
107.6837308417948
 20
199.2785077525692
 10
107.5707542542681
 20
199.3912550515726
 10
107.4297624751149
 20
199.4759878254858
 10
107.3170151761115
 20
199.5887351244892
 10
107.1757934418985
 20
199.7017123785522
 10
107.0630461428952
 20
199.8146896326153
 10
106.9500688888321
 20
199.9274369316187
 10
106.8090771096788
 20
200.0404141856817
 10
106.6961005221522
 20
200.1531614846851
 10
106.5833532231488
 20
200.2661387387482
 10
106.4421314889359
 20
200.4071298513651
 10
106.3293841899325
 20
200.5201071054281
 10
106.0189268629528
 20
200.858578957498
  0
LWPOLYLINE
  5
22B
330
53
100
AcDbEntity
  8
レイヤー_1
  6
Continuous
 62
     7
100
AcDbPolyline
 90
       67
 70
     0
 43
0.0
 10
95.35292866416525
 20
206.7558891062897
 10
95.3811731443151
 20
206.9251253655928
 10
95.3811731443151
 20
207.0945909134192
 10
95.40941695792857
 20
207.2638271727223
 10
95.40941695792857
 20
207.4048182853392
 10
95.43766143807842
 20
207.5742838331656
 10
95.46590591822827
 20
207.7435200924687
 10
95.49414973184174
 20
207.9127563517718
 10
95.49414973184174
 20
208.0819919445386
 10
95.5223942119916
 20
208.2514574923649
 10
95.55063869214145
 20
208.4206937516681
 10
95.60689769738157
 20
208.5616855308213
 10
95.63514151099498
 20
208.7311510786477
 10
95.66338599114489
 20
208.9003866714144
 10
95.69163047129474
 20
209.0696229307176
 10
95.74811876505807
 20
209.2388585234843
 10
95.77636324520792
 20
209.3800802576972
 10
95.80460705882139
 20
209.549315850464
 10
95.86086606406145
 20
209.7185521097671
 10
95.91735502436119
 20
209.8880176575935
 10
95.94559883797463
 20
210.0290094367467
 10
96.00208779827439
 20
210.1982450295135
 10
96.05834613697807
 20
210.3677105773398
 10
96.1148350972778
 20
210.5087023564931
 10
96.1713233910411
 20
210.6779386157962
 10
96.22781168480442
 20
210.8191596834727
 10
96.28407069004452
 20
210.9883952762395
 10
96.34055965034425
 20
211.1576315355426
 10
96.39704794410757
 20
211.2988526032191
 10
96.45353623787089
 20
211.4680888625222
 10
96.5100251981706
 20
211.6091952859371
 10
96.59452801702416
 20
211.7784315452402
 10
96.65101697732389
 20
211.9195379686551
 10
96.73574975123707
 20
212.06064439207
 10
96.79200808994078
 20
212.2298799848367
 10
96.87674086385393
 20
212.3709864082516
 10
96.93322982415366
 20
212.5120934982029
 10
97.01773264300722
 20
212.6814437352313
 10
97.1024654169204
 20
212.8224355143846
 10
97.18719819083357
 20
212.9635419377995
 10
97.27170167622354
 20
213.1046483612143
 10
97.35643445013672
 20
213.2457554511657
 10
97.44116722404989
 20
213.4149910439324
 10
97.52567004290346
 20
213.5560974673473
 10
97.61040281681663
 20
213.6972038907621
 10
97.69490630220658
 20
213.838310314177
 10
97.77963907611975
 20
213.9794174041283
 10
97.86437185003295
 20
214.1204085167452
 10
97.97711914903637
 20
214.2615156066965
 10
98.06185192294954
 20
214.3743775499615
 10
98.17459922195293
 20
214.5154839733764
 10
98.25933199586616
 20
214.6565903967912
 10
98.37230924992916
 20
214.7976968202061
 10
98.4568127353191
 20
214.9105594300076
 10
98.56978932284578
 20
215.0515512091609
 10
98.68253728838557
 20
215.1926576325758
 10
98.76727006229875
 20
215.3055195758408
 10
98.88001736130217
 20
215.4466259992556
 10
98.99299394882884
 20
215.5594886090571
 10
99.10574191436864
 20
215.700595032472
 10
99.21871850189525
 20
215.813456975737
 10
99.33169575595834
 20
215.9545633991519
 10
99.44444305496172
 20
216.0674260089533
 10
99.55742030902475
 20
216.1802879522183
 10
99.6701676080282
 20
216.2931505620198
 10
99.78314486209122
 20
216.4342569854346
 10
100.1216167141611
 20
216.7445996681527
  0
LWPOLYLINE
  5
22C
330
53
100
AcDbEntity
  8
レイヤー_1
  6
Continuous
 62
     7
100
AcDbPolyline
 90
       67
 70
     0
 43
0.0
 10
126.871000385722
 20
216.6882253521146
 10
126.8429858606317
 20
216.5188751150862
 10
126.8147413804819
 20
216.3495242115215
 10
126.8147413804819
 20
216.1802879522183
 10
126.7864975668684
 20
216.0391815288035
 10
126.7582530867185
 20
215.8698306252387
 10
126.7582530867185
 20
215.700595032472
 10
126.7300086065687
 20
215.5312441289072
 10
126.7017647929553
 20
215.3620085361405
 10
126.6735203128054
 20
215.1926576325758
 10
126.6452758326555
 20
215.0234213732726
 10
126.5890168274154
 20
214.8823149498577
 10
126.560773013802
 20
214.712964046293
 10
126.5325285336521
 20
214.5437284535263
 10
126.4760402398888
 20
214.3743775499615
 10
126.4477957597389
 20
214.2051412906584
 10
126.419551279589
 20
214.0640348672435
 10
126.3632929408854
 20
213.8946846302151
 10
126.3068039805857
 20
213.725448370912
 10
126.2785601669722
 20
213.5843419474971
 10
126.2220712066725
 20
213.4149910439324
 10
126.1655829129091
 20
213.2457554511657
 10
126.109323907669
 20
213.1046483612143
 10
126.0528356139057
 20
212.935298124186
 10
125.996346653606
 20
212.7660618648828
 10
125.9398583598427
 20
212.624955441468
 10
125.8835993546026
 20
212.4557191821648
 10
125.8271110608392
 20
212.3146127587499
 10
125.7706221005395
 20
212.1452625217216
 10
125.6858893266264
 20
212.0041554317703
 10
125.6296309879227
 20
211.8349198390036
 10
125.573142027623
 20
211.6938134155887
 10
125.4884092537098
 20
211.5527069921738
 10
125.4321502484697
 20
211.3833560886091
 10
125.3474174745565
 20
211.2423643094558
 10
125.2626847006433
 20
211.1013725303025
 10
125.20619640688
 20
210.9319069824761
 10
125.12169292149
 20
210.7909152033228
 10
125.0369601475769
 20
210.6496941356463
 10
124.9524573287233
 20
210.5087023564931
 10
124.8677245548101
 20
210.3677105773398
 10
124.7829917808969
 20
210.1982450295135
 10
124.698488295507
 20
210.0572532503602
 10
124.6137555215938
 20
209.9162614712069
 10
124.5290227476807
 20
209.7750404035304
 10
124.4445199288271
 20
209.6340486243771
 10
124.331542674764
 20
209.4928275567006
 10
124.2470398559105
 20
209.3800802576972
 10
124.1623070819973
 20
209.2388585234843
 10
124.0493298279342
 20
209.097866744331
 10
123.9648263425443
 20
208.9568749651778
 10
123.8518497550177
 20
208.8156538975013
 10
123.7391017894779
 20
208.7029065984978
 10
123.6543690155647
 20
208.5616855308213
 10
123.5416217165612
 20
208.4206937516681
 10
123.4286451290346
 20
208.307716497605
 10
123.3158971634948
 20
208.1667247184517
 10
123.2311643895816
 20
208.0537474643887
 10
123.118187802055
 20
207.9127563517718
 10
123.0054398365152
 20
207.800008386232
 10
122.8924632489885
 20
207.6870317987054
 10
122.7797159499851
 20
207.5460400195521
 10
122.6384942157722
 20
207.433062765489
 10
122.5257469167688
 20
207.3203154664857
 10
122.4127696627058
 20
207.2073382124226
 10
122.3000223637024
 20
207.0663464332693
 10
121.9613212231093
 20
206.7558891062897
  0
LWPOLYLINE
  5
22D
330
53
100
AcDbEntity
  8
レイヤー_1
  6
Continuous
 62
     7
100
AcDbPolyline
 90
        3
 70
     0
 43
0.0
 10
111.0133394660151
 20
133.9006733742842
 10
90.27412855304742
 20
133.9006733742842
 10
89.73794667300132
 20
132.4051056547453
  0
LWPOLYLINE
  5
22E
330
53
100
AcDbEntity
  8
レイヤー_1
  6
Continuous
 62
     7
100
AcDbPolyline
 90
        4
 70
     0
 43
0.0
 10
73.51333946601513
 20
126.3950475404138
 10
73.51333946601513
 20
127.8905012822274
 10
82.51453368596073
 20
132.4051056547453
 10
111.0133394660151
 20
132.4051056547453
  0
LWPOLYLINE
  5
22F
330
53
100
AcDbEntity
  8
レイヤー_1
  6
Continuous
 62
     7
100
AcDbPolyline
 90
        4
 70
     0
 43
0.0
 10
111.0133394660151
 20
132.4051056547453
 10
139.5121452460696
 20
132.4051056547453
 10
148.5133394660152
 20
127.8905012822274
 10
148.5133394660152
 20
126.3950475404138
  0
LWPOLYLINE
  5
230
330
53
100
AcDbEntity
  8
レイヤー_1
  6
Continuous
 62
     7
100
AcDbPolyline
 90
        3
 70
     0
 43
0.0
 10
132.288732259029
 20
132.4051056547453
 10
131.7525503789829
 20
133.9006733742842
 10
111.0133394660151
 20
133.9006733742842
  0
MTEXT
  5
232
330
53
100
AcDbEntity
  8
レイヤー_1
 62
     7
100
AcDbMText
 10
120.6776981629901
 20
244.7858394486166
 30
0.0
 40
2.4760574346777
 41
0.0
 71
     1
 72
     1
  1
50ホース用
  7
CONVERTER_12
 11
0.8642816693756613
 21
-0.5030081470326502
 31
0.0
 73
     1
 44
0.75727272727273
  0
ENDBLK
  5
55
330
53
100
AcDbEntity
  8
0
100
AcDbBlockEnd
  0
BLOCK
  5
24E
330
247
100
AcDbEntity
  8
0
100
AcDbBlockBegin
  2
*D5
 70
     1
 10
0.0
 20
0.0
 30
0.0
  3
*D5
  1

  0
LINE
  5
248
330
247
100
AcDbEntity
  8
1
  6
Continuous
 62
     2
100
AcDbLine
 10
85.0133394660151
 20
77.39959446513654
 30
0.0
 11
137.0133394660151
 21
77.39959446513654
 31
0.0
  0
LINE
  5
249
330
247
100
AcDbEntity
  8
1
  6
Continuous
 62
     2
100
AcDbLine
 10
137.0133394660151
 20
91.3781319351382
 30
0.0
 11
137.0133394660151
 21
75.39959446513654
 31
0.0
  0
LINE
  5
24A
330
247
100
AcDbEntity
  8
1
  6
Continuous
 62
     2
100
AcDbLine
 10
85.0133394660151
 20
91.3781319351382
 30
0.0
 11
85.0133394660151
 21
75.39959446513654
 31
0.0
  0
SOLID
  5
24B
330
247
100
AcDbEntity
  8
1
 62
     2
100
AcDbTrace
 10
88.5133394660151
 20
77.86037820669243
 30
0.0
 11
88.5133394660151
 21
76.93881072358066
 31
0.0
 12
85.0133394660151
 22
77.39959446513654
 32
0.0
 13
85.0133394660151
 23
77.39959446513654
 33
0.0
  0
SOLID
  5
24C
330
247
100
AcDbEntity
  8
1
 62
     2
100
AcDbTrace
 10
133.5133394660151
 20
76.93881072358066
 30
0.0
 11
133.5133394660151
 21
77.86037820669243
 31
0.0
 12
137.0133394660151
 22
77.39959446513654
 32
0.0
 13
137.0133394660151
 23
77.39959446513654
 33
0.0
  0
MTEXT
  5
24D
330
247
100
AcDbEntity
  8
1
 62
     7
100
AcDbMText
 10
108.1033394660223
 20
79.39958850192826
 30
0.0
 40
3.0
 41
0.0
 71
     7
 72
     1
  1
\C7;{\Fgdt;n}\C7;52
  7
CONVERTER_13
 11
0.9999999999970619
 21
2.424068405545306E-6
 31
0.0
 73
     1
 44
0.60024009603842
  0
ENDBLK
  5
24F
330
247
100
AcDbEntity
  8
0
100
AcDbBlockEnd
  0
BLOCK
  5
259
330
252
100
AcDbEntity
  8
0
100
AcDbBlockBegin
  2
*D6
 70
     1
 10
0.0
 20
0.0
 30
0.0
  3
*D6
  1

  0
LINE
  5
253
330
252
100
AcDbEntity
  8
1
  6
Continuous
 62
     2
100
AcDbLine
 10
82.06652725790657
 20
69.39959446513654
 30
0.0
 11
139.9607324898212
 21
69.39959446513654
 31
0.0
  0
LINE
  5
254
330
252
100
AcDbEntity
  8
1
  6
Continuous
 62
     2
100
AcDbLine
 10
139.9607324898212
 20
95.77235100922913
 30
0.0
 11
139.9607324898212
 21
67.39959446513654
 31
0.0
  0
LINE
  5
255
330
252
100
AcDbEntity
  8
1
  6
Continuous
 62
     2
100
AcDbLine
 10
82.06652725790657
 20
95.8638004507615
 30
0.0
 11
82.06652725790657
 21
67.39959446513654
 31
0.0
  0
SOLID
  5
256
330
252
100
AcDbEntity
  8
1
 62
     2
100
AcDbTrace
 10
85.56652725790657
 20
69.86037820669243
 30
0.0
 11
85.56652725790657
 21
68.93881072358066
 31
0.0
 12
82.06652725790657
 22
69.39959446513654
 32
0.0
 13
82.06652725790657
 23
69.39959446513654
 33
0.0
  0
SOLID
  5
257
330
252
100
AcDbEntity
  8
1
 62
     2
100
AcDbTrace
 10
136.4607324898212
 20
68.93881072358066
 30
0.0
 11
136.4607324898212
 21
69.86037820669243
 31
0.0
 12
139.9607324898212
 22
69.39959446513654
 32
0.0
 13
139.9607324898212
 23
69.39959446513654
 33
0.0
  0
MTEXT
  5
258
330
252
100
AcDbEntity
  8
1
 62
     7
100
AcDbMText
 10
108.1036298738711
 20
71.39958850192826
 30
0.0
 40
3.0
 41
0.0
 71
     7
 72
     1
  1
\C7;{\Fgdt;n}\C7;58
  7
CONVERTER_13
 11
0.9999999999970619
 21
2.424068405545306E-6
 31
0.0
 73
     1
 44
0.60024009603842
  0
ENDBLK
  5
25A
330
252
100
AcDbEntity
  8
0
100
AcDbBlockEnd
  0
BLOCK
  5
264
330
25D
100
AcDbEntity
  8
0
100
AcDbBlockBegin
  2
*D7
 70
     1
 10
0.0
 20
0.0
 30
0.0
  3
*D7
  1

  0
LINE
  5
25E
330
25D
100
AcDbEntity
  8
1
  6
Continuous
 62
     2
100
AcDbLine
 10
73.51333946601508
 20
143.9006733742842
 30
0.0
 11
148.5133394660151
 21
143.9006733742842
 31
0.0
  0
LINE
  5
25F
330
25D
100
AcDbEntity
  8
1
  6
Continuous
 62
     2
100
AcDbLine
 10
148.5133394660151
 20
127.8905012822275
 30
0.0
 11
148.5133394660151
 21
145.9006733742842
 31
0.0
  0
LINE
  5
260
330
25D
100
AcDbEntity
  8
1
  6
Continuous
 62
     2
100
AcDbLine
 10
73.51333946601508
 20
127.8905012822275
 30
0.0
 11
73.51333946601508
 21
145.9006733742842
 31
0.0
  0
SOLID
  5
261
330
25D
100
AcDbEntity
  8
1
 62
     2
100
AcDbTrace
 10
77.01333946601508
 20
144.3614571158401
 30
0.0
 11
77.01333946601508
 21
143.4398896327283
 31
0.0
 12
73.51333946601508
 22
143.9006733742842
 32
0.0
 13
73.51333946601508
 23
143.9006733742842
 33
0.0
  0
SOLID
  5
262
330
25D
100
AcDbEntity
  8
1
 62
     2
100
AcDbTrace
 10
145.0133394660151
 20
143.4398896327283
 30
0.0
 11
145.0133394660151
 21
144.3614571158401
 31
0.0
 12
148.5133394660151
 22
143.9006733742842
 32
0.0
 13
148.5133394660151
 23
143.9006733742842
 33
0.0
  0
MTEXT
  5
263
330
25D
100
AcDbEntity
  8
1
 62
     7
100
AcDbMText
 10
108.1033394660223
 20
145.9006674110759
 30
0.0
 40
3.0
 41
0.0
 71
     7
 72
     1
  1
\C7;{\Fgdt;n}\C7;75
  7
CONVERTER_13
 11
0.9999999999970619
 21
2.424068405545306E-6
 31
0.0
 73
     1
 44
0.60024009603842
  0
ENDBLK
  5
265
330
25D
100
AcDbEntity
  8
0
100
AcDbBlockEnd
  0
BLOCK
  5
26F
330
268
100
AcDbEntity
  8
0
100
AcDbBlockBegin
  2
*D8
 70
     1
 10
0.0
 20
0.0
 30
0.0
  3
*D8
  1

  0
LINE
  5
269
330
268
100
AcDbEntity
  8
1
  6
Continuous
 62
     2
100
AcDbLine
 10
63.51333946601513
 20
133.9006733742842
 30
0.0
 11
63.51333946601513
 21
87.39959446513659
 31
0.0
  0
LINE
  5
26A
330
268
100
AcDbEntity
  8
1
  6
Continuous
 62
     2
100
AcDbLine
 10
88.01665373385963
 20
87.39959446513659
 30
0.0
 11
61.51333946601513
 21
87.39959446513659
 31
0.0
  0
LINE
  5
26B
330
268
100
AcDbEntity
  8
1
  6
Continuous
 62
     2
100
AcDbLine
 10
90.27412855304742
 20
133.9006733742842
 30
0.0
 11
61.51333946601513
 21
133.9006733742842
 31
0.0
  0
SOLID
  5
26C
330
268
100
AcDbEntity
  8
1
 62
     2
100
AcDbTrace
 10
63.97412320757102
 20
130.4006733742842
 30
0.0
 11
63.05255572445925
 21
130.4006733742842
 31
0.0
 12
63.51333946601513
 22
133.9006733742842
 32
0.0
 13
63.51333946601513
 23
133.9006733742842
 33
0.0
  0
SOLID
  5
26D
330
268
100
AcDbEntity
  8
1
 62
     2
100
AcDbTrace
 10
63.05255572445925
 20
90.89959446513659
 30
0.0
 11
63.97412320757102
 21
90.89959446513659
 31
0.0
 12
63.51333946601513
 22
87.39959446513659
 32
0.0
 13
63.51333946601513
 23
87.39959446513659
 33
0.0
  0
MTEXT
  5
26E
330
268
100
AcDbEntity
  8
1
 62
     7
100
AcDbMText
 10
61.51333946601513
 20
108.4001339197104
 30
0.0
 40
3.0
 41
0.0
 71
     7
 72
     1
  1
47
  7
CONVERTER_13
 11
0.0
 21
1.0
 31
0.0
 73
     1
 44
0.60024009603842
  0
ENDBLK
  5
270
330
268
100
AcDbEntity
  8
0
100
AcDbBlockEnd
  0
BLOCK
  5
278
330
273
100
AcDbEntity
  8
0
100
AcDbBlockBegin
  2
*D9
 70
     1
 10
0.0
 20
0.0
 30
0.0
  3
*D9
  1

  0
LINE
  5
274
330
273
100
AcDbEntity
  8
1
  6
Continuous
 62
     2
100
AcDbLine
 10
89.68204590488635
 20
207.5031361829164
 30
0.0
 11
159.2481331797866
 21
221.3540865172821
 31
0.0
  0
SOLID
  5
275
330
273
100
AcDbEntity
  8
1
 62
     2
100
AcDbTrace
 10
130.5383438982128
 20
216.1076545271928
 30
0.0
 11
130.7183002037097
 21
215.2038280205882
 31
0.0
 12
127.1957000985957
 22
214.9722893500963
 32
0.0
 13
127.1957000985957
 23
214.9722893500963
 33
0.0
  0
SOLID
  5
276
330
273
100
AcDbEntity
  8
1
 62
     2
100
AcDbTrace
 10
91.48833503381752
 20
207.3929488915113
 30
0.0
 11
91.30837872832069
 21
208.2967753981158
 31
0.0
 12
94.83097883343467
 22
208.5283140686077
 32
0.0
 13
94.83097883343467
 23
208.5283140686077
 33
0.0
  0
MTEXT
  5
277
330
273
100
AcDbEntity
  8
1
 62
     7
100
AcDbMText
 10
152.0315752837716
 20
221.9564918073173
 30
0.0
 40
3.0
 41
0.0
 71
     7
 72
     1
  1
\C7;{\Fgdt;n}\C7;33
  7
CONVERTER_13
 11
0.9807491292473028
 21
0.195271978226927
 31
0.0
 73
     1
 44
0.60024009603842
  0
ENDBLK
  5
279
330
273
100
AcDbEntity
  8
0
100
AcDbBlockEnd
  0
BLOCK
  5
280
330
27B
100
AcDbEntity
  8
0
100
AcDbBlockBegin
  2
*D10
 70
     1
 10
0.0
 20
0.0
 30
0.0
  3
*D10
  1

  0
LINE
  5
27C
330
27B
100
AcDbEntity
  8
1
  6
Continuous
 62
     2
100
AcDbLine
 10
92.70315254521543
 20
228.7719659912421
 30
0.0
 11
149.8052737322166
 21
175.688229553532
 31
0.0
  0
SOLID
  5
27D
330
27B
100
AcDbEntity
  8
1
 62
     2
100
AcDbTrace
 10
128.3555455485716
 20
196.2576353847123
 30
0.0
 11
127.7280810561462
 21
195.582672469676
 31
0.0
 12
125.4783871334469
 22
198.3031869266588
 32
0.0
 13
125.4783871334469
 23
198.3031869266588
 33
0.0
  0
SOLID
  5
27E
330
27B
100
AcDbEntity
  8
1
 62
     2
100
AcDbTrace
 10
93.6711333834587
 20
227.2429680339916
 30
0.0
 11
94.2985978758841
 21
227.9179309490279
 31
0.0
 12
96.54829179858338
 22
225.1974164920452
 32
0.0
 13
96.54829179858338
 23
225.1974164920452
 33
0.0
  0
MTEXT
  5
27F
330
27B
100
AcDbEntity
  8
1
 62
     7
100
AcDbMText
 10
143.5271827692799
 20
184.6648477286073
 30
0.0
 40
3.0
 41
0.0
 71
     7
 72
     1
  1
\C7;{\Fgdt;n}\C7;39,5
  7
CONVERTER_13
 11
0.7324074768319887
 21
-0.6808665712756061
 31
0.0
 73
     1
 44
0.60024009603842
  0
ENDBLK
  5
281
330
27B
100
AcDbEntity
  8
0
100
AcDbBlockEnd
  0
BLOCK
  5
288
330
283
100
AcDbEntity
  8
0
100
AcDbBlockBegin
  2
*D11
 70
     1
 10
0.0
 20
0.0
 30
0.0
  3
*D11
  1

  0
LINE
  5
284
330
283
100
AcDbEntity
  8
1
  6
Continuous
 62
     2
100
AcDbLine
 10
96.0878518027322
 20
203.1020465088396
 30
0.0
 11
152.9154670969623
 21
236.0295950478431
 31
0.0
  0
SOLID
  5
285
330
283
100
AcDbEntity
  8
1
 62
     2
100
AcDbTrace
 10
124.1936341553868
 20
219.9198888199593
 30
0.0
 11
124.6556602874706
 21
219.1225065532888
 31
0.0
 12
121.3962874056901
 22
217.7664792401433
 32
0.0
 13
121.3962874056901
 23
217.7664792401433
 33
0.0
  0
SOLID
  5
286
330
283
100
AcDbEntity
  8
1
 62
     2
100
AcDbTrace
 10
97.83304477664335
 20
203.5807145987447
 30
0.0
 11
97.37101864455961
 21
204.3780968654153
 31
0.0
 12
100.63039152634
 22
205.7341241785608
 32
0.0
 13
100.63039152634
 23
205.7341241785608
 33
0.0
  0
MTEXT
  5
287
330
283
100
AcDbEntity
  8
1
 62
     7
100
AcDbMText
 10
145.8906610368189
 20
234.2707034032634
 30
0.0
 40
3.0
 41
0.0
 71
     7
 72
     1
  1
\C7;{\Fgdt;n}\C7;24
  7
CONVERTER_13
 11
0.8652456616395877
 21
0.5013481275659382
 31
0.0
 73
     1
 44
0.60024009603842
  0
ENDBLK
  5
289
330
283
100
AcDbEntity
  8
0
100
AcDbBlockEnd
  0
ENDSEC
  0
SECTION
  2
ENTITIES
  0
INSERT
  5
56
330
1F
100
AcDbEntity
  8
0
100
AcDbBlockReference
  2
開示A4枠
 10
0.0
 20
-0.00000000000004
 30
0.0
  0
INSERT
  5
57
330
1F
100
AcDbEntity
  8
1
100
AcDbBlockReference
  2
オーリング
 10
82.0658278592415
 20
92.79902466182719
 30
0.0
  0
INSERT
  5
58
330
1F
100
AcDbEntity
  8
0
100
AcDbBlockReference
  2
パッキン
 10
111.0133394660151
 20
168.3249480872443
 30
0.0
  0
LINE
  5
233
330
1F
100
AcDbEntity
  8
レイヤー_1
  6
DOT_CENTER
 62
     2
100
AcDbLine
 10
70.51333946601513
 20
211.750301709352
 30
0.0
 11
151.5133394660151
 21
211.750301709352
 31
0.0
  0
LINE
  5
234
330
1F
100
AcDbEntity
  8
レイヤー_1
  6
DOT_CENTER
 62
     2
100
AcDbLine
 10
111.0133394660151
 20
252.250301709352
 30
0.0
 11
111.0133394660151
 21
171.250301709352
 31
0.0
  0
LINE
  5
235
330
1F
100
AcDbEntity
  8
レイヤー_1
  6
DOT_CENTER
 62
     2
100
AcDbLine
 10
111.0133394660151
 20
136.9006733742842
 30
0.0
 11
111.0133394660151
 21
84.39959446513654
 31
0.0
  0
MTEXT
  5
237
330
1F
100
AcDbEntity
  8
1
 62
     7
100
AcDbMText
 10
100.75
 20
12.49999999999996
 30
0.0
 40
2.5
 41
0.0
 71
     5
 72
     1
  1
22
  7
CONVERTER_13
 73
     1
 44
0.7202881152461
  0
MTEXT
  5
238
330
1F
100
AcDbEntity
  8
1
 62
     7
100
AcDbMText
 10
112.25
 20
12.49999999999996
 30
0.0
 40
2.5
 41
0.0
 71
     5
 72
     1
  1
25
  7
CONVERTER_13
 73
     1
 44
0.7202881152461
  0
MTEXT
  5
239
330
1F
100
AcDbEntity
  8
1
 62
     7
100
AcDbMText
 10
106.5
 20
12.49999999999996
 30
0.0
 40
2.5
 41
0.0
 71
     5
 72
     1
  1
2
  7
CONVERTER_13
 73
     1
 44
0.7202881152461
  0
MTEXT
  5
23A
330
1F
100
AcDbEntity
  8
1
 62
     7
100
AcDbMText
 10
117.75
 20
12.49999999999996
 30
0.0
 40
2.5
 41
0.0
 71
     5
 72
     1
  1
22
  7
CONVERTER_13
 73
     1
 44
0.7202881152461
  0
MTEXT
  5
23B
330
1F
100
AcDbEntity
  8
1
 62
     7
100
AcDbMText
 10
129.25
 20
12.49999999999996
 30
0.0
 40
2.5
 41
0.0
 71
     5
 72
     1
  1
25
  7
CONVERTER_13
 73
     1
 44
0.7202881152461
  0
MTEXT
  5
23C
330
1F
100
AcDbEntity
  8
1
 62
     7
100
AcDbMText
 10
123.5
 20
12.49999999999996
 30
0.0
 40
2.5
 41
0.0
 71
     5
 72
     1
  1
2
  7
CONVERTER_13
 73
     1
 44
0.7202881152461
  0
MTEXT
  5
23D
330
1F
100
AcDbEntity
  8
1
 62
     7
100
AcDbMText
 10
134.75
 20
12.49999999999996
 30
0.0
 40
2.5
 41
0.0
 71
     5
 72
     1
  1
22
  7
CONVERTER_13
 73
     1
 44
0.7202881152461
  0
MTEXT
  5
23E
330
1F
100
AcDbEntity
  8
1
 62
     7
100
AcDbMText
 10
146.25
 20
12.49999999999996
 30
0.0
 40
2.5
 41
0.0
 71
     5
 72
     1
  1
25
  7
CONVERTER_13
 73
     1
 44
0.7202881152461
  0
MTEXT
  5
23F
330
1F
100
AcDbEntity
  8
1
 62
     7
100
AcDbMText
 10
140.5
 20
12.49999999999996
 30
0.0
 40
2.5
 41
0.0
 71
     5
 72
     1
  1
2
  7
CONVERTER_13
 73
     1
 44
0.7202881152461
  0
MTEXT
  5
240
330
1F
100
AcDbEntity
  8
0
 62
     7
100
AcDbMText
 10
34.0
 20
33.99999999999996
 30
0.0
 40
3.5
 41
0.0
 71
     4
 72
     1
  1
オーリング2個
  7
CONVERTER_11
 73
     1
 44
0.63636363636364
  0
MTEXT
  5
241
330
1F
100
AcDbEntity
  8
1
 62
     7
100
AcDbMText
 10
85.25
 20
16.99999999999996
 30
0.0
 40
3.5
 41
0.0
 71
     5
 72
     1
  1
1
  7
CONVERTER_13
 73
     1
 44
0.7202881152461
  0
MTEXT
  5
242
330
1F
100
AcDbEntity
  8
1
 62
     7
100
AcDbMText
 10
57.0
 20
22.74999999999997
 30
0.0
 40
3.5
 41
0.0
 71
     5
 72
     1
  1
ホース用クリーンパッキン
  7
CONVERTER_11
 73
     1
 44
0.54545454545455
  0
MTEXT
  5
243
330
1F
100
AcDbEntity
  8
1
 62
     7
100
AcDbMText
 10
57.0
 20
14.24999999999996
 30
0.0
 40
3.5
 41
0.0
 71
     5
 72
     1
  1
H62A-90
  7
CONVERTER_13
 73
     1
 44
0.7202881152461
  0
MTEXT
  5
244
330
1F
100
AcDbEntity
  8
1
 62
     7
100
AcDbMText
 10
93.75
 20
16.99999999999996
 30
0.0
 40
3.5
 41
0.0
 71
     5
 72
     1
  1
1
  7
CONVERTER_13
 73
     1
 44
0.7202881152461
  0
MTEXT
  5
245
330
1F
100
AcDbEntity
  8
1
 62
     7
100
AcDbMText
 10
151.75
 20
12.49999999999996
 30
0.0
 40
2.5
 41
0.0
 71
     5
 72
     1
  1
06
  7
CONVERTER_13
 73
     1
 44
0.7202881152461
  0
MTEXT
  5
246
330
1F
100
AcDbEntity
  8
1
 62
     7
100
AcDbMText
 10
157.5
 20
12.49999999999996
 30
0.0
 40
2.5
 41
0.0
 71
     5
 72
     1
  1
1
  7
CONVERTER_13
 73
     1
 44
0.7202881152461
  0
DIMENSION
  5
251
330
1F
100
AcDbEntity
  8
1
100
AcDbDimension
  2
*D5
 10
85.0133394660151
 20
77.39959446513654
 30
0.0
 11
111.0133394660151
 21
80.89959446513654
 31
0.0
 70
    33
  1
<>
 71
     5
 42
-1.0
 53
0.00013888888889
  3
ME10_DIM_10
100
AcDbAlignedDimension
 13
137.0133394660151
 23
91.3781319351382
 33
0.0
 14
85.01333946601511
 24
91.3781319351382
 34
0.0
  0
DIMENSION
  5
25C
330
1F
100
AcDbEntity
  8
1
100
AcDbDimension
  2
*D6
 10
82.06652725790657
 20
69.39959446513654
 30
0.0
 11
111.0136298738639
 21
72.89959446513654
 31
0.0
 70
    32
  1
{\Fgdt;n}58
 71
     5
 42
-1.0
 53
0.00013888888889
  3
ME10_DIM_11
100
AcDbAlignedDimension
 13
139.9607324898213
 23
95.77235100922913
 33
0.0
 14
82.06652725790659
 24
95.8638004507615
 34
0.0
100
AcDbRotatedDimension
  0
DIMENSION
  5
267
330
1F
100
AcDbEntity
  8
1
100
AcDbDimension
  2
*D7
 10
73.51333946601508
 20
143.9006733742842
 30
0.0
 11
111.0133394660151
 21
147.4006733742842
 31
0.0
 70
    33
  1
<>
 71
     5
 42
-1.0
 53
0.00013888888889
  3
ME10_DIM_12
100
AcDbAlignedDimension
 13
148.5133394660152
 23
127.8905012822274
 33
0.0
 14
73.51333946601513
 24
127.8905012822274
 34
0.0
  0
DIMENSION
  5
272
330
1F
100
AcDbEntity
  8
1
100
AcDbDimension
  2
*D8
 10
63.51333946601513
 20
133.9006733742842
 30
0.0
 11
60.01333946601513
 21
110.6501339197104
 31
0.0
 70
    32
  1
47
 71
     5
 42
-1.0
 53
90.0
  3
ME10_DIM_13
100
AcDbAlignedDimension
 13
88.01665373385961
 23
87.39959446513654
 33
0.0
 14
90.27412855304742
 24
133.9006733742842
 34
0.0
 50
90.0
100
AcDbRotatedDimension
  0
INSERT
  5
27A
330
1F
100
AcDbEntity
  8
1
100
AcDbBlockReference
  2
*D9
 10
0.0
 20
0.0
 30
0.0
  0
INSERT
  5
282
330
1F
100
AcDbEntity
  8
1
100
AcDbBlockReference
  2
*D10
 10
0.0
 20
0.0
 30
0.0
  0
INSERT
  5
28A
330
1F
100
AcDbEntity
  8
1
100
AcDbBlockReference
  2
*D11
 10
0.0
 20
0.0
 30
0.0
  0
ENDSEC
  0
SECTION
  2
OBJECTS
  0
DICTIONARY
  5
C
330
0
100
AcDbDictionary
281
     1
  3
ACAD_GROUP
350
D
  3
ACAD_LAYOUT
350
1A
  3
ACAD_MATERIAL
350
3B
  3
ACAD_MLEADERSTYLE
350
28D
  3
ACAD_MLINESTYLE
350
17
  3
ACAD_PLOTSETTINGS
350
19
  3
ACAD_PLOTSTYLENAME
350
E
  3
ACAD_VISUALSTYLE
350
2A
  3
AcDbVariableDictionary
350
28B
  0
DICTIONARY
  5
D
102
{ACAD_REACTORS
330
C
102
}
330
C
100
AcDbDictionary
281
     1
  0
DICTIONARY
  5
1A
102
{ACAD_REACTORS
330
C
102
}
330
C
100
AcDbDictionary
281
     1
  3
Layout1
350
1E
  3
Layout2
350
26
  3
Model
350
22
  0
DICTIONARY
  5
3B
102
{ACAD_REACTORS
330
C
102
}
330
C
100
AcDbDictionary
281
     1
  3
ByBlock
350
3D
  3
ByLayer
350
3C
  3
Global
350
3E
  0
DICTIONARY
  5
28D
102
{ACAD_REACTORS
330
C
102
}
330
C
100
AcDbDictionary
281
     1
  0
DICTIONARY
  5
17
102
{ACAD_REACTORS
330
C
102
}
330
C
100
AcDbDictionary
281
     1
  3
Standard
350
18
  0
DICTIONARY
  5
19
102
{ACAD_REACTORS
330
C
102
}
330
C
100
AcDbDictionary
281
     1
  0
ACDBDICTIONARYWDFLT
  5
E
102
{ACAD_REACTORS
330
C
102
}
330
C
100
AcDbDictionary
281
     1
  3
Normal
350
F
100
AcDbDictionaryWithDefault
340
F
  0
DICTIONARY
  5
2A
102
{ACAD_REACTORS
330
C
102
}
330
C
100
AcDbDictionary
281
     1
  3
2dWireframe
350
2F
  3
3D Hidden
350
31
  3
3dWireframe
350
30
  3
Basic
350
32
  3
Brighten
350
36
  3
ColorChange
350
3A
  3
Conceptual
350
34
  3
Dim
350
35
  3
Facepattern
350
39
  3
Flat
350
2B
  3
FlatWithEdges
350
2C
  3
Gouraud
350
2D
  3
GouraudWithEdges
350
2E
  3
Linepattern
350
38
  3
Realistic
350
33
  3
Thicken
350
37
  0
DICTIONARY
  5
28B
102
{ACAD_REACTORS
330
C
102
}
330
C
100
AcDbDictionary
281
     1
  3
DIMASSOC
350
28E
  3
HIDETEXT
350
28F
  0
LAYOUT
  5
1E
102
{ACAD_REACTORS
330
1A
102
}
330
1A
100
AcDbPlotSettings
  1

  2
none_device
  4

  6

 40
0.0
 41
0.0
 42
0.0
 43
0.0
 44
0.0
 45
0.0
 46
0.0
 47
0.0
 48
0.0
 49
0.0
140
0.0
141
0.0
142
1.0
143
1.0
 70
   688
 72
     0
 73
     0
 74
     5
  7

 75
    16
147
1.0
148
0.0
149
0.0
100
AcDbLayout
  1
Layout1
 70
     1
 71
     1
 10
0.0
 20
0.0
 11
12.0
 21
9.0
 12
0.0
 22
0.0
 32
0.0
 14
1.00000000000000E+20
 24
1.00000000000000E+20
 34
1.00000000000000E+20
 15
-1.00000000000000E+20
 25
-1.00000000000000E+20
 35
-1.00000000000000E+20
146
0.0
 13
0.0
 23
0.0
 33
0.0
 16
1.0
 26
0.0
 36
0.0
 17
0.0
 27
1.0
 37
0.0
 76
     0
330
1B
  0
LAYOUT
  5
26
102
{ACAD_REACTORS
330
1A
102
}
330
1A
100
AcDbPlotSettings
  1

  2
none_device
  4

  6

 40
0.0
 41
0.0
 42
0.0
 43
0.0
 44
0.0
 45
0.0
 46
0.0
 47
0.0
 48
0.0
 49
0.0
140
0.0
141
0.0
142
1.0
143
1.0
 70
   688
 72
     0
 73
     0
 74
     5
  7

 75
    16
147
1.0
148
0.0
149
0.0
100
AcDbLayout
  1
Layout2
 70
     1
 71
     2
 10
0.0
 20
0.0
 11
0.0
 21
0.0
 12
0.0
 22
0.0
 32
0.0
 14
0.0
 24
0.0
 34
0.0
 15
0.0
 25
0.0
 35
0.0
146
0.0
 13
0.0
 23
0.0
 33
0.0
 16
1.0
 26
0.0
 36
0.0
 17
0.0
 27
1.0
 37
0.0
 76
     0
330
23
  0
LAYOUT
  5
22
102
{ACAD_REACTORS
330
1A
102
}
330
1A
100
AcDbPlotSettings
  1

  2
none_device
  4

  6

 40
0.0
 41
0.0
 42
0.0
 43
0.0
 44
0.0
 45
0.0
 46
0.0
 47
0.0
 48
0.0
 49
0.0
140
0.0
141
0.0
142
1.0
143
1.0
 70
  1712
 72
     0
 73
     0
 74
     0
  7

 75
     0
147
1.0
148
0.0
149
0.0
100
AcDbLayout
  1
Model
 70
     1
 71
     0
 10
0.0
 20
0.0
 11
12.0
 21
9.0
 12
0.0
 22
0.0
 32
0.0
 14
0.0
 24
-0.00000000000004
 34
0.0
 15
210.0
 25
297.0
 35
0.0
146
0.0
 13
0.0
 23
0.0
 33
0.0
 16
1.0
 26
0.0
 36
0.0
 17
0.0
 27
1.0
 37
0.0
 76
     0
330
1F
331
29
  0
MATERIAL
  5
3D
102
{ACAD_REACTORS
330
3B
102
}
102
{ACAD_XDICTIONARY
360
2B2
102
}
330
3B
100
AcDbMaterial
  1
ByBlock
  0
MATERIAL
  5
3C
102
{ACAD_REACTORS
330
3B
102
}
102
{ACAD_XDICTIONARY
360
2B0
102
}
330
3B
100
AcDbMaterial
  1
ByLayer
  0
MATERIAL
  5
3E
102
{ACAD_REACTORS
330
3B
102
}
102
{ACAD_XDICTIONARY
360
2B4
102
}
330
3B
100
AcDbMaterial
  1
Global
  0
MLINESTYLE
  5
18
102
{ACAD_REACTORS
330
17
102
}
330
17
100
AcDbMlineStyle
  2
Standard
 70
     0
  3

 62
   256
 51
90.0
 52
90.0
 71
     2
 49
0.5
 62
   256
  6
BYLAYER
 49
-0.5
 62
   256
  6
BYLAYER
  0
ACDBPLACEHOLDER
  5
F
102
{ACAD_REACTORS
330
E
102
}
330
E
  0
VISUALSTYLE
  5
2F
102
{ACAD_REACTORS
330
2A
102
}
102
{ACAD_XDICTIONARY
360
298
102
}
330
2A
100
AcDbVisualStyle
  2
2dWireframe
 70
     4
 71
     0
 72
     2
 73
     0
 90
        0
 40
-0.6
 41
-30.0
 62
     5
 63
     7
 74
     1
 91
        4
 64
     7
 65
   257
 75
     1
175
     1
 42
1.0
 92
        0
 66
   257
 43
1.0
 76
     1
 77
     6
 78
     2
 67
     7
 79
     5
170
     0
171
     0
290
     0
174
     0
 93
        1
 44
0.0
173
     0
291
     0
 45
0.0
1001
ACAD
1000
AcDbSavedByObjectVersion
1070
     0
  0
VISUALSTYLE
  5
31
102
{ACAD_REACTORS
330
2A
102
}
102
{ACAD_XDICTIONARY
360
29C
102
}
330
2A
100
AcDbVisualStyle
  2
3D Hidden
 70
     6
 71
     1
 72
     2
 73
     2
 90
        0
 40
-0.6
 41
-30.0
 62
     5
 63
     7
 74
     2
 91
        2
 64
     7
 65
   257
 75
     2
175
     1
 42
40.0
 92
        0
 66
   257
 43
1.0
 76
     1
 77
     6
 78
     2
 67
     7
 79
     3
170
     0
171
     0
290
     0
174
     0
 93
        1
 44
0.0
173
     0
291
     0
 45
0.0
1001
ACAD
1000
AcDbSavedByObjectVersion
1070
     0
  0
VISUALSTYLE
  5
30
102
{ACAD_REACTORS
330
2A
102
}
102
{ACAD_XDICTIONARY
360
29A
102
}
330
2A
100
AcDbVisualStyle
  2
3dWireframe
 70
     5
 71
     0
 72
     2
 73
     0
 90
        0
 40
-0.6
 41
-30.0
 62
     5
 63
     7
 74
     1
 91
        4
 64
     7
 65
   257
 75
     1
175
     1
 42
1.0
 92
        0
 66
   257
 43
1.0
 76
     1
 77
     6
 78
     2
 67
     7
 79
     5
170
     0
171
     0
290
     0
174
     0
 93
        1
 44
0.0
173
     0
291
     0
 45
0.0
1001
ACAD
1000
AcDbSavedByObjectVersion
1070
     0
  0
VISUALSTYLE
  5
32
102
{ACAD_REACTORS
330
2A
102
}
102
{ACAD_XDICTIONARY
360
29E
102
}
330
2A
100
AcDbVisualStyle
  2
Basic
 70
     7
 71
     1
 72
     0
 73
     1
 90
        0
 40
-0.6
 41
-30.0
 62
     5
 63
     7
 74
     0
 91
        4
 64
     7
 65
   257
 75
     1
175
     1
 42
1.0
 92
        8
 66
     7
 43
1.0
 76
     1
 77
     6
 78
     2
 67
     7
 79
     5
170
     0
171
     0
290
     0
174
     0
 93
        1
 44
0.0
173
     0
291
     1
 45
0.0
1001
ACAD
1000
AcDbSavedByObjectVersion
1070
     0
  0
VISUALSTYLE
  5
36
102
{ACAD_REACTORS
330
2A
102
}
102
{ACAD_XDICTIONARY
360
2A6
102
}
330
2A
100
AcDbVisualStyle
  2
Brighten
 70
    12
 71
     2
 72
     2
 73
     0
 90
        0
 40
-0.6
 41
-30.0
 62
     5
 63
     7
 74
     1
 91
        4
 64
     7
 65
   257
 75
     1
175
     1
 42
1.0
 92
        8
 66
     7
 43
1.0
 76
     1
 77
     6
 78
     2
 67
     7
 79
     5
170
     0
171
     0
290
     0
174
     0
 93
        1
 44
50.0
173
     0
291
     1
 45
0.0
1001
ACAD
1000
AcDbSavedByObjectVersion
1070
     0
  0
VISUALSTYLE
  5
3A
102
{ACAD_REACTORS
330
2A
102
}
102
{ACAD_XDICTIONARY
360
2AE
102
}
330
2A
100
AcDbVisualStyle
  2
ColorChange
 70
    16
 71
     2
 72
     2
 73
     3
 90
        0
 40
-0.6
 41
-30.0
 62
     5
 63
     8
 74
     1
 91
        4
 64
     7
 65
   257
 75
     1
175
     1
 42
1.0
 92
        8
 66
     8
 43
1.0
 76
     1
 77
     6
 78
     2
 67
     7
 79
     5
170
     0
171
     0
290
     0
174
     0
 93
        1
 44
0.0
173
     0
291
     1
 45
0.0
1001
ACAD
1000
AcDbSavedByObjectVersion
1070
     0
  0
VISUALSTYLE
  5
34
102
{ACAD_REACTORS
330
2A
102
}
102
{ACAD_XDICTIONARY
360
2A2
102
}
330
2A
100
AcDbVisualStyle
  2
Conceptual
 70
     9
 71
     3
 72
     2
 73
     0
 90
        0
 40
-0.6
 41
-30.0
 62
     5
 63
     7
 74
     2
 91
        2
 64
     7
 65
   257
 75
     1
175
     1
 42
40.0
 92
        8
 66
     7
 43
1.0
 76
     1
 77
     6
 78
     2
 67
     7
 79
     3
170
     0
171
     0
290
     0
174
     0
 93
        1
 44
0.0
173
     0
291
     0
 45
0.0
1001
ACAD
1000
AcDbSavedByObjectVersion
1070
     0
  0
VISUALSTYLE
  5
35
102
{ACAD_REACTORS
330
2A
102
}
102
{ACAD_XDICTIONARY
360
2A4
102
}
330
2A
100
AcDbVisualStyle
  2
Dim
 70
    11
 71
     2
 72
     2
 73
     0
 90
        0
 40
-0.6
 41
-30.0
 62
     5
 63
     7
 74
     1
 91
        4
 64
     7
 65
   257
 75
     1
175
     1
 42
1.0
 92
        8
 66
     7
 43
1.0
 76
     1
 77
     6
 78
     2
 67
     7
 79
     5
170
     0
171
     0
290
     0
174
     0
 93
        1
 44
-50.0
173
     0
291
     1
 45
0.0
1001
ACAD
1000
AcDbSavedByObjectVersion
1070
     0
  0
VISUALSTYLE
  5
39
102
{ACAD_REACTORS
330
2A
102
}
102
{ACAD_XDICTIONARY
360
2AC
102
}
330
2A
100
AcDbVisualStyle
  2
Facepattern
 70
    15
 71
     2
 72
     2
 73
     0
 90
        0
 40
-0.6
 41
-30.0
 62
     5
 63
     7
 74
     1
 91
        4
 64
     7
 65
   257
 75
     1
175
     1
 42
1.0
 92
        8
 66
     7
 43
1.0
 76
     1
 77
     6
 78
     2
 67
     7
 79
     5
170
     0
171
     0
290
     0
174
     0
 93
        1
 44
0.0
173
     0
291
     1
 45
0.0
1001
ACAD
1000
AcDbSavedByObjectVersion
1070
     0
  0
VISUALSTYLE
  5
2B
102
{ACAD_REACTORS
330
2A
102
}
102
{ACAD_XDICTIONARY
360
290
102
}
330
2A
100
AcDbVisualStyle
  2
Flat
 70
     0
 71
     2
 72
     1
 73
     1
 90
        2
 40
-0.6
 41
30.0
 62
     5
 63
     7
 74
     0
 91
        4
 64
     7
 65
   257
 75
     1
175
     1
 42
1.0
 92
        8
 66
     7
 43
1.0
 76
     1
 77
     6
 78
     2
 67
     7
 79
     5
170
     0
171
     0
290
     0
174
     0
 93
       13
 44
0.0
173
     0
291
     1
 45
0.0
1001
ACAD
1000
AcDbSavedByObjectVersion
1070
     0
  0
VISUALSTYLE
  5
2C
102
{ACAD_REACTORS
330
2A
102
}
102
{ACAD_XDICTIONARY
360
292
102
}
330
2A
100
AcDbVisualStyle
  2
FlatWithEdges
 70
     1
 71
     2
 72
     1
 73
     1
 90
        2
 40
-0.6
 41
30.0
 62
     5
 63
     7
 74
     1
 91
        4
 64
     7
 65
   257
 75
     1
175
     1
 42
1.0
 92
        0
 66
   257
 43
1.0
 76
     1
 77
     6
 78
     2
 67
     7
 79
     5
170
     0
171
     0
290
     0
174
     0
 93
       13
 44
0.0
173
     0
291
     1
 45
0.0
1001
ACAD
1000
AcDbSavedByObjectVersion
1070
     0
  0
VISUALSTYLE
  5
2D
102
{ACAD_REACTORS
330
2A
102
}
102
{ACAD_XDICTIONARY
360
294
102
}
330
2A
100
AcDbVisualStyle
  2
Gouraud
 70
     2
 71
     2
 72
     2
 73
     1
 90
        2
 40
-0.6
 41
30.0
 62
     5
 63
     7
 74
     0
 91
        4
 64
     7
 65
   257
 75
     1
175
     1
 42
1.0
 92
        0
 66
     7
 43
1.0
 76
     1
 77
     6
 78
     2
 67
     7
 79
     5
170
     0
171
     0
290
     0
174
     0
 93
       13
 44
0.0
173
     0
291
     1
 45
0.0
1001
ACAD
1000
AcDbSavedByObjectVersion
1070
     0
  0
VISUALSTYLE
  5
2E
102
{ACAD_REACTORS
330
2A
102
}
102
{ACAD_XDICTIONARY
360
296
102
}
330
2A
100
AcDbVisualStyle
  2
GouraudWithEdges
 70
     3
 71
     2
 72
     2
 73
     1
 90
        2
 40
-0.6
 41
30.0
 62
     5
 63
     7
 74
     1
 91
        4
 64
     7
 65
   257
 75
     1
175
     1
 42
1.0
 92
        0
 66
   257
 43
1.0
 76
     1
 77
     6
 78
     2
 67
     7
 79
     5
170
     0
171
     0
290
     0
174
     0
 93
       13
 44
0.0
173
     0
291
     1
 45
0.0
1001
ACAD
1000
AcDbSavedByObjectVersion
1070
     0
  0
VISUALSTYLE
  5
38
102
{ACAD_REACTORS
330
2A
102
}
102
{ACAD_XDICTIONARY
360
2AA
102
}
330
2A
100
AcDbVisualStyle
  2
Linepattern
 70
    14
 71
     2
 72
     2
 73
     0
 90
        0
 40
-0.6
 41
-30.0
 62
     5
 63
     7
 74
     1
 91
        4
 64
     7
 65
   257
 75
     7
175
     7
 42
1.0
 92
        8
 66
     7
 43
1.0
 76
     1
 77
     6
 78
     2
 67
     7
 79
     5
170
     0
171
     0
290
     0
174
     0
 93
        1
 44
0.0
173
     0
291
     1
 45
0.0
1001
ACAD
1000
AcDbSavedByObjectVersion
1070
     0
  0
VISUALSTYLE
  5
33
102
{ACAD_REACTORS
330
2A
102
}
102
{ACAD_XDICTIONARY
360
2A0
102
}
330
2A
100
AcDbVisualStyle
  2
Realistic
 70
     8
 71
     2
 72
     2
 73
     0
 90
        0
 40
-0.6
 41
-30.0
 62
     5
 63
     7
 74
     1
 91
        0
 64
     7
 65
   257
 75
     1
175
     1
 42
1.0
 92
        8
 66
     8
 43
1.0
 76
     1
 77
     6
 78
     2
 67
     7
 79
     5
170
     0
171
     0
290
     0
174
     0
 93
       13
 44
0.0
173
     0
291
     0
 45
0.0
1001
ACAD
1000
AcDbSavedByObjectVersion
1070
     0
  0
VISUALSTYLE
  5
37
102
{ACAD_REACTORS
330
2A
102
}
102
{ACAD_XDICTIONARY
360
2A8
102
}
330
2A
100
AcDbVisualStyle
  2
Thicken
 70
    13
 71
     2
 72
     2
 73
     0
 90
        0
 40
-0.6
 41
-30.0
 62
     5
 63
     7
 74
     1
 91
        4
 64
     7
 65
   257
 75
     1
175
     1
 42
1.0
 92
       12
 66
     7
 43
1.0
 76
     1
 77
     6
 78
     2
 67
     7
 79
     5
170
     0
171
     0
290
     0
174
     0
 93
        1
 44
0.0
173
     0
291
     1
 45
0.0
1001
ACAD
1000
AcDbSavedByObjectVersion
1070
     0
  0
DICTIONARYVAR
  5
28E
102
{ACAD_REACTORS
330
28B
102
}
330
28B
100
DictionaryVariables
280
     0
  1
2
  0
DICTIONARYVAR
  5
28F
102
{ACAD_REACTORS
330
28B
102
}
330
28B
100
DictionaryVariables
280
     0
  1
1
  0
DICTIONARY
  5
2B2
330
3D
100
AcDbDictionary
280
     1
281
     1
  3
ACAD_XREC_ROUNDTRIP
360
2B3
  0
DICTIONARY
  5
2B0
330
3C
100
AcDbDictionary
280
     1
281
     1
  3
ACAD_XREC_ROUNDTRIP
360
2B1
  0
DICTIONARY
  5
2B4
330
3E
100
AcDbDictionary
280
     1
281
     1
  3
ACAD_XREC_ROUNDTRIP
360
2B5
  0
DICTIONARY
  5
298
330
2F
100
AcDbDictionary
280
     1
281
     1
  3
ACAD_XREC_ROUNDTRIP
360
299
  0
DICTIONARY
  5
29C
330
31
100
AcDbDictionary
280
     1
281
     1
  3
ACAD_XREC_ROUNDTRIP
360
29D
  0
DICTIONARY
  5
29A
330
30
100
AcDbDictionary
280
     1
281
     1
  3
ACAD_XREC_ROUNDTRIP
360
29B
  0
DICTIONARY
  5
29E
330
32
100
AcDbDictionary
280
     1
281
     1
  3
ACAD_XREC_ROUNDTRIP
360
29F
  0
DICTIONARY
  5
2A6
330
36
100
AcDbDictionary
280
     1
281
     1
  3
ACAD_XREC_ROUNDTRIP
360
2A7
  0
DICTIONARY
  5
2AE
330
3A
100
AcDbDictionary
280
     1
281
     1
  3
ACAD_XREC_ROUNDTRIP
360
2AF
  0
DICTIONARY
  5
2A2
330
34
100
AcDbDictionary
280
     1
281
     1
  3
ACAD_XREC_ROUNDTRIP
360
2A3
  0
DICTIONARY
  5
2A4
330
35
100
AcDbDictionary
280
     1
281
     1
  3
ACAD_XREC_ROUNDTRIP
360
2A5
  0
DICTIONARY
  5
2AC
330
39
100
AcDbDictionary
280
     1
281
     1
  3
ACAD_XREC_ROUNDTRIP
360
2AD
  0
DICTIONARY
  5
290
330
2B
100
AcDbDictionary
280
     1
281
     1
  3
ACAD_XREC_ROUNDTRIP
360
291
  0
DICTIONARY
  5
292
330
2C
100
AcDbDictionary
280
     1
281
     1
  3
ACAD_XREC_ROUNDTRIP
360
293
  0
DICTIONARY
  5
294
330
2D
100
AcDbDictionary
280
     1
281
     1
  3
ACAD_XREC_ROUNDTRIP
360
295
  0
DICTIONARY
  5
296
330
2E
100
AcDbDictionary
280
     1
281
     1
  3
ACAD_XREC_ROUNDTRIP
360
297
  0
DICTIONARY
  5
2AA
330
38
100
AcDbDictionary
280
     1
281
     1
  3
ACAD_XREC_ROUNDTRIP
360
2AB
  0
DICTIONARY
  5
2A0
330
33
100
AcDbDictionary
280
     1
281
     1
  3
ACAD_XREC_ROUNDTRIP
360
2A1
  0
DICTIONARY
  5
2A8
330
37
100
AcDbDictionary
280
     1
281
     1
  3
ACAD_XREC_ROUNDTRIP
360
2A9
  0
XRECORD
  5
2B3
102
{ACAD_REACTORS
330
2B2
102
}
330
2B2
100
AcDbXrecord
280
     1
102
MATERIAL
148
0.0
149
0.0
149
0.0
 93
        0
 94
      127
282
     0
 72
     1
 77
     1
171
     1
175
     1
179
     1
273
     0
  0
XRECORD
  5
2B1
102
{ACAD_REACTORS
330
2B0
102
}
330
2B0
100
AcDbXrecord
280
     1
102
MATERIAL
148
0.0
149
0.0
149
0.0
 93
        0
 94
      127
282
     0
 72
     1
 77
     1
171
     1
175
     1
179
     1
273
     0
  0
XRECORD
  5
2B5
102
{ACAD_REACTORS
330
2B4
102
}
330
2B4
100
AcDbXrecord
280
     1
102
MATERIAL
148
0.0
149
0.0
149
0.0
 93
        0
 94
      127
282
     0
 72
     1
 77
     1
171
     1
175
     1
179
     1
273
     0
  0
XRECORD
  5
299
102
{ACAD_REACTORS
330
298
102
}
330
298
100
AcDbXrecord
280
     1
102
RTVSPropertyOp0
 70
     1
102
RTVSPropertyOp1
 70
     1
102
RTVSPropertyOp2
 70
     1
102
RTVSPropertyOp3
 70
     1
102
RTVSPropertyOp4
 70
     1
102
RTVSPropertyOp5
 70
     1
102
RTVSPropertyOp6
 70
     1
102
RTVSPropertyOp7
 70
     1
102
RTVSPropertyOp8
 70
     1
102
RTVSPropertyOp9
 70
     1
102
RTVSPropertyOp10
 70
     1
102
RTVSPropertyOp11
 70
     1
102
RTVSPropertyOp12
 70
     1
102
RTVSPropertyOp13
 70
     1
102
RTVSPropertyOp14
 70
     1
102
RTVSPropertyOp15
 70
     1
102
RTVSPropertyOp16
 70
     1
102
RTVSPropertyOp17
 70
     1
102
RTVSPropertyOp18
 70
     1
102
RTVSPropertyOp19
 70
     1
102
RTVSPropertyOp20
 70
     1
102
RTVSPropertyOp21
 70
     1
102
RTVSPropertyOp22
 70
     1
102
RTVSPropertyOp23
 70
     1
102
RTVSPropertyOp24
 70
     1
102
RTVSPropertyOp25
 70
     1
102
RTVSPropertyOp26
 70
     1
102
RTVSPropertyOp27
 70
     1
102
RTVSPropertyOp28
 70
     1
102
RTVSPropertyOp29
 70
     1
102
RTVSPropertyOp30
 70
     1
102
RTVSPropertyOp31
 70
     1
102
RTVSPropertyOp32
 70
     1
  0
XRECORD
  5
29D
102
{ACAD_REACTORS
330
29C
102
}
330
29C
100
AcDbXrecord
280
     1
102
RTVSPropertyOp0
 70
     1
102
RTVSPropertyOp1
 70
     1
102
RTVSPropertyOp2
 70
     1
102
RTVSPropertyOp3
 70
     1
102
RTVSPropertyOp4
 70
     1
102
RTVSPropertyOp5
 70
     1
102
RTVSPropertyOp6
 70
     1
102
RTVSPropertyOp7
 70
     1
102
RTVSPropertyOp8
 70
     1
102
RTVSPropertyOp9
 70
     1
102
RTVSPropertyOp10
 70
     1
102
RTVSPropertyOp11
 70
     1
102
RTVSPropertyOp12
 70
     1
102
RTVSPropertyOp13
 70
     1
102
RTVSPropertyOp14
 70
     1
102
RTVSPropertyOp15
 70
     1
102
RTVSPropertyOp16
 70
     1
102
RTVSPropertyOp17
 70
     1
102
RTVSPropertyOp18
 70
     1
102
RTVSPropertyOp19
 70
     1
102
RTVSPropertyOp20
 70
     1
102
RTVSPropertyOp21
 70
     1
102
RTVSPropertyOp22
 70
     1
102
RTVSPropertyOp23
 70
     1
102
RTVSPropertyOp24
 70
     1
102
RTVSPropertyOp25
 70
     1
102
RTVSPropertyOp26
 70
     1
102
RTVSPropertyOp27
 70
     1
102
RTVSPropertyOp28
 70
     1
102
RTVSPropertyOp29
 70
     1
102
RTVSPropertyOp30
 70
     1
102
RTVSPropertyOp31
 70
     1
102
RTVSPropertyOp32
 70
     1
  0
XRECORD
  5
29B
102
{ACAD_REACTORS
330
29A
102
}
330
29A
100
AcDbXrecord
280
     1
102
RTVSPropertyOp0
 70
     1
102
RTVSPropertyOp1
 70
     1
102
RTVSPropertyOp2
 70
     1
102
RTVSPropertyOp3
 70
     1
102
RTVSPropertyOp4
 70
     1
102
RTVSPropertyOp5
 70
     1
102
RTVSPropertyOp6
 70
     1
102
RTVSPropertyOp7
 70
     1
102
RTVSPropertyOp8
 70
     1
102
RTVSPropertyOp9
 70
     1
102
RTVSPropertyOp10
 70
     1
102
RTVSPropertyOp11
 70
     1
102
RTVSPropertyOp12
 70
     1
102
RTVSPropertyOp13
 70
     1
102
RTVSPropertyOp14
 70
     1
102
RTVSPropertyOp15
 70
     1
102
RTVSPropertyOp16
 70
     1
102
RTVSPropertyOp17
 70
     1
102
RTVSPropertyOp18
 70
     1
102
RTVSPropertyOp19
 70
     1
102
RTVSPropertyOp20
 70
     1
102
RTVSPropertyOp21
 70
     1
102
RTVSPropertyOp22
 70
     1
102
RTVSPropertyOp23
 70
     1
102
RTVSPropertyOp24
 70
     1
102
RTVSPropertyOp25
 70
     1
102
RTVSPropertyOp26
 70
     1
102
RTVSPropertyOp27
 70
     1
102
RTVSPropertyOp28
 70
     1
102
RTVSPropertyOp29
 70
     1
102
RTVSPropertyOp30
 70
     1
102
RTVSPropertyOp31
 70
     1
102
RTVSPropertyOp32
 70
     1
  0
XRECORD
  5
29F
102
{ACAD_REACTORS
330
29E
102
}
330
29E
100
AcDbXrecord
280
     1
102
RTVSPropertyOp0
 70
     1
102
RTVSPropertyOp1
 70
     1
102
RTVSPropertyOp2
 70
     1
102
RTVSPropertyOp3
 70
     1
102
RTVSPropertyOp4
 70
     1
102
RTVSPropertyOp5
 70
     1
102
RTVSPropertyOp6
 70
     1
102
RTVSPropertyOp7
 70
     1
102
RTVSPropertyOp8
 70
     1
102
RTVSPropertyOp9
 70
     1
102
RTVSPropertyOp10
 70
     1
102
RTVSPropertyOp11
 70
     1
102
RTVSPropertyOp12
 70
     1
102
RTVSPropertyOp13
 70
     1
102
RTVSPropertyOp14
 70
     1
102
RTVSPropertyOp15
 70
     1
102
RTVSPropertyOp16
 70
     1
102
RTVSPropertyOp17
 70
     1
102
RTVSPropertyOp18
 70
     1
102
RTVSPropertyOp19
 70
     1
102
RTVSPropertyOp20
 70
     1
102
RTVSPropertyOp21
 70
     1
102
RTVSPropertyOp22
 70
     1
102
RTVSPropertyOp23
 70
     1
102
RTVSPropertyOp24
 70
     1
102
RTVSPropertyOp25
 70
     1
102
RTVSPropertyOp26
 70
     1
102
RTVSPropertyOp27
 70
     1
102
RTVSPropertyOp28
 70
     1
102
RTVSPropertyOp29
 70
     1
102
RTVSPropertyOp30
 70
     1
102
RTVSPropertyOp31
 70
     1
102
RTVSPropertyOp32
 70
     1
  0
XRECORD
  5
2A7
102
{ACAD_REACTORS
330
2A6
102
}
330
2A6
100
AcDbXrecord
280
     1
102
RTVSPropertyOp0
 70
     1
102
RTVSPropertyOp1
 70
     1
102
RTVSPropertyOp2
 70
     1
102
RTVSPropertyOp3
 70
     1
102
RTVSPropertyOp4
 70
     1
102
RTVSPropertyOp5
 70
     1
102
RTVSPropertyOp6
 70
     1
102
RTVSPropertyOp7
 70
     1
102
RTVSPropertyOp8
 70
     1
102
RTVSPropertyOp9
 70
     1
102
RTVSPropertyOp10
 70
     1
102
RTVSPropertyOp11
 70
     1
102
RTVSPropertyOp12
 70
     1
102
RTVSPropertyOp13
 70
     1
102
RTVSPropertyOp14
 70
     1
102
RTVSPropertyOp15
 70
     1
102
RTVSPropertyOp16
 70
     1
102
RTVSPropertyOp17
 70
     1
102
RTVSPropertyOp18
 70
     1
102
RTVSPropertyOp19
 70
     1
102
RTVSPropertyOp20
 70
     1
102
RTVSPropertyOp21
 70
     1
102
RTVSPropertyOp22
 70
     1
102
RTVSPropertyOp23
 70
     1
102
RTVSPropertyOp24
 70
     1
102
RTVSPropertyOp25
 70
     1
102
RTVSPropertyOp26
 70
     1
102
RTVSPropertyOp27
 70
     1
102
RTVSPropertyOp28
 70
     1
102
RTVSPropertyOp29
 70
     1
102
RTVSPropertyOp30
 70
     1
102
RTVSPropertyOp31
 70
     1
102
RTVSPropertyOp32
 70
     1
  0
XRECORD
  5
2AF
102
{ACAD_REACTORS
330
2AE
102
}
330
2AE
100
AcDbXrecord
280
     1
102
RTVSPropertyOp0
 70
     1
102
RTVSPropertyOp1
 70
     1
102
RTVSPropertyOp2
 70
     1
102
RTVSPropertyOp3
 70
     1
102
RTVSPropertyOp4
 70
     1
102
RTVSPropertyOp5
 70
     1
102
RTVSPropertyOp6
 70
     1
102
RTVSPropertyOp7
 70
     1
102
RTVSPropertyOp8
 70
     1
102
RTVSPropertyOp9
 70
     1
102
RTVSPropertyOp10
 70
     1
102
RTVSPropertyOp11
 70
     1
102
RTVSPropertyOp12
 70
     1
102
RTVSPropertyOp13
 70
     1
102
RTVSPropertyOp14
 70
     1
102
RTVSPropertyOp15
 70
     1
102
RTVSPropertyOp16
 70
     1
102
RTVSPropertyOp17
 70
     1
102
RTVSPropertyOp18
 70
     1
102
RTVSPropertyOp19
 70
     1
102
RTVSPropertyOp20
 70
     1
102
RTVSPropertyOp21
 70
     1
102
RTVSPropertyOp22
 70
     1
102
RTVSPropertyOp23
 70
     1
102
RTVSPropertyOp24
 70
     1
102
RTVSPropertyOp25
 70
     1
102
RTVSPropertyOp26
 70
     1
102
RTVSPropertyOp27
 70
     1
102
RTVSPropertyOp28
 70
     1
102
RTVSPropertyOp29
 70
     1
102
RTVSPropertyOp30
 70
     1
102
RTVSPropertyOp31
 70
     1
102
RTVSPropertyOp32
 70
     1
  0
XRECORD
  5
2A3
102
{ACAD_REACTORS
330
2A2
102
}
330
2A2
100
AcDbXrecord
280
     1
102
RTVSPropertyOp0
 70
     1
102
RTVSPropertyOp1
 70
     1
102
RTVSPropertyOp2
 70
     1
102
RTVSPropertyOp3
 70
     1
102
RTVSPropertyOp4
 70
     1
102
RTVSPropertyOp5
 70
     1
102
RTVSPropertyOp6
 70
     1
102
RTVSPropertyOp7
 70
     1
102
RTVSPropertyOp8
 70
     1
102
RTVSPropertyOp9
 70
     1
102
RTVSPropertyOp10
 70
     1
102
RTVSPropertyOp11
 70
     1
102
RTVSPropertyOp12
 70
     1
102
RTVSPropertyOp13
 70
     1
102
RTVSPropertyOp14
 70
     1
102
RTVSPropertyOp15
 70
     1
102
RTVSPropertyOp16
 70
     1
102
RTVSPropertyOp17
 70
     1
102
RTVSPropertyOp18
 70
     1
102
RTVSPropertyOp19
 70
     1
102
RTVSPropertyOp20
 70
     1
102
RTVSPropertyOp21
 70
     1
102
RTVSPropertyOp22
 70
     1
102
RTVSPropertyOp23
 70
     1
102
RTVSPropertyOp24
 70
     1
102
RTVSPropertyOp25
 70
     1
102
RTVSPropertyOp26
 70
     1
102
RTVSPropertyOp27
 70
     1
102
RTVSPropertyOp28
 70
     1
102
RTVSPropertyOp29
 70
     1
102
RTVSPropertyOp30
 70
     1
102
RTVSPropertyOp31
 70
     1
102
RTVSPropertyOp32
 70
     1
  0
XRECORD
  5
2A5
102
{ACAD_REACTORS
330
2A4
102
}
330
2A4
100
AcDbXrecord
280
     1
102
RTVSPropertyOp0
 70
     1
102
RTVSPropertyOp1
 70
     1
102
RTVSPropertyOp2
 70
     1
102
RTVSPropertyOp3
 70
     1
102
RTVSPropertyOp4
 70
     1
102
RTVSPropertyOp5
 70
     1
102
RTVSPropertyOp6
 70
     1
102
RTVSPropertyOp7
 70
     1
102
RTVSPropertyOp8
 70
     1
102
RTVSPropertyOp9
 70
     1
102
RTVSPropertyOp10
 70
     1
102
RTVSPropertyOp11
 70
     1
102
RTVSPropertyOp12
 70
     1
102
RTVSPropertyOp13
 70
     1
102
RTVSPropertyOp14
 70
     1
102
RTVSPropertyOp15
 70
     1
102
RTVSPropertyOp16
 70
     1
102
RTVSPropertyOp17
 70
     1
102
RTVSPropertyOp18
 70
     1
102
RTVSPropertyOp19
 70
     1
102
RTVSPropertyOp20
 70
     1
102
RTVSPropertyOp21
 70
     1
102
RTVSPropertyOp22
 70
     1
102
RTVSPropertyOp23
 70
     1
102
RTVSPropertyOp24
 70
     1
102
RTVSPropertyOp25
 70
     1
102
RTVSPropertyOp26
 70
     1
102
RTVSPropertyOp27
 70
     1
102
RTVSPropertyOp28
 70
     1
102
RTVSPropertyOp29
 70
     1
102
RTVSPropertyOp30
 70
     1
102
RTVSPropertyOp31
 70
     1
102
RTVSPropertyOp32
 70
     1
  0
XRECORD
  5
2AD
102
{ACAD_REACTORS
330
2AC
102
}
330
2AC
100
AcDbXrecord
280
     1
102
RTVSPropertyOp0
 70
     1
102
RTVSPropertyOp1
 70
     1
102
RTVSPropertyOp2
 70
     1
102
RTVSPropertyOp3
 70
     1
102
RTVSPropertyOp4
 70
     1
102
RTVSPropertyOp5
 70
     1
102
RTVSPropertyOp6
 70
     1
102
RTVSPropertyOp7
 70
     1
102
RTVSPropertyOp8
 70
     1
102
RTVSPropertyOp9
 70
     1
102
RTVSPropertyOp10
 70
     1
102
RTVSPropertyOp11
 70
     1
102
RTVSPropertyOp12
 70
     1
102
RTVSPropertyOp13
 70
     1
102
RTVSPropertyOp14
 70
     1
102
RTVSPropertyOp15
 70
     1
102
RTVSPropertyOp16
 70
     1
102
RTVSPropertyOp17
 70
     1
102
RTVSPropertyOp18
 70
     1
102
RTVSPropertyOp19
 70
     1
102
RTVSPropertyOp20
 70
     1
102
RTVSPropertyOp21
 70
     1
102
RTVSPropertyOp22
 70
     1
102
RTVSPropertyOp23
 70
     1
102
RTVSPropertyOp24
 70
     1
102
RTVSPropertyOp25
 70
     1
102
RTVSPropertyOp26
 70
     1
102
RTVSPropertyOp27
 70
     1
102
RTVSPropertyOp28
 70
     1
102
RTVSPropertyOp29
 70
     1
102
RTVSPropertyOp30
 70
     1
102
RTVSPropertyOp31
 70
     1
102
RTVSPropertyOp32
 70
     1
  0
XRECORD
  5
291
102
{ACAD_REACTORS
330
290
102
}
330
290
100
AcDbXrecord
280
     1
102
RTVSPropertyOp0
 70
     1
102
RTVSPropertyOp1
 70
     1
102
RTVSPropertyOp2
 70
     1
102
RTVSPropertyOp3
 70
     1
102
RTVSPropertyOp4
 70
     1
102
RTVSPropertyOp5
 70
     1
102
RTVSPropertyOp6
 70
     1
102
RTVSPropertyOp7
 70
     1
102
RTVSPropertyOp8
 70
     1
102
RTVSPropertyOp9
 70
     1
102
RTVSPropertyOp10
 70
     1
102
RTVSPropertyOp11
 70
     1
102
RTVSPropertyOp12
 70
     1
102
RTVSPropertyOp13
 70
     1
102
RTVSPropertyOp14
 70
     1
102
RTVSPropertyOp15
 70
     1
102
RTVSPropertyOp16
 70
     1
102
RTVSPropertyOp17
 70
     1
102
RTVSPropertyOp18
 70
     1
102
RTVSPropertyOp19
 70
     1
102
RTVSPropertyOp20
 70
     1
102
RTVSPropertyOp21
 70
     1
102
RTVSPropertyOp22
 70
     1
102
RTVSPropertyOp23
 70
     1
102
RTVSPropertyOp24
 70
     1
102
RTVSPropertyOp25
 70
     1
102
RTVSPropertyOp26
 70
     1
102
RTVSPropertyOp27
 70
     1
102
RTVSPropertyOp28
 70
     1
102
RTVSPropertyOp29
 70
     1
102
RTVSPropertyOp30
 70
     1
102
RTVSPropertyOp31
 70
     1
102
RTVSPropertyOp32
 70
     1
  0
XRECORD
  5
293
102
{ACAD_REACTORS
330
292
102
}
330
292
100
AcDbXrecord
280
     1
102
RTVSPropertyOp0
 70
     1
102
RTVSPropertyOp1
 70
     1
102
RTVSPropertyOp2
 70
     1
102
RTVSPropertyOp3
 70
     1
102
RTVSPropertyOp4
 70
     1
102
RTVSPropertyOp5
 70
     1
102
RTVSPropertyOp6
 70
     1
102
RTVSPropertyOp7
 70
     1
102
RTVSPropertyOp8
 70
     1
102
RTVSPropertyOp9
 70
     1
102
RTVSPropertyOp10
 70
     1
102
RTVSPropertyOp11
 70
     1
102
RTVSPropertyOp12
 70
     1
102
RTVSPropertyOp13
 70
     1
102
RTVSPropertyOp14
 70
     1
102
RTVSPropertyOp15
 70
     1
102
RTVSPropertyOp16
 70
     1
102
RTVSPropertyOp17
 70
     1
102
RTVSPropertyOp18
 70
     1
102
RTVSPropertyOp19
 70
     1
102
RTVSPropertyOp20
 70
     1
102
RTVSPropertyOp21
 70
     1
102
RTVSPropertyOp22
 70
     1
102
RTVSPropertyOp23
 70
     1
102
RTVSPropertyOp24
 70
     1
102
RTVSPropertyOp25
 70
     1
102
RTVSPropertyOp26
 70
     1
102
RTVSPropertyOp27
 70
     1
102
RTVSPropertyOp28
 70
     1
102
RTVSPropertyOp29
 70
     1
102
RTVSPropertyOp30
 70
     1
102
RTVSPropertyOp31
 70
     1
102
RTVSPropertyOp32
 70
     1
  0
XRECORD
  5
295
102
{ACAD_REACTORS
330
294
102
}
330
294
100
AcDbXrecord
280
     1
102
RTVSPropertyOp0
 70
     1
102
RTVSPropertyOp1
 70
     1
102
RTVSPropertyOp2
 70
     1
102
RTVSPropertyOp3
 70
     1
102
RTVSPropertyOp4
 70
     1
102
RTVSPropertyOp5
 70
     1
102
RTVSPropertyOp6
 70
     1
102
RTVSPropertyOp7
 70
     1
102
RTVSPropertyOp8
 70
     1
102
RTVSPropertyOp9
 70
     1
102
RTVSPropertyOp10
 70
     1
102
RTVSPropertyOp11
 70
     1
102
RTVSPropertyOp12
 70
     1
102
RTVSPropertyOp13
 70
     1
102
RTVSPropertyOp14
 70
     1
102
RTVSPropertyOp15
 70
     1
102
RTVSPropertyOp16
 70
     1
102
RTVSPropertyOp17
 70
     1
102
RTVSPropertyOp18
 70
     1
102
RTVSPropertyOp19
 70
     1
102
RTVSPropertyOp20
 70
     1
102
RTVSPropertyOp21
 70
     1
102
RTVSPropertyOp22
 70
     1
102
RTVSPropertyOp23
 70
     1
102
RTVSPropertyOp24
 70
     1
102
RTVSPropertyOp25
 70
     1
102
RTVSPropertyOp26
 70
     1
102
RTVSPropertyOp27
 70
     1
102
RTVSPropertyOp28
 70
     1
102
RTVSPropertyOp29
 70
     1
102
RTVSPropertyOp30
 70
     1
102
RTVSPropertyOp31
 70
     1
102
RTVSPropertyOp32
 70
     1
  0
XRECORD
  5
297
102
{ACAD_REACTORS
330
296
102
}
330
296
100
AcDbXrecord
280
     1
102
RTVSPropertyOp0
 70
     1
102
RTVSPropertyOp1
 70
     1
102
RTVSPropertyOp2
 70
     1
102
RTVSPropertyOp3
 70
     1
102
RTVSPropertyOp4
 70
     1
102
RTVSPropertyOp5
 70
     1
102
RTVSPropertyOp6
 70
     1
102
RTVSPropertyOp7
 70
     1
102
RTVSPropertyOp8
 70
     1
102
RTVSPropertyOp9
 70
     1
102
RTVSPropertyOp10
 70
     1
102
RTVSPropertyOp11
 70
     1
102
RTVSPropertyOp12
 70
     1
102
RTVSPropertyOp13
 70
     1
102
RTVSPropertyOp14
 70
     1
102
RTVSPropertyOp15
 70
     1
102
RTVSPropertyOp16
 70
     1
102
RTVSPropertyOp17
 70
     1
102
RTVSPropertyOp18
 70
     1
102
RTVSPropertyOp19
 70
     1
102
RTVSPropertyOp20
 70
     1
102
RTVSPropertyOp21
 70
     1
102
RTVSPropertyOp22
 70
     1
102
RTVSPropertyOp23
 70
     1
102
RTVSPropertyOp24
 70
     1
102
RTVSPropertyOp25
 70
     1
102
RTVSPropertyOp26
 70
     1
102
RTVSPropertyOp27
 70
     1
102
RTVSPropertyOp28
 70
     1
102
RTVSPropertyOp29
 70
     1
102
RTVSPropertyOp30
 70
     1
102
RTVSPropertyOp31
 70
     1
102
RTVSPropertyOp32
 70
     1
  0
XRECORD
  5
2AB
102
{ACAD_REACTORS
330
2AA
102
}
330
2AA
100
AcDbXrecord
280
     1
102
RTVSPropertyOp0
 70
     1
102
RTVSPropertyOp1
 70
     1
102
RTVSPropertyOp2
 70
     1
102
RTVSPropertyOp3
 70
     1
102
RTVSPropertyOp4
 70
     1
102
RTVSPropertyOp5
 70
     1
102
RTVSPropertyOp6
 70
     1
102
RTVSPropertyOp7
 70
     1
102
RTVSPropertyOp8
 70
     1
102
RTVSPropertyOp9
 70
     1
102
RTVSPropertyOp10
 70
     1
102
RTVSPropertyOp11
 70
     1
102
RTVSPropertyOp12
 70
     1
102
RTVSPropertyOp13
 70
     1
102
RTVSPropertyOp14
 70
     1
102
RTVSPropertyOp15
 70
     1
102
RTVSPropertyOp16
 70
     1
102
RTVSPropertyOp17
 70
     1
102
RTVSPropertyOp18
 70
     1
102
RTVSPropertyOp19
 70
     1
102
RTVSPropertyOp20
 70
     1
102
RTVSPropertyOp21
 70
     1
102
RTVSPropertyOp22
 70
     1
102
RTVSPropertyOp23
 70
     1
102
RTVSPropertyOp24
 70
     1
102
RTVSPropertyOp25
 70
     1
102
RTVSPropertyOp26
 70
     1
102
RTVSPropertyOp27
 70
     1
102
RTVSPropertyOp28
 70
     1
102
RTVSPropertyOp29
 70
     1
102
RTVSPropertyOp30
 70
     1
102
RTVSPropertyOp31
 70
     1
102
RTVSPropertyOp32
 70
     1
  0
XRECORD
  5
2A1
102
{ACAD_REACTORS
330
2A0
102
}
330
2A0
100
AcDbXrecord
280
     1
102
RTVSPropertyOp0
 70
     1
102
RTVSPropertyOp1
 70
     1
102
RTVSPropertyOp2
 70
     1
102
RTVSPropertyOp3
 70
     1
102
RTVSPropertyOp4
 70
     1
102
RTVSPropertyOp5
 70
     1
102
RTVSPropertyOp6
 70
     1
102
RTVSPropertyOp7
 70
     1
102
RTVSPropertyOp8
 70
     1
102
RTVSPropertyOp9
 70
     1
102
RTVSPropertyOp10
 70
     1
102
RTVSPropertyOp11
 70
     1
102
RTVSPropertyOp12
 70
     1
102
RTVSPropertyOp13
 70
     1
102
RTVSPropertyOp14
 70
     1
102
RTVSPropertyOp15
 70
     1
102
RTVSPropertyOp16
 70
     1
102
RTVSPropertyOp17
 70
     1
102
RTVSPropertyOp18
 70
     1
102
RTVSPropertyOp19
 70
     1
102
RTVSPropertyOp20
 70
     1
102
RTVSPropertyOp21
 70
     1
102
RTVSPropertyOp22
 70
     1
102
RTVSPropertyOp23
 70
     1
102
RTVSPropertyOp24
 70
     1
102
RTVSPropertyOp25
 70
     1
102
RTVSPropertyOp26
 70
     1
102
RTVSPropertyOp27
 70
     1
102
RTVSPropertyOp28
 70
     1
102
RTVSPropertyOp29
 70
     1
102
RTVSPropertyOp30
 70
     1
102
RTVSPropertyOp31
 70
     1
102
RTVSPropertyOp32
 70
     1
  0
XRECORD
  5
2A9
102
{ACAD_REACTORS
330
2A8
102
}
330
2A8
100
AcDbXrecord
280
     1
102
RTVSPropertyOp0
 70
     1
102
RTVSPropertyOp1
 70
     1
102
RTVSPropertyOp2
 70
     1
102
RTVSPropertyOp3
 70
     1
102
RTVSPropertyOp4
 70
     1
102
RTVSPropertyOp5
 70
     1
102
RTVSPropertyOp6
 70
     1
102
RTVSPropertyOp7
 70
     1
102
RTVSPropertyOp8
 70
     1
102
RTVSPropertyOp9
 70
     1
102
RTVSPropertyOp10
 70
     1
102
RTVSPropertyOp11
 70
     1
102
RTVSPropertyOp12
 70
     1
102
RTVSPropertyOp13
 70
     1
102
RTVSPropertyOp14
 70
     1
102
RTVSPropertyOp15
 70
     1
102
RTVSPropertyOp16
 70
     1
102
RTVSPropertyOp17
 70
     1
102
RTVSPropertyOp18
 70
     1
102
RTVSPropertyOp19
 70
     1
102
RTVSPropertyOp20
 70
     1
102
RTVSPropertyOp21
 70
     1
102
RTVSPropertyOp22
 70
     1
102
RTVSPropertyOp23
 70
     1
102
RTVSPropertyOp24
 70
     1
102
RTVSPropertyOp25
 70
     1
102
RTVSPropertyOp26
 70
     1
102
RTVSPropertyOp27
 70
     1
102
RTVSPropertyOp28
 70
     1
102
RTVSPropertyOp29
 70
     1
102
RTVSPropertyOp30
 70
     1
102
RTVSPropertyOp31
 70
     1
102
RTVSPropertyOp32
 70
     1
  0
ENDSEC
  0
EOF
