  0
SECTION
  2
HEADER
  9
$ACADVER
  1
AC1015
  9
$ACADMAINTVER
 70
     6
  9
$DWGCODEPAGE
  3
ANSI_932
  9
$INSBASE
 10
0.0
 20
0.0
 30
0.0
  9
$EXTMIN
 10
0.0
 20
0.0
 30
0.0
  9
$EXTMAX
 10
420.0
 20
594.0
 30
0.0
  9
$LIMMIN
 10
0.0
 20
0.0
  9
$LIMMAX
 10
12.0
 20
9.0
  9
$ORTHOMODE
 70
     0
  9
$REGENMODE
 70
     1
  9
$FILLMODE
 70
     1
  9
$QTEXTMODE
 70
     0
  9
$MIRRTEXT
 70
     1
  9
$LTSCALE
 40
1.0
  9
$ATTMODE
 70
     1
  9
$TEXTSIZE
 40
0.2
  9
$TRACEWID
 40
0.05
  9
$TEXTSTYLE
  7
Standard
  9
$CLAYER
  8
0
  9
$CELTYPE
  6
ByLayer
  9
$CECOLOR
 62
   256
  9
$CELTSCALE
 40
1.0
  9
$DISPSILH
 70
     0
  9
$DIMSCALE
 40
1.0
  9
$DIMASZ
 40
0.18
  9
$DIMEXO
 40
0.0625
  9
$DIMDLI
 40
0.38
  9
$DIMRND
 40
0.0
  9
$DIMDLE
 40
0.0
  9
$DIMEXE
 40
0.18
  9
$DIMTP
 40
0.0
  9
$DIMTM
 40
0.0
  9
$DIMTXT
 40
0.18
  9
$DIMCEN
 40
0.09
  9
$DIMTSZ
 40
0.0
  9
$DIMTOL
 70
     0
  9
$DIMLIM
 70
     0
  9
$DIMTIH
 70
     1
  9
$DIMTOH
 70
     1
  9
$DIMSE1
 70
     0
  9
$DIMSE2
 70
     0
  9
$DIMTAD
 70
     0
  9
$DIMZIN
 70
     0
  9
$DIMBLK
  1

  9
$DIMASO
 70
     1
  9
$DIMSHO
 70
     1
  9
$DIMPOST
  1

  9
$DIMAPOST
  1

  9
$DIMALT
 70
     0
  9
$DIMALTD
 70
     2
  9
$DIMALTF
 40
25.4
  9
$DIMLFAC
 40
1.0
  9
$DIMTOFL
 70
     0
  9
$DIMTVP
 40
0.0
  9
$DIMTIX
 70
     0
  9
$DIMSOXD
 70
     0
  9
$DIMSAH
 70
     0
  9
$DIMBLK1
  1

  9
$DIMBLK2
  1

  9
$DIMSTYLE
  2
Standard
  9
$DIMCLRD
 70
     0
  9
$DIMCLRE
 70
     0
  9
$DIMCLRT
 70
     0
  9
$DIMTFAC
 40
1.0
  9
$DIMGAP
 40
0.09
  9
$DIMJUST
 70
     0
  9
$DIMSD1
 70
     0
  9
$DIMSD2
 70
     0
  9
$DIMTOLJ
 70
     1
  9
$DIMTZIN
 70
     0
  9
$DIMALTZ
 70
     0
  9
$DIMALTTZ
 70
     0
  9
$DIMUPT
 70
     0
  9
$DIMDEC
 70
     4
  9
$DIMTDEC
 70
     4
  9
$DIMALTU
 70
     2
  9
$DIMALTTD
 70
     2
  9
$DIMTXSTY
  7
Standard
  9
$DIMAUNIT
 70
     0
  9
$DIMADEC
 70
     0
  9
$DIMALTRND
 40
0.0
  9
$DIMAZIN
 70
     0
  9
$DIMDSEP
 70
    46
  9
$DIMATFIT
 70
     3
  9
$DIMFRAC
 70
     0
  9
$DIMLDRBLK
  1

  9
$DIMLUNIT
 70
     2
  9
$DIMLWD
 70
    -2
  9
$DIMLWE
 70
    -2
  9
$DIMTMOVE
 70
     0
  9
$LUNITS
 70
     2
  9
$LUPREC
 70
     4
  9
$SKETCHINC
 40
0.1
  9
$FILLETRAD
 40
0.5
  9
$AUNITS
 70
     0
  9
$AUPREC
 70
     0
  9
$MENU
  1
.
  9
$ELEVATION
 40
0.0
  9
$PELEVATION
 40
0.0
  9
$THICKNESS
 40
0.0
  9
$LIMCHECK
 70
     0
  9
$CHAMFERA
 40
0.5
  9
$CHAMFERB
 40
0.5
  9
$CHAMFERC
 40
1.0
  9
$CHAMFERD
 40
0.0
  9
$SKPOLY
 70
     0
  9
$TDCREATE
 40
2456496.70876522
  9
$TDUCREATE
 40
2456496.33376522
  9
$TDUPDATE
 40
2456496.708767199
  9
$TDUUPDATE
 40
2456496.333767199
  9
$TDINDWG
 40
0.0000000116
  9
$TDUSRTIMER
 40
0.0000000116
  9
$USRTIMER
 70
     1
  9
$ANGBASE
 50
0.0
  9
$ANGDIR
 70
     0
  9
$PDMODE
 70
     0
  9
$PDSIZE
 40
0.0
  9
$PLINEWID
 40
0.0
  9
$SPLFRAME
 70
     0
  9
$SPLINETYPE
 70
     6
  9
$SPLINESEGS
 70
     8
  9
$HANDSEED
  5
365
  9
$SURFTAB1
 70
     6
  9
$SURFTAB2
 70
     6
  9
$SURFTYPE
 70
     6
  9
$SURFU
 70
     6
  9
$SURFV
 70
     6
  9
$UCSBASE
  2

  9
$UCSNAME
  2

  9
$UCSORG
 10
0.0
 20
0.0
 30
0.0
  9
$UCSXDIR
 10
1.0
 20
0.0
 30
0.0
  9
$UCSYDIR
 10
0.0
 20
1.0
 30
0.0
  9
$UCSORTHOREF
  2

  9
$UCSORTHOVIEW
 70
     0
  9
$UCSORGTOP
 10
0.0
 20
0.0
 30
0.0
  9
$UCSORGBOTTOM
 10
0.0
 20
0.0
 30
0.0
  9
$UCSORGLEFT
 10
0.0
 20
0.0
 30
0.0
  9
$UCSORGRIGHT
 10
0.0
 20
0.0
 30
0.0
  9
$UCSORGFRONT
 10
0.0
 20
0.0
 30
0.0
  9
$UCSORGBACK
 10
0.0
 20
0.0
 30
0.0
  9
$PUCSBASE
  2

  9
$PUCSNAME
  2

  9
$PUCSORG
 10
0.0
 20
0.0
 30
0.0
  9
$PUCSXDIR
 10
1.0
 20
0.0
 30
0.0
  9
$PUCSYDIR
 10
0.0
 20
1.0
 30
0.0
  9
$PUCSORTHOREF
  2

  9
$PUCSORTHOVIEW
 70
     0
  9
$PUCSORGTOP
 10
0.0
 20
0.0
 30
0.0
  9
$PUCSORGBOTTOM
 10
0.0
 20
0.0
 30
0.0
  9
$PUCSORGLEFT
 10
0.0
 20
0.0
 30
0.0
  9
$PUCSORGRIGHT
 10
0.0
 20
0.0
 30
0.0
  9
$PUCSORGFRONT
 10
0.0
 20
0.0
 30
0.0
  9
$PUCSORGBACK
 10
0.0
 20
0.0
 30
0.0
  9
$USERI1
 70
     0
  9
$USERI2
 70
     0
  9
$USERI3
 70
     0
  9
$USERI4
 70
     0
  9
$USERI5
 70
     0
  9
$USERR1
 40
18.1
  9
$USERR2
 40
0.0
  9
$USERR3
 40
0.0
  9
$USERR4
 40
0.0
  9
$USERR5
 40
0.0
  9
$WORLDVIEW
 70
     1
  9
$SHADEDGE
 70
     3
  9
$SHADEDIF
 70
    70
  9
$TILEMODE
 70
     1
  9
$MAXACTVP
 70
    64
  9
$PINSBASE
 10
0.0
 20
0.0
 30
0.0
  9
$PLIMCHECK
 70
     0
  9
$PEXTMIN
 10
1.00000000000000E+20
 20
1.00000000000000E+20
 30
1.00000000000000E+20
  9
$PEXTMAX
 10
-1.00000000000000E+20
 20
-1.00000000000000E+20
 30
-1.00000000000000E+20
  9
$PLIMMIN
 10
0.0
 20
0.0
  9
$PLIMMAX
 10
12.0
 20
9.0
  9
$UNITMODE
 70
     0
  9
$VISRETAIN
 70
     1
  9
$PLINEGEN
 70
     0
  9
$PSLTSCALE
 70
     1
  9
$TREEDEPTH
 70
  3020
  9
$CMLSTYLE
  2
Standard
  9
$CMLJUST
 70
     0
  9
$CMLSCALE
 40
1.0
  9
$PROXYGRAPHICS
 70
     1
  9
$MEASUREMENT
 70
     1
  9
$CELWEIGHT
370
    -1
  9
$ENDCAPS
280
     0
  9
$JOINSTYLE
280
     0
  9
$LWDISPLAY
290
     0
  9
$INSUNITS
 70
     4
  9
$HYPERLINKBASE
  1

  9
$STYLESHEET
  1

  9
$XEDIT
290
     1
  9
$CEPSNTYPE
380
     0
  9
$PSTYLEMODE
290
     1
  9
$FINGERPRINTGUID
  2
{1842F3B5-8B01-45D1-A606-6CBED03590F7}
  9
$VERSIONGUID
  2
{FAEB1C32-E019-11D5-929B-00C0DF256EC4}
  9
$EXTNAMES
290
     1
  9
$PSVPSCALE
 40
0.0
  9
$OLESTARTUP
290
     0
  0
ENDSEC
  0
SECTION
  2
CLASSES
  0
CLASS
  1
ACDBDICTIONARYWDFLT
  2
AcDbDictionaryWithDefault
  3
ObjectDBX Classes
 90
        0
280
     0
281
     0
  0
CLASS
  1
VISUALSTYLE
  2
AcDbVisualStyle
  3
ObjectDBX Classes
 90
     4095
280
     0
281
     0
  0
CLASS
  1
MATERIAL
  2
AcDbMaterial
  3
ObjectDBX Classes
 90
     1153
280
     0
281
     0
  0
CLASS
  1
DICTIONARYVAR
  2
AcDbDictionaryVar
  3
ObjectDBX Classes
 90
        0
280
     0
281
     0
  0
CLASS
  1
ACDBPLACEHOLDER
  2
AcDbPlaceHolder
  3
ObjectDBX Classes
 90
        0
280
     0
281
     0
  0
CLASS
  1
LAYOUT
  2
AcDbLayout
  3
ObjectDBX Classes
 90
        0
280
     0
281
     0
  0
ENDSEC
  0
SECTION
  2
TABLES
  0
TABLE
  2
VPORT
  5
8
330
0
100
AcDbSymbolTable
 70
     1
  0
VPORT
  5
29
330
8
100
AcDbSymbolTableRecord
100
AcDbViewportTableRecord
  2
*Active
 70
     0
 10
0.0
 20
0.0
 11
1.0
 21
1.0
 12
210.0
 22
297.0
 13
0.0
 23
0.0
 14
0.5
 24
0.5
 15
0.5
 25
0.5
 16
0.0
 26
0.0
 36
1.0
 17
0.0
 27
0.0
 37
0.0
 40
653.4000000000001
 41
1.60267857142857
 42
50.0
 43
0.0
 44
0.0
 50
0.0
 51
0.0
 71
     0
 72
   100
 73
     1
 74
     3
 75
     0
 76
     0
 77
     0
 78
     0
281
     0
 65
     1
110
0.0
120
0.0
130
0.0
111
1.0
121
0.0
131
0.0
112
0.0
122
1.0
132
0.0
 79
     0
146
0.0
  0
ENDTAB
  0
TABLE
  2
LTYPE
  5
5
330
0
100
AcDbSymbolTable
 70
     9
  0
LTYPE
  5
14
330
5
100
AcDbSymbolTableRecord
100
AcDbLinetypeTableRecord
  2
ByBlock
 70
     0
  3

 72
    65
 73
     0
 40
0.0
  0
LTYPE
  5
15
330
5
100
AcDbSymbolTableRecord
100
AcDbLinetypeTableRecord
  2
ByLayer
 70
     0
  3

 72
    65
 73
     0
 40
0.0
  0
LTYPE
  5
16
330
5
100
AcDbSymbolTableRecord
100
AcDbLinetypeTableRecord
  2
Continuous
 70
     0
  3
Solid line
 72
    65
 73
     0
 40
0.0
  0
LTYPE
  5
3F
330
5
100
AcDbSymbolTableRecord
100
AcDbLinetypeTableRecord
  2
DASHED
 70
     0
  3
Dashed
 72
    65
 73
     2
 40
15.0
 49
7.0
 74
     0
 49
-8.0
 74
     0
  0
LTYPE
  5
40
330
5
100
AcDbSymbolTableRecord
100
AcDbLinetypeTableRecord
  2
DOTTED
 70
     0
  3
Dotted
 72
    65
 73
     2
 40
1.0
 49
0.0
 74
     0
 49
-1.0
 74
     0
  0
LTYPE
  5
41
330
5
100
AcDbSymbolTableRecord
100
AcDbLinetypeTableRecord
  2
DOT_CENTER
 70
     0
  3
Dot_Center
 72
    65
 73
     4
 40
14.0
 49
12.0
 74
     0
 49
-1.0
 74
     0
 49
0.0
 74
     0
 49
-1.0
 74
     0
  0
LTYPE
  5
42
330
5
100
AcDbSymbolTableRecord
100
AcDbLinetypeTableRecord
  2
LONG_DASHED
 70
     0
  3
Long_Dashed
 72
    65
 73
     2
 40
15.0
 49
10.0
 74
     0
 49
-5.0
 74
     0
  0
LTYPE
  5
43
330
5
100
AcDbSymbolTableRecord
100
AcDbLinetypeTableRecord
  2
DASH_CENTER
 70
     0
  3
Dash_Center
 72
    65
 73
     4
 40
14.0
 49
11.0
 74
     0
 49
-1.0
 74
     0
 49
1.0
 74
     0
 49
-1.0
 74
     0
  0
LTYPE
  5
44
330
5
100
AcDbSymbolTableRecord
100
AcDbLinetypeTableRecord
  2
PHANTOM
 70
     0
  3
Phantom
 72
    65
 73
     6
 40
13.0
 49
10.0
 74
     0
 49
-1.0
 74
     0
 49
0.0
 74
     0
 49
-1.0
 74
     0
 49
0.0
 74
     0
 49
-1.0
 74
     0
  0
LTYPE
  5
45
330
5
100
AcDbSymbolTableRecord
100
AcDbLinetypeTableRecord
  2
CENTER_DASH_DASH
 70
     0
  3
Center_Dash_Dash
 72
    65
 73
     6
 40
14.0
 49
9.0
 74
     0
 49
-1.0
 74
     0
 49
1.0
 74
     0
 49
-1.0
 74
     0
 49
1.0
 74
     0
 49
-1.0
 74
     0
  0
LTYPE
  5
46
330
5
100
AcDbSymbolTableRecord
100
AcDbLinetypeTableRecord
  2
CENTER_2
 70
     0
  3
CENTER_2
 72
    65
 73
     6
 40
14.0
 49
4.0
 74
     0
 49
-2.0
 74
     0
 49
2.0
 74
     0
 49
-2.0
 74
     0
 49
2.0
 74
     0
 49
-2.0
 74
     0
  0
ENDTAB
  0
TABLE
  2
LAYER
  5
2
330
0
100
AcDbSymbolTable
 70
    11
  0
LAYER
  5
10
330
2
100
AcDbSymbolTableRecord
100
AcDbLayerTableRecord
  2
0
 70
     0
 62
     7
  6
Continuous
370
    -3
390
F
  0
LAYER
  5
47
330
2
100
AcDbSymbolTableRecord
100
AcDbLayerTableRecord
  2
1
 70
     0
 62
     7
  6
Continuous
370
    -3
390
F
  0
LAYER
  5
48
330
2
100
AcDbSymbolTableRecord
100
AcDbLayerTableRecord
  2
LAY0_12
 70
     0
 62
     7
  6
Continuous
370
    -3
390
F
  0
LAYER
  5
49
330
2
100
AcDbSymbolTableRecord
100
AcDbLayerTableRecord
  2
LAY0_14
 70
     0
 62
     7
  6
Continuous
370
    -3
390
F
  0
LAYER
  5
4A
330
2
100
AcDbSymbolTableRecord
100
AcDbLayerTableRecord
  2
LAY0_15
 70
     0
 62
     7
  6
Continuous
370
    -3
390
F
  0
LAYER
  5
4B
330
2
100
AcDbSymbolTableRecord
100
AcDbLayerTableRecord
  2
LAY0_6
 70
     0
 62
     7
  6
Continuous
370
    -3
390
F
  0
LAYER
  5
4C
330
2
100
AcDbSymbolTableRecord
100
AcDbLayerTableRecord
  2
LAY0_7
 70
     0
 62
     7
  6
Continuous
370
    -3
390
F
  0
LAYER
  5
4D
330
2
100
AcDbSymbolTableRecord
100
AcDbLayerTableRecord
  2
LAY0_8
 70
     0
 62
     7
  6
Continuous
370
    -3
390
F
  0
LAYER
  5
4E
330
2
100
AcDbSymbolTableRecord
100
AcDbLayerTableRecord
  2
LAY10_0
 70
     0
 62
     7
  6
Continuous
370
    -3
390
F
  0
LAYER
  5
4F
330
2
100
AcDbSymbolTableRecord
100
AcDbLayerTableRecord
  2
LAY1_1
 70
     0
 62
     7
  6
Continuous
370
    -3
390
F
  0
LAYER
  5
50
330
2
100
AcDbSymbolTableRecord
100
AcDbLayerTableRecord
  2
LAY4_1
 70
     0
 62
     7
  6
Continuous
370
    -3
390
F
  0
ENDTAB
  0
TABLE
  2
STYLE
  5
3
330
0
100
AcDbSymbolTable
 70
     4
  0
STYLE
  5
11
330
3
100
AcDbSymbolTableRecord
100
AcDbTextStyleTableRecord
  2
Standard
 70
     0
 40
0.0
 41
1.0
 50
0.0
 71
     0
 42
0.2
  3
txt
  4

  0
STYLE
  5
29D
330
3
100
AcDbSymbolTableRecord
100
AcDbTextStyleTableRecord
  2
CONVERTER_11
 70
     0
 40
0.0
 41
0.89
 50
0.0
 71
     0
 42
0.2
  3
MS Mincho.ttf
  4

1001
ACAD
1000
MS Mincho
1071
    32785
  0
STYLE
  5
2BF
330
3
100
AcDbSymbolTableRecord
100
AcDbTextStyleTableRecord
  2
CONVERTER_12
 70
     0
 40
0.0
 41
0.98888888888889
 50
0.0
 71
     0
 42
0.2
  3
msmincho.ttc
  4

1001
ACAD
1000
MS Mincho
1071
    32785
  0
STYLE
  5
2C3
330
3
100
AcDbSymbolTableRecord
100
AcDbTextStyleTableRecord
  2
CONVERTER_13
 70
     0
 40
0.0
 41
0.9
 50
0.0
 71
     0
 42
0.2
  3
txt.shx
  4

  0
ENDTAB
  0
TABLE
  2
VIEW
  5
6
330
0
100
AcDbSymbolTable
 70
     0
  0
ENDTAB
  0
TABLE
  2
UCS
  5
7
330
0
100
AcDbSymbolTable
 70
     0
  0
ENDTAB
  0
TABLE
  2
APPID
  5
9
330
0
100
AcDbSymbolTable
 70
     1
  0
APPID
  5
12
330
9
100
AcDbSymbolTableRecord
100
AcDbRegAppTableRecord
  2
ACAD
 70
     0
  0
ENDTAB
  0
TABLE
  2
DIMSTYLE
  5
A
330
0
100
AcDbSymbolTable
 70
     9
100
AcDbDimStyleTable
  0
DIMSTYLE
105
27
330
A
100
AcDbSymbolTableRecord
100
AcDbDimStyleTableRecord
  2
Standard
 70
     0
178
     0
340
11
  0
DIMSTYLE
105
2DD
102
{ACAD_REACTORS
330
2DE
102
}
330
A
100
AcDbSymbolTableRecord
100
AcDbDimStyleTableRecord
  2
ME10_DIM_10
 70
     0
  3
外径{\Fgdt;n}<>
 41
7.0
 42
0.0
 44
2.0
 73
     0
 74
     0
 77
     1
 78
     8
140
7.0
147
2.0
172
     1
173
     1
174
     1
175
     1
176
     2
177
     2
271
     2
178
     7
271
     2
340
29D
  0
DIMSTYLE
105
2E8
102
{ACAD_REACTORS
330
2E9
102
}
330
A
100
AcDbSymbolTableRecord
100
AcDbDimStyleTableRecord
  2
ME10_DIM_11
 70
     0
 41
7.0
 42
0.0
 44
2.0
 73
     0
 74
     0
 77
     1
 78
     8
140
7.0
147
2.0
172
     1
173
     1
174
     1
175
     1
176
     2
177
     2
271
     2
178
     7
271
     2
340
2C3
  0
DIMSTYLE
105
2F3
102
{ACAD_REACTORS
330
2F4
102
}
330
A
100
AcDbSymbolTableRecord
100
AcDbDimStyleTableRecord
  2
ME10_DIM_12
 70
     0
 41
7.0
 42
0.0
 44
2.0
 73
     0
 74
     0
 77
     1
 78
     8
140
7.0
147
2.0
172
     1
173
     1
174
     1
175
     1
176
     2
177
     2
271
     2
178
     7
271
     2
340
2C3
  0
DIMSTYLE
105
2FE
102
{ACAD_REACTORS
330
2FF
102
}
330
A
100
AcDbSymbolTableRecord
100
AcDbDimStyleTableRecord
  2
ME10_DIM_13
 70
     0
 41
7.0
 42
0.0
 44
2.0
 73
     0
 74
     0
 77
     1
 78
     8
140
7.0
147
2.0
172
     1
173
     1
174
     1
175
     1
176
     2
177
     2
271
     2
178
     7
271
     2
340
2C3
  0
DIMSTYLE
105
30A
102
{ACAD_REACTORS
330
30B
102
}
330
A
100
AcDbSymbolTableRecord
100
AcDbDimStyleTableRecord
  2
ME10_DIM_14
 70
     0
 41
7.0
 42
0.0
 44
2.0
 73
     0
 74
     0
 77
     1
 78
     8
140
7.0
147
2.0
172
     1
173
     1
174
     1
175
     1
176
     2
177
     2
271
     2
178
     7
271
     2
340
29D
  0
DIMSTYLE
105
317
102
{ACAD_REACTORS
330
318
102
}
330
A
100
AcDbSymbolTableRecord
100
AcDbDimStyleTableRecord
  2
ME10_DIM_15
 70
     0
 41
7.0
 42
0.0
 44
2.0
 73
     0
 74
     0
 77
     1
 78
     8
140
7.0
147
2.0
172
     1
173
     1
174
     1
175
     1
176
     2
177
     2
271
     2
178
     7
271
     2
340
29D
  0
DIMSTYLE
105
323
102
{ACAD_REACTORS
330
324
102
}
330
A
100
AcDbSymbolTableRecord
100
AcDbDimStyleTableRecord
  2
ME10_DIM_16
 70
     0
 41
7.0
 42
0.0
 44
2.0
 73
     0
 74
     0
 77
     1
 78
     8
140
7.0
147
2.0
172
     1
173
     1
174
     1
175
     1
176
     2
177
     2
271
     2
178
     7
271
     2
340
29D
  0
DIMSTYLE
105
330
102
{ACAD_REACTORS
330
331
102
}
330
A
100
AcDbSymbolTableRecord
100
AcDbDimStyleTableRecord
  2
ME10_DIM_17
 70
     0
 41
7.0
 42
0.0
 44
2.0
 73
     0
 74
     0
 77
     1
 78
     8
140
7.0
147
2.0
172
     1
173
     1
174
     1
175
     1
176
     2
177
     2
271
     2
178
     7
271
     2
340
29D
  0
ENDTAB
  0
TABLE
  2
BLOCK_RECORD
  5
1
330
0
100
AcDbSymbolTable
 70
    17
  0
BLOCK_RECORD
  5
1F
330
1
100
AcDbSymbolTableRecord
100
AcDbBlockTableRecord
  2
*Model_Space
340
22
  0
BLOCK_RECORD
  5
1B
330
1
100
AcDbSymbolTableRecord
100
AcDbBlockTableRecord
  2
*Paper_Space
340
1E
  0
BLOCK_RECORD
  5
23
330
1
100
AcDbSymbolTableRecord
100
AcDbBlockTableRecord
  2
*Paper_Space0
340
26
  0
BLOCK_RECORD
  5
51
330
1
100
AcDbSymbolTableRecord
100
AcDbBlockTableRecord
  2
H640-50-4
340
0
102
{BLKREFS
331
66
102
}
  0
BLOCK_RECORD
  5
54
330
1
100
AcDbSymbolTableRecord
100
AcDbBlockTableRecord
  2
H640-50-3__1
340
0
102
{BLKREFS
331
67
102
}
  0
BLOCK_RECORD
  5
57
330
1
100
AcDbSymbolTableRecord
100
AcDbBlockTableRecord
  2
H640-50-2
340
0
102
{BLKREFS
331
68
102
}
  0
BLOCK_RECORD
  5
5A
330
1
100
AcDbSymbolTableRecord
100
AcDbBlockTableRecord
  2
H640-50-3__2
340
0
102
{BLKREFS
331
69
102
}
  0
BLOCK_RECORD
  5
5D
330
1
100
AcDbSymbolTableRecord
100
AcDbBlockTableRecord
  2
H640-50-1
340
0
102
{BLKREFS
331
6A
102
}
  0
BLOCK_RECORD
  5
60
330
1
100
AcDbSymbolTableRecord
100
AcDbBlockTableRecord
  2
henshin-mage
340
0
102
{BLKREFS
331
6B
102
}
  0
BLOCK_RECORD
  5
63
330
1
100
AcDbSymbolTableRecord
100
AcDbBlockTableRecord
  2
開示A4
340
0
102
{BLKREFS
331
6C
102
}
  0
BLOCK_RECORD
  5
2D4
330
1
100
AcDbSymbolTableRecord
100
AcDbBlockTableRecord
  2
*D8
340
0
  0
BLOCK_RECORD
  5
2DF
330
1
100
AcDbSymbolTableRecord
100
AcDbBlockTableRecord
  2
*D9
340
0
  0
BLOCK_RECORD
  5
2EA
330
1
100
AcDbSymbolTableRecord
100
AcDbBlockTableRecord
  2
*D10
340
0
  0
BLOCK_RECORD
  5
2F5
330
1
100
AcDbSymbolTableRecord
100
AcDbBlockTableRecord
  2
*D11
340
0
  0
BLOCK_RECORD
  5
300
330
1
100
AcDbSymbolTableRecord
100
AcDbBlockTableRecord
  2
*D12
340
0
  0
BLOCK_RECORD
  5
30C
330
1
100
AcDbSymbolTableRecord
100
AcDbBlockTableRecord
  2
*D13
340
0
  0
BLOCK_RECORD
  5
319
330
1
100
AcDbSymbolTableRecord
100
AcDbBlockTableRecord
  2
*D14
340
0
  0
BLOCK_RECORD
  5
325
330
1
100
AcDbSymbolTableRecord
100
AcDbBlockTableRecord
  2
*D15
340
0
  0
BLOCK_RECORD
  5
332
330
1
100
AcDbSymbolTableRecord
100
AcDbBlockTableRecord
  2
*D16
340
0
102
{BLKREFS
331
339
102
}
  0
ENDTAB
  0
ENDSEC
  0
SECTION
  2
BLOCKS
  0
BLOCK
  5
20
330
1F
100
AcDbEntity
  8
0
100
AcDbBlockBegin
  2
*Model_Space
 70
     0
 10
0.0
 20
0.0
 30
0.0
  3
*Model_Space
  1

  0
ENDBLK
  5
21
330
1F
100
AcDbEntity
  8
0
100
AcDbBlockEnd
  0
BLOCK
  5
1C
330
1B
100
AcDbEntity
 67
     1
  8
0
100
AcDbBlockBegin
  2
*Paper_Space
 70
     0
 10
0.0
 20
0.0
 30
0.0
  3
*Paper_Space
  1

  0
ENDBLK
  5
1D
330
1B
100
AcDbEntity
 67
     1
  8
0
100
AcDbBlockEnd
  0
BLOCK
  5
24
330
23
100
AcDbEntity
  8
0
100
AcDbBlockBegin
  2
*Paper_Space0
 70
     0
 10
0.0
 20
0.0
 30
0.0
  3
*Paper_Space0
  1

  0
ENDBLK
  5
25
330
23
100
AcDbEntity
  8
0
100
AcDbBlockEnd
  0
BLOCK
  5
52
330
51
100
AcDbEntity
  8
0
100
AcDbBlockBegin
  2
H640-50-4
 70
     0
 10
-161.1687983380568
 20
201.871323240724
 30
0.0
  3
H640-50-4
  1

  0
LINE
  5
6D
330
51
100
AcDbEntity
  8
LAY0_14
  6
Continuous
 62
     7
100
AcDbLine
 10
138.0354713993436
 20
123.1105779546496
 30
0.0
 11
110.0354561405543
 21
123.1105779546496
 31
0.0
  0
LINE
  5
6E
330
51
100
AcDbEntity
  8
LAY0_14
  6
Continuous
 62
     7
100
AcDbLine
 10
108.0214943485623
 20
125.1105169194933
 30
0.0
 11
138.0354713993436
 21
125.1105169194933
 31
0.0
  0
LINE
  5
6F
330
51
100
AcDbEntity
  8
LAY0_14
  6
Continuous
 62
     7
100
AcDbLine
 10
110.0354561405543
 20
123.1105779546496
 30
0.0
 11
108.0214943485623
 21
125.1105169194933
 31
0.0
  0
LINE
  5
70
330
51
100
AcDbEntity
  8
LAY0_14
  6
Continuous
 62
     7
100
AcDbLine
 10
108.0214943485623
 20
125.1105169194933
 30
0.0
 11
107.7614845829373
 21
162.3606389898058
 31
0.0
  0
LINE
  5
71
330
51
100
AcDbEntity
  8
LAY0_14
  6
Continuous
 62
     7
100
AcDbLine
 10
138.0354713993436
 20
123.1105779546496
 30
0.0
 11
166.035486658129
 21
123.1105779546496
 31
0.0
  0
LINE
  5
72
330
51
100
AcDbEntity
  8
LAY0_14
  6
Continuous
 62
     7
100
AcDbLine
 10
168.0494484501212
 20
125.1105169194933
 30
0.0
 11
138.0354713993436
 21
125.1105169194933
 31
0.0
  0
LINE
  5
73
330
51
100
AcDbEntity
  8
LAY0_14
  6
Continuous
 62
     7
100
AcDbLine
 10
168.0494484501212
 20
125.1105169194933
 30
0.0
 11
168.3094582157462
 21
162.3606389898058
 31
0.0
  0
LINE
  5
74
330
51
100
AcDbEntity
  8
LAY0_14
  6
Continuous
 62
     7
100
AcDbLine
 10
166.035486658129
 20
123.1105779546496
 30
0.0
 11
168.0494484501212
 21
125.1105169194933
 31
0.0
  0
LINE
  5
75
330
51
100
AcDbEntity
  8
LAY0_14
  6
Continuous
 62
     7
100
AcDbLine
 10
138.0354713993436
 20
162.3606389898058
 30
0.0
 11
107.7614845829373
 21
162.3606389898058
 31
0.0
  0
LINE
  5
76
330
51
100
AcDbEntity
  8
LAY0_14
  6
Continuous
 62
     7
100
AcDbLine
 10
138.0354713993436
 20
163.7608770269152
 30
0.0
 11
107.1757301884023
 21
163.7609075444933
 31
0.0
  0
LINE
  5
77
330
51
100
AcDbEntity
  8
LAY0_14
  6
Continuous
 62
     7
100
AcDbLine
 10
138.0354713993436
 20
162.3606389898058
 30
0.0
 11
168.3094582157462
 21
162.3606389898058
 31
0.0
  0
LINE
  5
78
330
51
100
AcDbEntity
  8
LAY0_14
  6
Continuous
 62
     7
100
AcDbLine
 10
138.0354713993436
 20
163.7608770269152
 30
0.0
 11
168.8952126102773
 21
163.7609075444933
 31
0.0
  0
LINE
  5
79
330
51
100
AcDbEntity
  8
LAY0_14
  6
Continuous
 62
     7
100
AcDbLine
 10
107.1757301884023
 20
163.7609075444933
 30
0.0
 11
103.0887245731681
 21
167.8478826421496
 31
0.0
  0
LINE
  5
7A
330
51
100
AcDbEntity
  8
LAY0_14
  6
Continuous
 62
     7
100
AcDbLine
 10
168.8952126102773
 20
163.7609075444933
 30
0.0
 11
172.9822182255153
 21
167.8478826421496
 31
0.0
  0
LINE
  5
7B
330
51
100
AcDbEntity
  8
LAY0_14
  6
Continuous
 62
     7
100
AcDbLine
 10
107.5346169071523
 20
185.1105779546496
 30
0.0
 11
107.7598523570476
 21
169.8899332044217
 31
0.0
  0
LINE
  5
7C
330
51
100
AcDbEntity
  8
LAY0_14
  6
Continuous
 62
     7
100
AcDbLine
 10
108.1934151249293
 20
169.8848089116808
 30
0.0
 11
107.968103845629
 21
185.1105779546496
 31
0.0
  0
LINE
  5
7D
330
51
100
AcDbEntity
  8
LAY0_14
  6
Continuous
 62
     7
100
AcDbLine
 10
117.4759010868436
 20
185.1105779546496
 30
0.0
 11
117.6264362172251
 21
169.8856263674312
 31
0.0
  0
LINE
  5
7E
330
51
100
AcDbEntity
  8
LAY0_14
  6
Continuous
 62
     7
100
AcDbLine
 10
118.2751869755153
 20
169.8848089116808
 30
0.0
 11
118.1246437626212
 21
185.1105779546496
 31
0.0
  0
LINE
  5
7F
330
51
100
AcDbEntity
  8
LAY0_14
  6
Continuous
 62
     7
100
AcDbLine
 10
130.547205408129
 20
185.1105779546496
 30
0.0
 11
130.6000457122127
 21
169.8850631797004
 31
0.0
  0
LINE
  5
80
330
51
100
AcDbEntity
  8
LAY0_14
  6
Continuous
 62
     7
100
AcDbLine
 10
131.3653359012931
 20
169.8848089116808
 30
0.0
 11
131.3124336796134
 21
185.1105779546496
 31
0.0
  0
LINE
  5
81
330
51
100
AcDbEntity
  8
LAY0_14
  6
Continuous
 62
     7
100
AcDbLine
 10
144.7056068973903
 20
169.8848089116808
 30
0.0
 11
144.75850911907
 21
185.1105779546496
 31
0.0
  0
LINE
  5
82
330
51
100
AcDbEntity
  8
LAY0_14
  6
Continuous
 62
     7
100
AcDbLine
 10
145.5237373905545
 20
185.1105779546496
 30
0.0
 11
145.4708977847826
 21
169.8852643937472
 31
0.0
  0
LINE
  5
83
330
51
100
AcDbEntity
  8
LAY0_14
  6
Continuous
 62
     7
100
AcDbLine
 10
157.7957558231681
 20
169.8848089116808
 30
0.0
 11
157.9462990360623
 21
185.1105779546496
 31
0.0
  0
LINE
  5
84
330
51
100
AcDbEntity
  8
LAY0_14
  6
Continuous
 62
     7
100
AcDbLine
 10
158.5950417118436
 20
185.1105779546496
 30
0.0
 11
158.4445138948557
 21
169.88636603613
 31
0.0
  0
LINE
  5
85
330
51
100
AcDbEntity
  8
LAY0_14
  6
Continuous
 62
     7
100
AcDbLine
 10
167.877527673754
 20
169.8848089116808
 30
0.0
 11
168.1028389530545
 21
185.1105779546496
 31
0.0
  0
LINE
  5
86
330
51
100
AcDbEntity
  8
LAY0_14
  6
Continuous
 62
     7
100
AcDbLine
 10
168.5363258915273
 20
185.1105779546496
 30
0.0
 11
168.3110685265789
 21
169.8884522595123
 31
0.0
  0
LINE
  5
87
330
51
100
AcDbEntity
  8
LAY0_14
  6
Continuous
 62
     7
100
AcDbLine
 10
173.4161324100821
 20
169.8848089116808
 30
0.0
 11
173.6818947391873
 21
185.1105779546496
 31
0.0
  0
LINE
  5
88
330
51
100
AcDbEntity
  8
LAY0_14
  6
Continuous
 62
     7
100
AcDbLine
 10
102.6548103886014
 20
169.8848089116808
 30
0.0
 11
102.3890480594962
 21
185.1105779546496
 31
0.0
  0
LINE
  5
89
330
51
100
AcDbEntity
  8
LAY0_14
  6
Continuous
 62
     7
100
AcDbLine
 10
102.2367958622342
 20
185.1105779546496
 30
0.0
 11
102.5154996382959
 21
169.144298181188
 31
0.0
  0
LINE
  5
8A
330
51
100
AcDbEntity
  8
LAY0_14
  6
Continuous
 62
     7
100
AcDbLine
 10
173.8341469364493
 20
185.1105779546496
 30
0.0
 11
173.5531112811578
 21
169.0107103385466
 31
0.0
  0
LINE
  5
8B
330
51
100
AcDbEntity
  8
LAY0_14
  6
Continuous
 62
     7
100
AcDbLine
 10
101.5354713993436
 20
185.1105779546496
 30
0.0
 11
101.5354713993436
 21
189.1105779546496
 31
0.0
  0
LINE
  5
8C
330
51
100
AcDbEntity
  8
LAY0_14
  6
Continuous
 62
     7
100
AcDbLine
 10
101.5354713993436
 20
185.1105779546496
 30
0.0
 11
174.5354713993436
 21
185.1105779546496
 31
0.0
  0
LINE
  5
8D
330
51
100
AcDbEntity
  8
LAY0_14
  6
Continuous
 62
     7
100
AcDbLine
 10
174.5354713993436
 20
188.1105779546496
 30
0.0
 11
138.0354713993436
 21
188.1105779546496
 31
0.0
  0
LINE
  5
8E
330
51
100
AcDbEntity
  8
LAY0_14
  6
Continuous
 62
     7
100
AcDbLine
 10
101.5354713993436
 20
188.1105779546496
 30
0.0
 11
138.0354713993436
 21
188.1105779546496
 31
0.0
  0
LINE
  5
8F
330
51
100
AcDbEntity
  8
1
  6
Continuous
 62
     7
100
AcDbLine
 10
174.5354713993436
 20
189.1105779546496
 30
0.0
 11
174.5354713993436
 21
185.1105779546496
 31
0.0
  0
ARC
  5
90
330
51
100
AcDbEntity
  8
LAY0_14
  6
Continuous
 62
     7
100
AcDbCircle
 10
105.7614845829373
 20
162.3466619390246
 30
0.0
 40
1.999999999999376
100
AcDbArc
 50
0.40000251530803
 51
44.99998030583387
  0
ARC
  5
91
330
51
100
AcDbEntity
  8
LAY0_14
  6
Continuous
 62
     7
100
AcDbCircle
 10
170.3094582157462
 20
162.3466619390246
 30
0.0
 40
1.999999999998007
100
AcDbArc
 50
135.0000269790666
 51
179.6000216177295
  0
ARC
  5
92
330
51
100
AcDbEntity
  8
1
  6
Continuous
 62
     7
100
AcDbCircle
 10
138.0354713993418
 20
202.8083102311256
 30
0.0
 40
33.59237482962187
100
AcDbArc
 50
258.5471772353914
 51
281.4528227646082
  0
ARC
  5
93
330
51
100
AcDbEntity
  8
1
  6
Continuous
 62
     7
100
AcDbCircle
 10
151.6343642665281
 20
197.9576648197923
 30
0.0
 40
28.74105051580088
100
AcDbArc
 50
257.6168437031793
 51
282.3789214082813
  0
ARC
  5
94
330
51
100
AcDbEntity
  8
1
  6
Continuous
 62
     7
100
AcDbCircle
 10
163.1636862428875
 20
186.0328566043553
 30
0.0
 40
16.82200182261957
100
AcDbArc
 50
253.707819415381
 51
286.2732647512804
  0
ARC
  5
95
330
51
100
AcDbEntity
  8
1
  6
Continuous
 62
     7
100
AcDbCircle
 10
170.8668456590594
 20
174.4337962017231
 30
0.0
 40
5.214609122830095
100
AcDbArc
 50
240.651620251145
 51
299.2665988256975
  0
ARC
  5
96
330
51
100
AcDbEntity
  8
1
  6
Continuous
 62
     7
100
AcDbCircle
 10
124.4370354764266
 20
198.0406952384712
 30
0.0
 40
28.82225375981768
100
AcDbArc
 50
257.6555754473342
 51
282.3467886340171
  0
ARC
  5
97
330
51
100
AcDbEntity
  8
1
  6
Continuous
 62
     7
100
AcDbCircle
 10
112.9085116892281
 20
186.2018446599302
 30
0.0
 40
16.98463397369255
100
AcDbArc
 50
253.882413249207
 51
286.1275171355407
  0
ARC
  5
98
330
51
100
AcDbEntity
  8
1
  6
Continuous
 62
     7
100
AcDbCircle
 10
105.2027739424134
 20
174.4276802580124
 30
0.0
 40
5.208627299094733
100
AcDbArc
 50
240.7132089466132
 51
299.4018146910595
  0
ARC
  5
99
330
51
100
AcDbEntity
  8
1
  6
Continuous
 62
     7
100
AcDbCircle
 10
113.3408894410943
 20
185.9897545565699
 30
0.0
 40
18.15964411575695
100
AcDbArc
 50
254.3186144634309
 51
285.680031888439
  0
ARC
  5
9A
330
51
100
AcDbEntity
  8
1
  6
Continuous
 62
     7
100
AcDbCircle
 10
124.6688977749832
 20
198.9903979886555
 30
0.0
 40
31.15320213226531
100
AcDbArc
 50
258.1071932346525
 51
281.8946452349367
  0
ARC
  5
9B
330
51
100
AcDbEntity
  8
1
  6
Continuous
 62
     7
100
AcDbCircle
 10
138.0354713993418
 20
204.0339803193162
 30
0.0
 40
36.20040881556685
100
AcDbArc
 50
258.9385008247373
 51
281.0624618311331
  0
ARC
  5
9C
330
51
100
AcDbEntity
  8
1
  6
Continuous
 62
     7
100
AcDbCircle
 10
151.3988364106418
 20
198.7647766129318
 30
0.0
 40
30.93155629481037
100
AcDbArc
 50
258.0260677622534
 51
281.9752546067415
  0
ARC
  5
9D
330
51
100
AcDbEntity
  8
1
  6
Continuous
 62
     7
100
AcDbCircle
 10
162.7320078462677
 20
186.2566092699078
 30
0.0
 40
18.41820018837238
100
AcDbArc
 50
254.5220895635566
 51
285.4764485271222
  0
ARC
  5
9E
330
51
100
AcDbEntity
  8
1
  6
Continuous
 62
     7
100
AcDbCircle
 10
170.3037584238448
 20
173.4588004335773
 30
0.0
 40
5.620266608910168
100
AcDbArc
 50
241.7868669629969
 51
304.8542850313257
  0
ARC
  5
9F
330
51
100
AcDbEntity
  8
1
  6
Continuous
 62
     7
100
AcDbCircle
 10
105.7707622884469
 20
173.4841182346692
 30
0.0
 40
5.645054694440677
100
AcDbArc
 50
235.2836796160082
 51
298.1335042566404
  0
ARC
  5
A0
330
51
100
AcDbEntity
  8
LAY0_14
  6
Continuous
 62
     7
100
AcDbCircle
 10
171.5569862919181
 20
169.2510808843371
 30
0.0
 40
2.000000000001501
100
AcDbArc
 50
315.3808013738998
 51
348.3367937602968
  0
ARC
  5
A1
330
51
100
AcDbEntity
  8
LAY0_14
  6
Continuous
 62
     7
100
AcDbCircle
 10
104.5139565067653
 20
169.2510808843371
 30
0.0
 40
2.000000000000711
100
AcDbArc
 50
180.9999476626227
 51
191.7444889536322
  0
ARC
  5
A2
330
51
100
AcDbEntity
  8
LAY0_14
  6
Continuous
 62
     7
100
AcDbCircle
 10
104.5139565067653
 20
169.2510808843371
 30
0.0
 40
2.000000000000673
100
AcDbArc
 50
191.7444889536322
 51
224.6191649298823
  0
ARC
  5
A3
330
51
100
AcDbEntity
  8
LAY0_14
  6
Continuous
 62
     7
100
AcDbCircle
 10
171.5569862919181
 20
169.2510808843371
 30
0.0
 40
2.000000000001424
100
AcDbArc
 50
348.3367937602968
 51
359.0000354892533
  0
ARC
  5
A4
330
51
100
AcDbEntity
  8
LAY0_14
  6
Continuous
 62
     7
100
AcDbCircle
 10
173.5354713993436
 20
188.1105779546496
 30
0.0
 40
1.000000000000019
100
AcDbArc
 50
359.999988844035
 51
90.00000865155494
  0
ARC
  5
A5
330
51
100
AcDbEntity
  8
LAY0_14
  6
Continuous
 62
     7
100
AcDbCircle
 10
102.5354713993436
 20
188.1105779546496
 30
0.0
 40
1.000000000000478
100
AcDbArc
 50
89.99994399216676
 51
179.9999979502043
  0
ENDBLK
  5
53
330
51
100
AcDbEntity
  8
0
100
AcDbBlockEnd
  0
BLOCK
  5
55
330
54
100
AcDbEntity
  8
0
100
AcDbBlockBegin
  2
H640-50-3__1
 70
     0
 10
-161.1687983380568
 20
383.1713232407241
 30
0.0
  3
H640-50-3__1
  1

  0
LINE
  5
A6
330
54
100
AcDbEntity
  8
LAY0_12
  6
Continuous
 62
     7
100
AcDbLine
 10
101.5354713993435
 20
318.0928319829698
 30
0.0
 11
101.5354713993435
 21
322.0928319829698
 31
0.0
  0
LINE
  5
A7
330
54
100
AcDbEntity
  8
LAY0_12
  6
Continuous
 62
     7
100
AcDbLine
 10
101.5354713993435
 20
322.0928319829698
 30
0.0
 11
138.0354713993436
 21
322.0928319829698
 31
0.0
  0
LINE
  5
A8
330
54
100
AcDbEntity
  8
LAY0_12
  6
Continuous
 62
     7
100
AcDbLine
 10
101.5354713993435
 20
318.0928319829698
 30
0.0
 11
138.0354713993436
 21
318.0928319829698
 31
0.0
  0
LINE
  5
A9
330
54
100
AcDbEntity
  8
LAY0_12
  6
Continuous
 62
     7
100
AcDbLine
 10
138.0354713993436
 20
318.0928319829698
 30
0.0
 11
174.5354713993436
 21
318.0928319829698
 31
0.0
  0
LINE
  5
AA
330
54
100
AcDbEntity
  8
LAY0_12
  6
Continuous
 62
     7
100
AcDbLine
 10
138.0354713993436
 20
322.0928319829698
 30
0.0
 11
174.5354713993436
 21
322.0928319829698
 31
0.0
  0
LINE
  5
AB
330
54
100
AcDbEntity
  8
LAY0_12
  6
Continuous
 62
     7
100
AcDbLine
 10
174.5354713993436
 20
322.0928319829698
 30
0.0
 11
174.5354713993436
 21
318.0928319829698
 31
0.0
  0
ENDBLK
  5
56
330
54
100
AcDbEntity
  8
0
100
AcDbBlockEnd
  0
BLOCK
  5
58
330
57
100
AcDbEntity
  8
0
100
AcDbBlockBegin
  2
H640-50-2
 70
     0
 10
-167.5687983380569
 20
383.1713232407241
 30
0.0
  3
H640-50-2
  1

  0
LINE
  5
AC
330
57
100
AcDbEntity
  8
LAY0_8
  6
Continuous
 62
     7
100
AcDbLine
 10
109.4275307255153
 20
289.6005681890247
 30
0.0
 11
166.7819771366483
 21
295.3666662114855
 31
0.0
  0
LINE
  5
AD
330
57
100
AcDbEntity
  8
LAY0_8
  6
Continuous
 62
     7
100
AcDbLine
 10
166.6427712040311
 20
298.8702520269152
 30
0.0
 11
109.2898659305936
 21
293.1043523687122
 31
0.0
  0
LINE
  5
AE
330
57
100
AcDbEntity
  8
LAY0_8
  6
Continuous
 62
     7
100
AcDbLine
 10
109.4275307255153
 20
278.3005651372669
 30
0.0
 11
166.7819618778592
 21
284.0666479009386
 31
0.0
  0
LINE
  5
AF
330
57
100
AcDbEntity
  8
LAY0_8
  6
Continuous
 62
     7
100
AcDbLine
 10
166.6427712040311
 20
287.5702489751576
 30
0.0
 11
109.2898659305936
 21
281.8043493169544
 31
0.0
  0
LINE
  5
B0
330
57
100
AcDbEntity
  8
LAY0_8
  6
Continuous
 62
     7
100
AcDbLine
 10
109.4275154667264
 20
267.0005620855091
 30
0.0
 11
166.7819771366483
 21
272.7666601079699
 31
0.0
  0
LINE
  5
B1
330
57
100
AcDbEntity
  8
LAY0_8
  6
Continuous
 62
     7
100
AcDbLine
 10
166.6427712040311
 20
276.2702459233998
 30
0.0
 11
109.2898659305936
 21
270.5043462651966
 31
0.0
  0
LINE
  5
B2
330
57
100
AcDbEntity
  8
LAY0_8
  6
Continuous
 62
     7
100
AcDbLine
 10
166.6427712040311
 20
264.9702428716421
 30
0.0
 11
109.2898659305936
 21
259.2043432134386
 31
0.0
  0
LINE
  5
B3
330
57
100
AcDbEntity
  8
LAY0_8
  6
Continuous
 62
     7
100
AcDbLine
 10
109.4275307255153
 20
244.4014409917588
 30
0.0
 11
166.7820076542264
 21
250.1675237554308
 31
0.0
  0
LINE
  5
B4
330
57
100
AcDbEntity
  8
LAY0_8
  6
Continuous
 62
     7
100
AcDbLine
 10
109.4275154667264
 20
233.1014226812121
 30
0.0
 11
166.7819771366483
 21
238.8675054448838
 31
0.0
  0
LINE
  5
B5
330
57
100
AcDbEntity
  8
LAY0_8
  6
Continuous
 62
     7
100
AcDbLine
 10
166.6427712040273
 20
242.3711065191027
 30
0.0
 11
109.2898659305936
 21
236.6052068608996
 31
0.0
  0
LINE
  5
B6
330
57
100
AcDbEntity
  8
LAY0_8
  6
Continuous
 62
     7
100
AcDbLine
 10
109.4274849491483
 20
221.8014348882433
 30
0.0
 11
166.7819618778592
 21
227.5675176519152
 31
0.0
  0
LINE
  5
B7
330
57
100
AcDbEntity
  8
LAY0_8
  6
Continuous
 62
     7
100
AcDbLine
 10
166.6427712040273
 20
231.0711187261338
 30
0.0
 11
109.2898659305936
 21
225.3052190679308
 31
0.0
  0
LINE
  5
B8
330
57
100
AcDbEntity
  8
LAY0_8
  6
Continuous
 62
     7
100
AcDbLine
 10
109.4275307255153
 20
210.5014165776963
 30
0.0
 11
166.7819618778592
 21
216.2674993413683
 31
0.0
  0
LINE
  5
B9
330
57
100
AcDbEntity
  8
LAY0_8
  6
Continuous
 62
     7
100
AcDbLine
 10
166.6427712040273
 20
219.7711004155871
 30
0.0
 11
109.2898659305936
 21
214.0052007573838
 31
0.0
  0
LINE
  5
BA
330
57
100
AcDbEntity
  8
LAY0_8
  6
Continuous
 62
     7
100
AcDbLine
 10
166.6427712040273
 20
253.6711095708605
 30
0.0
 11
109.2898659305936
 21
247.9052099126574
 31
0.0
  0
LINE
  5
BB
330
57
100
AcDbEntity
  8
LAY0_8
  6
Continuous
 62
     7
100
AcDbLine
 10
109.4275154667264
 20
255.7014287847277
 30
0.0
 11
166.7819771366483
 21
261.4675268071885
 31
0.0
  0
LINE
  5
BC
330
57
100
AcDbEntity
  8
LAY0_8
  6
Continuous
 62
     7
100
AcDbLine
 10
109.9356789188712
 20
199.2525152105088
 30
0.0
 11
166.4680275516873
 21
204.9359563726183
 31
0.0
  0
LINE
  5
BD
330
57
100
AcDbEntity
  8
LAY0_8
  6
Continuous
 62
     7
100
AcDbLine
 10
166.6427712040273
 20
208.4711126226183
 30
0.0
 11
109.2898659305936
 21
202.7052129644152
 31
0.0
  0
LINE
  5
BE
330
57
100
AcDbEntity
  8
LAY0_8
  6
Continuous
 62
     7
100
AcDbLine
 10
166.6427712040273
 20
197.1711248296496
 30
0.0
 11
126.2528633671134
 21
193.1105779546496
 31
0.0
  0
LINE
  5
BF
330
57
100
AcDbEntity
  8
LAY0_8
  6
Continuous
 62
     7
100
AcDbLine
 10
161.2420143680936
 20
193.1105779546496
 30
0.0
 11
166.4680275516873
 21
193.6359685796496
 31
0.0
  0
LINE
  5
C0
330
57
100
AcDbEntity
  8
LAY0_8
  6
Continuous
 62
     7
100
AcDbLine
 10
109.4275307255153
 20
300.9005780865828
 30
0.0
 11
166.7819771366483
 21
306.6666761090435
 31
0.0
  0
LINE
  5
C1
330
57
100
AcDbEntity
  8
LAY0_8
  6
Continuous
 62
     7
100
AcDbLine
 10
166.6427712040311
 20
310.1702619244732
 30
0.0
 11
109.2898659305936
 21
304.4043622662703
 31
0.0
  0
LINE
  5
C2
330
57
100
AcDbEntity
  8
LAY0_8
  6
Continuous
 62
     7
100
AcDbLine
 10
109.4275307255153
 20
312.2005879841408
 30
0.0
 11
166.7819771366483
 21
317.9666860066016
 31
0.0
  0
LINE
  5
C3
330
57
100
AcDbEntity
  8
LAY0_8
  6
Continuous
 62
     7
100
AcDbLine
 10
133.0476692010254
 20
318.0928319829698
 30
0.0
 11
109.2898659305936
 21
315.7043721638283
 31
0.0
  0
ARC
  5
C4
330
57
100
AcDbEntity
  8
LAY0_7
  6
Continuous
 62
     7
100
AcDbCircle
 10
109.9442848759061
 20
291.4101537603136
 30
0.0
 40
1.758819580077003
100
AcDbArc
 50
120.1717819137653
 51
239.8282199075274
  0
ARC
  5
C5
330
57
100
AcDbEntity
  8
LAY0_6
  6
Continuous
 62
     7
100
AcDbCircle
 10
106.1108498173122
 20
285.7598089116808
 30
0.0
 40
5.074615478515126
100
AcDbArc
 50
305.5363167618751
 51
54.46368187162629
  0
ARC
  5
C6
330
57
100
AcDbEntity
  8
LAY0_7
  6
Continuous
 62
     7
100
AcDbCircle
 10
109.9442848759061
 20
280.110196484923
 30
0.0
 40
1.758819580080296
100
AcDbArc
 50
120.171781913703
 51
239.8282199075255
  0
ARC
  5
C7
330
57
100
AcDbEntity
  8
LAY0_6
  6
Continuous
 62
     7
100
AcDbCircle
 10
106.1108498173122
 20
274.459805859923
 30
0.0
 40
5.074615478515126
100
AcDbArc
 50
305.5363167618751
 51
54.46368187162629
  0
ARC
  5
C8
330
57
100
AcDbEntity
  8
LAY0_7
  6
Continuous
 62
     7
100
AcDbCircle
 10
109.9442848759061
 20
268.8102392095324
 30
0.0
 40
1.758819580076954
100
AcDbArc
 50
120.1717819137663
 51
239.8282199075292
  0
ARC
  5
C9
330
57
100
AcDbEntity
  8
LAY0_6
  6
Continuous
 62
     7
100
AcDbCircle
 10
106.1108498173122
 20
263.1598028081652
 30
0.0
 40
5.074615478515126
100
AcDbArc
 50
305.5363167618751
 51
54.46368187162517
  0
ARC
  5
CA
330
57
100
AcDbEntity
  8
LAY0_6
  6
Continuous
 62
     7
100
AcDbCircle
 10
169.9601234989528
 20
268.8104680913683
 30
0.0
 40
5.074645996093502
100
AcDbArc
 50
122.7741932704926
 51
237.2258119658232
  0
ARC
  5
CB
330
57
100
AcDbEntity
  8
LAY0_7
  6
Continuous
 62
     7
100
AcDbCircle
 10
166.126642663992
 20
274.4604467290636
 30
0.0
 40
1.758834838866547
100
AcDbArc
 50
308.1480718175134
 51
59.83359025748612
  0
ARC
  5
CC
330
57
100
AcDbEntity
  8
LAY0_6
  6
Continuous
 62
     7
100
AcDbCircle
 10
169.9601234989528
 20
280.1104711431261
 30
0.0
 40
5.074645996093502
100
AcDbArc
 50
122.7741932704926
 51
237.2258119658232
  0
ARC
  5
CD
330
57
100
AcDbEntity
  8
LAY0_7
  6
Continuous
 62
     7
100
AcDbCircle
 10
166.126642663992
 20
285.7604497808216
 30
0.0
 40
1.758834838866726
100
AcDbArc
 50
308.1480718175089
 51
59.83359025748333
  0
ARC
  5
CE
330
57
100
AcDbEntity
  8
LAY0_6
  6
Continuous
 62
     7
100
AcDbCircle
 10
169.9601234989528
 20
291.4104741948841
 30
0.0
 40
5.074645996093406
100
AcDbArc
 50
122.7741932704933
 51
237.2258119658242
  0
ARC
  5
CF
330
57
100
AcDbEntity
  8
LAY0_7
  6
Continuous
 62
     7
100
AcDbCircle
 10
166.126642663992
 20
297.0604528325794
 30
0.0
 40
1.758834838866726
100
AcDbArc
 50
308.1480718175089
 51
59.83359025754289
  0
ARC
  5
D0
330
57
100
AcDbEntity
  8
LAY0_7
  6
Continuous
 62
     7
100
AcDbCircle
 10
166.126642663992
 20
263.1604436773058
 30
0.0
 40
1.758834838866458
100
AcDbArc
 50
308.1480718175158
 51
59.83359025748612
  0
ARC
  5
D1
330
57
100
AcDbEntity
  8
LAY0_7
  6
Continuous
 62
     7
100
AcDbCircle
 10
166.1266426639884
 20
217.9613164800402
 30
0.0
 40
1.758834838866563
100
AcDbArc
 50
308.1480718175036
 51
59.83359025738526
  0
ARC
  5
D2
330
57
100
AcDbEntity
  8
LAY0_7
  6
Continuous
 62
     7
100
AcDbCircle
 10
166.1266426639884
 20
229.2613042730088
 30
0.0
 40
1.758834838866317
100
AcDbArc
 50
308.1480718175099
 51
59.83359025744761
  0
ARC
  5
D3
330
57
100
AcDbEntity
  8
LAY0_7
  6
Continuous
 62
     7
100
AcDbCircle
 10
166.1266426639884
 20
240.5613225835558
 30
0.0
 40
1.758834838866407
100
AcDbArc
 50
308.1480718175077
 51
59.83359025744249
  0
ARC
  5
D4
330
57
100
AcDbEntity
  8
LAY0_7
  6
Continuous
 62
     7
100
AcDbCircle
 10
109.9442848759023
 20
234.9112371343371
 30
0.0
 40
1.758819580078185
100
AcDbArc
 50
120.1717819135994
 51
239.8282199075376
  0
ARC
  5
D5
330
57
100
AcDbEntity
  8
LAY0_7
  6
Continuous
 62
     7
100
AcDbCircle
 10
109.9442848759023
 20
223.6112798589463
 30
0.0
 40
1.758819580075089
100
AcDbArc
 50
120.1717819136581
 51
239.8282199075339
  0
ARC
  5
D6
330
57
100
AcDbEntity
  8
LAY0_7
  6
Continuous
 62
     7
100
AcDbCircle
 10
109.9442848759023
 20
246.2111944097277
 30
0.0
 40
1.758819580078111
100
AcDbArc
 50
120.1717819136008
 51
239.8282199075395
  0
ARC
  5
D7
330
57
100
AcDbEntity
  8
LAY0_7
  6
Continuous
 62
     7
100
AcDbCircle
 10
109.9442848759023
 20
212.3112920659777
 30
0.0
 40
1.758819580078185
100
AcDbArc
 50
120.1717819135994
 51
239.8282199075395
  0
ARC
  5
D8
330
57
100
AcDbEntity
  8
LAY0_6
  6
Continuous
 62
     7
100
AcDbCircle
 10
169.9601234989493
 20
212.3113225835558
 30
0.0
 40
5.074645996091594
100
AcDbArc
 50
122.7741932704591
 51
237.2258119658566
  0
ARC
  5
D9
330
57
100
AcDbEntity
  8
LAY0_6
  6
Continuous
 62
     7
100
AcDbCircle
 10
169.9601234989493
 20
223.6113408941027
 30
0.0
 40
5.074645996091594
100
AcDbArc
 50
122.7741932704591
 51
237.2258119658566
  0
ARC
  5
DA
330
57
100
AcDbEntity
  8
LAY0_6
  6
Continuous
 62
     7
100
AcDbCircle
 10
106.1108498173123
 20
217.9606450933213
 30
0.0
 40
5.074615478515068
100
AcDbArc
 50
305.5363167618742
 51
54.46368187162719
  0
ARC
  5
DB
330
57
100
AcDbEntity
  8
LAY0_6
  6
Continuous
 62
     7
100
AcDbCircle
 10
169.9601234989493
 20
234.9113286870713
 30
0.0
 40
5.074645996091594
100
AcDbArc
 50
122.7741932704591
 51
237.225811965856
  0
ARC
  5
DC
330
57
100
AcDbEntity
  8
LAY0_6
  6
Continuous
 62
     7
100
AcDbCircle
 10
106.1108498173123
 20
229.2606634038683
 30
0.0
 40
5.074615478515068
100
AcDbArc
 50
305.5363167618742
 51
54.46368187162646
  0
ARC
  5
DD
330
57
100
AcDbEntity
  8
LAY0_6
  6
Continuous
 62
     7
100
AcDbCircle
 10
169.9601234989493
 20
246.2113164800402
 30
0.0
 40
5.074645996091594
100
AcDbArc
 50
122.7741932704591
 51
237.2258119658566
  0
ARC
  5
DE
330
57
100
AcDbEntity
  8
LAY0_6
  6
Continuous
 62
     7
100
AcDbCircle
 10
106.1108498173123
 20
240.5606817144152
 30
0.0
 40
5.074615478515068
100
AcDbArc
 50
305.5363167618742
 51
54.46368187162515
  0
ARC
  5
DF
330
57
100
AcDbEntity
  8
LAY0_7
  6
Continuous
 62
     7
100
AcDbCircle
 10
166.1266426639884
 20
251.8613103765247
 30
0.0
 40
1.758834838866563
100
AcDbArc
 50
308.1480718175036
 51
59.83359025744296
  0
ARC
  5
E0
330
57
100
AcDbEntity
  8
LAY0_6
  6
Continuous
 62
     7
100
AcDbCircle
 10
169.9601234989493
 20
257.5113347905872
 30
0.0
 40
5.074645996091594
100
AcDbArc
 50
122.7741932704591
 51
237.2258119658586
  0
ARC
  5
E1
330
57
100
AcDbEntity
  8
LAY0_6
  6
Continuous
 62
     7
100
AcDbCircle
 10
106.1108498173123
 20
251.8606695073838
 30
0.0
 40
5.074615478515068
100
AcDbArc
 50
305.5363167618742
 51
54.46368187162719
  0
ARC
  5
E2
330
57
100
AcDbEntity
  8
LAY0_7
  6
Continuous
 62
     7
100
AcDbCircle
 10
109.9442848759023
 20
257.5111516851183
 30
0.0
 40
1.758819580074991
100
AcDbArc
 50
120.1717819136599
 51
239.8282199075343
  0
ARC
  5
E3
330
57
100
AcDbEntity
  8
LAY0_7
  6
Continuous
 62
     7
100
AcDbCircle
 10
109.9442848759023
 20
201.0113042730088
 30
0.0
 40
1.758819580078382
100
AcDbArc
 50
120.1717819135957
 51
269.712693402053
  0
ARC
  5
E4
330
57
100
AcDbEntity
  8
LAY0_6
  6
Continuous
 62
     7
100
AcDbCircle
 10
106.1108498173123
 20
195.3606695073838
 30
0.0
 40
5.074615478514444
100
AcDbArc
 50
333.6788818028871
 51
54.46368187162719
  0
ARC
  5
E5
330
57
100
AcDbEntity
  8
LAY0_6
  6
Continuous
 62
     7
100
AcDbCircle
 10
106.1108498173123
 20
206.6606573003527
 30
0.0
 40
5.074615478515068
100
AcDbArc
 50
305.5363167618742
 51
54.46368187162515
  0
ARC
  5
E6
330
57
100
AcDbEntity
  8
LAY0_7
  6
Continuous
 62
     7
100
AcDbCircle
 10
166.1266426639884
 20
195.3613408941027
 30
0.0
 40
1.758834838865688
100
AcDbArc
 50
281.1920745599047
 51
51.85192681601067
  0
ARC
  5
E7
330
57
100
AcDbEntity
  8
LAY0_7
  6
Continuous
 62
     7
100
AcDbCircle
 10
166.1266426639884
 20
206.6613286870713
 30
0.0
 40
1.758834838869201
100
AcDbArc
 50
281.192074559882
 51
51.85192681601296
  0
ARC
  5
E8
330
57
100
AcDbEntity
  8
LAY0_6
  6
Continuous
 62
     7
100
AcDbCircle
 10
169.9601234989493
 20
201.0113347905871
 30
0.0
 40
5.074645996091594
100
AcDbArc
 50
122.7741932704591
 51
237.2258119658579
  0
ARC
  5
E9
330
57
100
AcDbEntity
  8
LAY0_6
  6
Continuous
 62
     7
100
AcDbCircle
 10
169.9601234989528
 20
302.7104840924421
 30
0.0
 40
5.074645996093454
100
AcDbArc
 50
122.7741932704929
 51
237.2258119658242
  0
ARC
  5
EA
330
57
100
AcDbEntity
  8
LAY0_6
  6
Continuous
 62
     7
100
AcDbCircle
 10
106.1108498173122
 20
297.0598188092388
 30
0.0
 40
5.074615478515126
100
AcDbArc
 50
305.5363167618751
 51
54.46368187162704
  0
ARC
  5
EB
330
57
100
AcDbEntity
  8
LAY0_7
  6
Continuous
 62
     7
100
AcDbCircle
 10
166.126642663992
 20
308.3604627301374
 30
0.0
 40
1.758834838866681
100
AcDbArc
 50
308.14807181751
 51
59.83359025754381
  0
ARC
  5
EC
330
57
100
AcDbEntity
  8
LAY0_6
  6
Continuous
 62
     7
100
AcDbCircle
 10
169.9601234989528
 20
314.0104939900002
 30
0.0
 40
5.07464599609465
100
AcDbArc
 50
126.442086125021
 51
237.2258119658242
  0
ARC
  5
ED
330
57
100
AcDbEntity
  8
LAY0_7
  6
Continuous
 62
     7
100
AcDbCircle
 10
109.9442848759061
 20
302.7101636578717
 30
0.0
 40
1.758819580077003
100
AcDbArc
 50
120.1717819137653
 51
239.8282199075274
  0
ARC
  5
EE
330
57
100
AcDbEntity
  8
LAY0_7
  6
Continuous
 62
     7
100
AcDbCircle
 10
109.9442848759061
 20
314.0101735554297
 30
0.0
 40
1.758819580077003
100
AcDbArc
 50
120.1717819137653
 51
239.8282199075274
  0
ARC
  5
EF
330
57
100
AcDbEntity
  8
LAY0_6
  6
Continuous
 62
     7
100
AcDbCircle
 10
106.1108498173122
 20
308.3598287067969
 30
0.0
 40
5.074615478515126
100
AcDbArc
 50
305.5363167618751
 51
54.46368187162592
  0
ARC
  5
F0
330
57
100
AcDbEntity
  8
LAY0_6
  6
Continuous
 62
     7
100
AcDbCircle
 10
106.1108498173122
 20
319.6598386043549
 30
0.0
 40
5.074615478515126
100
AcDbArc
 50
305.5363167618751
 51
342.0134833859244
  0
ENDBLK
  5
59
330
57
100
AcDbEntity
  8
0
100
AcDbBlockEnd
  0
BLOCK
  5
5B
330
5A
100
AcDbEntity
  8
0
100
AcDbBlockBegin
  2
H640-50-3__2
 70
     0
 10
-161.1687983380568
 20
185.3713232407239
 30
0.0
  3
H640-50-3__2
  1

  0
LINE
  5
F1
330
5A
100
AcDbEntity
  8
LAY0_15
  6
Continuous
 62
     7
100
AcDbLine
 10
101.5354713993436
 20
193.1105779546496
 30
0.0
 11
101.5354713993436
 21
189.1105779546496
 31
0.0
  0
LINE
  5
F2
330
5A
100
AcDbEntity
  8
LAY0_15
  6
Continuous
 62
     7
100
AcDbLine
 10
101.5354713993436
 20
193.1105779546496
 30
0.0
 11
174.5354713993436
 21
193.1105779546496
 31
0.0
  0
LINE
  5
F3
330
5A
100
AcDbEntity
  8
LAY0_14
  6
Continuous
 62
     7
100
AcDbLine
 10
174.5354713993436
 20
189.1105779546496
 30
0.0
 11
174.5354713993436
 21
193.1105779546496
 31
0.0
  0
LINE
  5
F4
330
5A
100
AcDbEntity
  8
LAY0_14
  6
Continuous
 62
     7
100
AcDbLine
 10
174.5354713993436
 20
189.1105779546496
 30
0.0
 11
101.5354713993436
 21
189.1105779546496
 31
0.0
  0
ENDBLK
  5
5C
330
5A
100
AcDbEntity
  8
0
100
AcDbBlockEnd
  0
BLOCK
  5
5E
330
5D
100
AcDbEntity
  8
0
100
AcDbBlockBegin
  2
H640-50-1
 70
     0
 10
-161.1687983380568
 20
441.671323240724
 30
0.0
  3
H640-50-1
  1

  0
LINE
  5
F5
330
5D
100
AcDbEntity
  8
LAY0_14
  6
Continuous
 62
     7
100
AcDbLine
 10
138.0354713993436
 20
323.1105932134386
 30
0.0
 11
101.5354561405584
 21
323.1105932134386
 31
0.0
  0
LINE
  5
F6
330
5D
100
AcDbEntity
  8
LAY0_14
  6
Continuous
 62
     7
100
AcDbLine
 10
101.5354561405584
 20
323.1105932134386
 30
0.0
 11
101.5354561405584
 21
326.1105779546495
 31
0.0
  0
LINE
  5
F7
330
5D
100
AcDbEntity
  8
LAY0_14
  6
Continuous
 62
     7
100
AcDbLine
 10
101.5354561405584
 20
326.1105779546495
 30
0.0
 11
138.0354713993436
 21
326.110585584044
 31
0.0
  0
LINE
  5
F8
330
5D
100
AcDbEntity
  8
LAY0_14
  6
Continuous
 62
     7
100
AcDbLine
 10
102.5200422779237
 20
342.3386767241033
 30
0.0
 11
102.5025887089139
 21
341.3363546270129
 31
0.0
  0
LINE
  5
F9
330
5D
100
AcDbEntity
  8
LAY0_14
  6
Continuous
 62
     7
100
AcDbLine
 10
102.5025887089139
 20
341.3363546270129
 30
0.0
 11
102.236811121027
 21
326.110585584044
 31
0.0
  0
LINE
  5
FA
330
5D
100
AcDbEntity
  8
LAY0_14
  6
Continuous
 62
     7
100
AcDbLine
 10
102.3890022831326
 20
326.110585584044
 30
0.0
 11
102.654810388605
 21
341.3363469976184
 31
0.0
  0
LINE
  5
FB
330
5D
100
AcDbEntity
  8
LAY0_14
  6
Continuous
 62
     7
100
AcDbLine
 10
107.7598615818184
 20
341.3328846146128
 30
0.0
 11
107.5346169071598
 21
326.110585584044
 31
0.0
  0
LINE
  5
FC
330
5D
100
AcDbEntity
  8
LAY0_14
  6
Continuous
 62
     7
100
AcDbLine
 10
107.9680885868436
 20
326.110585584044
 30
0.0
 11
108.1933998661441
 21
341.3363622564074
 31
0.0
  0
LINE
  5
FD
330
5D
100
AcDbEntity
  8
LAY0_14
  6
Continuous
 62
     7
100
AcDbLine
 10
117.6264376403657
 20
341.3356811056908
 30
0.0
 11
117.4759010868436
 21
326.110585584044
 31
0.0
  0
LINE
  5
FE
330
5D
100
AcDbEntity
  8
LAY0_14
  6
Continuous
 62
     7
100
AcDbLine
 10
118.1246437626248
 20
326.110585584044
 30
0.0
 11
118.2751869755191
 21
341.3363546270129
 31
0.0
  0
LINE
  5
FF
330
5D
100
AcDbEntity
  8
LAY0_14
  6
Continuous
 62
     7
100
AcDbLine
 10
130.600045270478
 20
341.3359731846686
 30
0.0
 11
130.5471901493436
 21
326.110585584044
 31
0.0
  0
LINE
  5
100
330
5D
100
AcDbEntity
  8
LAY0_14
  6
Continuous
 62
     7
100
AcDbLine
 10
131.3124336796171
 20
326.110585584044
 30
0.0
 11
131.3653053837186
 21
341.3363546270129
 31
0.0
  0
LINE
  5
101
330
5D
100
AcDbEntity
  8
LAY0_14
  6
Continuous
 62
     7
100
AcDbLine
 10
103.0887398319609
 20
343.3732808965442
 30
0.0
 11
103.9531044559878
 21
344.2376684087512
 31
0.0
  0
LINE
  5
102
330
5D
100
AcDbEntity
  8
LAY0_14
  6
Continuous
 62
     7
100
AcDbLine
 10
103.9531044559878
 20
344.2376684087512
 30
0.0
 11
138.0354713993436
 21
344.2376607793567
 31
0.0
  0
LINE
  5
103
330
5D
100
AcDbEntity
  8
LAY0_14
  6
Continuous
 62
     7
100
AcDbLine
 10
104.2459511356718
 20
344.9360479253528
 30
0.0
 11
138.0354713993436
 21
344.9360479253528
 31
0.0
  0
LINE
  5
104
330
5D
100
AcDbEntity
  8
LAY0_14
  6
Continuous
 62
     7
100
AcDbLine
 10
104.4743752079411
 20
371.1106695073839
 30
0.0
 11
105.4918312626248
 21
373.1105779546496
 31
0.0
  0
LINE
  5
105
330
5D
100
AcDbEntity
  8
LAY0_14
  6
Continuous
 62
     7
100
AcDbLine
 10
138.0354713993436
 20
371.1106695073839
 30
0.0
 11
104.4743752079411
 21
371.1106695073839
 31
0.0
  0
LINE
  5
106
330
5D
100
AcDbEntity
  8
LAY0_14
  6
Continuous
 62
     7
100
AcDbLine
 10
104.2459511356718
 20
344.9360479253528
 30
0.0
 11
104.4743752079411
 21
371.1106695073839
 31
0.0
  0
LINE
  5
107
330
5D
100
AcDbEntity
  8
LAY0_14
  6
Continuous
 62
     7
100
AcDbLine
 10
105.4918312626248
 20
373.1105779546496
 30
0.0
 11
138.0354713993436
 21
373.1105779546496
 31
0.0
  0
LINE
  5
108
330
5D
100
AcDbEntity
  8
LAY10_0
  6
Continuous
 62
     7
100
AcDbLine
 10
101.5998785475516
 20
322.7575124639269
 30
0.0
 11
174.5354713993436
 21
322.7575124639269
 31
0.0
  0
LINE
  5
109
330
5D
100
AcDbEntity
  8
LAY0_14
  6
Continuous
 62
     7
100
AcDbLine
 10
138.0354713993436
 20
373.1105779546496
 30
0.0
 11
170.5791115360623
 21
373.1105779546496
 31
0.0
  0
LINE
  5
10A
330
5D
100
AcDbEntity
  8
LAY0_14
  6
Continuous
 62
     7
100
AcDbLine
 10
171.5965675907461
 20
371.1106695073839
 30
0.0
 11
171.8249916630153
 21
344.9360479253528
 31
0.0
  0
LINE
  5
10B
330
5D
100
AcDbEntity
  8
LAY0_14
  6
Continuous
 62
     7
100
AcDbLine
 10
171.5965675907461
 20
371.1106695073839
 30
0.0
 11
138.0354713993436
 21
371.1106695073839
 31
0.0
  0
LINE
  5
10C
330
5D
100
AcDbEntity
  8
LAY0_14
  6
Continuous
 62
     7
100
AcDbLine
 10
170.5791115360623
 20
373.1105779546496
 30
0.0
 11
171.5965675907461
 21
371.1106695073839
 31
0.0
  0
LINE
  5
10D
330
5D
100
AcDbEntity
  8
LAY0_14
  6
Continuous
 62
     7
100
AcDbLine
 10
138.0354713993436
 20
344.9360479253528
 30
0.0
 11
171.8249916630153
 21
344.9360479253528
 31
0.0
  0
LINE
  5
10E
330
5D
100
AcDbEntity
  8
LAY0_14
  6
Continuous
 62
     7
100
AcDbLine
 10
138.0354713993436
 20
344.2376607793567
 30
0.0
 11
172.1178383426993
 21
344.2376684087512
 31
0.0
  0
LINE
  5
10F
330
5D
100
AcDbEntity
  8
LAY0_14
  6
Continuous
 62
     7
100
AcDbLine
 10
172.1178383426993
 20
344.2376684087512
 30
0.0
 11
172.9822029667263
 21
343.3732808965442
 31
0.0
  0
LINE
  5
110
330
5D
100
AcDbEntity
  8
LAY0_14
  6
Continuous
 62
     7
100
AcDbLine
 10
144.7056374149686
 20
341.3363546270129
 30
0.0
 11
144.75850911907
 21
326.110585584044
 31
0.0
  0
LINE
  5
111
330
5D
100
AcDbEntity
  8
LAY0_14
  6
Continuous
 62
     7
100
AcDbLine
 10
145.5237526493436
 20
326.110585584044
 30
0.0
 11
145.4708975282092
 21
341.3359731846686
 31
0.0
  0
LINE
  5
112
330
5D
100
AcDbEntity
  8
LAY0_14
  6
Continuous
 62
     7
100
AcDbLine
 10
157.7957558231681
 20
341.3363546270129
 30
0.0
 11
157.9462990360623
 21
326.110585584044
 31
0.0
  0
LINE
  5
113
330
5D
100
AcDbEntity
  8
LAY0_14
  6
Continuous
 62
     7
100
AcDbLine
 10
158.5950417118436
 20
326.110585584044
 30
0.0
 11
158.4445051583215
 21
341.3356811056908
 31
0.0
  0
LINE
  5
114
330
5D
100
AcDbEntity
  8
LAY0_14
  6
Continuous
 62
     7
100
AcDbLine
 10
167.8775429325431
 20
341.3363622564074
 30
0.0
 11
168.1028542118436
 21
326.110585584044
 31
0.0
  0
LINE
  5
115
330
5D
100
AcDbEntity
  8
LAY0_14
  6
Continuous
 62
     7
100
AcDbLine
 10
168.5363258915273
 20
326.110585584044
 30
0.0
 11
168.3110812168687
 21
341.3328846146128
 31
0.0
  0
LINE
  5
116
330
5D
100
AcDbEntity
  8
LAY0_14
  6
Continuous
 62
     7
100
AcDbLine
 10
173.4161324100821
 20
341.3363469976184
 30
0.0
 11
173.6819405155545
 21
326.110585584044
 31
0.0
  0
LINE
  5
117
330
5D
100
AcDbEntity
  8
LAY0_14
  6
Continuous
 62
     7
100
AcDbLine
 10
173.8341316776601
 20
326.110585584044
 30
0.0
 11
173.5683540897733
 21
341.3363546270129
 31
0.0
  0
LINE
  5
118
330
5D
100
AcDbEntity
  8
LAY0_14
  6
Continuous
 62
     7
100
AcDbLine
 10
173.5683540897733
 20
341.3363546270129
 30
0.0
 11
173.5509005207634
 21
342.3386767241033
 31
0.0
  0
LINE
  5
119
330
5D
100
AcDbEntity
  8
LAY0_14
  6
Continuous
 62
     7
100
AcDbLine
 10
138.0354713993436
 20
326.110585584044
 30
0.0
 11
174.5354866581288
 21
326.1105779546495
 31
0.0
  0
LINE
  5
11A
330
5D
100
AcDbEntity
  8
LAY0_14
  6
Continuous
 62
     7
100
AcDbLine
 10
174.5354866581288
 20
326.1105779546495
 30
0.0
 11
174.5354866581288
 21
323.1105932134386
 31
0.0
  0
LINE
  5
11B
330
5D
100
AcDbEntity
  8
LAY0_14
  6
Continuous
 62
     7
100
AcDbLine
 10
174.5354866581288
 20
323.1105932134386
 30
0.0
 11
138.0354713993436
 21
323.1105932134386
 31
0.0
  0
ARC
  5
11C
330
5D
100
AcDbEntity
  8
LAY0_14
  6
Continuous
 62
     7
100
AcDbCircle
 10
102.5354713993436
 20
323.1105932134386
 30
0.0
 40
1.000000000000031
100
AcDbArc
 50
200.675863716919
 51
269.9999826973331
  0
ARC
  5
11D
330
5D
100
AcDbEntity
  8
LAY0_14
  6
Continuous
 62
     7
100
AcDbCircle
 10
102.5354713993436
 20
323.1105932134386
 30
0.0
 40
1.0
100
AcDbArc
 50
180.000000683269
 51
200.675863716919
  0
ARC
  5
11E
330
5D
100
AcDbEntity
  8
LAY0_14
  6
Continuous
 62
     7
100
AcDbCircle
 10
104.51394124798
 20
341.9700673955676
 30
0.0
 40
2.000000000001418
100
AcDbArc
 50
135.4796255598403
 51
179.0000336680327
  0
ARC
  5
11F
330
5D
100
AcDbEntity
  8
1
  6
Continuous
 62
     7
100
AcDbCircle
 10
138.1114187614813
 20
306.1728775903893
 30
0.0
 40
37.21177496701545
100
AcDbArc
 50
90.27087339963103
 51
100.8812781504592
  0
ARC
  5
120
330
5D
100
AcDbEntity
  8
1
  6
Continuous
 62
     7
100
AcDbCircle
 10
124.6717564257735
 20
312.341567364657
 30
0.0
 40
31.04407358026164
100
AcDbArc
 50
78.07433262554926
 51
101.9275882995789
  0
ARC
  5
121
330
5D
100
AcDbEntity
  8
1
  6
Continuous
 62
     7
100
AcDbCircle
 10
105.7775970838314
 20
337.794426755671
 30
0.0
 40
5.591231625415999
100
AcDbArc
 50
61.63063425662234
 51
125.63492329024
  0
ARC
  5
122
330
5D
100
AcDbEntity
  8
1
  6
Continuous
 62
     7
100
AcDbCircle
 10
113.3471536344617
 20
325.3909425377232
 30
0.0
 40
18.00639630322543
100
AcDbArc
 50
74.18090859324445
 51
105.8333213424265
  0
ARC
  5
123
330
5D
100
AcDbEntity
  8
1
  6
Continuous
 62
     7
100
AcDbCircle
 10
138.1159917592324
 20
307.5958752557601
 30
0.0
 40
34.40918067525702
100
AcDbArc
 50
90.13765955785252
 51
101.3141622312352
  0
ARC
  5
124
330
5D
100
AcDbEntity
  8
1
  6
Continuous
 62
     7
100
AcDbCircle
 10
124.436744816083
 20
313.1831955093671
 30
0.0
 40
28.81952746535062
100
AcDbArc
 50
77.6514343051339
 51
102.3450191978714
  0
ARC
  5
125
330
5D
100
AcDbEntity
  8
1
  6
Continuous
 62
     7
100
AcDbCircle
 10
105.2042445926925
 20
336.7765651698006
 30
0.0
 40
5.224100408518431
100
AcDbArc
 50
60.71214915379961
 51
119.2101317811333
  0
ARC
  5
126
330
5D
100
AcDbEntity
  8
1
  6
Continuous
 62
     7
100
AcDbCircle
 10
112.908738404307
 20
324.9897477372178
 30
0.0
 40
17.01311916635126
100
AcDbArc
 50
73.90100952547364
 51
106.0907159266776
  0
ARC
  5
127
330
5D
100
AcDbEntity
  8
LAY0_14
  6
Continuous
 62
     7
100
AcDbCircle
 10
103.2459969120389
 20
344.944768323302
 30
0.0
 40
1.000000000002842
100
AcDbArc
 50
315.0000080825693
 51
359.499998506185
  0
ARC
  5
128
330
5D
100
AcDbEntity
  8
LAY0_14
  6
Continuous
 62
     7
100
AcDbCircle
 10
172.8249458866483
 20
344.944768323302
 30
0.0
 40
1.000000000003732
100
AcDbArc
 50
180.500001493815
 51
224.9999919174267
  0
ARC
  5
129
330
5D
100
AcDbEntity
  8
1
  6
Continuous
 62
     7
100
AcDbCircle
 10
163.1622043943802
 20
324.9897477372178
 30
0.0
 40
17.01311916635117
100
AcDbArc
 50
73.9092840733225
 51
106.0989904745264
  0
ARC
  5
12A
330
5D
100
AcDbEntity
  8
1
  6
Continuous
 62
     7
100
AcDbCircle
 10
170.8666982059947
 20
336.7765651698006
 30
0.0
 40
5.224100408517064
100
AcDbArc
 50
60.78986821886778
 51
119.2878508462015
  0
ARC
  5
12B
330
5D
100
AcDbEntity
  8
1
  6
Continuous
 62
     7
100
AcDbCircle
 10
151.6341979826042
 20
313.1831955093671
 30
0.0
 40
28.81952746535056
100
AcDbArc
 50
77.65498080212866
 51
102.3485656948661
  0
ARC
  5
12C
330
5D
100
AcDbEntity
  8
1
  6
Continuous
 62
     7
100
AcDbCircle
 10
137.9549510394547
 20
307.5958752557601
 30
0.0
 40
34.40918067525705
100
AcDbArc
 50
78.68583776876463
 51
89.86234044214731
  0
ARC
  5
12D
330
5D
100
AcDbEntity
  8
1
  6
Continuous
 62
     7
100
AcDbCircle
 10
162.7237891642254
 20
325.3909425377232
 30
0.0
 40
18.00639630322548
100
AcDbArc
 50
74.16667865757316
 51
105.8190914067552
  0
ARC
  5
12E
330
5D
100
AcDbEntity
  8
1
  6
Continuous
 62
     7
100
AcDbCircle
 10
170.2933457148557
 20
337.794426755671
 30
0.0
 40
5.591231625419363
100
AcDbArc
 50
54.36507670975985
 51
118.3693657433765
  0
ARC
  5
12F
330
5D
100
AcDbEntity
  8
1
  6
Continuous
 62
     7
100
AcDbCircle
 10
151.3991863729136
 20
312.341567364657
 30
0.0
 40
31.04407358026164
100
AcDbArc
 50
78.07241170042091
 51
101.9256673744505
  0
ARC
  5
130
330
5D
100
AcDbEntity
  8
1
  6
Continuous
 62
     7
100
AcDbCircle
 10
137.9595240372058
 20
306.1728775903893
 30
0.0
 40
37.21177496701564
100
AcDbArc
 50
79.11872184954069
 51
89.72912660036899
  0
ARC
  5
131
330
5D
100
AcDbEntity
  8
LAY0_14
  6
Continuous
 62
     7
100
AcDbCircle
 10
171.5570015507071
 20
341.9700673955676
 30
0.0
 40
2.000000000001565
100
AcDbArc
 50
0.99996633196729
 51
44.52037444015743
  0
ARC
  5
132
330
5D
100
AcDbEntity
  8
LAY0_14
  6
Continuous
 62
     7
100
AcDbCircle
 10
173.5354713993436
 20
323.1105932134386
 30
0.0
 40
1.000000000000046
100
AcDbArc
 50
270.0000173026669
 51
359.999999316731
  0
CIRCLE
  5
133
330
5D
100
AcDbEntity
  8
1
  6
Continuous
 62
     7
100
AcDbCircle
 10
138.0354713993436
 20
455.8075975435518
 30
0.0
 40
22.5
  0
CIRCLE
  5
134
330
5D
100
AcDbEntity
  8
1
  6
Continuous
 62
     7
100
AcDbCircle
 10
138.0354713993436
 20
455.8075975435518
 30
0.0
 40
35.38066101073849
  0
CIRCLE
  5
135
330
5D
100
AcDbEntity
  8
1
  6
Continuous
 62
     7
100
AcDbCircle
 10
138.0354713993436
 20
455.8075975435518
 30
0.0
 40
36.5000152587852
  0
CIRCLE
  5
136
330
5D
100
AcDbEntity
  8
1
  6
Continuous
 62
     7
100
AcDbCircle
 10
138.0354713993436
 20
455.8075975435518
 30
0.0
 40
33.6753082275371
  0
CIRCLE
  5
137
330
5D
100
AcDbEntity
  8
1
  6
Continuous
 62
     7
100
AcDbCircle
 10
138.0354713993436
 20
455.8075975435518
 30
0.0
 40
30.17499999999998
  0
ENDBLK
  5
5F
330
5D
100
AcDbEntity
  8
0
100
AcDbBlockEnd
  0
BLOCK
  5
61
330
60
100
AcDbEntity
  8
0
100
AcDbBlockBegin
  2
henshin-mage
 70
     0
 10
610.0441060264
 20
336.4368447423331
 30
0.0
  3
henshin-mage
  1

  0
LINE
  5
138
330
60
100
AcDbEntity
  8
LAY4_1
  6
Continuous
 62
     7
100
AcDbLine
 10
256.1021369559969
 20
314.7659383900138
 30
0.0
 11
250.3867438895907
 21
292.5310445911857
 31
0.0
  0
LINE
  5
139
330
60
100
AcDbEntity
  8
LAY4_1
  6
Continuous
 62
     7
100
AcDbLine
 10
248.1678718192782
 20
289.3308797962638
 30
0.0
 11
246.5678657157628
 21
289.3308797962638
 31
0.0
  0
LINE
  5
13A
330
60
100
AcDbEntity
  8
LAY4_1
  6
Continuous
 62
     7
100
AcDbLine
 10
253.1679633720128
 20
315.0748678333733
 30
0.0
 11
248.9933112724032
 21
292.5825887806388
 31
0.0
  0
LINE
  5
13B
330
60
100
AcDbEntity
  8
LAY4_1
  6
Continuous
 62
     7
100
AcDbLine
 10
246.3091071708407
 20
318.5308614857169
 30
0.0
 11
246.3091071708407
 21
289.3308797962638
 31
0.0
  0
LINE
  5
13C
330
60
100
AcDbEntity
  8
LAY4_1
  6
Continuous
 62
     7
100
AcDbLine
 10
248.1678718192782
 20
289.3308797962638
 30
0.0
 11
248.1678718192782
 21
318.5308614857169
 31
0.0
  0
LINE
  5
13D
330
60
100
AcDbEntity
  8
LAY4_1
  6
Continuous
 62
     7
100
AcDbLine
 10
246.5678657157628
 20
289.3308797962638
 30
0.0
 11
246.5678657157628
 21
318.5308614857169
 31
0.0
  0
LINE
  5
13E
330
60
100
AcDbEntity
  8
LAY4_1
  6
Continuous
 62
     7
100
AcDbLine
 10
246.5678657157628
 20
318.5308614857169
 30
0.0
 11
248.1678718192782
 21
318.5308920032951
 31
0.0
  0
LINE
  5
13F
330
60
100
AcDbEntity
  8
LAY4_1
  6
Continuous
 62
     7
100
AcDbLine
 10
260.4178718192782
 20
314.0853048450919
 30
0.0
 11
253.2002509696688
 21
292.2823568470451
 31
0.0
  0
LINE
  5
140
330
60
100
AcDbEntity
  8
LAY4_1
  6
Continuous
 62
     7
100
AcDbLine
 10
227.1935676200594
 20
290.4308858997795
 30
0.0
 11
238.3132880790438
 21
290.4308858997795
 31
0.0
  0
LINE
  5
141
330
60
100
AcDbEntity
  8
LAY4_1
  6
Continuous
 62
     7
100
AcDbLine
 10
239.5091193778719
 20
292.9808736927483
 30
0.0
 11
246.3091071708407
 21
292.9808736927483
 31
0.0
  0
LINE
  5
142
330
60
100
AcDbEntity
  8
LAY4_1
  6
Continuous
 62
     7
100
AcDbLine
 10
246.5678657157628
 20
289.3308797962638
 30
0.0
 11
248.1678718192782
 21
289.3308797962638
 31
0.0
  0
LINE
  5
143
330
60
100
AcDbEntity
  8
LAY4_1
  6
Continuous
 62
     7
100
AcDbLine
 10
239.5091193778719
 20
311.2308736927483
 30
0.0
 11
246.3091071708407
 21
311.2308736927483
 31
0.0
  0
LINE
  5
144
330
60
100
AcDbEntity
  8
LAY4_1
  6
Continuous
 62
     7
100
AcDbLine
 10
238.3091071708407
 20
303.9308858997795
 30
0.0
 11
238.3091071708407
 21
317.3308797962638
 31
0.0
  0
LINE
  5
145
330
60
100
AcDbEntity
  8
LAY4_1
  6
Continuous
 62
     7
100
AcDbLine
 10
239.5091193778719
 20
307.5808797962638
 30
0.0
 11
246.3091071708407
 21
307.5808797962638
 31
0.0
  0
LINE
  5
146
330
60
100
AcDbEntity
  8
LAY4_1
  6
Continuous
 62
     7
100
AcDbLine
 10
246.3091071708407
 20
318.5308614857169
 30
0.0
 11
239.5091193778719
 21
318.5308614857169
 31
0.0
  0
LINE
  5
147
330
60
100
AcDbEntity
  8
LAY4_1
  6
Continuous
 62
     7
100
AcDbLine
 10
239.5091193778719
 20
314.8808675892327
 30
0.0
 11
246.3091071708407
 21
314.8808675892327
 31
0.0
  0
LINE
  5
148
330
60
100
AcDbEntity
  8
LAY4_1
  6
Continuous
 62
     7
100
AcDbLine
 10
244.3091071708407
 20
289.3308797962638
 30
0.0
 11
244.3091071708407
 21
303.9308858997795
 31
0.0
  0
LINE
  5
149
330
60
100
AcDbEntity
  8
LAY4_1
  6
Continuous
 62
     7
100
AcDbLine
 10
279.4948981864657
 20
282.7166677601311
 30
0.0
 11
276.9745734794344
 21
280.8466268665762
 31
0.0
  0
LINE
  5
14A
330
60
100
AcDbEntity
  8
LAY4_1
  6
Continuous
 62
     7
100
AcDbLine
 10
246.3091071708407
 20
289.3308797962638
 30
0.0
 11
239.5091193778719
 21
289.3308797962638
 31
0.0
  0
LINE
  5
14B
330
60
100
AcDbEntity
  8
LAY4_1
  6
Continuous
 62
     7
100
AcDbLine
 10
239.5091193778719
 20
296.6308675892327
 30
0.0
 11
246.3091071708407
 21
296.6308675892327
 31
0.0
  0
LINE
  5
14C
330
60
100
AcDbEntity
  8
LAY4_1
  6
Continuous
 62
     7
100
AcDbLine
 10
248.8714851005282
 20
315.1734701282951
 30
0.0
 11
248.8714851005282
 21
292.5825887806388
 31
0.0
  0
LINE
  5
14D
330
60
100
AcDbEntity
  8
LAY4_1
  6
Continuous
 62
     7
100
AcDbLine
 10
274.2340339286532
 20
309.7108541614983
 30
0.0
 11
262.7920173270907
 21
289.9081197864983
 31
0.0
  0
LINE
  5
14E
330
60
100
AcDbEntity
  8
LAY4_1
  6
Continuous
 62
     7
100
AcDbLine
 10
270.1875556571688
 20
311.3558431751701
 30
0.0
 11
260.1187385184969
 21
290.8195272572012
 31
0.0
  0
LINE
  5
14F
330
60
100
AcDbEntity
  8
LAY4_1
  6
Continuous
 62
     7
100
AcDbLine
 10
251.7543891532628
 20
315.1701131947012
 30
0.0
 11
247.5627997977938
 21
292.5864034779045
 31
0.0
  0
LINE
  5
150
330
60
100
AcDbEntity
  8
LAY4_1
  6
Continuous
 62
     7
100
AcDbLine
 10
268.8524726493563
 20
311.8293233997795
 30
0.0
 11
258.7432197196688
 21
291.2105184681388
 31
0.0
  0
LINE
  5
151
330
60
100
AcDbEntity
  8
LAY4_1
  6
Continuous
 62
     7
100
AcDbLine
 10
266.0381110770907
 20
312.7204061634512
 30
0.0
 11
257.3893378837313
 21
291.5456319935295
 31
0.0
  0
LINE
  5
152
330
60
100
AcDbEntity
  8
LAY4_1
  6
Continuous
 62
     7
100
AcDbLine
 10
244.3091071708407
 20
318.5308920032951
 30
0.0
 11
244.3091071708407
 21
303.9308858997795
 31
0.0
  0
LINE
  5
153
330
60
100
AcDbEntity
  8
LAY4_1
  6
Continuous
 62
     7
100
AcDbLine
 10
286.2863105399813
 20
289.5081106312249
 30
0.0
 11
275.9356025321688
 21
281.8279806263419
 31
0.0
  0
LINE
  5
154
330
60
100
AcDbEntity
  8
LAY4_1
  6
Continuous
 62
     7
100
AcDbLine
 10
239.5091193778719
 20
300.2808920032951
 30
0.0
 11
246.3091071708407
 21
300.2808920032951
 31
0.0
  0
LINE
  5
155
330
60
100
AcDbEntity
  8
LAY4_1
  6
Continuous
 62
     7
100
AcDbLine
 10
227.1935676200594
 20
317.4308553822012
 30
0.0
 11
238.3132880790438
 21
317.4308553822012
 31
0.0
  0
LINE
  5
156
330
60
100
AcDbEntity
  8
LAY4_1
  6
Continuous
 62
     7
100
AcDbLine
 10
227.1935676200594
 20
290.4308858997795
 30
0.0
 11
227.1935676200594
 21
317.4308553822012
 31
0.0
  0
LINE
  5
157
330
60
100
AcDbEntity
  8
LAY4_1
  6
Continuous
 62
     7
100
AcDbLine
 10
280.7325690849032
 20
306.3473287708733
 30
0.0
 11
266.6538032157628
 21
288.2109762318107
 31
0.0
  0
LINE
  5
158
330
60
100
AcDbEntity
  8
LAY4_1
  6
Continuous
 62
     7
100
AcDbLine
 10
289.021112786075
 20
300.4999471790762
 30
0.0
 11
272.6774543388094
 21
284.5079427845451
 31
0.0
  0
LINE
  5
159
330
60
100
AcDbEntity
  8
LAY4_1
  6
Continuous
 62
     7
100
AcDbLine
 10
238.3091071708407
 20
303.9308858997795
 30
0.0
 11
238.3091071708407
 21
290.5308920032951
 31
0.0
  0
LINE
  5
15A
330
60
100
AcDbEntity
  8
LAY4_1
  6
Continuous
 62
     7
100
AcDbLine
 10
264.6737617118563
 20
313.1015707142327
 30
0.0
 11
255.9901069267
 21
291.8414999134512
 31
0.0
  0
LINE
  5
15B
330
60
100
AcDbEntity
  8
LAY4_1
  6
Continuous
 62
     7
100
AcDbLine
 10
292.2817023856844
 20
297.5933309681388
 30
0.0
 11
274.888788567325
 21
282.7509542591545
 31
0.0
  0
LINE
  5
15C
330
60
100
AcDbEntity
  8
LAY4_1
  6
Continuous
 62
     7
100
AcDbLine
 10
257.5083869559969
 20
314.5842672474357
 30
0.0
 11
251.8135017020907
 21
292.4292379505607
 31
0.0
  0
LINE
  5
15D
330
60
100
AcDbEntity
  8
LAY4_1
  6
Continuous
 62
     7
100
AcDbLine
 10
285.5695136649813
 20
303.1769796497795
 30
0.0
 11
270.3712714774813
 21
286.1320882923577
 31
0.0
  0
LINE
  5
15E
330
60
100
AcDbEntity
  8
LAY4_1
  6
Continuous
 62
     7
100
AcDbLine
 10
287.9223273856844
 20
301.3935629017327
 30
0.0
 11
271.5138801200594
 21
285.3381734974357
 31
0.0
  0
LINE
  5
15F
330
60
100
AcDbEntity
  8
LAY4_1
  6
Continuous
 62
     7
100
AcDbLine
 10
248.1678718192782
 20
318.5308920032951
 30
0.0
 11
246.5678657157628
 21
318.5308614857169
 31
0.0
  0
LINE
  5
160
330
60
100
AcDbEntity
  8
LAY4_1
  6
Continuous
 62
     7
100
AcDbLine
 10
278.1586555106844
 20
307.7932211048577
 30
0.0
 11
265.3965705497469
 21
288.8157430775138
 31
0.0
  0
LINE
  5
161
330
60
100
AcDbEntity
  8
LAY4_1
  6
Continuous
 62
     7
100
AcDbLine
 10
261.8051398856844
 20
313.7982565052483
 30
0.0
 11
254.61657177045
 21
292.0830465443107
 31
0.0
  0
LINE
  5
162
330
60
100
AcDbEntity
  8
LAY4_1
  6
Continuous
 62
     7
100
AcDbLine
 10
281.9430183036532
 20
305.6118551380607
 30
0.0
 11
267.9201606376378
 21
287.5474325306388
 31
0.0
  0
LINE
  5
163
330
60
100
AcDbEntity
  8
LAY4_1
  6
Continuous
 62
     7
100
AcDbLine
 10
284.4121650321688
 20
303.9934164173577
 30
0.0
 11
269.1331122977938
 21
286.8579183704827
 31
0.0
  0
LINE
  5
164
330
60
100
AcDbEntity
  8
LAY4_1
  6
Continuous
 62
     7
100
AcDbLine
 10
291.2406562431063
 20
298.5548788197012
 30
0.0
 11
273.7849372489657
 21
283.6589132435295
 31
0.0
  0
LINE
  5
165
330
60
100
AcDbEntity
  8
LAY4_1
  6
Continuous
 62
     7
100
AcDbLine
 10
276.9006904227938
 20
308.4442831165762
 30
0.0
 11
264.0876105888094
 21
289.3909689075919
 31
0.0
  0
LINE
  5
166
330
60
100
AcDbEntity
  8
LAY4_1
  6
Continuous
 62
     7
100
AcDbLine
 10
272.9345038993563
 20
310.2744833118888
 30
0.0
 11
261.4466193778719
 21
290.3924032337638
 31
0.0
  0
LINE
  5
167
330
60
100
AcDbEntity
  8
LAY4_1
  6
Continuous
 62
     7
100
AcDbLine
 10
282.9285834892
 20
275.2609335072012
 30
0.0
 11
280.3122809989657
 21
277.8772359974357
 31
0.0
  0
LINE
  5
168
330
60
100
AcDbEntity
  8
LAY4_1
  6
Continuous
 62
     7
100
AcDbLine
 10
280.5597785575594
 20
272.4678426868888
 30
0.0
 11
284.6609748466219
 21
272.0435873157951
 31
0.0
  0
LINE
  5
169
330
60
100
AcDbEntity
  8
LAY4_1
  6
Continuous
 62
     7
100
AcDbLine
 10
296.7949470145907
 20
297.527733433959
 30
0.0
 11
295.5504401786532
 21
298.7722402698967
 31
0.0
  0
LINE
  5
16A
330
60
100
AcDbEntity
  8
LAY4_1
  6
Continuous
 62
     7
100
AcDbLine
 10
274.9029182059969
 20
278.1247030384512
 30
0.0
 11
295.5504401786532
 21
298.7722402698967
 31
0.0
  0
LINE
  5
16B
330
60
100
AcDbEntity
  8
LAY4_1
  6
Continuous
 62
     7
100
AcDbLine
 10
276.1474250419344
 20
276.8801962025138
 30
0.0
 11
274.9029182059969
 21
278.1247030384512
 31
0.0
  0
LINE
  5
16C
330
60
100
AcDbEntity
  8
LAY4_1
  6
Continuous
 62
     7
100
AcDbLine
 10
293.2523444755282
 20
285.5846792347405
 30
0.0
 11
290.6360419852938
 21
288.2009664661857
 31
0.0
  0
LINE
  5
16D
330
60
100
AcDbEntity
  8
LAY4_1
  6
Continuous
 62
     7
100
AcDbLine
 10
298.8031257255282
 20
257.9014516956779
 30
0.0
 11
284.6609748466219
 21
272.0435873157951
 31
0.0
  0
LINE
  5
16E
330
60
100
AcDbEntity
  8
LAY4_1
  6
Continuous
 62
     7
100
AcDbLine
 10
298.4142402274813
 20
290.7465749866934
 30
0.0
 11
295.7979377372469
 21
293.3628774769279
 31
0.0
  0
LINE
  5
16F
330
60
100
AcDbEntity
  8
LAY4_1
  6
Continuous
 62
     7
100
AcDbLine
 10
276.3171332938878
 20
276.7104879505607
 30
0.0
 11
280.5597785575594
 21
272.4678426868888
 31
0.0
  0
LINE
  5
170
330
60
100
AcDbEntity
  8
LAY4_1
  6
Continuous
 62
     7
100
AcDbLine
 10
282.8932441337313
 20
280.4581686146233
 30
0.0
 11
285.5095161063878
 21
277.8418661243888
 31
0.0
  0
LINE
  5
171
330
60
100
AcDbEntity
  8
LAY4_1
  6
Continuous
 62
     7
100
AcDbLine
 10
293.2169746024813
 20
290.7819143421623
 30
0.0
 11
295.8332770927157
 21
288.1656118519279
 31
0.0
  0
LINE
  5
172
330
60
100
AcDbEntity
  8
LAY4_1
  6
Continuous
 62
     7
100
AcDbLine
 10
288.0551093681063
 20
285.6200643665762
 30
0.0
 11
290.6714118583407
 21
283.0037618763419
 31
0.0
  0
LINE
  5
173
330
60
100
AcDbEntity
  8
LAY4_1
  6
Continuous
 62
     7
100
AcDbLine
 10
277.7313483817782
 20
275.2962728626701
 30
0.0
 11
298.3788703544344
 21
295.9438100941155
 31
0.0
  0
LINE
  5
174
330
60
100
AcDbEntity
  8
LAY4_1
  6
Continuous
 62
     7
100
AcDbLine
 10
285.4741767509188
 20
283.0391012318107
 30
0.0
 11
288.0904792411532
 21
280.4227987415762
 31
0.0
  0
LINE
  5
175
330
60
100
AcDbEntity
  8
LAY4_1
  6
Continuous
 62
     7
100
AcDbLine
 10
296.9646552665438
 20
297.3580251820061
 30
0.0
 11
301.2073005302157
 21
293.115379918334
 31
0.0
  0
LINE
  5
176
330
60
100
AcDbEntity
  8
LAY4_1
  6
Continuous
 62
     7
100
AcDbLine
 10
301.5804999931063
 20
289.0651937611077
 30
0.0
 11
315.7736762626378
 21
274.8720174915762
 31
0.0
  0
LINE
  5
177
330
60
100
AcDbEntity
  8
LAY4_1
  6
Continuous
 62
     7
100
AcDbLine
 10
301.5804999931063
 20
289.0651937611077
 30
0.0
 11
301.2073005302157
 21
293.115379918334
 31
0.0
  0
LINE
  5
178
330
60
100
AcDbEntity
  8
LAY4_1
  6
Continuous
 62
     7
100
AcDbLine
 10
315.7736762626378
 20
274.8720174915762
 30
0.0
 11
298.8031257255282
 21
257.9014516956779
 31
0.0
  0
LINE
  5
179
330
60
100
AcDbEntity
  8
LAY4_1
  6
Continuous
 62
     7
100
AcDbLine
 10
276.3171332938878
 20
276.7104879505607
 30
0.0
 11
296.9646552665438
 21
297.3580251820061
 31
0.0
  0
LINE
  5
17A
330
60
100
AcDbEntity
  8
LAY4_1
  6
Continuous
 62
     7
100
AcDbLine
 10
301.5928290946688
 20
445.1757131702873
 30
0.0
 11
297.3186591727938
 21
422.7620016224357
 31
0.0
  0
LINE
  5
17B
330
60
100
AcDbEntity
  8
LAY4_1
  6
Continuous
 62
     7
100
AcDbLine
 10
303.0087836845125
 20
445.0886922962638
 30
0.0
 11
298.7306464774813
 21
422.6542135364983
 31
0.0
  0
LINE
  5
17C
330
60
100
AcDbEntity
  8
LAY4_1
  6
Continuous
 62
     7
100
AcDbLine
 10
289.4526923759188
 20
446.5226217396233
 30
0.0
 11
285.1436103446688
 21
424.5230489857169
 31
0.0
  0
LINE
  5
17D
330
60
100
AcDbEntity
  8
LAY4_1
  6
Continuous
 62
     7
100
AcDbLine
 10
279.25914989545
 20
425.7899557239983
 30
0.0
 11
283.5344184501378
 21
447.5784231312249
 31
0.0
  0
LINE
  5
17E
330
60
100
AcDbEntity
  8
LAY4_1
  6
Continuous
 62
     7
100
AcDbLine
 10
292.578729973575
 20
446.0672079212638
 30
0.0
 11
288.2878974540438
 21
423.9516683704827
 31
0.0
  0
LINE
  5
17F
330
60
100
AcDbEntity
  8
LAY4_1
  6
Continuous
 62
     7
100
AcDbLine
 10
288.0596259696688
 20
446.7314535267327
 30
0.0
 11
283.7592719657628
 21
424.7763143665762
 31
0.0
  0
LINE
  5
180
330
60
100
AcDbEntity
  8
LAY4_1
  6
Continuous
 62
     7
100
AcDbLine
 10
275.8845161063878
 20
449.4191061146233
 30
0.0
 11
271.575800286075
 21
427.8369527943107
 31
0.0
  0
LINE
  5
181
330
60
100
AcDbEntity
  8
LAY4_1
  6
Continuous
 62
     7
100
AcDbLine
 10
298.5023749931063
 20
445.4130483753655
 30
0.0
 11
294.2040961845128
 21
423.1102682239983
 31
0.0
  0
LINE
  5
182
330
60
100
AcDbEntity
  8
LAY4_1
  6
Continuous
 62
     7
100
AcDbLine
 10
274.5203803642
 20
449.7739339954827
 30
0.0
 11
270.2271064384188
 21
428.2690206654045
 31
0.0
  0
LINE
  5
183
330
60
100
AcDbEntity
  8
LAY4_1
  6
Continuous
 62
     7
100
AcDbLine
 10
271.3503364188878
 20
450.6630178577873
 30
0.0
 11
267.0495551688878
 21
429.2873617298577
 31
0.0
  0
LINE
  5
184
330
60
100
AcDbEntity
  8
LAY4_1
  6
Continuous
 62
     7
100
AcDbLine
 10
265.487909661075
 20
452.6139303333733
 30
0.0
 11
261.1997626884188
 21
431.4730001575919
 31
0.0
  0
LINE
  5
185
330
60
100
AcDbEntity
  8
LAY4_1
  6
Continuous
 62
     7
100
AcDbLine
 10
307.5502265556063
 20
444.9160085804434
 30
0.0
 11
303.2524970634188
 21
422.3233114368888
 31
0.0
  0
LINE
  5
186
330
60
100
AcDbEntity
  8
LAY4_1
  6
Continuous
 62
     7
100
AcDbLine
 10
306.1250556571688
 20
444.9543233997795
 30
0.0
 11
301.8359931571688
 21
422.4069906361077
 31
0.0
  0
LINE
  5
187
330
60
100
AcDbEntity
  8
LAY4_1
  6
Continuous
 62
     7
100
AcDbLine
 10
297.0922187431063
 20
445.5319753773184
 30
0.0
 11
292.8029121024813
 21
423.2758871204827
 31
0.0
  0
LINE
  5
188
330
60
100
AcDbEntity
  8
LAY4_1
  6
Continuous
 62
     7
100
AcDbLine
 10
293.9782661063878
 20
445.8925405628655
 30
0.0
 11
289.6805976493563
 21
423.7416463978262
 31
0.0
  0
LINE
  5
189
330
60
100
AcDbEntity
  8
LAY4_1
  6
Continuous
 62
     7
100
AcDbLine
 10
245.5646613700594
 20
462.0308920032951
 30
0.0
 11
239.5646613700594
 21
462.0309225208733
 31
0.0
  0
LINE
  5
18A
330
60
100
AcDbEntity
  8
LAY4_1
  6
Continuous
 62
     7
100
AcDbLine
 10
236.4368537528719
 20
459.4308858997795
 30
0.0
 11
216.3646491630282
 21
459.4308858997795
 31
0.0
  0
LINE
  5
18B
330
60
100
AcDbEntity
  8
LAY4_1
  6
Continuous
 62
     7
100
AcDbLine
 10
216.3646491630282
 20
459.4308858997795
 30
0.0
 11
216.3646491630282
 21
435.4308858997795
 31
0.0
  0
LINE
  5
18C
330
60
100
AcDbEntity
  8
LAY4_1
  6
Continuous
 62
     7
100
AcDbLine
 10
239.8646491630282
 20
436.4809042103262
 30
0.0
 11
243.5646613700594
 21
436.4809042103262
 31
0.0
  0
LINE
  5
18D
330
60
100
AcDbEntity
  8
LAY4_1
  6
Continuous
 62
     7
100
AcDbLine
 10
216.3646491630282
 20
435.4308858997795
 30
0.0
 11
236.3646491630282
 21
435.4309164173577
 31
0.0
  0
LINE
  5
18E
330
60
100
AcDbEntity
  8
LAY4_1
  6
Continuous
 62
     7
100
AcDbLine
 10
243.5646613700594
 20
447.4308858997795
 30
0.0
 11
239.8646491630282
 21
447.4308858997795
 31
0.0
  0
LINE
  5
18F
330
60
100
AcDbEntity
  8
LAY4_1
  6
Continuous
 62
     7
100
AcDbLine
 10
247.5646613700594
 20
432.8309103138419
 30
0.0
 11
247.5646613700594
 21
462.0309225208733
 31
0.0
  0
LINE
  5
190
330
60
100
AcDbEntity
  8
LAY4_1
  6
Continuous
 62
     7
100
AcDbLine
 10
236.3646491630282
 20
459.3708578236077
 30
0.0
 11
236.3646491630282
 21
435.4908834583733
 31
0.0
  0
LINE
  5
191
330
60
100
AcDbEntity
  8
LAY4_1
  6
Continuous
 62
     7
100
AcDbLine
 10
236.4368537528719
 20
459.4308858997795
 30
0.0
 11
239.5646613700594
 21
462.0309225208733
 31
0.0
  0
LINE
  5
192
330
60
100
AcDbEntity
  8
LAY4_1
  6
Continuous
 62
     7
100
AcDbLine
 10
239.8646491630282
 20
451.0809103138419
 30
0.0
 11
243.5646613700594
 21
451.0808797962638
 31
0.0
  0
LINE
  5
193
330
60
100
AcDbEntity
  8
LAY4_1
  6
Continuous
 62
     7
100
AcDbLine
 10
243.5646613700594
 20
443.7808614857169
 30
0.0
 11
239.8646491630282
 21
443.7809225208733
 31
0.0
  0
LINE
  5
194
330
60
100
AcDbEntity
  8
LAY4_1
  6
Continuous
 62
     7
100
AcDbLine
 10
243.5646613700594
 20
454.7308736927483
 30
0.0
 11
239.8646491630282
 21
454.7309042103262
 31
0.0
  0
LINE
  5
195
330
60
100
AcDbEntity
  8
LAY4_1
  6
Continuous
 62
     7
100
AcDbLine
 10
245.5646613700594
 20
432.8308492786857
 30
0.0
 11
239.5646613700594
 21
432.8309103138419
 31
0.0
  0
LINE
  5
196
330
60
100
AcDbEntity
  8
LAY4_1
  6
Continuous
 62
     7
100
AcDbLine
 10
317.7586310966219
 20
420.0152975208733
 30
0.0
 11
317.7586310966219
 21
447.0152670032951
 31
0.0
  0
LINE
  5
197
330
60
100
AcDbEntity
  8
LAY4_1
  6
Continuous
 62
     7
100
AcDbLine
 10
317.7586310966219
 20
447.0152670032951
 30
0.0
 11
328.8783515556063
 21
447.0152670032951
 31
0.0
  0
LINE
  5
198
330
60
100
AcDbEntity
  8
LAY4_1
  6
Continuous
 62
     7
100
AcDbLine
 10
317.7586310966219
 20
420.0152975208733
 30
0.0
 11
328.8783515556063
 21
420.0152975208733
 31
0.0
  0
LINE
  5
199
330
60
100
AcDbEntity
  8
LAY4_1
  6
Continuous
 62
     7
100
AcDbLine
 10
328.8741706474032
 20
420.0152975208733
 30
0.0
 11
328.8741706474032
 21
433.5152975208733
 31
0.0
  0
LINE
  5
19A
330
60
100
AcDbEntity
  8
LAY4_1
  6
Continuous
 62
     7
100
AcDbLine
 10
328.8741706474032
 20
447.0153280384512
 30
0.0
 11
328.8741706474032
 21
433.5152975208733
 31
0.0
  0
LINE
  5
19B
330
60
100
AcDbEntity
  8
LAY4_1
  6
Continuous
 62
     7
100
AcDbLine
 10
243.5646613700594
 20
440.1308675892327
 30
0.0
 11
239.8646491630282
 21
440.1308675892327
 31
0.0
  0
LINE
  5
19C
330
60
100
AcDbEntity
  8
LAY4_1
  6
Continuous
 62
     7
100
AcDbLine
 10
309.7586310966219
 20
448.1153188831779
 30
0.0
 11
309.7586310966219
 21
418.9153066761467
 31
0.0
  0
LINE
  5
19D
330
60
100
AcDbEntity
  8
LAY4_1
  6
Continuous
 62
     7
100
AcDbLine
 10
316.5585578544344
 20
440.8153158314201
 30
0.0
 11
309.7586310966219
 21
440.8153158314201
 31
0.0
  0
LINE
  5
19E
330
60
100
AcDbEntity
  8
LAY4_1
  6
Continuous
 62
     7
100
AcDbLine
 10
316.5585578544344
 20
437.1653066761467
 30
0.0
 11
309.7586310966219
 21
437.1653066761467
 31
0.0
  0
LINE
  5
19F
330
60
100
AcDbEntity
  8
LAY4_1
  6
Continuous
 62
     7
100
AcDbLine
 10
316.5585578544344
 20
429.8653036243888
 30
0.0
 11
309.7586310966219
 21
429.8653036243888
 31
0.0
  0
LINE
  5
1A0
330
60
100
AcDbEntity
  8
LAY4_1
  6
Continuous
 62
     7
100
AcDbLine
 10
317.7586310966219
 20
433.5152975208733
 30
0.0
 11
317.7586310966219
 21
446.9153219349357
 31
0.0
  0
LINE
  5
1A1
330
60
100
AcDbEntity
  8
LAY4_1
  6
Continuous
 62
     7
100
AcDbLine
 10
311.7586310966219
 20
418.9153066761467
 30
0.0
 11
311.7586310966219
 21
433.5152975208733
 31
0.0
  0
LINE
  5
1A2
330
60
100
AcDbEntity
  8
LAY4_1
  6
Continuous
 62
     7
100
AcDbLine
 10
316.5585578544344
 20
426.2153097279045
 30
0.0
 11
309.7586310966219
 21
426.2153097279045
 31
0.0
  0
LINE
  5
1A3
330
60
100
AcDbEntity
  8
LAY4_1
  6
Continuous
 62
     7
100
AcDbLine
 10
306.3508247001375
 20
422.1940389759512
 30
0.0
 11
307.8998359306063
 21
430.3895193226311
 31
0.0
  0
LINE
  5
1A4
330
60
100
AcDbEntity
  8
LAY4_1
  6
Continuous
 62
     7
100
AcDbLine
 10
309.4998420341219
 20
418.9153219349357
 30
0.0
 11
307.8998359306063
 21
418.9153219349357
 31
0.0
  0
LINE
  5
1A5
330
60
100
AcDbEntity
  8
LAY4_1
  6
Continuous
 62
     7
100
AcDbLine
 10
309.7586310966219
 20
448.1153188831779
 30
0.0
 11
316.5585578544344
 21
448.1153188831779
 31
0.0
  0
LINE
  5
1A6
330
60
100
AcDbEntity
  8
LAY4_1
  6
Continuous
 62
     7
100
AcDbLine
 10
317.7586310966219
 20
433.5152975208733
 30
0.0
 11
317.7586310966219
 21
420.1153188831779
 31
0.0
  0
LINE
  5
1A7
330
60
100
AcDbEntity
  8
LAY4_1
  6
Continuous
 62
     7
100
AcDbLine
 10
311.7586310966219
 20
448.1153341419669
 30
0.0
 11
311.7586310966219
 21
433.5152975208733
 31
0.0
  0
LINE
  5
1A8
330
60
100
AcDbEntity
  8
LAY4_1
  6
Continuous
 62
     7
100
AcDbLine
 10
260.9772285087313
 20
454.3327718861077
 30
0.0
 11
256.6849006278719
 21
433.5013357288811
 31
0.0
  0
LINE
  5
1A9
330
60
100
AcDbEntity
  8
LAY4_1
  6
Continuous
 62
     7
100
AcDbLine
 10
266.8296455009188
 20
452.1497579700919
 30
0.0
 11
262.5283149345128
 21
430.9441915638419
 31
0.0
  0
LINE
  5
1AA
330
60
100
AcDbEntity
  8
LAY4_1
  6
Continuous
 62
     7
100
AcDbLine
 10
279.029413567325
 20
448.5748983509512
 30
0.0
 11
274.7456611259188
 21
426.9566427357169
 31
0.0
  0
LINE
  5
1AB
330
60
100
AcDbEntity
  8
LAY4_1
  6
Continuous
 62
     7
100
AcDbLine
 10
270.0039619071688
 20
451.1054464466545
 30
0.0
 11
265.7129462821688
 21
429.7784353382561
 31
0.0
  0
LINE
  5
1AC
330
60
100
AcDbEntity
  8
LAY4_1
  6
Continuous
 62
     7
100
AcDbLine
 10
307.7709907157625
 20
422.1306539661857
 30
0.0
 11
307.8998359306063
 21
422.8125082142327
 31
0.0
  0
LINE
  5
1AD
330
60
100
AcDbEntity
  8
LAY4_1
  6
Continuous
 62
     7
100
AcDbLine
 10
316.5585578544344
 20
444.4653097279045
 30
0.0
 11
309.7586310966219
 21
444.4653097279045
 31
0.0
  0
LINE
  5
1AE
330
60
100
AcDbEntity
  8
LAY4_1
  6
Continuous
 62
     7
100
AcDbLine
 10
280.4041083915438
 20
448.2726827747795
 30
0.0
 11
276.1124824149813
 21
426.6149526722405
 31
0.0
  0
LINE
  5
1AF
330
60
100
AcDbEntity
  8
LAY4_1
  6
Continuous
 62
     7
100
AcDbLine
 10
262.2974189384188
 20
453.7668844349357
 30
0.0
 11
257.9907477958407
 21
432.8659902698967
 31
0.0
  0
LINE
  5
1B0
330
60
100
AcDbEntity
  8
LAY4_1
  6
Continuous
 62
     7
100
AcDbLine
 10
280.6326240165438
 20
425.4810873157951
 30
0.0
 11
284.917108879825
 21
447.3167501575919
 31
0.0
  0
LINE
  5
1B1
330
60
100
AcDbEntity
  8
LAY4_1
  6
Continuous
 62
     7
100
AcDbLine
 10
239.8646491630282
 20
458.3809286243888
 30
0.0
 11
243.5646613700594
 21
458.3808675892327
 31
0.0
  0
LINE
  5
1B2
330
60
100
AcDbEntity
  8
LAY4_1
  6
Continuous
 62
     7
100
AcDbLine
 10
239.5646613700594
 20
432.8309103138419
 30
0.0
 11
236.3646491630282
 21
435.4309164173577
 31
0.0
  0
LINE
  5
1B3
330
60
100
AcDbEntity
  8
LAY4_1
  6
Continuous
 62
     7
100
AcDbLine
 10
248.3701423270907
 20
458.5442892200919
 30
0.0
 11
247.5646613700594
 21
454.3315817005607
 31
0.0
  0
LINE
  5
1B4
330
60
100
AcDbEntity
  8
LAY4_1
  6
Continuous
 62
     7
100
AcDbLine
 10
252.8832038505282
 20
457.9827352650138
 30
0.0
 11
248.5985969169344
 21
435.7646871693107
 31
0.0
  0
LINE
  5
1B5
330
60
100
AcDbEntity
  8
LAY4_1
  6
Continuous
 62
     7
100
AcDbLine
 10
245.8046516044344
 20
432.8308492786857
 30
0.0
 11
247.5646613700594
 21
432.8309103138419
 31
0.0
  0
LINE
  5
1B6
330
60
100
AcDbEntity
  8
LAY4_1
  6
Continuous
 62
     7
100
AcDbLine
 10
243.5646613700594
 20
432.8308797962638
 30
0.0
 11
243.5646613700594
 21
462.0309225208733
 31
0.0
  0
LINE
  5
1B7
330
60
100
AcDbEntity
  8
LAY4_1
  6
Continuous
 62
     7
100
AcDbLine
 10
245.8046516044344
 20
432.8308492786857
 30
0.0
 11
245.8046516044344
 21
462.0309225208733
 31
0.0
  0
LINE
  5
1B8
330
60
100
AcDbEntity
  8
LAY4_1
  6
Continuous
 62
     7
100
AcDbLine
 10
245.8046516044344
 20
462.0309225208733
 30
0.0
 11
247.5646613700594
 21
462.0309225208733
 31
0.0
  0
LINE
  5
1B9
330
60
100
AcDbEntity
  8
LAY4_1
  6
Continuous
 62
     7
100
AcDbLine
 10
245.5646613700594
 20
432.8308492786857
 30
0.0
 11
245.5646613700594
 21
462.0308920032951
 31
0.0
  0
LINE
  5
1BA
330
60
100
AcDbEntity
  8
LAY4_1
  6
Continuous
 62
     7
100
AcDbLine
 10
256.0141852958407
 20
457.4637533314201
 30
0.0
 11
251.7129767997469
 21
435.3901907093499
 31
0.0
  0
LINE
  5
1BB
330
60
100
AcDbEntity
  8
LAY4_1
  6
Continuous
 62
     7
100
AcDbLine
 10
328.8741706474032
 20
447.0153280384512
 30
0.0
 11
317.7544807059969
 21
447.0153280384512
 31
0.0
  0
LINE
  5
1BC
330
60
100
AcDbEntity
  8
LAY4_1
  6
Continuous
 62
     7
100
AcDbLine
 10
307.8998359306063
 20
418.9153219349357
 30
0.0
 11
309.4998420341219
 21
418.9153219349357
 31
0.0
  0
LINE
  5
1BD
330
60
100
AcDbEntity
  8
LAY4_1
  6
Continuous
 62
     7
100
AcDbLine
 10
316.5585578544344
 20
422.5653158314201
 30
0.0
 11
309.7586310966219
 21
422.5653158314201
 31
0.0
  0
LINE
  5
1BE
330
60
100
AcDbEntity
  8
LAY4_1
  6
Continuous
 62
     7
100
AcDbLine
 10
307.8998359306063
 20
418.9153219349357
 30
0.0
 11
307.8998359306063
 21
448.1153036243888
 31
0.0
  0
LINE
  5
1BF
330
60
100
AcDbEntity
  8
LAY4_1
  6
Continuous
 62
     7
100
AcDbLine
 10
328.8741706474032
 20
420.0152975208733
 30
0.0
 11
317.7544807059969
 21
420.0152975208733
 31
0.0
  0
LINE
  5
1C0
330
60
100
AcDbEntity
  8
LAY4_1
  6
Continuous
 62
     7
100
AcDbLine
 10
309.7586310966219
 20
418.9153066761467
 30
0.0
 11
316.5585578544344
 21
418.9153066761467
 31
0.0
  0
LINE
  5
1C1
330
60
100
AcDbEntity
  8
LAY4_1
  6
Continuous
 62
     7
100
AcDbLine
 10
251.4885505302157
 20
458.1824117786857
 30
0.0
 11
247.5734504325594
 21
437.8804098255607
 31
0.0
  0
LINE
  5
1C2
330
60
100
AcDbEntity
  8
LAY4_1
  6
Continuous
 62
     7
100
AcDbLine
 10
257.3973029716219
 20
457.2041708118888
 30
0.0
 11
253.1090949638094
 21
435.1975484974357
 31
0.0
  0
LINE
  5
1C3
330
60
100
AcDbEntity
  8
LAY4_1
  6
Continuous
 62
     7
100
AcDbLine
 10
309.4998420341219
 20
418.9153219349357
 30
0.0
 11
309.4998420341219
 21
448.1153036243888
 31
0.0
  0
LINE
  5
1C4
330
60
100
AcDbEntity
  8
LAY4_1
  6
Continuous
 62
     7
100
AcDbLine
 10
307.8998359306063
 20
448.1153341419669
 30
0.0
 11
309.4998420341219
 21
448.1153341419669
 31
0.0
  0
LINE
  5
1C5
330
60
100
AcDbEntity
  8
LAY4_1
  6
Continuous
 62
     7
100
AcDbLine
 10
309.4998420341219
 20
448.1153341419669
 30
0.0
 11
307.8998359306063
 21
448.1153341419669
 31
0.0
  0
ARC
  5
1C6
330
60
100
AcDbEntity
  8
LAY4_1
  6
Continuous
 62
     7
100
AcDbCircle
 10
244.9101508720128
 20
302.1058736927483
 30
0.0
 40
5.701040744785511
100
AcDbArc
 50
161.3299971014085
 51
198.6699992560799
  0
ARC
  5
1C7
330
60
100
AcDbEntity
  8
LAY4_1
  6
Continuous
 62
     7
100
AcDbCircle
 10
244.9101508720128
 20
298.4558492786857
 30
0.0
 40
5.701040744785439
100
AcDbArc
 50
161.3299971014107
 51
198.6699992560804
  0
ARC
  5
1C8
330
60
100
AcDbEntity
  8
LAY4_1
  6
Continuous
 62
     7
100
AcDbCircle
 10
244.9101508720128
 20
294.8058553822012
 30
0.0
 40
5.701040744785511
100
AcDbArc
 50
161.3299971014085
 51
198.6699992560788
  0
ARC
  5
1C9
330
60
100
AcDbEntity
  8
LAY4_1
  6
Continuous
 62
     7
100
AcDbCircle
 10
244.9101508720128
 20
291.1558920032951
 30
0.0
 40
5.701040744785475
100
AcDbArc
 50
161.3299971014096
 51
198.6699992560799
  0
ARC
  5
1CA
330
60
100
AcDbEntity
  8
LAY4_1
  6
Continuous
 62
     7
100
AcDbCircle
 10
263.6104987724032
 20
314.9778524525138
 30
0.0
 40
2.156563520431547
100
AcDbArc
 50
213.1596308632173
 51
299.5401043906522
  0
ARC
  5
1CB
330
60
100
AcDbEntity
  8
LAY4_1
  6
Continuous
 62
     7
100
AcDbCircle
 10
294.43786083295
 20
297.6618734486077
 30
0.0
 40
2.157280206676647
100
AcDbArc
 50
181.8215618189923
 51
226.2519287097506
  0
ARC
  5
1CC
330
60
100
AcDbEntity
  8
LAY4_1
  6
Continuous
 62
     7
100
AcDbCircle
 10
239.5091193778719
 20
317.3308797962638
 30
0.0
 40
1.199999928474541
100
AcDbArc
 50
90.00000250440452
 51
175.2198151560889
  0
ARC
  5
1CD
330
60
100
AcDbEntity
  8
LAY4_1
  6
Continuous
 62
     7
100
AcDbCircle
 10
259.22887645795
 20
315.8844381458733
 30
0.0
 40
2.156501770016134
100
AcDbArc
 50
217.0773863900263
 51
303.4592122948102
  0
ARC
  5
1CE
330
60
100
AcDbEntity
  8
LAY4_1
  6
Continuous
 62
     7
100
AcDbCircle
 10
287.6960395438878
 20
303.5387655384512
 30
0.0
 40
2.157080650327901
100
AcDbArc
 50
189.6554199667903
 51
276.0211949273086
  0
ARC
  5
1CF
330
60
100
AcDbEntity
  8
LAY4_1
  6
Continuous
 62
     7
100
AcDbCircle
 10
272.1370185477938
 20
312.2783895618888
 30
0.0
 40
2.156748056414453
100
AcDbArc
 50
205.324980413508
 51
291.7003039784039
  0
ARC
  5
1D0
330
60
100
AcDbEntity
  8
LAY4_1
  6
Continuous
 62
     7
100
AcDbCircle
 10
276.2420600517
 20
310.4980856068107
 30
0.0
 40
2.156824827195336
100
AcDbArc
 50
201.4077029999823
 51
287.7807316212597
  0
ARC
  5
1D1
330
60
100
AcDbEntity
  8
LAY4_1
  6
Continuous
 62
     7
100
AcDbCircle
 10
265.9862922294344
 20
288.4325033314201
 30
0.0
 40
0.7032983899133162
100
AcDbArc
 50
341.6401336802251
 51
146.9829388627566
  0
ARC
  5
1D2
330
60
100
AcDbEntity
  8
LAY4_1
  6
Continuous
 62
     7
100
AcDbCircle
 10
267.9199470145907
 20
313.7739339954827
 30
0.0
 40
2.156659841540572
100
AcDbArc
 50
209.2424217516333
 51
295.6202041844775
  0
ARC
  5
1D3
330
60
100
AcDbEntity
  8
LAY4_1
  6
Continuous
 62
     7
100
AcDbCircle
 10
284.9281257255282
 20
303.5003439075919
 30
0.0
 40
0.7129651904143229
100
AcDbArc
 50
334.0862723067752
 51
137.303249412865
  0
ARC
  5
1D4
330
60
100
AcDbEntity
  8
LAY4_1
  6
Continuous
 62
     7
100
AcDbCircle
 10
284.0070747001378
 20
306.0710531361077
 30
0.0
 40
2.116749525066214
100
AcDbArc
 50
192.528552701542
 51
281.0331330986701
  0
ARC
  5
1D5
330
60
100
AcDbEntity
  8
LAY4_1
  6
Continuous
 62
     7
100
AcDbCircle
 10
280.2158454520907
 20
308.4414754993888
 30
0.0
 40
2.156945943831906
100
AcDbArc
 50
197.4909173599709
 51
283.860284999965
  0
ARC
  5
1D6
330
60
100
AcDbEntity
  8
LAY4_1
  6
Continuous
 62
     7
100
AcDbCircle
 10
281.2808173759188
 20
305.8878866322012
 30
0.0
 40
0.7153066396685551
100
AcDbArc
 50
337.3024717833322
 51
140.0367457599591
  0
ARC
  5
1D7
330
60
100
AcDbEntity
  8
LAY4_1
  6
Continuous
 62
     7
100
AcDbCircle
 10
259.4648078544344
 20
291.1340108997795
 30
0.0
 40
0.7256322503125284
100
AcDbArc
 50
173.9477607249942
 51
334.3173512669425
  0
ARC
  5
1D8
330
60
100
AcDbEntity
  8
LAY4_1
  6
Continuous
 62
     7
100
AcDbCircle
 10
291.6867622001378
 20
298.0032125599357
 30
0.0
 40
0.7143005728761409
100
AcDbArc
 50
324.9493096883387
 51
129.3999419013262
  0
ARC
  5
1D9
330
60
100
AcDbEntity
  8
LAY4_1
  6
Continuous
 62
     7
100
AcDbCircle
 10
239.5091193778719
 20
290.5308920032951
 30
0.0
 40
1.199999928472033
100
AcDbArc
 50
184.7801948620224
 51
270.0000006833521
  0
ARC
  5
1DA
330
60
100
AcDbEntity
  8
LAY4_1
  6
Continuous
 62
     7
100
AcDbCircle
 10
244.9101508720128
 20
316.7058797962638
 30
0.0
 40
5.701040744785511
100
AcDbArc
 50
161.3299971014085
 51
198.6699992560788
  0
ARC
  5
1DB
330
60
100
AcDbEntity
  8
LAY4_1
  6
Continuous
 62
     7
100
AcDbCircle
 10
277.4009650809969
 20
280.2868124134512
 30
0.0
 40
0.7036831975018327
100
AcDbArc
 50
64.13691064630552
 51
127.2953966936875
  0
ARC
  5
1DC
330
60
100
AcDbEntity
  8
LAY4_1
  6
Continuous
 62
     7
100
AcDbCircle
 10
253.9305060966219
 20
292.3109823353262
 30
0.0
 40
0.7326474785765806
100
AcDbArc
 50
182.9238860494185
 51
340.691748252963
  0
ARC
  5
1DD
330
60
100
AcDbEntity
  8
LAY4_1
  6
Continuous
 62
     7
100
AcDbCircle
 10
256.7166694267
 20
291.8189169056388
 30
0.0
 40
0.7302064299547131
100
AcDbArc
 50
178.8955497600192
 51
336.3276671849695
  0
ARC
  5
1DE
330
60
100
AcDbEntity
  8
LAY4_1
  6
Continuous
 62
     7
100
AcDbCircle
 10
252.4539130790438
 20
315.0145956165762
 30
0.0
 40
0.7154920697213265
100
AcDbArc
 50
4.31351717790355
 51
166.9870603004632
  0
ARC
  5
1DF
330
60
100
AcDbEntity
  8
LAY4_1
  6
Continuous
 62
     7
100
AcDbCircle
 10
250.3146003349032
 20
316.8421713001701
 30
0.0
 40
2.206544637680369
100
AcDbArc
 50
229.1343505016392
 51
310.7309868552168
  0
ARC
  5
1E0
330
60
100
AcDbEntity
  8
LAY4_1
  6
Continuous
 62
     7
100
AcDbCircle
 10
276.5371955497469
 20
281.4267965443107
 30
0.0
 40
0.7228344678910089
100
AcDbArc
 50
146.7764759046281
 51
306.5697350845168
  0
ARC
  5
1E1
330
60
100
AcDbEntity
  8
LAY4_1
  6
Continuous
 62
     7
100
AcDbCircle
 10
244.9101508720128
 20
305.7558675892327
 30
0.0
 40
5.701040744785457
100
AcDbArc
 50
161.3299971014102
 51
198.669999256082
  0
ARC
  5
1E2
330
60
100
AcDbEntity
  8
LAY4_1
  6
Continuous
 62
     7
100
AcDbCircle
 10
244.9101508720128
 20
309.4058614857169
 30
0.0
 40
5.70104074478553
100
AcDbArc
 50
161.329997101408
 51
198.669999256081
  0
ARC
  5
1E3
330
60
100
AcDbEntity
  8
LAY4_1
  6
Continuous
 62
     7
100
AcDbCircle
 10
244.9101508720128
 20
313.0558553822012
 30
0.0
 40
5.701040744785511
100
AcDbArc
 50
161.3299971014085
 51
198.6699992560788
  0
ARC
  5
1E4
330
60
100
AcDbEntity
  8
LAY4_1
  6
Continuous
 62
     7
100
AcDbCircle
 10
256.8013557059969
 20
314.5704427845451
 30
0.0
 40
0.7158014774316086
100
AcDbArc
 50
2.68803759620564
 51
162.9137540452469
  0
ARC
  5
1E5
330
60
100
AcDbEntity
  8
LAY4_1
  6
Continuous
 62
     7
100
AcDbCircle
 10
277.4768928153719
 20
308.0162740833733
 30
0.0
 40
0.7224577665336225
100
AcDbArc
 50
341.5370524647565
 51
143.5561646544951
  0
ARC
  5
1E6
330
60
100
AcDbEntity
  8
LAY4_1
  6
Continuous
 62
     7
100
AcDbCircle
 10
291.1674445731844
 20
300.7156149036857
 30
0.0
 40
2.157168149951257
100
AcDbArc
 50
185.7385113835287
 51
272.1016225700241
  0
ARC
  5
1E7
330
60
100
AcDbEntity
  8
LAY4_1
  6
Continuous
 62
     7
100
AcDbCircle
 10
248.1642402274813
 20
315.1641622669669
 30
0.0
 40
0.706717312334253
100
AcDbArc
 50
0.75414455827923
 51
89.70334689789925
  0
ARC
  5
1E8
330
60
100
AcDbEntity
  8
LAY4_1
  6
Continuous
 62
     7
100
AcDbCircle
 10
273.5407355888094
 20
309.8923116810295
 30
0.0
 40
0.7166541814854216
100
AcDbArc
 50
345.3324519829239
 51
147.7743255611127
  0
ARC
  5
1E9
330
60
100
AcDbEntity
  8
LAY4_1
  6
Continuous
 62
     7
100
AcDbCircle
 10
261.0653022392
 20
313.8143697864983
 30
0.0
 40
0.7434408664720924
100
AcDbArc
 50
0.41017927308678
 51
154.9736318145599
  0
ARC
  5
1EA
330
60
100
AcDbEntity
  8
LAY4_1
  6
Continuous
 62
     7
100
AcDbCircle
 10
288.4073737724032
 20
300.8677450306388
 30
0.0
 40
0.7091495990780554
100
AcDbArc
 50
328.3044898537163
 51
133.5262231032898
  0
ARC
  5
1EB
330
60
100
AcDbEntity
  8
LAY4_1
  6
Continuous
 62
     7
100
AcDbCircle
 10
254.7955573661532
 20
316.4894491322012
 30
0.0
 40
2.156417846677424
100
AcDbArc
 50
220.9948140678245
 51
307.3790851803437
  0
ARC
  5
1EC
330
60
100
AcDbEntity
  8
LAY4_1
  6
Continuous
 62
     7
100
AcDbCircle
 10
269.4915412528719
 20
311.4955526478262
 30
0.0
 40
0.7077627778085729
100
AcDbArc
 50
348.5499628554615
 51
153.5419012209764
  0
ARC
  5
1ED
330
60
100
AcDbEntity
  8
LAY4_1
  6
Continuous
 62
     7
100
AcDbCircle
 10
248.2783759696688
 20
292.7140279896233
 30
0.0
 40
0.7315421104431025
100
AcDbArc
 50
261.3132841344835
 51
349.2490190570407
  0
ARC
  5
1EE
330
60
100
AcDbEntity
  8
LAY4_1
  6
Continuous
 62
     7
100
AcDbCircle
 10
251.1083625419344
 20
292.6039510853262
 30
0.0
 40
0.7260543704063092
100
AcDbArc
 50
185.9320106425548
 51
345.7752121659788
  0
ARC
  5
1EF
330
60
100
AcDbEntity
  8
LAY4_1
  6
Continuous
 62
     7
100
AcDbCircle
 10
270.8826850517
 20
285.6487508900138
 30
0.0
 40
0.7034503817571618
100
AcDbArc
 50
333.8008796829784
 51
139.1079083349557
  0
ARC
  5
1F0
330
60
100
AcDbEntity
  8
LAY4_1
  6
Continuous
 62
     7
100
AcDbCircle
 10
268.4822333915438
 20
287.1245809681388
 30
0.0
 40
0.7033759355565197
100
AcDbArc
 50
337.7206159642456
 51
143.0450889192572
  0
ARC
  5
1F1
330
60
100
AcDbEntity
  8
LAY4_1
  6
Continuous
 62
     7
100
AcDbCircle
 10
255.2878974540438
 20
291.8743978626701
 30
0.0
 40
0.7029947638487151
100
AcDbArc
 50
357.3177674102565
 51
162.7329862588002
  0
ARC
  5
1F2
330
60
100
AcDbEntity
  8
LAY4_1
  6
Continuous
 62
     7
100
AcDbCircle
 10
258.0447944267
 20
291.2913290150138
 30
0.0
 40
0.7030701041225448
100
AcDbArc
 50
353.3984409400614
 51
158.7957373722247
  0
ARC
  5
1F3
330
60
100
AcDbEntity
  8
LAY4_1
  6
Continuous
 62
     7
100
AcDbCircle
 10
249.6859992606844
 20
292.4581686146233
 30
0.0
 40
0.7037683725313658
100
AcDbArc
 50
5.76938224474749
 51
169.8186245037888
  0
ARC
  5
1F4
330
60
100
AcDbEntity
  8
LAY4_1
  6
Continuous
 62
     7
100
AcDbCircle
 10
272.1654304130282
 20
285.0267416126701
 30
0.0
 40
0.7261239886316144
100
AcDbArc
 50
154.927910528087
 51
313.8117300197927
  0
ARC
  5
1F5
330
60
100
AcDbEntity
  8
LAY4_1
  6
Continuous
 62
     7
100
AcDbCircle
 10
264.7911628349032
 20
289.2191549427483
 30
0.0
 40
0.727329552172093
100
AcDbArc
 50
166.4607122626818
 51
326.2284675160142
  0
ARC
  5
1F6
330
60
100
AcDbEntity
  8
LAY4_1
  6
Continuous
 62
     7
100
AcDbCircle
 10
267.3400214774813
 20
287.9891439564201
 30
0.0
 40
0.7232219576819592
100
AcDbArc
 50
161.9412034094719
 51
322.3594112378037
  0
ARC
  5
1F7
330
60
100
AcDbEntity
  8
LAY4_1
  6
Continuous
 62
     7
100
AcDbCircle
 10
273.1742805106844
 20
284.0116659290762
 30
0.0
 40
0.7052317261679115
100
AcDbArc
 50
329.986027785611
 51
135.8671611587843
  0
ARC
  5
1F8
330
60
100
AcDbEntity
  8
LAY4_1
  6
Continuous
 62
     7
100
AcDbCircle
 10
260.7534431083407
 20
290.5218282825919
 30
0.0
 40
0.7010207176202442
100
AcDbArc
 50
349.1805532407233
 51
154.828080483477
  0
ARC
  5
1F9
330
60
100
AcDbEntity
  8
LAY4_1
  6
Continuous
 62
     7
100
AcDbCircle
 10
263.40661083295
 20
289.5663229114983
 30
0.0
 40
0.7032328844044246
100
AcDbArc
 50
345.560552980464
 51
150.9196823155883
  0
ARC
  5
1FA
330
60
100
AcDbEntity
  8
LAY4_1
  6
Continuous
 62
     7
100
AcDbCircle
 10
275.3525642020907
 20
282.2218099720451
 30
0.0
 40
0.7036074995934585
100
AcDbArc
 50
325.9617349684453
 51
131.2329597691281
  0
ARC
  5
1FB
330
60
100
AcDbEntity
  8
LAY4_1
  6
Continuous
 62
     7
100
AcDbCircle
 10
265.3291572196688
 20
312.8052450306388
 30
0.0
 40
0.71609854698339
100
AcDbArc
 50
352.7812104049544
 51
156.4032040682616
  0
ARC
  5
1FC
330
60
100
AcDbEntity
  8
LAY4_1
  6
Continuous
 62
     7
100
AcDbCircle
 10
252.4968207938878
 20
292.2682882435295
 30
0.0
 40
0.7020127773259022
100
AcDbArc
 50
0.43339212496856
 51
166.7459546226237
  0
ARC
  5
1FD
330
60
100
AcDbEntity
  8
LAY4_1
  6
Continuous
 62
     7
100
AcDbCircle
 10
274.4128669364657
 20
283.3063741810295
 30
0.0
 40
0.727463304996512
100
AcDbArc
 50
151.2183118462861
 51
310.1677421355329
  0
ARC
  5
1FE
330
60
100
AcDbEntity
  8
LAY4_1
  6
Continuous
 62
     7
100
AcDbCircle
 10
269.8047126395907
 20
286.5922628529045
 30
0.0
 40
0.7266587614974804
100
AcDbArc
 50
158.6093278494389
 51
317.848754309976
  0
ARC
  5
1FF
330
60
100
AcDbEntity
  8
LAY4_1
  6
Continuous
 62
     7
100
AcDbCircle
 10
262.159784661075
 20
290.2699056751701
 30
0.0
 40
0.7277939319608755
100
AcDbArc
 50
170.4841991175507
 51
330.0924148125933
  0
ARC
  5
200
330
60
100
AcDbEntity
  8
LAY4_1
  6
Continuous
 62
     7
100
AcDbCircle
 10
293.3046516044344
 20
293.2752004749749
 30
0.0
 40
5.701040744782476
100
AcDbArc
 50
296.3300010855479
 51
333.6699998251421
  0
ARC
  5
201
330
60
100
AcDbEntity
  8
LAY4_1
  6
Continuous
 62
     7
100
AcDbCircle
 10
290.7236884696688
 20
290.6942678577873
 30
0.0
 40
5.701040744782272
100
AcDbArc
 50
296.3300010855514
 51
333.6699998251424
  0
ARC
  5
202
330
60
100
AcDbEntity
  8
LAY4_1
  6
Continuous
 62
     7
100
AcDbCircle
 10
285.5618232352938
 20
285.5323873646233
 30
0.0
 40
5.701040744782272
100
AcDbArc
 50
296.3300010855514
 51
333.6699998251424
  0
ARC
  5
203
330
60
100
AcDbEntity
  8
LAY4_1
  6
Continuous
 62
     7
100
AcDbCircle
 10
295.8855842216219
 20
295.8561330921623
 30
0.0
 40
5.701040744782171
100
AcDbArc
 50
296.3300010855494
 51
333.6699998251436
  0
ARC
  5
204
330
60
100
AcDbEntity
  8
LAY4_1
  6
Continuous
 62
     7
100
AcDbCircle
 10
288.1427558524813
 20
288.1133199818107
 30
0.0
 40
5.701040744782172
100
AcDbArc
 50
296.3300010855481
 51
333.6699998251439
  0
ARC
  5
205
330
60
100
AcDbEntity
  8
LAY4_1
  6
Continuous
 62
     7
100
AcDbCircle
 10
282.9808601005282
 20
282.9514394886467
 30
0.0
 40
5.701040744782071
100
AcDbArc
 50
296.330001085546
 51
333.6699998251411
  0
ARC
  5
206
330
60
100
AcDbEntity
  8
LAY4_1
  6
Continuous
 62
     7
100
AcDbCircle
 10
277.8189948661532
 20
277.7895589954827
 30
0.0
 40
5.701040744782325
100
AcDbArc
 50
296.3300010855448
 51
333.6699998251416
  0
ARC
  5
207
330
60
100
AcDbEntity
  8
LAY4_1
  6
Continuous
 62
     7
100
AcDbCircle
 10
280.3999580009188
 20
280.3705221302483
 30
0.0
 40
5.701040744782272
100
AcDbArc
 50
296.3300010855514
 51
333.6699998251424
  0
ARC
  5
208
330
60
100
AcDbEntity
  8
LAY4_1
  6
Continuous
 62
     7
100
AcDbCircle
 10
288.9928535087313
 20
423.9504476673577
 30
0.0
 40
0.7139978408812622
100
AcDbArc
 50
179.7609893690752
 51
343.0714408015777
  0
ARC
  5
209
330
60
100
AcDbEntity
  8
LAY4_1
  6
Continuous
 62
     7
100
AcDbCircle
 10
298.0317939384188
 20
422.8436666614983
 30
0.0
 40
0.7244554162015502
100
AcDbArc
 50
186.3680772404074
 51
344.834121380808
  0
ARC
  5
20A
330
60
100
AcDbEntity
  8
LAY4_1
  6
Continuous
 62
     7
100
AcDbCircle
 10
302.2877753837313
 20
444.9999776966545
 30
0.0
 40
0.7205166816695576
100
AcDbArc
 50
7.16511091109295
 51
165.8279088961332
  0
ARC
  5
20B
330
60
100
AcDbEntity
  8
LAY4_1
  6
Continuous
 62
     7
100
AcDbCircle
 10
284.465448723575
 20
424.7752157337638
 30
0.0
 40
0.7140594720811356
100
AcDbArc
 50
179.7874495216636
 51
339.4797175247444
  0
ARC
  5
20C
330
60
100
AcDbEntity
  8
LAY4_1
  6
Continuous
 62
     7
100
AcDbCircle
 10
302.5502265556063
 20
422.5174947864983
 30
0.0
 40
0.7243177294722428
100
AcDbArc
 50
188.7512668454058
 51
344.5160531316315
  0
ARC
  5
20D
330
60
100
AcDbEntity
  8
LAY4_1
  6
Continuous
 62
     7
100
AcDbCircle
 10
275.428339348575
 20
426.8742147572012
 30
0.0
 40
0.7097872495663646
100
AcDbArc
 50
172.9797863157716
 51
338.9479189956768
  0
ARC
  5
20E
330
60
100
AcDbEntity
  8
LAY4_1
  6
Continuous
 62
     7
100
AcDbCircle
 10
261.9487861259188
 20
431.4074483997795
 30
0.0
 40
0.7613625526438941
100
AcDbArc
 50
174.9183852473364
 51
322.1102732580487
  0
ARC
  5
20F
330
60
100
AcDbEntity
  8
LAY4_1
  6
Continuous
 62
     7
100
AcDbCircle
 10
270.9533027274813
 20
428.2229391224357
 30
0.0
 40
0.7308402061436083
100
AcDbArc
 50
176.333641424725
 51
328.1500182952863
  0
ARC
  5
210
330
60
100
AcDbEntity
  8
LAY4_1
  6
Continuous
 62
     7
100
AcDbCircle
 10
266.4551337821688
 20
429.7238851673577
 30
0.0
 40
0.7410501837730473
100
AcDbArc
 50
175.8251475011876
 51
323.8336392686103
  0
ARC
  5
211
330
60
100
AcDbEntity
  8
LAY4_1
  6
Continuous
 62
     7
100
AcDbCircle
 10
257.4334968192782
 20
433.3816915638419
 30
0.0
 40
0.758816659447682
100
AcDbArc
 50
170.9172604319027
 51
317.198247093329
  0
ARC
  5
212
330
60
100
AcDbEntity
  8
LAY4_1
  6
Continuous
 62
     7
100
AcDbCircle
 10
279.9421943290438
 20
425.7414327747795
 30
0.0
 40
0.7159298658345923
100
AcDbArc
 50
175.6284243926692
 51
339.0416291914493
  0
ARC
  5
213
330
60
100
AcDbEntity
  8
LAY4_1
  6
Continuous
 62
     7
100
AcDbCircle
 10
293.5158027274813
 20
423.3172079212638
 30
0.0
 40
0.7164195179960863
100
AcDbArc
 50
183.2683734701845
 51
343.2461570404559
  0
ARC
  5
214
330
60
100
AcDbEntity
  8
LAY4_1
  6
Continuous
 62
     7
100
AcDbCircle
 10
297.77770458295
 20
445.3255392200919
 30
0.0
 40
0.7207446098359661
100
AcDbArc
 50
7.12104423800523
 51
163.278732033726
  0
ARC
  5
215
330
60
100
AcDbEntity
  8
LAY4_1
  6
Continuous
 62
     7
100
AcDbCircle
 10
254.7588142020907
 20
459.6034933216545
 30
0.0
 40
2.480490207670322
100
AcDbArc
 50
220.7835153356325
 51
300.39133720648
  0
ARC
  5
216
330
60
100
AcDbEntity
  8
LAY4_1
  6
Continuous
 62
     7
100
AcDbCircle
 10
250.1391242606844
 20
460.1713949329827
 30
0.0
 40
2.403513908383721
100
AcDbArc
 50
222.6072304854828
 51
304.1550173260949
  0
ARC
  5
217
330
60
100
AcDbEntity
  8
LAY4_1
  6
Continuous
 62
     7
100
AcDbCircle
 10
247.9040168388094
 20
435.9603963978262
 30
0.0
 40
0.7147778272627615
100
AcDbArc
 50
241.6582673262086
 51
344.2186393748128
  0
ARC
  5
218
330
60
100
AcDbEntity
  8
LAY4_1
  6
Continuous
 62
     7
100
AcDbCircle
 10
249.9436896903719
 20
433.9276815540762
 30
0.0
 40
2.281853675843982
100
AcDbArc
 50
39.99592804353662
 51
126.3298538318766
  0
ARC
  5
219
330
60
100
AcDbEntity
  8
LAY4_1
  6
Continuous
 62
     7
100
AcDbCircle
 10
252.1686042411532
 20
457.9709554798577
 30
0.0
 40
0.712154388427129
100
AcDbArc
 50
0.98754877072389
 51
162.7258828621265
  0
ARC
  5
21A
330
60
100
AcDbEntity
  8
LAY4_1
  6
Continuous
 62
     7
100
AcDbCircle
 10
245.2657111747469
 20
434.6558920032951
 30
0.0
 40
5.701040744778746
100
AcDbArc
 50
161.3300344400667
 51
198.6700265768609
  0
ARC
  5
21B
330
60
100
AcDbEntity
  8
LAY4_1
  6
Continuous
 62
     7
100
AcDbCircle
 10
247.6557868583407
 20
458.4957052357169
 30
0.0
 40
0.7160252928747018
100
AcDbArc
 50
3.89016156250287
 51
94.43740565346184
  0
ARC
  5
21C
330
60
100
AcDbEntity
  8
LAY4_1
  6
Continuous
 62
     7
100
AcDbCircle
 10
256.6833747489657
 20
457.2160421497795
 30
0.0
 40
0.7140200138115241
100
AcDbArc
 50
359.0473352326338
 51
159.6937706441415
  0
ARC
  5
21D
330
60
100
AcDbEntity
  8
LAY4_1
  6
Continuous
 62
     7
100
AcDbCircle
 10
252.4289191825594
 20
435.4720846302483
 30
0.0
 40
0.7412171959869533
100
AcDbArc
 50
186.02268823407
 51
338.1356728998253
  0
ARC
  5
21E
330
60
100
AcDbEntity
  8
LAY4_1
  6
Continuous
 62
     7
100
AcDbCircle
 10
311.1575568778719
 20
442.6403280384512
 30
0.0
 40
5.701040744780476
100
AcDbArc
 50
341.3300157707747
 51
18.67000449241351
  0
ARC
  5
21F
330
60
100
AcDbEntity
  8
LAY4_1
  6
Continuous
 62
     7
100
AcDbCircle
 10
311.1575568778719
 20
438.9903036243888
 30
0.0
 40
5.701040744780495
100
AcDbArc
 50
341.3300157707741
 51
18.67000449241135
  0
ARC
  5
220
330
60
100
AcDbEntity
  8
LAY4_1
  6
Continuous
 62
     7
100
AcDbCircle
 10
311.1575568778719
 20
420.7403188831779
 30
0.0
 40
5.70104074478053
100
AcDbArc
 50
341.330015770773
 51
18.67000449241189
  0
ARC
  5
221
330
60
100
AcDbEntity
  8
LAY4_1
  6
Continuous
 62
     7
100
AcDbCircle
 10
311.1575568778719
 20
446.2903219349357
 30
0.0
 40
5.70104074478053
100
AcDbArc
 50
341.330015770773
 51
18.67000449241189
  0
ARC
  5
222
330
60
100
AcDbEntity
  8
LAY4_1
  6
Continuous
 62
     7
100
AcDbCircle
 10
311.1575568778719
 20
431.6903158314201
 30
0.0
 40
5.70104074478053
100
AcDbArc
 50
341.330015770773
 51
18.67000449241026
  0
ARC
  5
223
330
60
100
AcDbEntity
  8
LAY4_1
  6
Continuous
 62
     7
100
AcDbCircle
 10
316.5585578544344
 20
420.1153188831779
 30
0.0
 40
1.200000047683602
100
AcDbArc
 50
270.0000006833385
 51
355.2198065046626
  0
ARC
  5
224
330
60
100
AcDbEntity
  8
LAY4_1
  6
Continuous
 62
     7
100
AcDbCircle
 10
311.1575568778719
 20
424.3902975208733
 30
0.0
 40
5.701040744780513
100
AcDbArc
 50
341.3300157707736
 51
18.67000449241026
  0
ARC
  5
225
330
60
100
AcDbEntity
  8
LAY4_1
  6
Continuous
 62
     7
100
AcDbCircle
 10
311.1575568778719
 20
428.0403066761467
 30
0.0
 40
5.701040744780495
100
AcDbArc
 50
341.3300157707741
 51
18.67000449241026
  0
ARC
  5
226
330
60
100
AcDbEntity
  8
LAY4_1
  6
Continuous
 62
     7
100
AcDbCircle
 10
245.2657111747469
 20
445.6059042103262
 30
0.0
 40
5.701040744778819
100
AcDbArc
 50
161.3300344400645
 51
198.6700265768604
  0
ARC
  5
227
330
60
100
AcDbEntity
  8
LAY4_1
  6
Continuous
 62
     7
100
AcDbCircle
 10
253.5384772880282
 20
431.4856344349357
 30
0.0
 40
3.736668586733091
100
AcDbArc
 50
32.64494719467618
 51
96.59846384652509
  0
ARC
  5
228
330
60
100
AcDbEntity
  8
LAY4_1
  6
Continuous
 62
     7
100
AcDbCircle
 10
260.5619453056063
 20
457.4823385364983
 30
0.0
 40
3.176851272580626
100
AcDbArc
 50
185.0232676339887
 51
277.5107772228645
  0
ARC
  5
229
330
60
100
AcDbEntity
  8
LAY4_1
  6
Continuous
 62
     7
100
AcDbCircle
 10
245.2657111747469
 20
441.9558492786857
 30
0.0
 40
5.701040744778727
100
AcDbArc
 50
161.3300344400673
 51
198.6700265768609
  0
ARC
  5
22A
330
60
100
AcDbEntity
  8
LAY4_1
  6
Continuous
 62
     7
100
AcDbCircle
 10
245.2657111747469
 20
460.2059103138419
 30
0.0
 40
5.701040744778746
100
AcDbArc
 50
161.3300344400667
 51
198.670026576862
  0
ARC
  5
22B
330
60
100
AcDbEntity
  8
LAY4_1
  6
Continuous
 62
     7
100
AcDbCircle
 10
245.2657111747469
 20
452.905907262084
 30
0.0
 40
5.701040744778783
100
AcDbArc
 50
161.3300344400656
 51
198.6700265768604
  0
ARC
  5
22C
330
60
100
AcDbEntity
  8
LAY4_1
  6
Continuous
 62
     7
100
AcDbCircle
 10
245.2657111747469
 20
449.2558828480217
 30
0.0
 40
5.701040744778637
100
AcDbArc
 50
161.33003444007
 51
198.670026576862
  0
ARC
  5
22D
330
60
100
AcDbEntity
  8
LAY4_1
  6
Continuous
 62
     7
100
AcDbCircle
 10
245.2657111747469
 20
456.5559164173577
 30
0.0
 40
5.701040744778673
100
AcDbArc
 50
161.3300344400689
 51
198.6700265768609
  0
ARC
  5
22E
330
60
100
AcDbEntity
  8
LAY4_1
  6
Continuous
 62
     7
100
AcDbCircle
 10
245.2657111747469
 20
438.3058858997795
 30
0.0
 40
5.701040744778673
100
AcDbArc
 50
161.3300344400689
 51
198.6700265768609
  0
ARC
  5
22F
330
60
100
AcDbEntity
  8
LAY4_1
  6
Continuous
 62
     7
100
AcDbCircle
 10
304.6432441337313
 20
446.6704794056388
 30
0.0
 40
2.278074979780568
100
AcDbArc
 50
223.9344455243319
 51
311.0224446874003
  0
ARC
  5
230
330
60
100
AcDbEntity
  8
LAY4_1
  6
Continuous
 62
     7
100
AcDbCircle
 10
304.7164863212313
 20
420.4880453236077
 30
0.0
 40
2.350937604903634
100
AcDbArc
 50
46.6649759756353
 51
128.6476785265875
  0
ARC
  5
231
330
60
100
AcDbEntity
  8
LAY4_1
  6
Continuous
 62
     7
100
AcDbCircle
 10
309.2651008231844
 20
420.5336080677483
 30
0.0
 40
2.185820579529914
100
AcDbArc
 50
128.6539349798748
 51
133.0698845048254
  0
ARC
  5
232
330
60
100
AcDbEntity
  8
LAY4_1
  6
Continuous
 62
     7
100
AcDbCircle
 10
309.1144660575594
 20
446.5081258900138
 30
0.0
 40
2.232314586640461
100
AcDbArc
 50
225.4922750702037
 51
244.6485241446647
  0
ARC
  5
233
330
60
100
AcDbEntity
  8
LAY4_1
  6
Continuous
 62
     7
100
AcDbCircle
 10
286.3554023368563
 20
422.3070455677483
 30
0.0
 40
2.531822681430518
100
AcDbArc
 50
40.56183312206205
 51
118.8381335200118
  0
ARC
  5
234
330
60
100
AcDbEntity
  8
LAY4_1
  6
Continuous
 62
     7
100
AcDbCircle
 10
281.7368110282628
 20
423.1595541126701
 30
0.0
 40
2.58405923843259
100
AcDbArc
 50
38.77463557851473
 51
115.8339157947209
  0
ARC
  5
235
330
60
100
AcDbEntity
  8
LAY4_1
  6
Continuous
 62
     7
100
AcDbCircle
 10
307.05700145795
 20
422.2895284779045
 30
0.0
 40
0.7329290509226363
100
AcDbArc
 50
187.1724822788261
 51
347.4604384000164
  0
ARC
  5
236
330
60
100
AcDbEntity
  8
LAY4_1
  6
Continuous
 62
     7
100
AcDbCircle
 10
290.9572700126378
 20
421.6265340931388
 30
0.0
 40
2.473756790162153
100
AcDbArc
 50
41.830438307591
 51
121.1978545952298
  0
ARC
  5
237
330
60
100
AcDbEntity
  8
LAY4_1
  6
Continuous
 62
     7
100
AcDbCircle
 10
275.1268256767
 20
449.4161764271233
 30
0.0
 40
0.7317321896550548
100
AcDbArc
 50
0.63659358741601
 51
150.215339548102
  0
ARC
  5
238
330
60
100
AcDbEntity
  8
LAY4_1
  6
Continuous
 62
     7
100
AcDbCircle
 10
288.7404121024813
 20
446.4888540394279
 30
0.0
 40
0.7203895449680401
100
AcDbArc
 50
2.57077669540623
 51
160.1676901501707
  0
ARC
  5
239
330
60
100
AcDbEntity
  8
LAY4_1
  6
Continuous
 62
     7
100
AcDbCircle
 10
270.6169990165438
 20
450.731834996459
 30
0.0
 40
0.723740518096079
100
AcDbArc
 50
354.7467202817682
 51
148.8081976357963
  0
ARC
  5
23A
330
60
100
AcDbEntity
  8
LAY4_1
  6
Continuous
 62
     7
100
AcDbCircle
 10
293.2628730399813
 20
445.8354269154045
 30
0.0
 40
0.7219116687757193
100
AcDbArc
 50
4.47037375272353
 51
161.2792078146982
  0
ARC
  5
23B
330
60
100
AcDbEntity
  8
LAY4_1
  6
Continuous
 62
     7
100
AcDbCircle
 10
306.8408149345125
 20
444.8090292103262
 30
0.0
 40
0.7167469859117551
100
AcDbArc
 50
8.59296110347047
 51
168.5135256177016
  0
ARC
  5
23C
330
60
100
AcDbEntity
  8
LAY4_1
  6
Continuous
 62
     7
100
AcDbCircle
 10
284.2009223563878
 20
447.3184591419669
 30
0.0
 40
0.7113811373709459
100
AcDbArc
 50
359.9385656360977
 51
158.6347498134289
  0
ARC
  5
23D
330
60
100
AcDbEntity
  8
LAY4_1
  6
Continuous
 62
     7
100
AcDbCircle
 10
279.6733955009188
 20
448.2814260609123
 30
0.0
 40
0.7204491496090238
100
AcDbArc
 50
359.4670366966193
 51
154.5818521635969
  0
ARC
  5
23E
330
60
100
AcDbEntity
  8
LAY4_1
  6
Continuous
 62
     7
100
AcDbCircle
 10
266.0864814384188
 20
452.2183157093499
 30
0.0
 40
0.7250131368600069
100
AcDbArc
 50
354.911300520025
 51
146.7776233768887
  0
ARC
  5
23F
330
60
100
AcDbEntity
  8
LAY4_1
  6
Continuous
 62
     7
100
AcDbCircle
 10
261.5532783134188
 20
453.8418966419669
 30
0.0
 40
0.7700144648562783
100
AcDbArc
 50
354.0735641579988
 51
140.1012227456743
  0
ARC
  5
240
330
60
100
AcDbEntity
  8
LAY4_1
  6
Continuous
 62
     7
100
AcDbCircle
 10
300.130976067325
 20
420.6233907825919
 30
0.0
 40
2.466543436051442
100
AcDbArc
 50
46.32275959245433
 51
124.5817898570822
  0
ARC
  5
241
330
60
100
AcDbEntity
  8
LAY4_1
  6
Continuous
 62
     7
100
AcDbCircle
 10
291.266229973575
 20
447.9882284290762
 30
0.0
 40
2.326882362363156
100
AcDbArc
 50
219.0860767231017
 51
304.3495957550883
  0
ARC
  5
242
330
60
100
AcDbEntity
  8
LAY4_1
  6
Continuous
 62
     7
100
AcDbCircle
 10
273.4359687431063
 20
452.0785299427483
 30
0.0
 40
2.529687643051936
100
AcDbArc
 50
213.9551976373892
 51
294.6668463801284
  0
ARC
  5
243
330
60
100
AcDbEntity
  8
LAY4_1
  6
Continuous
 62
     7
100
AcDbCircle
 10
300.1641181571688
 20
446.8934713489983
 30
0.0
 40
2.231416225436316
100
AcDbArc
 50
221.4997699530967
 51
309.6912681389367
  0
ARC
  5
244
330
60
100
AcDbEntity
  8
LAY4_1
  6
Continuous
 62
     7
100
AcDbCircle
 10
295.7251533134188
 20
447.3580404407951
 30
0.0
 40
2.277456998825707
100
AcDbArc
 50
220.079240869859
 51
306.737020077637
  0
ARC
  5
245
330
60
100
AcDbEntity
  8
LAY4_1
  6
Continuous
 62
     7
100
AcDbCircle
 10
311.1575568778719
 20
435.3403097279045
 30
0.0
 40
5.70104074478053
100
AcDbArc
 50
341.330015770773
 51
18.67000449240919
  0
ARC
  5
246
330
60
100
AcDbEntity
  8
LAY4_1
  6
Continuous
 62
     7
100
AcDbCircle
 10
316.5585578544344
 20
446.9153066761467
 30
0.0
 40
1.200000047686123
100
AcDbArc
 50
4.78018621033175
 51
89.99998884424443
  0
ARC
  5
247
330
60
100
AcDbEntity
  8
LAY4_1
  6
Continuous
 62
     7
100
AcDbCircle
 10
269.0373481376378
 20
453.5611959583733
 30
0.0
 40
2.635762453080956
100
AcDbArc
 50
212.2678950255712
 51
291.3716625962684
  0
ARC
  5
248
330
60
100
AcDbEntity
  8
LAY4_1
  6
Continuous
 62
     7
100
AcDbCircle
 10
264.6436103446688
 20
455.2396932728262
 30
0.0
 40
2.754187107087779
100
AcDbArc
 50
212.4376252263755
 51
287.6776230855563
  0
ARC
  5
249
330
60
100
AcDbEntity
  8
LAY4_1
  6
Continuous
 62
     7
100
AcDbCircle
 10
277.9276679618563
 20
450.8563009388419
 30
0.0
 40
2.516376495361329
100
AcDbArc
 50
214.6852082559834
 51
295.794729178196
  0
ARC
  5
24A
330
60
100
AcDbEntity
  8
LAY4_1
  6
Continuous
 62
     7
100
AcDbCircle
 10
258.4435065849032
 20
429.5324941761467
 30
0.0
 40
3.364287614821444
100
AcDbArc
 50
35.26502483574237
 51
97.74331966460191
  0
ARC
  5
24B
330
60
100
AcDbEntity
  8
LAY4_1
  6
Continuous
 62
     7
100
AcDbCircle
 10
272.58141552045
 20
425.3590475208733
 30
0.0
 40
2.675134897235007
100
AcDbArc
 50
36.78558203930442
 51
112.1198979805864
  0
ARC
  5
24C
330
60
100
AcDbEntity
  8
LAY4_1
  6
Continuous
 62
     7
100
AcDbCircle
 10
295.551874504825
 20
421.1022726185295
 30
0.0
 40
2.420000791547996
100
AcDbArc
 50
43.34423362377216
 51
123.9084151672045
  0
ARC
  5
24D
330
60
100
AcDbEntity
  8
LAY4_1
  6
Continuous
 62
     7
100
AcDbCircle
 10
277.1053413017
 20
424.0953146107169
 30
0.0
 40
2.720228672023284
100
AcDbArc
 50
38.69731100691046
 51
111.8990233232826
  0
ARC
  5
24E
330
60
100
AcDbEntity
  8
LAY4_1
  6
Continuous
 62
     7
100
AcDbCircle
 10
286.8270820243563
 20
448.8557211048577
 30
0.0
 40
2.455957889558401
100
AcDbArc
 50
218.7733360213489
 51
300.207960287703
  0
ARC
  5
24F
330
60
100
AcDbEntity
  8
LAY4_1
  6
Continuous
 62
     7
100
AcDbCircle
 10
282.36168895795
 20
449.7106405384512
 30
0.0
 40
2.436061382292467
100
AcDbArc
 50
216.1168568870505
 51
298.8848706831822
  0
ARC
  5
250
330
60
100
AcDbEntity
  8
LAY4_1
  6
Continuous
 62
     7
100
AcDbCircle
 10
267.97204052045
 20
426.6996847279045
 30
0.0
 40
2.745141506193573
100
AcDbArc
 50
34.88307724223206
 51
109.5500939469094
  0
ARC
  5
251
330
60
100
AcDbEntity
  8
LAY4_1
  6
Continuous
 62
     7
100
AcDbCircle
 10
263.3215278251378
 20
428.1481100208733
 30
0.0
 40
2.896491527556631
100
AcDbArc
 50
34.23926702624444
 51
105.4551155017053
  0
ENDBLK
  5
62
330
60
100
AcDbEntity
  8
0
100
AcDbBlockEnd
  0
BLOCK
  5
64
330
63
100
AcDbEntity
  8
0
100
AcDbBlockBegin
  2
開示A4
 70
     0
 10
0.0
 20
0.0
 30
0.0
  3
開示A4
  1

  0
POINT
  5
252
330
63
100
AcDbEntity
  8
1
 62
     4
100
AcDbPoint
 10
34.0
 20
34.00000000000001
 30
0.0
  0
POINT
  5
253
330
63
100
AcDbEntity
  8
1
 62
     4
100
AcDbPoint
 10
57.0
 20
12.25
 30
0.0
  0
POINT
  5
254
330
63
100
AcDbEntity
  8
1
 62
     4
100
AcDbPoint
 10
57.0
 20
20.75000000000001
 30
0.0
  0
POINT
  5
255
330
63
100
AcDbEntity
  8
1
 62
     4
100
AcDbPoint
 10
57.0
 20
24.75000000000001
 30
0.0
  0
POINT
  5
256
330
63
100
AcDbEntity
  8
1
 62
     4
100
AcDbPoint
 10
57.0
 20
16.25
 30
0.0
  0
POINT
  5
257
330
63
100
AcDbEntity
  8
1
 62
     4
100
AcDbPoint
 10
157.5
 20
19.00000000000001
 30
0.0
  0
POINT
  5
258
330
63
100
AcDbEntity
  8
1
 62
     4
100
AcDbPoint
 10
47.5
 20
282.0000000000003
 30
0.0
  0
POINT
  5
259
330
63
100
AcDbEntity
  8
1
 62
     4
100
AcDbPoint
 10
57.0
 20
22.75000000000001
 30
0.0
  0
POINT
  5
25A
330
63
100
AcDbEntity
  8
1
 62
     4
100
AcDbPoint
 10
57.0
 20
14.25
 30
0.0
  0
POINT
  5
25B
330
63
100
AcDbEntity
  8
1
 62
     4
100
AcDbPoint
 10
157.5
 20
12.5
 30
0.0
  0
POINT
  5
25C
330
63
100
AcDbEntity
  8
1
 62
     4
100
AcDbPoint
 10
163.25
 20
12.5
 30
0.0
  0
POINT
  5
25D
330
63
100
AcDbEntity
  8
1
 62
     4
100
AcDbPoint
 10
151.75
 20
12.5
 30
0.0
  0
POINT
  5
25E
330
63
100
AcDbEntity
  8
1
 62
     4
100
AcDbPoint
 10
134.75
 20
12.5
 30
0.0
  0
POINT
  5
25F
330
63
100
AcDbEntity
  8
1
 62
     4
100
AcDbPoint
 10
146.25
 20
12.5
 30
0.0
  0
POINT
  5
260
330
63
100
AcDbEntity
  8
1
 62
     4
100
AcDbPoint
 10
140.5
 20
12.5
 30
0.0
  0
POINT
  5
261
330
63
100
AcDbEntity
  8
1
 62
     4
100
AcDbPoint
 10
140.5
 20
19.00000000000001
 30
0.0
  0
POINT
  5
262
330
63
100
AcDbEntity
  8
1
 62
     4
100
AcDbPoint
 10
117.75
 20
12.5
 30
0.0
  0
POINT
  5
263
330
63
100
AcDbEntity
  8
1
 62
     4
100
AcDbPoint
 10
129.25
 20
12.5
 30
0.0
  0
POINT
  5
264
330
63
100
AcDbEntity
  8
1
 62
     4
100
AcDbPoint
 10
123.5
 20
12.5
 30
0.0
  0
POINT
  5
265
330
63
100
AcDbEntity
  8
1
 62
     4
100
AcDbPoint
 10
123.5
 20
19.00000000000001
 30
0.0
  0
POINT
  5
266
330
63
100
AcDbEntity
  8
1
 62
     4
100
AcDbPoint
 10
100.75
 20
12.5
 30
0.0
  0
POINT
  5
267
330
63
100
AcDbEntity
  8
1
 62
     4
100
AcDbPoint
 10
112.25
 20
12.5
 30
0.0
  0
POINT
  5
268
330
63
100
AcDbEntity
  8
1
 62
     4
100
AcDbPoint
 10
106.5
 20
12.5
 30
0.0
  0
POINT
  5
269
330
63
100
AcDbEntity
  8
1
 62
     4
100
AcDbPoint
 10
106.5
 20
19.00000000000001
 30
0.0
  0
POINT
  5
26A
330
63
100
AcDbEntity
  8
1
 62
     4
100
AcDbPoint
 10
85.25
 20
17.0
 30
0.0
  0
POINT
  5
26B
330
63
100
AcDbEntity
  8
1
 62
     4
100
AcDbPoint
 10
93.75
 20
17.0
 30
0.0
  0
LINE
  5
26C
330
63
100
AcDbEntity
  8
1
  6
Continuous
 62
     2
100
AcDbLine
 10
81.0
 20
27.00000000000001
 30
0.0
 11
81.0
 21
10.0
 31
0.0
  0
LINE
  5
26D
330
63
100
AcDbEntity
  8
1
  6
DOT_CENTER
 62
     2
100
AcDbLine
 10
187.0
 20
26.50000000000001
 30
0.0
 11
187.0
 21
20.50000000000001
 31
0.0
  0
LINE
  5
26E
330
63
100
AcDbEntity
  8
1
  6
DOT_CENTER
 62
     2
100
AcDbLine
 10
184.0
 20
23.50000000000001
 30
0.0
 11
197.0
 21
23.50000000000001
 31
0.0
  0
LINE
  5
26F
330
63
100
AcDbEntity
  8
1
  6
Continuous
 62
     7
100
AcDbLine
 10
196.0
 20
21.50000000000001
 30
0.0
 11
191.0
 21
22.30000000000001
 31
0.0
  0
LINE
  5
270
330
63
100
AcDbEntity
  8
1
  6
Continuous
 62
     7
100
AcDbLine
 10
196.0
 20
25.50000000000001
 30
0.0
 11
196.0
 21
21.50000000000001
 31
0.0
  0
LINE
  5
271
330
63
100
AcDbEntity
  8
1
  6
Continuous
 62
     7
100
AcDbLine
 10
191.0
 20
24.70000000000001
 30
0.0
 11
196.0
 21
25.50000000000001
 31
0.0
  0
LINE
  5
272
330
63
100
AcDbEntity
  8
1
  6
Continuous
 62
     7
100
AcDbLine
 10
191.0
 20
24.70000000000001
 30
0.0
 11
191.0
 21
22.30000000000001
 31
0.0
  0
LINE
  5
273
330
63
100
AcDbEntity
  8
1
  6
Continuous
 62
     2
100
AcDbLine
 10
33.0
 20
27.0
 30
0.0
 11
33.0
 21
10.0
 31
0.0
  0
LINE
  5
274
330
63
100
AcDbEntity
  8
1
  6
Continuous
 62
     2
100
AcDbLine
 10
25.0
 20
18.50000000000001
 30
0.0
 11
81.0
 21
18.50000000000001
 31
0.0
  0
LINE
  5
275
330
63
100
AcDbEntity
  8
1
  6
Continuous
 62
     7
100
AcDbLine
 10
200.0
 20
287.0000000000003
 30
0.0
 11
105.0
 21
287.0000000000003
 31
0.0
  0
LINE
  5
276
330
63
100
AcDbEntity
  8
1
  6
Continuous
 62
     7
100
AcDbLine
 10
200.0
 20
10.0
 30
0.0
 11
200.0
 21
148.5
 31
0.0
  0
LINE
  5
277
330
63
100
AcDbEntity
  8
1
  6
Continuous
 62
     7
100
AcDbLine
 10
25.0
 20
10.0
 30
0.0
 11
105.0
 21
10.0
 31
0.0
  0
LINE
  5
278
330
63
100
AcDbEntity
  8
1
  6
PHANTOM
 62
     4
100
AcDbLine
 10
0.0
 20
297.0
 30
0.0
 11
0.0
 21
0.0
 31
0.0
  0
LINE
  5
279
330
63
100
AcDbEntity
  8
1
  6
PHANTOM
 62
     4
100
AcDbLine
 10
210.0
 20
297.0
 30
0.0
 11
0.0
 21
297.0
 31
0.0
  0
LINE
  5
27A
330
63
100
AcDbEntity
  8
1
  6
PHANTOM
 62
     4
100
AcDbLine
 10
210.0
 20
0.0
 30
0.0
 11
210.0
 21
297.0
 31
0.0
  0
LINE
  5
27B
330
63
100
AcDbEntity
  8
1
  6
PHANTOM
 62
     4
100
AcDbLine
 10
0.0
 20
0.0
 30
0.0
 11
210.0
 21
0.0
 31
0.0
  0
LINE
  5
27C
330
63
100
AcDbEntity
  8
1
  6
Continuous
 62
     7
100
AcDbLine
 10
25.0
 20
41.0
 30
0.0
 11
200.0
 21
41.0
 31
0.0
  0
LINE
  5
27D
330
63
100
AcDbEntity
  8
1
  6
Continuous
 62
     7
100
AcDbLine
 10
200.0
 20
27.00000000000001
 30
0.0
 11
25.0
 21
27.00000000000001
 31
0.0
  0
LINE
  5
27E
330
63
100
AcDbEntity
  8
1
  6
Continuous
 62
     2
100
AcDbLine
 10
33.0
 20
41.00000000000001
 30
0.0
 11
33.0
 21
27.0
 31
0.0
  0
LINE
  5
27F
330
63
100
AcDbEntity
  8
1
  6
Continuous
 62
     2
100
AcDbLine
 10
55.0
 20
287.0000000000003
 30
0.0
 11
55.0
 21
277.0000000000003
 31
0.0
  0
LINE
  5
280
330
63
100
AcDbEntity
  8
1
  6
Continuous
 62
     2
100
AcDbLine
 10
40.0
 20
287.0000000000003
 30
0.0
 11
40.0
 21
277.0000000000003
 31
0.0
  0
LINE
  5
281
330
63
100
AcDbEntity
  8
1
  6
Continuous
 62
     7
100
AcDbLine
 10
25.0
 20
10.0
 30
0.0
 11
25.0
 21
148.5
 31
0.0
  0
LINE
  5
282
330
63
100
AcDbEntity
  8
1
  6
Continuous
 62
     2
100
AcDbLine
 10
55.0
 20
277.0000000000003
 30
0.0
 11
25.0
 21
277.0000000000003
 31
0.0
  0
LINE
  5
283
330
63
100
AcDbEntity
  8
1
  6
Continuous
 62
     2
100
AcDbLine
 10
166.0
 20
27.00000000000001
 30
0.0
 11
166.0
 21
10.0
 31
0.0
  0
LINE
  5
284
330
63
100
AcDbEntity
  8
1
  6
Continuous
 62
     2
100
AcDbLine
 10
132.0
 20
27.00000000000001
 30
0.0
 11
132.0
 21
9.99999999999999
 31
0.0
  0
LINE
  5
285
330
63
100
AcDbEntity
  8
1
  6
Continuous
 62
     2
100
AcDbLine
 10
149.0
 20
27.00000000000001
 30
0.0
 11
149.0
 21
10.0
 31
0.0
  0
LINE
  5
286
330
63
100
AcDbEntity
  8
1
  6
Continuous
 62
     2
100
AcDbLine
 10
115.0
 20
27.00000000000001
 30
0.0
 11
115.0
 21
9.99999999999999
 31
0.0
  0
LINE
  5
287
330
63
100
AcDbEntity
  8
1
  6
Continuous
 62
     2
100
AcDbLine
 10
98.0
 20
27.00000000000001
 30
0.0
 11
98.0
 21
9.99999999999999
 31
0.0
  0
LINE
  5
288
330
63
100
AcDbEntity
  8
1
  6
Continuous
 62
     2
100
AcDbLine
 10
166.0
 20
20.00000000000001
 30
0.0
 11
200.0
 21
20.00000000000001
 31
0.0
  0
LINE
  5
289
330
63
100
AcDbEntity
  8
1
  6
Continuous
 62
     2
100
AcDbLine
 10
105.0
 20
287.0000000000003
 30
0.0
 11
105.0
 21
292.0000000000003
 31
0.0
  0
LINE
  5
28A
330
63
100
AcDbEntity
  8
1
  6
Continuous
 62
     7
100
AcDbLine
 10
105.0
 20
287.0000000000003
 30
0.0
 11
25.0
 21
287.0000000000003
 31
0.0
  0
LINE
  5
28B
330
63
100
AcDbEntity
  8
1
  6
Continuous
 62
     2
100
AcDbLine
 10
25.0
 20
148.5
 30
0.0
 11
20.0
 21
148.5
 31
0.0
  0
LINE
  5
28C
330
63
100
AcDbEntity
  8
1
  6
Continuous
 62
     7
100
AcDbLine
 10
25.0
 20
148.5
 30
0.0
 11
25.0
 21
287.0000000000003
 31
0.0
  0
LINE
  5
28D
330
63
100
AcDbEntity
  8
1
  6
Continuous
 62
     2
100
AcDbLine
 10
200.0
 20
148.5
 30
0.0
 11
205.0
 21
148.5
 31
0.0
  0
LINE
  5
28E
330
63
100
AcDbEntity
  8
1
  6
Continuous
 62
     7
100
AcDbLine
 10
200.0
 20
148.5
 30
0.0
 11
200.0
 21
287.0000000000003
 31
0.0
  0
LINE
  5
28F
330
63
100
AcDbEntity
  8
1
  6
Continuous
 62
     2
100
AcDbLine
 10
105.0
 20
10.0
 30
0.0
 11
105.0
 21
5.0
 31
0.0
  0
LINE
  5
290
330
63
100
AcDbEntity
  8
1
  6
Continuous
 62
     7
100
AcDbLine
 10
105.0
 20
10.0
 30
0.0
 11
200.0
 21
10.0
 31
0.0
  0
CIRCLE
  5
291
330
63
100
AcDbEntity
  8
1
  6
DOT_CENTER
 62
     7
100
AcDbCircle
 10
89.5
 20
18.0
 30
0.0
 40
0.1000000000000227
  0
CIRCLE
  5
292
330
63
100
AcDbEntity
  8
1
  6
DOT_CENTER
 62
     7
100
AcDbCircle
 10
89.5
 20
16.0
 30
0.0
 40
0.1000000000000227
  0
CIRCLE
  5
293
330
63
100
AcDbEntity
  8
1
  6
Continuous
 62
     7
100
AcDbCircle
 10
187.0
 20
23.50000000000001
 30
0.0
 40
2.0
  0
CIRCLE
  5
294
330
63
100
AcDbEntity
  8
1
  6
Continuous
 62
     7
100
AcDbCircle
 10
187.0
 20
23.50000000000001
 30
0.0
 40
1.200000000000102
  0
CIRCLE
  5
295
330
63
100
AcDbEntity
  8
1
  6
Continuous
 62
     7
100
AcDbCircle
 10
154.5
 20
12.5
 30
0.0
 40
0.3000000000000114
  0
CIRCLE
  5
296
330
63
100
AcDbEntity
  8
1
  6
Continuous
 62
     7
100
AcDbCircle
 10
160.5
 20
12.5
 30
0.0
 40
0.3000000000000114
  0
CIRCLE
  5
297
330
63
100
AcDbEntity
  8
1
  6
Continuous
 62
     7
100
AcDbCircle
 10
143.5
 20
12.5
 30
0.0
 40
0.3000000000000114
  0
CIRCLE
  5
298
330
63
100
AcDbEntity
  8
1
  6
Continuous
 62
     7
100
AcDbCircle
 10
137.5
 20
12.5
 30
0.0
 40
0.3000000000000114
  0
CIRCLE
  5
299
330
63
100
AcDbEntity
  8
1
  6
Continuous
 62
     7
100
AcDbCircle
 10
126.5
 20
12.5
 30
0.0
 40
0.2999999999999972
  0
CIRCLE
  5
29A
330
63
100
AcDbEntity
  8
1
  6
Continuous
 62
     7
100
AcDbCircle
 10
120.5
 20
12.5
 30
0.0
 40
0.2999999999999972
  0
CIRCLE
  5
29B
330
63
100
AcDbEntity
  8
1
  6
Continuous
 62
     7
100
AcDbCircle
 10
109.5
 20
12.5
 30
0.0
 40
0.2999999999999972
  0
CIRCLE
  5
29C
330
63
100
AcDbEntity
  8
1
  6
Continuous
 62
     7
100
AcDbCircle
 10
103.5
 20
12.5
 30
0.0
 40
0.2999999999999972
  0
MTEXT
  5
29E
330
63
100
AcDbEntity
  8
1
 62
   250
100
AcDbMText
 10
25.0
 20
5.0
 30
0.0
 40
3.5
 41
0.0
 71
     4
 72
     1
  1
備考欄の文字列 原点位置=4
  7
CONVERTER_11
 73
     1
 44
0.54545454545455
  0
MTEXT
  5
29F
330
63
100
AcDbEntity
  8
1
 62
     2
100
AcDbMText
 10
89.5
 20
24.00000000000001
 30
0.0
 40
3.5
 41
0.0
 71
     5
 72
     1
  1
尺度
  7
CONVERTER_11
 73
     1
 44
0.54545454545455
  0
MTEXT
  5
2A0
330
63
100
AcDbEntity
  8
1
 62
     2
100
AcDbMText
 10
135.5
 20
25.00000000000001
 30
0.0
 40
3.0
 41
0.0
 71
     5
 72
     1
  1
製図
  7
CONVERTER_11
 73
     1
 44
0.59090909090909
  0
MTEXT
  5
2A1
330
63
100
AcDbEntity
  8
1
 62
     2
100
AcDbMText
 10
152.5
 20
25.00000000000001
 30
0.0
 40
3.0
 41
0.0
 71
     5
 72
     1
  1
設計
  7
CONVERTER_11
 73
     1
 44
0.59090909090909
  0
MTEXT
  5
2A2
330
63
100
AcDbEntity
  8
1
 62
     2
100
AcDbMText
 10
118.5
 20
25.00000000000001
 30
0.0
 40
3.0
 41
0.0
 71
     5
 72
     1
  1
検図
  7
CONVERTER_11
 73
     1
 44
0.59090909090909
  0
MTEXT
  5
2A3
330
63
100
AcDbEntity
  8
1
 62
     2
100
AcDbMText
 10
175.0
 20
23.50000000000001
 30
0.0
 40
3.5
 41
0.0
 71
     5
 72
     1
  1
第三角法
  7
CONVERTER_11
 73
     1
 44
0.54545454545455
  0
MTEXT
  5
2A4
330
63
100
AcDbEntity
  8
1
 62
     2
100
AcDbMText
 10
101.5
 20
25.00000000000001
 30
0.0
 40
3.0
 41
0.0
 71
     5
 72
     1
  1
承認
  7
CONVERTER_11
 73
     1
 44
0.59090909090909
  0
MTEXT
  5
2A5
330
63
100
AcDbEntity
  8
1
 62
     2
100
AcDbMText
 10
29.0
 20
14.25
 30
0.0
 40
3.5
 41
0.0
 71
     5
 72
     1
  1
品番
  7
CONVERTER_11
 73
     1
 44
0.72727272727273
  0
MTEXT
  5
2A6
330
63
100
AcDbEntity
  8
1
 62
     2
100
AcDbMText
 10
29.0
 20
22.75
 30
0.0
 40
3.5
 41
0.0
 71
     5
 72
     1
  1
品名
  7
CONVERTER_11
 73
     1
 44
0.72727272727273
  0
MTEXT
  5
2A7
330
63
100
AcDbEntity
  8
1
 62
     2
100
AcDbMText
 10
29.0
 20
34.00000000000001
 30
0.0
 40
3.5
 41
0.0
 71
     5
 72
     1
  1
備考
  7
CONVERTER_11
 73
     1
 44
0.45454545454545
  0
MTEXT
  5
2A8
330
63
100
AcDbEntity
  8
1
 62
     2
100
AcDbMText
 10
32.5
 20
282.0000000000003
 30
0.0
 40
5.0
 41
0.0
 71
     5
 72
     1
  1
図番
  7
CONVERTER_11
 73
     1
 44
0.45454545454545
  0
MTEXT
  5
2A9
330
63
100
AcDbEntity
  8
1
 62
     7
100
AcDbMText
 10
171.5
 20
15.0
 30
0.0
 40
2.5
 41
0.0
 71
     5
 72
     1
  1
株式会社
  7
CONVERTER_11
 73
     1
 44
1.0
  0
MTEXT
  5
2AA
330
63
100
AcDbEntity
  8
1
 62
     7
100
AcDbMText
 10
188.5
 20
15.0
 30
0.0
 40
3.0
 41
0.0
 71
     5
 72
     1
  1
三栄水栓製作所
  7
CONVERTER_11
 73
     1
 44
1.0
  0
ENDBLK
  5
65
330
63
100
AcDbEntity
  8
0
100
AcDbBlockEnd
  0
BLOCK
  5
2DB
330
2D4
100
AcDbEntity
  8
0
100
AcDbBlockBegin
  2
*D8
 70
     1
 10
0.0
 20
0.0
 30
0.0
  3
*D8
  1

  0
LINE
  5
2D5
330
2D4
100
AcDbEntity
  8
1
  6
Continuous
 62
     2
100
AcDbLine
 10
108.0214943485623
 20
103.1105779546496
 30
0.0
 11
168.0494484501212
 21
103.1105779546496
 31
0.0
  0
LINE
  5
2D6
330
2D4
100
AcDbEntity
  8
1
  6
Continuous
 62
     2
100
AcDbLine
 10
108.0214943485623
 20
125.1105169194933
 30
0.0
 11
108.0214943485623
 21
101.1105779546496
 31
0.0
  0
LINE
  5
2D7
330
2D4
100
AcDbEntity
  8
1
  6
Continuous
 62
     2
100
AcDbLine
 10
168.0494484501212
 20
125.1105169194933
 30
0.0
 11
168.0494484501212
 21
101.1105779546496
 31
0.0
  0
SOLID
  5
2D8
330
2D4
100
AcDbEntity
  8
1
 62
     2
100
AcDbTrace
 10
115.0214943485623
 20
104.0321454377613
 30
0.0
 11
115.0214943485623
 21
102.1890104715378
 31
0.0
 12
108.0214943485623
 22
103.1105779546496
 32
0.0
 13
108.0214943485623
 23
103.1105779546496
 33
0.0
  0
SOLID
  5
2D9
330
2D4
100
AcDbEntity
  8
1
 62
     2
100
AcDbTrace
 10
161.0494484501212
 20
102.1890104715378
 30
0.0
 11
161.0494484501212
 21
104.0321454377613
 31
0.0
 12
168.0494484501212
 22
103.1105779546496
 32
0.0
 13
168.0494484501212
 23
103.1105779546496
 33
0.0
  0
MTEXT
  5
2DA
330
2D4
100
AcDbEntity
  8
1
 62
     7
100
AcDbMText
 10
127.4532613312836
 20
104.5365798912406
 30
0.0
 40
7.0
 41
0.0
 71
     7
 72
     1
  1
\C7;外径{\Fgdt;n}\C7;60
  7
CONVERTER_11
 11
0.9999999999970619
 21
2.424068405545306E-6
 31
0.0
 73
     1
 44
0.45454545454545
  0
ENDBLK
  5
2DC
330
2D4
100
AcDbEntity
  8
0
100
AcDbBlockEnd
  0
BLOCK
  5
2E6
330
2DF
100
AcDbEntity
  8
0
100
AcDbBlockBegin
  2
*D9
 70
     1
 10
0.0
 20
0.0
 30
0.0
  3
*D9
  1

  0
LINE
  5
2E0
330
2DF
100
AcDbEntity
  8
1
  6
Continuous
 62
     2
100
AcDbLine
 10
81.53547139934352
 20
193.1105779546496
 30
0.0
 11
81.53547139934352
 21
123.1105779546496
 31
0.0
  0
LINE
  5
2E1
330
2DF
100
AcDbEntity
  8
1
  6
Continuous
 62
     2
100
AcDbLine
 10
101.5354713993436
 20
193.1105779546496
 30
0.0
 11
79.53547139934352
 21
193.1105779546496
 31
0.0
  0
LINE
  5
2E2
330
2DF
100
AcDbEntity
  8
1
  6
Continuous
 62
     2
100
AcDbLine
 10
110.0354561405543
 20
123.1105779546496
 30
0.0
 11
79.53547139934352
 21
123.1105779546496
 31
0.0
  0
SOLID
  5
2E3
330
2DF
100
AcDbEntity
  8
1
 62
     2
100
AcDbTrace
 10
82.4570388824553
 20
186.1105779546496
 30
0.0
 11
80.61390391623175
 21
186.1105779546496
 31
0.0
 12
81.53547139934352
 22
193.1105779546496
 32
0.0
 13
81.53547139934352
 23
193.1105779546496
 33
0.0
  0
SOLID
  5
2E4
330
2DF
100
AcDbEntity
  8
1
 62
     2
100
AcDbTrace
 10
80.61390391623175
 20
130.1105779546496
 30
0.0
 11
82.4570388824553
 21
130.1105779546496
 31
0.0
 12
81.53547139934352
 22
123.1105779546496
 32
0.0
 13
81.53547139934352
 23
123.1105779546496
 33
0.0
  0
MTEXT
  5
2E5
330
2DF
100
AcDbEntity
  8
1
 62
     7
100
AcDbMText
 10
79.53547139934352
 20
156.884831566031
 30
0.0
 40
7.0
 41
0.0
 71
     7
 72
     1
  1
70
  7
CONVERTER_13
 11
0.0
 21
1.0
 31
0.0
 73
     1
 44
0.60024009603842
  0
ENDBLK
  5
2E7
330
2DF
100
AcDbEntity
  8
0
100
AcDbBlockEnd
  0
BLOCK
  5
2F1
330
2EA
100
AcDbEntity
  8
0
100
AcDbBlockBegin
  2
*D10
 70
     1
 10
0.0
 20
0.0
 30
0.0
  3
*D10
  1

  0
LINE
  5
2EB
330
2EA
100
AcDbEntity
  8
1
  6
Continuous
 62
     2
100
AcDbLine
 10
65.5354713993435
 20
373.1105779546495
 30
0.0
 11
65.5354713993435
 21
123.1105779546496
 31
0.0
  0
LINE
  5
2EC
330
2EA
100
AcDbEntity
  8
1
  6
Continuous
 62
     2
100
AcDbLine
 10
105.4918312626248
 20
373.1105779546495
 30
0.0
 11
63.53547139934351
 21
373.1105779546495
 31
0.0
  0
LINE
  5
2ED
330
2EA
100
AcDbEntity
  8
1
  6
Continuous
 62
     2
100
AcDbLine
 10
110.0354561405543
 20
123.1105779546496
 30
0.0
 11
63.53547139934351
 21
123.1105779546496
 31
0.0
  0
SOLID
  5
2EE
330
2EA
100
AcDbEntity
  8
1
 62
     2
100
AcDbTrace
 10
66.45703888245528
 20
366.1105779546495
 30
0.0
 11
64.61390391623173
 21
366.1105779546495
 31
0.0
 12
65.5354713993435
 22
373.1105779546495
 32
0.0
 13
65.5354713993435
 23
373.1105779546495
 33
0.0
  0
SOLID
  5
2EF
330
2EA
100
AcDbEntity
  8
1
 62
     2
100
AcDbTrace
 10
64.61390391623173
 20
130.1105779546496
 30
0.0
 11
66.45703888245528
 21
130.1105779546496
 31
0.0
 12
65.5354713993435
 22
123.1105779546496
 32
0.0
 13
65.5354713993435
 23
123.1105779546496
 33
0.0
  0
MTEXT
  5
2F0
330
2EA
100
AcDbEntity
  8
1
 62
     7
100
AcDbMText
 10
63.53547139934351
 20
246.0105779546496
 30
0.0
 40
7.0
 41
0.0
 71
     7
 72
     1
  1
L
  7
CONVERTER_13
 11
0.0
 21
1.0
 31
0.0
 73
     1
 44
0.60024009603842
  0
ENDBLK
  5
2F2
330
2EA
100
AcDbEntity
  8
0
100
AcDbBlockEnd
  0
BLOCK
  5
2FC
330
2F5
100
AcDbEntity
  8
0
100
AcDbBlockBegin
  2
*D11
 70
     1
 10
0.0
 20
0.0
 30
0.0
  3
*D11
  1

  0
LINE
  5
2F6
330
2F5
100
AcDbEntity
  8
1
  6
Continuous
 62
     2
100
AcDbLine
 10
81.53547139934352
 20
373.1105779546496
 30
0.0
 11
81.53547139934352
 21
318.0928319829699
 31
0.0
  0
LINE
  5
2F7
330
2F5
100
AcDbEntity
  8
1
  6
Continuous
 62
     2
100
AcDbLine
 10
105.4918312626248
 20
373.1105779546496
 30
0.0
 11
79.53547139934352
 21
373.1105779546496
 31
0.0
  0
LINE
  5
2F8
330
2F5
100
AcDbEntity
  8
1
  6
Continuous
 62
     2
100
AcDbLine
 10
101.5354713993435
 20
318.0928319829699
 30
0.0
 11
79.53547139934352
 21
318.0928319829699
 31
0.0
  0
SOLID
  5
2F9
330
2F5
100
AcDbEntity
  8
1
 62
     2
100
AcDbTrace
 10
82.4570388824553
 20
366.1105779546496
 30
0.0
 11
80.61390391623175
 21
366.1105779546496
 31
0.0
 12
81.53547139934352
 22
373.1105779546496
 32
0.0
 13
81.53547139934352
 23
373.1105779546496
 33
0.0
  0
SOLID
  5
2FA
330
2F5
100
AcDbEntity
  8
1
 62
     2
100
AcDbTrace
 10
80.61390391623175
 20
325.0928319829699
 30
0.0
 11
82.4570388824553
 21
325.0928319829699
 31
0.0
 12
81.53547139934352
 22
318.0928319829699
 32
0.0
 13
81.53547139934352
 23
318.0928319829699
 33
0.0
  0
MTEXT
  5
2FB
330
2F5
100
AcDbEntity
  8
1
 62
     7
100
AcDbMText
 10
79.53547139934352
 20
340.3517049688096
 30
0.0
 40
7.0
 41
0.0
 71
     7
 72
     1
  1
55
  7
CONVERTER_13
 11
0.0
 21
1.0
 31
0.0
 73
     1
 44
0.60024009603842
  0
ENDBLK
  5
2FD
330
2F5
100
AcDbEntity
  8
0
100
AcDbBlockEnd
  0
BLOCK
  5
308
330
300
100
AcDbEntity
  8
0
100
AcDbBlockBegin
  2
*D12
 70
     1
 10
0.0
 20
0.0
 30
0.0
  3
*D12
  1

  0
LINE
  5
301
330
300
100
AcDbEntity
  8
1
  6
Continuous
 62
     2
100
AcDbLine
 10
363.8741706474032
 20
424.2308858997795
 30
0.0
 11
363.8741706474032
 21
302.2221444384001
 31
0.0
  0
LINE
  5
302
330
300
100
AcDbEntity
  8
1
  6
Continuous
 62
     2
100
AcDbLine
 10
363.8741706474032
 20
447.4308858997795
 30
0.0
 11
363.8741706474032
 21
424.2308858997795
 31
0.0
  0
LINE
  5
303
330
300
100
AcDbEntity
  8
1
  6
Continuous
 62
     2
100
AcDbLine
 10
332.1082650092192
 20
447.4308858997795
 30
0.0
 11
365.8741706474032
 21
447.4308858997795
 31
0.0
  0
LINE
  5
304
330
300
100
AcDbEntity
  8
1
  6
Continuous
 62
     2
100
AcDbLine
 10
357.9051255196474
 20
424.2308858997795
 30
0.0
 11
365.8741706474032
 21
424.2308858997795
 31
0.0
  0
SOLID
  5
305
330
300
100
AcDbEntity
  8
1
 62
     2
100
AcDbTrace
 10
364.795738130515
 20
440.4308858997795
 30
0.0
 11
362.9526031642915
 21
440.4308858997795
 31
0.0
 12
363.8741706474032
 22
447.4308858997795
 32
0.0
 13
363.8741706474032
 23
447.4308858997795
 33
0.0
  0
SOLID
  5
306
330
300
100
AcDbEntity
  8
1
 62
     2
100
AcDbTrace
 10
362.9526031642915
 20
431.2308858997795
 30
0.0
 11
364.795738130515
 21
431.2308858997795
 31
0.0
 12
363.8741706474032
 22
424.2308858997795
 32
0.0
 13
363.8741706474032
 23
424.2308858997795
 33
0.0
  0
MTEXT
  5
307
330
300
100
AcDbEntity
  8
1
 62
     7
100
AcDbMText
 10
361.8741706474032
 20
302.217283327289
 30
0.0
 40
7.0
 41
0.0
 71
     7
 72
     1
  1
H640-50x300　50mmまで
  7
CONVERTER_11
 11
0.0
 21
1.0
 31
0.0
 73
     1
 44
0.45454545454545
  0
ENDBLK
  5
309
330
300
100
AcDbEntity
  8
0
100
AcDbBlockEnd
  0
BLOCK
  5
315
330
30C
100
AcDbEntity
  8
0
100
AcDbBlockBegin
  2
*D13
 70
     1
 10
0.0
 20
0.0
 30
0.0
  3
*D13
  1

  0
LINE
  5
30D
330
30C
100
AcDbEntity
  8
1
  6
Continuous
 62
     2
100
AcDbLine
 10
393.8741706474032
 20
461.4308858997795
 30
0.0
 11
393.8741706474032
 21
447.4308858997795
 31
0.0
  0
LINE
  5
30E
330
30C
100
AcDbEntity
  8
1
  6
Continuous
 62
     2
100
AcDbLine
 10
393.8741706474032
 20
447.4308858997795
 30
0.0
 11
393.8741706474032
 21
434.4308858997795
 31
0.0
  0
LINE
  5
30F
330
30C
100
AcDbEntity
  8
1
  6
Continuous
 62
     2
100
AcDbLine
 10
393.8741706474032
 20
434.4308858997795
 30
0.0
 11
393.8741706474032
 21
310.558479805263
 31
0.0
  0
LINE
  5
310
330
30C
100
AcDbEntity
  8
1
  6
Continuous
 62
     2
100
AcDbLine
 10
332.1082650092192
 20
447.4308858997795
 30
0.0
 11
395.8741706474032
 21
447.4308858997795
 31
0.0
  0
LINE
  5
311
330
30C
100
AcDbEntity
  8
1
  6
Continuous
 62
     2
100
AcDbLine
 10
394.5
 20
434.4308858997795
 30
0.0
 11
391.8741706474032
 21
434.4308858997795
 31
0.0
  0
SOLID
  5
312
330
30C
100
AcDbEntity
  8
1
 62
     2
100
AcDbTrace
 10
392.9526031642915
 20
454.4308858997795
 30
0.0
 11
394.795738130515
 21
454.4308858997795
 31
0.0
 12
393.8741706474032
 22
447.4308858997795
 32
0.0
 13
393.8741706474032
 23
447.4308858997795
 33
0.0
  0
SOLID
  5
313
330
30C
100
AcDbEntity
  8
1
 62
     2
100
AcDbTrace
 10
394.795738130515
 20
427.4308858997795
 30
0.0
 11
392.9526031642915
 21
427.4308858997795
 31
0.0
 12
393.8741706474032
 22
434.4308858997795
 32
0.0
 13
393.8741706474032
 23
434.4308858997795
 33
0.0
  0
MTEXT
  5
314
330
30C
100
AcDbEntity
  8
1
 62
     7
100
AcDbMText
 10
391.8741706474032
 20
310.558479805263
 30
0.0
 40
7.0
 41
0.0
 71
     7
 72
     1
  1
H640-50X400　150mmまで
  7
CONVERTER_11
 11
0.0
 21
1.0
 31
0.0
 73
     1
 44
0.45454545454545
  0
ENDBLK
  5
316
330
30C
100
AcDbEntity
  8
0
100
AcDbBlockEnd
  0
BLOCK
  5
321
330
319
100
AcDbEntity
  8
0
100
AcDbBlockBegin
  2
*D14
 70
     1
 10
0.0
 20
0.0
 30
0.0
  3
*D14
  1

  0
LINE
  5
31A
330
319
100
AcDbEntity
  8
1
  6
Continuous
 62
     2
100
AcDbLine
 10
378.8741706474032
 20
397.4308858997795
 30
0.0
 11
378.8741706474032
 21
273.4218845272341
 31
0.0
  0
LINE
  5
31B
330
319
100
AcDbEntity
  8
1
  6
Continuous
 62
     2
100
AcDbLine
 10
378.8741706474032
 20
447.4308858997795
 30
0.0
 11
378.8741706474032
 21
397.4308858997795
 31
0.0
  0
LINE
  5
31C
330
319
100
AcDbEntity
  8
1
  6
Continuous
 62
     2
100
AcDbLine
 10
332.1082650092192
 20
447.4308858997795
 30
0.0
 11
380.8741706474032
 21
447.4308858997795
 31
0.0
  0
LINE
  5
31D
330
319
100
AcDbEntity
  8
1
  6
Continuous
 62
     2
100
AcDbLine
 10
392.7281999211401
 20
397.4308858997795
 30
0.0
 11
376.8741706474032
 21
397.4308858997795
 31
0.0
  0
SOLID
  5
31E
330
319
100
AcDbEntity
  8
1
 62
     2
100
AcDbTrace
 10
379.795738130515
 20
440.4308858997795
 30
0.0
 11
377.9526031642915
 21
440.4308858997795
 31
0.0
 12
378.8741706474032
 22
447.4308858997795
 32
0.0
 13
378.8741706474032
 23
447.4308858997795
 33
0.0
  0
SOLID
  5
31F
330
319
100
AcDbEntity
  8
1
 62
     2
100
AcDbTrace
 10
377.9526031642915
 20
404.4308858997795
 30
0.0
 11
379.795738130515
 21
404.4308858997795
 31
0.0
 12
378.8741706474032
 22
397.4308858997795
 32
0.0
 13
378.8741706474032
 23
397.4308858997795
 33
0.0
  0
MTEXT
  5
320
330
319
100
AcDbEntity
  8
1
 62
     7
100
AcDbMText
 10
376.8741706474032
 20
273.417023416123
 30
0.0
 40
7.0
 41
0.0
 71
     7
 72
     1
  1
H640-50X350　100mmまで
  7
CONVERTER_11
 11
0.0
 21
1.0
 31
0.0
 73
     1
 44
0.45454545454545
  0
ENDBLK
  5
322
330
319
100
AcDbEntity
  8
0
100
AcDbBlockEnd
  0
BLOCK
  5
32E
330
325
100
AcDbEntity
  8
0
100
AcDbBlockBegin
  2
*D15
 70
     1
 10
0.0
 20
0.0
 30
0.0
  3
*D15
  1

  0
LINE
  5
326
330
325
100
AcDbEntity
  8
1
  6
Continuous
 62
     2
100
AcDbLine
 10
348.8741706474032
 20
433.5152975208734
 30
0.0
 11
348.8741706474032
 21
314.4669970108906
 31
0.0
  0
LINE
  5
327
330
325
100
AcDbEntity
  8
1
  6
Continuous
 62
     2
100
AcDbLine
 10
348.8741706474032
 20
447.4308858997795
 30
0.0
 11
348.8741706474032
 21
433.5152975208734
 31
0.0
  0
LINE
  5
328
330
325
100
AcDbEntity
  8
1
  6
Continuous
 62
     2
100
AcDbLine
 10
348.8741706474032
 20
461.4308858997795
 30
0.0
 11
348.8741706474032
 21
447.4308858997795
 31
0.0
  0
LINE
  5
329
330
325
100
AcDbEntity
  8
1
  6
Continuous
 62
     2
100
AcDbLine
 10
332.1082650092192
 20
447.4308858997795
 30
0.0
 11
350.8741706474032
 21
447.4308858997795
 31
0.0
  0
LINE
  5
32A
330
325
100
AcDbEntity
  8
1
  6
Continuous
 62
     2
100
AcDbLine
 10
331.3462105658598
 20
433.5152975208734
 30
0.0
 11
350.8741706474032
 21
433.5152975208734
 31
0.0
  0
SOLID
  5
32B
330
325
100
AcDbEntity
  8
1
 62
     2
100
AcDbTrace
 10
347.9526031642914
 20
454.4308858997795
 30
0.0
 11
349.7957381305149
 21
454.4308858997795
 31
0.0
 12
348.8741706474032
 22
447.4308858997795
 32
0.0
 13
348.8741706474032
 23
447.4308858997795
 33
0.0
  0
SOLID
  5
32C
330
325
100
AcDbEntity
  8
1
 62
     2
100
AcDbTrace
 10
349.7957381305149
 20
426.5152975208734
 30
0.0
 11
347.9526031642914
 21
426.5152975208734
 31
0.0
 12
348.8741706474032
 22
433.5152975208734
 32
0.0
 13
348.8741706474032
 23
433.5152975208734
 33
0.0
  0
MTEXT
  5
32D
330
325
100
AcDbEntity
  8
1
 62
     7
100
AcDbMText
 10
345.897236542234
 20
314.4621358997795
 30
0.0
 40
7.0
 41
0.0
 71
     7
 72
     1
  1
H640-50x250　30mmまで
  7
CONVERTER_11
 11
0.0
 21
1.0
 31
0.0
 73
     1
 44
0.45454545454545
  0
ENDBLK
  5
32F
330
325
100
AcDbEntity
  8
0
100
AcDbBlockEnd
  0
BLOCK
  5
337
330
332
100
AcDbEntity
  8
0
100
AcDbBlockBegin
  2
*D16
 70
     1
 10
0.0
 20
0.0
 30
0.0
  3
*D16
  1

  0
LINE
  5
333
330
332
100
AcDbEntity
  8
1
  6
Continuous
 62
     2
100
AcDbLine
 10
109.2739030745808
 20
427.046029218789
 30
0.0
 11
189.1115654429792
 21
506.8836915871875
 31
0.0
  0
SOLID
  5
334
330
332
100
AcDbEntity
  8
1
 62
     2
100
AcDbTrace
 10
163.6705193733242
 20
482.745938750791
 30
0.0
 11
164.9738126065829
 21
481.4426455175324
 31
0.0
 12
159.3724185216477
 22
477.1445446658558
 32
0.0
 13
159.3724185216477
 23
477.1445446658558
 33
0.0
  0
SOLID
  5
335
330
332
100
AcDbEntity
  8
1
 62
     2
100
AcDbTrace
 10
112.4004234253631
 20
428.8692563363126
 30
0.0
 11
111.0971301921044
 21
430.1725495695712
 31
0.0
 12
116.6985242770396
 22
434.4706504212477
 32
0.0
 13
116.6985242770396
 23
434.4706504212477
 33
0.0
  0
MTEXT
  5
336
330
332
100
AcDbEntity
  8
1
 62
     7
100
AcDbMText
 10
169.5812761466068
 20
490.1818294155612
 30
0.0
 40
7.0
 41
0.0
 71
     7
 72
     1
  1
\C7;内径{\Fgdt;n}\C7;61
  7
CONVERTER_11
 11
0.707106781186547
 21
0.7071067811865479
 31
0.0
 73
     1
 44
0.45454545454545
  0
ENDBLK
  5
338
330
332
100
AcDbEntity
  8
0
100
AcDbBlockEnd
  0
ENDSEC
  0
SECTION
  2
ENTITIES
  0
INSERT
  5
66
330
1F
100
AcDbEntity
  8
1
100
AcDbBlockReference
  2
H640-50-4
 10
-161.1687983380568
 20
201.871323240724
 30
0.0
  0
INSERT
  5
67
330
1F
100
AcDbEntity
  8
1
100
AcDbBlockReference
  2
H640-50-3__1
 10
-161.1687983380568
 20
383.1713232407241
 30
0.0
  0
INSERT
  5
68
330
1F
100
AcDbEntity
  8
1
100
AcDbBlockReference
  2
H640-50-2
 10
-167.5687983380569
 20
383.1713232407241
 30
0.0
  0
INSERT
  5
69
330
1F
100
AcDbEntity
  8
1
100
AcDbBlockReference
  2
H640-50-3__2
 10
-161.1687983380568
 20
185.3713232407239
 30
0.0
  0
INSERT
  5
6A
330
1F
100
AcDbEntity
  8
1
100
AcDbBlockReference
  2
H640-50-1
 10
-161.1687983380568
 20
441.671323240724
 30
0.0
  0
INSERT
  5
6B
330
1F
100
AcDbEntity
  8
1
100
AcDbBlockReference
  2
henshin-mage
 10
610.0441060264
 20
336.4368447423331
 30
0.0
  0
INSERT
  5
6C
330
1F
100
AcDbEntity
  8
1
100
AcDbBlockReference
  2
開示A4
 10
0.0
 20
0.0
 30
0.0
 41
2.0
 42
2.0
 43
2.0
  0
LINE
  5
2AB
330
1F
100
AcDbEntity
  8
LAY1_1
  6
DASH_CENTER
 62
     2
100
AcDbLine
 10
138.0354713993436
 20
379.1105779546496
 30
0.0
 11
138.0354713993436
 21
117.1105779546496
 31
0.0
  0
LINE
  5
2AC
330
1F
100
AcDbEntity
  8
LAY4_1
  6
DASH_CENTER
 62
     2
100
AcDbLine
 10
257.9561959174223
 20
433.5153127796623
 30
0.0
 11
330.1461983588285
 21
433.5153127796623
 31
0.0
  0
LINE
  5
2AD
330
1F
100
AcDbEntity
  8
LAY4_1
  6
CENTER_2
 62
     2
100
AcDbLine
 10
331.3462105658598
 20
433.5152975208733
 30
0.0
 11
319.0306588080473
 21
433.5152975208733
 31
0.0
  0
LINE
  5
2AE
330
1F
100
AcDbEntity
  8
LAY4_1
  6
DASH_CENTER
 62
     2
100
AcDbLine
 10
314.6136019476675
 20
258.5864492542717
 30
0.0
 11
251.7537386664175
 21
321.4462820179436
 31
0.0
  0
LINE
  5
2AF
330
1F
100
AcDbEntity
  8
LAY4_1
  6
DASH_CENTER
 62
     2
100
AcDbLine
 10
302.3958895453238
 20
303.9308706409904
 30
0.0
 11
220.7184908636831
 21
303.9308706409904
 31
0.0
  0
LINE
  5
2B0
330
1F
100
AcDbEntity
  8
LAY4_1
  6
DASH_CENTER
 62
     2
100
AcDbLine
 10
211.6366768744537
 20
447.4308858997795
 30
0.0
 11
332.1082650092192
 21
447.4308858997795
 31
0.0
  0
LINE
  5
2B1
330
1F
100
AcDbEntity
  8
1
  6
DASH_CENTER
 62
     2
100
AcDbLine
 10
138.0354713993436
 20
414.3115846818155
 30
0.0
 11
138.0354713993436
 21
498.3097840387287
 31
0.0
  0
LINE
  5
2B2
330
1F
100
AcDbEntity
  8
1
  6
DASH_CENTER
 62
     2
100
AcDbLine
 10
95.5402302417875
 20
455.8075975435518
 30
0.0
 11
180.5353427819804
 21
455.8075975435518
 31
0.0
  0
LINE
  5
2B3
330
1F
100
AcDbEntity
  8
0
  6
Continuous
 62
     7
100
AcDbLine
 10
375.1984218981128
 20
558.1588127413216
 30
0.0
 11
268.1984218981132
 21
558.1588127413216
 31
0.0
  0
LINE
  5
2B4
330
1F
100
AcDbEntity
  8
0
  6
Continuous
 62
     7
100
AcDbLine
 10
375.1984218981128
 20
558.1588127413216
 30
0.0
 11
375.1984218981128
 21
488.1588127413216
 31
0.0
  0
LINE
  5
2B5
330
1F
100
AcDbEntity
  8
0
  6
Continuous
 62
     7
100
AcDbLine
 10
268.1984218981132
 20
558.1588127413216
 30
0.0
 11
268.1984218981132
 21
488.1588127413216
 31
0.0
  0
LINE
  5
2B6
330
1F
100
AcDbEntity
  8
0
  6
Continuous
 62
     2
100
AcDbLine
 10
375.1984218981128
 20
530.1588127413216
 30
0.0
 11
268.1984218981132
 21
530.1588127413216
 31
0.0
  0
LINE
  5
2B7
330
1F
100
AcDbEntity
  8
0
  6
Continuous
 62
     2
100
AcDbLine
 10
347.1984218981131
 20
558.1588127413216
 30
0.0
 11
347.1984218981131
 21
488.1588127413216
 31
0.0
  0
LINE
  5
2B8
330
1F
100
AcDbEntity
  8
0
  6
Continuous
 62
     2
100
AcDbLine
 10
375.1984218981128
 20
516.1588127413216
 30
0.0
 11
268.1984218981132
 21
516.1588127413216
 31
0.0
  0
LINE
  5
2B9
330
1F
100
AcDbEntity
  8
0
  6
Continuous
 62
     7
100
AcDbLine
 10
375.1984218981128
 20
488.1588127413216
 30
0.0
 11
268.1984218981132
 21
488.1588127413216
 31
0.0
  0
LINE
  5
2BA
330
1F
100
AcDbEntity
  8
0
  6
Continuous
 62
     2
100
AcDbLine
 10
375.1984218981128
 20
544.1588127413216
 30
0.0
 11
268.1984218981132
 21
544.1588127413216
 31
0.0
  0
LINE
  5
2BB
330
1F
100
AcDbEntity
  8
0
  6
Continuous
 62
     2
100
AcDbLine
 10
375.1984218981128
 20
502.1588127413216
 30
0.0
 11
268.1984218981132
 21
502.1588127413216
 31
0.0
  0
LINE
  5
2BC
330
1F
100
AcDbEntity
  8
1
  6
Continuous
 62
     2
100
AcDbLine
 10
385.6118690984019
 20
397.4308858997795
 30
0.0
 11
392.72819992114
 21
397.4308858997795
 31
0.0
  0
LINE
  5
2BD
330
1F
100
AcDbEntity
  8
1
  6
Continuous
 62
     2
100
AcDbLine
 10
396.2863653325098
 20
434.4308858997795
 30
0.0
 11
394.4999999999999
 21
434.4308858997795
 31
0.0
  0
LINE
  5
2BE
330
1F
100
AcDbEntity
  8
1
  6
Continuous
 62
     2
100
AcDbLine
 10
352.3454920643835
 20
424.2308858997795
 30
0.0
 11
357.9051255196473
 21
424.2308858997795
 31
0.0
  0
TEXT
  5
2C0
330
1F
100
AcDbEntity
  8
LAY4_1
 62
     7
100
AcDbText
 10
247.9289849248162
 20
398.8771200306389
 30
0.0
 40
7.0
  1
【偏　芯】
 41
0.98888888888889
  7
CONVERTER_12
100
AcDbText
  0
MTEXT
  5
2C1
330
1F
100
AcDbEntity
  8
1
 62
     7
100
AcDbMText
 10
268.5849406839054
 20
216.9396975324391
 30
0.0
 40
7.0
 41
0.0
 71
     5
 72
     1
  1
H640-50X250は　45度まで\PH640-50X300は　45度まで\PH640-50X350は　90度まで\PH640-50X400は　90度まで
  7
CONVERTER_11
 73
     1
 44
0.59090909090909
  0
TEXT
  5
2C2
330
1F
100
AcDbEntity
  8
LAY4_1
 62
     7
100
AcDbText
 10
248.131182445586
 20
246.8771200306389
 30
0.0
 40
7.0
  1
【曲　げ】
 41
0.98888888888889
  7
CONVERTER_12
100
AcDbText
  0
MTEXT
  5
2C4
330
1F
100
AcDbEntity
  8
1
 62
     7
100
AcDbMText
 10
187.5
 20
34.0
 30
0.0
 40
7.0
 41
0.0
 71
     5
 72
     1
  1
2
  7
CONVERTER_13
 73
     1
 44
0.7202881152461
  0
MTEXT
  5
2C5
330
1F
100
AcDbEntity
  8
1
 62
     7
100
AcDbMText
 10
170.5
 20
34.0
 30
0.0
 40
7.0
 41
0.0
 71
     5
 72
     1
  1
1
  7
CONVERTER_13
 73
     1
 44
0.7202881152461
  0
MTEXT
  5
2C6
330
1F
100
AcDbEntity
  8
1
 62
     7
100
AcDbMText
 10
114.0
 20
45.50000000000002
 30
0.0
 40
7.0
 41
0.0
 71
     5
 72
     1
  1
パン排水フレキ
  7
CONVERTER_11
 73
     1
 44
1.0
  0
MTEXT
  5
2C7
330
1F
100
AcDbEntity
  8
1
 62
     7
100
AcDbMText
 10
114.0
 20
28.5
 30
0.0
 40
7.0
 41
0.0
 71
     5
 72
     1
  1
H640-50X長さ
  7
CONVERTER_11
 73
     1
 44
0.63636363636364
  0
MTEXT
  5
2C8
330
1F
100
AcDbEntity
  8
0
 62
     7
100
AcDbMText
 10
307.6984218981132
 20
551.1588127413216
 30
0.0
 40
7.0
 41
0.0
 71
     5
 72
     1
  1
品番
  7
CONVERTER_11
 73
     1
 44
1.0
  0
MTEXT
  5
2C9
330
1F
100
AcDbEntity
  8
0
 62
     7
100
AcDbMText
 10
307.6984218981132
 20
537.1588127413216
 30
0.0
 40
7.0
 41
0.0
 71
     5
 72
     1
  1
H640-50X250
  7
CONVERTER_13
 73
     1
 44
1.32052821128451
  0
MTEXT
  5
2CA
330
1F
100
AcDbEntity
  8
0
 62
     7
100
AcDbMText
 10
361.1984218981124
 20
537.1588127413216
 30
0.0
 40
7.0
 41
0.0
 71
     5
 72
     1
  1
250
  7
CONVERTER_13
 73
     1
 44
1.32052821128451
  0
MTEXT
  5
2CB
330
1F
100
AcDbEntity
  8
0
 62
     7
100
AcDbMText
 10
361.1984218981124
 20
551.1588127413214
 30
0.0
 40
7.0
 41
0.0
 71
     5
 72
     1
  1
L
  7
CONVERTER_13
 73
     1
 44
1.32052821128451
  0
MTEXT
  5
2CC
330
1F
100
AcDbEntity
  8
0
 62
     7
100
AcDbMText
 10
307.6984218981132
 20
523.1588127413216
 30
0.0
 40
7.0
 41
0.0
 71
     5
 72
     1
  1
H640-50X300
  7
CONVERTER_13
 73
     1
 44
1.32052821128451
  0
MTEXT
  5
2CD
330
1F
100
AcDbEntity
  8
0
 62
     7
100
AcDbMText
 10
307.6984218981132
 20
495.1588127413216
 30
0.0
 40
7.0
 41
0.0
 71
     5
 72
     1
  1
H640-50X400
  7
CONVERTER_13
 73
     1
 44
1.32052821128451
  0
MTEXT
  5
2CE
330
1F
100
AcDbEntity
  8
0
 62
     7
100
AcDbMText
 10
361.1984218981124
 20
523.1588127413216
 30
0.0
 40
7.0
 41
0.0
 71
     5
 72
     1
  1
300
  7
CONVERTER_13
 73
     1
 44
1.32052821128451
  0
MTEXT
  5
2CF
330
1F
100
AcDbEntity
  8
0
 62
     7
100
AcDbMText
 10
361.1984218981124
 20
495.1588127413216
 30
0.0
 40
7.0
 41
0.0
 71
     5
 72
     1
  1
400
  7
CONVERTER_13
 73
     1
 44
1.32052821128451
  0
MTEXT
  5
2D0
330
1F
100
AcDbEntity
  8
0
 62
     7
100
AcDbMText
 10
307.6984218981132
 20
509.1588127413216
 30
0.0
 40
7.0
 41
0.0
 71
     5
 72
     1
  1
H640-50X350
  7
CONVERTER_13
 73
     1
 44
1.32052821128451
  0
MTEXT
  5
2D1
330
1F
100
AcDbEntity
  8
0
 62
     7
100
AcDbMText
 10
361.1984218981124
 20
509.1588127413216
 30
0.0
 40
7.0
 41
0.0
 71
     5
 72
     1
  1
350
  7
CONVERTER_13
 73
     1
 44
1.32052821128451
  0
MTEXT
  5
2D2
330
1F
100
AcDbEntity
  8
1
 62
     7
100
AcDbMText
 10
68.0
 20
75.0
 30
0.0
 40
7.0
 41
0.0
 71
     4
 72
     1
  1
VP,VU兼用
  7
CONVERTER_11
 73
     1
 44
1.0
  0
MTEXT
  5
2D3
330
1F
100
AcDbEntity
  8
1
 62
     7
100
AcDbMText
 10
68.0
 20
61.00000000000001
 30
0.0
 40
7.0
 41
0.0
 71
     4
 72
     1
  1
耐圧0,1MPa  引張り1900N
  7
CONVERTER_11
 73
     1
 44
1.0
  0
DIMENSION
  5
2DE
330
1F
100
AcDbEntity
  8
1
100
AcDbDimension
  2
*D8
 10
108.0214943485623
 20
103.1105779546496
 30
0.0
 11
138.723261331233
 21
108.0366216336985
 31
0.0
 70
    32
  1
外径{\Fgdt;n}60
 71
     5
 42
-1.0
 53
0.00013888888889
  3
ME10_DIM_10
100
AcDbAlignedDimension
 13
168.0494484501212
 23
125.1105169194933
 33
0.0
 14
108.0214943485623
 24
125.1105169194933
 34
0.0
100
AcDbRotatedDimension
  0
DIMENSION
  5
2E9
330
1F
100
AcDbEntity
  8
1
100
AcDbDimension
  2
*D9
 10
81.53547139934352
 20
193.1105779546496
 30
0.0
 11
76.03547139934352
 21
162.134831566031
 31
0.0
 70
    32
  1
<>
 71
     5
 42
-1.0
 53
90.0
  3
ME10_DIM_11
100
AcDbAlignedDimension
 13
110.0354561405543
 23
123.1105779546496
 33
0.0
 14
101.5354713993436
 24
193.1105779546496
 34
0.0
 50
90.0
100
AcDbRotatedDimension
  0
DIMENSION
  5
2F4
330
1F
100
AcDbEntity
  8
1
100
AcDbDimension
  2
*D10
 10
65.5354713993435
 20
373.1105779546495
 30
0.0
 11
60.03547139934351
 21
248.1105779546496
 31
0.0
 70
    32
  1
L
 71
     5
 42
-1.0
 53
90.0
  3
ME10_DIM_12
100
AcDbAlignedDimension
 13
110.0354561405543
 23
123.1105779546496
 33
0.0
 14
105.4918312626248
 24
373.1105779546496
 34
0.0
 50
90.0
100
AcDbRotatedDimension
  0
DIMENSION
  5
2FF
330
1F
100
AcDbEntity
  8
1
100
AcDbDimension
  2
*D11
 10
81.53547139934352
 20
373.1105779546496
 30
0.0
 11
76.03547139934352
 21
345.6017049688096
 31
0.0
 70
    32
  1
55
 71
     5
 42
-1.0
 53
90.0
  3
ME10_DIM_13
100
AcDbAlignedDimension
 13
101.5354713993435
 23
318.0928319829698
 33
0.0
 14
105.4918312626248
 24
373.1105779546496
 34
0.0
 50
90.0
100
AcDbRotatedDimension
  0
DIMENSION
  5
30B
330
1F
100
AcDbEntity
  8
1
100
AcDbDimension
  2
*D12
 10
363.8741706474032
 20
447.4308858997795
 30
0.0
 11
358.3741706474032
 21
360.186033327289
 31
0.0
 70
    32
  1
H640-50x300　50mmまで
 71
     5
 42
-1.0
 53
90.0
  3
ME10_DIM_14
100
AcDbAlignedDimension
 13
357.9051255196473
 23
424.2308858997795
 33
0.0
 14
332.1082650092192
 24
447.4308858997795
 34
0.0
 50
90.0
100
AcDbRotatedDimension
  0
DIMENSION
  5
318
330
1F
100
AcDbEntity
  8
1
100
AcDbDimension
  2
*D13
 10
393.8741706474032
 20
447.4308858997795
 30
0.0
 11
388.3741706474032
 21
370.977229805263
 31
0.0
 70
    32
  1
H640-50X400　150mmまで
 71
     5
 42
-1.0
 53
90.0
  3
ME10_DIM_15
100
AcDbAlignedDimension
 13
394.4999999999999
 23
434.4308858997795
 33
0.0
 14
332.1082650092192
 24
447.4308858997795
 34
0.0
 50
90.0
100
AcDbRotatedDimension
  0
DIMENSION
  5
324
330
1F
100
AcDbEntity
  8
1
100
AcDbDimension
  2
*D14
 10
378.8741706474032
 20
447.4308858997795
 30
0.0
 11
373.3741706474032
 21
333.835773416123
 31
0.0
 70
    32
  1
H640-50X350　100mmまで
 71
     5
 42
-1.0
 53
90.0
  3
ME10_DIM_16
100
AcDbAlignedDimension
 13
392.72819992114
 23
397.4308858997795
 33
0.0
 14
332.1082650092192
 24
447.4308858997795
 34
0.0
 50
90.0
100
AcDbRotatedDimension
  0
DIMENSION
  5
331
330
1F
100
AcDbEntity
  8
1
100
AcDbDimension
  2
*D15
 10
348.8741706474032
 20
447.4308858997795
 30
0.0
 11
342.397236542234
 21
372.4308858997795
 31
0.0
 70
    32
  1
H640-50x250　30mmまで
 71
     5
 42
-1.0
 53
90.0
  3
ME10_DIM_17
100
AcDbAlignedDimension
 13
331.3462105658598
 23
433.5152975208733
 33
0.0
 14
332.1082650092192
 24
447.4308858997795
 34
0.0
 50
90.0
100
AcDbRotatedDimension
  0
INSERT
  5
339
330
1F
100
AcDbEntity
  8
1
100
AcDbBlockReference
  2
*D16
 10
0.0
 20
0.0
 30
0.0
  0
ENDSEC
  0
SECTION
  2
OBJECTS
  0
DICTIONARY
  5
C
330
0
100
AcDbDictionary
281
     1
  3
ACAD_GROUP
350
D
  3
ACAD_LAYOUT
350
1A
  3
ACAD_MATERIAL
350
3B
  3
ACAD_MLEADERSTYLE
350
33C
  3
ACAD_MLINESTYLE
350
17
  3
ACAD_PLOTSETTINGS
350
19
  3
ACAD_PLOTSTYLENAME
350
E
  3
ACAD_VISUALSTYLE
350
2A
  3
AcDbVariableDictionary
350
33A
  0
DICTIONARY
  5
D
102
{ACAD_REACTORS
330
C
102
}
330
C
100
AcDbDictionary
281
     1
  0
DICTIONARY
  5
1A
102
{ACAD_REACTORS
330
C
102
}
330
C
100
AcDbDictionary
281
     1
  3
Layout1
350
1E
  3
Layout2
350
26
  3
Model
350
22
  0
DICTIONARY
  5
3B
102
{ACAD_REACTORS
330
C
102
}
330
C
100
AcDbDictionary
281
     1
  3
ByBlock
350
3D
  3
ByLayer
350
3C
  3
Global
350
3E
  0
DICTIONARY
  5
33C
102
{ACAD_REACTORS
330
C
102
}
330
C
100
AcDbDictionary
281
     1
  0
DICTIONARY
  5
17
102
{ACAD_REACTORS
330
C
102
}
330
C
100
AcDbDictionary
281
     1
  3
Standard
350
18
  0
DICTIONARY
  5
19
102
{ACAD_REACTORS
330
C
102
}
330
C
100
AcDbDictionary
281
     1
  0
ACDBDICTIONARYWDFLT
  5
E
102
{ACAD_REACTORS
330
C
102
}
330
C
100
AcDbDictionary
281
     1
  3
Normal
350
F
100
AcDbDictionaryWithDefault
340
F
  0
DICTIONARY
  5
2A
102
{ACAD_REACTORS
330
C
102
}
330
C
100
AcDbDictionary
281
     1
  3
2dWireframe
350
2F
  3
3D Hidden
350
31
  3
3dWireframe
350
30
  3
Basic
350
32
  3
Brighten
350
36
  3
ColorChange
350
3A
  3
Conceptual
350
34
  3
Dim
350
35
  3
Facepattern
350
39
  3
Flat
350
2B
  3
FlatWithEdges
350
2C
  3
Gouraud
350
2D
  3
GouraudWithEdges
350
2E
  3
Linepattern
350
38
  3
Realistic
350
33
  3
Thicken
350
37
  0
DICTIONARY
  5
33A
102
{ACAD_REACTORS
330
C
102
}
330
C
100
AcDbDictionary
281
     1
  3
DIMASSOC
350
33D
  3
HIDETEXT
350
33E
  0
LAYOUT
  5
1E
102
{ACAD_REACTORS
330
1A
102
}
330
1A
100
AcDbPlotSettings
  1

  2
none_device
  4

  6

 40
0.0
 41
0.0
 42
0.0
 43
0.0
 44
0.0
 45
0.0
 46
0.0
 47
0.0
 48
0.0
 49
0.0
140
0.0
141
0.0
142
1.0
143
1.0
 70
   688
 72
     0
 73
     0
 74
     5
  7

 75
    16
147
1.0
148
0.0
149
0.0
100
AcDbLayout
  1
Layout1
 70
     1
 71
     1
 10
0.0
 20
0.0
 11
12.0
 21
9.0
 12
0.0
 22
0.0
 32
0.0
 14
1.00000000000000E+20
 24
1.00000000000000E+20
 34
1.00000000000000E+20
 15
-1.00000000000000E+20
 25
-1.00000000000000E+20
 35
-1.00000000000000E+20
146
0.0
 13
0.0
 23
0.0
 33
0.0
 16
1.0
 26
0.0
 36
0.0
 17
0.0
 27
1.0
 37
0.0
 76
     0
330
1B
  0
LAYOUT
  5
26
102
{ACAD_REACTORS
330
1A
102
}
330
1A
100
AcDbPlotSettings
  1

  2
none_device
  4

  6

 40
0.0
 41
0.0
 42
0.0
 43
0.0
 44
0.0
 45
0.0
 46
0.0
 47
0.0
 48
0.0
 49
0.0
140
0.0
141
0.0
142
1.0
143
1.0
 70
   688
 72
     0
 73
     0
 74
     5
  7

 75
    16
147
1.0
148
0.0
149
0.0
100
AcDbLayout
  1
Layout2
 70
     1
 71
     2
 10
0.0
 20
0.0
 11
0.0
 21
0.0
 12
0.0
 22
0.0
 32
0.0
 14
0.0
 24
0.0
 34
0.0
 15
0.0
 25
0.0
 35
0.0
146
0.0
 13
0.0
 23
0.0
 33
0.0
 16
1.0
 26
0.0
 36
0.0
 17
0.0
 27
1.0
 37
0.0
 76
     0
330
23
  0
LAYOUT
  5
22
102
{ACAD_REACTORS
330
1A
102
}
330
1A
100
AcDbPlotSettings
  1

  2
none_device
  4

  6

 40
0.0
 41
0.0
 42
0.0
 43
0.0
 44
0.0
 45
0.0
 46
0.0
 47
0.0
 48
0.0
 49
0.0
140
0.0
141
0.0
142
1.0
143
1.0
 70
  1712
 72
     0
 73
     0
 74
     0
  7

 75
     0
147
1.0
148
0.0
149
0.0
100
AcDbLayout
  1
Model
 70
     1
 71
     0
 10
0.0
 20
0.0
 11
12.0
 21
9.0
 12
0.0
 22
0.0
 32
0.0
 14
0.0
 24
0.0
 34
0.0
 15
420.0
 25
594.0
 35
0.0
146
0.0
 13
0.0
 23
0.0
 33
0.0
 16
1.0
 26
0.0
 36
0.0
 17
0.0
 27
1.0
 37
0.0
 76
     0
330
1F
331
29
  0
MATERIAL
  5
3D
102
{ACAD_REACTORS
330
3B
102
}
102
{ACAD_XDICTIONARY
360
361
102
}
330
3B
100
AcDbMaterial
  1
ByBlock
  0
MATERIAL
  5
3C
102
{ACAD_REACTORS
330
3B
102
}
102
{ACAD_XDICTIONARY
360
35F
102
}
330
3B
100
AcDbMaterial
  1
ByLayer
  0
MATERIAL
  5
3E
102
{ACAD_REACTORS
330
3B
102
}
102
{ACAD_XDICTIONARY
360
363
102
}
330
3B
100
AcDbMaterial
  1
Global
  0
MLINESTYLE
  5
18
102
{ACAD_REACTORS
330
17
102
}
330
17
100
AcDbMlineStyle
  2
Standard
 70
     0
  3

 62
   256
 51
90.0
 52
90.0
 71
     2
 49
0.5
 62
   256
  6
BYLAYER
 49
-0.5
 62
   256
  6
BYLAYER
  0
ACDBPLACEHOLDER
  5
F
102
{ACAD_REACTORS
330
E
102
}
330
E
  0
VISUALSTYLE
  5
2F
102
{ACAD_REACTORS
330
2A
102
}
102
{ACAD_XDICTIONARY
360
347
102
}
330
2A
100
AcDbVisualStyle
  2
2dWireframe
 70
     4
 71
     0
 72
     2
 73
     0
 90
        0
 40
-0.6
 41
-30.0
 62
     5
 63
     7
 74
     1
 91
        4
 64
     7
 65
   257
 75
     1
175
     1
 42
1.0
 92
        0
 66
   257
 43
1.0
 76
     1
 77
     6
 78
     2
 67
     7
 79
     5
170
     0
171
     0
290
     0
174
     0
 93
        1
 44
0.0
173
     0
291
     0
 45
0.0
1001
ACAD
1000
AcDbSavedByObjectVersion
1070
     0
  0
VISUALSTYLE
  5
31
102
{ACAD_REACTORS
330
2A
102
}
102
{ACAD_XDICTIONARY
360
34B
102
}
330
2A
100
AcDbVisualStyle
  2
3D Hidden
 70
     6
 71
     1
 72
     2
 73
     2
 90
        0
 40
-0.6
 41
-30.0
 62
     5
 63
     7
 74
     2
 91
        2
 64
     7
 65
   257
 75
     2
175
     1
 42
40.0
 92
        0
 66
   257
 43
1.0
 76
     1
 77
     6
 78
     2
 67
     7
 79
     3
170
     0
171
     0
290
     0
174
     0
 93
        1
 44
0.0
173
     0
291
     0
 45
0.0
1001
ACAD
1000
AcDbSavedByObjectVersion
1070
     0
  0
VISUALSTYLE
  5
30
102
{ACAD_REACTORS
330
2A
102
}
102
{ACAD_XDICTIONARY
360
349
102
}
330
2A
100
AcDbVisualStyle
  2
3dWireframe
 70
     5
 71
     0
 72
     2
 73
     0
 90
        0
 40
-0.6
 41
-30.0
 62
     5
 63
     7
 74
     1
 91
        4
 64
     7
 65
   257
 75
     1
175
     1
 42
1.0
 92
        0
 66
   257
 43
1.0
 76
     1
 77
     6
 78
     2
 67
     7
 79
     5
170
     0
171
     0
290
     0
174
     0
 93
        1
 44
0.0
173
     0
291
     0
 45
0.0
1001
ACAD
1000
AcDbSavedByObjectVersion
1070
     0
  0
VISUALSTYLE
  5
32
102
{ACAD_REACTORS
330
2A
102
}
102
{ACAD_XDICTIONARY
360
34D
102
}
330
2A
100
AcDbVisualStyle
  2
Basic
 70
     7
 71
     1
 72
     0
 73
     1
 90
        0
 40
-0.6
 41
-30.0
 62
     5
 63
     7
 74
     0
 91
        4
 64
     7
 65
   257
 75
     1
175
     1
 42
1.0
 92
        8
 66
     7
 43
1.0
 76
     1
 77
     6
 78
     2
 67
     7
 79
     5
170
     0
171
     0
290
     0
174
     0
 93
        1
 44
0.0
173
     0
291
     1
 45
0.0
1001
ACAD
1000
AcDbSavedByObjectVersion
1070
     0
  0
VISUALSTYLE
  5
36
102
{ACAD_REACTORS
330
2A
102
}
102
{ACAD_XDICTIONARY
360
355
102
}
330
2A
100
AcDbVisualStyle
  2
Brighten
 70
    12
 71
     2
 72
     2
 73
     0
 90
        0
 40
-0.6
 41
-30.0
 62
     5
 63
     7
 74
     1
 91
        4
 64
     7
 65
   257
 75
     1
175
     1
 42
1.0
 92
        8
 66
     7
 43
1.0
 76
     1
 77
     6
 78
     2
 67
     7
 79
     5
170
     0
171
     0
290
     0
174
     0
 93
        1
 44
50.0
173
     0
291
     1
 45
0.0
1001
ACAD
1000
AcDbSavedByObjectVersion
1070
     0
  0
VISUALSTYLE
  5
3A
102
{ACAD_REACTORS
330
2A
102
}
102
{ACAD_XDICTIONARY
360
35D
102
}
330
2A
100
AcDbVisualStyle
  2
ColorChange
 70
    16
 71
     2
 72
     2
 73
     3
 90
        0
 40
-0.6
 41
-30.0
 62
     5
 63
     8
 74
     1
 91
        4
 64
     7
 65
   257
 75
     1
175
     1
 42
1.0
 92
        8
 66
     8
 43
1.0
 76
     1
 77
     6
 78
     2
 67
     7
 79
     5
170
     0
171
     0
290
     0
174
     0
 93
        1
 44
0.0
173
     0
291
     1
 45
0.0
1001
ACAD
1000
AcDbSavedByObjectVersion
1070
     0
  0
VISUALSTYLE
  5
34
102
{ACAD_REACTORS
330
2A
102
}
102
{ACAD_XDICTIONARY
360
351
102
}
330
2A
100
AcDbVisualStyle
  2
Conceptual
 70
     9
 71
     3
 72
     2
 73
     0
 90
        0
 40
-0.6
 41
-30.0
 62
     5
 63
     7
 74
     2
 91
        2
 64
     7
 65
   257
 75
     1
175
     1
 42
40.0
 92
        8
 66
     7
 43
1.0
 76
     1
 77
     6
 78
     2
 67
     7
 79
     3
170
     0
171
     0
290
     0
174
     0
 93
        1
 44
0.0
173
     0
291
     0
 45
0.0
1001
ACAD
1000
AcDbSavedByObjectVersion
1070
     0
  0
VISUALSTYLE
  5
35
102
{ACAD_REACTORS
330
2A
102
}
102
{ACAD_XDICTIONARY
360
353
102
}
330
2A
100
AcDbVisualStyle
  2
Dim
 70
    11
 71
     2
 72
     2
 73
     0
 90
        0
 40
-0.6
 41
-30.0
 62
     5
 63
     7
 74
     1
 91
        4
 64
     7
 65
   257
 75
     1
175
     1
 42
1.0
 92
        8
 66
     7
 43
1.0
 76
     1
 77
     6
 78
     2
 67
     7
 79
     5
170
     0
171
     0
290
     0
174
     0
 93
        1
 44
-50.0
173
     0
291
     1
 45
0.0
1001
ACAD
1000
AcDbSavedByObjectVersion
1070
     0
  0
VISUALSTYLE
  5
39
102
{ACAD_REACTORS
330
2A
102
}
102
{ACAD_XDICTIONARY
360
35B
102
}
330
2A
100
AcDbVisualStyle
  2
Facepattern
 70
    15
 71
     2
 72
     2
 73
     0
 90
        0
 40
-0.6
 41
-30.0
 62
     5
 63
     7
 74
     1
 91
        4
 64
     7
 65
   257
 75
     1
175
     1
 42
1.0
 92
        8
 66
     7
 43
1.0
 76
     1
 77
     6
 78
     2
 67
     7
 79
     5
170
     0
171
     0
290
     0
174
     0
 93
        1
 44
0.0
173
     0
291
     1
 45
0.0
1001
ACAD
1000
AcDbSavedByObjectVersion
1070
     0
  0
VISUALSTYLE
  5
2B
102
{ACAD_REACTORS
330
2A
102
}
102
{ACAD_XDICTIONARY
360
33F
102
}
330
2A
100
AcDbVisualStyle
  2
Flat
 70
     0
 71
     2
 72
     1
 73
     1
 90
        2
 40
-0.6
 41
30.0
 62
     5
 63
     7
 74
     0
 91
        4
 64
     7
 65
   257
 75
     1
175
     1
 42
1.0
 92
        8
 66
     7
 43
1.0
 76
     1
 77
     6
 78
     2
 67
     7
 79
     5
170
     0
171
     0
290
     0
174
     0
 93
       13
 44
0.0
173
     0
291
     1
 45
0.0
1001
ACAD
1000
AcDbSavedByObjectVersion
1070
     0
  0
VISUALSTYLE
  5
2C
102
{ACAD_REACTORS
330
2A
102
}
102
{ACAD_XDICTIONARY
360
341
102
}
330
2A
100
AcDbVisualStyle
  2
FlatWithEdges
 70
     1
 71
     2
 72
     1
 73
     1
 90
        2
 40
-0.6
 41
30.0
 62
     5
 63
     7
 74
     1
 91
        4
 64
     7
 65
   257
 75
     1
175
     1
 42
1.0
 92
        0
 66
   257
 43
1.0
 76
     1
 77
     6
 78
     2
 67
     7
 79
     5
170
     0
171
     0
290
     0
174
     0
 93
       13
 44
0.0
173
     0
291
     1
 45
0.0
1001
ACAD
1000
AcDbSavedByObjectVersion
1070
     0
  0
VISUALSTYLE
  5
2D
102
{ACAD_REACTORS
330
2A
102
}
102
{ACAD_XDICTIONARY
360
343
102
}
330
2A
100
AcDbVisualStyle
  2
Gouraud
 70
     2
 71
     2
 72
     2
 73
     1
 90
        2
 40
-0.6
 41
30.0
 62
     5
 63
     7
 74
     0
 91
        4
 64
     7
 65
   257
 75
     1
175
     1
 42
1.0
 92
        0
 66
     7
 43
1.0
 76
     1
 77
     6
 78
     2
 67
     7
 79
     5
170
     0
171
     0
290
     0
174
     0
 93
       13
 44
0.0
173
     0
291
     1
 45
0.0
1001
ACAD
1000
AcDbSavedByObjectVersion
1070
     0
  0
VISUALSTYLE
  5
2E
102
{ACAD_REACTORS
330
2A
102
}
102
{ACAD_XDICTIONARY
360
345
102
}
330
2A
100
AcDbVisualStyle
  2
GouraudWithEdges
 70
     3
 71
     2
 72
     2
 73
     1
 90
        2
 40
-0.6
 41
30.0
 62
     5
 63
     7
 74
     1
 91
        4
 64
     7
 65
   257
 75
     1
175
     1
 42
1.0
 92
        0
 66
   257
 43
1.0
 76
     1
 77
     6
 78
     2
 67
     7
 79
     5
170
     0
171
     0
290
     0
174
     0
 93
       13
 44
0.0
173
     0
291
     1
 45
0.0
1001
ACAD
1000
AcDbSavedByObjectVersion
1070
     0
  0
VISUALSTYLE
  5
38
102
{ACAD_REACTORS
330
2A
102
}
102
{ACAD_XDICTIONARY
360
359
102
}
330
2A
100
AcDbVisualStyle
  2
Linepattern
 70
    14
 71
     2
 72
     2
 73
     0
 90
        0
 40
-0.6
 41
-30.0
 62
     5
 63
     7
 74
     1
 91
        4
 64
     7
 65
   257
 75
     7
175
     7
 42
1.0
 92
        8
 66
     7
 43
1.0
 76
     1
 77
     6
 78
     2
 67
     7
 79
     5
170
     0
171
     0
290
     0
174
     0
 93
        1
 44
0.0
173
     0
291
     1
 45
0.0
1001
ACAD
1000
AcDbSavedByObjectVersion
1070
     0
  0
VISUALSTYLE
  5
33
102
{ACAD_REACTORS
330
2A
102
}
102
{ACAD_XDICTIONARY
360
34F
102
}
330
2A
100
AcDbVisualStyle
  2
Realistic
 70
     8
 71
     2
 72
     2
 73
     0
 90
        0
 40
-0.6
 41
-30.0
 62
     5
 63
     7
 74
     1
 91
        0
 64
     7
 65
   257
 75
     1
175
     1
 42
1.0
 92
        8
 66
     8
 43
1.0
 76
     1
 77
     6
 78
     2
 67
     7
 79
     5
170
     0
171
     0
290
     0
174
     0
 93
       13
 44
0.0
173
     0
291
     0
 45
0.0
1001
ACAD
1000
AcDbSavedByObjectVersion
1070
     0
  0
VISUALSTYLE
  5
37
102
{ACAD_REACTORS
330
2A
102
}
102
{ACAD_XDICTIONARY
360
357
102
}
330
2A
100
AcDbVisualStyle
  2
Thicken
 70
    13
 71
     2
 72
     2
 73
     0
 90
        0
 40
-0.6
 41
-30.0
 62
     5
 63
     7
 74
     1
 91
        4
 64
     7
 65
   257
 75
     1
175
     1
 42
1.0
 92
       12
 66
     7
 43
1.0
 76
     1
 77
     6
 78
     2
 67
     7
 79
     5
170
     0
171
     0
290
     0
174
     0
 93
        1
 44
0.0
173
     0
291
     1
 45
0.0
1001
ACAD
1000
AcDbSavedByObjectVersion
1070
     0
  0
DICTIONARYVAR
  5
33D
102
{ACAD_REACTORS
330
33A
102
}
330
33A
100
DictionaryVariables
280
     0
  1
2
  0
DICTIONARYVAR
  5
33E
102
{ACAD_REACTORS
330
33A
102
}
330
33A
100
DictionaryVariables
280
     0
  1
1
  0
DICTIONARY
  5
361
330
3D
100
AcDbDictionary
280
     1
281
     1
  3
ACAD_XREC_ROUNDTRIP
360
362
  0
DICTIONARY
  5
35F
330
3C
100
AcDbDictionary
280
     1
281
     1
  3
ACAD_XREC_ROUNDTRIP
360
360
  0
DICTIONARY
  5
363
330
3E
100
AcDbDictionary
280
     1
281
     1
  3
ACAD_XREC_ROUNDTRIP
360
364
  0
DICTIONARY
  5
347
330
2F
100
AcDbDictionary
280
     1
281
     1
  3
ACAD_XREC_ROUNDTRIP
360
348
  0
DICTIONARY
  5
34B
330
31
100
AcDbDictionary
280
     1
281
     1
  3
ACAD_XREC_ROUNDTRIP
360
34C
  0
DICTIONARY
  5
349
330
30
100
AcDbDictionary
280
     1
281
     1
  3
ACAD_XREC_ROUNDTRIP
360
34A
  0
DICTIONARY
  5
34D
330
32
100
AcDbDictionary
280
     1
281
     1
  3
ACAD_XREC_ROUNDTRIP
360
34E
  0
DICTIONARY
  5
355
330
36
100
AcDbDictionary
280
     1
281
     1
  3
ACAD_XREC_ROUNDTRIP
360
356
  0
DICTIONARY
  5
35D
330
3A
100
AcDbDictionary
280
     1
281
     1
  3
ACAD_XREC_ROUNDTRIP
360
35E
  0
DICTIONARY
  5
351
330
34
100
AcDbDictionary
280
     1
281
     1
  3
ACAD_XREC_ROUNDTRIP
360
352
  0
DICTIONARY
  5
353
330
35
100
AcDbDictionary
280
     1
281
     1
  3
ACAD_XREC_ROUNDTRIP
360
354
  0
DICTIONARY
  5
35B
330
39
100
AcDbDictionary
280
     1
281
     1
  3
ACAD_XREC_ROUNDTRIP
360
35C
  0
DICTIONARY
  5
33F
330
2B
100
AcDbDictionary
280
     1
281
     1
  3
ACAD_XREC_ROUNDTRIP
360
340
  0
DICTIONARY
  5
341
330
2C
100
AcDbDictionary
280
     1
281
     1
  3
ACAD_XREC_ROUNDTRIP
360
342
  0
DICTIONARY
  5
343
330
2D
100
AcDbDictionary
280
     1
281
     1
  3
ACAD_XREC_ROUNDTRIP
360
344
  0
DICTIONARY
  5
345
330
2E
100
AcDbDictionary
280
     1
281
     1
  3
ACAD_XREC_ROUNDTRIP
360
346
  0
DICTIONARY
  5
359
330
38
100
AcDbDictionary
280
     1
281
     1
  3
ACAD_XREC_ROUNDTRIP
360
35A
  0
DICTIONARY
  5
34F
330
33
100
AcDbDictionary
280
     1
281
     1
  3
ACAD_XREC_ROUNDTRIP
360
350
  0
DICTIONARY
  5
357
330
37
100
AcDbDictionary
280
     1
281
     1
  3
ACAD_XREC_ROUNDTRIP
360
358
  0
XRECORD
  5
362
102
{ACAD_REACTORS
330
361
102
}
330
361
100
AcDbXrecord
280
     1
102
MATERIAL
148
0.0
149
0.0
149
0.0
 93
        0
 94
      127
282
     0
 72
     1
 77
     1
171
     1
175
     1
179
     1
273
     0
  0
XRECORD
  5
360
102
{ACAD_REACTORS
330
35F
102
}
330
35F
100
AcDbXrecord
280
     1
102
MATERIAL
148
0.0
149
0.0
149
0.0
 93
        0
 94
      127
282
     0
 72
     1
 77
     1
171
     1
175
     1
179
     1
273
     0
  0
XRECORD
  5
364
102
{ACAD_REACTORS
330
363
102
}
330
363
100
AcDbXrecord
280
     1
102
MATERIAL
148
0.0
149
0.0
149
0.0
 93
        0
 94
      127
282
     0
 72
     1
 77
     1
171
     1
175
     1
179
     1
273
     0
  0
XRECORD
  5
348
102
{ACAD_REACTORS
330
347
102
}
330
347
100
AcDbXrecord
280
     1
102
RTVSPropertyOp0
 70
     1
102
RTVSPropertyOp1
 70
     1
102
RTVSPropertyOp2
 70
     1
102
RTVSPropertyOp3
 70
     1
102
RTVSPropertyOp4
 70
     1
102
RTVSPropertyOp5
 70
     1
102
RTVSPropertyOp6
 70
     1
102
RTVSPropertyOp7
 70
     1
102
RTVSPropertyOp8
 70
     1
102
RTVSPropertyOp9
 70
     1
102
RTVSPropertyOp10
 70
     1
102
RTVSPropertyOp11
 70
     1
102
RTVSPropertyOp12
 70
     1
102
RTVSPropertyOp13
 70
     1
102
RTVSPropertyOp14
 70
     1
102
RTVSPropertyOp15
 70
     1
102
RTVSPropertyOp16
 70
     1
102
RTVSPropertyOp17
 70
     1
102
RTVSPropertyOp18
 70
     1
102
RTVSPropertyOp19
 70
     1
102
RTVSPropertyOp20
 70
     1
102
RTVSPropertyOp21
 70
     1
102
RTVSPropertyOp22
 70
     1
102
RTVSPropertyOp23
 70
     1
102
RTVSPropertyOp24
 70
     1
102
RTVSPropertyOp25
 70
     1
102
RTVSPropertyOp26
 70
     1
102
RTVSPropertyOp27
 70
     1
102
RTVSPropertyOp28
 70
     1
102
RTVSPropertyOp29
 70
     1
102
RTVSPropertyOp30
 70
     1
102
RTVSPropertyOp31
 70
     1
102
RTVSPropertyOp32
 70
     1
  0
XRECORD
  5
34C
102
{ACAD_REACTORS
330
34B
102
}
330
34B
100
AcDbXrecord
280
     1
102
RTVSPropertyOp0
 70
     1
102
RTVSPropertyOp1
 70
     1
102
RTVSPropertyOp2
 70
     1
102
RTVSPropertyOp3
 70
     1
102
RTVSPropertyOp4
 70
     1
102
RTVSPropertyOp5
 70
     1
102
RTVSPropertyOp6
 70
     1
102
RTVSPropertyOp7
 70
     1
102
RTVSPropertyOp8
 70
     1
102
RTVSPropertyOp9
 70
     1
102
RTVSPropertyOp10
 70
     1
102
RTVSPropertyOp11
 70
     1
102
RTVSPropertyOp12
 70
     1
102
RTVSPropertyOp13
 70
     1
102
RTVSPropertyOp14
 70
     1
102
RTVSPropertyOp15
 70
     1
102
RTVSPropertyOp16
 70
     1
102
RTVSPropertyOp17
 70
     1
102
RTVSPropertyOp18
 70
     1
102
RTVSPropertyOp19
 70
     1
102
RTVSPropertyOp20
 70
     1
102
RTVSPropertyOp21
 70
     1
102
RTVSPropertyOp22
 70
     1
102
RTVSPropertyOp23
 70
     1
102
RTVSPropertyOp24
 70
     1
102
RTVSPropertyOp25
 70
     1
102
RTVSPropertyOp26
 70
     1
102
RTVSPropertyOp27
 70
     1
102
RTVSPropertyOp28
 70
     1
102
RTVSPropertyOp29
 70
     1
102
RTVSPropertyOp30
 70
     1
102
RTVSPropertyOp31
 70
     1
102
RTVSPropertyOp32
 70
     1
  0
XRECORD
  5
34A
102
{ACAD_REACTORS
330
349
102
}
330
349
100
AcDbXrecord
280
     1
102
RTVSPropertyOp0
 70
     1
102
RTVSPropertyOp1
 70
     1
102
RTVSPropertyOp2
 70
     1
102
RTVSPropertyOp3
 70
     1
102
RTVSPropertyOp4
 70
     1
102
RTVSPropertyOp5
 70
     1
102
RTVSPropertyOp6
 70
     1
102
RTVSPropertyOp7
 70
     1
102
RTVSPropertyOp8
 70
     1
102
RTVSPropertyOp9
 70
     1
102
RTVSPropertyOp10
 70
     1
102
RTVSPropertyOp11
 70
     1
102
RTVSPropertyOp12
 70
     1
102
RTVSPropertyOp13
 70
     1
102
RTVSPropertyOp14
 70
     1
102
RTVSPropertyOp15
 70
     1
102
RTVSPropertyOp16
 70
     1
102
RTVSPropertyOp17
 70
     1
102
RTVSPropertyOp18
 70
     1
102
RTVSPropertyOp19
 70
     1
102
RTVSPropertyOp20
 70
     1
102
RTVSPropertyOp21
 70
     1
102
RTVSPropertyOp22
 70
     1
102
RTVSPropertyOp23
 70
     1
102
RTVSPropertyOp24
 70
     1
102
RTVSPropertyOp25
 70
     1
102
RTVSPropertyOp26
 70
     1
102
RTVSPropertyOp27
 70
     1
102
RTVSPropertyOp28
 70
     1
102
RTVSPropertyOp29
 70
     1
102
RTVSPropertyOp30
 70
     1
102
RTVSPropertyOp31
 70
     1
102
RTVSPropertyOp32
 70
     1
  0
XRECORD
  5
34E
102
{ACAD_REACTORS
330
34D
102
}
330
34D
100
AcDbXrecord
280
     1
102
RTVSPropertyOp0
 70
     1
102
RTVSPropertyOp1
 70
     1
102
RTVSPropertyOp2
 70
     1
102
RTVSPropertyOp3
 70
     1
102
RTVSPropertyOp4
 70
     1
102
RTVSPropertyOp5
 70
     1
102
RTVSPropertyOp6
 70
     1
102
RTVSPropertyOp7
 70
     1
102
RTVSPropertyOp8
 70
     1
102
RTVSPropertyOp9
 70
     1
102
RTVSPropertyOp10
 70
     1
102
RTVSPropertyOp11
 70
     1
102
RTVSPropertyOp12
 70
     1
102
RTVSPropertyOp13
 70
     1
102
RTVSPropertyOp14
 70
     1
102
RTVSPropertyOp15
 70
     1
102
RTVSPropertyOp16
 70
     1
102
RTVSPropertyOp17
 70
     1
102
RTVSPropertyOp18
 70
     1
102
RTVSPropertyOp19
 70
     1
102
RTVSPropertyOp20
 70
     1
102
RTVSPropertyOp21
 70
     1
102
RTVSPropertyOp22
 70
     1
102
RTVSPropertyOp23
 70
     1
102
RTVSPropertyOp24
 70
     1
102
RTVSPropertyOp25
 70
     1
102
RTVSPropertyOp26
 70
     1
102
RTVSPropertyOp27
 70
     1
102
RTVSPropertyOp28
 70
     1
102
RTVSPropertyOp29
 70
     1
102
RTVSPropertyOp30
 70
     1
102
RTVSPropertyOp31
 70
     1
102
RTVSPropertyOp32
 70
     1
  0
XRECORD
  5
356
102
{ACAD_REACTORS
330
355
102
}
330
355
100
AcDbXrecord
280
     1
102
RTVSPropertyOp0
 70
     1
102
RTVSPropertyOp1
 70
     1
102
RTVSPropertyOp2
 70
     1
102
RTVSPropertyOp3
 70
     1
102
RTVSPropertyOp4
 70
     1
102
RTVSPropertyOp5
 70
     1
102
RTVSPropertyOp6
 70
     1
102
RTVSPropertyOp7
 70
     1
102
RTVSPropertyOp8
 70
     1
102
RTVSPropertyOp9
 70
     1
102
RTVSPropertyOp10
 70
     1
102
RTVSPropertyOp11
 70
     1
102
RTVSPropertyOp12
 70
     1
102
RTVSPropertyOp13
 70
     1
102
RTVSPropertyOp14
 70
     1
102
RTVSPropertyOp15
 70
     1
102
RTVSPropertyOp16
 70
     1
102
RTVSPropertyOp17
 70
     1
102
RTVSPropertyOp18
 70
     1
102
RTVSPropertyOp19
 70
     1
102
RTVSPropertyOp20
 70
     1
102
RTVSPropertyOp21
 70
     1
102
RTVSPropertyOp22
 70
     1
102
RTVSPropertyOp23
 70
     1
102
RTVSPropertyOp24
 70
     1
102
RTVSPropertyOp25
 70
     1
102
RTVSPropertyOp26
 70
     1
102
RTVSPropertyOp27
 70
     1
102
RTVSPropertyOp28
 70
     1
102
RTVSPropertyOp29
 70
     1
102
RTVSPropertyOp30
 70
     1
102
RTVSPropertyOp31
 70
     1
102
RTVSPropertyOp32
 70
     1
  0
XRECORD
  5
35E
102
{ACAD_REACTORS
330
35D
102
}
330
35D
100
AcDbXrecord
280
     1
102
RTVSPropertyOp0
 70
     1
102
RTVSPropertyOp1
 70
     1
102
RTVSPropertyOp2
 70
     1
102
RTVSPropertyOp3
 70
     1
102
RTVSPropertyOp4
 70
     1
102
RTVSPropertyOp5
 70
     1
102
RTVSPropertyOp6
 70
     1
102
RTVSPropertyOp7
 70
     1
102
RTVSPropertyOp8
 70
     1
102
RTVSPropertyOp9
 70
     1
102
RTVSPropertyOp10
 70
     1
102
RTVSPropertyOp11
 70
     1
102
RTVSPropertyOp12
 70
     1
102
RTVSPropertyOp13
 70
     1
102
RTVSPropertyOp14
 70
     1
102
RTVSPropertyOp15
 70
     1
102
RTVSPropertyOp16
 70
     1
102
RTVSPropertyOp17
 70
     1
102
RTVSPropertyOp18
 70
     1
102
RTVSPropertyOp19
 70
     1
102
RTVSPropertyOp20
 70
     1
102
RTVSPropertyOp21
 70
     1
102
RTVSPropertyOp22
 70
     1
102
RTVSPropertyOp23
 70
     1
102
RTVSPropertyOp24
 70
     1
102
RTVSPropertyOp25
 70
     1
102
RTVSPropertyOp26
 70
     1
102
RTVSPropertyOp27
 70
     1
102
RTVSPropertyOp28
 70
     1
102
RTVSPropertyOp29
 70
     1
102
RTVSPropertyOp30
 70
     1
102
RTVSPropertyOp31
 70
     1
102
RTVSPropertyOp32
 70
     1
  0
XRECORD
  5
352
102
{ACAD_REACTORS
330
351
102
}
330
351
100
AcDbXrecord
280
     1
102
RTVSPropertyOp0
 70
     1
102
RTVSPropertyOp1
 70
     1
102
RTVSPropertyOp2
 70
     1
102
RTVSPropertyOp3
 70
     1
102
RTVSPropertyOp4
 70
     1
102
RTVSPropertyOp5
 70
     1
102
RTVSPropertyOp6
 70
     1
102
RTVSPropertyOp7
 70
     1
102
RTVSPropertyOp8
 70
     1
102
RTVSPropertyOp9
 70
     1
102
RTVSPropertyOp10
 70
     1
102
RTVSPropertyOp11
 70
     1
102
RTVSPropertyOp12
 70
     1
102
RTVSPropertyOp13
 70
     1
102
RTVSPropertyOp14
 70
     1
102
RTVSPropertyOp15
 70
     1
102
RTVSPropertyOp16
 70
     1
102
RTVSPropertyOp17
 70
     1
102
RTVSPropertyOp18
 70
     1
102
RTVSPropertyOp19
 70
     1
102
RTVSPropertyOp20
 70
     1
102
RTVSPropertyOp21
 70
     1
102
RTVSPropertyOp22
 70
     1
102
RTVSPropertyOp23
 70
     1
102
RTVSPropertyOp24
 70
     1
102
RTVSPropertyOp25
 70
     1
102
RTVSPropertyOp26
 70
     1
102
RTVSPropertyOp27
 70
     1
102
RTVSPropertyOp28
 70
     1
102
RTVSPropertyOp29
 70
     1
102
RTVSPropertyOp30
 70
     1
102
RTVSPropertyOp31
 70
     1
102
RTVSPropertyOp32
 70
     1
  0
XRECORD
  5
354
102
{ACAD_REACTORS
330
353
102
}
330
353
100
AcDbXrecord
280
     1
102
RTVSPropertyOp0
 70
     1
102
RTVSPropertyOp1
 70
     1
102
RTVSPropertyOp2
 70
     1
102
RTVSPropertyOp3
 70
     1
102
RTVSPropertyOp4
 70
     1
102
RTVSPropertyOp5
 70
     1
102
RTVSPropertyOp6
 70
     1
102
RTVSPropertyOp7
 70
     1
102
RTVSPropertyOp8
 70
     1
102
RTVSPropertyOp9
 70
     1
102
RTVSPropertyOp10
 70
     1
102
RTVSPropertyOp11
 70
     1
102
RTVSPropertyOp12
 70
     1
102
RTVSPropertyOp13
 70
     1
102
RTVSPropertyOp14
 70
     1
102
RTVSPropertyOp15
 70
     1
102
RTVSPropertyOp16
 70
     1
102
RTVSPropertyOp17
 70
     1
102
RTVSPropertyOp18
 70
     1
102
RTVSPropertyOp19
 70
     1
102
RTVSPropertyOp20
 70
     1
102
RTVSPropertyOp21
 70
     1
102
RTVSPropertyOp22
 70
     1
102
RTVSPropertyOp23
 70
     1
102
RTVSPropertyOp24
 70
     1
102
RTVSPropertyOp25
 70
     1
102
RTVSPropertyOp26
 70
     1
102
RTVSPropertyOp27
 70
     1
102
RTVSPropertyOp28
 70
     1
102
RTVSPropertyOp29
 70
     1
102
RTVSPropertyOp30
 70
     1
102
RTVSPropertyOp31
 70
     1
102
RTVSPropertyOp32
 70
     1
  0
XRECORD
  5
35C
102
{ACAD_REACTORS
330
35B
102
}
330
35B
100
AcDbXrecord
280
     1
102
RTVSPropertyOp0
 70
     1
102
RTVSPropertyOp1
 70
     1
102
RTVSPropertyOp2
 70
     1
102
RTVSPropertyOp3
 70
     1
102
RTVSPropertyOp4
 70
     1
102
RTVSPropertyOp5
 70
     1
102
RTVSPropertyOp6
 70
     1
102
RTVSPropertyOp7
 70
     1
102
RTVSPropertyOp8
 70
     1
102
RTVSPropertyOp9
 70
     1
102
RTVSPropertyOp10
 70
     1
102
RTVSPropertyOp11
 70
     1
102
RTVSPropertyOp12
 70
     1
102
RTVSPropertyOp13
 70
     1
102
RTVSPropertyOp14
 70
     1
102
RTVSPropertyOp15
 70
     1
102
RTVSPropertyOp16
 70
     1
102
RTVSPropertyOp17
 70
     1
102
RTVSPropertyOp18
 70
     1
102
RTVSPropertyOp19
 70
     1
102
RTVSPropertyOp20
 70
     1
102
RTVSPropertyOp21
 70
     1
102
RTVSPropertyOp22
 70
     1
102
RTVSPropertyOp23
 70
     1
102
RTVSPropertyOp24
 70
     1
102
RTVSPropertyOp25
 70
     1
102
RTVSPropertyOp26
 70
     1
102
RTVSPropertyOp27
 70
     1
102
RTVSPropertyOp28
 70
     1
102
RTVSPropertyOp29
 70
     1
102
RTVSPropertyOp30
 70
     1
102
RTVSPropertyOp31
 70
     1
102
RTVSPropertyOp32
 70
     1
  0
XRECORD
  5
340
102
{ACAD_REACTORS
330
33F
102
}
330
33F
100
AcDbXrecord
280
     1
102
RTVSPropertyOp0
 70
     1
102
RTVSPropertyOp1
 70
     1
102
RTVSPropertyOp2
 70
     1
102
RTVSPropertyOp3
 70
     1
102
RTVSPropertyOp4
 70
     1
102
RTVSPropertyOp5
 70
     1
102
RTVSPropertyOp6
 70
     1
102
RTVSPropertyOp7
 70
     1
102
RTVSPropertyOp8
 70
     1
102
RTVSPropertyOp9
 70
     1
102
RTVSPropertyOp10
 70
     1
102
RTVSPropertyOp11
 70
     1
102
RTVSPropertyOp12
 70
     1
102
RTVSPropertyOp13
 70
     1
102
RTVSPropertyOp14
 70
     1
102
RTVSPropertyOp15
 70
     1
102
RTVSPropertyOp16
 70
     1
102
RTVSPropertyOp17
 70
     1
102
RTVSPropertyOp18
 70
     1
102
RTVSPropertyOp19
 70
     1
102
RTVSPropertyOp20
 70
     1
102
RTVSPropertyOp21
 70
     1
102
RTVSPropertyOp22
 70
     1
102
RTVSPropertyOp23
 70
     1
102
RTVSPropertyOp24
 70
     1
102
RTVSPropertyOp25
 70
     1
102
RTVSPropertyOp26
 70
     1
102
RTVSPropertyOp27
 70
     1
102
RTVSPropertyOp28
 70
     1
102
RTVSPropertyOp29
 70
     1
102
RTVSPropertyOp30
 70
     1
102
RTVSPropertyOp31
 70
     1
102
RTVSPropertyOp32
 70
     1
  0
XRECORD
  5
342
102
{ACAD_REACTORS
330
341
102
}
330
341
100
AcDbXrecord
280
     1
102
RTVSPropertyOp0
 70
     1
102
RTVSPropertyOp1
 70
     1
102
RTVSPropertyOp2
 70
     1
102
RTVSPropertyOp3
 70
     1
102
RTVSPropertyOp4
 70
     1
102
RTVSPropertyOp5
 70
     1
102
RTVSPropertyOp6
 70
     1
102
RTVSPropertyOp7
 70
     1
102
RTVSPropertyOp8
 70
     1
102
RTVSPropertyOp9
 70
     1
102
RTVSPropertyOp10
 70
     1
102
RTVSPropertyOp11
 70
     1
102
RTVSPropertyOp12
 70
     1
102
RTVSPropertyOp13
 70
     1
102
RTVSPropertyOp14
 70
     1
102
RTVSPropertyOp15
 70
     1
102
RTVSPropertyOp16
 70
     1
102
RTVSPropertyOp17
 70
     1
102
RTVSPropertyOp18
 70
     1
102
RTVSPropertyOp19
 70
     1
102
RTVSPropertyOp20
 70
     1
102
RTVSPropertyOp21
 70
     1
102
RTVSPropertyOp22
 70
     1
102
RTVSPropertyOp23
 70
     1
102
RTVSPropertyOp24
 70
     1
102
RTVSPropertyOp25
 70
     1
102
RTVSPropertyOp26
 70
     1
102
RTVSPropertyOp27
 70
     1
102
RTVSPropertyOp28
 70
     1
102
RTVSPropertyOp29
 70
     1
102
RTVSPropertyOp30
 70
     1
102
RTVSPropertyOp31
 70
     1
102
RTVSPropertyOp32
 70
     1
  0
XRECORD
  5
344
102
{ACAD_REACTORS
330
343
102
}
330
343
100
AcDbXrecord
280
     1
102
RTVSPropertyOp0
 70
     1
102
RTVSPropertyOp1
 70
     1
102
RTVSPropertyOp2
 70
     1
102
RTVSPropertyOp3
 70
     1
102
RTVSPropertyOp4
 70
     1
102
RTVSPropertyOp5
 70
     1
102
RTVSPropertyOp6
 70
     1
102
RTVSPropertyOp7
 70
     1
102
RTVSPropertyOp8
 70
     1
102
RTVSPropertyOp9
 70
     1
102
RTVSPropertyOp10
 70
     1
102
RTVSPropertyOp11
 70
     1
102
RTVSPropertyOp12
 70
     1
102
RTVSPropertyOp13
 70
     1
102
RTVSPropertyOp14
 70
     1
102
RTVSPropertyOp15
 70
     1
102
RTVSPropertyOp16
 70
     1
102
RTVSPropertyOp17
 70
     1
102
RTVSPropertyOp18
 70
     1
102
RTVSPropertyOp19
 70
     1
102
RTVSPropertyOp20
 70
     1
102
RTVSPropertyOp21
 70
     1
102
RTVSPropertyOp22
 70
     1
102
RTVSPropertyOp23
 70
     1
102
RTVSPropertyOp24
 70
     1
102
RTVSPropertyOp25
 70
     1
102
RTVSPropertyOp26
 70
     1
102
RTVSPropertyOp27
 70
     1
102
RTVSPropertyOp28
 70
     1
102
RTVSPropertyOp29
 70
     1
102
RTVSPropertyOp30
 70
     1
102
RTVSPropertyOp31
 70
     1
102
RTVSPropertyOp32
 70
     1
  0
XRECORD
  5
346
102
{ACAD_REACTORS
330
345
102
}
330
345
100
AcDbXrecord
280
     1
102
RTVSPropertyOp0
 70
     1
102
RTVSPropertyOp1
 70
     1
102
RTVSPropertyOp2
 70
     1
102
RTVSPropertyOp3
 70
     1
102
RTVSPropertyOp4
 70
     1
102
RTVSPropertyOp5
 70
     1
102
RTVSPropertyOp6
 70
     1
102
RTVSPropertyOp7
 70
     1
102
RTVSPropertyOp8
 70
     1
102
RTVSPropertyOp9
 70
     1
102
RTVSPropertyOp10
 70
     1
102
RTVSPropertyOp11
 70
     1
102
RTVSPropertyOp12
 70
     1
102
RTVSPropertyOp13
 70
     1
102
RTVSPropertyOp14
 70
     1
102
RTVSPropertyOp15
 70
     1
102
RTVSPropertyOp16
 70
     1
102
RTVSPropertyOp17
 70
     1
102
RTVSPropertyOp18
 70
     1
102
RTVSPropertyOp19
 70
     1
102
RTVSPropertyOp20
 70
     1
102
RTVSPropertyOp21
 70
     1
102
RTVSPropertyOp22
 70
     1
102
RTVSPropertyOp23
 70
     1
102
RTVSPropertyOp24
 70
     1
102
RTVSPropertyOp25
 70
     1
102
RTVSPropertyOp26
 70
     1
102
RTVSPropertyOp27
 70
     1
102
RTVSPropertyOp28
 70
     1
102
RTVSPropertyOp29
 70
     1
102
RTVSPropertyOp30
 70
     1
102
RTVSPropertyOp31
 70
     1
102
RTVSPropertyOp32
 70
     1
  0
XRECORD
  5
35A
102
{ACAD_REACTORS
330
359
102
}
330
359
100
AcDbXrecord
280
     1
102
RTVSPropertyOp0
 70
     1
102
RTVSPropertyOp1
 70
     1
102
RTVSPropertyOp2
 70
     1
102
RTVSPropertyOp3
 70
     1
102
RTVSPropertyOp4
 70
     1
102
RTVSPropertyOp5
 70
     1
102
RTVSPropertyOp6
 70
     1
102
RTVSPropertyOp7
 70
     1
102
RTVSPropertyOp8
 70
     1
102
RTVSPropertyOp9
 70
     1
102
RTVSPropertyOp10
 70
     1
102
RTVSPropertyOp11
 70
     1
102
RTVSPropertyOp12
 70
     1
102
RTVSPropertyOp13
 70
     1
102
RTVSPropertyOp14
 70
     1
102
RTVSPropertyOp15
 70
     1
102
RTVSPropertyOp16
 70
     1
102
RTVSPropertyOp17
 70
     1
102
RTVSPropertyOp18
 70
     1
102
RTVSPropertyOp19
 70
     1
102
RTVSPropertyOp20
 70
     1
102
RTVSPropertyOp21
 70
     1
102
RTVSPropertyOp22
 70
     1
102
RTVSPropertyOp23
 70
     1
102
RTVSPropertyOp24
 70
     1
102
RTVSPropertyOp25
 70
     1
102
RTVSPropertyOp26
 70
     1
102
RTVSPropertyOp27
 70
     1
102
RTVSPropertyOp28
 70
     1
102
RTVSPropertyOp29
 70
     1
102
RTVSPropertyOp30
 70
     1
102
RTVSPropertyOp31
 70
     1
102
RTVSPropertyOp32
 70
     1
  0
XRECORD
  5
350
102
{ACAD_REACTORS
330
34F
102
}
330
34F
100
AcDbXrecord
280
     1
102
RTVSPropertyOp0
 70
     1
102
RTVSPropertyOp1
 70
     1
102
RTVSPropertyOp2
 70
     1
102
RTVSPropertyOp3
 70
     1
102
RTVSPropertyOp4
 70
     1
102
RTVSPropertyOp5
 70
     1
102
RTVSPropertyOp6
 70
     1
102
RTVSPropertyOp7
 70
     1
102
RTVSPropertyOp8
 70
     1
102
RTVSPropertyOp9
 70
     1
102
RTVSPropertyOp10
 70
     1
102
RTVSPropertyOp11
 70
     1
102
RTVSPropertyOp12
 70
     1
102
RTVSPropertyOp13
 70
     1
102
RTVSPropertyOp14
 70
     1
102
RTVSPropertyOp15
 70
     1
102
RTVSPropertyOp16
 70
     1
102
RTVSPropertyOp17
 70
     1
102
RTVSPropertyOp18
 70
     1
102
RTVSPropertyOp19
 70
     1
102
RTVSPropertyOp20
 70
     1
102
RTVSPropertyOp21
 70
     1
102
RTVSPropertyOp22
 70
     1
102
RTVSPropertyOp23
 70
     1
102
RTVSPropertyOp24
 70
     1
102
RTVSPropertyOp25
 70
     1
102
RTVSPropertyOp26
 70
     1
102
RTVSPropertyOp27
 70
     1
102
RTVSPropertyOp28
 70
     1
102
RTVSPropertyOp29
 70
     1
102
RTVSPropertyOp30
 70
     1
102
RTVSPropertyOp31
 70
     1
102
RTVSPropertyOp32
 70
     1
  0
XRECORD
  5
358
102
{ACAD_REACTORS
330
357
102
}
330
357
100
AcDbXrecord
280
     1
102
RTVSPropertyOp0
 70
     1
102
RTVSPropertyOp1
 70
     1
102
RTVSPropertyOp2
 70
     1
102
RTVSPropertyOp3
 70
     1
102
RTVSPropertyOp4
 70
     1
102
RTVSPropertyOp5
 70
     1
102
RTVSPropertyOp6
 70
     1
102
RTVSPropertyOp7
 70
     1
102
RTVSPropertyOp8
 70
     1
102
RTVSPropertyOp9
 70
     1
102
RTVSPropertyOp10
 70
     1
102
RTVSPropertyOp11
 70
     1
102
RTVSPropertyOp12
 70
     1
102
RTVSPropertyOp13
 70
     1
102
RTVSPropertyOp14
 70
     1
102
RTVSPropertyOp15
 70
     1
102
RTVSPropertyOp16
 70
     1
102
RTVSPropertyOp17
 70
     1
102
RTVSPropertyOp18
 70
     1
102
RTVSPropertyOp19
 70
     1
102
RTVSPropertyOp20
 70
     1
102
RTVSPropertyOp21
 70
     1
102
RTVSPropertyOp22
 70
     1
102
RTVSPropertyOp23
 70
     1
102
RTVSPropertyOp24
 70
     1
102
RTVSPropertyOp25
 70
     1
102
RTVSPropertyOp26
 70
     1
102
RTVSPropertyOp27
 70
     1
102
RTVSPropertyOp28
 70
     1
102
RTVSPropertyOp29
 70
     1
102
RTVSPropertyOp30
 70
     1
102
RTVSPropertyOp31
 70
     1
102
RTVSPropertyOp32
 70
     1
  0
ENDSEC
  0
EOF
