  0
SECTION
  2
HEADER
  9
$ACADVER
  1
AC1015
  9
$ACADMAINTVER
 70
     6
  9
$DWGCODEPAGE
  3
ANSI_932
  9
$INSBASE
 10
0.0
 20
0.0
 30
0.0
  9
$EXTMIN
 10
0.0
 20
0.0
 30
0.0
  9
$EXTMAX
 10
420.0
 20
594.0
 30
0.0
  9
$LIMMIN
 10
0.0
 20
0.0
  9
$LIMMAX
 10
12.0
 20
9.0
  9
$ORTHOMODE
 70
     0
  9
$REGENMODE
 70
     1
  9
$FILLMODE
 70
     1
  9
$QTEXTMODE
 70
     0
  9
$MIRRTEXT
 70
     1
  9
$LTSCALE
 40
1.0
  9
$ATTMODE
 70
     1
  9
$TEXTSIZE
 40
0.2
  9
$TRACEWID
 40
0.05
  9
$TEXTSTYLE
  7
Standard
  9
$CLAYER
  8
0
  9
$CELTYPE
  6
ByLayer
  9
$CECOLOR
 62
   256
  9
$CELTSCALE
 40
1.0
  9
$DISPSILH
 70
     0
  9
$DIMSCALE
 40
1.0
  9
$DIMASZ
 40
0.18
  9
$DIMEXO
 40
0.0625
  9
$DIMDLI
 40
0.38
  9
$DIMRND
 40
0.0
  9
$DIMDLE
 40
0.0
  9
$DIMEXE
 40
0.18
  9
$DIMTP
 40
0.0
  9
$DIMTM
 40
0.0
  9
$DIMTXT
 40
0.18
  9
$DIMCEN
 40
0.09
  9
$DIMTSZ
 40
0.0
  9
$DIMTOL
 70
     0
  9
$DIMLIM
 70
     0
  9
$DIMTIH
 70
     1
  9
$DIMTOH
 70
     1
  9
$DIMSE1
 70
     0
  9
$DIMSE2
 70
     0
  9
$DIMTAD
 70
     0
  9
$DIMZIN
 70
     0
  9
$DIMBLK
  1

  9
$DIMASO
 70
     1
  9
$DIMSHO
 70
     1
  9
$DIMPOST
  1

  9
$DIMAPOST
  1

  9
$DIMALT
 70
     0
  9
$DIMALTD
 70
     2
  9
$DIMALTF
 40
25.4
  9
$DIMLFAC
 40
1.0
  9
$DIMTOFL
 70
     0
  9
$DIMTVP
 40
0.0
  9
$DIMTIX
 70
     0
  9
$DIMSOXD
 70
     0
  9
$DIMSAH
 70
     0
  9
$DIMBLK1
  1

  9
$DIMBLK2
  1

  9
$DIMSTYLE
  2
Standard
  9
$DIMCLRD
 70
     0
  9
$DIMCLRE
 70
     0
  9
$DIMCLRT
 70
     0
  9
$DIMTFAC
 40
1.0
  9
$DIMGAP
 40
0.09
  9
$DIMJUST
 70
     0
  9
$DIMSD1
 70
     0
  9
$DIMSD2
 70
     0
  9
$DIMTOLJ
 70
     1
  9
$DIMTZIN
 70
     0
  9
$DIMALTZ
 70
     0
  9
$DIMALTTZ
 70
     0
  9
$DIMUPT
 70
     0
  9
$DIMDEC
 70
     4
  9
$DIMTDEC
 70
     4
  9
$DIMALTU
 70
     2
  9
$DIMALTTD
 70
     2
  9
$DIMTXSTY
  7
Standard
  9
$DIMAUNIT
 70
     0
  9
$DIMADEC
 70
     0
  9
$DIMALTRND
 40
0.0
  9
$DIMAZIN
 70
     0
  9
$DIMDSEP
 70
    46
  9
$DIMATFIT
 70
     3
  9
$DIMFRAC
 70
     0
  9
$DIMLDRBLK
  1

  9
$DIMLUNIT
 70
     2
  9
$DIMLWD
 70
    -2
  9
$DIMLWE
 70
    -2
  9
$DIMTMOVE
 70
     0
  9
$LUNITS
 70
     2
  9
$LUPREC
 70
     4
  9
$SKETCHINC
 40
0.1
  9
$FILLETRAD
 40
0.5
  9
$AUNITS
 70
     0
  9
$AUPREC
 70
     0
  9
$MENU
  1
.
  9
$ELEVATION
 40
0.0
  9
$PELEVATION
 40
0.0
  9
$THICKNESS
 40
0.0
  9
$LIMCHECK
 70
     0
  9
$CHAMFERA
 40
0.5
  9
$CHAMFERB
 40
0.5
  9
$CHAMFERC
 40
1.0
  9
$CHAMFERD
 40
0.0
  9
$SKPOLY
 70
     0
  9
$TDCREATE
 40
2456496.709707222
  9
$TDUCREATE
 40
2456496.334707222
  9
$TDUPDATE
 40
2456496.709708669
  9
$TDUUPDATE
 40
2456496.334708669
  9
$TDINDWG
 40
0.0000000116
  9
$TDUSRTIMER
 40
0.0000000116
  9
$USRTIMER
 70
     1
  9
$ANGBASE
 50
0.0
  9
$ANGDIR
 70
     0
  9
$PDMODE
 70
     0
  9
$PDSIZE
 40
0.0
  9
$PLINEWID
 40
0.0
  9
$SPLFRAME
 70
     0
  9
$SPLINETYPE
 70
     6
  9
$SPLINESEGS
 70
     8
  9
$HANDSEED
  5
34E
  9
$SURFTAB1
 70
     6
  9
$SURFTAB2
 70
     6
  9
$SURFTYPE
 70
     6
  9
$SURFU
 70
     6
  9
$SURFV
 70
     6
  9
$UCSBASE
  2

  9
$UCSNAME
  2

  9
$UCSORG
 10
0.0
 20
0.0
 30
0.0
  9
$UCSXDIR
 10
1.0
 20
0.0
 30
0.0
  9
$UCSYDIR
 10
0.0
 20
1.0
 30
0.0
  9
$UCSORTHOREF
  2

  9
$UCSORTHOVIEW
 70
     0
  9
$UCSORGTOP
 10
0.0
 20
0.0
 30
0.0
  9
$UCSORGBOTTOM
 10
0.0
 20
0.0
 30
0.0
  9
$UCSORGLEFT
 10
0.0
 20
0.0
 30
0.0
  9
$UCSORGRIGHT
 10
0.0
 20
0.0
 30
0.0
  9
$UCSORGFRONT
 10
0.0
 20
0.0
 30
0.0
  9
$UCSORGBACK
 10
0.0
 20
0.0
 30
0.0
  9
$PUCSBASE
  2

  9
$PUCSNAME
  2

  9
$PUCSORG
 10
0.0
 20
0.0
 30
0.0
  9
$PUCSXDIR
 10
1.0
 20
0.0
 30
0.0
  9
$PUCSYDIR
 10
0.0
 20
1.0
 30
0.0
  9
$PUCSORTHOREF
  2

  9
$PUCSORTHOVIEW
 70
     0
  9
$PUCSORGTOP
 10
0.0
 20
0.0
 30
0.0
  9
$PUCSORGBOTTOM
 10
0.0
 20
0.0
 30
0.0
  9
$PUCSORGLEFT
 10
0.0
 20
0.0
 30
0.0
  9
$PUCSORGRIGHT
 10
0.0
 20
0.0
 30
0.0
  9
$PUCSORGFRONT
 10
0.0
 20
0.0
 30
0.0
  9
$PUCSORGBACK
 10
0.0
 20
0.0
 30
0.0
  9
$USERI1
 70
     0
  9
$USERI2
 70
     0
  9
$USERI3
 70
     0
  9
$USERI4
 70
     0
  9
$USERI5
 70
     0
  9
$USERR1
 40
18.1
  9
$USERR2
 40
0.0
  9
$USERR3
 40
0.0
  9
$USERR4
 40
0.0
  9
$USERR5
 40
0.0
  9
$WORLDVIEW
 70
     1
  9
$SHADEDGE
 70
     3
  9
$SHADEDIF
 70
    70
  9
$TILEMODE
 70
     1
  9
$MAXACTVP
 70
    64
  9
$PINSBASE
 10
0.0
 20
0.0
 30
0.0
  9
$PLIMCHECK
 70
     0
  9
$PEXTMIN
 10
1.00000000000000E+20
 20
1.00000000000000E+20
 30
1.00000000000000E+20
  9
$PEXTMAX
 10
-1.00000000000000E+20
 20
-1.00000000000000E+20
 30
-1.00000000000000E+20
  9
$PLIMMIN
 10
0.0
 20
0.0
  9
$PLIMMAX
 10
12.0
 20
9.0
  9
$UNITMODE
 70
     0
  9
$VISRETAIN
 70
     1
  9
$PLINEGEN
 70
     0
  9
$PSLTSCALE
 70
     1
  9
$TREEDEPTH
 70
  3020
  9
$CMLSTYLE
  2
Standard
  9
$CMLJUST
 70
     0
  9
$CMLSCALE
 40
1.0
  9
$PROXYGRAPHICS
 70
     1
  9
$MEASUREMENT
 70
     1
  9
$CELWEIGHT
370
    -1
  9
$ENDCAPS
280
     0
  9
$JOINSTYLE
280
     0
  9
$LWDISPLAY
290
     0
  9
$INSUNITS
 70
     4
  9
$HYPERLINKBASE
  1

  9
$STYLESHEET
  1

  9
$XEDIT
290
     1
  9
$CEPSNTYPE
380
     0
  9
$PSTYLEMODE
290
     1
  9
$FINGERPRINTGUID
  2
{A34D3939-BE6D-41B1-8FFB-EFD8F5356904}
  9
$VERSIONGUID
  2
{FAEB1C32-E019-11D5-929B-00C0DF256EC4}
  9
$EXTNAMES
290
     1
  9
$PSVPSCALE
 40
0.0
  9
$OLESTARTUP
290
     0
  0
ENDSEC
  0
SECTION
  2
CLASSES
  0
CLASS
  1
ACDBDICTIONARYWDFLT
  2
AcDbDictionaryWithDefault
  3
ObjectDBX Classes
 90
        0
280
     0
281
     0
  0
CLASS
  1
VISUALSTYLE
  2
AcDbVisualStyle
  3
ObjectDBX Classes
 90
     4095
280
     0
281
     0
  0
CLASS
  1
MATERIAL
  2
AcDbMaterial
  3
ObjectDBX Classes
 90
     1153
280
     0
281
     0
  0
CLASS
  1
DICTIONARYVAR
  2
AcDbDictionaryVar
  3
ObjectDBX Classes
 90
        0
280
     0
281
     0
  0
CLASS
  1
ACDBPLACEHOLDER
  2
AcDbPlaceHolder
  3
ObjectDBX Classes
 90
        0
280
     0
281
     0
  0
CLASS
  1
LAYOUT
  2
AcDbLayout
  3
ObjectDBX Classes
 90
        0
280
     0
281
     0
  0
ENDSEC
  0
SECTION
  2
TABLES
  0
TABLE
  2
VPORT
  5
8
330
0
100
AcDbSymbolTable
 70
     1
  0
VPORT
  5
29
330
8
100
AcDbSymbolTableRecord
100
AcDbViewportTableRecord
  2
*Active
 70
     0
 10
0.0
 20
0.0
 11
1.0
 21
1.0
 12
210.0
 22
297.0
 13
0.0
 23
0.0
 14
0.5
 24
0.5
 15
0.5
 25
0.5
 16
0.0
 26
0.0
 36
1.0
 17
0.0
 27
0.0
 37
0.0
 40
653.4000000000001
 41
1.60267857142857
 42
50.0
 43
0.0
 44
0.0
 50
0.0
 51
0.0
 71
     0
 72
   100
 73
     1
 74
     3
 75
     0
 76
     0
 77
     0
 78
     0
281
     0
 65
     1
110
0.0
120
0.0
130
0.0
111
1.0
121
0.0
131
0.0
112
0.0
122
1.0
132
0.0
 79
     0
146
0.0
  0
ENDTAB
  0
TABLE
  2
LTYPE
  5
5
330
0
100
AcDbSymbolTable
 70
     8
  0
LTYPE
  5
14
330
5
100
AcDbSymbolTableRecord
100
AcDbLinetypeTableRecord
  2
ByBlock
 70
     0
  3

 72
    65
 73
     0
 40
0.0
  0
LTYPE
  5
15
330
5
100
AcDbSymbolTableRecord
100
AcDbLinetypeTableRecord
  2
ByLayer
 70
     0
  3

 72
    65
 73
     0
 40
0.0
  0
LTYPE
  5
16
330
5
100
AcDbSymbolTableRecord
100
AcDbLinetypeTableRecord
  2
Continuous
 70
     0
  3
Solid line
 72
    65
 73
     0
 40
0.0
  0
LTYPE
  5
3F
330
5
100
AcDbSymbolTableRecord
100
AcDbLinetypeTableRecord
  2
DASHED
 70
     0
  3
Dashed
 72
    65
 73
     2
 40
15.0
 49
7.0
 74
     0
 49
-8.0
 74
     0
  0
LTYPE
  5
40
330
5
100
AcDbSymbolTableRecord
100
AcDbLinetypeTableRecord
  2
DOTTED
 70
     0
  3
Dotted
 72
    65
 73
     2
 40
1.0
 49
0.0
 74
     0
 49
-1.0
 74
     0
  0
LTYPE
  5
41
330
5
100
AcDbSymbolTableRecord
100
AcDbLinetypeTableRecord
  2
DOT_CENTER
 70
     0
  3
Dot_Center
 72
    65
 73
     4
 40
14.0
 49
12.0
 74
     0
 49
-1.0
 74
     0
 49
0.0
 74
     0
 49
-1.0
 74
     0
  0
LTYPE
  5
42
330
5
100
AcDbSymbolTableRecord
100
AcDbLinetypeTableRecord
  2
LONG_DASHED
 70
     0
  3
Long_Dashed
 72
    65
 73
     2
 40
15.0
 49
10.0
 74
     0
 49
-5.0
 74
     0
  0
LTYPE
  5
43
330
5
100
AcDbSymbolTableRecord
100
AcDbLinetypeTableRecord
  2
DASH_CENTER
 70
     0
  3
Dash_Center
 72
    65
 73
     4
 40
14.0
 49
11.0
 74
     0
 49
-1.0
 74
     0
 49
1.0
 74
     0
 49
-1.0
 74
     0
  0
LTYPE
  5
44
330
5
100
AcDbSymbolTableRecord
100
AcDbLinetypeTableRecord
  2
PHANTOM
 70
     0
  3
Phantom
 72
    65
 73
     6
 40
13.0
 49
10.0
 74
     0
 49
-1.0
 74
     0
 49
0.0
 74
     0
 49
-1.0
 74
     0
 49
0.0
 74
     0
 49
-1.0
 74
     0
  0
LTYPE
  5
45
330
5
100
AcDbSymbolTableRecord
100
AcDbLinetypeTableRecord
  2
CENTER_DASH_DASH
 70
     0
  3
Center_Dash_Dash
 72
    65
 73
     6
 40
14.0
 49
9.0
 74
     0
 49
-1.0
 74
     0
 49
1.0
 74
     0
 49
-1.0
 74
     0
 49
1.0
 74
     0
 49
-1.0
 74
     0
  0
ENDTAB
  0
TABLE
  2
LAYER
  5
2
330
0
100
AcDbSymbolTable
 70
     7
  0
LAYER
  5
10
330
2
100
AcDbSymbolTableRecord
100
AcDbLayerTableRecord
  2
0
 70
     0
 62
     7
  6
Continuous
370
    -3
390
F
  0
LAYER
  5
46
330
2
100
AcDbSymbolTableRecord
100
AcDbLayerTableRecord
  2
1
 70
     0
 62
     7
  6
Continuous
370
    -3
390
F
  0
LAYER
  5
47
330
2
100
AcDbSymbolTableRecord
100
AcDbLayerTableRecord
  2
2
 70
     0
 62
     7
  6
Continuous
370
    -3
390
F
  0
LAYER
  5
48
330
2
100
AcDbSymbolTableRecord
100
AcDbLayerTableRecord
  2
3
 70
     0
 62
     7
  6
Continuous
370
    -3
390
F
  0
LAYER
  5
49
330
2
100
AcDbSymbolTableRecord
100
AcDbLayerTableRecord
  2
5
 70
     0
 62
     7
  6
Continuous
370
    -3
390
F
  0
LAYER
  5
4A
330
2
100
AcDbSymbolTableRecord
100
AcDbLayerTableRecord
  2
6
 70
     0
 62
     7
  6
Continuous
370
    -3
390
F
  0
LAYER
  5
4B
330
2
100
AcDbSymbolTableRecord
100
AcDbLayerTableRecord
  2
7
 70
     0
 62
     7
  6
Continuous
370
    -3
390
F
  0
ENDTAB
  0
TABLE
  2
STYLE
  5
3
330
0
100
AcDbSymbolTable
 70
     3
  0
STYLE
  5
11
330
3
100
AcDbSymbolTableRecord
100
AcDbTextStyleTableRecord
  2
Standard
 70
     0
 40
0.0
 41
1.0
 50
0.0
 71
     0
 42
0.2
  3
txt
  4

  0
STYLE
  5
18D
330
3
100
AcDbSymbolTableRecord
100
AcDbTextStyleTableRecord
  2
CONVERTER_11
 70
     0
 40
0.0
 41
0.89
 50
0.0
 71
     0
 42
0.2
  3
MS Mincho.ttf
  4

1001
ACAD
1000
MS Mincho
1071
    32785
  0
STYLE
  5
2B1
330
3
100
AcDbSymbolTableRecord
100
AcDbTextStyleTableRecord
  2
CONVERTER_12
 70
     0
 40
0.0
 41
0.9
 50
0.0
 71
     0
 42
0.2
  3
txt.shx
  4

  0
ENDTAB
  0
TABLE
  2
VIEW
  5
6
330
0
100
AcDbSymbolTable
 70
     0
  0
ENDTAB
  0
TABLE
  2
UCS
  5
7
330
0
100
AcDbSymbolTable
 70
     0
  0
ENDTAB
  0
TABLE
  2
APPID
  5
9
330
0
100
AcDbSymbolTable
 70
     1
  0
APPID
  5
12
330
9
100
AcDbSymbolTableRecord
100
AcDbRegAppTableRecord
  2
ACAD
 70
     0
  0
ENDTAB
  0
TABLE
  2
DIMSTYLE
  5
A
330
0
100
AcDbSymbolTable
 70
     9
100
AcDbDimStyleTable
  0
DIMSTYLE
105
27
330
A
100
AcDbSymbolTableRecord
100
AcDbDimStyleTableRecord
  2
Standard
 70
     0
178
     0
340
11
  0
DIMSTYLE
105
2D2
102
{ACAD_REACTORS
330
2D3
102
}
330
A
100
AcDbSymbolTableRecord
100
AcDbDimStyleTableRecord
  2
ME10_DIM_10
 70
     0
  3
外径{\Fgdt;n}<>
 41
7.0
 42
0.0
 44
2.0
 73
     0
 74
     0
 77
     1
 78
     8
140
7.0
147
2.0
172
     1
173
     1
174
     1
175
     1
176
     2
177
     2
271
     2
178
     7
271
     2
340
18D
  0
DIMSTYLE
105
2DD
102
{ACAD_REACTORS
330
2DE
102
}
330
A
100
AcDbSymbolTableRecord
100
AcDbDimStyleTableRecord
  2
ME10_DIM_11
 70
     0
  3
内径{\Fgdt;n}<>
 41
7.0
 42
0.0
 44
2.0
 73
     0
 74
     0
 77
     1
 78
     8
140
7.0
147
2.0
172
     1
173
     1
174
     1
175
     1
176
     2
177
     2
271
     2
178
     7
271
     2
340
18D
  0
DIMSTYLE
105
2E8
102
{ACAD_REACTORS
330
2E9
102
}
330
A
100
AcDbSymbolTableRecord
100
AcDbDimStyleTableRecord
  2
ME10_DIM_12
 70
     0
  3
{\Fgdt;n}<>
 41
7.0
 42
0.0
 44
2.0
 73
     0
 74
     0
 77
     1
 78
     8
140
7.0
147
2.0
172
     1
173
     1
174
     1
175
     1
176
     2
177
     2
271
     2
178
     7
271
     2
340
2B1
  0
DIMSTYLE
105
2F3
102
{ACAD_REACTORS
330
2F4
102
}
330
A
100
AcDbSymbolTableRecord
100
AcDbDimStyleTableRecord
  2
ME10_DIM_13
 70
     0
 41
7.0
 42
0.0
 44
2.0
 73
     0
 74
     0
 77
     1
 78
     8
140
7.0
147
2.0
172
     1
173
     1
174
     1
175
     1
176
     2
177
     2
271
     2
178
     7
271
     2
340
2B1
  0
DIMSTYLE
105
2FE
102
{ACAD_REACTORS
330
2FF
102
}
330
A
100
AcDbSymbolTableRecord
100
AcDbDimStyleTableRecord
  2
ME10_DIM_14
 70
     0
 41
7.0
 42
0.0
 44
2.0
 47
20.0
 71
     1
 73
     0
 74
     0
 77
     1
 78
     8
140
7.0
146
0.6
147
2.0
172
     1
173
     1
174
     1
175
     1
176
     2
177
     2
271
     2
178
     7
271
     2
272
     0
340
2B1
  0
DIMSTYLE
105
309
102
{ACAD_REACTORS
330
30A
102
}
330
A
100
AcDbSymbolTableRecord
100
AcDbDimStyleTableRecord
  2
ME10_DIM_15
 70
     0
 41
7.0
 42
0.0
 44
2.0
 73
     0
 74
     0
 77
     1
 78
     8
140
7.0
147
2.0
172
     1
173
     1
174
     1
175
     1
176
     2
177
     2
271
     2
178
     7
271
     2
340
2B1
  0
DIMSTYLE
105
314
102
{ACAD_REACTORS
330
315
102
}
330
A
100
AcDbSymbolTableRecord
100
AcDbDimStyleTableRecord
  2
ME10_DIM_16
 70
     0
 41
7.0
 42
0.0
 44
2.0
 47
20.0
 71
     1
 73
     0
 74
     0
 77
     1
 78
     8
140
7.0
146
0.6
147
2.0
172
     1
173
     1
174
     1
175
     1
176
     2
177
     2
271
     2
178
     7
271
     2
272
     0
340
2B1
  0
DIMSTYLE
105
321
102
{ACAD_REACTORS
330
322
102
}
330
A
100
AcDbSymbolTableRecord
100
AcDbDimStyleTableRecord
  2
ME10_DIM_17
 70
     0
 41
7.0
 42
0.0
 44
2.0
 73
     0
 74
     0
 77
     1
 78
     8
140
7.0
147
2.0
172
     1
173
     1
174
     1
175
     1
176
     2
177
     2
271
     2
178
     7
271
     2
340
18D
  0
ENDTAB
  0
TABLE
  2
BLOCK_RECORD
  5
1
330
0
100
AcDbSymbolTable
 70
    12
  0
BLOCK_RECORD
  5
1F
330
1
100
AcDbSymbolTableRecord
100
AcDbBlockTableRecord
  2
*Model_Space
340
22
  0
BLOCK_RECORD
  5
1B
330
1
100
AcDbSymbolTableRecord
100
AcDbBlockTableRecord
  2
*Paper_Space
340
1E
  0
BLOCK_RECORD
  5
23
330
1
100
AcDbSymbolTableRecord
100
AcDbBlockTableRecord
  2
*Paper_Space0
340
26
  0
BLOCK_RECORD
  5
4C
330
1
100
AcDbSymbolTableRecord
100
AcDbBlockTableRecord
  2
外部硬質部
340
0
102
{BLKREFS
331
55
102
}
  0
BLOCK_RECORD
  5
4F
330
1
100
AcDbSymbolTableRecord
100
AcDbBlockTableRecord
  2
ソケット_DS_
340
0
102
{BLKREFS
331
56
102
}
  0
BLOCK_RECORD
  5
52
330
1
100
AcDbSymbolTableRecord
100
AcDbBlockTableRecord
  2
開示A4
340
0
102
{BLKREFS
331
57
102
}
  0
BLOCK_RECORD
  5
2C9
330
1
100
AcDbSymbolTableRecord
100
AcDbBlockTableRecord
  2
*D4
340
0
  0
BLOCK_RECORD
  5
2D4
330
1
100
AcDbSymbolTableRecord
100
AcDbBlockTableRecord
  2
*D5
340
0
  0
BLOCK_RECORD
  5
2DF
330
1
100
AcDbSymbolTableRecord
100
AcDbBlockTableRecord
  2
*D6
340
0
  0
BLOCK_RECORD
  5
2EA
330
1
100
AcDbSymbolTableRecord
100
AcDbBlockTableRecord
  2
*D7
340
0
  0
BLOCK_RECORD
  5
2F5
330
1
100
AcDbSymbolTableRecord
100
AcDbBlockTableRecord
  2
*D8
340
0
  0
BLOCK_RECORD
  5
300
330
1
100
AcDbSymbolTableRecord
100
AcDbBlockTableRecord
  2
*D9
340
0
  0
BLOCK_RECORD
  5
30B
330
1
100
AcDbSymbolTableRecord
100
AcDbBlockTableRecord
  2
*D10
340
0
  0
BLOCK_RECORD
  5
316
330
1
100
AcDbSymbolTableRecord
100
AcDbBlockTableRecord
  2
*D11
340
0
  0
ENDTAB
  0
ENDSEC
  0
SECTION
  2
BLOCKS
  0
BLOCK
  5
20
330
1F
100
AcDbEntity
  8
0
100
AcDbBlockBegin
  2
*Model_Space
 70
     0
 10
0.0
 20
0.0
 30
0.0
  3
*Model_Space
  1

  0
ENDBLK
  5
21
330
1F
100
AcDbEntity
  8
0
100
AcDbBlockEnd
  0
BLOCK
  5
1C
330
1B
100
AcDbEntity
 67
     1
  8
0
100
AcDbBlockBegin
  2
*Paper_Space
 70
     0
 10
0.0
 20
0.0
 30
0.0
  3
*Paper_Space
  1

  0
ENDBLK
  5
1D
330
1B
100
AcDbEntity
 67
     1
  8
0
100
AcDbBlockEnd
  0
BLOCK
  5
24
330
23
100
AcDbEntity
  8
0
100
AcDbBlockBegin
  2
*Paper_Space0
 70
     0
 10
0.0
 20
0.0
 30
0.0
  3
*Paper_Space0
  1

  0
ENDBLK
  5
25
330
23
100
AcDbEntity
  8
0
100
AcDbBlockEnd
  0
BLOCK
  5
4D
330
4C
100
AcDbEntity
  8
0
100
AcDbBlockBegin
  2
外部硬質部
 70
     0
 10
406.7915262316558
 20
583.7634778624868
 30
0.0
  3
外部硬質部
  1

  0
LINE
  5
58
330
4C
100
AcDbEntity
  8
5
  6
Continuous
 62
     7
100
AcDbLine
 10
211.3101686362818
 20
247.2469006939928
 30
0.0
 11
208.4365943287039
 21
247.0328216614705
 31
0.0
  0
LINE
  5
59
330
4C
100
AcDbEntity
  8
5
  6
Continuous
 62
     7
100
AcDbLine
 10
228.8949274115514
 20
248.5569514331786
 30
0.0
 11
214.2823582814621
 21
247.4683264918346
 31
0.0
  0
LINE
  5
5A
330
4C
100
AcDbEntity
  8
1
  6
Continuous
 62
     7
100
AcDbLine
 10
211.4718659153911
 20
260.8365147972011
 30
0.0
 11
211.4718659153912
 21
261.5865147972011
 31
0.0
  0
LINE
  5
5B
330
4C
100
AcDbEntity
  8
1
  6
Continuous
 62
     7
100
AcDbLine
 10
211.4718659153912
 20
260.086514797201
 30
0.0
 11
211.4718659153911
 21
260.8365147972011
 31
0.0
  0
LINE
  5
5C
330
4C
100
AcDbEntity
  8
5
  6
Continuous
 62
     7
100
AcDbLine
 10
208.2717945940366
 20
252.3208281305342
 30
0.0
 11
210.977868220336
 21
252.3208281305342
 31
0.0
  0
LINE
  5
5D
330
4C
100
AcDbEntity
  8
6
  6
Continuous
 62
     7
100
AcDbLine
 10
210.977868220336
 20
252.3208281305342
 30
0.0
 11
237.3217945940367
 21
255.5708281305343
 31
0.0
  0
LINE
  5
5E
330
4C
100
AcDbEntity
  8
6
  6
Continuous
 62
     7
100
AcDbLine
 10
237.3217945940367
 20
255.5786721305341
 30
0.0
 11
208.2717945940366
 21
252.3365147972009
 31
0.0
  0
LINE
  5
5F
330
4C
100
AcDbEntity
  8
6
  6
Continuous
 62
     7
100
AcDbLine
 10
237.3217945940367
 20
259.5708281305343
 30
0.0
 11
208.2857265940367
 21
256.3208281305343
 31
0.0
  0
LINE
  5
60
330
4C
100
AcDbEntity
  8
6
  6
Continuous
 62
     7
100
AcDbLine
 10
237.3217945940367
 20
263.3208281305343
 30
0.0
 11
211.4817093813873
 21
260.1215794851587
 31
0.0
  0
LINE
  5
61
330
4C
100
AcDbEntity
  8
1
  6
Continuous
 62
     7
100
AcDbLine
 10
211.4718659153912
 20
273.0708281305342
 30
0.0
 11
211.4718659153911
 21
273.8208281305343
 31
0.0
  0
LINE
  5
62
330
4C
100
AcDbEntity
  8
6
  6
Continuous
 62
     7
100
AcDbLine
 10
237.3217945940367
 20
264.8208281305343
 30
0.0
 11
211.46256566285
 21
261.6192093104827
 31
0.0
  0
LINE
  5
63
330
4C
100
AcDbEntity
  8
6
  6
Continuous
 62
     7
100
AcDbLine
 10
237.3217945940367
 20
276.3208281305343
 30
0.0
 11
211.4718659153912
 21
273.0708281305342
 31
0.0
  0
LINE
  5
64
330
4C
100
AcDbEntity
  8
1
  6
Continuous
 62
     7
100
AcDbLine
 10
211.4718659153911
 20
273.8208281305343
 30
0.0
 11
211.4718659153912
 21
274.5708281305343
 31
0.0
  0
LINE
  5
65
330
4C
100
AcDbEntity
  8
1
  6
Continuous
 62
     7
100
AcDbLine
 10
211.4718659153911
 20
286.0708281305342
 30
0.0
 11
211.4718659153911
 21
286.8208281305342
 31
0.0
  0
LINE
  5
66
330
4C
100
AcDbEntity
  8
6
  6
Continuous
 62
     7
100
AcDbLine
 10
237.3217945940367
 20
277.8208281305342
 30
0.0
 11
211.4718659153912
 21
274.5708281305343
 31
0.0
  0
LINE
  5
67
330
4C
100
AcDbEntity
  8
6
  6
Continuous
 62
     7
100
AcDbLine
 10
237.3217945940367
 20
289.3208281305342
 30
0.0
 11
211.4718659153911
 21
286.0708281305342
 31
0.0
  0
LINE
  5
68
330
4C
100
AcDbEntity
  8
1
  6
Continuous
 62
     7
100
AcDbLine
 10
211.4718659153911
 20
286.8208281305342
 30
0.0
 11
211.4718659153912
 21
287.5708281305342
 31
0.0
  0
LINE
  5
69
330
4C
100
AcDbEntity
  8
1
  6
Continuous
 62
     7
100
AcDbLine
 10
211.4718659153912
 20
299.0708281305342
 30
0.0
 11
211.4718659153911
 21
299.8208281305342
 31
0.0
  0
LINE
  5
6A
330
4C
100
AcDbEntity
  8
6
  6
Continuous
 62
     7
100
AcDbLine
 10
237.3217945940367
 20
290.8208281305342
 30
0.0
 11
211.4718659153912
 21
287.5708281305342
 31
0.0
  0
LINE
  5
6B
330
4C
100
AcDbEntity
  8
6
  6
Continuous
 62
     7
100
AcDbLine
 10
237.3217945940367
 20
302.3208281305342
 30
0.0
 11
211.4718659153912
 21
299.0708281305342
 31
0.0
  0
LINE
  5
6C
330
4C
100
AcDbEntity
  8
1
  6
Continuous
 62
     7
100
AcDbLine
 10
211.4718659153911
 20
299.8208281305342
 30
0.0
 11
211.4718659153912
 21
300.5708281305342
 31
0.0
  0
LINE
  5
6D
330
4C
100
AcDbEntity
  8
6
  6
Continuous
 62
     7
100
AcDbLine
 10
237.3217945940367
 20
303.8208281305342
 30
0.0
 11
211.4718659153912
 21
300.5708281305342
 31
0.0
  0
LINE
  5
6E
330
4C
100
AcDbEntity
  8
5
  6
Continuous
 62
     7
100
AcDbLine
 10
208.2717945940366
 20
265.3208281305342
 30
0.0
 11
210.977868220336
 21
265.3208281305342
 31
0.0
  0
LINE
  5
6F
330
4C
100
AcDbEntity
  8
6
  6
Continuous
 62
     7
100
AcDbLine
 10
237.3217945940367
 20
272.5708281305343
 30
0.0
 11
208.2857265940367
 21
269.3208281305343
 31
0.0
  0
LINE
  5
70
330
4C
100
AcDbEntity
  8
6
  6
Continuous
 62
     7
100
AcDbLine
 10
210.977868220336
 20
265.3208281305342
 30
0.0
 11
237.3217945940367
 21
268.5708281305343
 31
0.0
  0
LINE
  5
71
330
4C
100
AcDbEntity
  8
6
  6
Continuous
 62
     7
100
AcDbLine
 10
237.3217945940367
 20
268.5786721305341
 30
0.0
 11
208.2717945940366
 21
265.336514797201
 31
0.0
  0
LINE
  5
72
330
4C
100
AcDbEntity
  8
5
  6
Continuous
 62
     7
100
AcDbLine
 10
208.2717945940366
 20
278.3208281305342
 30
0.0
 11
210.9878752487246
 21
278.3208281305342
 31
0.0
  0
LINE
  5
73
330
4C
100
AcDbEntity
  8
6
  6
Continuous
 62
     7
100
AcDbLine
 10
237.3217945940367
 20
285.5708281305342
 30
0.0
 11
208.2857265940367
 21
282.3208281305342
 31
0.0
  0
LINE
  5
74
330
4C
100
AcDbEntity
  8
6
  6
Continuous
 62
     7
100
AcDbLine
 10
210.9878752487246
 20
278.3208281305342
 30
0.0
 11
237.3217945940367
 21
281.5708281305342
 31
0.0
  0
LINE
  5
75
330
4C
100
AcDbEntity
  8
6
  6
Continuous
 62
     7
100
AcDbLine
 10
237.3217945940367
 20
281.5786721305343
 30
0.0
 11
208.2717945940366
 21
278.3365147972008
 31
0.0
  0
LINE
  5
76
330
4C
100
AcDbEntity
  8
5
  6
Continuous
 62
     7
100
AcDbLine
 10
208.2717945940366
 20
291.3208281305342
 30
0.0
 11
210.9878752487246
 21
291.3208281305342
 31
0.0
  0
LINE
  5
77
330
4C
100
AcDbEntity
  8
6
  6
Continuous
 62
     7
100
AcDbLine
 10
237.3217945940367
 20
298.5708281305342
 30
0.0
 11
208.2857265940367
 21
295.3208281305342
 31
0.0
  0
LINE
  5
78
330
4C
100
AcDbEntity
  8
6
  6
Continuous
 62
     7
100
AcDbLine
 10
210.9878752487246
 20
291.3208281305342
 30
0.0
 11
237.3217945940367
 21
294.5708281305342
 31
0.0
  0
LINE
  5
79
330
4C
100
AcDbEntity
  8
6
  6
Continuous
 62
     7
100
AcDbLine
 10
237.3217945940367
 20
294.5786721305343
 30
0.0
 11
208.2717945940366
 21
291.3365147972008
 31
0.0
  0
LINE
  5
7A
330
4C
100
AcDbEntity
  8
6
  6
Continuous
 62
     7
100
AcDbLine
 10
263.9146542857995
 20
240.2467272729381
 30
0.0
 11
207.7599828928099
 21
234.4491692525353
 31
0.0
  0
LINE
  5
7B
330
4C
100
AcDbEntity
  8
5
  6
Continuous
 62
     7
100
AcDbLine
 10
267.3372731129152
 20
391.7221656789382
 30
0.0
 11
267.3372731129152
 21
422.5030890660997
 31
0.0
  0
LINE
  5
7C
330
4C
100
AcDbEntity
  8
5
  6
Continuous
 62
     7
100
AcDbLine
 10
207.3372731129152
 20
379.6837123456049
 30
0.0
 11
207.3372731129152
 21
422.5030890660997
 31
0.0
  0
LINE
  5
7D
330
4C
100
AcDbEntity
  8
5
  6
Continuous
 62
     7
100
AcDbLine
 10
237.3372731129152
 20
422.5030890660997
 30
0.0
 11
267.3372731129152
 21
422.5030890660997
 31
0.0
  0
LINE
  5
7E
330
4C
100
AcDbEntity
  8
5
  6
Continuous
 62
     7
100
AcDbLine
 10
207.3372731129152
 20
422.5030890660997
 30
0.0
 11
237.3372731129152
 21
422.5030890660997
 31
0.0
  0
LINE
  5
7F
330
4C
100
AcDbEntity
  8
6
  6
Continuous
 62
     7
100
AcDbLine
 10
266.3872731129152
 20
258.8382423386745
 30
0.0
 11
237.3372731129152
 21
255.5960863386741
 31
0.0
  0
LINE
  5
80
330
4C
100
AcDbEntity
  8
6
  6
Continuous
 62
     7
100
AcDbLine
 10
266.3733411129152
 20
262.8382423386745
 30
0.0
 11
237.3372731129152
 21
259.5882423386745
 31
0.0
  0
LINE
  5
81
330
4C
100
AcDbEntity
  8
6
  6
Continuous
 62
     7
100
AcDbLine
 10
237.2935864462486
 20
259.5829316720076
 30
0.0
 11
264.0712651129153
 21
262.8382423386745
 31
0.0
  0
LINE
  5
82
330
4C
100
AcDbEntity
  8
5
  6
Continuous
 62
     7
100
AcDbLine
 10
264.0712651129153
 20
262.8382423386745
 30
0.0
 11
266.3872731129152
 21
262.8382423386745
 31
0.0
  0
LINE
  5
83
330
4C
100
AcDbEntity
  8
6
  6
Continuous
 62
     7
100
AcDbLine
 10
266.3872731129152
 20
271.8382423386745
 30
0.0
 11
237.3372731129152
 21
268.5960863386742
 31
0.0
  0
LINE
  5
84
330
4C
100
AcDbEntity
  8
6
  6
Continuous
 62
     7
100
AcDbLine
 10
266.3733411129152
 20
275.8382423386745
 30
0.0
 11
237.3372731129152
 21
272.5882423386745
 31
0.0
  0
LINE
  5
85
330
4C
100
AcDbEntity
  8
6
  6
Continuous
 62
     7
100
AcDbLine
 10
237.2935864462486
 20
272.5829316720076
 30
0.0
 11
264.0712651129153
 21
275.8382423386745
 31
0.0
  0
LINE
  5
86
330
4C
100
AcDbEntity
  8
5
  6
Continuous
 62
     7
100
AcDbLine
 10
264.0712651129153
 20
275.8382423386745
 30
0.0
 11
266.3872731129152
 21
275.8382423386745
 31
0.0
  0
LINE
  5
87
330
4C
100
AcDbEntity
  8
6
  6
Continuous
 62
     7
100
AcDbLine
 10
266.3872731129152
 20
284.8382423386745
 30
0.0
 11
237.3372731129152
 21
281.5960863386742
 31
0.0
  0
LINE
  5
88
330
4C
100
AcDbEntity
  8
6
  6
Continuous
 62
     7
100
AcDbLine
 10
266.3733411129152
 20
288.8382423386745
 30
0.0
 11
237.3372731129152
 21
285.5882423386744
 31
0.0
  0
LINE
  5
89
330
4C
100
AcDbEntity
  8
6
  6
Continuous
 62
     7
100
AcDbLine
 10
237.2935864462486
 20
285.5829316720076
 30
0.0
 11
264.0712651129153
 21
288.8382423386745
 31
0.0
  0
LINE
  5
8A
330
4C
100
AcDbEntity
  8
5
  6
Continuous
 62
     7
100
AcDbLine
 10
264.0712651129153
 20
288.8382423386745
 30
0.0
 11
266.3872731129152
 21
288.8382423386745
 31
0.0
  0
LINE
  5
8B
330
4C
100
AcDbEntity
  8
6
  6
Continuous
 62
     7
100
AcDbLine
 10
266.3872731129152
 20
297.8382423386745
 30
0.0
 11
237.3372731129152
 21
294.5960863386742
 31
0.0
  0
LINE
  5
8C
330
4C
100
AcDbEntity
  8
6
  6
Continuous
 62
     7
100
AcDbLine
 10
266.3733411129152
 20
301.8382423386745
 30
0.0
 11
237.3372731129152
 21
298.5882423386745
 31
0.0
  0
LINE
  5
8D
330
4C
100
AcDbEntity
  8
6
  6
Continuous
 62
     7
100
AcDbLine
 10
237.2935864462486
 20
298.5829316720076
 30
0.0
 11
264.0712651129153
 21
301.8382423386745
 31
0.0
  0
LINE
  5
8E
330
4C
100
AcDbEntity
  8
5
  6
Continuous
 62
     7
100
AcDbLine
 10
264.0712651129153
 20
301.8382423386745
 30
0.0
 11
266.3872731129152
 21
301.8382423386745
 31
0.0
  0
LINE
  5
8F
330
4C
100
AcDbEntity
  8
6
  6
Continuous
 62
     7
100
AcDbLine
 10
237.3372731129152
 20
346.5940386792345
 30
0.0
 11
208.2872731129152
 21
343.3518813459012
 31
0.0
  0
LINE
  5
90
330
4C
100
AcDbEntity
  8
6
  6
Continuous
 62
     7
100
AcDbLine
 10
210.6032824462486
 20
343.3361946792346
 30
0.0
 11
237.3372731129152
 21
346.5861946792346
 31
0.0
  0
LINE
  5
91
330
4C
100
AcDbEntity
  8
6
  6
Continuous
 62
     7
100
AcDbLine
 10
266.3733411129152
 20
353.8361946792346
 30
0.0
 11
237.3372731129152
 21
350.5861946792346
 31
0.0
  0
LINE
  5
92
330
4C
100
AcDbEntity
  8
6
  6
Continuous
 62
     7
100
AcDbLine
 10
237.2935864462486
 20
350.5808840125679
 30
0.0
 11
264.0712651129153
 21
353.8361946792346
 31
0.0
  0
LINE
  5
93
330
4C
100
AcDbEntity
  8
5
  6
Continuous
 62
     7
100
AcDbLine
 10
264.0712651129153
 20
353.8361946792346
 30
0.0
 11
266.3872731129152
 21
353.8361946792346
 31
0.0
  0
LINE
  5
94
330
4C
100
AcDbEntity
  8
5
  6
Continuous
 62
     7
100
AcDbLine
 10
208.2872731129152
 20
343.3361946792346
 30
0.0
 11
210.6032824462486
 21
343.3361946792346
 31
0.0
  0
LINE
  5
95
330
4C
100
AcDbEntity
  8
6
  6
Continuous
 62
     7
100
AcDbLine
 10
237.3372731129152
 20
333.5940386792343
 30
0.0
 11
208.2872731129152
 21
330.3518813459012
 31
0.0
  0
LINE
  5
96
330
4C
100
AcDbEntity
  8
6
  6
Continuous
 62
     7
100
AcDbLine
 10
266.3872731129152
 20
336.8361946792346
 30
0.0
 11
237.3372731129152
 21
333.5940386792343
 31
0.0
  0
LINE
  5
97
330
4C
100
AcDbEntity
  8
6
  6
Continuous
 62
     7
100
AcDbLine
 10
211.0033537676031
 20
330.3361946792346
 30
0.0
 11
237.3372731129152
 21
333.5861946792346
 31
0.0
  0
LINE
  5
98
330
4C
100
AcDbEntity
  8
6
  6
Continuous
 62
     7
100
AcDbLine
 10
237.3372731129152
 20
337.5861946792346
 30
0.0
 11
208.3012051129152
 21
334.3361946792346
 31
0.0
  0
LINE
  5
99
330
4C
100
AcDbEntity
  8
6
  6
Continuous
 62
     7
100
AcDbLine
 10
266.3733411129152
 20
340.8361946792346
 30
0.0
 11
237.3372731129152
 21
337.5861946792346
 31
0.0
  0
LINE
  5
9A
330
4C
100
AcDbEntity
  8
6
  6
Continuous
 62
     7
100
AcDbLine
 10
237.2935864462486
 20
337.5808840125679
 30
0.0
 11
264.0712651129153
 21
340.8361946792346
 31
0.0
  0
LINE
  5
9B
330
4C
100
AcDbEntity
  8
5
  6
Continuous
 62
     7
100
AcDbLine
 10
264.0712651129153
 20
340.8361946792346
 30
0.0
 11
266.3872731129152
 21
340.8361946792346
 31
0.0
  0
LINE
  5
9C
330
4C
100
AcDbEntity
  8
5
  6
Continuous
 62
     7
100
AcDbLine
 10
208.2872731129152
 20
330.3361946792346
 30
0.0
 11
211.0033537676031
 21
330.3361946792346
 31
0.0
  0
LINE
  5
9D
330
4C
100
AcDbEntity
  8
6
  6
Continuous
 62
     7
100
AcDbLine
 10
237.3372731129152
 20
320.5940386792345
 30
0.0
 11
208.2872731129152
 21
317.3518813459012
 31
0.0
  0
LINE
  5
9E
330
4C
100
AcDbEntity
  8
6
  6
Continuous
 62
     7
100
AcDbLine
 10
266.3872731129152
 20
323.8361946792346
 30
0.0
 11
237.3372731129152
 21
320.5940386792345
 31
0.0
  0
LINE
  5
9F
330
4C
100
AcDbEntity
  8
6
  6
Continuous
 62
     7
100
AcDbLine
 10
211.0033537676031
 20
317.3361946792346
 30
0.0
 11
237.3372731129152
 21
320.5861946792346
 31
0.0
  0
LINE
  5
A0
330
4C
100
AcDbEntity
  8
6
  6
Continuous
 62
     7
100
AcDbLine
 10
237.3372731129152
 20
324.5861946792346
 30
0.0
 11
208.3012051129152
 21
321.3361946792346
 31
0.0
  0
LINE
  5
A1
330
4C
100
AcDbEntity
  8
6
  6
Continuous
 62
     7
100
AcDbLine
 10
266.3733411129152
 20
327.8361946792346
 30
0.0
 11
237.3372731129152
 21
324.5861946792346
 31
0.0
  0
LINE
  5
A2
330
4C
100
AcDbEntity
  8
6
  6
Continuous
 62
     7
100
AcDbLine
 10
237.2935864462486
 20
324.5808840125679
 30
0.0
 11
264.0712651129153
 21
327.8361946792346
 31
0.0
  0
LINE
  5
A3
330
4C
100
AcDbEntity
  8
5
  6
Continuous
 62
     7
100
AcDbLine
 10
264.0712651129153
 20
327.8361946792346
 30
0.0
 11
266.3872731129152
 21
327.8361946792346
 31
0.0
  0
LINE
  5
A4
330
4C
100
AcDbEntity
  8
5
  6
Continuous
 62
     7
100
AcDbLine
 10
263.9015557795819
 20
240.9312809009664
 30
0.0
 11
266.0586131129153
 21
241.6601595676331
 31
0.0
  0
LINE
  5
A5
330
4C
100
AcDbEntity
  8
6
  6
Continuous
 62
     7
100
AcDbLine
 10
263.9015557795819
 20
240.9312809009664
 30
0.0
 11
237.3372731129152
 21
237.502807567633
 31
0.0
  0
LINE
  5
A6
330
4C
100
AcDbEntity
  8
6
  6
Continuous
 62
     7
100
AcDbLine
 10
266.0586131129153
 20
241.6601595676331
 30
0.0
 11
237.3372731129152
 21
237.502807567633
 31
0.0
  0
LINE
  5
A7
330
4C
100
AcDbEntity
  8
5
  6
Continuous
 62
     7
100
AcDbLine
 10
265.9336904462485
 20
251.3163102342998
 30
0.0
 11
228.8949274115514
 21
248.5569514331786
 31
0.0
  0
LINE
  5
A8
330
4C
100
AcDbEntity
  8
6
  6
Continuous
 62
     7
100
AcDbLine
 10
266.3372731129152
 20
240.4968449009664
 30
0.0
 11
263.9146542857995
 21
240.2467272729381
 31
0.0
  0
LINE
  5
A9
330
4C
100
AcDbEntity
  8
6
  6
Continuous
 62
     7
100
AcDbLine
 10
263.5872731129152
 20
307.0882423386745
 30
0.0
 11
237.3372731129152
 21
303.8382423386745
 31
0.0
  0
LINE
  5
AA
330
4C
100
AcDbEntity
  8
1
  6
Continuous
 62
     7
100
AcDbLine
 10
263.5872731129152
 20
306.3382423386745
 30
0.0
 11
263.5872731129152
 21
307.0882423386745
 31
0.0
  0
LINE
  5
AB
330
4C
100
AcDbEntity
  8
6
  6
Continuous
 62
     7
100
AcDbLine
 10
263.5872731129152
 20
305.5882423386745
 30
0.0
 11
237.3372731129152
 21
302.3382423386744
 31
0.0
  0
LINE
  5
AC
330
4C
100
AcDbEntity
  8
6
  6
Continuous
 62
     7
100
AcDbLine
 10
263.5872731129152
 20
294.0882423386745
 30
0.0
 11
237.3372731129152
 21
290.8382423386745
 31
0.0
  0
LINE
  5
AD
330
4C
100
AcDbEntity
  8
1
  6
Continuous
 62
     7
100
AcDbLine
 10
263.5872731129152
 20
305.5882423386745
 30
0.0
 11
263.5872731129152
 21
306.3382423386745
 31
0.0
  0
LINE
  5
AE
330
4C
100
AcDbEntity
  8
1
  6
Continuous
 62
     7
100
AcDbLine
 10
263.5872731129152
 20
293.3382423386745
 30
0.0
 11
263.5872731129152
 21
294.0882423386745
 31
0.0
  0
LINE
  5
AF
330
4C
100
AcDbEntity
  8
6
  6
Continuous
 62
     7
100
AcDbLine
 10
263.5872731129152
 20
292.5882423386744
 30
0.0
 11
237.3372731129152
 21
289.3382423386745
 31
0.0
  0
LINE
  5
B0
330
4C
100
AcDbEntity
  8
6
  6
Continuous
 62
     7
100
AcDbLine
 10
263.5872731129152
 20
281.0882423386745
 30
0.0
 11
237.3372731129152
 21
277.8382423386745
 31
0.0
  0
LINE
  5
B1
330
4C
100
AcDbEntity
  8
1
  6
Continuous
 62
     7
100
AcDbLine
 10
263.5872731129152
 20
292.5882423386744
 30
0.0
 11
263.5872731129152
 21
293.3382423386745
 31
0.0
  0
LINE
  5
B2
330
4C
100
AcDbEntity
  8
1
  6
Continuous
 62
     7
100
AcDbLine
 10
263.5872731129152
 20
280.3382423386745
 30
0.0
 11
263.5872731129152
 21
281.0882423386745
 31
0.0
  0
LINE
  5
B3
330
4C
100
AcDbEntity
  8
6
  6
Continuous
 62
     7
100
AcDbLine
 10
263.5872731129152
 20
279.5882423386745
 30
0.0
 11
237.3372731129152
 21
276.3382423386745
 31
0.0
  0
LINE
  5
B4
330
4C
100
AcDbEntity
  8
6
  6
Continuous
 62
     7
100
AcDbLine
 10
263.5872731129152
 20
268.0882423386745
 30
0.0
 11
237.3372731129152
 21
264.8382423386745
 31
0.0
  0
LINE
  5
B5
330
4C
100
AcDbEntity
  8
1
  6
Continuous
 62
     7
100
AcDbLine
 10
263.5872731129152
 20
279.5882423386745
 30
0.0
 11
263.5872731129152
 21
280.3382423386745
 31
0.0
  0
LINE
  5
B6
330
4C
100
AcDbEntity
  8
1
  6
Continuous
 62
     7
100
AcDbLine
 10
263.5872731129152
 20
267.3382423386745
 30
0.0
 11
263.5872731129152
 21
268.0882423386745
 31
0.0
  0
LINE
  5
B7
330
4C
100
AcDbEntity
  8
6
  6
Continuous
 62
     7
100
AcDbLine
 10
263.5872731129152
 20
266.5882423386745
 30
0.0
 11
237.3372731129152
 21
263.3382423386745
 31
0.0
  0
LINE
  5
B8
330
4C
100
AcDbEntity
  8
1
  6
Continuous
 62
     7
100
AcDbLine
 10
263.5872731129152
 20
266.5882423386745
 30
0.0
 11
263.5872731129152
 21
267.3382423386745
 31
0.0
  0
LINE
  5
B9
330
4C
100
AcDbEntity
  8
6
  6
Continuous
 62
     7
100
AcDbLine
 10
237.3372731129152
 20
372.5825416789383
 30
0.0
 11
266.0101331129152
 21
376.2831550122715
 31
0.0
  0
LINE
  5
BA
330
4C
100
AcDbEntity
  8
6
  6
Continuous
 62
     7
100
AcDbLine
 10
237.3372731129152
 20
361.521676345605
 30
0.0
 11
210.9831611129152
 21
359.3014270122716
 31
0.0
  0
LINE
  5
BB
330
4C
100
AcDbEntity
  8
6
  6
Continuous
 62
     7
100
AcDbLine
 10
237.3372731129152
 20
362.2837603456049
 30
0.0
 11
266.0861264462486
 21
364.4831550122716
 31
0.0
  0
LINE
  5
BC
330
4C
100
AcDbEntity
  8
6
  6
Continuous
 62
     7
100
AcDbLine
 10
208.5725904462485
 20
360.0831550122715
 30
0.0
 11
237.3372731129152
 21
362.2837603456049
 31
0.0
  0
LINE
  5
BD
330
4C
100
AcDbEntity
  8
6
  6
Continuous
 62
     7
100
AcDbLine
 10
208.6739131129152
 20
368.8831550122717
 30
0.0
 11
237.3372731129152
 21
372.5825416789383
 31
0.0
  0
LINE
  5
BE
330
4C
100
AcDbEntity
  8
6
  6
Continuous
 62
     7
100
AcDbLine
 10
210.5372731129152
 20
370.5029630122716
 30
0.0
 11
237.3372731129152
 21
372.5825416789383
 31
0.0
  0
LINE
  5
BF
330
4C
100
AcDbEntity
  8
6
  6
Continuous
 62
     7
100
AcDbLine
 10
208.3572784462485
 20
370.8831550122717
 30
0.0
 11
237.3372731129152
 21
372.5825416789383
 31
0.0
  0
LINE
  5
C0
330
4C
100
AcDbEntity
  8
5
  6
Continuous
 62
     7
100
AcDbLine
 10
208.3572784462485
 20
370.8831550122717
 30
0.0
 11
210.8372731129152
 21
370.4506430122716
 31
0.0
  0
LINE
  5
C1
330
4C
100
AcDbEntity
  8
5
  6
Continuous
 62
     7
100
AcDbLine
 10
266.0861264462486
 20
364.4831550122716
 30
0.0
 11
264.1226321744495
 21
363.8938364299421
 31
0.0
  0
LINE
  5
C2
330
4C
100
AcDbEntity
  8
6
  6
Continuous
 62
     7
100
AcDbLine
 10
237.3372731129152
 20
342.8361946792346
 30
0.0
 11
211.0872731129152
 21
339.5861946792346
 31
0.0
  0
LINE
  5
C3
330
4C
100
AcDbEntity
  8
6
  6
Continuous
 62
     7
100
AcDbLine
 10
263.5872731129152
 20
346.0861946792346
 30
0.0
 11
237.3372731129152
 21
342.8361946792346
 31
0.0
  0
LINE
  5
C4
330
4C
100
AcDbEntity
  8
1
  6
Continuous
 62
     7
100
AcDbLine
 10
263.5872731129152
 20
345.3361946792346
 30
0.0
 11
263.5872731129152
 21
346.0861946792346
 31
0.0
  0
LINE
  5
C5
330
4C
100
AcDbEntity
  8
1
  6
Continuous
 62
     7
100
AcDbLine
 10
211.0872731129152
 20
338.8361946792346
 30
0.0
 11
211.0872731129152
 21
339.5861946792346
 31
0.0
  0
LINE
  5
C6
330
4C
100
AcDbEntity
  8
6
  6
Continuous
 62
     7
100
AcDbLine
 10
237.3372731129152
 20
341.3361946792346
 30
0.0
 11
211.0872731129152
 21
338.0861946792346
 31
0.0
  0
LINE
  5
C7
330
4C
100
AcDbEntity
  8
6
  6
Continuous
 62
     7
100
AcDbLine
 10
263.5872731129152
 20
344.5861946792346
 30
0.0
 11
237.3372731129152
 21
341.3361946792346
 31
0.0
  0
LINE
  5
C8
330
4C
100
AcDbEntity
  8
6
  6
Continuous
 62
     7
100
AcDbLine
 10
237.3372731129152
 20
329.8361946792346
 30
0.0
 11
211.4873444342698
 21
326.5861946792346
 31
0.0
  0
LINE
  5
C9
330
4C
100
AcDbEntity
  8
6
  6
Continuous
 62
     7
100
AcDbLine
 10
263.5872731129152
 20
333.0861946792346
 30
0.0
 11
237.3372731129152
 21
329.8361946792346
 31
0.0
  0
LINE
  5
CA
330
4C
100
AcDbEntity
  8
1
  6
Continuous
 62
     7
100
AcDbLine
 10
263.5872731129152
 20
344.5861946792346
 30
0.0
 11
263.5872731129152
 21
345.3361946792346
 31
0.0
  0
LINE
  5
CB
330
4C
100
AcDbEntity
  8
1
  6
Continuous
 62
     7
100
AcDbLine
 10
263.5872731129152
 20
332.3361946792346
 30
0.0
 11
263.5872731129152
 21
333.0861946792346
 31
0.0
  0
LINE
  5
CC
330
4C
100
AcDbEntity
  8
1
  6
Continuous
 62
     7
100
AcDbLine
 10
211.0872731129152
 20
338.0861946792346
 30
0.0
 11
211.0872731129152
 21
338.8361946792346
 31
0.0
  0
LINE
  5
CD
330
4C
100
AcDbEntity
  8
1
  6
Continuous
 62
     7
100
AcDbLine
 10
211.4873444342697
 20
325.8361946792346
 30
0.0
 11
211.4873444342698
 21
326.5861946792346
 31
0.0
  0
LINE
  5
CE
330
4C
100
AcDbEntity
  8
6
  6
Continuous
 62
     7
100
AcDbLine
 10
237.3372731129152
 20
328.3361946792346
 30
0.0
 11
211.4873444342698
 21
325.0861946792346
 31
0.0
  0
LINE
  5
CF
330
4C
100
AcDbEntity
  8
6
  6
Continuous
 62
     7
100
AcDbLine
 10
263.5872731129152
 20
331.5861946792346
 30
0.0
 11
237.3372731129152
 21
328.3361946792346
 31
0.0
  0
LINE
  5
D0
330
4C
100
AcDbEntity
  8
1
  6
Continuous
 62
     7
100
AcDbLine
 10
263.5872731129152
 20
331.5861946792346
 30
0.0
 11
263.5872731129152
 21
332.3361946792346
 31
0.0
  0
LINE
  5
D1
330
4C
100
AcDbEntity
  8
1
  6
Continuous
 62
     7
100
AcDbLine
 10
211.4873444342698
 20
325.0861946792346
 30
0.0
 11
211.4873444342697
 21
325.8361946792346
 31
0.0
  0
LINE
  5
D2
330
4C
100
AcDbEntity
  8
1
  6
Continuous
 62
     2
100
AcDbLine
 10
237.3339783242573
 20
372.5030890660997
 30
0.0
 11
227.996995674447
 21
372.5030890660997
 31
0.0
  0
LINE
  5
D3
330
4C
100
AcDbEntity
  8
6
  6
Continuous
 62
     7
100
AcDbLine
 10
266.3872731129152
 20
310.8382423386745
 30
0.0
 11
237.3372731129152
 21
307.5960863386742
 31
0.0
  0
LINE
  5
D4
330
4C
100
AcDbEntity
  8
6
  6
Continuous
 62
     7
100
AcDbLine
 10
266.3733411129152
 20
314.8382423386745
 30
0.0
 11
237.3372731129152
 21
311.5882423386745
 31
0.0
  0
LINE
  5
D5
330
4C
100
AcDbEntity
  8
6
  6
Continuous
 62
     7
100
AcDbLine
 10
237.2935864462486
 20
311.5829316720076
 30
0.0
 11
264.0712651129153
 21
314.8382423386744
 31
0.0
  0
LINE
  5
D6
330
4C
100
AcDbEntity
  8
5
  6
Continuous
 62
     7
100
AcDbLine
 10
264.0712651129153
 20
314.8382423386744
 30
0.0
 11
266.3872731129152
 21
314.8382423386745
 31
0.0
  0
LINE
  5
D7
330
4C
100
AcDbEntity
  8
6
  6
Continuous
 62
     7
100
AcDbLine
 10
237.3217945940367
 20
311.5708281305342
 30
0.0
 11
208.2857265940367
 21
308.3208281305342
 31
0.0
  0
LINE
  5
D8
330
4C
100
AcDbEntity
  8
6
  6
Continuous
 62
     7
100
AcDbLine
 10
237.3217945940367
 20
307.578672130534
 30
0.0
 11
208.2717945940366
 21
304.3365147972008
 31
0.0
  0
LINE
  5
D9
330
4C
100
AcDbEntity
  8
6
  6
Continuous
 62
     7
100
AcDbLine
 10
210.9878752487246
 20
304.3208281305342
 30
0.0
 11
237.3217945940367
 21
307.5708281305342
 31
0.0
  0
LINE
  5
DA
330
4C
100
AcDbEntity
  8
5
  6
Continuous
 62
     7
100
AcDbLine
 10
208.2717945940366
 20
304.3208281305342
 30
0.0
 11
210.9878752487246
 21
304.3208281305342
 31
0.0
  0
LINE
  5
DB
330
4C
100
AcDbEntity
  8
1
  6
Continuous
 62
     7
100
AcDbLine
 10
263.5872731129152
 20
318.5882423386745
 30
0.0
 11
263.5872731129152
 21
319.3382423386745
 31
0.0
  0
LINE
  5
DC
330
4C
100
AcDbEntity
  8
1
  6
Continuous
 62
     7
100
AcDbLine
 10
263.5872731129152
 20
319.3382423386745
 30
0.0
 11
263.5872731129152
 21
320.0882423386745
 31
0.0
  0
LINE
  5
DD
330
4C
100
AcDbEntity
  8
6
  6
Continuous
 62
     7
100
AcDbLine
 10
263.5872731129152
 20
320.0882423386745
 30
0.0
 11
237.3372731129152
 21
316.8382423386745
 31
0.0
  0
LINE
  5
DE
330
4C
100
AcDbEntity
  8
6
  6
Continuous
 62
     7
100
AcDbLine
 10
263.5872731129152
 20
318.5882423386745
 30
0.0
 11
237.3372731129152
 21
315.3382423386745
 31
0.0
  0
LINE
  5
DF
330
4C
100
AcDbEntity
  8
6
  6
Continuous
 62
     7
100
AcDbLine
 10
237.3217945940367
 20
315.3208281305342
 30
0.0
 11
211.4718659153912
 21
312.0708281305342
 31
0.0
  0
LINE
  5
E0
330
4C
100
AcDbEntity
  8
6
  6
Continuous
 62
     7
100
AcDbLine
 10
237.3217945940367
 20
316.8208281305342
 30
0.0
 11
211.4718659153912
 21
313.5708281305342
 31
0.0
  0
LINE
  5
E1
330
4C
100
AcDbEntity
  8
1
  6
Continuous
 62
     7
100
AcDbLine
 10
211.4718659153911
 20
312.8208281305342
 30
0.0
 11
211.4718659153912
 21
313.5708281305342
 31
0.0
  0
LINE
  5
E2
330
4C
100
AcDbEntity
  8
1
  6
Continuous
 62
     7
100
AcDbLine
 10
211.4718659153912
 20
312.0708281305342
 30
0.0
 11
211.4718659153911
 21
312.8208281305342
 31
0.0
  0
LINE
  5
E3
330
4C
100
AcDbEntity
  8
1
  6
Continuous
 62
     7
100
AcDbLine
 10
263.5872731129152
 20
253.5882423386745
 30
0.0
 11
263.5872731129152
 21
254.3382423386745
 31
0.0
  0
LINE
  5
E4
330
4C
100
AcDbEntity
  8
1
  6
Continuous
 62
     7
100
AcDbLine
 10
263.5872731129152
 20
254.3382423386745
 30
0.0
 11
263.5872731129152
 21
255.0882423386745
 31
0.0
  0
LINE
  5
E5
330
4C
100
AcDbEntity
  8
6
  6
Continuous
 62
     7
100
AcDbLine
 10
263.5872731129152
 20
253.5882423386745
 30
0.0
 11
237.3372731129152
 21
250.3382423386744
 31
0.0
  0
LINE
  5
E6
330
4C
100
AcDbEntity
  8
6
  6
Continuous
 62
     7
100
AcDbLine
 10
263.5872731129152
 20
255.0882423386745
 30
0.0
 11
237.3372731129152
 21
251.8382423386744
 31
0.0
  0
LINE
  5
E7
330
4C
100
AcDbEntity
  8
6
  6
Continuous
 62
     7
100
AcDbLine
 10
237.3217945940367
 20
250.3208281305343
 30
0.0
 11
214.2823582814621
 21
247.4683264918346
 31
0.0
  0
LINE
  5
E8
330
4C
100
AcDbEntity
  8
6
  6
Continuous
 62
     7
100
AcDbLine
 10
237.3217945940367
 20
251.8208281305343
 30
0.0
 11
211.46256566285
 21
248.6192093104826
 31
0.0
  0
LINE
  5
E9
330
4C
100
AcDbEntity
  8
1
  6
Continuous
 62
     7
100
AcDbLine
 10
211.4718659153911
 20
247.836514797201
 30
0.0
 11
211.4718659153912
 21
248.586514797201
 31
0.0
  0
LINE
  5
EA
330
4C
100
AcDbEntity
  8
1
  6
Continuous
 62
     7
100
AcDbLine
 10
211.4718659153912
 20
247.2589470144871
 30
0.0
 11
211.4718659153911
 21
247.836514797201
 31
0.0
  0
LINE
  5
EB
330
4C
100
AcDbEntity
  8
5
  6
Continuous
 62
     7
100
AcDbLine
 10
214.2823582814621
 20
247.4683264918346
 30
0.0
 11
211.3101686362818
 21
247.2469006939928
 31
0.0
  0
LINE
  5
EC
330
4C
100
AcDbEntity
  8
6
  6
Continuous
 62
     7
100
AcDbLine
 10
237.3372731129152
 20
350.5861946792346
 30
0.0
 11
208.3012051129152
 21
347.3361946792346
 31
0.0
  0
LINE
  5
ED
330
4C
100
AcDbEntity
  8
1
  6
Continuous
 62
     7
100
AcDbLine
 10
263.5872731129152
 20
357.5861946792346
 30
0.0
 11
263.5872731129152
 21
358.3361946792346
 31
0.0
  0
LINE
  5
EE
330
4C
100
AcDbEntity
  8
1
  6
Continuous
 62
     7
100
AcDbLine
 10
263.5872731129152
 20
358.3361946792346
 30
0.0
 11
263.5872731129152
 21
359.0861946792346
 31
0.0
  0
LINE
  5
EF
330
4C
100
AcDbEntity
  8
6
  6
Continuous
 62
     7
100
AcDbLine
 10
263.5872731129152
 20
359.0861946792346
 30
0.0
 11
237.3372731129152
 21
355.8361946792346
 31
0.0
  0
LINE
  5
F0
330
4C
100
AcDbEntity
  8
6
  6
Continuous
 62
     7
100
AcDbLine
 10
263.5872731129152
 20
357.5861946792346
 30
0.0
 11
237.3372731129152
 21
354.3361946792346
 31
0.0
  0
LINE
  5
F1
330
4C
100
AcDbEntity
  8
6
  6
Continuous
 62
     7
100
AcDbLine
 10
237.3372731129152
 20
354.3361946792346
 30
0.0
 11
211.0872731129152
 21
351.0861946792346
 31
0.0
  0
LINE
  5
F2
330
4C
100
AcDbEntity
  8
6
  6
Continuous
 62
     7
100
AcDbLine
 10
237.3372731129152
 20
355.8361946792346
 30
0.0
 11
211.0872731129152
 21
352.5861946792346
 31
0.0
  0
LINE
  5
F3
330
4C
100
AcDbEntity
  8
1
  6
Continuous
 62
     7
100
AcDbLine
 10
211.0872731129152
 20
351.0861946792346
 30
0.0
 11
211.0872731129152
 21
351.8361946792346
 31
0.0
  0
LINE
  5
F4
330
4C
100
AcDbEntity
  8
1
  6
Continuous
 62
     7
100
AcDbLine
 10
211.0872731129152
 20
351.8361946792346
 30
0.0
 11
211.0872731129152
 21
352.5861946328575
 31
0.0
  0
LINE
  5
F5
330
4C
100
AcDbEntity
  8
6
  6
Continuous
 62
     7
100
AcDbLine
 10
266.3872731129152
 20
349.8361946792346
 30
0.0
 11
237.3372731129152
 21
346.5940386792345
 31
0.0
  0
LINE
  5
F6
330
4C
100
AcDbEntity
  8
6
  6
Continuous
 62
     7
100
AcDbLine
 10
263.5872731129152
 20
363.7331550122716
 30
0.0
 11
237.3372731129152
 21
361.521676345605
 31
0.0
  0
LINE
  5
F7
330
4C
100
AcDbEntity
  8
5
  6
Continuous
 62
     7
100
AcDbLine
 10
208.5725904462485
 20
360.0831550122715
 30
0.0
 11
210.6032822867872
 21
359.4246185532199
 31
0.0
  0
LINE
  5
F8
330
4C
100
AcDbEntity
  8
1
  6
Continuous
 62
     7
100
AcDbLine
 10
211.0872731129152
 20
352.5861946328575
 30
0.0
 11
210.6032822867872
 21
359.4246185532199
 31
0.0
  0
LINE
  5
F9
330
4C
100
AcDbEntity
  8
5
  6
Continuous
 62
     7
100
AcDbLine
 10
210.6032822867872
 20
359.4246185532199
 30
0.0
 11
210.9831611129152
 21
359.3014270122716
 31
0.0
  0
LINE
  5
FA
330
4C
100
AcDbEntity
  8
5
  6
Continuous
 62
     7
100
AcDbLine
 10
264.1226321744495
 20
363.8938364299421
 30
0.0
 11
263.5872731129152
 21
363.7331550122716
 31
0.0
  0
ARC
  5
FB
330
4C
100
AcDbEntity
  8
5
  6
Continuous
 62
     7
100
AcDbCircle
 10
244.03378401113
 20
238.8087768647966
 30
0.0
 40
36.5348439999998
100
AcDbArc
 50
166.9911586587234
 51
186.853285999999
  0
ARC
  5
FC
330
4C
100
AcDbEntity
  8
5
  6
Continuous
 62
     7
100
AcDbCircle
 10
240.9071531129147
 20
228.9415569009664
 30
0.0
 40
33.60161733333319
100
AcDbArc
 50
170.5661296745148
 51
185.8736097967531
  0
ARC
  5
FD
330
4C
100
AcDbEntity
  8
1
  6
Continuous
 62
     7
100
AcDbCircle
 10
241.253684582058
 20
267.3208281305343
 30
0.0
 40
30.33181866666732
100
AcDbArc
 50
183.7806750000013
 51
190.8346218230614
  0
ARC
  5
FE
330
4C
100
AcDbEntity
  8
5
  6
Continuous
 62
     7
100
AcDbCircle
 10
210.5217945940366
 20
254.3208281305343
 30
0.0
 40
2.99999999999998
100
AcDbArc
 50
138.1896849999871
 51
221.4096220000147
  0
ARC
  5
FF
330
4C
100
AcDbEntity
  8
1
  6
Continuous
 62
     7
100
AcDbCircle
 10
241.253684582058
 20
254.3208281305343
 30
0.0
 40
30.33181866666634
100
AcDbArc
 50
168.974660394963
 51
175.7275120000007
  0
ARC
  5
100
330
4C
100
AcDbEntity
  8
5
  6
Continuous
 62
     7
100
AcDbCircle
 10
210.5217945940366
 20
267.3208281305343
 30
0.0
 40
2.999999999999961
100
AcDbArc
 50
138.1896849999875
 51
221.4096220000139
  0
ARC
  5
101
330
4C
100
AcDbEntity
  8
1
  6
Continuous
 62
     7
100
AcDbCircle
 10
241.253684582058
 20
267.3208281305343
 30
0.0
 40
30.33181866666686
100
AcDbArc
 50
169.0723140000012
 51
175.7275120000008
  0
ARC
  5
102
330
4C
100
AcDbEntity
  8
5
  6
Continuous
 62
     7
100
AcDbCircle
 10
210.5217945940366
 20
280.3208281305342
 30
0.0
 40
3.000000000000037
100
AcDbArc
 50
138.1896849999859
 51
221.4096220000131
  0
ARC
  5
103
330
4C
100
AcDbEntity
  8
5
  6
Continuous
 62
     7
100
AcDbCircle
 10
210.5217945940366
 20
293.3208281305342
 30
0.0
 40
3.000000000000037
100
AcDbArc
 50
138.1896849999859
 51
221.4096220000131
  0
ARC
  5
104
330
4C
100
AcDbEntity
  8
1
  6
Continuous
 62
     7
100
AcDbCircle
 10
241.253684582058
 20
280.3208281305342
 30
0.0
 40
30.33181866666732
100
AcDbArc
 50
183.7806750000011
 51
190.9276859999989
  0
ARC
  5
105
330
4C
100
AcDbEntity
  8
1
  6
Continuous
 62
     7
100
AcDbCircle
 10
241.253684582058
 20
280.3208281305342
 30
0.0
 40
30.33181866666687
100
AcDbArc
 50
169.0723140000011
 51
175.7275120000008
  0
ARC
  5
106
330
4C
100
AcDbEntity
  8
1
  6
Continuous
 62
     7
100
AcDbCircle
 10
241.253684582058
 20
293.3208281305342
 30
0.0
 40
30.33181866666732
100
AcDbArc
 50
183.7806750000011
 51
190.9276859999989
  0
ARC
  5
107
330
4C
100
AcDbEntity
  8
1
  6
Continuous
 62
     7
100
AcDbCircle
 10
241.253684582058
 20
293.3208281305342
 30
0.0
 40
30.33181866666687
100
AcDbArc
 50
169.0723140000011
 51
175.7275120000008
  0
ARC
  5
108
330
4C
100
AcDbEntity
  8
1
  6
Continuous
 62
     7
100
AcDbCircle
 10
241.253684582058
 20
306.3208281305342
 30
0.0
 40
30.33181866666732
100
AcDbArc
 50
183.7806750000011
 51
190.9276859999989
  0
ARC
  5
109
330
4C
100
AcDbEntity
  8
1
  6
Continuous
 62
     7
100
AcDbCircle
 10
259.4267837795819
 20
240.5032529009665
 30
0.0
 40
4.495195999999662
100
AcDbArc
 50
356.7285464240525
 51
5.46391000000825
  0
ARC
  5
10A
330
4C
100
AcDbEntity
  8
1
  6
Continuous
 62
     7
100
AcDbCircle
 10
233.805455779582
 20
325.8361946792346
 30
0.0
 40
30.331818666667
100
AcDbArc
 50
3.78067500000112
 51
10.92768599999904
  0
ARC
  5
10B
330
4C
100
AcDbEntity
  8
1
  6
Continuous
 62
     7
100
AcDbCircle
 10
233.805455779582
 20
338.8361946792346
 30
0.0
 40
30.33181866666656
100
AcDbArc
 50
349.072314000001
 51
355.7259760000006
  0
ARC
  5
10C
330
4C
100
AcDbEntity
  8
1
  6
Continuous
 62
     7
100
AcDbCircle
 10
233.805455779582
 20
338.8361946792346
 30
0.0
 40
30.331818666667
100
AcDbArc
 50
3.78067500000112
 51
10.92768599999904
  0
ARC
  5
10D
330
4C
100
AcDbEntity
  8
1
  6
Continuous
 62
     7
100
AcDbCircle
 10
233.805455779582
 20
351.8361946792346
 30
0.0
 40
30.33181866666656
100
AcDbArc
 50
349.072314000001
 51
355.7259760000011
  0
ARC
  5
10E
330
4C
100
AcDbEntity
  8
1
  6
Continuous
 62
     7
100
AcDbCircle
 10
240.8690917795819
 20
345.3361946792346
 30
0.0
 40
30.33181866666723
100
AcDbArc
 50
183.7806750000011
 51
190.927685999999
  0
ARC
  5
10F
330
4C
100
AcDbEntity
  8
1
  6
Continuous
 62
     7
100
AcDbCircle
 10
240.8690917795819
 20
332.3361946792346
 30
0.0
 40
30.33181866666676
100
AcDbArc
 50
169.072314000001
 51
175.7570649999995
  0
ARC
  5
110
330
4C
100
AcDbEntity
  8
1
  6
Continuous
 62
     7
100
AcDbCircle
 10
241.2691631009366
 20
332.3361946792346
 30
0.0
 40
30.33181866666732
100
AcDbArc
 50
183.7806750000011
 51
190.9276859999989
  0
ARC
  5
111
330
4C
100
AcDbEntity
  8
1
  6
Continuous
 62
     7
100
AcDbCircle
 10
241.2691631009366
 20
319.3361946792346
 30
0.0
 40
30.33181866666684
100
AcDbArc
 50
169.0723140000011
 51
175.7275120000011
  0
ARC
  5
112
330
4C
100
AcDbEntity
  8
1
  6
Continuous
 62
     7
100
AcDbCircle
 10
233.805455779582
 20
312.8382423386745
 30
0.0
 40
30.33181866666657
100
AcDbArc
 50
349.0723140000009
 51
355.7259760000002
  0
ARC
  5
113
330
4C
100
AcDbEntity
  8
1
  6
Continuous
 62
     7
100
AcDbCircle
 10
233.805455779582
 20
299.8382423386745
 30
0.0
 40
30.331818666667
100
AcDbArc
 50
3.7806750000009
 51
10.92768599999883
  0
ARC
  5
114
330
4C
100
AcDbEntity
  8
1
  6
Continuous
 62
     7
100
AcDbCircle
 10
233.805455779582
 20
299.8382423386745
 30
0.0
 40
30.33181866666665
100
AcDbArc
 50
349.0723140000001
 51
355.7259760000003
  0
ARC
  5
115
330
4C
100
AcDbEntity
  8
1
  6
Continuous
 62
     7
100
AcDbCircle
 10
233.805455779582
 20
286.8382423386745
 30
0.0
 40
30.33181866666697
100
AcDbArc
 50
3.78067500000015
 51
10.92768599999883
  0
ARC
  5
116
330
4C
100
AcDbEntity
  8
1
  6
Continuous
 62
     7
100
AcDbCircle
 10
233.805455779582
 20
286.8382423386745
 30
0.0
 40
30.33181866666657
100
AcDbArc
 50
349.0723140000009
 51
355.7259760000003
  0
ARC
  5
117
330
4C
100
AcDbEntity
  8
1
  6
Continuous
 62
     7
100
AcDbCircle
 10
233.805455779582
 20
273.8382423386744
 30
0.0
 40
30.331818666667
100
AcDbArc
 50
3.78067500000112
 51
10.92768599999904
  0
ARC
  5
118
330
4C
100
AcDbEntity
  8
1
  6
Continuous
 62
     7
100
AcDbCircle
 10
233.805455779582
 20
273.8382423386744
 30
0.0
 40
30.33181866666655
100
AcDbArc
 50
349.0723140000011
 51
355.7259760000006
  0
ARC
  5
119
330
4C
100
AcDbEntity
  8
1
  6
Continuous
 62
     7
100
AcDbCircle
 10
233.805455779582
 20
260.8382423386745
 30
0.0
 40
30.331818666667
100
AcDbArc
 50
3.7806750000009
 51
10.92768599999883
  0
ARC
  5
11A
330
4C
100
AcDbEntity
  8
5
  6
Continuous
 62
     7
100
AcDbCircle
 10
264.1372731129152
 20
260.8382423386745
 30
0.0
 40
3.00000000000017
100
AcDbArc
 50
318.590377999983
 51
41.81031500000902
  0
ARC
  5
11B
330
4C
100
AcDbEntity
  8
5
  6
Continuous
 62
     7
100
AcDbCircle
 10
264.1372731129152
 20
273.8382423386744
 30
0.0
 40
3.000000000000095
100
AcDbArc
 50
318.5903779999846
 51
41.81031500001063
  0
ARC
  5
11C
330
4C
100
AcDbEntity
  8
5
  6
Continuous
 62
     7
100
AcDbCircle
 10
264.1372731129152
 20
286.8382423386745
 30
0.0
 40
3.00000000000017
100
AcDbArc
 50
318.590377999983
 51
41.81031500000902
  0
ARC
  5
11D
330
4C
100
AcDbEntity
  8
5
  6
Continuous
 62
     7
100
AcDbCircle
 10
264.1372731129152
 20
299.8382423386745
 30
0.0
 40
3.00000000000017
100
AcDbArc
 50
318.590377999983
 51
41.81031500000741
  0
ARC
  5
11E
330
4C
100
AcDbEntity
  8
5
  6
Continuous
 62
     7
100
AcDbCircle
 10
264.1372731129152
 20
351.8361946792346
 30
0.0
 40
3.000000000000057
100
AcDbArc
 50
318.5903779999854
 51
41.81031500001306
  0
ARC
  5
11F
330
4C
100
AcDbEntity
  8
5
  6
Continuous
 62
     7
100
AcDbCircle
 10
210.5372731129152
 20
345.3361946792346
 30
0.0
 40
3.000000000000016
100
AcDbArc
 50
138.1896849999855
 51
221.4096220000134
  0
ARC
  5
120
330
4C
100
AcDbEntity
  8
5
  6
Continuous
 62
     7
100
AcDbCircle
 10
264.1372731129152
 20
338.8361946792346
 30
0.0
 40
3.000000000000057
100
AcDbArc
 50
318.5903779999854
 51
41.81031500001306
  0
ARC
  5
121
330
4C
100
AcDbEntity
  8
5
  6
Continuous
 62
     7
100
AcDbCircle
 10
210.5372731129152
 20
332.3361946792346
 30
0.0
 40
3.000000000000016
100
AcDbArc
 50
138.1896849999855
 51
221.4096220000134
  0
ARC
  5
122
330
4C
100
AcDbEntity
  8
5
  6
Continuous
 62
     7
100
AcDbCircle
 10
264.1372731129152
 20
325.8361946792346
 30
0.0
 40
3.000000000000057
100
AcDbArc
 50
318.5903779999854
 51
41.81031500001306
  0
ARC
  5
123
330
4C
100
AcDbEntity
  8
5
  6
Continuous
 62
     7
100
AcDbCircle
 10
210.5372731129152
 20
319.3361946792346
 30
0.0
 40
3.000000000000016
100
AcDbArc
 50
138.1896849999855
 51
221.4096220000134
  0
ARC
  5
124
330
4C
100
AcDbEntity
  8
5
  6
Continuous
 62
     7
100
AcDbCircle
 10
233.7673931129152
 20
228.9415569009664
 30
0.0
 40
33.60161733333337
100
AcDbArc
 50
354.1263902032469
 51
11.06615199999971
  0
ARC
  5
125
330
4C
100
AcDbEntity
  8
5
  6
Continuous
 62
     7
100
AcDbCircle
 10
216.0323197795819
 20
233.9181622342997
 30
0.0
 40
50.73329733333358
100
AcDbArc
 50
1.6637300000006
 51
4.05170500000016
  0
ARC
  5
126
330
4C
100
AcDbEntity
  8
5
  6
Continuous
 62
     7
100
AcDbCircle
 10
216.0323197795819
 20
233.9181622342997
 30
0.0
 40
50.73329733333302
100
AcDbArc
 50
4.05170500000016
 51
7.45063400000016
  0
ARC
  5
127
330
4C
100
AcDbEntity
  8
5
  6
Continuous
 62
     7
100
AcDbCircle
 10
229.7848117795819
 20
246.0197662342997
 30
0.0
 40
36.53484399999986
100
AcDbArc
 50
353.146714000001
 51
8.33568099999901
  0
ARC
  5
128
330
4C
100
AcDbEntity
  8
5
  6
Continuous
 62
     7
100
AcDbCircle
 10
175.2403731129152
 20
388.9349963456048
 30
0.0
 40
91.64725066666699
100
AcDbArc
 50
352.0650150000001
 51
356.7709619999998
  0
ARC
  5
129
330
4C
100
AcDbEntity
  8
5
  6
Continuous
 62
     7
100
AcDbCircle
 10
125.5126824462485
 20
398.3432323456048
 30
0.0
 40
141.9790586666671
100
AcDbArc
 50
354.109692
 51
357.3270930000002
  0
ARC
  5
12A
330
4C
100
AcDbEntity
  8
5
  6
Continuous
 62
     7
100
AcDbCircle
 10
240.9071544462486
 20
381.1437923456047
 30
0.0
 40
33.60161733333297
100
AcDbArc
 50
182.4904389999995
 51
191.066151999999
  0
ARC
  5
12B
330
4C
100
AcDbEntity
  8
5
  6
Continuous
 62
     7
100
AcDbCircle
 10
232.8473171129152
 20
375.5562696789383
 30
0.0
 40
24.93190666666685
100
AcDbArc
 50
181.9814560000009
 51
190.8031369999996
  0
ARC
  5
12C
330
4C
100
AcDbEntity
  8
1
  6
Continuous
 62
     7
100
AcDbCircle
 10
215.2477637795819
 20
369.582096345605
 30
0.0
 40
4.495195999999904
100
AcDbArc
 50
168.8594350000043
 51
185.4639100000106
  0
ARC
  5
12D
330
4C
100
AcDbEntity
  8
5
  6
Continuous
 62
     7
100
AcDbCircle
 10
207.4015651129152
 20
370.0054696789383
 30
0.0
 40
58.94381733333279
100
AcDbArc
 50
354.6242029999994
 51
6.11376000000051
  0
ARC
  5
12E
330
4C
100
AcDbEntity
  8
5
  6
Continuous
 62
     7
100
AcDbCircle
 10
244.8897357795819
 20
364.0655830122717
 30
0.0
 40
36.53484399999956
100
AcDbArc
 50
172.4227740000001
 51
186.2578780000003
  0
ARC
  5
12F
330
4C
100
AcDbEntity
  8
5
  6
Continuous
 62
     7
100
AcDbCircle
 10
264.1372731129152
 20
312.8382423386745
 30
0.0
 40
3.00000000000017
100
AcDbArc
 50
318.590377999983
 51
41.81031500000902
  0
ARC
  5
130
330
4C
100
AcDbEntity
  8
5
  6
Continuous
 62
     7
100
AcDbCircle
 10
210.5217945940366
 20
306.3208281305342
 30
0.0
 40
3.000000000000037
100
AcDbArc
 50
138.1896849999859
 51
221.4096220000131
  0
ARC
  5
131
330
4C
100
AcDbEntity
  8
1
  6
Continuous
 62
     7
100
AcDbCircle
 10
233.805455779582
 20
312.8382423386745
 30
0.0
 40
30.331818666667
100
AcDbArc
 50
3.7806750000009
 51
10.92768599999883
  0
ARC
  5
132
330
4C
100
AcDbEntity
  8
1
  6
Continuous
 62
     7
100
AcDbCircle
 10
241.253684582058
 20
306.3208281305342
 30
0.0
 40
30.33181866666687
100
AcDbArc
 50
169.0723140000011
 51
175.7275120000008
  0
ARC
  5
133
330
4C
100
AcDbEntity
  8
1
  6
Continuous
 62
     7
100
AcDbCircle
 10
241.253684582058
 20
319.3208281305342
 30
0.0
 40
30.33181866666732
100
AcDbArc
 50
183.7806750000011
 51
190.9276859999989
  0
ARC
  5
134
330
4C
100
AcDbEntity
  8
1
  6
Continuous
 62
     7
100
AcDbCircle
 10
233.805455779582
 20
247.8382423386744
 30
0.0
 40
30.33181866666649
100
AcDbArc
 50
6.30405013331154
 51
10.92768599999899
  0
ARC
  5
135
330
4C
100
AcDbEntity
  8
1
  6
Continuous
 62
     7
100
AcDbCircle
 10
233.805455779582
 20
260.8382423386745
 30
0.0
 40
30.33181866666658
100
AcDbArc
 50
349.0723140000009
 51
355.7259760000003
  0
ARC
  5
136
330
4C
100
AcDbEntity
  8
1
  6
Continuous
 62
     7
100
AcDbCircle
 10
241.253684582058
 20
254.3208281305343
 30
0.0
 40
30.33181866666732
100
AcDbArc
 50
183.7806750000012
 51
190.8346218230616
  0
ARC
  5
137
330
4C
100
AcDbEntity
  8
1
  6
Continuous
 62
     7
100
AcDbCircle
 10
233.805455779582
 20
351.8361946792346
 30
0.0
 40
30.331818666667
100
AcDbArc
 50
3.78067500000112
 51
10.92768599999904
  0
ARC
  5
138
330
4C
100
AcDbEntity
  8
1
  6
Continuous
 62
     7
100
AcDbCircle
 10
233.805455779582
 20
364.8361946792346
 30
0.0
 40
30.33181866666656
100
AcDbArc
 50
349.072314000001
 51
358.2196306493328
  0
ARC
  5
139
330
4C
100
AcDbEntity
  8
1
  6
Continuous
 62
     7
100
AcDbCircle
 10
240.8690917795819
 20
345.3361946792346
 30
0.0
 40
30.33181866666676
100
AcDbArc
 50
169.072314000001
 51
175.7570649999995
  0
ARC
  5
13A
330
4C
100
AcDbEntity
  8
1
  6
Continuous
 62
     7
100
AcDbCircle
 10
233.805455779582
 20
325.8382423386744
 30
0.0
 40
30.33181866666657
100
AcDbArc
 50
349.0723140000009
 51
355.7259760000002
  0
ENDBLK
  5
4E
330
4C
100
AcDbEntity
  8
0
100
AcDbBlockEnd
  0
BLOCK
  5
50
330
4F
100
AcDbEntity
  8
0
100
AcDbBlockBegin
  2
ソケット_DS_
 70
     0
 10
351.3454614197428
 20
0.0
 30
0.0
  3
ソケット_DS_
  1

  0
LINE
  5
13B
330
4F
100
AcDbEntity
  8
1
  6
Continuous
 62
     7
100
AcDbLine
 10
203.8373568629153
 20
200.5030890660997
 30
0.0
 11
203.8373568629153
 21
225.5029565660998
 31
0.0
  0
LINE
  5
13C
330
4F
100
AcDbEntity
  8
1
  6
Continuous
 62
     7
100
AcDbLine
 10
270.8371893629152
 20
225.5029565660998
 30
0.0
 11
203.8373568629153
 21
225.5029565660998
 31
0.0
  0
LINE
  5
13D
330
4F
100
AcDbEntity
  8
1
  6
Continuous
 62
     7
100
AcDbLine
 10
203.8373568629153
 20
172.5030890660997
 30
0.0
 11
203.8373568629153
 21
200.5030890660997
 31
0.0
  0
LINE
  5
13E
330
4F
100
AcDbEntity
  8
1
  6
Continuous
 62
     7
100
AcDbLine
 10
237.3372731129153
 20
172.5030890660997
 30
0.0
 11
203.8373568629153
 21
172.5030890660997
 31
0.0
  0
LINE
  5
13F
330
4F
100
AcDbEntity
  8
1
  6
Continuous
 62
     7
100
AcDbLine
 10
270.8371893629152
 20
172.5030890660997
 30
0.0
 11
237.3372731129153
 21
172.5030890660997
 31
0.0
  0
LINE
  5
140
330
4F
100
AcDbEntity
  8
1
  6
Continuous
 62
     7
100
AcDbLine
 10
270.8371893629152
 20
172.5030890660997
 30
0.0
 11
270.8371893629152
 21
225.5029565660998
 31
0.0
  0
LINE
  5
141
330
4F
100
AcDbEntity
  8
2
  6
PHANTOM
 62
     4
100
AcDbLine
 10
272.7196313234651
 20
199.0030228160998
 30
0.0
 11
200.7090860169453
 21
199.0030228160998
 31
0.0
  0
ENDBLK
  5
51
330
4F
100
AcDbEntity
  8
0
100
AcDbBlockEnd
  0
BLOCK
  5
53
330
52
100
AcDbEntity
  8
0
100
AcDbBlockBegin
  2
開示A4
 70
     0
 10
0.0
 20
0.0
 30
0.0
  3
開示A4
  1

  0
POINT
  5
142
330
52
100
AcDbEntity
  8
1
 62
     4
100
AcDbPoint
 10
34.0
 20
34.00000000000001
 30
0.0
  0
POINT
  5
143
330
52
100
AcDbEntity
  8
1
 62
     4
100
AcDbPoint
 10
57.0
 20
12.25
 30
0.0
  0
POINT
  5
144
330
52
100
AcDbEntity
  8
1
 62
     4
100
AcDbPoint
 10
57.0
 20
20.75000000000001
 30
0.0
  0
POINT
  5
145
330
52
100
AcDbEntity
  8
1
 62
     4
100
AcDbPoint
 10
57.0
 20
24.75000000000001
 30
0.0
  0
POINT
  5
146
330
52
100
AcDbEntity
  8
1
 62
     4
100
AcDbPoint
 10
57.0
 20
16.25
 30
0.0
  0
POINT
  5
147
330
52
100
AcDbEntity
  8
1
 62
     4
100
AcDbPoint
 10
157.5
 20
19.00000000000001
 30
0.0
  0
POINT
  5
148
330
52
100
AcDbEntity
  8
1
 62
     4
100
AcDbPoint
 10
47.5
 20
282.0000000000003
 30
0.0
  0
POINT
  5
149
330
52
100
AcDbEntity
  8
1
 62
     4
100
AcDbPoint
 10
57.0
 20
22.75000000000001
 30
0.0
  0
POINT
  5
14A
330
52
100
AcDbEntity
  8
1
 62
     4
100
AcDbPoint
 10
57.0
 20
14.25
 30
0.0
  0
POINT
  5
14B
330
52
100
AcDbEntity
  8
1
 62
     4
100
AcDbPoint
 10
157.5
 20
12.5
 30
0.0
  0
POINT
  5
14C
330
52
100
AcDbEntity
  8
1
 62
     4
100
AcDbPoint
 10
163.25
 20
12.5
 30
0.0
  0
POINT
  5
14D
330
52
100
AcDbEntity
  8
1
 62
     4
100
AcDbPoint
 10
151.75
 20
12.5
 30
0.0
  0
POINT
  5
14E
330
52
100
AcDbEntity
  8
1
 62
     4
100
AcDbPoint
 10
134.75
 20
12.5
 30
0.0
  0
POINT
  5
14F
330
52
100
AcDbEntity
  8
1
 62
     4
100
AcDbPoint
 10
146.25
 20
12.5
 30
0.0
  0
POINT
  5
150
330
52
100
AcDbEntity
  8
1
 62
     4
100
AcDbPoint
 10
140.5
 20
12.5
 30
0.0
  0
POINT
  5
151
330
52
100
AcDbEntity
  8
1
 62
     4
100
AcDbPoint
 10
140.5
 20
19.00000000000001
 30
0.0
  0
POINT
  5
152
330
52
100
AcDbEntity
  8
1
 62
     4
100
AcDbPoint
 10
117.75
 20
12.5
 30
0.0
  0
POINT
  5
153
330
52
100
AcDbEntity
  8
1
 62
     4
100
AcDbPoint
 10
129.25
 20
12.5
 30
0.0
  0
POINT
  5
154
330
52
100
AcDbEntity
  8
1
 62
     4
100
AcDbPoint
 10
123.5
 20
12.5
 30
0.0
  0
POINT
  5
155
330
52
100
AcDbEntity
  8
1
 62
     4
100
AcDbPoint
 10
123.5
 20
19.00000000000001
 30
0.0
  0
POINT
  5
156
330
52
100
AcDbEntity
  8
1
 62
     4
100
AcDbPoint
 10
100.75
 20
12.5
 30
0.0
  0
POINT
  5
157
330
52
100
AcDbEntity
  8
1
 62
     4
100
AcDbPoint
 10
112.25
 20
12.5
 30
0.0
  0
POINT
  5
158
330
52
100
AcDbEntity
  8
1
 62
     4
100
AcDbPoint
 10
106.5
 20
12.5
 30
0.0
  0
POINT
  5
159
330
52
100
AcDbEntity
  8
1
 62
     4
100
AcDbPoint
 10
106.5
 20
19.00000000000001
 30
0.0
  0
POINT
  5
15A
330
52
100
AcDbEntity
  8
1
 62
     4
100
AcDbPoint
 10
85.25
 20
17.0
 30
0.0
  0
POINT
  5
15B
330
52
100
AcDbEntity
  8
1
 62
     4
100
AcDbPoint
 10
93.75
 20
17.0
 30
0.0
  0
LINE
  5
15C
330
52
100
AcDbEntity
  8
1
  6
Continuous
 62
     2
100
AcDbLine
 10
81.0
 20
27.00000000000001
 30
0.0
 11
81.0
 21
10.0
 31
0.0
  0
LINE
  5
15D
330
52
100
AcDbEntity
  8
1
  6
DOT_CENTER
 62
     2
100
AcDbLine
 10
187.0
 20
26.50000000000001
 30
0.0
 11
187.0
 21
20.50000000000001
 31
0.0
  0
LINE
  5
15E
330
52
100
AcDbEntity
  8
1
  6
DOT_CENTER
 62
     2
100
AcDbLine
 10
184.0
 20
23.50000000000001
 30
0.0
 11
197.0
 21
23.50000000000001
 31
0.0
  0
LINE
  5
15F
330
52
100
AcDbEntity
  8
1
  6
Continuous
 62
     7
100
AcDbLine
 10
196.0
 20
21.50000000000001
 30
0.0
 11
191.0
 21
22.30000000000001
 31
0.0
  0
LINE
  5
160
330
52
100
AcDbEntity
  8
1
  6
Continuous
 62
     7
100
AcDbLine
 10
196.0
 20
25.50000000000001
 30
0.0
 11
196.0
 21
21.50000000000001
 31
0.0
  0
LINE
  5
161
330
52
100
AcDbEntity
  8
1
  6
Continuous
 62
     7
100
AcDbLine
 10
191.0
 20
24.70000000000001
 30
0.0
 11
196.0
 21
25.50000000000001
 31
0.0
  0
LINE
  5
162
330
52
100
AcDbEntity
  8
1
  6
Continuous
 62
     7
100
AcDbLine
 10
191.0
 20
24.70000000000001
 30
0.0
 11
191.0
 21
22.30000000000001
 31
0.0
  0
LINE
  5
163
330
52
100
AcDbEntity
  8
1
  6
Continuous
 62
     2
100
AcDbLine
 10
33.0
 20
27.0
 30
0.0
 11
33.0
 21
10.0
 31
0.0
  0
LINE
  5
164
330
52
100
AcDbEntity
  8
1
  6
Continuous
 62
     2
100
AcDbLine
 10
25.0
 20
18.50000000000001
 30
0.0
 11
81.0
 21
18.50000000000001
 31
0.0
  0
LINE
  5
165
330
52
100
AcDbEntity
  8
1
  6
Continuous
 62
     7
100
AcDbLine
 10
200.0
 20
287.0000000000003
 30
0.0
 11
105.0
 21
287.0000000000003
 31
0.0
  0
LINE
  5
166
330
52
100
AcDbEntity
  8
1
  6
Continuous
 62
     7
100
AcDbLine
 10
200.0
 20
10.0
 30
0.0
 11
200.0
 21
148.5
 31
0.0
  0
LINE
  5
167
330
52
100
AcDbEntity
  8
1
  6
Continuous
 62
     7
100
AcDbLine
 10
25.0
 20
10.0
 30
0.0
 11
105.0
 21
10.0
 31
0.0
  0
LINE
  5
168
330
52
100
AcDbEntity
  8
1
  6
PHANTOM
 62
     4
100
AcDbLine
 10
0.0
 20
297.0
 30
0.0
 11
0.0
 21
0.0
 31
0.0
  0
LINE
  5
169
330
52
100
AcDbEntity
  8
1
  6
PHANTOM
 62
     4
100
AcDbLine
 10
210.0
 20
297.0
 30
0.0
 11
0.0
 21
297.0
 31
0.0
  0
LINE
  5
16A
330
52
100
AcDbEntity
  8
1
  6
PHANTOM
 62
     4
100
AcDbLine
 10
210.0
 20
0.0
 30
0.0
 11
210.0
 21
297.0
 31
0.0
  0
LINE
  5
16B
330
52
100
AcDbEntity
  8
1
  6
PHANTOM
 62
     4
100
AcDbLine
 10
0.0
 20
0.0
 30
0.0
 11
210.0
 21
0.0
 31
0.0
  0
LINE
  5
16C
330
52
100
AcDbEntity
  8
1
  6
Continuous
 62
     7
100
AcDbLine
 10
25.0
 20
41.0
 30
0.0
 11
200.0
 21
41.0
 31
0.0
  0
LINE
  5
16D
330
52
100
AcDbEntity
  8
1
  6
Continuous
 62
     7
100
AcDbLine
 10
200.0
 20
27.00000000000001
 30
0.0
 11
25.0
 21
27.00000000000001
 31
0.0
  0
LINE
  5
16E
330
52
100
AcDbEntity
  8
1
  6
Continuous
 62
     2
100
AcDbLine
 10
33.0
 20
41.00000000000001
 30
0.0
 11
33.0
 21
27.0
 31
0.0
  0
LINE
  5
16F
330
52
100
AcDbEntity
  8
1
  6
Continuous
 62
     2
100
AcDbLine
 10
55.0
 20
287.0000000000003
 30
0.0
 11
55.0
 21
277.0000000000003
 31
0.0
  0
LINE
  5
170
330
52
100
AcDbEntity
  8
1
  6
Continuous
 62
     2
100
AcDbLine
 10
40.0
 20
287.0000000000003
 30
0.0
 11
40.0
 21
277.0000000000003
 31
0.0
  0
LINE
  5
171
330
52
100
AcDbEntity
  8
1
  6
Continuous
 62
     7
100
AcDbLine
 10
25.0
 20
10.0
 30
0.0
 11
25.0
 21
148.5
 31
0.0
  0
LINE
  5
172
330
52
100
AcDbEntity
  8
1
  6
Continuous
 62
     2
100
AcDbLine
 10
55.0
 20
277.0000000000003
 30
0.0
 11
25.0
 21
277.0000000000003
 31
0.0
  0
LINE
  5
173
330
52
100
AcDbEntity
  8
1
  6
Continuous
 62
     2
100
AcDbLine
 10
166.0
 20
27.00000000000001
 30
0.0
 11
166.0
 21
10.0
 31
0.0
  0
LINE
  5
174
330
52
100
AcDbEntity
  8
1
  6
Continuous
 62
     2
100
AcDbLine
 10
132.0
 20
27.00000000000001
 30
0.0
 11
132.0
 21
9.99999999999999
 31
0.0
  0
LINE
  5
175
330
52
100
AcDbEntity
  8
1
  6
Continuous
 62
     2
100
AcDbLine
 10
149.0
 20
27.00000000000001
 30
0.0
 11
149.0
 21
10.0
 31
0.0
  0
LINE
  5
176
330
52
100
AcDbEntity
  8
1
  6
Continuous
 62
     2
100
AcDbLine
 10
115.0
 20
27.00000000000001
 30
0.0
 11
115.0
 21
9.99999999999999
 31
0.0
  0
LINE
  5
177
330
52
100
AcDbEntity
  8
1
  6
Continuous
 62
     2
100
AcDbLine
 10
98.0
 20
27.00000000000001
 30
0.0
 11
98.0
 21
9.99999999999999
 31
0.0
  0
LINE
  5
178
330
52
100
AcDbEntity
  8
1
  6
Continuous
 62
     2
100
AcDbLine
 10
166.0
 20
20.00000000000001
 30
0.0
 11
200.0
 21
20.00000000000001
 31
0.0
  0
LINE
  5
179
330
52
100
AcDbEntity
  8
1
  6
Continuous
 62
     2
100
AcDbLine
 10
105.0
 20
287.0000000000003
 30
0.0
 11
105.0
 21
292.0000000000003
 31
0.0
  0
LINE
  5
17A
330
52
100
AcDbEntity
  8
1
  6
Continuous
 62
     7
100
AcDbLine
 10
105.0
 20
287.0000000000003
 30
0.0
 11
25.0
 21
287.0000000000003
 31
0.0
  0
LINE
  5
17B
330
52
100
AcDbEntity
  8
1
  6
Continuous
 62
     2
100
AcDbLine
 10
25.0
 20
148.5
 30
0.0
 11
20.0
 21
148.5
 31
0.0
  0
LINE
  5
17C
330
52
100
AcDbEntity
  8
1
  6
Continuous
 62
     7
100
AcDbLine
 10
25.0
 20
148.5
 30
0.0
 11
25.0
 21
287.0000000000003
 31
0.0
  0
LINE
  5
17D
330
52
100
AcDbEntity
  8
1
  6
Continuous
 62
     2
100
AcDbLine
 10
200.0
 20
148.5
 30
0.0
 11
205.0
 21
148.5
 31
0.0
  0
LINE
  5
17E
330
52
100
AcDbEntity
  8
1
  6
Continuous
 62
     7
100
AcDbLine
 10
200.0
 20
148.5
 30
0.0
 11
200.0
 21
287.0000000000003
 31
0.0
  0
LINE
  5
17F
330
52
100
AcDbEntity
  8
1
  6
Continuous
 62
     2
100
AcDbLine
 10
105.0
 20
10.0
 30
0.0
 11
105.0
 21
5.0
 31
0.0
  0
LINE
  5
180
330
52
100
AcDbEntity
  8
1
  6
Continuous
 62
     7
100
AcDbLine
 10
105.0
 20
10.0
 30
0.0
 11
200.0
 21
10.0
 31
0.0
  0
CIRCLE
  5
181
330
52
100
AcDbEntity
  8
1
  6
DOT_CENTER
 62
     7
100
AcDbCircle
 10
89.5
 20
18.0
 30
0.0
 40
0.1000000000000227
  0
CIRCLE
  5
182
330
52
100
AcDbEntity
  8
1
  6
DOT_CENTER
 62
     7
100
AcDbCircle
 10
89.5
 20
16.0
 30
0.0
 40
0.1000000000000227
  0
CIRCLE
  5
183
330
52
100
AcDbEntity
  8
1
  6
Continuous
 62
     7
100
AcDbCircle
 10
187.0
 20
23.50000000000001
 30
0.0
 40
2.0
  0
CIRCLE
  5
184
330
52
100
AcDbEntity
  8
1
  6
Continuous
 62
     7
100
AcDbCircle
 10
187.0
 20
23.50000000000001
 30
0.0
 40
1.200000000000102
  0
CIRCLE
  5
185
330
52
100
AcDbEntity
  8
1
  6
Continuous
 62
     7
100
AcDbCircle
 10
154.5
 20
12.5
 30
0.0
 40
0.3000000000000114
  0
CIRCLE
  5
186
330
52
100
AcDbEntity
  8
1
  6
Continuous
 62
     7
100
AcDbCircle
 10
160.5
 20
12.5
 30
0.0
 40
0.3000000000000114
  0
CIRCLE
  5
187
330
52
100
AcDbEntity
  8
1
  6
Continuous
 62
     7
100
AcDbCircle
 10
143.5
 20
12.5
 30
0.0
 40
0.3000000000000114
  0
CIRCLE
  5
188
330
52
100
AcDbEntity
  8
1
  6
Continuous
 62
     7
100
AcDbCircle
 10
137.5
 20
12.5
 30
0.0
 40
0.3000000000000114
  0
CIRCLE
  5
189
330
52
100
AcDbEntity
  8
1
  6
Continuous
 62
     7
100
AcDbCircle
 10
126.5
 20
12.5
 30
0.0
 40
0.2999999999999972
  0
CIRCLE
  5
18A
330
52
100
AcDbEntity
  8
1
  6
Continuous
 62
     7
100
AcDbCircle
 10
120.5
 20
12.5
 30
0.0
 40
0.2999999999999972
  0
CIRCLE
  5
18B
330
52
100
AcDbEntity
  8
1
  6
Continuous
 62
     7
100
AcDbCircle
 10
109.5
 20
12.5
 30
0.0
 40
0.2999999999999972
  0
CIRCLE
  5
18C
330
52
100
AcDbEntity
  8
1
  6
Continuous
 62
     7
100
AcDbCircle
 10
103.5
 20
12.5
 30
0.0
 40
0.2999999999999972
  0
MTEXT
  5
18E
330
52
100
AcDbEntity
  8
1
 62
   250
100
AcDbMText
 10
25.0
 20
5.0
 30
0.0
 40
3.5
 41
0.0
 71
     4
 72
     1
  1
備考欄の文字列 原点位置=4
  7
CONVERTER_11
 73
     1
 44
0.54545454545455
  0
MTEXT
  5
18F
330
52
100
AcDbEntity
  8
1
 62
     2
100
AcDbMText
 10
89.5
 20
24.00000000000001
 30
0.0
 40
3.5
 41
0.0
 71
     5
 72
     1
  1
尺度
  7
CONVERTER_11
 73
     1
 44
0.54545454545455
  0
MTEXT
  5
190
330
52
100
AcDbEntity
  8
1
 62
     2
100
AcDbMText
 10
135.5
 20
25.00000000000001
 30
0.0
 40
3.0
 41
0.0
 71
     5
 72
     1
  1
製図
  7
CONVERTER_11
 73
     1
 44
0.59090909090909
  0
MTEXT
  5
191
330
52
100
AcDbEntity
  8
1
 62
     2
100
AcDbMText
 10
152.5
 20
25.00000000000001
 30
0.0
 40
3.0
 41
0.0
 71
     5
 72
     1
  1
設計
  7
CONVERTER_11
 73
     1
 44
0.59090909090909
  0
MTEXT
  5
192
330
52
100
AcDbEntity
  8
1
 62
     2
100
AcDbMText
 10
118.5
 20
25.00000000000001
 30
0.0
 40
3.0
 41
0.0
 71
     5
 72
     1
  1
検図
  7
CONVERTER_11
 73
     1
 44
0.59090909090909
  0
MTEXT
  5
193
330
52
100
AcDbEntity
  8
1
 62
     2
100
AcDbMText
 10
175.0
 20
23.50000000000001
 30
0.0
 40
3.5
 41
0.0
 71
     5
 72
     1
  1
第三角法
  7
CONVERTER_11
 73
     1
 44
0.54545454545455
  0
MTEXT
  5
194
330
52
100
AcDbEntity
  8
1
 62
     2
100
AcDbMText
 10
101.5
 20
25.00000000000001
 30
0.0
 40
3.0
 41
0.0
 71
     5
 72
     1
  1
承認
  7
CONVERTER_11
 73
     1
 44
0.59090909090909
  0
MTEXT
  5
195
330
52
100
AcDbEntity
  8
1
 62
     2
100
AcDbMText
 10
29.0
 20
14.25
 30
0.0
 40
3.5
 41
0.0
 71
     5
 72
     1
  1
品番
  7
CONVERTER_11
 73
     1
 44
0.72727272727273
  0
MTEXT
  5
196
330
52
100
AcDbEntity
  8
1
 62
     2
100
AcDbMText
 10
29.0
 20
22.75
 30
0.0
 40
3.5
 41
0.0
 71
     5
 72
     1
  1
品名
  7
CONVERTER_11
 73
     1
 44
0.72727272727273
  0
MTEXT
  5
197
330
52
100
AcDbEntity
  8
1
 62
     2
100
AcDbMText
 10
29.0
 20
34.00000000000001
 30
0.0
 40
3.5
 41
0.0
 71
     5
 72
     1
  1
備考
  7
CONVERTER_11
 73
     1
 44
0.45454545454545
  0
MTEXT
  5
198
330
52
100
AcDbEntity
  8
1
 62
     2
100
AcDbMText
 10
32.5
 20
282.0000000000003
 30
0.0
 40
5.0
 41
0.0
 71
     5
 72
     1
  1
図番
  7
CONVERTER_11
 73
     1
 44
0.45454545454545
  0
MTEXT
  5
199
330
52
100
AcDbEntity
  8
1
 62
     7
100
AcDbMText
 10
171.5
 20
15.0
 30
0.0
 40
2.5
 41
0.0
 71
     5
 72
     1
  1
株式会社
  7
CONVERTER_11
 73
     1
 44
1.0
  0
MTEXT
  5
19A
330
52
100
AcDbEntity
  8
1
 62
     7
100
AcDbMText
 10
188.5
 20
15.0
 30
0.0
 40
3.0
 41
0.0
 71
     5
 72
     1
  1
三栄水栓製作所
  7
CONVERTER_11
 73
     1
 44
1.0
  0
ENDBLK
  5
54
330
52
100
AcDbEntity
  8
0
100
AcDbBlockEnd
  0
BLOCK
  5
2D0
330
2C9
100
AcDbEntity
  8
0
100
AcDbBlockBegin
  2
*D4
 70
     1
 10
0.0
 20
0.0
 30
0.0
  3
*D4
  1

  0
LINE
  5
2CA
330
2C9
100
AcDbEntity
  8
1
  6
Continuous
 62
     2
100
AcDbLine
 10
207.3372731129152
 20
442.5030890660997
 30
0.0
 11
267.3372731129152
 21
442.5030890660997
 31
0.0
  0
LINE
  5
2CB
330
2C9
100
AcDbEntity
  8
1
  6
Continuous
 62
     2
100
AcDbLine
 10
267.3372731129152
 20
422.5030890660997
 30
0.0
 11
267.3372731129152
 21
444.5030890660997
 31
0.0
  0
LINE
  5
2CC
330
2C9
100
AcDbEntity
  8
1
  6
Continuous
 62
     2
100
AcDbLine
 10
207.3372731129152
 20
422.5030890660997
 30
0.0
 11
207.3372731129152
 21
444.5030890660997
 31
0.0
  0
SOLID
  5
2CD
330
2C9
100
AcDbEntity
  8
1
 62
     2
100
AcDbTrace
 10
214.3372731129152
 20
443.4246565492114
 30
0.0
 11
214.3372731129152
 21
441.5815215829879
 31
0.0
 12
207.3372731129152
 22
442.5030890660997
 32
0.0
 13
207.3372731129152
 23
442.5030890660997
 33
0.0
  0
SOLID
  5
2CE
330
2C9
100
AcDbEntity
  8
1
 62
     2
100
AcDbTrace
 10
260.3372731129152
 20
441.5815215829879
 30
0.0
 11
260.3372731129152
 21
443.4246565492114
 31
0.0
 12
267.3372731129152
 22
442.5030890660997
 32
0.0
 13
267.3372731129152
 23
442.5030890660997
 33
0.0
  0
MTEXT
  5
2CF
330
2C9
100
AcDbEntity
  8
1
 62
     7
100
AcDbMText
 10
226.0672731129656
 20
444.5030473236417
 30
0.0
 40
7.0
 41
0.0
 71
     7
 72
     1
  1
\C7;外径{\Fgdt;n}\C7;60
  7
CONVERTER_11
 11
0.9999999999970619
 21
2.424068405545306E-6
 31
0.0
 73
     1
 44
0.45454545454545
  0
ENDBLK
  5
2D1
330
2C9
100
AcDbEntity
  8
0
100
AcDbBlockEnd
  0
BLOCK
  5
2DB
330
2D4
100
AcDbEntity
  8
0
100
AcDbBlockBegin
  2
*D5
 70
     1
 10
0.0
 20
0.0
 30
0.0
  3
*D5
  1

  0
LINE
  5
2D5
330
2D4
100
AcDbEntity
  8
1
  6
Continuous
 62
     2
100
AcDbLine
 10
207.3373568629153
 20
152.5030890660997
 30
0.0
 11
267.3371893629152
 21
152.5030890660997
 31
0.0
  0
LINE
  5
2D6
330
2D4
100
AcDbEntity
  8
1
  6
Continuous
 62
     2
100
AcDbLine
 10
267.3371893629152
 20
168.0893762220898
 30
0.0
 11
267.3371893629152
 21
150.5030890660997
 31
0.0
  0
LINE
  5
2D7
330
2D4
100
AcDbEntity
  8
1
  6
Continuous
 62
     2
100
AcDbLine
 10
207.3373568629153
 20
167.7163940497048
 30
0.0
 11
207.3373568629153
 21
150.5030890660997
 31
0.0
  0
SOLID
  5
2D8
330
2D4
100
AcDbEntity
  8
1
 62
     2
100
AcDbTrace
 10
214.3373568629153
 20
153.4246565492115
 30
0.0
 11
214.3373568629153
 21
151.5815215829879
 31
0.0
 12
207.3373568629153
 22
152.5030890660997
 32
0.0
 13
207.3373568629153
 23
152.5030890660997
 33
0.0
  0
SOLID
  5
2D9
330
2D4
100
AcDbEntity
  8
1
 62
     2
100
AcDbTrace
 10
260.3371893629152
 20
151.5815215829879
 30
0.0
 11
260.3371893629152
 21
153.4246565492115
 31
0.0
 12
267.3371893629152
 22
152.5030890660997
 32
0.0
 13
267.3371893629152
 23
152.5030890660997
 33
0.0
  0
MTEXT
  5
2DA
330
2D4
100
AcDbEntity
  8
1
 62
     7
100
AcDbMText
 10
226.0672731129656
 20
154.5030473236418
 30
0.0
 40
7.0
 41
0.0
 71
     7
 72
     1
  1
\C7;内径{\Fgdt;n}\C7;60
  7
CONVERTER_11
 11
0.9999999999970619
 21
2.424068405545306E-6
 31
0.0
 73
     1
 44
0.45454545454545
  0
ENDBLK
  5
2DC
330
2D4
100
AcDbEntity
  8
0
100
AcDbBlockEnd
  0
BLOCK
  5
2E6
330
2DF
100
AcDbEntity
  8
0
100
AcDbBlockBegin
  2
*D6
 70
     1
 10
0.0
 20
0.0
 30
0.0
  3
*D6
  1

  0
LINE
  5
2E0
330
2DF
100
AcDbEntity
  8
1
  6
Continuous
 62
     2
100
AcDbLine
 10
203.8373568629153
 20
136.5030890660997
 30
0.0
 11
270.8371893629152
 21
136.5030890660997
 31
0.0
  0
LINE
  5
2E1
330
2DF
100
AcDbEntity
  8
1
  6
Continuous
 62
     2
100
AcDbLine
 10
270.8371893629152
 20
172.5030890660997
 30
0.0
 11
270.8371893629152
 21
134.5030890660997
 31
0.0
  0
LINE
  5
2E2
330
2DF
100
AcDbEntity
  8
1
  6
Continuous
 62
     2
100
AcDbLine
 10
203.8373568629153
 20
172.5030890660997
 30
0.0
 11
203.8373568629153
 21
134.5030890660997
 31
0.0
  0
SOLID
  5
2E3
330
2DF
100
AcDbEntity
  8
1
 62
     2
100
AcDbTrace
 10
210.8373568629153
 20
137.4246565492115
 30
0.0
 11
210.8373568629153
 21
135.5815215829879
 31
0.0
 12
203.8373568629153
 22
136.5030890660997
 32
0.0
 13
203.8373568629153
 23
136.5030890660997
 33
0.0
  0
SOLID
  5
2E4
330
2DF
100
AcDbEntity
  8
1
 62
     2
100
AcDbTrace
 10
263.8371893629152
 20
135.5815215829879
 30
0.0
 11
263.8371893629152
 21
137.4246565492115
 31
0.0
 12
270.8371893629152
 22
136.5030890660997
 32
0.0
 13
270.8371893629152
 23
136.5030890660997
 33
0.0
  0
MTEXT
  5
2E5
330
2DF
100
AcDbEntity
  8
1
 62
     7
100
AcDbMText
 10
230.5472731129319
 20
138.5030751519471
 30
0.0
 40
7.0
 41
0.0
 71
     7
 72
     1
  1
\C7;{\Fgdt;n}\C7;67
  7
CONVERTER_12
 11
0.9999999999970619
 21
2.424068405545306E-6
 31
0.0
 73
     1
 44
0.60024009603842
  0
ENDBLK
  5
2E7
330
2DF
100
AcDbEntity
  8
0
100
AcDbBlockEnd
  0
BLOCK
  5
2F1
330
2EA
100
AcDbEntity
  8
0
100
AcDbBlockBegin
  2
*D7
 70
     1
 10
0.0
 20
0.0
 30
0.0
  3
*D7
  1

  0
LINE
  5
2EB
330
2EA
100
AcDbEntity
  8
1
  6
Continuous
 62
     2
100
AcDbLine
 10
187.959714967921
 20
372.5030890660997
 30
0.0
 11
187.959714967921
 21
422.5030890660997
 31
0.0
  0
LINE
  5
2EC
330
2EA
100
AcDbEntity
  8
1
  6
Continuous
 62
     2
100
AcDbLine
 10
227.996995674447
 20
372.5030890660997
 30
0.0
 11
185.959714967921
 21
372.5030890660997
 31
0.0
  0
LINE
  5
2ED
330
2EA
100
AcDbEntity
  8
1
  6
Continuous
 62
     2
100
AcDbLine
 10
207.3372731129152
 20
422.5030890660997
 30
0.0
 11
185.959714967921
 21
422.5030890660997
 31
0.0
  0
SOLID
  5
2EE
330
2EA
100
AcDbEntity
  8
1
 62
     2
100
AcDbTrace
 10
187.0381474848092
 20
379.5030890660997
 30
0.0
 11
188.8812824510328
 21
379.5030890660997
 31
0.0
 12
187.959714967921
 22
372.5030890660997
 32
0.0
 13
187.959714967921
 23
372.5030890660997
 33
0.0
  0
SOLID
  5
2EF
330
2EA
100
AcDbEntity
  8
1
 62
     2
100
AcDbTrace
 10
188.8812824510328
 20
415.5030890660997
 30
0.0
 11
187.0381474848092
 21
415.5030890660997
 31
0.0
 12
187.959714967921
 22
422.5030890660997
 32
0.0
 13
187.959714967921
 23
422.5030890660997
 33
0.0
  0
MTEXT
  5
2F0
330
2EA
100
AcDbEntity
  8
1
 62
     7
100
AcDbMText
 10
185.959714967921
 20
392.2530890660997
 30
0.0
 40
7.0
 41
0.0
 71
     7
 72
     1
  1
50
  7
CONVERTER_12
 11
0.0
 21
1.0
 31
0.0
 73
     1
 44
0.60024009603842
  0
ENDBLK
  5
2F2
330
2EA
100
AcDbEntity
  8
0
100
AcDbBlockEnd
  0
BLOCK
  5
2FC
330
2F5
100
AcDbEntity
  8
0
100
AcDbBlockBegin
  2
*D8
 70
     1
 10
0.0
 20
0.0
 30
0.0
  3
*D8
  1

  0
LINE
  5
2F6
330
2F5
100
AcDbEntity
  8
1
  6
Continuous
 62
     2
100
AcDbLine
 10
290.8371893629152
 20
200.5030890660997
 30
0.0
 11
290.8371893629152
 21
422.5030890660997
 31
0.0
  0
LINE
  5
2F7
330
2F5
100
AcDbEntity
  8
1
  6
Continuous
 62
     2
100
AcDbLine
 10
267.3372731129152
 20
422.5030890660997
 30
0.0
 11
292.8371893629152
 21
422.5030890660997
 31
0.0
  0
LINE
  5
2F8
330
2F5
100
AcDbEntity
  8
1
  6
Continuous
 62
     2
100
AcDbLine
 10
274.5064195573325
 20
200.5030890660997
 30
0.0
 11
292.8371893629152
 21
200.5030890660997
 31
0.0
  0
SOLID
  5
2F9
330
2F5
100
AcDbEntity
  8
1
 62
     2
100
AcDbTrace
 10
289.9156218798034
 20
207.5030890660997
 30
0.0
 11
291.7587568460269
 21
207.5030890660997
 31
0.0
 12
290.8371893629152
 22
200.5030890660997
 32
0.0
 13
290.8371893629152
 23
200.5030890660997
 33
0.0
  0
SOLID
  5
2FA
330
2F5
100
AcDbEntity
  8
1
 62
     2
100
AcDbTrace
 10
291.7587568460269
 20
415.5030890660997
 30
0.0
 11
289.9156218798034
 21
415.5030890660997
 31
0.0
 12
290.8371893629152
 22
422.5030890660997
 32
0.0
 13
290.8371893629152
 23
422.5030890660997
 33
0.0
  0
MTEXT
  5
2FB
330
2F5
100
AcDbEntity
  8
1
 62
     7
100
AcDbMText
 10
287.0871893629152
 20
285.6730890660997
 30
0.0
 40
7.0
 41
0.0
 71
     7
 72
     1
  1
\C7;L2\C2;\H4.2;\S+20^  0;
  7
CONVERTER_12
 11
0.0
 21
1.0
 31
0.0
 73
     1
 44
0.60024009603842
  0
ENDBLK
  5
2FD
330
2F5
100
AcDbEntity
  8
0
100
AcDbBlockEnd
  0
BLOCK
  5
307
330
300
100
AcDbEntity
  8
0
100
AcDbBlockBegin
  2
*D9
 70
     1
 10
0.0
 20
0.0
 30
0.0
  3
*D9
  1

  0
LINE
  5
301
330
300
100
AcDbEntity
  8
1
  6
Continuous
 62
     2
100
AcDbLine
 10
183.8373568629153
 20
172.5030890660997
 30
0.0
 11
183.8373568629153
 21
225.5029565660998
 31
0.0
  0
LINE
  5
302
330
300
100
AcDbEntity
  8
1
  6
Continuous
 62
     2
100
AcDbLine
 10
203.8373568629153
 20
225.5029565660998
 30
0.0
 11
181.8373568629153
 21
225.5029565660998
 31
0.0
  0
LINE
  5
303
330
300
100
AcDbEntity
  8
1
  6
Continuous
 62
     2
100
AcDbLine
 10
203.8373568629153
 20
172.5030890660997
 30
0.0
 11
181.8373568629153
 21
172.5030890660997
 31
0.0
  0
SOLID
  5
304
330
300
100
AcDbEntity
  8
1
 62
     2
100
AcDbTrace
 10
182.9157893798035
 20
179.5030890660997
 30
0.0
 11
184.7589243460271
 21
179.5030890660997
 31
0.0
 12
183.8373568629153
 22
172.5030890660997
 32
0.0
 13
183.8373568629153
 23
172.5030890660997
 33
0.0
  0
SOLID
  5
305
330
300
100
AcDbEntity
  8
1
 62
     2
100
AcDbTrace
 10
184.7589243460271
 20
218.5029565660998
 30
0.0
 11
182.9157893798035
 21
218.5029565660998
 31
0.0
 12
183.8373568629153
 22
225.5029565660998
 32
0.0
 13
183.8373568629153
 23
225.5029565660998
 33
0.0
  0
MTEXT
  5
306
330
300
100
AcDbEntity
  8
1
 62
     7
100
AcDbMText
 10
181.8373568629153
 20
193.7530228160998
 30
0.0
 40
7.0
 41
0.0
 71
     7
 72
     1
  1
53
  7
CONVERTER_12
 11
0.0
 21
1.0
 31
0.0
 73
     1
 44
0.60024009603842
  0
ENDBLK
  5
308
330
300
100
AcDbEntity
  8
0
100
AcDbBlockEnd
  0
BLOCK
  5
312
330
30B
100
AcDbEntity
  8
0
100
AcDbBlockBegin
  2
*D10
 70
     1
 10
0.0
 20
0.0
 30
0.0
  3
*D10
  1

  0
LINE
  5
30C
330
30B
100
AcDbEntity
  8
1
  6
Continuous
 62
     2
100
AcDbLine
 10
306.8371893629152
 20
422.5030890660997
 30
0.0
 11
306.8371893629152
 21
172.5030890660997
 31
0.0
  0
LINE
  5
30D
330
30B
100
AcDbEntity
  8
1
  6
Continuous
 62
     2
100
AcDbLine
 10
270.8371893629152
 20
172.5030890660997
 30
0.0
 11
308.8371893629152
 21
172.5030890660997
 31
0.0
  0
LINE
  5
30E
330
30B
100
AcDbEntity
  8
1
  6
Continuous
 62
     2
100
AcDbLine
 10
267.3372731129152
 20
422.5030890660997
 30
0.0
 11
308.8371893629152
 21
422.5030890660997
 31
0.0
  0
SOLID
  5
30F
330
30B
100
AcDbEntity
  8
1
 62
     2
100
AcDbTrace
 10
307.7587568460269
 20
415.5030890660997
 30
0.0
 11
305.9156218798034
 21
415.5030890660997
 31
0.0
 12
306.8371893629152
 22
422.5030890660997
 32
0.0
 13
306.8371893629152
 23
422.5030890660997
 33
0.0
  0
SOLID
  5
310
330
30B
100
AcDbEntity
  8
1
 62
     2
100
AcDbTrace
 10
305.9156218798034
 20
179.5030890660997
 30
0.0
 11
307.7587568460269
 21
179.5030890660997
 31
0.0
 12
306.8371893629152
 22
172.5030890660997
 32
0.0
 13
306.8371893629152
 23
172.5030890660997
 33
0.0
  0
MTEXT
  5
311
330
30B
100
AcDbEntity
  8
1
 62
     7
100
AcDbMText
 10
303.0871893629152
 20
286.7230890660997
 30
0.0
 40
7.0
 41
0.0
 71
     7
 72
     1
  1
\C7;L1\C2;\H4.2;\S+20^  0;
  7
CONVERTER_12
 11
0.0
 21
1.0
 31
0.0
 73
     1
 44
0.60024009603842
  0
ENDBLK
  5
313
330
30B
100
AcDbEntity
  8
0
100
AcDbBlockEnd
  0
BLOCK
  5
31F
330
316
100
AcDbEntity
  8
0
100
AcDbBlockBegin
  2
*D11
 70
     1
 10
0.0
 20
0.0
 30
0.0
  3
*D11
  1

  0
LINE
  5
317
330
316
100
AcDbEntity
  8
1
  6
Continuous
 62
     2
100
AcDbLine
 10
156.426906111277
 20
129.6231566047337
 30
0.0
 11
156.426906111277
 21
115.6231566047337
 31
0.0
  0
LINE
  5
318
330
316
100
AcDbEntity
  8
1
  6
Continuous
 62
     2
100
AcDbLine
 10
156.426906111277
 20
139.7409076047337
 30
0.0
 11
156.426906111277
 21
129.6231566047337
 31
0.0
  0
LINE
  5
319
330
316
100
AcDbEntity
  8
1
  6
Continuous
 62
     2
100
AcDbLine
 10
156.426906111277
 20
192.8656549071749
 30
0.0
 11
156.426906111277
 21
139.7409076047337
 31
0.0
  0
LINE
  5
31A
330
316
100
AcDbEntity
  8
1
  6
Continuous
 62
     2
100
AcDbLine
 10
82.20428343395804
 20
139.7409076047337
 30
0.0
 11
158.426906111277
 21
139.7409076047337
 31
0.0
  0
LINE
  5
31B
330
316
100
AcDbEntity
  8
1
  6
Continuous
 62
     2
100
AcDbLine
 10
149.6313072332
 20
129.6231566047337
 30
0.0
 11
158.426906111277
 21
129.6231566047337
 31
0.0
  0
SOLID
  5
31C
330
316
100
AcDbEntity
  8
1
 62
     2
100
AcDbTrace
 10
155.5053386281652
 20
146.7409076047337
 30
0.0
 11
157.3484735943888
 21
146.7409076047337
 31
0.0
 12
156.426906111277
 22
139.7409076047337
 32
0.0
 13
156.426906111277
 23
139.7409076047337
 33
0.0
  0
SOLID
  5
31D
330
316
100
AcDbEntity
  8
1
 62
     2
100
AcDbTrace
 10
157.3484735943888
 20
122.6231566047337
 30
0.0
 11
155.5053386281652
 21
122.6231566047337
 31
0.0
 12
156.426906111277
 22
129.6231566047337
 32
0.0
 13
156.426906111277
 23
129.6231566047337
 33
0.0
  0
MTEXT
  5
31E
330
316
100
AcDbEntity
  8
1
 62
     7
100
AcDbMText
 10
154.426906111277
 20
158.6482937960638
 30
0.0
 40
7.0
 41
0.0
 71
     7
 72
     1
  1
許容変位量
  7
CONVERTER_11
 11
0.0
 21
1.0
 31
0.0
 73
     1
 44
0.45454545454545
  0
ENDBLK
  5
320
330
316
100
AcDbEntity
  8
0
100
AcDbBlockEnd
  0
ENDSEC
  0
SECTION
  2
ENTITIES
  0
INSERT
  5
55
330
1F
100
AcDbEntity
  8
0
100
AcDbBlockReference
  2
外部硬質部
 10
406.7915262316558
 20
583.7634778624868
 30
0.0
  0
INSERT
  5
56
330
1F
100
AcDbEntity
  8
1
100
AcDbBlockReference
  2
ソケット_DS_
 10
351.3454614197428
 20
0.0
 30
0.0
  0
INSERT
  5
57
330
1F
100
AcDbEntity
  8
1
100
AcDbBlockReference
  2
開示A4
 10
0.0
 20
0.0
 30
0.0
 41
2.0
 42
2.0
 43
2.0
  0
LINE
  5
19B
330
1F
100
AcDbEntity
  8
1
  6
Continuous
 62
     2
100
AcDbLine
 10
267.3371893629152
 20
172.5030890660997
 30
0.0
 11
267.3371893629152
 21
168.0893762220898
 31
0.0
  0
LINE
  5
19C
330
1F
100
AcDbEntity
  8
1
  6
Continuous
 62
     2
100
AcDbLine
 10
207.3373568629153
 20
172.5030890660997
 30
0.0
 11
207.3373568629153
 21
167.7163940497048
 31
0.0
  0
LINE
  5
19D
330
1F
100
AcDbEntity
  8
1
  6
Continuous
 62
     2
100
AcDbLine
 10
274.5064195573325
 20
200.5030890660997
 30
0.0
 11
270.8371893629152
 21
200.5030890660997
 31
0.0
  0
LINE
  5
19E
330
1F
100
AcDbEntity
  8
2
  6
DASH_CENTER
 62
     2
100
AcDbLine
 10
149.6313072332
 20
129.6231566047337
 30
0.0
 11
133.3478922332
 21
129.6231566047337
 31
0.0
  0
LINE
  5
19F
330
1F
100
AcDbEntity
  8
6
  6
Continuous
 62
     7
100
AcDbLine
 10
89.38673423320006
 20
139.7409076047337
 30
0.0
 11
90.23476737725446
 21
146.3115871612052
 31
0.0
  0
LINE
  5
1A0
330
1F
100
AcDbEntity
  8
1
  6
Continuous
 62
     7
100
AcDbLine
 10
101.1288762332
 20
131.7066796047337
 30
0.0
 11
101.1525022332
 21
132.0292546047337
 31
0.0
  0
LINE
  5
1A1
330
1F
100
AcDbEntity
  8
6
  6
Continuous
 62
     7
100
AcDbLine
 10
87.23460223320001
 20
146.9469696047338
 30
0.0
 11
86.81203923320004
 21
139.7409076047337
 31
0.0
  0
LINE
  5
1A2
330
1F
100
AcDbEntity
  8
6
  6
Continuous
 62
     7
100
AcDbLine
 10
86.81203923320004
 20
139.7409076047337
 30
0.0
 11
87.36336723320005
 21
146.9474586047338
 31
0.0
  0
LINE
  5
1A3
330
1F
100
AcDbEntity
  8
5
  6
Continuous
 62
     7
100
AcDbLine
 10
87.36336723320005
 20
146.9474586047338
 30
0.0
 11
87.19692600253404
 21
146.3044647582537
 31
0.0
  0
LINE
  5
1A4
330
1F
100
AcDbEntity
  8
6
  6
Continuous
 62
     7
100
AcDbLine
 10
86.26188723320001
 20
132.5497366047338
 30
0.0
 11
86.81203923320004
 21
139.7409076047337
 31
0.0
  0
LINE
  5
1A5
330
1F
100
AcDbEntity
  8
6
  6
Continuous
 62
     7
100
AcDbLine
 10
88.46188723320006
 20
132.5750676047338
 30
0.0
 11
89.38673423320006
 21
139.7409076047337
 31
0.0
  0
LINE
  5
1A6
330
1F
100
AcDbEntity
  8
6
  6
Continuous
 62
     7
100
AcDbLine
 10
90.17189723320007
 20
139.7409076047337
 30
0.0
 11
90.98439723320007
 21
146.3873726047337
 31
0.0
  0
LINE
  5
1A7
330
1F
100
AcDbEntity
  8
6
  6
Continuous
 62
     7
100
AcDbLine
 10
89.35939723320007
 20
133.0944426047338
 30
0.0
 11
90.17189723320007
 21
139.7409076047337
 31
0.0
  0
LINE
  5
1A8
330
1F
100
AcDbEntity
  8
6
  6
Continuous
 62
     7
100
AcDbLine
 10
90.24636523319998
 20
139.7409076047337
 30
0.0
 11
89.43386523319998
 21
132.7796926047338
 31
0.0
  0
LINE
  5
1A9
330
1F
100
AcDbEntity
  8
6
  6
Continuous
 62
     7
100
AcDbLine
 10
91.05886523319998
 20
146.7021226047337
 30
0.0
 11
90.24636523319998
 21
139.7409076047337
 31
0.0
  0
LINE
  5
1AA
330
1F
100
AcDbEntity
  8
6
  6
Continuous
 62
     7
100
AcDbLine
 10
91.89636523319996
 20
139.7409076047337
 30
0.0
 11
92.70886523319996
 21
146.7052886047337
 31
0.0
  0
LINE
  5
1AB
330
1F
100
AcDbEntity
  8
6
  6
Continuous
 62
     7
100
AcDbLine
 10
91.08386523319996
 20
132.7765266047337
 30
0.0
 11
91.89636523319996
 21
139.7409076047337
 31
0.0
  0
LINE
  5
1AC
330
1F
100
AcDbEntity
  8
5
  6
Continuous
 62
     7
100
AcDbLine
 10
91.05886523319998
 20
146.7021226047337
 30
0.0
 11
90.98439723320007
 21
146.3873726047337
 31
0.0
  0
LINE
  5
1AD
330
1F
100
AcDbEntity
  8
5
  6
Continuous
 62
     7
100
AcDbLine
 10
89.43386523319998
 20
132.7796926047338
 30
0.0
 11
89.35939723320007
 21
133.0944426047338
 31
0.0
  0
LINE
  5
1AE
330
1F
100
AcDbEntity
  8
6
  6
Continuous
 62
     7
100
AcDbLine
 10
92.95851423320005
 20
139.7312466047338
 30
0.0
 11
94.1752562332
 21
146.3157126047338
 31
0.0
  0
LINE
  5
1AF
330
1F
100
AcDbEntity
  8
6
  6
Continuous
 62
     7
100
AcDbLine
 10
91.74177323319998
 20
133.1467806047337
 30
0.0
 11
92.95851423320005
 21
139.7312466047338
 31
0.0
  0
LINE
  5
1B0
330
1F
100
AcDbEntity
  8
6
  6
Continuous
 62
     7
100
AcDbLine
 10
93.03284323320008
 20
139.7266996047338
 30
0.0
 11
91.79688723319998
 21
132.8280706047337
 31
0.0
  0
LINE
  5
1B1
330
1F
100
AcDbEntity
  8
6
  6
Continuous
 62
     7
100
AcDbLine
 10
94.26880023319995
 20
146.6253286047338
 30
0.0
 11
93.03284323320008
 21
139.7266996047338
 31
0.0
  0
LINE
  5
1B2
330
1F
100
AcDbEntity
  8
6
  6
Continuous
 62
     7
100
AcDbLine
 10
94.67976623319998
 20
139.6259696047338
 30
0.0
 11
95.91591523320005
 21
146.5277596047338
 31
0.0
  0
LINE
  5
1B3
330
1F
100
AcDbEntity
  8
6
  6
Continuous
 62
     7
100
AcDbLine
 10
93.44361623320003
 20
132.7241806047338
 30
0.0
 11
94.67976623319998
 21
139.6259696047338
 31
0.0
  0
LINE
  5
1B4
330
1F
100
AcDbEntity
  8
5
  6
Continuous
 62
     7
100
AcDbLine
 10
94.26880023319995
 20
146.6253286047338
 30
0.0
 11
94.1752562332
 21
146.3157126047338
 31
0.0
  0
LINE
  5
1B5
330
1F
100
AcDbEntity
  8
5
  6
Continuous
 62
     7
100
AcDbLine
 10
91.79688723319998
 20
132.8280706047337
 30
0.0
 11
91.74177323319998
 21
133.1467806047337
 31
0.0
  0
LINE
  5
1B6
330
1F
100
AcDbEntity
  8
6
  6
Continuous
 62
     7
100
AcDbLine
 10
95.78366223319995
 20
139.7223516047337
 30
0.0
 11
97.40010623319995
 21
146.2202556047338
 31
0.0
  0
LINE
  5
1B7
330
1F
100
AcDbEntity
  8
6
  6
Continuous
 62
     7
100
AcDbLine
 10
94.16721823320006
 20
133.2244476047338
 30
0.0
 11
95.78366223319995
 21
139.7223516047337
 31
0.0
  0
LINE
  5
1B8
330
1F
100
AcDbEntity
  8
6
  6
Continuous
 62
     7
100
AcDbLine
 10
95.85757523320001
 20
139.7132766047338
 30
0.0
 11
94.2027722332
 21
132.9029686047337
 31
0.0
  0
LINE
  5
1B9
330
1F
100
AcDbEntity
  8
6
  6
Continuous
 62
     7
100
AcDbLine
 10
97.51237723320003
 20
146.5235846047337
 30
0.0
 11
95.85757523320001
 21
139.7132766047338
 31
0.0
  0
LINE
  5
1BA
330
1F
100
AcDbEntity
  8
6
  6
Continuous
 62
     7
100
AcDbLine
 10
95.84008823320005
 20
132.6987406047337
 30
0.0
 11
97.4952762332
 21
139.5121916047337
 31
0.0
  0
LINE
  5
1BB
330
1F
100
AcDbEntity
  8
5
  6
Continuous
 62
     7
100
AcDbLine
 10
97.51237723320003
 20
146.5235846047337
 30
0.0
 11
97.40010623319995
 21
146.2202556047338
 31
0.0
  0
LINE
  5
1BC
330
1F
100
AcDbEntity
  8
5
  6
Continuous
 62
     7
100
AcDbLine
 10
94.2027722332
 20
132.9029686047337
 30
0.0
 11
94.16721823320006
 21
133.2244476047338
 31
0.0
  0
LINE
  5
1BD
330
1F
100
AcDbEntity
  8
6
  6
Continuous
 62
     7
100
AcDbLine
 10
98.49143023320005
 20
139.2629136047337
 30
0.0
 11
100.5015462332001
 21
145.6500156047338
 31
0.0
  0
LINE
  5
1BE
330
1F
100
AcDbEntity
  8
6
  6
Continuous
 62
     7
100
AcDbLine
 10
96.48131323320001
 20
132.8758106047337
 30
0.0
 11
98.49143023320005
 21
139.2629136047337
 31
0.0
  0
LINE
  5
1BF
330
1F
100
AcDbEntity
  8
6
  6
Continuous
 62
     7
100
AcDbLine
 10
98.56465123320004
 20
139.2493426047338
 30
0.0
 11
96.49717523319998
 21
132.5527606047337
 31
0.0
  0
LINE
  5
1C0
330
1F
100
AcDbEntity
  8
6
  6
Continuous
 62
     7
100
AcDbLine
 10
100.6321262332
 20
145.9459246047337
 30
0.0
 11
98.56465123320004
 21
139.2493426047338
 31
0.0
  0
LINE
  5
1C1
330
1F
100
AcDbEntity
  8
6
  6
Continuous
 62
     7
100
AcDbLine
 10
98.1189692332
 20
132.2489586047337
 30
0.0
 11
102.1834211422348
 21
145.4162233218204
 31
0.0
  0
LINE
  5
1C2
330
1F
100
AcDbEntity
  8
5
  6
Continuous
 62
     7
100
AcDbLine
 10
100.6321262332
 20
145.9459246047337
 30
0.0
 11
100.5015462332001
 21
145.6500156047338
 31
0.0
  0
LINE
  5
1C3
330
1F
100
AcDbEntity
  8
5
  6
Continuous
 62
     7
100
AcDbLine
 10
96.49717523319998
 20
132.5527606047337
 30
0.0
 11
96.48131323320001
 21
132.8758106047337
 31
0.0
  0
LINE
  5
1C4
330
1F
100
AcDbEntity
  8
6
  6
Continuous
 62
     7
100
AcDbLine
 10
101.2261302332
 20
138.7763666047338
 30
0.0
 11
103.6224212332
 21
145.0288416047338
 31
0.0
  0
LINE
  5
1C5
330
1F
100
AcDbEntity
  8
6
  6
Continuous
 62
     7
100
AcDbLine
 10
98.8298402332
 20
132.5238916047338
 30
0.0
 11
101.2261302332
 21
138.7763666047338
 31
0.0
  0
LINE
  5
1C6
330
1F
100
AcDbEntity
  8
6
  6
Continuous
 62
     7
100
AcDbLine
 10
101.2983862332001
 20
138.7583506047338
 30
0.0
 11
98.82595123320004
 21
132.2004756047338
 31
0.0
  0
LINE
  5
1C7
330
1F
100
AcDbEntity
  8
6
  6
Continuous
 62
     7
100
AcDbLine
 10
103.7708222332001
 20
145.3162266047337
 30
0.0
 11
101.2983862332001
 21
138.7583506047338
 31
0.0
  0
LINE
  5
1C8
330
1F
100
AcDbEntity
  8
6
  6
Continuous
 62
     7
100
AcDbLine
 10
102.8993742332
 20
138.3591796047337
 30
0.0
 11
105.3725762332
 21
144.9201276047338
 31
0.0
  0
LINE
  5
1C9
330
1F
100
AcDbEntity
  8
6
  6
Continuous
 62
     7
100
AcDbLine
 10
100.4261732332
 20
131.7982316047338
 30
0.0
 11
102.8993742332
 21
138.3591796047337
 31
0.0
  0
LINE
  5
1CA
330
1F
100
AcDbEntity
  8
5
  6
Continuous
 62
     7
100
AcDbLine
 10
103.7708222332001
 20
145.3162266047337
 30
0.0
 11
103.6224212332
 21
145.0288416047338
 31
0.0
  0
LINE
  5
1CB
330
1F
100
AcDbEntity
  8
5
  6
Continuous
 62
     7
100
AcDbLine
 10
98.82595123320004
 20
132.2004756047338
 30
0.0
 11
98.8298402332
 21
132.5238916047338
 31
0.0
  0
LINE
  5
1CC
330
1F
100
AcDbEntity
  8
6
  6
Continuous
 62
     7
100
AcDbLine
 10
103.9260272332
 20
138.1237776047337
 30
0.0
 11
106.6995532332001
 21
144.2183006047337
 31
0.0
  0
LINE
  5
1CD
330
1F
100
AcDbEntity
  8
6
  6
Continuous
 62
     7
100
AcDbLine
 10
101.1525022332
 20
132.0292546047337
 30
0.0
 11
103.9260272332
 21
138.1237776047337
 31
0.0
  0
LINE
  5
1CE
330
1F
100
AcDbEntity
  8
6
  6
Continuous
 62
     7
100
AcDbLine
 10
103.9970492332
 20
138.1013846047338
 30
0.0
 11
101.1288762332
 21
131.7066796047337
 31
0.0
  0
LINE
  5
1CF
330
1F
100
AcDbEntity
  8
6
  6
Continuous
 62
     7
100
AcDbLine
 10
106.8652212332
 20
144.4960896047338
 30
0.0
 11
103.9970492332
 21
138.1013846047338
 31
0.0
  0
LINE
  5
1D0
330
1F
100
AcDbEntity
  8
6
  6
Continuous
 62
     7
100
AcDbLine
 10
105.5706822332001
 20
137.6052196047337
 30
0.0
 11
108.3439696116734
 21
143.789243018655
 31
0.0
  0
LINE
  5
1D1
330
1F
100
AcDbEntity
  8
6
  6
Continuous
 62
     7
100
AcDbLine
 10
102.7015572332
 20
131.2074946047338
 30
0.0
 11
105.5706822332001
 21
137.6052196047337
 31
0.0
  0
LINE
  5
1D2
330
1F
100
AcDbEntity
  8
5
  6
Continuous
 62
     7
100
AcDbLine
 10
106.8652212332
 20
144.4960896047338
 30
0.0
 11
106.6995532332001
 21
144.2183006047337
 31
0.0
  0
LINE
  5
1D3
330
1F
100
AcDbEntity
  8
6
  6
Continuous
 62
     7
100
AcDbLine
 10
106.5810512332
 20
137.3075806047337
 30
0.0
 11
109.7214652332
 21
143.2214156047338
 31
0.0
  0
LINE
  5
1D4
330
1F
100
AcDbEntity
  8
6
  6
Continuous
 62
     7
100
AcDbLine
 10
103.4406362332001
 20
131.3937446047338
 30
0.0
 11
106.5810512332
 21
137.3075806047337
 31
0.0
  0
LINE
  5
1D5
330
1F
100
AcDbEntity
  8
6
  6
Continuous
 62
     7
100
AcDbLine
 10
106.6505722332
 20
137.2808936047337
 30
0.0
 11
103.3973622332001
 21
131.0732136047337
 31
0.0
  0
LINE
  5
1D6
330
1F
100
AcDbEntity
  8
6
  6
Continuous
 62
     7
100
AcDbLine
 10
109.9037832332
 20
143.4885736047338
 30
0.0
 11
106.6505722332
 21
137.2808936047337
 31
0.0
  0
LINE
  5
1D7
330
1F
100
AcDbEntity
  8
6
  6
Continuous
 62
     7
100
AcDbLine
 10
108.1909802332
 20
136.6895866047338
 30
0.0
 11
111.4453252332
 21
142.9002226047338
 31
0.0
  0
LINE
  5
1D8
330
1F
100
AcDbEntity
  8
6
  6
Continuous
 62
     7
100
AcDbLine
 10
104.9366352332
 20
130.4789496047338
 30
0.0
 11
108.1909802332
 21
136.6895866047338
 31
0.0
  0
LINE
  5
1D9
330
1F
100
AcDbEntity
  8
5
  6
Continuous
 62
     7
100
AcDbLine
 10
109.9037832332
 20
143.4885736047338
 30
0.0
 11
109.7214652332
 21
143.2214156047338
 31
0.0
  0
LINE
  5
1DA
330
1F
100
AcDbEntity
  8
5
  6
Continuous
 62
     7
100
AcDbLine
 10
103.3973622332001
 20
131.0732136047337
 30
0.0
 11
103.4406362332001
 21
131.3937446047338
 31
0.0
  0
LINE
  5
1DB
330
1F
100
AcDbEntity
  8
5
  6
Continuous
 62
     7
100
AcDbLine
 10
112.7179432332
 20
142.0565996047337
 30
0.0
 11
112.9002612332
 21
142.3237576047337
 31
0.0
  0
LINE
  5
1DC
330
1F
100
AcDbEntity
  8
6
  6
Continuous
 62
     7
100
AcDbLine
 10
109.5775292332
 20
136.1427646047338
 30
0.0
 11
112.7179432332
 21
142.0565996047337
 31
0.0
  0
LINE
  5
1DD
330
1F
100
AcDbEntity
  8
6
  6
Continuous
 62
     7
100
AcDbLine
 10
106.4371152332001
 20
130.2289286047338
 30
0.0
 11
109.5775292332
 21
136.1427646047338
 31
0.0
  0
LINE
  5
1DE
330
1F
100
AcDbEntity
  8
6
  6
Continuous
 62
     7
100
AcDbLine
 10
109.6470502332001
 20
136.1160776047337
 30
0.0
 11
106.3938402332001
 21
129.9083976047337
 31
0.0
  0
LINE
  5
1DF
330
1F
100
AcDbEntity
  8
6
  6
Continuous
 62
     7
100
AcDbLine
 10
112.9002612332
 20
142.3237576047337
 30
0.0
 11
109.6470502332001
 21
136.1160776047337
 31
0.0
  0
LINE
  5
1E0
330
1F
100
AcDbEntity
  8
6
  6
Continuous
 62
     7
100
AcDbLine
 10
111.1874582332
 20
135.5247706047338
 30
0.0
 11
114.4418032332001
 21
141.7354066047337
 31
0.0
  0
LINE
  5
1E1
330
1F
100
AcDbEntity
  8
6
  6
Continuous
 62
     7
100
AcDbLine
 10
107.9331132332
 20
129.3141336047338
 30
0.0
 11
108.0612598551115
 21
129.5586903900372
 31
0.0
  0
LINE
  5
1E2
330
1F
100
AcDbEntity
  8
5
  6
Continuous
 62
     7
100
AcDbLine
 10
106.3938402332001
 20
129.9083976047337
 30
0.0
 11
106.4371152332001
 21
130.2289286047338
 31
0.0
  0
LINE
  5
1E3
330
1F
100
AcDbEntity
  8
5
  6
Continuous
 62
     7
100
AcDbLine
 10
117.1532512332001
 20
139.8285976047338
 30
0.0
 11
117.3355692332
 21
140.0957556047338
 31
0.0
  0
LINE
  5
1E4
330
1F
100
AcDbEntity
  8
6
  6
Continuous
 62
     7
100
AcDbLine
 10
114.0128372332
 20
133.9147616047338
 30
0.0
 11
117.1532512332001
 21
139.8285976047338
 31
0.0
  0
LINE
  5
1E5
330
1F
100
AcDbEntity
  8
6
  6
Continuous
 62
     7
100
AcDbLine
 10
110.8724232332
 20
128.0009266047338
 30
0.0
 11
114.0128372332
 21
133.9147616047338
 31
0.0
  0
LINE
  5
1E6
330
1F
100
AcDbEntity
  8
6
  6
Continuous
 62
     7
100
AcDbLine
 10
114.0823582332
 20
133.8880756047338
 30
0.0
 11
110.8291482332
 21
127.6803946047338
 31
0.0
  0
LINE
  5
1E7
330
1F
100
AcDbEntity
  8
6
  6
Continuous
 62
     7
100
AcDbLine
 10
117.3355692332
 20
140.0957556047338
 30
0.0
 11
114.0823582332
 21
133.8880756047338
 31
0.0
  0
LINE
  5
1E8
330
1F
100
AcDbEntity
  8
6
  6
Continuous
 62
     7
100
AcDbLine
 10
115.6227662332001
 20
133.2967676047338
 30
0.0
 11
118.8771112332
 21
139.5074046047338
 31
0.0
  0
LINE
  5
1E9
330
1F
100
AcDbEntity
  8
6
  6
Continuous
 62
     7
100
AcDbLine
 10
112.3684212332
 20
127.0861316047337
 30
0.0
 11
115.6227662332001
 21
133.2967676047338
 31
0.0
  0
LINE
  5
1EA
330
1F
100
AcDbEntity
  8
5
  6
Continuous
 62
     7
100
AcDbLine
 10
110.8291482332
 20
127.6803946047338
 30
0.0
 11
110.8724232332
 21
128.0009266047338
 31
0.0
  0
LINE
  5
1EB
330
1F
100
AcDbEntity
  8
6
  6
Continuous
 62
     7
100
AcDbLine
 10
116.9699162332
 20
132.6747556047337
 30
0.0
 11
120.1103302332
 21
138.5885906047338
 31
0.0
  0
LINE
  5
1EC
330
1F
100
AcDbEntity
  8
6
  6
Continuous
 62
     7
100
AcDbLine
 10
113.8295022332001
 20
126.7609196047338
 30
0.0
 11
116.9699162332
 21
132.6747556047337
 31
0.0
  0
LINE
  5
1ED
330
1F
100
AcDbEntity
  8
6
  6
Continuous
 62
     7
100
AcDbLine
 10
117.0394382332
 20
132.6480686047338
 30
0.0
 11
113.7862282332001
 21
126.4403886047338
 31
0.0
  0
LINE
  5
1EE
330
1F
100
AcDbEntity
  8
6
  6
Continuous
 62
     7
100
AcDbLine
 10
120.2926482332
 20
138.8557486047338
 30
0.0
 11
117.0394382332
 21
132.6480686047338
 31
0.0
  0
LINE
  5
1EF
330
1F
100
AcDbEntity
  8
6
  6
Continuous
 62
     7
100
AcDbLine
 10
118.5798462332
 20
132.0567616047338
 30
0.0
 11
121.8341912332
 21
138.2673976047338
 31
0.0
  0
LINE
  5
1F0
330
1F
100
AcDbEntity
  8
6
  6
Continuous
 62
     7
100
AcDbLine
 10
115.3255002332001
 20
125.8461256047337
 30
0.0
 11
118.5798462332
 21
132.0567616047338
 31
0.0
  0
LINE
  5
1F1
330
1F
100
AcDbEntity
  8
5
  6
Continuous
 62
     7
100
AcDbLine
 10
120.2926482332
 20
138.8557486047338
 30
0.0
 11
120.1103302332
 21
138.5885906047338
 31
0.0
  0
LINE
  5
1F2
330
1F
100
AcDbEntity
  8
5
  6
Continuous
 62
     7
100
AcDbLine
 10
113.7862282332001
 20
126.4403886047338
 30
0.0
 11
113.8295022332001
 21
126.7609196047338
 31
0.0
  0
LINE
  5
1F3
330
1F
100
AcDbEntity
  8
6
  6
Continuous
 62
     7
100
AcDbLine
 10
119.5903532332
 20
131.7540316047338
 30
0.0
 11
122.3638782332
 21
137.8485536047337
 31
0.0
  0
LINE
  5
1F4
330
1F
100
AcDbEntity
  8
6
  6
Continuous
 62
     7
100
AcDbLine
 10
116.8168272332
 20
125.6595086047338
 30
0.0
 11
119.5903532332
 21
131.7540316047338
 31
0.0
  0
LINE
  5
1F5
330
1F
100
AcDbEntity
  8
6
  6
Continuous
 62
     7
100
AcDbLine
 10
119.6613742332
 20
131.7316386047338
 30
0.0
 11
116.7932012332001
 21
125.3369326047338
 31
0.0
  0
LINE
  5
1F6
330
1F
100
AcDbEntity
  8
6
  6
Continuous
 62
     7
100
AcDbLine
 10
122.5295472332
 20
138.1263436047337
 30
0.0
 11
119.6613742332
 21
131.7316386047338
 31
0.0
  0
LINE
  5
1F7
330
1F
100
AcDbEntity
  8
6
  6
Continuous
 62
     7
100
AcDbLine
 10
121.2350072332
 20
131.2354736047338
 30
0.0
 11
123.9464460877547
 21
137.2815817895483
 31
0.0
  0
LINE
  5
1F8
330
1F
100
AcDbEntity
  8
6
  6
Continuous
 62
     7
100
AcDbLine
 10
118.3658822332
 20
124.8377486047337
 30
0.0
 11
121.2350072332
 21
131.2354736047338
 31
0.0
  0
LINE
  5
1F9
330
1F
100
AcDbEntity
  8
5
  6
Continuous
 62
     7
100
AcDbLine
 10
122.5295472332
 20
138.1263436047337
 30
0.0
 11
122.3638782332
 21
137.8485536047337
 31
0.0
  0
LINE
  5
1FA
330
1F
100
AcDbEntity
  8
5
  6
Continuous
 62
     7
100
AcDbLine
 10
116.7932012332001
 20
125.3369326047338
 30
0.0
 11
116.8168272332
 21
125.6595086047338
 31
0.0
  0
LINE
  5
1FB
330
1F
100
AcDbEntity
  8
6
  6
Continuous
 62
     7
100
AcDbLine
 10
122.2621092332
 20
130.9949986047337
 30
0.0
 11
124.6583992332
 21
137.2474736047337
 31
0.0
  0
LINE
  5
1FC
330
1F
100
AcDbEntity
  8
6
  6
Continuous
 62
     7
100
AcDbLine
 10
119.8658182332
 20
124.7425236047337
 30
0.0
 11
122.2621092332
 21
130.9949986047337
 31
0.0
  0
LINE
  5
1FD
330
1F
100
AcDbEntity
  8
6
  6
Continuous
 62
     7
100
AcDbLine
 10
122.3343652332001
 20
130.9769826047337
 30
0.0
 11
119.8619292332
 21
124.4191076047338
 31
0.0
  0
LINE
  5
1FE
330
1F
100
AcDbEntity
  8
6
  6
Continuous
 62
     7
100
AcDbLine
 10
124.8068002332
 20
137.5348586047338
 30
0.0
 11
122.3343652332001
 21
130.9769826047337
 31
0.0
  0
LINE
  5
1FF
330
1F
100
AcDbEntity
  8
6
  6
Continuous
 62
     7
100
AcDbLine
 10
123.9353532332
 20
130.5778116047337
 30
0.0
 11
126.4085542332
 21
137.1387596047338
 31
0.0
  0
LINE
  5
200
330
1F
100
AcDbEntity
  8
6
  6
Continuous
 62
     7
100
AcDbLine
 10
121.4621512332001
 20
124.0168636047338
 30
0.0
 11
123.9353532332
 21
130.5778116047337
 31
0.0
  0
LINE
  5
201
330
1F
100
AcDbEntity
  8
5
  6
Continuous
 62
     7
100
AcDbLine
 10
124.8068002332
 20
137.5348586047338
 30
0.0
 11
124.6583992332
 21
137.2474736047337
 31
0.0
  0
LINE
  5
202
330
1F
100
AcDbEntity
  8
5
  6
Continuous
 62
     7
100
AcDbLine
 10
119.8619292332
 20
124.4191076047338
 30
0.0
 11
119.8658182332
 21
124.7425236047337
 31
0.0
  0
LINE
  5
203
330
1F
100
AcDbEntity
  8
6
  6
Continuous
 62
     7
100
AcDbLine
 10
124.9752192332001
 20
130.4004876047337
 30
0.0
 11
126.9853362332001
 21
136.7875906047337
 31
0.0
  0
LINE
  5
204
330
1F
100
AcDbEntity
  8
6
  6
Continuous
 62
     7
100
AcDbLine
 10
122.9651032332
 20
124.0133856047338
 30
0.0
 11
124.9752192332001
 21
130.4004876047337
 31
0.0
  0
LINE
  5
205
330
1F
100
AcDbEntity
  8
6
  6
Continuous
 62
     7
100
AcDbLine
 10
125.0484402332
 20
130.3869176047337
 30
0.0
 11
122.9809652332
 21
123.6903346047337
 31
0.0
  0
LINE
  5
206
330
1F
100
AcDbEntity
  8
6
  6
Continuous
 62
     7
100
AcDbLine
 10
127.1159152332
 20
137.0834996047338
 30
0.0
 11
125.0484402332
 21
130.3869176047337
 31
0.0
  0
LINE
  5
207
330
1F
100
AcDbEntity
  8
6
  6
Continuous
 62
     7
100
AcDbLine
 10
126.6708112332001
 20
130.0862286047337
 30
0.0
 11
128.7388632332001
 21
136.7859246047337
 31
0.0
  0
LINE
  5
208
330
1F
100
AcDbEntity
  8
6
  6
Continuous
 62
     7
100
AcDbLine
 10
124.6027582332
 20
123.3865326047338
 30
0.0
 11
126.6708112332001
 21
130.0862286047337
 31
0.0
  0
LINE
  5
209
330
1F
100
AcDbEntity
  8
5
  6
Continuous
 62
     7
100
AcDbLine
 10
127.1159152332
 20
137.0834996047338
 30
0.0
 11
126.9853362332001
 21
136.7875906047337
 31
0.0
  0
LINE
  5
20A
330
1F
100
AcDbEntity
  8
5
  6
Continuous
 62
     7
100
AcDbLine
 10
122.9809652332
 20
123.6903346047337
 30
0.0
 11
122.9651032332
 21
124.0133856047338
 31
0.0
  0
LINE
  5
20B
330
1F
100
AcDbEntity
  8
6
  6
Continuous
 62
     7
100
AcDbLine
 10
127.7372812332001
 20
130.1170106047338
 30
0.0
 11
129.3537252332001
 21
136.6149146047337
 31
0.0
  0
LINE
  5
20C
330
1F
100
AcDbEntity
  8
6
  6
Continuous
 62
     7
100
AcDbLine
 10
126.1208372332001
 20
123.6191066047337
 30
0.0
 11
127.7372812332001
 21
130.1170106047338
 31
0.0
  0
LINE
  5
20D
330
1F
100
AcDbEntity
  8
6
  6
Continuous
 62
     7
100
AcDbLine
 10
127.8111932332
 20
130.1079356047338
 30
0.0
 11
126.1563912332
 21
123.2976266047337
 31
0.0
  0
LINE
  5
20E
330
1F
100
AcDbEntity
  8
6
  6
Continuous
 62
     7
100
AcDbLine
 10
129.4659962332
 20
136.9182436047338
 30
0.0
 11
127.8111932332
 21
130.1079356047338
 31
0.0
  0
LINE
  5
20F
330
1F
100
AcDbEntity
  8
6
  6
Continuous
 62
     7
100
AcDbLine
 10
129.4488952332
 20
129.9068506047338
 30
0.0
 11
131.1040832332
 21
136.7203016047338
 31
0.0
  0
LINE
  5
210
330
1F
100
AcDbEntity
  8
6
  6
Continuous
 62
     7
100
AcDbLine
 10
127.7937062332001
 20
123.0933996047337
 30
0.0
 11
129.4488952332
 21
129.9068506047338
 31
0.0
  0
LINE
  5
211
330
1F
100
AcDbEntity
  8
5
  6
Continuous
 62
     7
100
AcDbLine
 10
129.4659962332
 20
136.9182436047338
 30
0.0
 11
129.3537252332001
 21
136.6149146047337
 31
0.0
  0
LINE
  5
212
330
1F
100
AcDbEntity
  8
5
  6
Continuous
 62
     7
100
AcDbLine
 10
126.1563912332
 20
123.2976266047337
 30
0.0
 11
126.1208372332001
 21
123.6191066047337
 31
0.0
  0
LINE
  5
213
330
1F
100
AcDbEntity
  8
6
  6
Continuous
 62
     7
100
AcDbLine
 10
130.4849042332
 20
129.7132836047338
 30
0.0
 11
131.7016452332
 21
136.2977486047338
 31
0.0
  0
LINE
  5
214
330
1F
100
AcDbEntity
  8
6
  6
Continuous
 62
     7
100
AcDbLine
 10
129.2681622332
 20
123.1288176047337
 30
0.0
 11
130.4849042332
 21
129.7132836047338
 31
0.0
  0
LINE
  5
215
330
1F
100
AcDbEntity
  8
6
  6
Continuous
 62
     7
100
AcDbLine
 10
130.5592332331999
 20
129.7087366047338
 30
0.0
 11
129.3232762332
 21
122.8101076047337
 31
0.0
  0
LINE
  5
216
330
1F
100
AcDbEntity
  8
6
  6
Continuous
 62
     7
100
AcDbLine
 10
131.7951892332
 20
136.6073656047338
 30
0.0
 11
130.5592332331999
 21
129.7087366047338
 31
0.0
  0
LINE
  5
217
330
1F
100
AcDbEntity
  8
6
  6
Continuous
 62
     7
100
AcDbLine
 10
132.2061552332001
 20
129.6080066047338
 30
0.0
 11
133.4423052332001
 21
136.5097966047338
 31
0.0
  0
LINE
  5
218
330
1F
100
AcDbEntity
  8
6
  6
Continuous
 62
     7
100
AcDbLine
 10
130.9700052332
 20
122.7062176047337
 30
0.0
 11
132.2061552332001
 21
129.6080066047338
 31
0.0
  0
LINE
  5
219
330
1F
100
AcDbEntity
  8
5
  6
Continuous
 62
     7
100
AcDbLine
 10
131.7951892332
 20
136.6073656047338
 30
0.0
 11
131.7016452332
 21
136.2977486047338
 31
0.0
  0
LINE
  5
21A
330
1F
100
AcDbEntity
  8
5
  6
Continuous
 62
     7
100
AcDbLine
 10
129.3232762332
 20
122.8101076047337
 30
0.0
 11
129.2681622332
 21
123.1288176047337
 31
0.0
  0
LINE
  5
21B
330
1F
100
AcDbEntity
  8
5
  6
Continuous
 62
     7
100
AcDbLine
 10
148.6227392332
 20
129.6231566047337
 30
0.0
 11
148.6227392332
 21
137.1231566047337
 31
0.0
  0
LINE
  5
21C
330
1F
100
AcDbEntity
  8
5
  6
Continuous
 62
     7
100
AcDbLine
 10
148.6227392332
 20
122.1231566047337
 30
0.0
 11
148.6227392332
 21
129.6231566047337
 31
0.0
  0
LINE
  5
21D
330
1F
100
AcDbEntity
  8
6
  6
Continuous
 62
     7
100
AcDbLine
 10
138.6227392332
 20
129.6231566047337
 30
0.0
 11
139.5478922332001
 21
136.7913716047337
 31
0.0
  0
LINE
  5
21E
330
1F
100
AcDbEntity
  8
6
  6
Continuous
 62
     7
100
AcDbLine
 10
135.8575222332
 20
129.6231566047337
 30
0.0
 11
135.3024602332
 21
123.0346286047337
 31
0.0
  0
LINE
  5
21F
330
1F
100
AcDbEntity
  8
6
  6
Continuous
 62
     7
100
AcDbLine
 10
136.4103922332
 20
136.1856566047337
 30
0.0
 11
135.8575222332
 21
129.6231566047337
 31
0.0
  0
LINE
  5
220
330
1F
100
AcDbEntity
  8
6
  6
Continuous
 62
     7
100
AcDbLine
 10
136.0480432332
 20
129.6231566047337
 30
0.0
 11
136.5978922332
 21
136.8103696047337
 31
0.0
  0
LINE
  5
221
330
1F
100
AcDbEntity
  8
6
  6
Continuous
 62
     7
100
AcDbLine
 10
135.4978922332
 20
122.4319856047338
 30
0.0
 11
136.0480432332
 21
129.6231566047337
 31
0.0
  0
LINE
  5
222
330
1F
100
AcDbEntity
  8
6
  6
Continuous
 62
     7
100
AcDbLine
 10
137.6978922332
 20
122.4573166047338
 30
0.0
 11
138.6227392332
 21
129.6231566047337
 31
0.0
  0
LINE
  5
223
330
1F
100
AcDbEntity
  8
6
  6
Continuous
 62
     7
100
AcDbLine
 10
138.0897642332002
 20
122.9981566047337
 30
0.0
 11
138.6227392332
 21
129.6231566047337
 31
0.0
  0
LINE
  5
224
330
1F
100
AcDbEntity
  8
6
  6
Continuous
 62
     7
100
AcDbLine
 10
138.1978922332
 20
122.3781576047337
 30
0.0
 11
138.6227392332
 21
129.6231566047337
 31
0.0
  0
LINE
  5
225
330
1F
100
AcDbEntity
  8
5
  6
Continuous
 62
     7
100
AcDbLine
 10
138.1978922332
 20
122.3781576047337
 30
0.0
 11
138.0897642332002
 21
122.9981566047337
 31
0.0
  0
LINE
  5
226
330
1F
100
AcDbEntity
  8
5
  6
Continuous
 62
     7
100
AcDbLine
 10
136.5978922332
 20
136.8103696047337
 30
0.0
 11
136.4103922332
 21
136.1856566047337
 31
0.0
  0
LINE
  5
227
330
1F
100
AcDbEntity
  8
5
  6
Continuous
 62
     7
100
AcDbLine
 10
135.4978922332
 20
122.4319856047338
 30
0.0
 11
135.3024602332
 21
123.0346286047337
 31
0.0
  0
LINE
  5
228
330
1F
100
AcDbEntity
  8
6
  6
Continuous
 62
     7
100
AcDbLine
 10
133.2609242331999
 20
129.6231566047337
 30
0.0
 11
134.0734242331999
 21
136.2696216047337
 31
0.0
  0
LINE
  5
229
330
1F
100
AcDbEntity
  8
6
  6
Continuous
 62
     7
100
AcDbLine
 10
132.4484242331999
 20
122.9766916047338
 30
0.0
 11
133.2609242331999
 21
129.6231566047337
 31
0.0
  0
LINE
  5
22A
330
1F
100
AcDbEntity
  8
6
  6
Continuous
 62
     7
100
AcDbLine
 10
133.3353922332001
 20
129.6231566047337
 30
0.0
 11
132.5228922332001
 21
122.6619416047338
 31
0.0
  0
LINE
  5
22B
330
1F
100
AcDbEntity
  8
6
  6
Continuous
 62
     7
100
AcDbLine
 10
134.1478922332001
 20
136.5843716047337
 30
0.0
 11
133.3353922332001
 21
129.6231566047337
 31
0.0
  0
LINE
  5
22C
330
1F
100
AcDbEntity
  8
6
  6
Continuous
 62
     7
100
AcDbLine
 10
134.9853922332001
 20
129.6231566047337
 30
0.0
 11
135.7978922332001
 21
136.5875376047337
 31
0.0
  0
LINE
  5
22D
330
1F
100
AcDbEntity
  8
6
  6
Continuous
 62
     7
100
AcDbLine
 10
134.1728922332001
 20
122.6587746047338
 30
0.0
 11
134.9853922332001
 21
129.6231566047337
 31
0.0
  0
LINE
  5
22E
330
1F
100
AcDbEntity
  8
5
  6
Continuous
 62
     7
100
AcDbLine
 10
134.1478922332001
 20
136.5843716047337
 30
0.0
 11
134.0734242331999
 21
136.2696216047337
 31
0.0
  0
LINE
  5
22F
330
1F
100
AcDbEntity
  8
5
  6
Continuous
 62
     7
100
AcDbLine
 10
132.5228922332001
 20
122.6619416047338
 30
0.0
 11
132.4484242331999
 21
122.9766916047338
 31
0.0
  0
LWPOLYLINE
  5
230
330
1F
100
AcDbEntity
  8
3
  6
Continuous
 62
   214
100
AcDbPolyline
 90
        2
 70
     0
 43
0.09
 10
150.6227392332
 20
129.6231566047337
 10
162.1950082332
 20
129.6231566047337
  0
LINE
  5
231
330
1F
100
AcDbEntity
  8
7
  6
Continuous
 62
     7
100
AcDbLine
 10
70.09832523320006
 20
148.1547486047337
 30
0.0
 11
82.1907012332
 21
148.1547486047337
 31
0.0
  0
LINE
  5
232
330
1F
100
AcDbEntity
  8
7
  6
Continuous
 62
     7
100
AcDbLine
 10
70.09832523320006
 20
131.3270656047338
 30
0.0
 11
82.1907012332
 21
131.3270656047338
 31
0.0
  0
LINE
  5
233
330
1F
100
AcDbEntity
  8
7
  6
Continuous
 62
     7
100
AcDbLine
 10
70.09832523320006
 20
148.1547486047337
 30
0.0
 11
70.09832523320006
 21
131.3270656047338
 31
0.0
  0
LINE
  5
234
330
1F
100
AcDbEntity
  8
7
  6
Continuous
 62
     7
100
AcDbLine
 10
82.1907012332
 20
148.1547486047337
 30
0.0
 11
82.1907012332
 21
147.2409076047337
 31
0.0
  0
LINE
  5
235
330
1F
100
AcDbEntity
  8
2
  6
DASH_CENTER
 62
     2
100
AcDbLine
 10
68.80824923320006
 20
139.7409076047337
 30
0.0
 11
82.17558855577909
 21
139.7409076047337
 31
0.0
  0
LINE
  5
236
330
1F
100
AcDbEntity
  8
6
  6
Continuous
 62
     7
100
AcDbLine
 10
108.0612598551115
 20
129.5586903900372
 30
0.0
 11
111.1874582332
 21
135.5247706047338
 31
0.0
  0
LINE
  5
237
330
1F
100
AcDbEntity
  8
7
  6
Continuous
 62
     7
100
AcDbLine
 10
82.1907012332
 20
147.2409076047337
 30
0.0
 11
82.1907012332
 21
131.3270656047338
 31
0.0
  0
LINE
  5
238
330
1F
100
AcDbEntity
  8
6
  6
Continuous
 62
     7
100
AcDbLine
 10
90.23476737725446
 20
146.3115871612052
 30
0.0
 11
90.31188723319997
 21
146.9091226047337
 31
0.0
  0
LINE
  5
239
330
1F
100
AcDbEntity
  8
6
  6
Continuous
 62
     7
100
AcDbLine
 10
97.4952762332
 20
139.5121916047337
 30
0.0
 11
99.05964670425669
 21
145.9517994017888
 31
0.0
  0
LINE
  5
23A
330
1F
100
AcDbEntity
  8
6
  6
Continuous
 62
     7
100
AcDbLine
 10
99.05964670425669
 20
145.9517994017888
 30
0.0
 11
99.15046423319995
 21
146.3256426047337
 31
0.0
  0
LINE
  5
23B
330
1F
100
AcDbEntity
  8
6
  6
Continuous
 62
     7
100
AcDbLine
 10
102.1834208824537
 20
145.4162234455821
 30
0.0
 11
102.2550732332001
 21
145.6483496047338
 31
0.0
  0
LINE
  5
23C
330
1F
100
AcDbEntity
  8
6
  6
Continuous
 62
     7
100
AcDbLine
 10
108.3439696116734
 20
143.789243018655
 30
0.0
 11
108.4398062332
 21
144.0029446047338
 31
0.0
  0
LINE
  5
23D
330
1F
100
AcDbEntity
  8
6
  6
Continuous
 62
     7
100
AcDbLine
 10
123.9464460877547
 20
137.2815817895483
 30
0.0
 11
124.1041322332001
 21
137.6331986047338
 31
0.0
  0
LINE
  5
23E
330
1F
100
AcDbEntity
  8
1
  6
Continuous
 62
     4
100
AcDbLine
 10
82.17558855577909
 20
139.7409076047337
 30
0.0
 11
82.20428343395804
 21
139.7409076047337
 31
0.0
  0
LINE
  5
23F
330
1F
100
AcDbEntity
  8
2
  6
DASH_CENTER
 62
     4
100
AcDbLine
 10
82.17558855577909
 20
139.7409076047337
 30
0.0
 11
82.20428343395804
 21
139.7409076047337
 31
0.0
  0
LINE
  5
240
330
1F
100
AcDbEntity
  8
2
  6
DASH_CENTER
 62
     2
100
AcDbLine
 10
82.20428343395804
 20
139.7409076047337
 30
0.0
 11
91.89636423320007
 21
139.7409076047337
 31
0.0
  0
LINE
  5
241
330
1F
100
AcDbEntity
  8
1
  6
Continuous
 62
     7
100
AcDbLine
 10
382.6305474265964
 20
494.4919167674883
 30
0.0
 11
382.6305474265964
 21
480.4919167674883
 31
0.0
  0
LINE
  5
242
330
1F
100
AcDbEntity
  8
1
  6
Continuous
 62
     7
100
AcDbLine
 10
382.6305474265964
 20
508.4919167674883
 30
0.0
 11
382.6305474265964
 21
494.4919167674883
 31
0.0
  0
LINE
  5
243
330
1F
100
AcDbEntity
  8
1
  6
Continuous
 62
     7
100
AcDbLine
 10
382.6305474265964
 20
522.4919167674883
 30
0.0
 11
382.6305474265964
 21
508.4919167674883
 31
0.0
  0
LINE
  5
244
330
1F
100
AcDbEntity
  8
1
  6
Continuous
 62
     7
100
AcDbLine
 10
382.6305474265964
 20
536.4919167674883
 30
0.0
 11
382.6305474265964
 21
522.4919167674883
 31
0.0
  0
LINE
  5
245
330
1F
100
AcDbEntity
  8
1
  6
Continuous
 62
     2
100
AcDbLine
 10
342.6305474265964
 20
550.4919167674883
 30
0.0
 11
342.6305474265964
 21
480.4919167674883
 31
0.0
  0
LINE
  5
246
330
1F
100
AcDbEntity
  8
1
  6
Continuous
 62
     7
100
AcDbLine
 10
342.6305474265964
 20
480.4919167674883
 30
0.0
 11
382.6305474265964
 21
480.4919167674883
 31
0.0
  0
LINE
  5
247
330
1F
100
AcDbEntity
  8
1
  6
Continuous
 62
     7
100
AcDbLine
 10
382.6305474265964
 20
550.4919167674883
 30
0.0
 11
382.6305474265964
 21
536.4919167674883
 31
0.0
  0
LINE
  5
248
330
1F
100
AcDbEntity
  8
1
  6
Continuous
 62
     7
100
AcDbLine
 10
342.6305474265964
 20
550.4919167674883
 30
0.0
 11
382.6305474265964
 21
550.4919167674883
 31
0.0
  0
LINE
  5
249
330
1F
100
AcDbEntity
  8
1
  6
Continuous
 62
     7
100
AcDbLine
 10
312.6305474265964
 20
550.4919167674883
 30
0.0
 11
342.6305474265964
 21
550.4919167674883
 31
0.0
  0
LINE
  5
24A
330
1F
100
AcDbEntity
  8
1
  6
Continuous
 62
     7
100
AcDbLine
 10
312.6305474265964
 20
480.4919167674883
 30
0.0
 11
342.6305474265964
 21
480.4919167674883
 31
0.0
  0
LINE
  5
24B
330
1F
100
AcDbEntity
  8
1
  6
Continuous
 62
     2
100
AcDbLine
 10
312.6305474265964
 20
550.4919167674883
 30
0.0
 11
312.6305474265964
 21
480.4919167674883
 31
0.0
  0
LINE
  5
24C
330
1F
100
AcDbEntity
  8
1
  6
Continuous
 62
     7
100
AcDbLine
 10
197.6305474265964
 20
480.4919167674883
 30
0.0
 11
312.6305474265964
 21
480.4919167674883
 31
0.0
  0
LINE
  5
24D
330
1F
100
AcDbEntity
  8
1
  6
Continuous
 62
     7
100
AcDbLine
 10
197.6305474265964
 20
494.4919167674883
 30
0.0
 11
197.6305474265964
 21
480.4919167674883
 31
0.0
  0
LINE
  5
24E
330
1F
100
AcDbEntity
  8
1
  6
Continuous
 62
     2
100
AcDbLine
 10
197.6305474265964
 20
494.4919167674883
 30
0.0
 11
382.6305474265964
 21
494.4919167674883
 31
0.0
  0
LINE
  5
24F
330
1F
100
AcDbEntity
  8
1
  6
Continuous
 62
     7
100
AcDbLine
 10
197.6305474265964
 20
508.4919167674883
 30
0.0
 11
197.6305474265964
 21
494.4919167674883
 31
0.0
  0
LINE
  5
250
330
1F
100
AcDbEntity
  8
1
  6
Continuous
 62
     2
100
AcDbLine
 10
197.6305474265964
 20
508.4919167674883
 30
0.0
 11
382.6305474265964
 21
508.4919167674883
 31
0.0
  0
LINE
  5
251
330
1F
100
AcDbEntity
  8
1
  6
Continuous
 62
     7
100
AcDbLine
 10
197.6305474265964
 20
522.4919167674883
 30
0.0
 11
197.6305474265964
 21
508.4919167674883
 31
0.0
  0
LINE
  5
252
330
1F
100
AcDbEntity
  8
1
  6
Continuous
 62
     2
100
AcDbLine
 10
197.6305474265964
 20
522.4919167674883
 30
0.0
 11
382.6305474265964
 21
522.4919167674883
 31
0.0
  0
LINE
  5
253
330
1F
100
AcDbEntity
  8
1
  6
Continuous
 62
     7
100
AcDbLine
 10
197.6305474265964
 20
536.4919167674883
 30
0.0
 11
197.6305474265964
 21
522.4919167674883
 31
0.0
  0
LINE
  5
254
330
1F
100
AcDbEntity
  8
1
  6
Continuous
 62
     2
100
AcDbLine
 10
197.6305474265964
 20
536.4919167674883
 30
0.0
 11
382.6305474265964
 21
536.4919167674883
 31
0.0
  0
LINE
  5
255
330
1F
100
AcDbEntity
  8
1
  6
Continuous
 62
     7
100
AcDbLine
 10
197.6305474265964
 20
550.4919167674883
 30
0.0
 11
312.6305474265964
 21
550.4919167674883
 31
0.0
  0
LINE
  5
256
330
1F
100
AcDbEntity
  8
1
  6
Continuous
 62
     2
100
AcDbLine
 10
282.6305474265964
 20
550.4919167674883
 30
0.0
 11
282.6305474265964
 21
480.4919167674883
 31
0.0
  0
LINE
  5
257
330
1F
100
AcDbEntity
  8
1
  6
Continuous
 62
     7
100
AcDbLine
 10
197.6305474265964
 20
550.4919167674883
 30
0.0
 11
197.6305474265964
 21
536.4919167674883
 31
0.0
  0
LINE
  5
258
330
1F
100
AcDbEntity
  8
1
  6
DASH_CENTER
 62
     2
100
AcDbLine
 10
237.337273112915
 20
166.3110178613878
 30
0.0
 11
237.337273112915
 21
412.1224097865945
 31
0.0
  0
LINE
  5
259
330
1F
100
AcDbEntity
  8
1
  6
DASH_CENTER
 62
     2
100
AcDbLine
 10
237.337273112915
 20
412.1224097865945
 30
0.0
 11
237.337273112915
 21
428.5030890660997
 31
0.0
  0
LINE
  5
25A
330
1F
100
AcDbEntity
  8
1
  6
Continuous
 62
     4
100
AcDbLine
 10
237.337273112915
 20
412.1224097865945
 30
0.0
 11
237.3339783242573
 21
412.1224097865945
 31
0.0
  0
LINE
  5
25B
330
1F
100
AcDbEntity
  8
1
  6
DASH_CENTER
 62
     2
100
AcDbLine
 10
276.8371893629152
 20
199.0030228160998
 30
0.0
 11
197.8373568629153
 21
199.0030228160998
 31
0.0
  0
ARC
  5
25C
330
1F
100
AcDbEntity
  8
2
  6
DASH_CENTER
 62
     2
100
AcDbCircle
 10
133.3478912332
 20
175.0981556047337
 30
0.0
 40
45.47499900000037
100
AcDbArc
 50
245.6566259999998
 51
270.0000009999993
  0
ARC
  5
25D
330
1F
100
AcDbEntity
  8
2
  6
DASH_CENTER
 62
     2
100
AcDbCircle
 10
91.89636523319996
 20
94.26590860473382
 30
0.0
 40
45.47499900000003
100
AcDbArc
 50
60.04503099999923
 51
90.00000099999936
  0
ARC
  5
25E
330
1F
100
AcDbEntity
  8
1
  6
Continuous
 62
     7
100
AcDbCircle
 10
133.3753732332001
 20
138.3640126047337
 30
0.0
 40
2.207657999999762
100
AcDbArc
 50
269.2867650000073
 51
288.4329980000081
  0
ARC
  5
25F
330
1F
100
AcDbEntity
  8
1
  6
Continuous
 62
     7
100
AcDbCircle
 10
131.1226312332001
 20
144.3039906047337
 30
0.0
 40
8.027150999999906
100
AcDbArc
 50
269.1003349999989
 51
274.1364480000024
  0
ARC
  5
260
330
1F
100
AcDbEntity
  8
1
  6
Continuous
 62
     7
100
AcDbCircle
 10
128.9367472332
 20
137.2546646047338
 30
0.0
 40
0.8565039999999369
100
AcDbArc
 50
249.4435829999744
 51
296.7798789999898
  0
ARC
  5
261
330
1F
100
AcDbEntity
  8
1
  6
Continuous
 62
     7
100
AcDbCircle
 10
122.3107624433793
 20
138.8566562066455
 30
0.0
 40
1.009500520912506
100
AcDbArc
 50
233.878971674867
 51
273.0161046748812
  0
ARC
  5
262
330
1F
100
AcDbEntity
  8
1
  6
Continuous
 62
     7
100
AcDbCircle
 10
102.7534162332
 20
128.4570426047337
 30
0.0
 40
3.016039000000478
100
AcDbArc
 50
76.82916100000818
 51
88.72875199999304
  0
ARC
  5
263
330
1F
100
AcDbEntity
  8
1
  6
Continuous
 62
     7
100
AcDbCircle
 10
100.7031832332
 20
131.6538556047337
 30
0.0
 40
0.5855020000002845
100
AcDbArc
 50
39.87827000001938
 51
101.3298469999752
  0
ARC
  5
264
330
1F
100
AcDbEntity
  8
1
  6
Continuous
 62
     7
100
AcDbCircle
 10
98.51998223320004
 20
132.5258986047338
 30
0.0
 40
0.3098640000002991
100
AcDbArc
 50
359.628846999932
 51
176.1960960000717
  0
ARC
  5
265
330
1F
100
AcDbEntity
  8
1
  6
Continuous
 62
     7
100
AcDbCircle
 10
96.16933423320006
 20
132.7342086047338
 30
0.0
 40
0.3426100000000709
100
AcDbArc
 50
24.41247299995971
 51
141.7676509999543
  0
ARC
  5
266
330
1F
100
AcDbEntity
  8
1
  6
Continuous
 62
     7
100
AcDbCircle
 10
93.88822323320005
 20
132.9322306047337
 30
0.0
 40
0.4040160000000504
100
AcDbArc
 50
46.32603000009652
 51
162.7991349999706
  0
ARC
  5
267
330
1F
100
AcDbEntity
  8
1
  6
Continuous
 62
     7
100
AcDbCircle
 10
89.13475323320006
 20
130.9587856047337
 30
0.0
 40
2.147439000000355
100
AcDbArc
 50
83.99529099999471
 51
106.6685169999969
  0
ARC
  5
268
330
1F
100
AcDbEntity
  8
1
  6
Continuous
 62
     7
100
AcDbCircle
 10
87.2382992332
 20
145.1814276047338
 30
0.0
 40
1.123798999999491
100
AcDbArc
 50
86.13558500002057
 51
92.10984999998301
  0
ARC
  5
269
330
1F
100
AcDbEntity
  8
5
  6
Continuous
 62
     7
100
AcDbCircle
 10
87.25749423320008
 20
141.6290226047338
 30
0.0
 40
9.133710999999755
100
AcDbArc
 50
263.7421219999994
 51
277.5772259999993
  0
ARC
  5
26A
330
1F
100
AcDbEntity
  8
5
  6
Continuous
 62
     7
100
AcDbCircle
 10
90.26930423320005
 20
138.2181266047338
 30
0.0
 40
5.502229000000121
100
AcDbArc
 50
261.2666290000018
 51
278.5134699999966
  0
ARC
  5
26B
330
1F
100
AcDbEntity
  8
5
  6
Continuous
 62
     7
100
AcDbCircle
 10
91.89430423320005
 20
141.2636886047337
 30
0.0
 40
5.50222900000019
100
AcDbArc
 50
81.48653000000341
 51
98.7333709999982
  0
ARC
  5
26C
330
1F
100
AcDbEntity
  8
5
  6
Continuous
 62
     7
100
AcDbCircle
 10
92.96277623319997
 20
138.2053596047338
 30
0.0
 40
5.502228999999487
100
AcDbArc
 50
257.7666290000034
 51
275.0134700000049
  0
ARC
  5
26D
330
1F
100
AcDbEntity
  8
5
  6
Continuous
 62
     7
100
AcDbCircle
 10
94.7706722332
 20
141.1460366047338
 30
0.0
 40
5.502229000000218
100
AcDbArc
 50
77.98652999999653
 51
95.23337100000347
  0
ARC
  5
26E
330
1F
100
AcDbEntity
  8
5
  6
Continuous
 62
     7
100
AcDbCircle
 10
95.69476323319998
 20
138.1990506047338
 30
0.0
 40
5.502229000000275
100
AcDbArc
 50
254.2666289999991
 51
271.5134699999995
  0
ARC
  5
26F
330
1F
100
AcDbEntity
  8
5
  6
Continuous
 62
     7
100
AcDbCircle
 10
97.67881123320001
 20
141.0238736047338
 30
0.0
 40
5.5022289999995
100
AcDbArc
 50
74.48653000000317
 51
91.73337099999803
  0
ARC
  5
270
330
1F
100
AcDbEntity
  8
5
  6
Continuous
 62
     7
100
AcDbCircle
 10
98.30970123320003
 20
137.7478806047337
 30
0.0
 40
5.502229000000205
100
AcDbArc
 50
250.7666290000003
 51
268.0134699999953
  0
ARC
  5
271
330
1F
100
AcDbEntity
  8
5
  6
Continuous
 62
     7
100
AcDbCircle
 10
100.4625002332
 20
140.4463106047337
 30
0.0
 40
5.502229000000442
100
AcDbArc
 50
70.98653000000232
 51
88.23337099999931
  0
ARC
  5
272
330
1F
100
AcDbEntity
  8
5
  6
Continuous
 62
     7
100
AcDbCircle
 10
100.9522502332
 20
137.2752536047337
 30
0.0
 40
5.502229000000321
100
AcDbArc
 50
247.2666289999968
 51
264.5134699999985
  0
ARC
  5
273
330
1F
100
AcDbEntity
  8
5
  6
Continuous
 62
     7
100
AcDbCircle
 10
103.2657692332
 20
139.8372256047338
 30
0.0
 40
5.502229000000346
100
AcDbArc
 50
67.48652999999615
 51
84.73337099999969
  0
ARC
  5
274
330
1F
100
AcDbEntity
  8
5
  6
Continuous
 62
     7
100
AcDbCircle
 10
103.5610172332
 20
136.6421846047337
 30
0.0
 40
5.502229000000228
100
AcDbArc
 50
243.766629000001
 51
261.0134699999994
  0
ARC
  5
275
330
1F
100
AcDbEntity
  8
5
  6
Continuous
 62
     7
100
AcDbCircle
 10
106.0266252332
 20
139.0581416047338
 30
0.0
 40
5.502228999999882
100
AcDbArc
 50
63.98652999999746
 51
81.23337100000212
  0
ARC
  5
276
330
1F
100
AcDbEntity
  8
5
  6
Continuous
 62
     7
100
AcDbCircle
 10
106.1262722332
 20
135.8510346047337
 30
0.0
 40
5.502229000000354
100
AcDbArc
 50
240.2666290000021
 51
257.5134699999967
  0
ARC
  5
277
330
1F
100
AcDbEntity
  8
5
  6
Continuous
 62
     7
100
AcDbCircle
 10
108.7347722332
 20
138.1119626047338
 30
0.0
 40
5.502229000000074
100
AcDbArc
 50
60.48653000000429
 51
77.73337099999922
  0
ARC
  5
278
330
1F
100
AcDbEntity
  8
5
  6
Continuous
 62
     7
100
AcDbCircle
 10
109.1227502332
 20
134.6862186047338
 30
0.0
 40
5.502229000000478
100
AcDbArc
 50
240.266629000004
 51
257.5134699999967
  0
ARC
  5
279
330
1F
100
AcDbEntity
  8
5
  6
Continuous
 62
     7
100
AcDbCircle
 10
111.7312502332001
 20
136.9471466047338
 30
0.0
 40
5.502228999999926
100
AcDbArc
 50
60.48653000000462
 51
77.73337100000023
  0
ARC
  5
27A
330
1F
100
AcDbEntity
  8
5
  6
Continuous
 62
     7
100
AcDbCircle
 10
113.5580582332
 20
132.4582156047337
 30
0.0
 40
5.50222899999949
100
AcDbArc
 50
240.2666289999969
 51
257.5134699999958
  0
ARC
  5
27B
330
1F
100
AcDbEntity
  8
5
  6
Continuous
 62
     7
100
AcDbCircle
 10
116.1665582332
 20
134.7191446047337
 30
0.0
 40
5.502229000000148
100
AcDbArc
 50
60.48653000000473
 51
77.73337100000062
  0
ARC
  5
27C
330
1F
100
AcDbEntity
  8
5
  6
Continuous
 62
     7
100
AcDbCircle
 10
116.5151382332
 20
131.2182096047337
 30
0.0
 40
5.502228999999423
100
AcDbArc
 50
240.2666289999976
 51
257.5134699999967
  0
ARC
  5
27D
330
1F
100
AcDbEntity
  8
5
  6
Continuous
 62
     7
100
AcDbCircle
 10
119.1236382332
 20
133.4791376047337
 30
0.0
 40
5.502229000000173
100
AcDbArc
 50
60.48653000000488
 51
77.73337099999952
  0
ARC
  5
27E
330
1F
100
AcDbEntity
  8
5
  6
Continuous
 62
     7
100
AcDbCircle
 10
119.2253432332
 20
130.2724386047338
 30
0.0
 40
5.502229000000267
100
AcDbArc
 50
243.7666290000025
 51
261.0134699999994
  0
ARC
  5
27F
330
1F
100
AcDbEntity
  8
5
  6
Continuous
 62
     7
100
AcDbCircle
 10
121.6909512332001
 20
132.6883946047337
 30
0.0
 40
5.502228999999882
100
AcDbArc
 50
63.98652999999746
 51
81.23337100000245
  0
ARC
  5
280
330
1F
100
AcDbEntity
  8
5
  6
Continuous
 62
     7
100
AcDbCircle
 10
121.9882292332001
 20
129.4938856047338
 30
0.0
 40
5.502229000000454
100
AcDbArc
 50
247.2666289999966
 51
264.5134699999977
  0
ARC
  5
281
330
1F
100
AcDbEntity
  8
5
  6
Continuous
 62
     7
100
AcDbCircle
 10
124.3017472332
 20
132.0558576047338
 30
0.0
 40
5.502229000000387
100
AcDbArc
 50
67.48652999999744
 51
84.7333710000008
  0
ARC
  5
282
330
1F
100
AcDbEntity
  8
5
  6
Continuous
 62
     7
100
AcDbCircle
 10
124.7934912332
 20
128.8854556047338
 30
0.0
 40
5.502229000000384
100
AcDbArc
 50
250.7666290000012
 51
268.0134699999963
  0
ARC
  5
283
330
1F
100
AcDbEntity
  8
5
  6
Continuous
 62
     7
100
AcDbCircle
 10
126.9462892332
 20
131.5838856047337
 30
0.0
 40
5.502229000000512
100
AcDbArc
 50
70.98653000000382
 51
88.23337099999931
  0
ARC
  5
284
330
1F
100
AcDbEntity
  8
5
  6
Continuous
 62
     7
100
AcDbCircle
 10
127.6483822332
 20
128.5937096047338
 30
0.0
 40
5.502229000000273
100
AcDbArc
 50
254.2666289999986
 51
271.5134699999985
  0
ARC
  5
285
330
1F
100
AcDbEntity
  8
5
  6
Continuous
 62
     7
100
AcDbCircle
 10
129.6324302332
 20
131.4185316047337
 30
0.0
 40
5.502228999999722
100
AcDbArc
 50
74.48653000000259
 51
91.73337099999794
  0
ARC
  5
286
330
1F
100
AcDbEntity
  8
5
  6
Continuous
 62
     7
100
AcDbCircle
 10
130.4891662332001
 20
128.1873966047337
 30
0.0
 40
5.502228999999429
100
AcDbArc
 50
257.7666290000021
 51
275.0134700000036
  0
ARC
  5
287
330
1F
100
AcDbEntity
  8
5
  6
Continuous
 62
     7
100
AcDbCircle
 10
132.2970622332
 20
131.1280726047338
 30
0.0
 40
5.502229000000272
100
AcDbArc
 50
77.98652999999392
 51
95.23337100000347
  0
ARC
  5
288
330
1F
100
AcDbEntity
  8
5
  6
Continuous
 62
     7
100
AcDbCircle
 10
137.9784702332
 20
122.1392296047337
 30
0.0
 40
14.73595400000028
100
AcDbArc
 50
83.8862400000006
 51
95.3757970000003
  0
ARC
  5
289
330
1F
100
AcDbEntity
  8
1
  6
Continuous
 62
     7
100
AcDbCircle
 10
134.9728922332
 20
128.7402016047338
 30
0.0
 40
7.582954999999515
100
AcDbArc
 50
79.0723139999993
 51
84.02495500000191
  0
ARC
  5
28A
330
1F
100
AcDbEntity
  8
5
  6
Continuous
 62
     7
100
AcDbCircle
 10
134.9833312332
 20
131.1459376047337
 30
0.0
 40
5.502229000000211
100
AcDbArc
 50
81.48653000000195
 51
98.73337099999762
  0
ARC
  5
28B
330
1F
100
AcDbEntity
  8
5
  6
Continuous
 62
     7
100
AcDbCircle
 10
82.69963023319997
 20
151.7343026047338
 30
0.0
 40
19.51249000000033
100
AcDbArc
 50
268.5054300000009
 51
280.5190790000003
  0
ARC
  5
28C
330
1F
100
AcDbEntity
  8
5
  6
Continuous
 62
     7
100
AcDbCircle
 10
133.3583337700165
 20
128.1003757082021
 30
0.0
 40
5.502229371736994
100
AcDbArc
 50
261.2666064631181
 51
278.5134474631195
  0
ARC
  5
28D
330
1F
100
AcDbEntity
  8
5
  6
Continuous
 62
     7
100
AcDbCircle
 10
136.5143764235531
 20
129.6980079093586
 30
0.0
 40
7.336778601030774
100
AcDbArc
 50
262.0362591628818
 51
279.2831001628826
  0
ARC
  5
28E
330
1F
100
AcDbEntity
  8
1
  6
Continuous
 62
     7
100
AcDbCircle
 10
134.9077717886532
 20
120.3429530779487
 30
0.0
 40
2.720457537822009
100
AcDbArc
 50
81.65799583820534
 51
104.873582024332
  0
ARC
  5
28F
330
1F
100
AcDbEntity
  8
1
  6
Continuous
 62
     7
100
AcDbCircle
 10
137.9511110009252
 20
122.5177654986331
 30
0.0
 40
0.5000000000055776
100
AcDbArc
 50
73.9005245377991
 51
111.7761304624218
  0
ARC
  5
290
330
1F
100
AcDbEntity
  8
1
  6
Continuous
 62
     7
100
AcDbCircle
 10
131.6255742389614
 20
119.0513163223541
 30
0.0
 40
4.010692361742024
100
AcDbArc
 50
78.16089590713456
 51
98.60269236614633
  0
ARC
  5
291
330
1F
100
AcDbEntity
  8
1
  6
Continuous
 62
     7
100
AcDbCircle
 10
128.2398591392141
 20
121.5700681491572
 30
0.0
 40
1.867379746693483
100
AcDbArc
 50
56.58726411857217
 51
101.4797335337443
  0
ARC
  5
292
330
1F
100
AcDbEntity
  8
1
  6
Continuous
 62
     7
100
AcDbCircle
 10
125.3179774028361
 20
121.7873271166986
 30
0.0
 40
1.999999999999557
100
AcDbArc
 50
66.33240013995712
 51
108.1234384258789
  0
ARC
  5
293
330
1F
100
AcDbEntity
  8
1
  6
Continuous
 62
     7
100
AcDbCircle
 10
121.4407085267874
 20
120.3038167182015
 30
0.0
 40
4.010571099590081
100
AcDbArc
 50
67.6604839127706
 51
88.10290528446829
  0
ARC
  5
294
330
1F
100
AcDbEntity
  8
1
  6
Continuous
 62
     7
100
AcDbCircle
 10
118.1177964519426
 20
121.1329123922945
 30
0.0
 40
4.010595124506729
100
AcDbArc
 50
64.16054511755861
 51
84.60283075929277
  0
ARC
  5
295
330
1F
100
AcDbEntity
  8
1
  6
Continuous
 62
     7
100
AcDbCircle
 10
114.8517052497091
 20
122.1633485802773
 30
0.0
 40
4.010590894943898
100
AcDbArc
 50
60.66052553654682
 51
81.10286130571431
  0
ARC
  5
296
330
1F
100
AcDbEntity
  8
1
  6
Continuous
 62
     7
100
AcDbCircle
 10
112.4072025498804
 20
125.4004107610139
 30
0.0
 40
1.968227807701993
100
AcDbArc
 50
43.72798555319331
 51
86.8630780140516
  0
ARC
  5
297
330
1F
100
AcDbEntity
  8
1
  6
Continuous
 62
     7
100
AcDbCircle
 10
101.507423930825
 20
114.4161267141754
 30
0.0
 40
16.50000000000024
100
AcDbArc
 50
62.96227089079088
 51
66.59661082332339
  0
ARC
  5
298
330
1F
100
AcDbEntity
  8
1
  6
Continuous
 62
     7
100
AcDbCircle
 10
104.3431317972018
 20
126.290643589017
 30
0.0
 40
4.46036495090421
100
AcDbArc
 50
62.00045199233312
 51
80.88558931982134
  0
ARC
  5
299
330
1F
100
AcDbEntity
  8
1
  6
Continuous
 62
     7
100
AcDbCircle
 10
91.39898397751926
 20
132.2073682744976
 30
0.0
 40
1.000000000004861
100
AcDbArc
 50
69.95309800090159
 51
105.6142777504472
  0
ARC
  5
29A
330
1F
100
AcDbEntity
  8
1
  6
Continuous
 62
     7
100
AcDbCircle
 10
83.51846095022722
 20
126.6019297987017
 30
0.0
 40
20.68164284441749
100
AcDbArc
 50
79.64869934624686
 51
93.68091570733472
  0
ARC
  5
29B
330
1F
100
AcDbEntity
  8
1
  6
Continuous
 62
     7
100
AcDbCircle
 10
88.67625315333919
 20
134.5165965847169
 30
0.0
 40
12.49999999999983
100
AcDbArc
 50
82.48124470667736
 51
96.02894532325466
  0
ARC
  5
29C
330
1F
100
AcDbEntity
  8
1
  6
Continuous
 62
     7
100
AcDbCircle
 10
90.36099262935659
 20
148.8083985649233
 30
0.0
 40
2.500000000000983
100
AcDbArc
 50
267.1058997943562
 51
284.4397524794203
  0
ARC
  5
29D
330
1F
100
AcDbEntity
  8
1
  6
Continuous
 62
     7
100
AcDbCircle
 10
93.75776027092252
 20
150.2642377798629
 30
0.0
 40
3.970535724199741
100
AcDbArc
 50
254.2244970988334
 51
276.0357236027824
  0
ARC
  5
29E
330
1F
100
AcDbEntity
  8
1
  6
Continuous
 62
     7
100
AcDbCircle
 10
96.5213244599646
 20
148.5607133794081
 30
0.0
 40
2.500000000000981
100
AcDbArc
 50
254.3939864189614
 51
290.579867115399
  0
ARC
  5
29F
330
1F
100
AcDbEntity
  8
1
  6
Continuous
 62
     7
100
AcDbCircle
 10
100.5558753301783
 20
149.5051296518105
 30
0.0
 40
3.855496850828248
100
AcDbArc
 50
247.1651190047658
 51
269.192599265912
  0
ARC
  5
2A0
330
1F
100
AcDbEntity
  8
1
  6
Continuous
 62
     7
100
AcDbCircle
 10
103.9575515523105
 20
149.1401494380899
 30
0.0
 40
4.124944173123969
100
AcDbArc
 50
244.5262177390329
 51
265.3398787791433
  0
ARC
  5
2A1
330
1F
100
AcDbEntity
  8
1
  6
Continuous
 62
     7
100
AcDbCircle
 10
107.2418861316864
 20
148.1174412789613
 30
0.0
 40
3.936676640288868
100
AcDbArc
 50
240.2639687907406
 51
262.0815123585629
  0
ARC
  5
2A2
330
1F
100
AcDbEntity
  8
1
  6
Continuous
 62
     7
100
AcDbCircle
 10
110.4861133963217
 20
147.0311305345434
 30
0.0
 40
3.885693587994355
100
AcDbArc
 50
236.5444466833106
 51
258.6509534425511
  0
ARC
  5
2A3
330
1F
100
AcDbEntity
  8
1
  6
Continuous
 62
     7
100
AcDbCircle
 10
112.8063441208144
 20
144.6331181307696
 30
0.0
 40
2.578034606427241
100
AcDbArc
 50
233.3918302787118
 51
268.0349407046571
  0
ARC
  5
2A4
330
1F
100
AcDbEntity
  8
1
  6
Continuous
 62
     7
100
AcDbCircle
 10
122.8415454444362
 20
146.1913564837702
 30
0.0
 40
8.07846430588927
100
AcDbArc
 50
239.4415871657834
 51
250.2396978794515
  0
ARC
  5
2A5
330
1F
100
AcDbEntity
  8
1
  6
Continuous
 62
     7
100
AcDbCircle
 10
124.3471341599953
 20
138.1977963216201
 30
0.0
 40
1.000000000007715
100
AcDbArc
 50
246.3787997559803
 51
288.1354939851636
  0
ARC
  5
2A6
330
1F
100
AcDbEntity
  8
1
  6
Continuous
 62
     7
100
AcDbCircle
 10
126.5975841831587
 20
137.709354320496
 30
0.0
 40
1.000000000003513
100
AcDbArc
 50
250.7429433821378
 51
292.8146975136462
  0
ARC
  5
2A7
330
1F
100
AcDbEntity
  8
1
  6
Continuous
 62
     7
100
AcDbCircle
 10
146.0151913731569
 20
84.17209852570892
 30
0.0
 40
53.01522288485329
100
AcDbArc
 50
87.18077596747918
 51
97.00693470258794
  0
ARC
  5
2A8
330
1F
100
AcDbEntity
  8
1
  6
Continuous
 62
     7
100
AcDbCircle
 10
145.3256821492147
 20
200.5538866445909
 30
0.0
 40
78.50000000000009
100
AcDbArc
 50
264.7903752270088
 51
272.4071724914313
  0
ARC
  5
2A9
330
1F
100
AcDbEntity
  8
1
  6
Continuous
 62
     7
100
AcDbCircle
 10
107.2976880038716
 20
125.3676891466631
 30
0.0
 40
17.50000000000005
100
AcDbArc
 50
65.14665349752346
 51
66.50358965709383
  0
ARC
  5
2AA
330
1F
100
AcDbEntity
  8
1
  6
Continuous
 62
     7
100
AcDbCircle
 10
101.507423930825
 20
114.4161267141754
 30
0.0
 40
16.49999999999998
100
AcDbArc
 50
55.41865456359603
 51
59.42632263415666
  0
ARC
  5
2AB
330
1F
100
AcDbEntity
  8
1
  6
Continuous
 62
     7
100
AcDbCircle
 10
107.2976880038716
 20
125.3676891466631
 30
0.0
 40
17.49999999999979
100
AcDbArc
 50
55.72434131831312
 51
61.9003117616508
  0
LINE
  5
2AC
330
1F
100
AcDbEntity
  8
1
  6
Continuous
 62
     7
100
AcDbLine
 10
102.1834208824537
 20
145.4162234455821
 30
0.0
 11
102.1834211422348
 21
145.4162233218204
 31
0.0
  0
SPLINE
  5
2AD
330
1F
100
AcDbEntity
  8
1
  6
Continuous
 62
     2
100
AcDbSpline
210
0.0
220
0.0
230
1.0
 70
     8
 71
     3
 72
     9
 73
     5
 74
     3
 42
0.000000001
 43
0.0000000001
 44
0.00000001
 40
0.0
 40
0.0
 40
0.0
 40
0.0
 40
6.753502173369581
 40
13.43070958153521
 40
13.43070958153521
 40
13.43070958153521
 40
13.43070958153521
 10
109.0079465189155
 20
129.1127984770458
 30
0.0
 10
110.2116832335411
 20
131.0269726213434
 30
0.0
 10
112.6055579510548
 20
134.8336963658792
 30
0.0
 10
113.9730336085699
 20
139.1173124411759
 30
0.0
 10
114.6528873730169
 20
141.2469536837922
 30
0.0
 11
109.0079465189155
 21
129.1127984770458
 31
0.0
 11
112.3596333169584
 21
134.9759023670442
 31
0.0
 11
114.6528873730169
 21
141.2469536837922
 31
0.0
  0
SPLINE
  5
2AE
330
1F
100
AcDbEntity
  8
1
  6
Continuous
 62
     2
100
AcDbSpline
210
0.0
220
0.0
230
1.0
 70
     8
 71
     3
 72
     9
 73
     5
 74
     3
 42
0.000000001
 43
0.0000000001
 44
0.00000001
 40
0.0
 40
0.0
 40
0.0
 40
0.0
 40
6.788398215325812
 40
13.47110605168287
 40
13.47110605168287
 40
13.47110605168287
 40
13.47110605168287
 10
109.900081657678
 20
128.6222273853624
 30
0.0
 10
111.1014893451833
 20
130.5512213601352
 30
0.0
 10
113.4855996663862
 20
134.3791762980356
 30
0.0
 10
114.858999611711
 20
138.6742608598254
 30
0.0
 10
115.5403119270482
 20
140.8049541525207
 30
0.0
 11
109.900081657678
 21
128.6222273853624
 31
0.0
 11
113.247646694081
 21
134.5278313907214
 31
0.0
 11
115.5403119270482
 21
140.8049541525207
 31
0.0
  0
MTEXT
  5
2AF
330
1F
100
AcDbEntity
  8
1
 62
     7
100
AcDbMText
 10
114.0
 20
45.50000000000002
 30
0.0
 40
7.0
 41
0.0
 71
     5
 72
     1
  1
パン排水フレキ
  7
CONVERTER_11
 73
     1
 44
0.54545454545455
  0
MTEXT
  5
2B0
330
1F
100
AcDbEntity
  8
1
 62
     7
100
AcDbMText
 10
114.0
 20
28.5
 30
0.0
 40
7.0
 41
0.0
 71
     5
 72
     1
  1
H640B-50Xサイズ
  7
CONVERTER_11
 73
     1
 44
0.54545454545455
  0
MTEXT
  5
2B2
330
1F
100
AcDbEntity
  8
1
 62
     7
100
AcDbMText
 10
170.5
 20
34.0
 30
0.0
 40
7.0
 41
0.0
 71
     5
 72
     1
  1
1
  7
CONVERTER_12
 73
     1
 44
0.7202881152461
  0
MTEXT
  5
2B3
330
1F
100
AcDbEntity
  8
1
 62
     7
100
AcDbMText
 10
187.5
 20
34.0
 30
0.0
 40
7.0
 41
0.0
 71
     5
 72
     1
  1
2
  7
CONVERTER_12
 73
     1
 44
0.7202881152461
  0
MTEXT
  5
2B4
330
1F
100
AcDbEntity
  8
1
 62
     7
100
AcDbMText
 10
362.6305474265964
 20
487.4919167674883
 30
0.0
 40
7.0
 41
0.0
 71
     5
 72
     1
  1
50以下
  7
CONVERTER_11
 73
     1
 44
0.54545454545455
  0
MTEXT
  5
2B5
330
1F
100
AcDbEntity
  8
1
 62
     7
100
AcDbMText
 10
362.6305474265964
 20
501.4919167674883
 30
0.0
 40
7.0
 41
0.0
 71
     5
 72
     1
  1
40以下
  7
CONVERTER_11
 73
     1
 44
0.54545454545455
  0
MTEXT
  5
2B6
330
1F
100
AcDbEntity
  8
1
 62
     7
100
AcDbMText
 10
362.6305474265964
 20
515.4919167674883
 30
0.0
 40
7.0
 41
0.0
 71
     5
 72
     1
  1
30以下
  7
CONVERTER_11
 73
     1
 44
0.54545454545455
  0
MTEXT
  5
2B7
330
1F
100
AcDbEntity
  8
1
 62
     7
100
AcDbMText
 10
362.6305474265964
 20
529.4919167674883
 30
0.0
 40
7.0
 41
0.0
 71
     5
 72
     1
  1
20以下
  7
CONVERTER_11
 73
     1
 44
0.54545454545455
  0
MTEXT
  5
2B8
330
1F
100
AcDbEntity
  8
1
 62
     7
100
AcDbMText
 10
301.6122373240314
 20
105.0931386349284
 30
0.0
 40
10.0
 41
0.0
 71
     5
 72
     1
  1
注、ネジリ、引張り配管はしないこと。
  7
CONVERTER_11
 73
     1
 44
0.68181818181818
  0
MTEXT
  5
2B9
330
1F
100
AcDbEntity
  8
1
 62
     7
100
AcDbMText
 10
240.1305474265964
 20
487.4919167674883
 30
0.0
 40
7.0
 41
0.0
 71
     5
 72
     1
  1
H640B-50X400
  7
CONVERTER_12
 73
     1
 44
0.7202881152461
  0
MTEXT
  5
2BA
330
1F
100
AcDbEntity
  8
1
 62
     7
100
AcDbMText
 10
240.1305474265964
 20
501.4919167674883
 30
0.0
 40
7.0
 41
0.0
 71
     5
 72
     1
  1
H640B-50X350
  7
CONVERTER_12
 73
     1
 44
0.7202881152461
  0
MTEXT
  5
2BB
330
1F
100
AcDbEntity
  8
1
 62
     7
100
AcDbMText
 10
240.1305474265964
 20
515.4919167674883
 30
0.0
 40
7.0
 41
0.0
 71
     5
 72
     1
  1
H640B-50X300
  7
CONVERTER_12
 73
     1
 44
0.7202881152461
  0
MTEXT
  5
2BC
330
1F
100
AcDbEntity
  8
1
 62
     7
100
AcDbMText
 10
327.6305474265964
 20
529.4919167674883
 30
0.0
 40
7.0
 41
0.0
 71
     5
 72
     1
  1
222
  7
CONVERTER_12
 73
     1
 44
0.7202881152461
  0
MTEXT
  5
2BD
330
1F
100
AcDbEntity
  8
1
 62
     7
100
AcDbMText
 10
327.6305474265964
 20
515.4919167674883
 30
0.0
 40
7.0
 41
0.0
 71
     5
 72
     1
  1
272
  7
CONVERTER_12
 73
     1
 44
0.7202881152461
  0
MTEXT
  5
2BE
330
1F
100
AcDbEntity
  8
1
 62
     7
100
AcDbMText
 10
327.6305474265964
 20
501.4919167674883
 30
0.0
 40
7.0
 41
0.0
 71
     5
 72
     1
  1
322
  7
CONVERTER_12
 73
     1
 44
0.7202881152461
  0
MTEXT
  5
2BF
330
1F
100
AcDbEntity
  8
1
 62
     7
100
AcDbMText
 10
327.6305474265964
 20
487.4919167674883
 30
0.0
 40
7.0
 41
0.0
 71
     5
 72
     1
  1
372
  7
CONVERTER_12
 73
     1
 44
0.7202881152461
  0
MTEXT
  5
2C0
330
1F
100
AcDbEntity
  8
1
 62
     7
100
AcDbMText
 10
297.6305474265964
 20
487.4919167674883
 30
0.0
 40
7.0
 41
0.0
 71
     5
 72
     1
  1
400
  7
CONVERTER_12
 73
     1
 44
0.7202881152461
  0
MTEXT
  5
2C1
330
1F
100
AcDbEntity
  8
1
 62
     7
100
AcDbMText
 10
297.6305474265964
 20
501.4919167674883
 30
0.0
 40
7.0
 41
0.0
 71
     5
 72
     1
  1
350
  7
CONVERTER_12
 73
     1
 44
0.7202881152461
  0
MTEXT
  5
2C2
330
1F
100
AcDbEntity
  8
1
 62
     7
100
AcDbMText
 10
297.6305474265964
 20
515.4919167674883
 30
0.0
 40
7.0
 41
0.0
 71
     5
 72
     1
  1
300
  7
CONVERTER_12
 73
     1
 44
0.7202881152461
  0
MTEXT
  5
2C3
330
1F
100
AcDbEntity
  8
1
 62
     7
100
AcDbMText
 10
297.6305474265964
 20
529.4919167674883
 30
0.0
 40
7.0
 41
0.0
 71
     5
 72
     1
  1
250
  7
CONVERTER_12
 73
     1
 44
0.7202881152461
  0
MTEXT
  5
2C4
330
1F
100
AcDbEntity
  8
1
 62
     7
100
AcDbMText
 10
327.6305474265964
 20
543.4919167674883
 30
0.0
 40
7.0
 41
0.0
 71
     5
 72
     1
  1
L2
  7
CONVERTER_12
 73
     1
 44
0.7202881152461
  0
MTEXT
  5
2C5
330
1F
100
AcDbEntity
  8
1
 62
     7
100
AcDbMText
 10
297.6305474265964
 20
543.4919167674883
 30
0.0
 40
7.0
 41
0.0
 71
     5
 72
     1
  1
L1
  7
CONVERTER_12
 73
     1
 44
0.7202881152461
  0
MTEXT
  5
2C6
330
1F
100
AcDbEntity
  8
1
 62
     7
100
AcDbMText
 10
240.1305474265964
 20
543.4919167674883
 30
0.0
 40
7.0
 41
0.0
 71
     5
 72
     1
  1
品番
  7
CONVERTER_11
 73
     1
 44
0.54545454545455
  0
MTEXT
  5
2C7
330
1F
100
AcDbEntity
  8
1
 62
     7
100
AcDbMText
 10
240.1305474265964
 20
529.4919167674883
 30
0.0
 40
7.0
 41
0.0
 71
     5
 72
     1
  1
H640B-50X250
  7
CONVERTER_12
 73
     1
 44
0.7202881152461
  0
MTEXT
  5
2C8
330
1F
100
AcDbEntity
  8
1
 62
     7
100
AcDbMText
 10
362.6305474265964
 20
543.4919167674883
 30
0.0
 40
7.0
 41
0.0
 71
     5
 72
     1
  1
許容変位量
  7
CONVERTER_11
 73
     1
 44
0.54545454545455
  0
DIMENSION
  5
2D3
330
1F
100
AcDbEntity
  8
1
100
AcDbDimension
  2
*D4
 10
207.3372731129152
 20
442.5030890660997
 30
0.0
 11
237.337273112915
 21
448.0030890660997
 31
0.0
 70
    32
  1
<>
 71
     5
 42
-1.0
 53
0.00013888888889
  3
ME10_DIM_10
100
AcDbAlignedDimension
 13
267.3372731129152
 23
422.5030890660997
 33
0.0
 14
207.3372731129152
 24
422.5030890660997
 34
0.0
100
AcDbRotatedDimension
  0
DIMENSION
  5
2DE
330
1F
100
AcDbEntity
  8
1
100
AcDbDimension
  2
*D5
 10
207.3373568629153
 20
152.5030890660997
 30
0.0
 11
237.337273112915
 21
158.0030890660997
 31
0.0
 70
    32
  1
<>
 71
     5
 42
-1.0
 53
0.00013888888889
  3
ME10_DIM_11
100
AcDbAlignedDimension
 13
267.3371893629152
 23
168.0893762220898
 33
0.0
 14
207.3373568629153
 24
167.7163940497048
 34
0.0
100
AcDbRotatedDimension
  0
DIMENSION
  5
2E9
330
1F
100
AcDbEntity
  8
1
100
AcDbDimension
  2
*D6
 10
203.8373568629153
 20
136.5030890660997
 30
0.0
 11
237.337273112915
 21
142.0030890660997
 31
0.0
 70
    32
  1
<>
 71
     5
 42
-1.0
 53
0.00013888888889
  3
ME10_DIM_12
100
AcDbAlignedDimension
 13
270.8371893629152
 23
172.5030890660997
 33
0.0
 14
203.8373568629153
 24
172.5030890660997
 34
0.0
100
AcDbRotatedDimension
  0
DIMENSION
  5
2F4
330
1F
100
AcDbEntity
  8
1
100
AcDbDimension
  2
*D7
 10
187.959714967921
 20
372.5030890660997
 30
0.0
 11
182.459714967921
 21
397.5030890660997
 31
0.0
 70
    32
  1
<>
 71
     5
 42
-1.0
 53
90.0
  3
ME10_DIM_13
100
AcDbAlignedDimension
 13
207.3372731129152
 23
422.5030890660997
 33
0.0
 14
227.996995674447
 24
372.5030890660997
 34
0.0
 50
90.0
100
AcDbRotatedDimension
  0
DIMENSION
  5
2FF
330
1F
100
AcDbEntity
  8
1
100
AcDbDimension
  2
*D8
 10
290.8371893629152
 20
200.5030890660997
 30
0.0
 11
283.5871893629152
 21
297.5030890660997
 31
0.0
 70
    32
  1
L2
 71
     5
 42
-1.0
 53
90.0
  3
ME10_DIM_14
100
AcDbAlignedDimension
 13
267.3372731129152
 23
422.5030890660997
 33
0.0
 14
274.5064195573325
 24
200.5030890660997
 34
0.0
 50
90.0
100
AcDbRotatedDimension
  0
DIMENSION
  5
30A
330
1F
100
AcDbEntity
  8
1
100
AcDbDimension
  2
*D9
 10
183.8373568629153
 20
172.5030890660997
 30
0.0
 11
178.3373568629153
 21
199.0030228160998
 31
0.0
 70
    32
  1
<>
 71
     5
 42
-1.0
 53
90.0
  3
ME10_DIM_15
100
AcDbAlignedDimension
 13
203.8373568629153
 23
225.5029565660998
 33
0.0
 14
203.8373568629153
 24
172.5030890660997
 34
0.0
 50
90.0
100
AcDbRotatedDimension
  0
DIMENSION
  5
315
330
1F
100
AcDbEntity
  8
1
100
AcDbDimension
  2
*D10
 10
306.8371893629152
 20
422.5030890660997
 30
0.0
 11
299.5871893629152
 21
297.5030890660997
 31
0.0
 70
    32
  1
L1
 71
     5
 42
-1.0
 53
90.0
  3
ME10_DIM_16
100
AcDbAlignedDimension
 13
270.8371893629152
 23
172.5030890660997
 33
0.0
 14
267.3372731129152
 24
422.5030890660997
 34
0.0
 50
90.0
100
AcDbRotatedDimension
  0
DIMENSION
  5
322
330
1F
100
AcDbEntity
  8
1
100
AcDbDimension
  2
*D11
 10
156.426906111277
 20
139.7409076047337
 30
0.0
 11
150.926906111277
 21
175.7545437960638
 31
0.0
 70
    32
  1
許容変位量
 71
     5
 42
-1.0
 53
90.0
  3
ME10_DIM_17
100
AcDbAlignedDimension
 13
149.6313072332
 23
129.6231566047337
 33
0.0
 14
82.20428343395804
 24
139.7409076047337
 34
0.0
 50
90.0
100
AcDbRotatedDimension
  0
ENDSEC
  0
SECTION
  2
OBJECTS
  0
DICTIONARY
  5
C
330
0
100
AcDbDictionary
281
     1
  3
ACAD_GROUP
350
D
  3
ACAD_LAYOUT
350
1A
  3
ACAD_MATERIAL
350
3B
  3
ACAD_MLEADERSTYLE
350
325
  3
ACAD_MLINESTYLE
350
17
  3
ACAD_PLOTSETTINGS
350
19
  3
ACAD_PLOTSTYLENAME
350
E
  3
ACAD_VISUALSTYLE
350
2A
  3
AcDbVariableDictionary
350
323
  0
DICTIONARY
  5
D
102
{ACAD_REACTORS
330
C
102
}
330
C
100
AcDbDictionary
281
     1
  0
DICTIONARY
  5
1A
102
{ACAD_REACTORS
330
C
102
}
330
C
100
AcDbDictionary
281
     1
  3
Layout1
350
1E
  3
Layout2
350
26
  3
Model
350
22
  0
DICTIONARY
  5
3B
102
{ACAD_REACTORS
330
C
102
}
330
C
100
AcDbDictionary
281
     1
  3
ByBlock
350
3D
  3
ByLayer
350
3C
  3
Global
350
3E
  0
DICTIONARY
  5
325
102
{ACAD_REACTORS
330
C
102
}
330
C
100
AcDbDictionary
281
     1
  0
DICTIONARY
  5
17
102
{ACAD_REACTORS
330
C
102
}
330
C
100
AcDbDictionary
281
     1
  3
Standard
350
18
  0
DICTIONARY
  5
19
102
{ACAD_REACTORS
330
C
102
}
330
C
100
AcDbDictionary
281
     1
  0
ACDBDICTIONARYWDFLT
  5
E
102
{ACAD_REACTORS
330
C
102
}
330
C
100
AcDbDictionary
281
     1
  3
Normal
350
F
100
AcDbDictionaryWithDefault
340
F
  0
DICTIONARY
  5
2A
102
{ACAD_REACTORS
330
C
102
}
330
C
100
AcDbDictionary
281
     1
  3
2dWireframe
350
2F
  3
3D Hidden
350
31
  3
3dWireframe
350
30
  3
Basic
350
32
  3
Brighten
350
36
  3
ColorChange
350
3A
  3
Conceptual
350
34
  3
Dim
350
35
  3
Facepattern
350
39
  3
Flat
350
2B
  3
FlatWithEdges
350
2C
  3
Gouraud
350
2D
  3
GouraudWithEdges
350
2E
  3
Linepattern
350
38
  3
Realistic
350
33
  3
Thicken
350
37
  0
DICTIONARY
  5
323
102
{ACAD_REACTORS
330
C
102
}
330
C
100
AcDbDictionary
281
     1
  3
DIMASSOC
350
326
  3
HIDETEXT
350
327
  0
LAYOUT
  5
1E
102
{ACAD_REACTORS
330
1A
102
}
330
1A
100
AcDbPlotSettings
  1

  2
none_device
  4

  6

 40
0.0
 41
0.0
 42
0.0
 43
0.0
 44
0.0
 45
0.0
 46
0.0
 47
0.0
 48
0.0
 49
0.0
140
0.0
141
0.0
142
1.0
143
1.0
 70
   688
 72
     0
 73
     0
 74
     5
  7

 75
    16
147
1.0
148
0.0
149
0.0
100
AcDbLayout
  1
Layout1
 70
     1
 71
     1
 10
0.0
 20
0.0
 11
12.0
 21
9.0
 12
0.0
 22
0.0
 32
0.0
 14
1.00000000000000E+20
 24
1.00000000000000E+20
 34
1.00000000000000E+20
 15
-1.00000000000000E+20
 25
-1.00000000000000E+20
 35
-1.00000000000000E+20
146
0.0
 13
0.0
 23
0.0
 33
0.0
 16
1.0
 26
0.0
 36
0.0
 17
0.0
 27
1.0
 37
0.0
 76
     0
330
1B
  0
LAYOUT
  5
26
102
{ACAD_REACTORS
330
1A
102
}
330
1A
100
AcDbPlotSettings
  1

  2
none_device
  4

  6

 40
0.0
 41
0.0
 42
0.0
 43
0.0
 44
0.0
 45
0.0
 46
0.0
 47
0.0
 48
0.0
 49
0.0
140
0.0
141
0.0
142
1.0
143
1.0
 70
   688
 72
     0
 73
     0
 74
     5
  7

 75
    16
147
1.0
148
0.0
149
0.0
100
AcDbLayout
  1
Layout2
 70
     1
 71
     2
 10
0.0
 20
0.0
 11
0.0
 21
0.0
 12
0.0
 22
0.0
 32
0.0
 14
0.0
 24
0.0
 34
0.0
 15
0.0
 25
0.0
 35
0.0
146
0.0
 13
0.0
 23
0.0
 33
0.0
 16
1.0
 26
0.0
 36
0.0
 17
0.0
 27
1.0
 37
0.0
 76
     0
330
23
  0
LAYOUT
  5
22
102
{ACAD_REACTORS
330
1A
102
}
330
1A
100
AcDbPlotSettings
  1

  2
none_device
  4

  6

 40
0.0
 41
0.0
 42
0.0
 43
0.0
 44
0.0
 45
0.0
 46
0.0
 47
0.0
 48
0.0
 49
0.0
140
0.0
141
0.0
142
1.0
143
1.0
 70
  1712
 72
     0
 73
     0
 74
     0
  7

 75
     0
147
1.0
148
0.0
149
0.0
100
AcDbLayout
  1
Model
 70
     1
 71
     0
 10
0.0
 20
0.0
 11
12.0
 21
9.0
 12
0.0
 22
0.0
 32
0.0
 14
0.0
 24
0.0
 34
0.0
 15
420.0
 25
594.0
 35
0.0
146
0.0
 13
0.0
 23
0.0
 33
0.0
 16
1.0
 26
0.0
 36
0.0
 17
0.0
 27
1.0
 37
0.0
 76
     0
330
1F
331
29
  0
MATERIAL
  5
3D
102
{ACAD_REACTORS
330
3B
102
}
102
{ACAD_XDICTIONARY
360
34A
102
}
330
3B
100
AcDbMaterial
  1
ByBlock
  0
MATERIAL
  5
3C
102
{ACAD_REACTORS
330
3B
102
}
102
{ACAD_XDICTIONARY
360
348
102
}
330
3B
100
AcDbMaterial
  1
ByLayer
  0
MATERIAL
  5
3E
102
{ACAD_REACTORS
330
3B
102
}
102
{ACAD_XDICTIONARY
360
34C
102
}
330
3B
100
AcDbMaterial
  1
Global
  0
MLINESTYLE
  5
18
102
{ACAD_REACTORS
330
17
102
}
330
17
100
AcDbMlineStyle
  2
Standard
 70
     0
  3

 62
   256
 51
90.0
 52
90.0
 71
     2
 49
0.5
 62
   256
  6
BYLAYER
 49
-0.5
 62
   256
  6
BYLAYER
  0
ACDBPLACEHOLDER
  5
F
102
{ACAD_REACTORS
330
E
102
}
330
E
  0
VISUALSTYLE
  5
2F
102
{ACAD_REACTORS
330
2A
102
}
102
{ACAD_XDICTIONARY
360
330
102
}
330
2A
100
AcDbVisualStyle
  2
2dWireframe
 70
     4
 71
     0
 72
     2
 73
     0
 90
        0
 40
-0.6
 41
-30.0
 62
     5
 63
     7
 74
     1
 91
        4
 64
     7
 65
   257
 75
     1
175
     1
 42
1.0
 92
        0
 66
   257
 43
1.0
 76
     1
 77
     6
 78
     2
 67
     7
 79
     5
170
     0
171
     0
290
     0
174
     0
 93
        1
 44
0.0
173
     0
291
     0
 45
0.0
1001
ACAD
1000
AcDbSavedByObjectVersion
1070
     0
  0
VISUALSTYLE
  5
31
102
{ACAD_REACTORS
330
2A
102
}
102
{ACAD_XDICTIONARY
360
334
102
}
330
2A
100
AcDbVisualStyle
  2
3D Hidden
 70
     6
 71
     1
 72
     2
 73
     2
 90
        0
 40
-0.6
 41
-30.0
 62
     5
 63
     7
 74
     2
 91
        2
 64
     7
 65
   257
 75
     2
175
     1
 42
40.0
 92
        0
 66
   257
 43
1.0
 76
     1
 77
     6
 78
     2
 67
     7
 79
     3
170
     0
171
     0
290
     0
174
     0
 93
        1
 44
0.0
173
     0
291
     0
 45
0.0
1001
ACAD
1000
AcDbSavedByObjectVersion
1070
     0
  0
VISUALSTYLE
  5
30
102
{ACAD_REACTORS
330
2A
102
}
102
{ACAD_XDICTIONARY
360
332
102
}
330
2A
100
AcDbVisualStyle
  2
3dWireframe
 70
     5
 71
     0
 72
     2
 73
     0
 90
        0
 40
-0.6
 41
-30.0
 62
     5
 63
     7
 74
     1
 91
        4
 64
     7
 65
   257
 75
     1
175
     1
 42
1.0
 92
        0
 66
   257
 43
1.0
 76
     1
 77
     6
 78
     2
 67
     7
 79
     5
170
     0
171
     0
290
     0
174
     0
 93
        1
 44
0.0
173
     0
291
     0
 45
0.0
1001
ACAD
1000
AcDbSavedByObjectVersion
1070
     0
  0
VISUALSTYLE
  5
32
102
{ACAD_REACTORS
330
2A
102
}
102
{ACAD_XDICTIONARY
360
336
102
}
330
2A
100
AcDbVisualStyle
  2
Basic
 70
     7
 71
     1
 72
     0
 73
     1
 90
        0
 40
-0.6
 41
-30.0
 62
     5
 63
     7
 74
     0
 91
        4
 64
     7
 65
   257
 75
     1
175
     1
 42
1.0
 92
        8
 66
     7
 43
1.0
 76
     1
 77
     6
 78
     2
 67
     7
 79
     5
170
     0
171
     0
290
     0
174
     0
 93
        1
 44
0.0
173
     0
291
     1
 45
0.0
1001
ACAD
1000
AcDbSavedByObjectVersion
1070
     0
  0
VISUALSTYLE
  5
36
102
{ACAD_REACTORS
330
2A
102
}
102
{ACAD_XDICTIONARY
360
33E
102
}
330
2A
100
AcDbVisualStyle
  2
Brighten
 70
    12
 71
     2
 72
     2
 73
     0
 90
        0
 40
-0.6
 41
-30.0
 62
     5
 63
     7
 74
     1
 91
        4
 64
     7
 65
   257
 75
     1
175
     1
 42
1.0
 92
        8
 66
     7
 43
1.0
 76
     1
 77
     6
 78
     2
 67
     7
 79
     5
170
     0
171
     0
290
     0
174
     0
 93
        1
 44
50.0
173
     0
291
     1
 45
0.0
1001
ACAD
1000
AcDbSavedByObjectVersion
1070
     0
  0
VISUALSTYLE
  5
3A
102
{ACAD_REACTORS
330
2A
102
}
102
{ACAD_XDICTIONARY
360
346
102
}
330
2A
100
AcDbVisualStyle
  2
ColorChange
 70
    16
 71
     2
 72
     2
 73
     3
 90
        0
 40
-0.6
 41
-30.0
 62
     5
 63
     8
 74
     1
 91
        4
 64
     7
 65
   257
 75
     1
175
     1
 42
1.0
 92
        8
 66
     8
 43
1.0
 76
     1
 77
     6
 78
     2
 67
     7
 79
     5
170
     0
171
     0
290
     0
174
     0
 93
        1
 44
0.0
173
     0
291
     1
 45
0.0
1001
ACAD
1000
AcDbSavedByObjectVersion
1070
     0
  0
VISUALSTYLE
  5
34
102
{ACAD_REACTORS
330
2A
102
}
102
{ACAD_XDICTIONARY
360
33A
102
}
330
2A
100
AcDbVisualStyle
  2
Conceptual
 70
     9
 71
     3
 72
     2
 73
     0
 90
        0
 40
-0.6
 41
-30.0
 62
     5
 63
     7
 74
     2
 91
        2
 64
     7
 65
   257
 75
     1
175
     1
 42
40.0
 92
        8
 66
     7
 43
1.0
 76
     1
 77
     6
 78
     2
 67
     7
 79
     3
170
     0
171
     0
290
     0
174
     0
 93
        1
 44
0.0
173
     0
291
     0
 45
0.0
1001
ACAD
1000
AcDbSavedByObjectVersion
1070
     0
  0
VISUALSTYLE
  5
35
102
{ACAD_REACTORS
330
2A
102
}
102
{ACAD_XDICTIONARY
360
33C
102
}
330
2A
100
AcDbVisualStyle
  2
Dim
 70
    11
 71
     2
 72
     2
 73
     0
 90
        0
 40
-0.6
 41
-30.0
 62
     5
 63
     7
 74
     1
 91
        4
 64
     7
 65
   257
 75
     1
175
     1
 42
1.0
 92
        8
 66
     7
 43
1.0
 76
     1
 77
     6
 78
     2
 67
     7
 79
     5
170
     0
171
     0
290
     0
174
     0
 93
        1
 44
-50.0
173
     0
291
     1
 45
0.0
1001
ACAD
1000
AcDbSavedByObjectVersion
1070
     0
  0
VISUALSTYLE
  5
39
102
{ACAD_REACTORS
330
2A
102
}
102
{ACAD_XDICTIONARY
360
344
102
}
330
2A
100
AcDbVisualStyle
  2
Facepattern
 70
    15
 71
     2
 72
     2
 73
     0
 90
        0
 40
-0.6
 41
-30.0
 62
     5
 63
     7
 74
     1
 91
        4
 64
     7
 65
   257
 75
     1
175
     1
 42
1.0
 92
        8
 66
     7
 43
1.0
 76
     1
 77
     6
 78
     2
 67
     7
 79
     5
170
     0
171
     0
290
     0
174
     0
 93
        1
 44
0.0
173
     0
291
     1
 45
0.0
1001
ACAD
1000
AcDbSavedByObjectVersion
1070
     0
  0
VISUALSTYLE
  5
2B
102
{ACAD_REACTORS
330
2A
102
}
102
{ACAD_XDICTIONARY
360
328
102
}
330
2A
100
AcDbVisualStyle
  2
Flat
 70
     0
 71
     2
 72
     1
 73
     1
 90
        2
 40
-0.6
 41
30.0
 62
     5
 63
     7
 74
     0
 91
        4
 64
     7
 65
   257
 75
     1
175
     1
 42
1.0
 92
        8
 66
     7
 43
1.0
 76
     1
 77
     6
 78
     2
 67
     7
 79
     5
170
     0
171
     0
290
     0
174
     0
 93
       13
 44
0.0
173
     0
291
     1
 45
0.0
1001
ACAD
1000
AcDbSavedByObjectVersion
1070
     0
  0
VISUALSTYLE
  5
2C
102
{ACAD_REACTORS
330
2A
102
}
102
{ACAD_XDICTIONARY
360
32A
102
}
330
2A
100
AcDbVisualStyle
  2
FlatWithEdges
 70
     1
 71
     2
 72
     1
 73
     1
 90
        2
 40
-0.6
 41
30.0
 62
     5
 63
     7
 74
     1
 91
        4
 64
     7
 65
   257
 75
     1
175
     1
 42
1.0
 92
        0
 66
   257
 43
1.0
 76
     1
 77
     6
 78
     2
 67
     7
 79
     5
170
     0
171
     0
290
     0
174
     0
 93
       13
 44
0.0
173
     0
291
     1
 45
0.0
1001
ACAD
1000
AcDbSavedByObjectVersion
1070
     0
  0
VISUALSTYLE
  5
2D
102
{ACAD_REACTORS
330
2A
102
}
102
{ACAD_XDICTIONARY
360
32C
102
}
330
2A
100
AcDbVisualStyle
  2
Gouraud
 70
     2
 71
     2
 72
     2
 73
     1
 90
        2
 40
-0.6
 41
30.0
 62
     5
 63
     7
 74
     0
 91
        4
 64
     7
 65
   257
 75
     1
175
     1
 42
1.0
 92
        0
 66
     7
 43
1.0
 76
     1
 77
     6
 78
     2
 67
     7
 79
     5
170
     0
171
     0
290
     0
174
     0
 93
       13
 44
0.0
173
     0
291
     1
 45
0.0
1001
ACAD
1000
AcDbSavedByObjectVersion
1070
     0
  0
VISUALSTYLE
  5
2E
102
{ACAD_REACTORS
330
2A
102
}
102
{ACAD_XDICTIONARY
360
32E
102
}
330
2A
100
AcDbVisualStyle
  2
GouraudWithEdges
 70
     3
 71
     2
 72
     2
 73
     1
 90
        2
 40
-0.6
 41
30.0
 62
     5
 63
     7
 74
     1
 91
        4
 64
     7
 65
   257
 75
     1
175
     1
 42
1.0
 92
        0
 66
   257
 43
1.0
 76
     1
 77
     6
 78
     2
 67
     7
 79
     5
170
     0
171
     0
290
     0
174
     0
 93
       13
 44
0.0
173
     0
291
     1
 45
0.0
1001
ACAD
1000
AcDbSavedByObjectVersion
1070
     0
  0
VISUALSTYLE
  5
38
102
{ACAD_REACTORS
330
2A
102
}
102
{ACAD_XDICTIONARY
360
342
102
}
330
2A
100
AcDbVisualStyle
  2
Linepattern
 70
    14
 71
     2
 72
     2
 73
     0
 90
        0
 40
-0.6
 41
-30.0
 62
     5
 63
     7
 74
     1
 91
        4
 64
     7
 65
   257
 75
     7
175
     7
 42
1.0
 92
        8
 66
     7
 43
1.0
 76
     1
 77
     6
 78
     2
 67
     7
 79
     5
170
     0
171
     0
290
     0
174
     0
 93
        1
 44
0.0
173
     0
291
     1
 45
0.0
1001
ACAD
1000
AcDbSavedByObjectVersion
1070
     0
  0
VISUALSTYLE
  5
33
102
{ACAD_REACTORS
330
2A
102
}
102
{ACAD_XDICTIONARY
360
338
102
}
330
2A
100
AcDbVisualStyle
  2
Realistic
 70
     8
 71
     2
 72
     2
 73
     0
 90
        0
 40
-0.6
 41
-30.0
 62
     5
 63
     7
 74
     1
 91
        0
 64
     7
 65
   257
 75
     1
175
     1
 42
1.0
 92
        8
 66
     8
 43
1.0
 76
     1
 77
     6
 78
     2
 67
     7
 79
     5
170
     0
171
     0
290
     0
174
     0
 93
       13
 44
0.0
173
     0
291
     0
 45
0.0
1001
ACAD
1000
AcDbSavedByObjectVersion
1070
     0
  0
VISUALSTYLE
  5
37
102
{ACAD_REACTORS
330
2A
102
}
102
{ACAD_XDICTIONARY
360
340
102
}
330
2A
100
AcDbVisualStyle
  2
Thicken
 70
    13
 71
     2
 72
     2
 73
     0
 90
        0
 40
-0.6
 41
-30.0
 62
     5
 63
     7
 74
     1
 91
        4
 64
     7
 65
   257
 75
     1
175
     1
 42
1.0
 92
       12
 66
     7
 43
1.0
 76
     1
 77
     6
 78
     2
 67
     7
 79
     5
170
     0
171
     0
290
     0
174
     0
 93
        1
 44
0.0
173
     0
291
     1
 45
0.0
1001
ACAD
1000
AcDbSavedByObjectVersion
1070
     0
  0
DICTIONARYVAR
  5
326
102
{ACAD_REACTORS
330
323
102
}
330
323
100
DictionaryVariables
280
     0
  1
2
  0
DICTIONARYVAR
  5
327
102
{ACAD_REACTORS
330
323
102
}
330
323
100
DictionaryVariables
280
     0
  1
1
  0
DICTIONARY
  5
34A
330
3D
100
AcDbDictionary
280
     1
281
     1
  3
ACAD_XREC_ROUNDTRIP
360
34B
  0
DICTIONARY
  5
348
330
3C
100
AcDbDictionary
280
     1
281
     1
  3
ACAD_XREC_ROUNDTRIP
360
349
  0
DICTIONARY
  5
34C
330
3E
100
AcDbDictionary
280
     1
281
     1
  3
ACAD_XREC_ROUNDTRIP
360
34D
  0
DICTIONARY
  5
330
330
2F
100
AcDbDictionary
280
     1
281
     1
  3
ACAD_XREC_ROUNDTRIP
360
331
  0
DICTIONARY
  5
334
330
31
100
AcDbDictionary
280
     1
281
     1
  3
ACAD_XREC_ROUNDTRIP
360
335
  0
DICTIONARY
  5
332
330
30
100
AcDbDictionary
280
     1
281
     1
  3
ACAD_XREC_ROUNDTRIP
360
333
  0
DICTIONARY
  5
336
330
32
100
AcDbDictionary
280
     1
281
     1
  3
ACAD_XREC_ROUNDTRIP
360
337
  0
DICTIONARY
  5
33E
330
36
100
AcDbDictionary
280
     1
281
     1
  3
ACAD_XREC_ROUNDTRIP
360
33F
  0
DICTIONARY
  5
346
330
3A
100
AcDbDictionary
280
     1
281
     1
  3
ACAD_XREC_ROUNDTRIP
360
347
  0
DICTIONARY
  5
33A
330
34
100
AcDbDictionary
280
     1
281
     1
  3
ACAD_XREC_ROUNDTRIP
360
33B
  0
DICTIONARY
  5
33C
330
35
100
AcDbDictionary
280
     1
281
     1
  3
ACAD_XREC_ROUNDTRIP
360
33D
  0
DICTIONARY
  5
344
330
39
100
AcDbDictionary
280
     1
281
     1
  3
ACAD_XREC_ROUNDTRIP
360
345
  0
DICTIONARY
  5
328
330
2B
100
AcDbDictionary
280
     1
281
     1
  3
ACAD_XREC_ROUNDTRIP
360
329
  0
DICTIONARY
  5
32A
330
2C
100
AcDbDictionary
280
     1
281
     1
  3
ACAD_XREC_ROUNDTRIP
360
32B
  0
DICTIONARY
  5
32C
330
2D
100
AcDbDictionary
280
     1
281
     1
  3
ACAD_XREC_ROUNDTRIP
360
32D
  0
DICTIONARY
  5
32E
330
2E
100
AcDbDictionary
280
     1
281
     1
  3
ACAD_XREC_ROUNDTRIP
360
32F
  0
DICTIONARY
  5
342
330
38
100
AcDbDictionary
280
     1
281
     1
  3
ACAD_XREC_ROUNDTRIP
360
343
  0
DICTIONARY
  5
338
330
33
100
AcDbDictionary
280
     1
281
     1
  3
ACAD_XREC_ROUNDTRIP
360
339
  0
DICTIONARY
  5
340
330
37
100
AcDbDictionary
280
     1
281
     1
  3
ACAD_XREC_ROUNDTRIP
360
341
  0
XRECORD
  5
34B
102
{ACAD_REACTORS
330
34A
102
}
330
34A
100
AcDbXrecord
280
     1
102
MATERIAL
148
0.0
149
0.0
149
0.0
 93
        0
 94
      127
282
     0
 72
     1
 77
     1
171
     1
175
     1
179
     1
273
     0
  0
XRECORD
  5
349
102
{ACAD_REACTORS
330
348
102
}
330
348
100
AcDbXrecord
280
     1
102
MATERIAL
148
0.0
149
0.0
149
0.0
 93
        0
 94
      127
282
     0
 72
     1
 77
     1
171
     1
175
     1
179
     1
273
     0
  0
XRECORD
  5
34D
102
{ACAD_REACTORS
330
34C
102
}
330
34C
100
AcDbXrecord
280
     1
102
MATERIAL
148
0.0
149
0.0
149
0.0
 93
        0
 94
      127
282
     0
 72
     1
 77
     1
171
     1
175
     1
179
     1
273
     0
  0
XRECORD
  5
331
102
{ACAD_REACTORS
330
330
102
}
330
330
100
AcDbXrecord
280
     1
102
RTVSPropertyOp0
 70
     1
102
RTVSPropertyOp1
 70
     1
102
RTVSPropertyOp2
 70
     1
102
RTVSPropertyOp3
 70
     1
102
RTVSPropertyOp4
 70
     1
102
RTVSPropertyOp5
 70
     1
102
RTVSPropertyOp6
 70
     1
102
RTVSPropertyOp7
 70
     1
102
RTVSPropertyOp8
 70
     1
102
RTVSPropertyOp9
 70
     1
102
RTVSPropertyOp10
 70
     1
102
RTVSPropertyOp11
 70
     1
102
RTVSPropertyOp12
 70
     1
102
RTVSPropertyOp13
 70
     1
102
RTVSPropertyOp14
 70
     1
102
RTVSPropertyOp15
 70
     1
102
RTVSPropertyOp16
 70
     1
102
RTVSPropertyOp17
 70
     1
102
RTVSPropertyOp18
 70
     1
102
RTVSPropertyOp19
 70
     1
102
RTVSPropertyOp20
 70
     1
102
RTVSPropertyOp21
 70
     1
102
RTVSPropertyOp22
 70
     1
102
RTVSPropertyOp23
 70
     1
102
RTVSPropertyOp24
 70
     1
102
RTVSPropertyOp25
 70
     1
102
RTVSPropertyOp26
 70
     1
102
RTVSPropertyOp27
 70
     1
102
RTVSPropertyOp28
 70
     1
102
RTVSPropertyOp29
 70
     1
102
RTVSPropertyOp30
 70
     1
102
RTVSPropertyOp31
 70
     1
102
RTVSPropertyOp32
 70
     1
  0
XRECORD
  5
335
102
{ACAD_REACTORS
330
334
102
}
330
334
100
AcDbXrecord
280
     1
102
RTVSPropertyOp0
 70
     1
102
RTVSPropertyOp1
 70
     1
102
RTVSPropertyOp2
 70
     1
102
RTVSPropertyOp3
 70
     1
102
RTVSPropertyOp4
 70
     1
102
RTVSPropertyOp5
 70
     1
102
RTVSPropertyOp6
 70
     1
102
RTVSPropertyOp7
 70
     1
102
RTVSPropertyOp8
 70
     1
102
RTVSPropertyOp9
 70
     1
102
RTVSPropertyOp10
 70
     1
102
RTVSPropertyOp11
 70
     1
102
RTVSPropertyOp12
 70
     1
102
RTVSPropertyOp13
 70
     1
102
RTVSPropertyOp14
 70
     1
102
RTVSPropertyOp15
 70
     1
102
RTVSPropertyOp16
 70
     1
102
RTVSPropertyOp17
 70
     1
102
RTVSPropertyOp18
 70
     1
102
RTVSPropertyOp19
 70
     1
102
RTVSPropertyOp20
 70
     1
102
RTVSPropertyOp21
 70
     1
102
RTVSPropertyOp22
 70
     1
102
RTVSPropertyOp23
 70
     1
102
RTVSPropertyOp24
 70
     1
102
RTVSPropertyOp25
 70
     1
102
RTVSPropertyOp26
 70
     1
102
RTVSPropertyOp27
 70
     1
102
RTVSPropertyOp28
 70
     1
102
RTVSPropertyOp29
 70
     1
102
RTVSPropertyOp30
 70
     1
102
RTVSPropertyOp31
 70
     1
102
RTVSPropertyOp32
 70
     1
  0
XRECORD
  5
333
102
{ACAD_REACTORS
330
332
102
}
330
332
100
AcDbXrecord
280
     1
102
RTVSPropertyOp0
 70
     1
102
RTVSPropertyOp1
 70
     1
102
RTVSPropertyOp2
 70
     1
102
RTVSPropertyOp3
 70
     1
102
RTVSPropertyOp4
 70
     1
102
RTVSPropertyOp5
 70
     1
102
RTVSPropertyOp6
 70
     1
102
RTVSPropertyOp7
 70
     1
102
RTVSPropertyOp8
 70
     1
102
RTVSPropertyOp9
 70
     1
102
RTVSPropertyOp10
 70
     1
102
RTVSPropertyOp11
 70
     1
102
RTVSPropertyOp12
 70
     1
102
RTVSPropertyOp13
 70
     1
102
RTVSPropertyOp14
 70
     1
102
RTVSPropertyOp15
 70
     1
102
RTVSPropertyOp16
 70
     1
102
RTVSPropertyOp17
 70
     1
102
RTVSPropertyOp18
 70
     1
102
RTVSPropertyOp19
 70
     1
102
RTVSPropertyOp20
 70
     1
102
RTVSPropertyOp21
 70
     1
102
RTVSPropertyOp22
 70
     1
102
RTVSPropertyOp23
 70
     1
102
RTVSPropertyOp24
 70
     1
102
RTVSPropertyOp25
 70
     1
102
RTVSPropertyOp26
 70
     1
102
RTVSPropertyOp27
 70
     1
102
RTVSPropertyOp28
 70
     1
102
RTVSPropertyOp29
 70
     1
102
RTVSPropertyOp30
 70
     1
102
RTVSPropertyOp31
 70
     1
102
RTVSPropertyOp32
 70
     1
  0
XRECORD
  5
337
102
{ACAD_REACTORS
330
336
102
}
330
336
100
AcDbXrecord
280
     1
102
RTVSPropertyOp0
 70
     1
102
RTVSPropertyOp1
 70
     1
102
RTVSPropertyOp2
 70
     1
102
RTVSPropertyOp3
 70
     1
102
RTVSPropertyOp4
 70
     1
102
RTVSPropertyOp5
 70
     1
102
RTVSPropertyOp6
 70
     1
102
RTVSPropertyOp7
 70
     1
102
RTVSPropertyOp8
 70
     1
102
RTVSPropertyOp9
 70
     1
102
RTVSPropertyOp10
 70
     1
102
RTVSPropertyOp11
 70
     1
102
RTVSPropertyOp12
 70
     1
102
RTVSPropertyOp13
 70
     1
102
RTVSPropertyOp14
 70
     1
102
RTVSPropertyOp15
 70
     1
102
RTVSPropertyOp16
 70
     1
102
RTVSPropertyOp17
 70
     1
102
RTVSPropertyOp18
 70
     1
102
RTVSPropertyOp19
 70
     1
102
RTVSPropertyOp20
 70
     1
102
RTVSPropertyOp21
 70
     1
102
RTVSPropertyOp22
 70
     1
102
RTVSPropertyOp23
 70
     1
102
RTVSPropertyOp24
 70
     1
102
RTVSPropertyOp25
 70
     1
102
RTVSPropertyOp26
 70
     1
102
RTVSPropertyOp27
 70
     1
102
RTVSPropertyOp28
 70
     1
102
RTVSPropertyOp29
 70
     1
102
RTVSPropertyOp30
 70
     1
102
RTVSPropertyOp31
 70
     1
102
RTVSPropertyOp32
 70
     1
  0
XRECORD
  5
33F
102
{ACAD_REACTORS
330
33E
102
}
330
33E
100
AcDbXrecord
280
     1
102
RTVSPropertyOp0
 70
     1
102
RTVSPropertyOp1
 70
     1
102
RTVSPropertyOp2
 70
     1
102
RTVSPropertyOp3
 70
     1
102
RTVSPropertyOp4
 70
     1
102
RTVSPropertyOp5
 70
     1
102
RTVSPropertyOp6
 70
     1
102
RTVSPropertyOp7
 70
     1
102
RTVSPropertyOp8
 70
     1
102
RTVSPropertyOp9
 70
     1
102
RTVSPropertyOp10
 70
     1
102
RTVSPropertyOp11
 70
     1
102
RTVSPropertyOp12
 70
     1
102
RTVSPropertyOp13
 70
     1
102
RTVSPropertyOp14
 70
     1
102
RTVSPropertyOp15
 70
     1
102
RTVSPropertyOp16
 70
     1
102
RTVSPropertyOp17
 70
     1
102
RTVSPropertyOp18
 70
     1
102
RTVSPropertyOp19
 70
     1
102
RTVSPropertyOp20
 70
     1
102
RTVSPropertyOp21
 70
     1
102
RTVSPropertyOp22
 70
     1
102
RTVSPropertyOp23
 70
     1
102
RTVSPropertyOp24
 70
     1
102
RTVSPropertyOp25
 70
     1
102
RTVSPropertyOp26
 70
     1
102
RTVSPropertyOp27
 70
     1
102
RTVSPropertyOp28
 70
     1
102
RTVSPropertyOp29
 70
     1
102
RTVSPropertyOp30
 70
     1
102
RTVSPropertyOp31
 70
     1
102
RTVSPropertyOp32
 70
     1
  0
XRECORD
  5
347
102
{ACAD_REACTORS
330
346
102
}
330
346
100
AcDbXrecord
280
     1
102
RTVSPropertyOp0
 70
     1
102
RTVSPropertyOp1
 70
     1
102
RTVSPropertyOp2
 70
     1
102
RTVSPropertyOp3
 70
     1
102
RTVSPropertyOp4
 70
     1
102
RTVSPropertyOp5
 70
     1
102
RTVSPropertyOp6
 70
     1
102
RTVSPropertyOp7
 70
     1
102
RTVSPropertyOp8
 70
     1
102
RTVSPropertyOp9
 70
     1
102
RTVSPropertyOp10
 70
     1
102
RTVSPropertyOp11
 70
     1
102
RTVSPropertyOp12
 70
     1
102
RTVSPropertyOp13
 70
     1
102
RTVSPropertyOp14
 70
     1
102
RTVSPropertyOp15
 70
     1
102
RTVSPropertyOp16
 70
     1
102
RTVSPropertyOp17
 70
     1
102
RTVSPropertyOp18
 70
     1
102
RTVSPropertyOp19
 70
     1
102
RTVSPropertyOp20
 70
     1
102
RTVSPropertyOp21
 70
     1
102
RTVSPropertyOp22
 70
     1
102
RTVSPropertyOp23
 70
     1
102
RTVSPropertyOp24
 70
     1
102
RTVSPropertyOp25
 70
     1
102
RTVSPropertyOp26
 70
     1
102
RTVSPropertyOp27
 70
     1
102
RTVSPropertyOp28
 70
     1
102
RTVSPropertyOp29
 70
     1
102
RTVSPropertyOp30
 70
     1
102
RTVSPropertyOp31
 70
     1
102
RTVSPropertyOp32
 70
     1
  0
XRECORD
  5
33B
102
{ACAD_REACTORS
330
33A
102
}
330
33A
100
AcDbXrecord
280
     1
102
RTVSPropertyOp0
 70
     1
102
RTVSPropertyOp1
 70
     1
102
RTVSPropertyOp2
 70
     1
102
RTVSPropertyOp3
 70
     1
102
RTVSPropertyOp4
 70
     1
102
RTVSPropertyOp5
 70
     1
102
RTVSPropertyOp6
 70
     1
102
RTVSPropertyOp7
 70
     1
102
RTVSPropertyOp8
 70
     1
102
RTVSPropertyOp9
 70
     1
102
RTVSPropertyOp10
 70
     1
102
RTVSPropertyOp11
 70
     1
102
RTVSPropertyOp12
 70
     1
102
RTVSPropertyOp13
 70
     1
102
RTVSPropertyOp14
 70
     1
102
RTVSPropertyOp15
 70
     1
102
RTVSPropertyOp16
 70
     1
102
RTVSPropertyOp17
 70
     1
102
RTVSPropertyOp18
 70
     1
102
RTVSPropertyOp19
 70
     1
102
RTVSPropertyOp20
 70
     1
102
RTVSPropertyOp21
 70
     1
102
RTVSPropertyOp22
 70
     1
102
RTVSPropertyOp23
 70
     1
102
RTVSPropertyOp24
 70
     1
102
RTVSPropertyOp25
 70
     1
102
RTVSPropertyOp26
 70
     1
102
RTVSPropertyOp27
 70
     1
102
RTVSPropertyOp28
 70
     1
102
RTVSPropertyOp29
 70
     1
102
RTVSPropertyOp30
 70
     1
102
RTVSPropertyOp31
 70
     1
102
RTVSPropertyOp32
 70
     1
  0
XRECORD
  5
33D
102
{ACAD_REACTORS
330
33C
102
}
330
33C
100
AcDbXrecord
280
     1
102
RTVSPropertyOp0
 70
     1
102
RTVSPropertyOp1
 70
     1
102
RTVSPropertyOp2
 70
     1
102
RTVSPropertyOp3
 70
     1
102
RTVSPropertyOp4
 70
     1
102
RTVSPropertyOp5
 70
     1
102
RTVSPropertyOp6
 70
     1
102
RTVSPropertyOp7
 70
     1
102
RTVSPropertyOp8
 70
     1
102
RTVSPropertyOp9
 70
     1
102
RTVSPropertyOp10
 70
     1
102
RTVSPropertyOp11
 70
     1
102
RTVSPropertyOp12
 70
     1
102
RTVSPropertyOp13
 70
     1
102
RTVSPropertyOp14
 70
     1
102
RTVSPropertyOp15
 70
     1
102
RTVSPropertyOp16
 70
     1
102
RTVSPropertyOp17
 70
     1
102
RTVSPropertyOp18
 70
     1
102
RTVSPropertyOp19
 70
     1
102
RTVSPropertyOp20
 70
     1
102
RTVSPropertyOp21
 70
     1
102
RTVSPropertyOp22
 70
     1
102
RTVSPropertyOp23
 70
     1
102
RTVSPropertyOp24
 70
     1
102
RTVSPropertyOp25
 70
     1
102
RTVSPropertyOp26
 70
     1
102
RTVSPropertyOp27
 70
     1
102
RTVSPropertyOp28
 70
     1
102
RTVSPropertyOp29
 70
     1
102
RTVSPropertyOp30
 70
     1
102
RTVSPropertyOp31
 70
     1
102
RTVSPropertyOp32
 70
     1
  0
XRECORD
  5
345
102
{ACAD_REACTORS
330
344
102
}
330
344
100
AcDbXrecord
280
     1
102
RTVSPropertyOp0
 70
     1
102
RTVSPropertyOp1
 70
     1
102
RTVSPropertyOp2
 70
     1
102
RTVSPropertyOp3
 70
     1
102
RTVSPropertyOp4
 70
     1
102
RTVSPropertyOp5
 70
     1
102
RTVSPropertyOp6
 70
     1
102
RTVSPropertyOp7
 70
     1
102
RTVSPropertyOp8
 70
     1
102
RTVSPropertyOp9
 70
     1
102
RTVSPropertyOp10
 70
     1
102
RTVSPropertyOp11
 70
     1
102
RTVSPropertyOp12
 70
     1
102
RTVSPropertyOp13
 70
     1
102
RTVSPropertyOp14
 70
     1
102
RTVSPropertyOp15
 70
     1
102
RTVSPropertyOp16
 70
     1
102
RTVSPropertyOp17
 70
     1
102
RTVSPropertyOp18
 70
     1
102
RTVSPropertyOp19
 70
     1
102
RTVSPropertyOp20
 70
     1
102
RTVSPropertyOp21
 70
     1
102
RTVSPropertyOp22
 70
     1
102
RTVSPropertyOp23
 70
     1
102
RTVSPropertyOp24
 70
     1
102
RTVSPropertyOp25
 70
     1
102
RTVSPropertyOp26
 70
     1
102
RTVSPropertyOp27
 70
     1
102
RTVSPropertyOp28
 70
     1
102
RTVSPropertyOp29
 70
     1
102
RTVSPropertyOp30
 70
     1
102
RTVSPropertyOp31
 70
     1
102
RTVSPropertyOp32
 70
     1
  0
XRECORD
  5
329
102
{ACAD_REACTORS
330
328
102
}
330
328
100
AcDbXrecord
280
     1
102
RTVSPropertyOp0
 70
     1
102
RTVSPropertyOp1
 70
     1
102
RTVSPropertyOp2
 70
     1
102
RTVSPropertyOp3
 70
     1
102
RTVSPropertyOp4
 70
     1
102
RTVSPropertyOp5
 70
     1
102
RTVSPropertyOp6
 70
     1
102
RTVSPropertyOp7
 70
     1
102
RTVSPropertyOp8
 70
     1
102
RTVSPropertyOp9
 70
     1
102
RTVSPropertyOp10
 70
     1
102
RTVSPropertyOp11
 70
     1
102
RTVSPropertyOp12
 70
     1
102
RTVSPropertyOp13
 70
     1
102
RTVSPropertyOp14
 70
     1
102
RTVSPropertyOp15
 70
     1
102
RTVSPropertyOp16
 70
     1
102
RTVSPropertyOp17
 70
     1
102
RTVSPropertyOp18
 70
     1
102
RTVSPropertyOp19
 70
     1
102
RTVSPropertyOp20
 70
     1
102
RTVSPropertyOp21
 70
     1
102
RTVSPropertyOp22
 70
     1
102
RTVSPropertyOp23
 70
     1
102
RTVSPropertyOp24
 70
     1
102
RTVSPropertyOp25
 70
     1
102
RTVSPropertyOp26
 70
     1
102
RTVSPropertyOp27
 70
     1
102
RTVSPropertyOp28
 70
     1
102
RTVSPropertyOp29
 70
     1
102
RTVSPropertyOp30
 70
     1
102
RTVSPropertyOp31
 70
     1
102
RTVSPropertyOp32
 70
     1
  0
XRECORD
  5
32B
102
{ACAD_REACTORS
330
32A
102
}
330
32A
100
AcDbXrecord
280
     1
102
RTVSPropertyOp0
 70
     1
102
RTVSPropertyOp1
 70
     1
102
RTVSPropertyOp2
 70
     1
102
RTVSPropertyOp3
 70
     1
102
RTVSPropertyOp4
 70
     1
102
RTVSPropertyOp5
 70
     1
102
RTVSPropertyOp6
 70
     1
102
RTVSPropertyOp7
 70
     1
102
RTVSPropertyOp8
 70
     1
102
RTVSPropertyOp9
 70
     1
102
RTVSPropertyOp10
 70
     1
102
RTVSPropertyOp11
 70
     1
102
RTVSPropertyOp12
 70
     1
102
RTVSPropertyOp13
 70
     1
102
RTVSPropertyOp14
 70
     1
102
RTVSPropertyOp15
 70
     1
102
RTVSPropertyOp16
 70
     1
102
RTVSPropertyOp17
 70
     1
102
RTVSPropertyOp18
 70
     1
102
RTVSPropertyOp19
 70
     1
102
RTVSPropertyOp20
 70
     1
102
RTVSPropertyOp21
 70
     1
102
RTVSPropertyOp22
 70
     1
102
RTVSPropertyOp23
 70
     1
102
RTVSPropertyOp24
 70
     1
102
RTVSPropertyOp25
 70
     1
102
RTVSPropertyOp26
 70
     1
102
RTVSPropertyOp27
 70
     1
102
RTVSPropertyOp28
 70
     1
102
RTVSPropertyOp29
 70
     1
102
RTVSPropertyOp30
 70
     1
102
RTVSPropertyOp31
 70
     1
102
RTVSPropertyOp32
 70
     1
  0
XRECORD
  5
32D
102
{ACAD_REACTORS
330
32C
102
}
330
32C
100
AcDbXrecord
280
     1
102
RTVSPropertyOp0
 70
     1
102
RTVSPropertyOp1
 70
     1
102
RTVSPropertyOp2
 70
     1
102
RTVSPropertyOp3
 70
     1
102
RTVSPropertyOp4
 70
     1
102
RTVSPropertyOp5
 70
     1
102
RTVSPropertyOp6
 70
     1
102
RTVSPropertyOp7
 70
     1
102
RTVSPropertyOp8
 70
     1
102
RTVSPropertyOp9
 70
     1
102
RTVSPropertyOp10
 70
     1
102
RTVSPropertyOp11
 70
     1
102
RTVSPropertyOp12
 70
     1
102
RTVSPropertyOp13
 70
     1
102
RTVSPropertyOp14
 70
     1
102
RTVSPropertyOp15
 70
     1
102
RTVSPropertyOp16
 70
     1
102
RTVSPropertyOp17
 70
     1
102
RTVSPropertyOp18
 70
     1
102
RTVSPropertyOp19
 70
     1
102
RTVSPropertyOp20
 70
     1
102
RTVSPropertyOp21
 70
     1
102
RTVSPropertyOp22
 70
     1
102
RTVSPropertyOp23
 70
     1
102
RTVSPropertyOp24
 70
     1
102
RTVSPropertyOp25
 70
     1
102
RTVSPropertyOp26
 70
     1
102
RTVSPropertyOp27
 70
     1
102
RTVSPropertyOp28
 70
     1
102
RTVSPropertyOp29
 70
     1
102
RTVSPropertyOp30
 70
     1
102
RTVSPropertyOp31
 70
     1
102
RTVSPropertyOp32
 70
     1
  0
XRECORD
  5
32F
102
{ACAD_REACTORS
330
32E
102
}
330
32E
100
AcDbXrecord
280
     1
102
RTVSPropertyOp0
 70
     1
102
RTVSPropertyOp1
 70
     1
102
RTVSPropertyOp2
 70
     1
102
RTVSPropertyOp3
 70
     1
102
RTVSPropertyOp4
 70
     1
102
RTVSPropertyOp5
 70
     1
102
RTVSPropertyOp6
 70
     1
102
RTVSPropertyOp7
 70
     1
102
RTVSPropertyOp8
 70
     1
102
RTVSPropertyOp9
 70
     1
102
RTVSPropertyOp10
 70
     1
102
RTVSPropertyOp11
 70
     1
102
RTVSPropertyOp12
 70
     1
102
RTVSPropertyOp13
 70
     1
102
RTVSPropertyOp14
 70
     1
102
RTVSPropertyOp15
 70
     1
102
RTVSPropertyOp16
 70
     1
102
RTVSPropertyOp17
 70
     1
102
RTVSPropertyOp18
 70
     1
102
RTVSPropertyOp19
 70
     1
102
RTVSPropertyOp20
 70
     1
102
RTVSPropertyOp21
 70
     1
102
RTVSPropertyOp22
 70
     1
102
RTVSPropertyOp23
 70
     1
102
RTVSPropertyOp24
 70
     1
102
RTVSPropertyOp25
 70
     1
102
RTVSPropertyOp26
 70
     1
102
RTVSPropertyOp27
 70
     1
102
RTVSPropertyOp28
 70
     1
102
RTVSPropertyOp29
 70
     1
102
RTVSPropertyOp30
 70
     1
102
RTVSPropertyOp31
 70
     1
102
RTVSPropertyOp32
 70
     1
  0
XRECORD
  5
343
102
{ACAD_REACTORS
330
342
102
}
330
342
100
AcDbXrecord
280
     1
102
RTVSPropertyOp0
 70
     1
102
RTVSPropertyOp1
 70
     1
102
RTVSPropertyOp2
 70
     1
102
RTVSPropertyOp3
 70
     1
102
RTVSPropertyOp4
 70
     1
102
RTVSPropertyOp5
 70
     1
102
RTVSPropertyOp6
 70
     1
102
RTVSPropertyOp7
 70
     1
102
RTVSPropertyOp8
 70
     1
102
RTVSPropertyOp9
 70
     1
102
RTVSPropertyOp10
 70
     1
102
RTVSPropertyOp11
 70
     1
102
RTVSPropertyOp12
 70
     1
102
RTVSPropertyOp13
 70
     1
102
RTVSPropertyOp14
 70
     1
102
RTVSPropertyOp15
 70
     1
102
RTVSPropertyOp16
 70
     1
102
RTVSPropertyOp17
 70
     1
102
RTVSPropertyOp18
 70
     1
102
RTVSPropertyOp19
 70
     1
102
RTVSPropertyOp20
 70
     1
102
RTVSPropertyOp21
 70
     1
102
RTVSPropertyOp22
 70
     1
102
RTVSPropertyOp23
 70
     1
102
RTVSPropertyOp24
 70
     1
102
RTVSPropertyOp25
 70
     1
102
RTVSPropertyOp26
 70
     1
102
RTVSPropertyOp27
 70
     1
102
RTVSPropertyOp28
 70
     1
102
RTVSPropertyOp29
 70
     1
102
RTVSPropertyOp30
 70
     1
102
RTVSPropertyOp31
 70
     1
102
RTVSPropertyOp32
 70
     1
  0
XRECORD
  5
339
102
{ACAD_REACTORS
330
338
102
}
330
338
100
AcDbXrecord
280
     1
102
RTVSPropertyOp0
 70
     1
102
RTVSPropertyOp1
 70
     1
102
RTVSPropertyOp2
 70
     1
102
RTVSPropertyOp3
 70
     1
102
RTVSPropertyOp4
 70
     1
102
RTVSPropertyOp5
 70
     1
102
RTVSPropertyOp6
 70
     1
102
RTVSPropertyOp7
 70
     1
102
RTVSPropertyOp8
 70
     1
102
RTVSPropertyOp9
 70
     1
102
RTVSPropertyOp10
 70
     1
102
RTVSPropertyOp11
 70
     1
102
RTVSPropertyOp12
 70
     1
102
RTVSPropertyOp13
 70
     1
102
RTVSPropertyOp14
 70
     1
102
RTVSPropertyOp15
 70
     1
102
RTVSPropertyOp16
 70
     1
102
RTVSPropertyOp17
 70
     1
102
RTVSPropertyOp18
 70
     1
102
RTVSPropertyOp19
 70
     1
102
RTVSPropertyOp20
 70
     1
102
RTVSPropertyOp21
 70
     1
102
RTVSPropertyOp22
 70
     1
102
RTVSPropertyOp23
 70
     1
102
RTVSPropertyOp24
 70
     1
102
RTVSPropertyOp25
 70
     1
102
RTVSPropertyOp26
 70
     1
102
RTVSPropertyOp27
 70
     1
102
RTVSPropertyOp28
 70
     1
102
RTVSPropertyOp29
 70
     1
102
RTVSPropertyOp30
 70
     1
102
RTVSPropertyOp31
 70
     1
102
RTVSPropertyOp32
 70
     1
  0
XRECORD
  5
341
102
{ACAD_REACTORS
330
340
102
}
330
340
100
AcDbXrecord
280
     1
102
RTVSPropertyOp0
 70
     1
102
RTVSPropertyOp1
 70
     1
102
RTVSPropertyOp2
 70
     1
102
RTVSPropertyOp3
 70
     1
102
RTVSPropertyOp4
 70
     1
102
RTVSPropertyOp5
 70
     1
102
RTVSPropertyOp6
 70
     1
102
RTVSPropertyOp7
 70
     1
102
RTVSPropertyOp8
 70
     1
102
RTVSPropertyOp9
 70
     1
102
RTVSPropertyOp10
 70
     1
102
RTVSPropertyOp11
 70
     1
102
RTVSPropertyOp12
 70
     1
102
RTVSPropertyOp13
 70
     1
102
RTVSPropertyOp14
 70
     1
102
RTVSPropertyOp15
 70
     1
102
RTVSPropertyOp16
 70
     1
102
RTVSPropertyOp17
 70
     1
102
RTVSPropertyOp18
 70
     1
102
RTVSPropertyOp19
 70
     1
102
RTVSPropertyOp20
 70
     1
102
RTVSPropertyOp21
 70
     1
102
RTVSPropertyOp22
 70
     1
102
RTVSPropertyOp23
 70
     1
102
RTVSPropertyOp24
 70
     1
102
RTVSPropertyOp25
 70
     1
102
RTVSPropertyOp26
 70
     1
102
RTVSPropertyOp27
 70
     1
102
RTVSPropertyOp28
 70
     1
102
RTVSPropertyOp29
 70
     1
102
RTVSPropertyOp30
 70
     1
102
RTVSPropertyOp31
 70
     1
102
RTVSPropertyOp32
 70
     1
  0
ENDSEC
  0
EOF
