  0
SECTION
  2
HEADER
  9
$ACADVER
  1
AC1015
  9
$ACADMAINTVER
 70
     6
  9
$DWGCODEPAGE
  3
ANSI_932
  9
$INSBASE
 10
0.0
 20
0.0
 30
0.0
  9
$EXTMIN
 10
-0.59922655737796
 20
0.0
 30
0.0
  9
$EXTMAX
 10
419.400773442622
 20
594.0
 30
0.0
  9
$LIMMIN
 10
0.0
 20
0.0
  9
$LIMMAX
 10
12.0
 20
9.0
  9
$ORTHOMODE
 70
     0
  9
$REGENMODE
 70
     1
  9
$FILLMODE
 70
     1
  9
$QTEXTMODE
 70
     0
  9
$MIRRTEXT
 70
     1
  9
$LTSCALE
 40
1.0
  9
$ATTMODE
 70
     1
  9
$TEXTSIZE
 40
0.2
  9
$TRACEWID
 40
0.05
  9
$TEXTSTYLE
  7
Standard
  9
$CLAYER
  8
0
  9
$CELTYPE
  6
ByLayer
  9
$CECOLOR
 62
   256
  9
$CELTSCALE
 40
1.0
  9
$DISPSILH
 70
     0
  9
$DIMSCALE
 40
1.0
  9
$DIMASZ
 40
0.18
  9
$DIMEXO
 40
0.0625
  9
$DIMDLI
 40
0.38
  9
$DIMRND
 40
0.0
  9
$DIMDLE
 40
0.0
  9
$DIMEXE
 40
0.18
  9
$DIMTP
 40
0.0
  9
$DIMTM
 40
0.0
  9
$DIMTXT
 40
0.18
  9
$DIMCEN
 40
0.09
  9
$DIMTSZ
 40
0.0
  9
$DIMTOL
 70
     0
  9
$DIMLIM
 70
     0
  9
$DIMTIH
 70
     1
  9
$DIMTOH
 70
     1
  9
$DIMSE1
 70
     0
  9
$DIMSE2
 70
     0
  9
$DIMTAD
 70
     0
  9
$DIMZIN
 70
     0
  9
$DIMBLK
  1

  9
$DIMASO
 70
     1
  9
$DIMSHO
 70
     1
  9
$DIMPOST
  1

  9
$DIMAPOST
  1

  9
$DIMALT
 70
     0
  9
$DIMALTD
 70
     2
  9
$DIMALTF
 40
25.4
  9
$DIMLFAC
 40
1.0
  9
$DIMTOFL
 70
     0
  9
$DIMTVP
 40
0.0
  9
$DIMTIX
 70
     0
  9
$DIMSOXD
 70
     0
  9
$DIMSAH
 70
     0
  9
$DIMBLK1
  1

  9
$DIMBLK2
  1

  9
$DIMSTYLE
  2
Standard
  9
$DIMCLRD
 70
     0
  9
$DIMCLRE
 70
     0
  9
$DIMCLRT
 70
     0
  9
$DIMTFAC
 40
1.0
  9
$DIMGAP
 40
0.09
  9
$DIMJUST
 70
     0
  9
$DIMSD1
 70
     0
  9
$DIMSD2
 70
     0
  9
$DIMTOLJ
 70
     1
  9
$DIMTZIN
 70
     0
  9
$DIMALTZ
 70
     0
  9
$DIMALTTZ
 70
     0
  9
$DIMUPT
 70
     0
  9
$DIMDEC
 70
     4
  9
$DIMTDEC
 70
     4
  9
$DIMALTU
 70
     2
  9
$DIMALTTD
 70
     2
  9
$DIMTXSTY
  7
Standard
  9
$DIMAUNIT
 70
     0
  9
$DIMADEC
 70
     0
  9
$DIMALTRND
 40
0.0
  9
$DIMAZIN
 70
     0
  9
$DIMDSEP
 70
    46
  9
$DIMATFIT
 70
     3
  9
$DIMFRAC
 70
     0
  9
$DIMLDRBLK
  1

  9
$DIMLUNIT
 70
     2
  9
$DIMLWD
 70
    -2
  9
$DIMLWE
 70
    -2
  9
$DIMTMOVE
 70
     0
  9
$LUNITS
 70
     2
  9
$LUPREC
 70
     4
  9
$SKETCHINC
 40
0.1
  9
$FILLETRAD
 40
0.5
  9
$AUNITS
 70
     0
  9
$AUPREC
 70
     0
  9
$MENU
  1
.
  9
$ELEVATION
 40
0.0
  9
$PELEVATION
 40
0.0
  9
$THICKNESS
 40
0.0
  9
$LIMCHECK
 70
     0
  9
$CHAMFERA
 40
0.5
  9
$CHAMFERB
 40
0.5
  9
$CHAMFERC
 40
1.0
  9
$CHAMFERD
 40
0.0
  9
$SKPOLY
 70
     0
  9
$TDCREATE
 40
2456498.41003059
  9
$TDUCREATE
 40
2456498.03503059
  9
$TDUPDATE
 40
2456498.410031852
  9
$TDUUPDATE
 40
2456498.035031852
  9
$TDINDWG
 40
0.0000000116
  9
$TDUSRTIMER
 40
0.0000000116
  9
$USRTIMER
 70
     1
  9
$ANGBASE
 50
0.0
  9
$ANGDIR
 70
     0
  9
$PDMODE
 70
     0
  9
$PDSIZE
 40
0.0
  9
$PLINEWID
 40
0.0
  9
$SPLFRAME
 70
     0
  9
$SPLINETYPE
 70
     6
  9
$SPLINESEGS
 70
     8
  9
$HANDSEED
  5
37D
  9
$SURFTAB1
 70
     6
  9
$SURFTAB2
 70
     6
  9
$SURFTYPE
 70
     6
  9
$SURFU
 70
     6
  9
$SURFV
 70
     6
  9
$UCSBASE
  2

  9
$UCSNAME
  2

  9
$UCSORG
 10
0.0
 20
0.0
 30
0.0
  9
$UCSXDIR
 10
1.0
 20
0.0
 30
0.0
  9
$UCSYDIR
 10
0.0
 20
1.0
 30
0.0
  9
$UCSORTHOREF
  2

  9
$UCSORTHOVIEW
 70
     0
  9
$UCSORGTOP
 10
0.0
 20
0.0
 30
0.0
  9
$UCSORGBOTTOM
 10
0.0
 20
0.0
 30
0.0
  9
$UCSORGLEFT
 10
0.0
 20
0.0
 30
0.0
  9
$UCSORGRIGHT
 10
0.0
 20
0.0
 30
0.0
  9
$UCSORGFRONT
 10
0.0
 20
0.0
 30
0.0
  9
$UCSORGBACK
 10
0.0
 20
0.0
 30
0.0
  9
$PUCSBASE
  2

  9
$PUCSNAME
  2

  9
$PUCSORG
 10
0.0
 20
0.0
 30
0.0
  9
$PUCSXDIR
 10
1.0
 20
0.0
 30
0.0
  9
$PUCSYDIR
 10
0.0
 20
1.0
 30
0.0
  9
$PUCSORTHOREF
  2

  9
$PUCSORTHOVIEW
 70
     0
  9
$PUCSORGTOP
 10
0.0
 20
0.0
 30
0.0
  9
$PUCSORGBOTTOM
 10
0.0
 20
0.0
 30
0.0
  9
$PUCSORGLEFT
 10
0.0
 20
0.0
 30
0.0
  9
$PUCSORGRIGHT
 10
0.0
 20
0.0
 30
0.0
  9
$PUCSORGFRONT
 10
0.0
 20
0.0
 30
0.0
  9
$PUCSORGBACK
 10
0.0
 20
0.0
 30
0.0
  9
$USERI1
 70
     0
  9
$USERI2
 70
     0
  9
$USERI3
 70
     0
  9
$USERI4
 70
     0
  9
$USERI5
 70
     0
  9
$USERR1
 40
18.1
  9
$USERR2
 40
0.0
  9
$USERR3
 40
0.0
  9
$USERR4
 40
0.0
  9
$USERR5
 40
0.0
  9
$WORLDVIEW
 70
     1
  9
$SHADEDGE
 70
     3
  9
$SHADEDIF
 70
    70
  9
$TILEMODE
 70
     1
  9
$MAXACTVP
 70
    64
  9
$PINSBASE
 10
0.0
 20
0.0
 30
0.0
  9
$PLIMCHECK
 70
     0
  9
$PEXTMIN
 10
1.00000000000000E+20
 20
1.00000000000000E+20
 30
1.00000000000000E+20
  9
$PEXTMAX
 10
-1.00000000000000E+20
 20
-1.00000000000000E+20
 30
-1.00000000000000E+20
  9
$PLIMMIN
 10
0.0
 20
0.0
  9
$PLIMMAX
 10
12.0
 20
9.0
  9
$UNITMODE
 70
     0
  9
$VISRETAIN
 70
     1
  9
$PLINEGEN
 70
     0
  9
$PSLTSCALE
 70
     1
  9
$TREEDEPTH
 70
  3020
  9
$CMLSTYLE
  2
Standard
  9
$CMLJUST
 70
     0
  9
$CMLSCALE
 40
1.0
  9
$PROXYGRAPHICS
 70
     1
  9
$MEASUREMENT
 70
     1
  9
$CELWEIGHT
370
    -1
  9
$ENDCAPS
280
     0
  9
$JOINSTYLE
280
     0
  9
$LWDISPLAY
290
     0
  9
$INSUNITS
 70
     4
  9
$HYPERLINKBASE
  1

  9
$STYLESHEET
  1

  9
$XEDIT
290
     1
  9
$CEPSNTYPE
380
     0
  9
$PSTYLEMODE
290
     1
  9
$FINGERPRINTGUID
  2
{E91FFE7E-1E56-4554-8757-36E43AC72B1F}
  9
$VERSIONGUID
  2
{FAEB1C32-E019-11D5-929B-00C0DF256EC4}
  9
$EXTNAMES
290
     1
  9
$PSVPSCALE
 40
0.0
  9
$OLESTARTUP
290
     0
  0
ENDSEC
  0
SECTION
  2
CLASSES
  0
CLASS
  1
ACDBDICTIONARYWDFLT
  2
AcDbDictionaryWithDefault
  3
ObjectDBX Classes
 90
        0
280
     0
281
     0
  0
CLASS
  1
VISUALSTYLE
  2
AcDbVisualStyle
  3
ObjectDBX Classes
 90
     4095
280
     0
281
     0
  0
CLASS
  1
MATERIAL
  2
AcDbMaterial
  3
ObjectDBX Classes
 90
     1153
280
     0
281
     0
  0
CLASS
  1
DICTIONARYVAR
  2
AcDbDictionaryVar
  3
ObjectDBX Classes
 90
        0
280
     0
281
     0
  0
CLASS
  1
ACDBPLACEHOLDER
  2
AcDbPlaceHolder
  3
ObjectDBX Classes
 90
        0
280
     0
281
     0
  0
CLASS
  1
LAYOUT
  2
AcDbLayout
  3
ObjectDBX Classes
 90
        0
280
     0
281
     0
  0
ENDSEC
  0
SECTION
  2
TABLES
  0
TABLE
  2
VPORT
  5
8
330
0
100
AcDbSymbolTable
 70
     1
  0
VPORT
  5
29
330
8
100
AcDbSymbolTableRecord
100
AcDbViewportTableRecord
  2
*Active
 70
     0
 10
0.0
 20
0.0
 11
1.0
 21
1.0
 12
209.400773442622
 22
297.0
 13
0.0
 23
0.0
 14
0.5
 24
0.5
 15
0.5
 25
0.5
 16
0.0
 26
0.0
 36
1.0
 17
0.0
 27
0.0
 37
0.0
 40
653.4000000000001
 41
1.60267857142857
 42
50.0
 43
0.0
 44
0.0
 50
0.0
 51
0.0
 71
     0
 72
   100
 73
     1
 74
     3
 75
     0
 76
     0
 77
     0
 78
     0
281
     0
 65
     1
110
0.0
120
0.0
130
0.0
111
1.0
121
0.0
131
0.0
112
0.0
122
1.0
132
0.0
 79
     0
146
0.0
  0
ENDTAB
  0
TABLE
  2
LTYPE
  5
5
330
0
100
AcDbSymbolTable
 70
     8
  0
LTYPE
  5
14
330
5
100
AcDbSymbolTableRecord
100
AcDbLinetypeTableRecord
  2
ByBlock
 70
     0
  3

 72
    65
 73
     0
 40
0.0
  0
LTYPE
  5
15
330
5
100
AcDbSymbolTableRecord
100
AcDbLinetypeTableRecord
  2
ByLayer
 70
     0
  3

 72
    65
 73
     0
 40
0.0
  0
LTYPE
  5
16
330
5
100
AcDbSymbolTableRecord
100
AcDbLinetypeTableRecord
  2
Continuous
 70
     0
  3
Solid line
 72
    65
 73
     0
 40
0.0
  0
LTYPE
  5
3F
330
5
100
AcDbSymbolTableRecord
100
AcDbLinetypeTableRecord
  2
DASHED
 70
     0
  3
Dashed
 72
    65
 73
     2
 40
15.0
 49
7.0
 74
     0
 49
-8.0
 74
     0
  0
LTYPE
  5
40
330
5
100
AcDbSymbolTableRecord
100
AcDbLinetypeTableRecord
  2
DOTTED
 70
     0
  3
Dotted
 72
    65
 73
     2
 40
1.0
 49
0.0
 74
     0
 49
-1.0
 74
     0
  0
LTYPE
  5
41
330
5
100
AcDbSymbolTableRecord
100
AcDbLinetypeTableRecord
  2
DOT_CENTER
 70
     0
  3
Dot_Center
 72
    65
 73
     4
 40
14.0
 49
12.0
 74
     0
 49
-1.0
 74
     0
 49
0.0
 74
     0
 49
-1.0
 74
     0
  0
LTYPE
  5
42
330
5
100
AcDbSymbolTableRecord
100
AcDbLinetypeTableRecord
  2
LONG_DASHED
 70
     0
  3
Long_Dashed
 72
    65
 73
     2
 40
15.0
 49
10.0
 74
     0
 49
-5.0
 74
     0
  0
LTYPE
  5
43
330
5
100
AcDbSymbolTableRecord
100
AcDbLinetypeTableRecord
  2
DASH_CENTER
 70
     0
  3
Dash_Center
 72
    65
 73
     4
 40
14.0
 49
11.0
 74
     0
 49
-1.0
 74
     0
 49
1.0
 74
     0
 49
-1.0
 74
     0
  0
LTYPE
  5
44
330
5
100
AcDbSymbolTableRecord
100
AcDbLinetypeTableRecord
  2
PHANTOM
 70
     0
  3
Phantom
 72
    65
 73
     6
 40
13.0
 49
10.0
 74
     0
 49
-1.0
 74
     0
 49
0.0
 74
     0
 49
-1.0
 74
     0
 49
0.0
 74
     0
 49
-1.0
 74
     0
  0
LTYPE
  5
45
330
5
100
AcDbSymbolTableRecord
100
AcDbLinetypeTableRecord
  2
CENTER_DASH_DASH
 70
     0
  3
Center_Dash_Dash
 72
    65
 73
     6
 40
14.0
 49
9.0
 74
     0
 49
-1.0
 74
     0
 49
1.0
 74
     0
 49
-1.0
 74
     0
 49
1.0
 74
     0
 49
-1.0
 74
     0
  0
ENDTAB
  0
TABLE
  2
LAYER
  5
2
330
0
100
AcDbSymbolTable
 70
     7
  0
LAYER
  5
10
330
2
100
AcDbSymbolTableRecord
100
AcDbLayerTableRecord
  2
0
 70
     0
 62
     7
  6
Continuous
370
    -3
390
F
  0
LAYER
  5
46
330
2
100
AcDbSymbolTableRecord
100
AcDbLayerTableRecord
  2
1
 70
     0
 62
     7
  6
Continuous
370
    -3
390
F
  0
LAYER
  5
47
330
2
100
AcDbSymbolTableRecord
100
AcDbLayerTableRecord
  2
11
 70
     0
 62
     7
  6
Continuous
370
    -3
390
F
  0
LAYER
  5
48
330
2
100
AcDbSymbolTableRecord
100
AcDbLayerTableRecord
  2
2
 70
     0
 62
     7
  6
Continuous
370
    -3
390
F
  0
LAYER
  5
49
330
2
100
AcDbSymbolTableRecord
100
AcDbLayerTableRecord
  2
5
 70
     0
 62
     7
  6
Continuous
370
    -3
390
F
  0
LAYER
  5
4A
330
2
100
AcDbSymbolTableRecord
100
AcDbLayerTableRecord
  2
6
 70
     0
 62
     7
  6
Continuous
370
    -3
390
F
  0
LAYER
  5
4B
330
2
100
AcDbSymbolTableRecord
100
AcDbLayerTableRecord
  2
7
 70
     0
 62
     7
  6
Continuous
370
    -3
390
F
  0
ENDTAB
  0
TABLE
  2
STYLE
  5
3
330
0
100
AcDbSymbolTable
 70
     3
  0
STYLE
  5
11
330
3
100
AcDbSymbolTableRecord
100
AcDbTextStyleTableRecord
  2
Standard
 70
     0
 40
0.0
 41
1.0
 50
0.0
 71
     0
 42
0.2
  3
txt
  4

  0
STYLE
  5
20E
330
3
100
AcDbSymbolTableRecord
100
AcDbTextStyleTableRecord
  2
CONVERTER_11
 70
     0
 40
0.0
 41
0.89
 50
0.0
 71
     0
 42
0.2
  3
MS Mincho.ttf
  4

1001
ACAD
1000
MS Mincho
1071
    32785
  0
STYLE
  5
318
330
3
100
AcDbSymbolTableRecord
100
AcDbTextStyleTableRecord
  2
CONVERTER_12
 70
     0
 40
0.0
 41
0.9
 50
0.0
 71
     0
 42
0.2
  3
txt.shx
  4

  0
ENDTAB
  0
TABLE
  2
VIEW
  5
6
330
0
100
AcDbSymbolTable
 70
     0
  0
ENDTAB
  0
TABLE
  2
UCS
  5
7
330
0
100
AcDbSymbolTable
 70
     0
  0
ENDTAB
  0
TABLE
  2
APPID
  5
9
330
0
100
AcDbSymbolTable
 70
     1
  0
APPID
  5
12
330
9
100
AcDbSymbolTableRecord
100
AcDbRegAppTableRecord
  2
ACAD
 70
     0
  0
ENDTAB
  0
TABLE
  2
DIMSTYLE
  5
A
330
0
100
AcDbSymbolTable
 70
     4
100
AcDbDimStyleTable
  0
DIMSTYLE
105
27
330
A
100
AcDbSymbolTableRecord
100
AcDbDimStyleTableRecord
  2
Standard
 70
     0
178
     0
340
11
  0
DIMSTYLE
105
332
102
{ACAD_REACTORS
330
333
102
}
330
A
100
AcDbSymbolTableRecord
100
AcDbDimStyleTableRecord
  2
ME10_DIM_10
 70
     0
 41
7.0
 42
0.0
 44
2.0
 73
     0
 74
     0
 77
     1
 78
     8
140
7.0
147
2.0
172
     1
173
     1
174
     1
175
     1
176
     2
177
     2
271
     2
178
     7
271
     2
340
20E
  0
DIMSTYLE
105
33D
102
{ACAD_REACTORS
330
33E
102
}
330
A
100
AcDbSymbolTableRecord
100
AcDbDimStyleTableRecord
  2
ME10_DIM_11
 70
     0
 41
7.0
 42
0.0
 44
2.0
 73
     0
 74
     0
 77
     1
 78
     8
140
7.0
147
2.0
172
     1
173
     1
174
     1
175
     1
176
     2
177
     2
271
     2
178
     7
271
     2
340
318
  0
DIMSTYLE
105
348
102
{ACAD_REACTORS
330
349
102
}
330
A
100
AcDbSymbolTableRecord
100
AcDbDimStyleTableRecord
  2
ME10_DIM_12
 70
     0
 41
7.0
 42
0.0
 44
2.0
 73
     0
 74
     0
 77
     1
 78
     8
140
7.0
147
2.0
172
     1
173
     1
174
     1
175
     1
176
     2
177
     2
271
     2
178
     7
271
     2
340
318
  0
ENDTAB
  0
TABLE
  2
BLOCK_RECORD
  5
1
330
0
100
AcDbSymbolTable
 70
     9
  0
BLOCK_RECORD
  5
1F
330
1
100
AcDbSymbolTableRecord
100
AcDbBlockTableRecord
  2
*Model_Space
340
22
  0
BLOCK_RECORD
  5
1B
330
1
100
AcDbSymbolTableRecord
100
AcDbBlockTableRecord
  2
*Paper_Space
340
1E
  0
BLOCK_RECORD
  5
23
330
1
100
AcDbSymbolTableRecord
100
AcDbBlockTableRecord
  2
*Paper_Space0
340
26
  0
BLOCK_RECORD
  5
4C
330
1
100
AcDbSymbolTableRecord
100
AcDbBlockTableRecord
  2
バンド__1
340
0
102
{BLKREFS
331
58
102
}
  0
BLOCK_RECORD
  5
4F
330
1
100
AcDbSymbolTableRecord
100
AcDbBlockTableRecord
  2
バンド__2
340
0
102
{BLKREFS
331
59
102
}
  0
BLOCK_RECORD
  5
52
330
1
100
AcDbSymbolTableRecord
100
AcDbBlockTableRecord
  2
H642-1
340
0
102
{BLKREFS
331
5A
102
}
  0
BLOCK_RECORD
  5
55
330
1
100
AcDbSymbolTableRecord
100
AcDbBlockTableRecord
  2
開示A4
340
0
102
{BLKREFS
331
5B
102
}
  0
BLOCK_RECORD
  5
327
330
1
100
AcDbSymbolTableRecord
100
AcDbBlockTableRecord
  2
*D5
340
0
  0
BLOCK_RECORD
  5
334
330
1
100
AcDbSymbolTableRecord
100
AcDbBlockTableRecord
  2
*D6
340
0
  0
BLOCK_RECORD
  5
33F
330
1
100
AcDbSymbolTableRecord
100
AcDbBlockTableRecord
  2
*D7
340
0
  0
BLOCK_RECORD
  5
34A
330
1
100
AcDbSymbolTableRecord
100
AcDbBlockTableRecord
  2
*D8
340
0
102
{BLKREFS
331
351
102
}
  0
ENDTAB
  0
ENDSEC
  0
SECTION
  2
BLOCKS
  0
BLOCK
  5
20
330
1F
100
AcDbEntity
  8
0
100
AcDbBlockBegin
  2
*Model_Space
 70
     0
 10
0.0
 20
0.0
 30
0.0
  3
*Model_Space
  1

  0
ENDBLK
  5
21
330
1F
100
AcDbEntity
  8
0
100
AcDbBlockEnd
  0
BLOCK
  5
1C
330
1B
100
AcDbEntity
 67
     1
  8
0
100
AcDbBlockBegin
  2
*Paper_Space
 70
     0
 10
0.0
 20
0.0
 30
0.0
  3
*Paper_Space
  1

  0
ENDBLK
  5
1D
330
1B
100
AcDbEntity
 67
     1
  8
0
100
AcDbBlockEnd
  0
BLOCK
  5
24
330
23
100
AcDbEntity
  8
0
100
AcDbBlockBegin
  2
*Paper_Space0
 70
     0
 10
0.0
 20
0.0
 30
0.0
  3
*Paper_Space0
  1

  0
ENDBLK
  5
25
330
23
100
AcDbEntity
  8
0
100
AcDbBlockEnd
  0
BLOCK
  5
4D
330
4C
100
AcDbEntity
  8
0
100
AcDbBlockBegin
  2
バンド__1
 70
     0
 10
1078.793339347624
 20
84.62359983237391
 30
0.0
  3
バンド__1
  1

  0
LINE
  5
5C
330
4C
100
AcDbEntity
  8
2
  6
PHANTOM
 62
     4
100
AcDbLine
 10
178.3795423165884
 20
143.6003835697861
 30
0.0
 11
269.1241545667473
 21
143.6003835697861
 31
0.0
  0
LINE
  5
5D
330
4C
100
AcDbEntity
  8
1
  6
Continuous
 62
     7
100
AcDbLine
 10
257.3556865387072
 20
149.950383569786
 30
0.0
 11
257.3556865387072
 21
137.250383569786
 31
0.0
  0
LINE
  5
5E
330
4C
100
AcDbEntity
  8
1
  6
Continuous
 62
     7
100
AcDbLine
 10
253.9077421555303
 20
149.950383569786
 30
0.0
 11
253.9077421555303
 21
137.250383569786
 31
0.0
  0
LINE
  5
5F
330
4C
100
AcDbEntity
  8
1
  6
Continuous
 62
     7
100
AcDbLine
 10
253.3992819430393
 20
149.950383569786
 30
0.0
 11
253.3992819430393
 21
137.250383569786
 31
0.0
  0
LINE
  5
60
330
4C
100
AcDbEntity
  8
11
  6
Continuous
 62
     7
100
AcDbLine
 10
258.2492127459134
 20
149.5340823787389
 30
0.0
 11
258.6722978408463
 21
150.091755224093
 31
0.0
  0
LINE
  5
61
330
4C
100
AcDbEntity
  8
11
  6
Continuous
 62
     7
100
AcDbLine
 10
258.2492127459134
 20
137.666684760833
 30
0.0
 11
258.6722978408463
 21
137.109011915479
 31
0.0
  0
LINE
  5
62
330
4C
100
AcDbEntity
  8
11
  6
Continuous
 62
     7
100
AcDbLine
 10
257.2569254832463
 20
136.913874301755
 30
0.0
 11
259.1714848218003
 21
138.366377370992
 31
0.0
  0
LINE
  5
63
330
4C
100
AcDbEntity
  8
11
  6
Continuous
 62
     7
100
AcDbLine
 10
257.2569254832463
 20
150.286892837817
 30
0.0
 11
259.1714848218003
 21
148.8343897685799
 31
0.0
  0
LINE
  5
64
330
4C
100
AcDbEntity
  8
11
  6
Continuous
 62
     7
100
AcDbLine
 10
257.6800105781792
 20
136.3562014564
 30
0.0
 11
259.6495074964782
 21
137.8503835697861
 31
0.0
  0
LINE
  5
65
330
4C
100
AcDbEntity
  8
11
  6
Continuous
 62
     7
100
AcDbLine
 10
257.6800105781792
 20
150.844565683172
 30
0.0
 11
259.6495074964782
 21
149.3503835697861
 31
0.0
  0
LINE
  5
66
330
4C
100
AcDbEntity
  8
11
  6
Continuous
 62
     7
100
AcDbLine
 10
263.6201754096053
 20
147.7878051533359
 30
0.0
 11
259.6495074964782
 21
149.3503835697861
 31
0.0
  0
LINE
  5
67
330
4C
100
AcDbEntity
  8
11
  6
Continuous
 62
     7
100
AcDbLine
 10
263.6201754096053
 20
139.412961986236
 30
0.0
 11
259.6495074964782
 21
137.8503835697861
 31
0.0
  0
LINE
  5
68
330
4C
100
AcDbEntity
  8
1
  6
Continuous
 62
     7
100
AcDbLine
 10
263.9137292659333
 20
141.439793158898
 30
0.0
 11
264.1637292659333
 21
141.006780457006
 31
0.0
  0
LINE
  5
69
330
4C
100
AcDbEntity
  8
1
  6
Continuous
 62
     7
100
AcDbLine
 10
264.1637292659333
 20
141.87280586079
 30
0.0
 11
264.6637292659333
 21
141.87280586079
 31
0.0
  0
LINE
  5
6A
330
4C
100
AcDbEntity
  8
1
  6
Continuous
 62
     7
100
AcDbLine
 10
256.6637292659333
 20
145.336907475928
 30
0.0
 11
257.1637292659343
 21
145.336907475928
 31
0.0
  0
LINE
  5
6B
330
4C
100
AcDbEntity
  8
1
  6
Continuous
 62
     7
100
AcDbLine
 10
257.1637292659333
 20
146.2029328797119
 30
0.0
 11
257.4137292659333
 21
145.76992017782
 31
0.0
  0
LINE
  5
6C
330
4C
100
AcDbEntity
  8
1
  6
Continuous
 62
     7
100
AcDbLine
 10
263.9137292659333
 20
145.7609739806749
 30
0.0
 11
264.1637292659333
 21
146.1939866825671
 31
0.0
  0
LINE
  5
6D
330
4C
100
AcDbEntity
  8
1
  6
Continuous
 62
     7
100
AcDbLine
 10
264.1637292659333
 20
146.1939866825671
 30
0.0
 11
261.1637292659333
 21
147.9260374901359
 31
0.0
  0
LINE
  5
6E
330
4C
100
AcDbEntity
  8
1
  6
Continuous
 62
     7
100
AcDbLine
 10
264.1637292659333
 20
145.327961278783
 30
0.0
 11
264.6637292659333
 21
145.327961278783
 31
0.0
  0
LINE
  5
6F
330
4C
100
AcDbEntity
  8
1
  6
Continuous
 62
     7
100
AcDbLine
 10
264.6637292659333
 20
141.863859663644
 30
0.0
 11
264.6637292659333
 21
145.327961278783
 31
0.0
  0
LINE
  5
70
330
4C
100
AcDbEntity
  8
1
  6
Continuous
 62
     7
100
AcDbLine
 10
262.6637292659333
 20
140.131808856076
 30
0.0
 11
264.1637292659333
 21
140.99783425986
 31
0.0
  0
LINE
  5
71
330
4C
100
AcDbEntity
  8
1
  6
Continuous
 62
     7
100
AcDbLine
 10
260.1637292659333
 20
147.9260374901359
 30
0.0
 11
258.6637292659343
 21
147.060012086351
 31
0.0
  0
LINE
  5
72
330
4C
100
AcDbEntity
  8
1
  6
Continuous
 62
     7
100
AcDbLine
 10
261.1637292659333
 20
139.265783452291
 30
0.0
 11
262.6637292659333
 21
140.131808856076
 31
0.0
  0
LINE
  5
73
330
4C
100
AcDbEntity
  8
1
  6
Continuous
 62
     7
100
AcDbLine
 10
258.6637292659343
 20
147.060012086351
 30
0.0
 11
257.1637292659343
 21
146.1939866825671
 31
0.0
  0
LINE
  5
74
330
4C
100
AcDbEntity
  8
1
  6
Continuous
 62
     7
100
AcDbLine
 10
256.6637292659333
 20
145.327961278783
 30
0.0
 11
256.6637292659333
 21
141.863859663645
 31
0.0
  0
LINE
  5
75
330
4C
100
AcDbEntity
  8
1
  6
Continuous
 62
     7
100
AcDbLine
 10
257.1637292659333
 20
140.99783425986
 30
0.0
 11
260.1637292659333
 21
139.265783452291
 31
0.0
  0
LINE
  5
76
330
4C
100
AcDbEntity
  8
1
  6
Continuous
 62
     7
100
AcDbLine
 10
256.6637292659333
 20
141.863859663645
 30
0.0
 11
257.1637292659343
 21
141.863859663644
 31
0.0
  0
LINE
  5
77
330
4C
100
AcDbEntity
  8
1
  6
Continuous
 62
     7
100
AcDbLine
 10
257.1637292659333
 20
140.99783425986
 30
0.0
 11
257.4137292659333
 21
141.4308469617519
 31
0.0
  0
LINE
  5
78
330
4C
100
AcDbEntity
  8
1
  6
Continuous
 62
     7
100
AcDbLine
 10
264.1637292659333
 20
145.327961278783
 30
0.0
 11
264.1637292659333
 21
141.87280586079
 31
0.0
  0
LINE
  5
79
330
4C
100
AcDbEntity
  8
1
  6
Continuous
 62
     7
100
AcDbLine
 10
257.1637292659343
 20
141.863859663644
 30
0.0
 11
257.1637292659343
 21
145.336907475928
 31
0.0
  0
LINE
  5
7A
330
4C
100
AcDbEntity
  8
1
  6
Continuous
 62
     7
100
AcDbLine
 10
261.5770714246494
 20
147.1100440143441
 30
0.0
 11
263.9137292659333
 21
145.7609739806749
 31
0.0
  0
LINE
  5
7B
330
4C
100
AcDbEntity
  8
1
  6
Continuous
 62
     7
100
AcDbLine
 10
257.3416708360103
 20
145.7193710267599
 30
0.0
 11
259.7770714246493
 21
147.125450212196
 31
0.0
  0
LINE
  5
7C
330
4C
100
AcDbEntity
  8
1
  6
Continuous
 62
     7
100
AcDbLine
 10
261.5770714246503
 20
140.090723125229
 30
0.0
 11
263.9137292659333
 21
141.439793158898
 31
0.0
  0
LINE
  5
7D
330
4C
100
AcDbEntity
  8
1
  6
Continuous
 62
     7
100
AcDbLine
 10
259.7770714246493
 20
140.066370730231
 30
0.0
 11
257.4137292659333
 21
141.4308469617519
 31
0.0
  0
LINE
  5
7E
330
4C
100
AcDbEntity
  8
11
  6
Continuous
 62
     7
100
AcDbLine
 10
259.2785227421863
 20
138.793092904958
 30
0.0
 11
259.6495074964782
 21
137.8503835697861
 31
0.0
  0
LINE
  5
7F
330
4C
100
AcDbEntity
  8
11
  6
Continuous
 62
     7
100
AcDbLine
 10
259.2727762692583
 20
148.3930718726301
 30
0.0
 11
259.6495074964782
 21
149.3503835697861
 31
0.0
  0
LINE
  5
80
330
4C
100
AcDbEntity
  8
11
  6
Continuous
 62
     7
100
AcDbLine
 10
261.5770714246494
 20
139.504426658894
 30
0.0
 11
261.5770714246494
 21
147.6873942835341
 31
0.0
  0
LINE
  5
81
330
4C
100
AcDbEntity
  8
11
  6
Continuous
 62
     7
100
AcDbLine
 10
259.7770714246493
 20
139.489020461041
 30
0.0
 11
259.7770714246493
 21
147.702800481386
 31
0.0
  0
LINE
  5
82
330
4C
100
AcDbEntity
  8
2
  6
DASH_CENTER
 62
     2
100
AcDbLine
 10
260.6770714246493
 20
149.9465261524919
 30
0.0
 11
260.6770714246493
 21
137.7069036871221
 31
0.0
  0
LINE
  5
83
330
4C
100
AcDbEntity
  8
1
  6
Continuous
 62
     7
100
AcDbLine
 10
184.4458603465369
 20
137.250383569786
 30
0.0
 11
257.3556865387072
 21
137.250383569786
 31
0.0
  0
LINE
  5
84
330
4C
100
AcDbEntity
  8
1
  6
Continuous
 62
     7
100
AcDbLine
 10
184.4458603465369
 20
149.950383569786
 30
0.0
 11
257.3556865387072
 21
149.950383569786
 31
0.0
  0
LINE
  5
85
330
4C
100
AcDbEntity
  8
1
  6
Continuous
 62
     7
100
AcDbLine
 10
184.4458603465369
 20
149.950383569786
 30
0.0
 11
184.4458603465369
 21
137.250383569786
 31
0.0
  0
ARC
  5
86
330
4C
100
AcDbEntity
  8
11
  6
Continuous
 62
     7
100
AcDbCircle
 10
259.8967735559713
 20
149.7904003606161
 30
0.0
 40
1.200000000000346
100
AcDbArc
 50
232.8137978633289
 51
245.224512854483
  0
ARC
  5
87
330
4C
100
AcDbEntity
  8
11
  6
Continuous
 62
     7
100
AcDbCircle
 10
261.9722978408463
 20
143.6003835697861
 30
0.0
 40
4.500000000000006
100
AcDbArc
 50
291.4811445019637
 51
68.51885549803512
  0
ARC
  5
88
330
4C
100
AcDbEntity
  8
11
  6
Continuous
 62
     7
100
AcDbCircle
 10
259.8967735559713
 20
137.4103667789561
 30
0.0
 40
1.200000000000123
100
AcDbArc
 50
114.7754871455588
 51
127.1862021366793
  0
ARC
  5
89
330
4C
100
AcDbEntity
  8
1
  6
Continuous
 62
     7
100
AcDbCircle
 10
263.6637292659333
 20
141.87280586079
 30
0.0
 40
0.999999999999639
100
AcDbArc
 50
300.0000000000119
 51
0.0
  0
ARC
  5
8A
330
4C
100
AcDbEntity
  8
1
  6
Continuous
 62
     7
100
AcDbCircle
 10
263.6637292659333
 20
141.87280586079
 30
0.0
 40
0.4999999999998195
100
AcDbArc
 50
300.0000000000119
 51
0.0
  0
ARC
  5
8B
330
4C
100
AcDbEntity
  8
1
  6
Continuous
 62
     7
100
AcDbCircle
 10
257.6637292659333
 20
145.336907475928
 30
0.0
 40
0.9999999999995405
100
AcDbArc
 50
120.0000000000152
 51
180.0
  0
ARC
  5
8C
330
4C
100
AcDbEntity
  8
1
  6
Continuous
 62
     7
100
AcDbCircle
 10
257.6637292659333
 20
145.336907475928
 30
0.0
 40
0.4999999999998195
100
AcDbArc
 50
120.0000000000119
 51
180.0
  0
ARC
  5
8D
330
4C
100
AcDbEntity
  8
1
  6
Continuous
 62
     7
100
AcDbCircle
 10
263.6637292659333
 20
145.327961278783
 30
0.0
 40
1.0
100
AcDbArc
 50
0.0
 51
59.99999999999051
  0
ARC
  5
8E
330
4C
100
AcDbEntity
  8
1
  6
Continuous
 62
     7
100
AcDbCircle
 10
260.6637292659333
 20
147.060012086351
 30
0.0
 40
1.000000000000402
100
AcDbArc
 50
60.00000000001331
 51
119.9999999999867
  0
ARC
  5
8F
330
4C
100
AcDbEntity
  8
1
  6
Continuous
 62
     7
100
AcDbCircle
 10
263.6637292659333
 20
141.863859663644
 30
0.0
 40
0.9999999999996144
100
AcDbArc
 50
300.0000000000127
 51
0.0
  0
ARC
  5
90
330
4C
100
AcDbEntity
  8
1
  6
Continuous
 62
     7
100
AcDbCircle
 10
263.6637292659333
 20
145.327961278783
 30
0.0
 40
0.5
100
AcDbArc
 50
0.0
 51
59.99999999998155
  0
ARC
  5
91
330
4C
100
AcDbEntity
  8
1
  6
Continuous
 62
     7
100
AcDbCircle
 10
260.6637292659333
 20
140.131808856076
 30
0.0
 40
1.000000000000476
100
AcDbArc
 50
240.0000000000157
 51
299.9999999999842
  0
ARC
  5
92
330
4C
100
AcDbEntity
  8
1
  6
Continuous
 62
     7
100
AcDbCircle
 10
257.6637292659333
 20
145.327961278783
 30
0.0
 40
0.9999999999992012
100
AcDbArc
 50
119.9999999999587
 51
180.0
  0
ARC
  5
93
330
4C
100
AcDbEntity
  8
1
  6
Continuous
 62
     7
100
AcDbCircle
 10
257.6637292659333
 20
141.863859663645
 30
0.0
 40
1.0
100
AcDbArc
 50
180.0
 51
240.0000000000157
  0
ARC
  5
94
330
4C
100
AcDbEntity
  8
1
  6
Continuous
 62
     7
100
AcDbCircle
 10
257.6637292659333
 20
141.863859663645
 30
0.0
 40
0.4999999999989768
100
AcDbArc
 50
180.000000000114
 51
240.0000000000499
  0
ARC
  5
95
330
4C
100
AcDbEntity
  8
11
  6
Continuous
 62
     7
100
AcDbCircle
 10
256.6222978408463
 20
137.750383569786
 30
0.0
 40
1.049999999999994
100
AcDbArc
 50
208.4368901488556
 51
307.1862021367072
  0
ARC
  5
96
330
4C
100
AcDbEntity
  8
11
  6
Continuous
 62
     7
100
AcDbCircle
 10
256.6222978408463
 20
137.750383569786
 30
0.0
 40
1.750000000000137
100
AcDbArc
 50
196.6015495990189
 51
307.1862021366764
  0
ARC
  5
97
330
4C
100
AcDbEntity
  8
11
  6
Continuous
 62
     7
100
AcDbCircle
 10
256.6222978408463
 20
149.450383569786
 30
0.0
 40
1.049999999999971
100
AcDbArc
 50
52.8137978632918
 51
151.5631098511444
  0
ARC
  5
98
330
4C
100
AcDbEntity
  8
11
  6
Continuous
 62
     7
100
AcDbCircle
 10
256.6222978408463
 20
149.450383569786
 30
0.0
 40
1.750000000000488
100
AcDbArc
 50
52.81379786332305
 51
163.3984504009811
  0
CIRCLE
  5
99
330
4C
100
AcDbEntity
  8
11
  6
Continuous
 62
     7
100
AcDbCircle
 10
260.6756823614974
 20
143.5939204375989
 30
0.0
 40
5.0
  0
ENDBLK
  5
4E
330
4C
100
AcDbEntity
  8
0
100
AcDbBlockEnd
  0
BLOCK
  5
50
330
4F
100
AcDbEntity
  8
0
100
AcDbBlockBegin
  2
バンド__2
 70
     0
 10
659.3925659050019
 20
84.62359983237391
 30
0.0
  3
バンド__2
  1

  0
LINE
  5
9A
330
4F
100
AcDbEntity
  8
1
  6
Continuous
 62
     7
100
AcDbLine
 10
184.4458603465369
 20
365.250383569786
 30
0.0
 11
184.4458603465369
 21
352.5503835697861
 31
0.0
  0
LINE
  5
9B
330
4F
100
AcDbEntity
  8
1
  6
Continuous
 62
     7
100
AcDbLine
 10
257.3556865387072
 20
352.5503835697861
 30
0.0
 11
184.4458603465369
 21
352.5503835697861
 31
0.0
  0
LINE
  5
9C
330
4F
100
AcDbEntity
  8
1
  6
Continuous
 62
     7
100
AcDbLine
 10
257.3556865387072
 20
365.250383569786
 30
0.0
 11
184.4458603465369
 21
365.250383569786
 31
0.0
  0
LINE
  5
9D
330
4F
100
AcDbEntity
  8
2
  6
DASH_CENTER
 62
     2
100
AcDbLine
 10
260.6770714246493
 20
364.79386345245
 30
0.0
 11
260.6770714246493
 21
352.55424098708
 31
0.0
  0
LINE
  5
9E
330
4F
100
AcDbEntity
  8
11
  6
Continuous
 62
     7
100
AcDbLine
 10
259.7770714246493
 20
354.7979666581861
 30
0.0
 11
259.7770714246493
 21
363.011746678531
 31
0.0
  0
LINE
  5
9F
330
4F
100
AcDbEntity
  8
11
  6
Continuous
 62
     7
100
AcDbLine
 10
261.5770714246493
 20
354.8133728560379
 30
0.0
 11
261.5770714246493
 21
362.996340480678
 31
0.0
  0
LINE
  5
A0
330
4F
100
AcDbEntity
  8
11
  6
Continuous
 62
     7
100
AcDbLine
 10
259.6495074964782
 20
353.150383569786
 30
0.0
 11
259.2727762692583
 21
354.107695266942
 31
0.0
  0
LINE
  5
A1
330
4F
100
AcDbEntity
  8
11
  6
Continuous
 62
     7
100
AcDbLine
 10
259.6495074964782
 20
364.650383569786
 30
0.0
 11
259.2785227421863
 21
363.7076742346141
 31
0.0
  0
LINE
  5
A2
330
4F
100
AcDbEntity
  8
1
  6
Continuous
 62
     7
100
AcDbLine
 10
257.4137292659333
 20
361.06992017782
 30
0.0
 11
259.7770714246493
 21
362.4343964093411
 31
0.0
  0
LINE
  5
A3
330
4F
100
AcDbEntity
  8
1
  6
Continuous
 62
     7
100
AcDbLine
 10
263.9137292659333
 20
361.060973980674
 30
0.0
 11
261.5770714246503
 21
362.410044014343
 31
0.0
  0
LINE
  5
A4
330
4F
100
AcDbEntity
  8
1
  6
Continuous
 62
     7
100
AcDbLine
 10
259.7770714246493
 20
355.3753169273761
 30
0.0
 11
257.3416708360103
 21
356.781396112812
 31
0.0
  0
LINE
  5
A5
330
4F
100
AcDbEntity
  8
1
  6
Continuous
 62
     7
100
AcDbLine
 10
263.9137292659333
 20
356.739793158897
 30
0.0
 11
261.5770714246493
 21
355.3907231252279
 31
0.0
  0
LINE
  5
A6
330
4F
100
AcDbEntity
  8
1
  6
Continuous
 62
     7
100
AcDbLine
 10
257.1637292659343
 20
357.163859663644
 30
0.0
 11
257.1637292659343
 21
360.636907475928
 31
0.0
  0
LINE
  5
A7
330
4F
100
AcDbEntity
  8
1
  6
Continuous
 62
     7
100
AcDbLine
 10
264.1637292659333
 20
360.627961278782
 30
0.0
 11
264.1637292659333
 21
357.172805860789
 31
0.0
  0
LINE
  5
A8
330
4F
100
AcDbEntity
  8
1
  6
Continuous
 62
     7
100
AcDbLine
 10
257.4137292659333
 20
361.06992017782
 30
0.0
 11
257.1637292659333
 21
361.502932879712
 31
0.0
  0
LINE
  5
A9
330
4F
100
AcDbEntity
  8
1
  6
Continuous
 62
     7
100
AcDbLine
 10
257.1637292659343
 20
360.636907475928
 30
0.0
 11
256.6637292659333
 21
360.6369074759271
 31
0.0
  0
LINE
  5
AA
330
4F
100
AcDbEntity
  8
1
  6
Continuous
 62
     7
100
AcDbLine
 10
260.1637292659333
 20
363.234983687281
 30
0.0
 11
257.1637292659333
 21
361.502932879712
 31
0.0
  0
LINE
  5
AB
330
4F
100
AcDbEntity
  8
1
  6
Continuous
 62
     7
100
AcDbLine
 10
256.6637292659333
 20
360.6369074759271
 30
0.0
 11
256.6637292659333
 21
357.172805860789
 31
0.0
  0
LINE
  5
AC
330
4F
100
AcDbEntity
  8
1
  6
Continuous
 62
     7
100
AcDbLine
 10
257.1637292659343
 20
356.306780457005
 30
0.0
 11
258.6637292659343
 21
355.440755053221
 31
0.0
  0
LINE
  5
AD
330
4F
100
AcDbEntity
  8
1
  6
Continuous
 62
     7
100
AcDbLine
 10
262.6637292659333
 20
362.368958283496
 30
0.0
 11
261.1637292659333
 21
363.234983687281
 31
0.0
  0
LINE
  5
AE
330
4F
100
AcDbEntity
  8
1
  6
Continuous
 62
     7
100
AcDbLine
 10
258.6637292659343
 20
355.440755053221
 30
0.0
 11
260.1637292659333
 21
354.574729649436
 31
0.0
  0
LINE
  5
AF
330
4F
100
AcDbEntity
  8
1
  6
Continuous
 62
     7
100
AcDbLine
 10
264.1637292659333
 20
361.502932879712
 30
0.0
 11
262.6637292659333
 21
362.368958283496
 31
0.0
  0
LINE
  5
B0
330
4F
100
AcDbEntity
  8
1
  6
Continuous
 62
     7
100
AcDbLine
 10
264.6637292659333
 20
357.172805860789
 30
0.0
 11
264.6637292659333
 21
360.636907475928
 31
0.0
  0
LINE
  5
B1
330
4F
100
AcDbEntity
  8
1
  6
Continuous
 62
     7
100
AcDbLine
 10
264.6637292659333
 20
357.172805860789
 30
0.0
 11
264.1637292659333
 21
357.172805860789
 31
0.0
  0
LINE
  5
B2
330
4F
100
AcDbEntity
  8
1
  6
Continuous
 62
     7
100
AcDbLine
 10
261.1637292659333
 20
354.574729649436
 30
0.0
 11
264.1637292659333
 21
356.306780457005
 31
0.0
  0
LINE
  5
B3
330
4F
100
AcDbEntity
  8
1
  6
Continuous
 62
     7
100
AcDbLine
 10
264.1637292659333
 20
356.306780457005
 30
0.0
 11
263.9137292659333
 21
356.739793158897
 31
0.0
  0
LINE
  5
B4
330
4F
100
AcDbEntity
  8
1
  6
Continuous
 62
     7
100
AcDbLine
 10
257.4137292659333
 20
356.730846961752
 30
0.0
 11
257.1637292659333
 21
356.29783425986
 31
0.0
  0
LINE
  5
B5
330
4F
100
AcDbEntity
  8
1
  6
Continuous
 62
     7
100
AcDbLine
 10
257.1637292659343
 20
357.163859663644
 30
0.0
 11
256.6637292659333
 21
357.163859663644
 31
0.0
  0
LINE
  5
B6
330
4F
100
AcDbEntity
  8
1
  6
Continuous
 62
     7
100
AcDbLine
 10
264.6637292659333
 20
360.627961278782
 30
0.0
 11
264.1637292659333
 21
360.627961278782
 31
0.0
  0
LINE
  5
B7
330
4F
100
AcDbEntity
  8
1
  6
Continuous
 62
     7
100
AcDbLine
 10
264.1637292659333
 20
361.4939866825661
 30
0.0
 11
263.9137292659333
 21
361.060973980674
 31
0.0
  0
LINE
  5
B8
330
4F
100
AcDbEntity
  8
11
  6
Continuous
 62
     7
100
AcDbLine
 10
259.6495074964782
 20
364.650383569786
 30
0.0
 11
263.6201754096053
 21
363.087805153336
 31
0.0
  0
LINE
  5
B9
330
4F
100
AcDbEntity
  8
11
  6
Continuous
 62
     7
100
AcDbLine
 10
259.6495074964782
 20
353.150383569786
 30
0.0
 11
263.6201754096053
 21
354.712961986236
 31
0.0
  0
LINE
  5
BA
330
4F
100
AcDbEntity
  8
11
  6
Continuous
 62
     7
100
AcDbLine
 10
259.6495074964782
 20
353.150383569786
 30
0.0
 11
257.6800105781792
 21
351.6562014564
 31
0.0
  0
LINE
  5
BB
330
4F
100
AcDbEntity
  8
11
  6
Continuous
 62
     7
100
AcDbLine
 10
259.6495074964782
 20
364.650383569786
 30
0.0
 11
257.6800105781792
 21
366.144565683172
 31
0.0
  0
LINE
  5
BC
330
4F
100
AcDbEntity
  8
11
  6
Continuous
 62
     7
100
AcDbLine
 10
259.1714848218003
 20
353.666377370992
 30
0.0
 11
257.2569254832463
 21
352.213874301755
 31
0.0
  0
LINE
  5
BD
330
4F
100
AcDbEntity
  8
11
  6
Continuous
 62
     7
100
AcDbLine
 10
259.1714848218003
 20
364.13438976858
 30
0.0
 11
257.2569254832463
 21
365.586892837817
 31
0.0
  0
LINE
  5
BE
330
4F
100
AcDbEntity
  8
11
  6
Continuous
 62
     7
100
AcDbLine
 10
258.6722978408463
 20
365.391755224093
 30
0.0
 11
258.2492127459133
 21
364.834082378739
 31
0.0
  0
LINE
  5
BF
330
4F
100
AcDbEntity
  8
11
  6
Continuous
 62
     7
100
AcDbLine
 10
258.6722978408463
 20
352.409011915479
 30
0.0
 11
258.2492127459133
 21
352.966684760833
 31
0.0
  0
LINE
  5
C0
330
4F
100
AcDbEntity
  8
1
  6
Continuous
 62
     7
100
AcDbLine
 10
253.3992819430393
 20
365.250383569786
 30
0.0
 11
253.3992819430393
 21
352.5503835697861
 31
0.0
  0
LINE
  5
C1
330
4F
100
AcDbEntity
  8
1
  6
Continuous
 62
     7
100
AcDbLine
 10
253.9077421555303
 20
365.250383569786
 30
0.0
 11
253.9077421555303
 21
352.5503835697861
 31
0.0
  0
LINE
  5
C2
330
4F
100
AcDbEntity
  8
1
  6
Continuous
 62
     7
100
AcDbLine
 10
257.3556865387072
 20
365.250383569786
 30
0.0
 11
257.3556865387072
 21
352.5503835697861
 31
0.0
  0
LINE
  5
C3
330
4F
100
AcDbEntity
  8
2
  6
PHANTOM
 62
     4
100
AcDbLine
 10
269.1241545667473
 20
358.900383569786
 30
0.0
 11
178.3795423165884
 21
358.900383569786
 31
0.0
  0
ARC
  5
C4
330
4F
100
AcDbEntity
  8
11
  6
Continuous
 62
     7
100
AcDbCircle
 10
256.6222978408463
 20
353.0503835697861
 30
0.0
 40
1.750000000000137
100
AcDbArc
 50
196.6015495990189
 51
307.1862021366753
  0
ARC
  5
C5
330
4F
100
AcDbEntity
  8
11
  6
Continuous
 62
     7
100
AcDbCircle
 10
256.6222978408463
 20
353.0503835697861
 30
0.0
 40
1.049999999999994
100
AcDbArc
 50
208.4368901488556
 51
307.1862021367054
  0
ARC
  5
C6
330
4F
100
AcDbEntity
  8
11
  6
Continuous
 62
     7
100
AcDbCircle
 10
256.6222978408463
 20
364.750383569786
 30
0.0
 40
1.75000000000051
100
AcDbArc
 50
52.81379786332361
 51
163.3984504009811
  0
ARC
  5
C7
330
4F
100
AcDbEntity
  8
11
  6
Continuous
 62
     7
100
AcDbCircle
 10
256.6222978408463
 20
364.750383569786
 30
0.0
 40
1.049999999999993
100
AcDbArc
 50
52.81379786329274
 51
151.5631098511444
  0
ARC
  5
C8
330
4F
100
AcDbEntity
  8
1
  6
Continuous
 62
     7
100
AcDbCircle
 10
257.6637292659333
 20
360.6369074759271
 30
0.0
 40
0.5000000000005825
100
AcDbArc
 50
119.9999999999615
 51
179.9999999998958
  0
ARC
  5
C9
330
4F
100
AcDbEntity
  8
1
  6
Continuous
 62
     7
100
AcDbCircle
 10
257.6637292659333
 20
360.6369074759271
 30
0.0
 40
1.000000000000377
100
AcDbArc
 50
119.9999999999875
 51
180.0
  0
ARC
  5
CA
330
4F
100
AcDbEntity
  8
1
  6
Continuous
 62
     7
100
AcDbCircle
 10
257.6637292659333
 20
357.172805860789
 30
0.0
 40
1.0
100
AcDbArc
 50
180.0
 51
240.0000000000388
  0
ARC
  5
CB
330
4F
100
AcDbEntity
  8
1
  6
Continuous
 62
     7
100
AcDbCircle
 10
260.6637292659333
 20
362.368958283496
 30
0.0
 40
1.000000000000476
100
AcDbArc
 50
60.00000000001575
 51
119.9999999999843
  0
ARC
  5
CC
330
4F
100
AcDbEntity
  8
1
  6
Continuous
 62
     7
100
AcDbCircle
 10
263.6637292659333
 20
357.172805860789
 30
0.0
 40
0.4999999999998441
100
AcDbArc
 50
300.0000000000103
 51
0.0
  0
ARC
  5
CD
330
4F
100
AcDbEntity
  8
1
  6
Continuous
 62
     7
100
AcDbCircle
 10
263.6637292659333
 20
360.636907475928
 30
0.0
 40
1.0
100
AcDbArc
 50
0.0
 51
59.99999999998644
  0
ARC
  5
CE
330
4F
100
AcDbEntity
  8
1
  6
Continuous
 62
     7
100
AcDbCircle
 10
260.6637292659333
 20
355.440755053221
 30
0.0
 40
1.000000000000476
100
AcDbArc
 50
240.0000000000157
 51
299.9999999999842
  0
ARC
  5
CF
330
4F
100
AcDbEntity
  8
1
  6
Continuous
 62
     7
100
AcDbCircle
 10
263.6637292659333
 20
357.172805860789
 30
0.0
 40
0.999999999999639
100
AcDbArc
 50
300.0000000000119
 51
0.0
  0
ARC
  5
D0
330
4F
100
AcDbEntity
  8
1
  6
Continuous
 62
     7
100
AcDbCircle
 10
257.6637292659333
 20
357.163859663644
 30
0.0
 40
0.4999999999989768
100
AcDbArc
 50
180.0
 51
239.9999999999896
  0
ARC
  5
D1
330
4F
100
AcDbEntity
  8
1
  6
Continuous
 62
     7
100
AcDbCircle
 10
257.6637292659333
 20
357.163859663644
 30
0.0
 40
1.0
100
AcDbArc
 50
180.0
 51
239.999999999988
  0
ARC
  5
D2
330
4F
100
AcDbEntity
  8
1
  6
Continuous
 62
     7
100
AcDbCircle
 10
263.6637292659333
 20
360.627961278782
 30
0.0
 40
0.5
100
AcDbArc
 50
0.0
 51
59.9999999999897
  0
ARC
  5
D3
330
4F
100
AcDbEntity
  8
1
  6
Continuous
 62
     7
100
AcDbCircle
 10
263.6637292659333
 20
360.627961278782
 30
0.0
 40
1.0
100
AcDbArc
 50
0.0
 51
59.99999999999132
  0
ARC
  5
D4
330
4F
100
AcDbEntity
  8
11
  6
Continuous
 62
     7
100
AcDbCircle
 10
259.8967735559713
 20
365.0904003606159
 30
0.0
 40
1.200000000000119
100
AcDbArc
 50
232.8137978633206
 51
245.2245128544389
  0
ARC
  5
D5
330
4F
100
AcDbEntity
  8
11
  6
Continuous
 62
     7
100
AcDbCircle
 10
261.9722978408463
 20
358.900383569786
 30
0.0
 40
4.499999999999954
100
AcDbArc
 50
291.4811445019639
 51
68.51885549803579
  0
ARC
  5
D6
330
4F
100
AcDbEntity
  8
11
  6
Continuous
 62
     7
100
AcDbCircle
 10
259.8967735559713
 20
352.7103667789559
 30
0.0
 40
1.199999999999718
100
AcDbArc
 50
114.775487145517
 51
127.1862021366744
  0
CIRCLE
  5
D7
330
4F
100
AcDbEntity
  8
11
  6
Continuous
 62
     7
100
AcDbCircle
 10
260.6756823614973
 20
358.906846701973
 30
0.0
 40
5.0
  0
ENDBLK
  5
51
330
4F
100
AcDbEntity
  8
0
100
AcDbBlockEnd
  0
BLOCK
  5
53
330
52
100
AcDbEntity
  8
0
100
AcDbBlockBegin
  2
H642-1
 70
     0
 10
49.40077344262204
 20
218.1201683863345
 30
0.0
  3
H642-1
  1

  0
LINE
  5
D8
330
52
100
AcDbEntity
  8
0
  6
Continuous
 62
     7
100
AcDbLine
 10
192.8507734426221
 20
260.980383569786
 30
0.0
 11
192.525773442622
 21
260.980383569786
 31
0.0
  0
LINE
  5
D9
330
52
100
AcDbEntity
  8
0
  6
Continuous
 62
     7
100
AcDbLine
 10
193.3507734426221
 20
261.480383569786
 30
0.0
 11
193.3507734426221
 21
266.0203835697859
 31
0.0
  0
LINE
  5
DA
330
52
100
AcDbEntity
  8
0
  6
Continuous
 62
     7
100
AcDbLine
 10
193.3507734426221
 20
261.480383569786
 30
0.0
 11
193.3507734426221
 21
266.0203835697859
 31
0.0
  0
LINE
  5
DB
330
52
100
AcDbEntity
  8
0
  6
Continuous
 62
     7
100
AcDbLine
 10
192.8507734426221
 20
266.5203835697859
 30
0.0
 11
192.525773442622
 21
266.5203835697859
 31
0.0
  0
LINE
  5
DC
330
52
100
AcDbEntity
  8
0
  6
Continuous
 62
     7
100
AcDbLine
 10
192.8507734426221
 20
266.5203835697859
 30
0.0
 11
220.900773442622
 21
269.7703835697859
 31
0.0
  0
LINE
  5
DD
330
52
100
AcDbEntity
  8
0
  6
Continuous
 62
     7
100
AcDbLine
 10
192.8507734426221
 20
260.980383569786
 30
0.0
 11
220.900773442622
 21
264.230383569786
 31
0.0
  0
LINE
  5
DE
330
52
100
AcDbEntity
  8
0
  6
Continuous
 62
     7
100
AcDbLine
 10
192.8507734426221
 20
253.5203835697859
 30
0.0
 11
220.900773442622
 21
256.7703835697859
 31
0.0
  0
LINE
  5
DF
330
52
100
AcDbEntity
  8
1
  6
Continuous
 62
     7
100
AcDbLine
 10
220.900773442622
 20
269.7703835697859
 30
0.0
 11
248.9507734426221
 21
273.0203835697859
 31
0.0
  0
LINE
  5
E0
330
52
100
AcDbEntity
  8
1
  6
Continuous
 62
     7
100
AcDbLine
 10
220.900773442622
 20
264.230383569786
 30
0.0
 11
248.9507734426221
 21
267.480383569786
 31
0.0
  0
LINE
  5
E1
330
52
100
AcDbEntity
  8
1
  6
Continuous
 62
     7
100
AcDbLine
 10
220.900773442622
 20
256.7703835697859
 30
0.0
 11
248.9507734426221
 21
260.0203835697859
 31
0.0
  0
LINE
  5
E2
330
52
100
AcDbEntity
  8
1
  6
Continuous
 62
     7
100
AcDbLine
 10
220.900773442622
 20
256.7703835697859
 30
0.0
 11
248.9507734426221
 21
260.0203835697859
 31
0.0
  0
LINE
  5
E3
330
52
100
AcDbEntity
  8
0
  6
Continuous
 62
     7
100
AcDbLine
 10
248.4507734426221
 20
257.4311972032571
 30
0.0
 11
248.4507734426221
 21
254.980383569786
 31
0.0
  0
LINE
  5
E4
330
52
100
AcDbEntity
  8
0
  6
Continuous
 62
     7
100
AcDbLine
 10
248.4507734426221
 20
259.5203835697859
 30
0.0
 11
248.4507734426221
 21
254.980383569786
 31
0.0
  0
LINE
  5
E5
330
52
100
AcDbEntity
  8
0
  6
Continuous
 62
     7
100
AcDbLine
 10
249.275773442622
 20
254.480383569786
 30
0.0
 11
248.9507734426221
 21
254.480383569786
 31
0.0
  0
LINE
  5
E6
330
52
100
AcDbEntity
  8
0
  6
Continuous
 62
     7
100
AcDbLine
 10
248.4507734426221
 20
246.5203835697859
 30
0.0
 11
248.4507734426221
 21
241.980383569786
 31
0.0
  0
LINE
  5
E7
330
52
100
AcDbEntity
  8
0
  6
Continuous
 62
     7
100
AcDbLine
 10
249.275773442622
 20
247.0203835697859
 30
0.0
 11
248.9507734426221
 21
247.0203835697859
 31
0.0
  0
LINE
  5
E8
330
52
100
AcDbEntity
  8
0
  6
Continuous
 62
     7
100
AcDbLine
 10
192.8507734426221
 20
240.5203835697859
 30
0.0
 11
220.900773442622
 21
243.7703835697859
 31
0.0
  0
LINE
  5
E9
330
52
100
AcDbEntity
  8
1
  6
Continuous
 62
     7
100
AcDbLine
 10
220.900773442622
 20
243.7703835697859
 30
0.0
 11
248.9507734426221
 21
247.0203835697859
 31
0.0
  0
LINE
  5
EA
330
52
100
AcDbEntity
  8
0
  6
Continuous
 62
     7
100
AcDbLine
 10
192.8507734426221
 20
247.980383569786
 30
0.0
 11
220.900773442622
 21
251.230383569786
 31
0.0
  0
LINE
  5
EB
330
52
100
AcDbEntity
  8
1
  6
Continuous
 62
     7
100
AcDbLine
 10
220.900773442622
 20
251.230383569786
 30
0.0
 11
248.9507734426221
 21
254.480383569786
 31
0.0
  0
LINE
  5
EC
330
52
100
AcDbEntity
  8
0
  6
Continuous
 62
     7
100
AcDbLine
 10
248.4507734426221
 20
244.431197203257
 30
0.0
 11
248.4507734426221
 21
241.980383569786
 31
0.0
  0
LINE
  5
ED
330
52
100
AcDbEntity
  8
0
  6
Continuous
 62
     7
100
AcDbLine
 10
185.197023442622
 20
149.950383569786
 30
0.0
 11
185.400773442622
 21
166.2503835697861
 31
0.0
  0
LINE
  5
EE
330
52
100
AcDbEntity
  8
0
  6
Continuous
 62
     7
100
AcDbLine
 10
256.7788107801854
 20
136.0073965647222
 30
0.0
 11
256.9007734426222
 21
126.250383569786
 31
0.0
  0
LINE
  5
EF
330
52
100
AcDbEntity
  8
0
  6
Continuous
 62
     7
100
AcDbLine
 10
256.9007734426222
 20
376.250383569786
 30
0.0
 11
184.900773442622
 21
376.250383569786
 31
0.0
  0
LINE
  5
F0
330
52
100
AcDbEntity
  8
0
  6
Continuous
 62
     7
100
AcDbLine
 10
256.5889024260339
 20
351.3007022427236
 30
0.0
 11
256.4007734426222
 21
336.250383569786
 31
0.0
  0
LINE
  5
F1
330
52
100
AcDbEntity
  8
0
  6
Continuous
 62
     7
100
AcDbLine
 10
185.038273442622
 20
365.250383569786
 30
0.0
 11
184.900773442622
 21
376.250383569786
 31
0.0
  0
LINE
  5
F2
330
52
100
AcDbEntity
  8
0
  6
Continuous
 62
     7
100
AcDbLine
 10
220.900773442622
 20
172.1786111723435
 30
0.0
 11
185.7252357034026
 21
169.0067929647783
 31
0.0
  0
LINE
  5
F3
330
52
100
AcDbEntity
  8
0
  6
Continuous
 62
     7
100
AcDbLine
 10
220.900773442622
 20
167.3669508519175
 30
0.0
 11
185.400773442622
 21
166.2503835697861
 31
0.0
  0
LINE
  5
F4
330
52
100
AcDbEntity
  8
0
  6
Continuous
 62
     7
100
AcDbLine
 10
184.900773442622
 20
126.250383569786
 30
0.0
 11
185.038273442622
 21
137.250383569786
 31
0.0
  0
LINE
  5
F5
330
52
100
AcDbEntity
  8
0
  6
Continuous
 62
     7
100
AcDbLine
 10
220.900773442622
 20
334.1062137299986
 30
0.0
 11
185.9851535433986
 21
332.5717580327193
 31
0.0
  0
LINE
  5
F6
330
52
100
AcDbEntity
  8
0
  6
Continuous
 62
     7
100
AcDbLine
 10
187.5825457737645
 20
329.3920023099427
 30
0.0
 11
220.900773442622
 21
332.0947761267225
 31
0.0
  0
LINE
  5
F7
330
52
100
AcDbEntity
  8
0
  6
Continuous
 62
     7
100
AcDbLine
 10
190.5149067794347
 20
324.6479813539169
 30
0.0
 11
220.900773442622
 21
327.361176427455
 31
0.0
  0
LINE
  5
F8
330
52
100
AcDbEntity
  8
0
  6
Continuous
 62
     7
100
AcDbLine
 10
188.9537235280648
 20
175.0688537222883
 30
0.0
 11
220.900773442622
 21
178.770383569786
 31
0.0
  0
LINE
  5
F9
330
52
100
AcDbEntity
  8
0
  6
Continuous
 62
     7
100
AcDbLine
 10
192.8507734426221
 20
188.520383569786
 30
0.0
 11
220.900773442622
 21
191.770383569786
 31
0.0
  0
LINE
  5
FA
330
52
100
AcDbEntity
  8
0
  6
Continuous
 62
     7
100
AcDbLine
 10
192.8507734426221
 20
201.520383569786
 30
0.0
 11
220.900773442622
 21
204.770383569786
 31
0.0
  0
LINE
  5
FB
330
52
100
AcDbEntity
  8
0
  6
Continuous
 62
     7
100
AcDbLine
 10
192.8507734426221
 20
214.520383569786
 30
0.0
 11
220.900773442622
 21
217.770383569786
 31
0.0
  0
LINE
  5
FC
330
52
100
AcDbEntity
  8
0
  6
Continuous
 62
     7
100
AcDbLine
 10
192.8507734426221
 20
227.5203835697859
 30
0.0
 11
220.900773442622
 21
230.7703835697859
 31
0.0
  0
LINE
  5
FD
330
52
100
AcDbEntity
  8
0
  6
Continuous
 62
     7
100
AcDbLine
 10
192.8507734426221
 20
279.5203835697859
 30
0.0
 11
220.900773442622
 21
282.7703835697859
 31
0.0
  0
LINE
  5
FE
330
52
100
AcDbEntity
  8
0
  6
Continuous
 62
     7
100
AcDbLine
 10
192.8507734426221
 20
182.980383569786
 30
0.0
 11
220.900773442622
 21
186.230383569786
 31
0.0
  0
LINE
  5
FF
330
52
100
AcDbEntity
  8
0
  6
Continuous
 62
     7
100
AcDbLine
 10
192.8507734426221
 20
195.980383569786
 30
0.0
 11
220.900773442622
 21
199.230383569786
 31
0.0
  0
LINE
  5
100
330
52
100
AcDbEntity
  8
0
  6
Continuous
 62
     7
100
AcDbLine
 10
192.8507734426221
 20
208.980383569786
 30
0.0
 11
220.900773442622
 21
212.230383569786
 31
0.0
  0
LINE
  5
101
330
52
100
AcDbEntity
  8
0
  6
Continuous
 62
     7
100
AcDbLine
 10
192.8507734426221
 20
221.980383569786
 30
0.0
 11
220.900773442622
 21
225.230383569786
 31
0.0
  0
LINE
  5
102
330
52
100
AcDbEntity
  8
0
  6
Continuous
 62
     7
100
AcDbLine
 10
192.8507734426221
 20
234.980383569786
 30
0.0
 11
220.900773442622
 21
238.230383569786
 31
0.0
  0
LINE
  5
103
330
52
100
AcDbEntity
  8
0
  6
Continuous
 62
     7
100
AcDbLine
 10
192.8507734426221
 20
273.980383569786
 30
0.0
 11
220.900773442622
 21
277.230383569786
 31
0.0
  0
LINE
  5
104
330
52
100
AcDbEntity
  8
0
  6
Continuous
 62
     7
100
AcDbLine
 10
192.8507734426221
 20
286.980383569786
 30
0.0
 11
220.900773442622
 21
290.230383569786
 31
0.0
  0
LINE
  5
105
330
52
100
AcDbEntity
  8
0
  6
Continuous
 62
     7
100
AcDbLine
 10
192.8507734426221
 20
312.980383569786
 30
0.0
 11
220.900773442622
 21
316.230383569786
 31
0.0
  0
LINE
  5
106
330
52
100
AcDbEntity
  8
0
  6
Continuous
 62
     7
100
AcDbLine
 10
220.900773442622
 20
321.7891031089973
 30
0.0
 11
192.525773442622
 21
318.5203835697859
 31
0.0
  0
LINE
  5
107
330
52
100
AcDbEntity
  8
0
  6
Continuous
 62
     7
100
AcDbLine
 10
220.900773442622
 20
308.7891031089973
 30
0.0
 11
192.525773442622
 21
305.5203835697859
 31
0.0
  0
LINE
  5
108
330
52
100
AcDbEntity
  8
0
  6
Continuous
 62
     7
100
AcDbLine
 10
192.8507734426221
 20
292.5203835697859
 30
0.0
 11
220.900773442622
 21
295.7703835697859
 31
0.0
  0
LINE
  5
109
330
52
100
AcDbEntity
  8
0
  6
Continuous
 62
     7
100
AcDbLine
 10
192.8507734426221
 20
299.980383569786
 30
0.0
 11
220.900773442622
 21
303.230383569786
 31
0.0
  0
LINE
  5
10A
330
52
100
AcDbEntity
  8
0
  6
Continuous
 62
     7
100
AcDbLine
 10
193.3507734426221
 20
183.480383569786
 30
0.0
 11
193.3507734426221
 21
188.020383569786
 31
0.0
  0
LINE
  5
10B
330
52
100
AcDbEntity
  8
0
  6
Continuous
 62
     7
100
AcDbLine
 10
193.3507734426221
 20
196.480383569786
 30
0.0
 11
193.3507734426221
 21
201.020383569786
 31
0.0
  0
LINE
  5
10C
330
52
100
AcDbEntity
  8
0
  6
Continuous
 62
     7
100
AcDbLine
 10
193.3507734426221
 20
209.480383569786
 30
0.0
 11
193.3507734426221
 21
214.020383569786
 31
0.0
  0
LINE
  5
10D
330
52
100
AcDbEntity
  8
0
  6
Continuous
 62
     7
100
AcDbLine
 10
193.3507734426221
 20
222.480383569786
 30
0.0
 11
193.3507734426221
 21
227.0203835697859
 31
0.0
  0
LINE
  5
10E
330
52
100
AcDbEntity
  8
0
  6
Continuous
 62
     7
100
AcDbLine
 10
193.3507734426221
 20
235.480383569786
 30
0.0
 11
193.3507734426221
 21
240.0203835697859
 31
0.0
  0
LINE
  5
10F
330
52
100
AcDbEntity
  8
0
  6
Continuous
 62
     7
100
AcDbLine
 10
193.3507734426221
 20
248.480383569786
 30
0.0
 11
193.3507734426221
 21
253.0203835697859
 31
0.0
  0
LINE
  5
110
330
52
100
AcDbEntity
  8
0
  6
Continuous
 62
     7
100
AcDbLine
 10
193.3507734426221
 20
274.480383569786
 30
0.0
 11
193.3507734426221
 21
279.0203835697859
 31
0.0
  0
LINE
  5
111
330
52
100
AcDbEntity
  8
0
  6
Continuous
 62
     7
100
AcDbLine
 10
193.3507734426221
 20
287.480383569786
 30
0.0
 11
193.3507734426221
 21
292.0203835697859
 31
0.0
  0
LINE
  5
112
330
52
100
AcDbEntity
  8
0
  6
Continuous
 62
     7
100
AcDbLine
 10
192.8507734426221
 20
182.980383569786
 30
0.0
 11
192.525773442622
 21
182.980383569786
 31
0.0
  0
LINE
  5
113
330
52
100
AcDbEntity
  8
0
  6
Continuous
 62
     7
100
AcDbLine
 10
192.8507734426221
 20
188.520383569786
 30
0.0
 11
192.525773442622
 21
188.520383569786
 31
0.0
  0
LINE
  5
114
330
52
100
AcDbEntity
  8
0
  6
Continuous
 62
     7
100
AcDbLine
 10
192.8507734426221
 20
195.980383569786
 30
0.0
 11
192.525773442622
 21
195.980383569786
 31
0.0
  0
LINE
  5
115
330
52
100
AcDbEntity
  8
0
  6
Continuous
 62
     7
100
AcDbLine
 10
192.8507734426221
 20
201.520383569786
 30
0.0
 11
192.525773442622
 21
201.520383569786
 31
0.0
  0
LINE
  5
116
330
52
100
AcDbEntity
  8
0
  6
Continuous
 62
     7
100
AcDbLine
 10
192.8507734426221
 20
208.980383569786
 30
0.0
 11
192.525773442622
 21
208.980383569786
 31
0.0
  0
LINE
  5
117
330
52
100
AcDbEntity
  8
0
  6
Continuous
 62
     7
100
AcDbLine
 10
192.8507734426221
 20
214.520383569786
 30
0.0
 11
192.525773442622
 21
214.520383569786
 31
0.0
  0
LINE
  5
118
330
52
100
AcDbEntity
  8
0
  6
Continuous
 62
     7
100
AcDbLine
 10
192.8507734426221
 20
221.980383569786
 30
0.0
 11
192.525773442622
 21
221.980383569786
 31
0.0
  0
LINE
  5
119
330
52
100
AcDbEntity
  8
0
  6
Continuous
 62
     7
100
AcDbLine
 10
192.8507734426221
 20
227.5203835697859
 30
0.0
 11
192.525773442622
 21
227.5203835697859
 31
0.0
  0
LINE
  5
11A
330
52
100
AcDbEntity
  8
0
  6
Continuous
 62
     7
100
AcDbLine
 10
192.8507734426221
 20
234.980383569786
 30
0.0
 11
192.525773442622
 21
234.980383569786
 31
0.0
  0
LINE
  5
11B
330
52
100
AcDbEntity
  8
0
  6
Continuous
 62
     7
100
AcDbLine
 10
192.8507734426221
 20
240.5203835697859
 30
0.0
 11
192.525773442622
 21
240.5203835697859
 31
0.0
  0
LINE
  5
11C
330
52
100
AcDbEntity
  8
0
  6
Continuous
 62
     7
100
AcDbLine
 10
192.8507734426221
 20
247.980383569786
 30
0.0
 11
192.525773442622
 21
247.980383569786
 31
0.0
  0
LINE
  5
11D
330
52
100
AcDbEntity
  8
0
  6
Continuous
 62
     7
100
AcDbLine
 10
192.8507734426221
 20
253.5203835697859
 30
0.0
 11
192.525773442622
 21
253.5203835697859
 31
0.0
  0
LINE
  5
11E
330
52
100
AcDbEntity
  8
0
  6
Continuous
 62
     7
100
AcDbLine
 10
192.8507734426221
 20
273.980383569786
 30
0.0
 11
192.525773442622
 21
273.980383569786
 31
0.0
  0
LINE
  5
11F
330
52
100
AcDbEntity
  8
0
  6
Continuous
 62
     7
100
AcDbLine
 10
192.8507734426221
 20
279.5203835697859
 30
0.0
 11
192.525773442622
 21
279.5203835697859
 31
0.0
  0
LINE
  5
120
330
52
100
AcDbEntity
  8
0
  6
Continuous
 62
     7
100
AcDbLine
 10
192.8507734426221
 20
286.980383569786
 30
0.0
 11
192.525773442622
 21
286.980383569786
 31
0.0
  0
LINE
  5
121
330
52
100
AcDbEntity
  8
0
  6
Continuous
 62
     7
100
AcDbLine
 10
192.8507734426221
 20
292.5203835697859
 30
0.0
 11
192.525773442622
 21
292.5203835697859
 31
0.0
  0
LINE
  5
122
330
52
100
AcDbEntity
  8
0
  6
Continuous
 62
     7
100
AcDbLine
 10
193.3507734426221
 20
300.480383569786
 30
0.0
 11
193.3507734426221
 21
305.0203835697859
 31
0.0
  0
LINE
  5
123
330
52
100
AcDbEntity
  8
0
  6
Continuous
 62
     7
100
AcDbLine
 10
192.8507734426221
 20
299.980383569786
 30
0.0
 11
192.525773442622
 21
299.980383569786
 31
0.0
  0
LINE
  5
124
330
52
100
AcDbEntity
  8
0
  6
Continuous
 62
     7
100
AcDbLine
 10
192.8507734426221
 20
305.5203835697859
 30
0.0
 11
192.525773442622
 21
305.5203835697859
 31
0.0
  0
LINE
  5
125
330
52
100
AcDbEntity
  8
0
  6
Continuous
 62
     7
100
AcDbLine
 10
193.3507734426221
 20
313.480383569786
 30
0.0
 11
193.3507734426221
 21
318.0203835697859
 31
0.0
  0
LINE
  5
126
330
52
100
AcDbEntity
  8
0
  6
Continuous
 62
     7
100
AcDbLine
 10
192.8507734426221
 20
312.980383569786
 30
0.0
 11
192.525773442622
 21
312.980383569786
 31
0.0
  0
LINE
  5
127
330
52
100
AcDbEntity
  8
0
  6
Continuous
 62
     7
100
AcDbLine
 10
192.8507734426221
 20
318.5203835697859
 30
0.0
 11
192.525773442622
 21
318.5203835697859
 31
0.0
  0
LINE
  5
128
330
52
100
AcDbEntity
  8
0
  6
Continuous
 62
     7
100
AcDbLine
 10
248.4507734426221
 20
194.520383569786
 30
0.0
 11
248.4507734426221
 21
189.980383569786
 31
0.0
  0
LINE
  5
129
330
52
100
AcDbEntity
  8
0
  6
Continuous
 62
     7
100
AcDbLine
 10
249.275773442622
 20
189.480383569786
 30
0.0
 11
248.9507734426221
 21
189.480383569786
 31
0.0
  0
LINE
  5
12A
330
52
100
AcDbEntity
  8
0
  6
Continuous
 62
     7
100
AcDbLine
 10
249.275773442622
 20
195.020383569786
 30
0.0
 11
248.9507734426221
 21
195.020383569786
 31
0.0
  0
LINE
  5
12B
330
52
100
AcDbEntity
  8
0
  6
Continuous
 62
     7
100
AcDbLine
 10
248.4507734426221
 20
207.520383569786
 30
0.0
 11
248.4507734426221
 21
202.980383569786
 31
0.0
  0
LINE
  5
12C
330
52
100
AcDbEntity
  8
0
  6
Continuous
 62
     7
100
AcDbLine
 10
249.275773442622
 20
202.480383569786
 30
0.0
 11
248.9507734426221
 21
202.480383569786
 31
0.0
  0
LINE
  5
12D
330
52
100
AcDbEntity
  8
0
  6
Continuous
 62
     7
100
AcDbLine
 10
249.275773442622
 20
208.020383569786
 30
0.0
 11
248.9507734426221
 21
208.020383569786
 31
0.0
  0
LINE
  5
12E
330
52
100
AcDbEntity
  8
0
  6
Continuous
 62
     7
100
AcDbLine
 10
248.4507734426221
 20
220.5203835697859
 30
0.0
 11
248.4507734426221
 21
215.980383569786
 31
0.0
  0
LINE
  5
12F
330
52
100
AcDbEntity
  8
0
  6
Continuous
 62
     7
100
AcDbLine
 10
249.275773442622
 20
215.480383569786
 30
0.0
 11
248.9507734426221
 21
215.480383569786
 31
0.0
  0
LINE
  5
130
330
52
100
AcDbEntity
  8
0
  6
Continuous
 62
     7
100
AcDbLine
 10
249.275773442622
 20
221.0203835697859
 30
0.0
 11
248.9507734426221
 21
221.0203835697859
 31
0.0
  0
LINE
  5
131
330
52
100
AcDbEntity
  8
0
  6
Continuous
 62
     7
100
AcDbLine
 10
248.4507734426221
 20
233.5203835697859
 30
0.0
 11
248.4507734426221
 21
228.980383569786
 31
0.0
  0
LINE
  5
132
330
52
100
AcDbEntity
  8
0
  6
Continuous
 62
     7
100
AcDbLine
 10
249.275773442622
 20
228.480383569786
 30
0.0
 11
248.9507734426221
 21
228.480383569786
 31
0.0
  0
LINE
  5
133
330
52
100
AcDbEntity
  8
0
  6
Continuous
 62
     7
100
AcDbLine
 10
249.275773442622
 20
234.0203835697859
 30
0.0
 11
248.9507734426221
 21
234.0203835697859
 31
0.0
  0
LINE
  5
134
330
52
100
AcDbEntity
  8
0
  6
Continuous
 62
     7
100
AcDbLine
 10
249.275773442622
 20
241.480383569786
 30
0.0
 11
248.9507734426221
 21
241.480383569786
 31
0.0
  0
LINE
  5
135
330
52
100
AcDbEntity
  8
0
  6
Continuous
 62
     7
100
AcDbLine
 10
248.4507734426221
 20
259.5203835697859
 30
0.0
 11
248.4507734426221
 21
254.980383569786
 31
0.0
  0
LINE
  5
136
330
52
100
AcDbEntity
  8
0
  6
Continuous
 62
     7
100
AcDbLine
 10
249.275773442622
 20
260.0203835697859
 30
0.0
 11
248.9507734426221
 21
260.0203835697859
 31
0.0
  0
LINE
  5
137
330
52
100
AcDbEntity
  8
0
  6
Continuous
 62
     7
100
AcDbLine
 10
248.4507734426221
 20
272.5203835697859
 30
0.0
 11
248.4507734426221
 21
267.980383569786
 31
0.0
  0
LINE
  5
138
330
52
100
AcDbEntity
  8
0
  6
Continuous
 62
     7
100
AcDbLine
 10
249.275773442622
 20
267.480383569786
 30
0.0
 11
248.9507734426221
 21
267.480383569786
 31
0.0
  0
LINE
  5
139
330
52
100
AcDbEntity
  8
0
  6
Continuous
 62
     7
100
AcDbLine
 10
249.275773442622
 20
273.0203835697859
 30
0.0
 11
248.9507734426221
 21
273.0203835697859
 31
0.0
  0
LINE
  5
13A
330
52
100
AcDbEntity
  8
0
  6
Continuous
 62
     7
100
AcDbLine
 10
248.4507734426221
 20
285.5203835697859
 30
0.0
 11
248.4507734426221
 21
280.980383569786
 31
0.0
  0
LINE
  5
13B
330
52
100
AcDbEntity
  8
0
  6
Continuous
 62
     7
100
AcDbLine
 10
249.275773442622
 20
280.480383569786
 30
0.0
 11
248.9507734426221
 21
280.480383569786
 31
0.0
  0
LINE
  5
13C
330
52
100
AcDbEntity
  8
0
  6
Continuous
 62
     7
100
AcDbLine
 10
249.275773442622
 20
286.0203835697859
 30
0.0
 11
248.9507734426221
 21
286.0203835697859
 31
0.0
  0
LINE
  5
13D
330
52
100
AcDbEntity
  8
0
  6
Continuous
 62
     7
100
AcDbLine
 10
248.4507734426221
 20
298.5203835697859
 30
0.0
 11
248.4507734426221
 21
293.980383569786
 31
0.0
  0
LINE
  5
13E
330
52
100
AcDbEntity
  8
0
  6
Continuous
 62
     7
100
AcDbLine
 10
249.275773442622
 20
293.480383569786
 30
0.0
 11
248.9507734426221
 21
293.480383569786
 31
0.0
  0
LINE
  5
13F
330
52
100
AcDbEntity
  8
0
  6
Continuous
 62
     7
100
AcDbLine
 10
249.275773442622
 20
299.0203835697859
 30
0.0
 11
248.9507734426221
 21
299.0203835697859
 31
0.0
  0
LINE
  5
140
330
52
100
AcDbEntity
  8
0
  6
Continuous
 62
     7
100
AcDbLine
 10
248.4507734426221
 20
311.5203835697859
 30
0.0
 11
248.4507734426221
 21
306.980383569786
 31
0.0
  0
LINE
  5
141
330
52
100
AcDbEntity
  8
0
  6
Continuous
 62
     7
100
AcDbLine
 10
249.275773442622
 20
306.480383569786
 30
0.0
 11
248.9507734426221
 21
306.480383569786
 31
0.0
  0
LINE
  5
142
330
52
100
AcDbEntity
  8
0
  6
Continuous
 62
     7
100
AcDbLine
 10
249.275773442622
 20
312.0203835697859
 30
0.0
 11
248.9507734426221
 21
312.0203835697859
 31
0.0
  0
LINE
  5
143
330
52
100
AcDbEntity
  8
0
  6
Continuous
 62
     7
100
AcDbLine
 10
256.4007734426222
 20
166.2503835697861
 30
0.0
 11
256.5889024260339
 21
151.2000648968482
 31
0.0
  0
LINE
  5
144
330
52
100
AcDbEntity
  8
0
  6
Continuous
 62
     7
100
AcDbLine
 10
185.400773442622
 20
336.250383569786
 30
0.0
 11
185.197023442622
 21
352.5503835697861
 31
0.0
  0
LINE
  5
145
330
52
100
AcDbEntity
  8
0
  6
Continuous
 62
     7
100
AcDbLine
 10
256.9007734426222
 20
376.250383569786
 30
0.0
 11
256.7788107801854
 21
366.4933705748495
 31
0.0
  0
LINE
  5
146
330
52
100
AcDbEntity
  8
0
  6
Continuous
 62
     7
100
AcDbLine
 10
256.9007734426222
 20
126.250383569786
 30
0.0
 11
184.900773442622
 21
126.250383569786
 31
0.0
  0
LINE
  5
147
330
52
100
AcDbEntity
  8
1
  6
Continuous
 62
     7
100
AcDbLine
 10
220.900773442622
 20
167.3669508519175
 30
0.0
 11
256.2736718711433
 21
168.4795204592258
 31
0.0
  0
LINE
  5
148
330
52
100
AcDbEntity
  8
1
  6
Continuous
 62
     7
100
AcDbLine
 10
254.2470307311397
 20
175.1854810830754
 30
0.0
 11
220.900773442622
 21
172.1786111723435
 31
0.0
  0
LINE
  5
149
330
52
100
AcDbEntity
  8
1
  6
Continuous
 62
     7
100
AcDbLine
 10
250.9949519339436
 20
182.2572313450728
 30
0.0
 11
220.900773442622
 21
178.770383569786
 31
0.0
  0
LINE
  5
14A
330
52
100
AcDbEntity
  8
1
  6
Continuous
 62
     7
100
AcDbLine
 10
220.900773442622
 20
186.230383569786
 30
0.0
 11
248.9507734426221
 21
189.480383569786
 31
0.0
  0
LINE
  5
14B
330
52
100
AcDbEntity
  8
1
  6
Continuous
 62
     7
100
AcDbLine
 10
220.900773442622
 20
191.770383569786
 30
0.0
 11
248.9507734426221
 21
195.020383569786
 31
0.0
  0
LINE
  5
14C
330
52
100
AcDbEntity
  8
1
  6
Continuous
 62
     7
100
AcDbLine
 10
220.900773442622
 20
199.230383569786
 30
0.0
 11
248.9507734426221
 21
202.480383569786
 31
0.0
  0
LINE
  5
14D
330
52
100
AcDbEntity
  8
1
  6
Continuous
 62
     7
100
AcDbLine
 10
220.900773442622
 20
204.770383569786
 30
0.0
 11
248.9507734426221
 21
208.020383569786
 31
0.0
  0
LINE
  5
14E
330
52
100
AcDbEntity
  8
1
  6
Continuous
 62
     7
100
AcDbLine
 10
220.900773442622
 20
212.230383569786
 30
0.0
 11
248.9507734426221
 21
215.480383569786
 31
0.0
  0
LINE
  5
14F
330
52
100
AcDbEntity
  8
1
  6
Continuous
 62
     7
100
AcDbLine
 10
220.900773442622
 20
217.770383569786
 30
0.0
 11
248.9507734426221
 21
221.0203835697859
 31
0.0
  0
LINE
  5
150
330
52
100
AcDbEntity
  8
1
  6
Continuous
 62
     7
100
AcDbLine
 10
220.900773442622
 20
225.230383569786
 30
0.0
 11
248.9507734426221
 21
228.480383569786
 31
0.0
  0
LINE
  5
151
330
52
100
AcDbEntity
  8
1
  6
Continuous
 62
     7
100
AcDbLine
 10
220.900773442622
 20
230.7703835697859
 30
0.0
 11
248.9507734426221
 21
234.0203835697859
 31
0.0
  0
LINE
  5
152
330
52
100
AcDbEntity
  8
1
  6
Continuous
 62
     7
100
AcDbLine
 10
220.900773442622
 20
238.230383569786
 30
0.0
 11
248.9507734426221
 21
241.480383569786
 31
0.0
  0
LINE
  5
153
330
52
100
AcDbEntity
  8
1
  6
Continuous
 62
     7
100
AcDbLine
 10
220.900773442622
 20
277.230383569786
 30
0.0
 11
248.9507734426221
 21
280.480383569786
 31
0.0
  0
LINE
  5
154
330
52
100
AcDbEntity
  8
1
  6
Continuous
 62
     7
100
AcDbLine
 10
220.900773442622
 20
282.7703835697859
 30
0.0
 11
248.9507734426221
 21
286.0203835697859
 31
0.0
  0
LINE
  5
155
330
52
100
AcDbEntity
  8
1
  6
Continuous
 62
     7
100
AcDbLine
 10
220.900773442622
 20
290.230383569786
 30
0.0
 11
248.9507734426221
 21
293.480383569786
 31
0.0
  0
LINE
  5
156
330
52
100
AcDbEntity
  8
1
  6
Continuous
 62
     7
100
AcDbLine
 10
220.900773442622
 20
295.7703835697859
 30
0.0
 11
248.9507734426221
 21
299.0203835697859
 31
0.0
  0
LINE
  5
157
330
52
100
AcDbEntity
  8
1
  6
Continuous
 62
     7
100
AcDbLine
 10
220.900773442622
 20
308.7891031089973
 30
0.0
 11
248.9507734426221
 21
312.0203835697859
 31
0.0
  0
LINE
  5
158
330
52
100
AcDbEntity
  8
1
  6
Continuous
 62
     7
100
AcDbLine
 10
220.900773442622
 20
316.230383569786
 30
0.0
 11
251.1508541755077
 21
319.7352948846479
 31
0.0
  0
LINE
  5
159
330
52
100
AcDbEntity
  8
1
  6
Continuous
 62
     7
100
AcDbLine
 10
220.900773442622
 20
321.7891031089973
 30
0.0
 11
253.2132024608274
 21
325.5329674337448
 31
0.0
  0
LINE
  5
15A
330
52
100
AcDbEntity
  8
1
  6
Continuous
 62
     7
100
AcDbLine
 10
220.900773442622
 20
327.361176427455
 30
0.0
 11
255.7924820542808
 21
331.4038877639216
 31
0.0
  0
LINE
  5
15B
330
52
100
AcDbEntity
  8
1
  6
Continuous
 62
     7
100
AcDbLine
 10
220.900773442622
 20
332.0947761267225
 30
0.0
 11
256.359006550212
 21
334.9711471325563
 31
0.0
  0
LINE
  5
15C
330
52
100
AcDbEntity
  8
1
  6
Continuous
 62
     7
100
AcDbLine
 10
220.900773442622
 20
303.230383569786
 30
0.0
 11
248.9507734426221
 21
306.480383569786
 31
0.0
  0
LINE
  5
15D
330
52
100
AcDbEntity
  8
1
  6
Continuous
 62
     7
100
AcDbLine
 10
220.900773442622
 20
334.1062137299986
 30
0.0
 11
256.3920636716533
 21
335.6659687236925
 31
0.0
  0
LINE
  5
15E
330
52
100
AcDbEntity
  8
1
  6
PHANTOM
 62
     4
100
AcDbLine
 10
262.900773442622
 20
441.9444080730923
 30
0.0
 11
178.900773442622
 21
441.9444080730923
 31
0.0
  0
LINE
  5
15F
330
52
100
AcDbEntity
  8
1
  6
PHANTOM
 62
     4
100
AcDbLine
 10
220.900773442622
 20
483.9039414563538
 30
0.0
 11
220.900773442622
 21
399.9444080730923
 31
0.0
  0
ARC
  5
160
330
52
100
AcDbEntity
  8
0
  6
Continuous
 62
     7
100
AcDbCircle
 10
197.2712888192625
 20
166.250383569786
 30
0.0
 40
11.87051537664046
100
AcDbArc
 50
149.8032470818025
 51
166.5729946022312
  0
ARC
  5
161
330
52
100
AcDbEntity
  8
0
  6
Continuous
 62
     7
100
AcDbCircle
 10
197.2712888192625
 20
166.250383569786
 30
0.0
 40
11.87051537664056
100
AcDbArc
 50
166.5729946022312
 51
179.9999999999996
  0
ARC
  5
162
330
52
100
AcDbEntity
  8
0
  6
Continuous
 62
     7
100
AcDbCircle
 10
179.0069591618853
 20
179.7658611359189
 30
0.0
 40
11.00000000000046
100
AcDbArc
 50
316.6931925109582
 51
334.7226345881505
  0
ARC
  5
163
330
52
100
AcDbEntity
  8
0
  6
Continuous
 62
     7
100
AcDbCircle
 10
179.0069591618853
 20
179.7658611359189
 30
0.0
 40
10.99999999999996
100
AcDbArc
 50
334.7226345881505
 51
353.8259278697941
  0
ARC
  5
164
330
52
100
AcDbEntity
  8
0
  6
Continuous
 62
     7
100
AcDbCircle
 10
197.2712888192625
 20
336.250383569786
 30
0.0
 40
11.8705153766405
100
AcDbArc
 50
180.0
 51
198.0529646246507
  0
ARC
  5
165
330
52
100
AcDbEntity
  8
0
  6
Continuous
 62
     7
100
AcDbCircle
 10
197.2712888192625
 20
336.250383569786
 30
0.0
 40
11.87051537664051
100
AcDbArc
 50
198.0529646246507
 51
215.293574239822
  0
ARC
  5
166
330
52
100
AcDbEntity
  8
0
  6
Continuous
 62
     7
100
AcDbCircle
 10
138.6048652395791
 20
280.7896689349772
 30
0.0
 40
68.99999999999999
100
AcDbArc
 50
41.85102180225094
 51
44.77960956195603
  0
ARC
  5
167
330
52
100
AcDbEntity
  8
0
  6
Continuous
 62
     7
100
AcDbCircle
 10
187.6110195407437
 20
325.1134028527404
 30
0.0
 40
2.940948531783504
100
AcDbArc
 50
350.8943420021531
 51
35.61916840714049
  0
ARC
  5
168
330
52
100
AcDbEntity
  8
0
  6
Continuous
 62
     7
100
AcDbCircle
 10
256.9449352541358
 20
181.1910547208595
 30
0.0
 40
6.044752609047324
100
AcDbArc
 50
169.8409939944129
 51
179.1989285781172
  0
ARC
  5
169
330
52
100
AcDbEntity
  8
0
  6
Continuous
 62
     7
100
AcDbCircle
 10
254.5890457666949
 20
181.2755656717632
 30
0.0
 40
3.688272324072898
100
AcDbArc
 50
179.9999999999982
 51
223.2082254302967
  0
ARC
  5
16A
330
52
100
AcDbEntity
  8
0
  6
Continuous
 62
     7
100
AcDbCircle
 10
236.789662331511
 20
166.250383569786
 30
0.0
 40
19.61111111111107
100
AcDbArc
 50
27.10444944340254
 51
39.59775270905006
  0
ARC
  5
16B
330
52
100
AcDbEntity
  8
0
  6
Continuous
 62
     7
100
AcDbCircle
 10
240.1044967346757
 20
315.750383569786
 30
0.0
 40
11.7962767079463
100
AcDbArc
 50
0.0
 51
16.74157173979594
  0
ARC
  5
16C
330
52
100
AcDbEntity
  8
0
  6
Continuous
 62
     7
100
AcDbCircle
 10
255.4640238241508
 20
321.2252014678087
 30
0.0
 40
4.563250381528696
100
AcDbArc
 50
199.0565476763892
 51
207.0727981343814
  0
ARC
  5
16D
330
52
100
AcDbEntity
  8
0
  6
Continuous
 62
     7
100
AcDbCircle
 10
254.5890457666949
 20
321.2252014678089
 30
0.0
 40
3.688272324072833
100
AcDbArc
 50
136.7917745697045
 51
180.0000000000018
  0
ARC
  5
16E
330
52
100
AcDbEntity
  8
0
  6
Continuous
 62
     7
100
AcDbCircle
 10
236.789662331511
 20
336.250383569786
 30
0.0
 40
19.61111111111115
100
AcDbArc
 50
358.2923220438163
 51
0.0
  0
ARC
  5
16F
330
52
100
AcDbEntity
  8
0
  6
Continuous
 62
     7
100
AcDbCircle
 10
236.789662331511
 20
166.250383569786
 30
0.0
 40
19.6111111111112
100
AcDbArc
 50
0.00000000000025
 51
6.52674775149404
  0
ARC
  5
170
330
52
100
AcDbEntity
  8
0
  6
Continuous
 62
     7
100
AcDbCircle
 10
236.789662331511
 20
166.250383569786
 30
0.0
 40
19.61111111111103
100
AcDbArc
 50
6.52674775149404
 51
27.10444944340254
  0
ARC
  5
171
330
52
100
AcDbEntity
  8
0
  6
Continuous
 62
     7
100
AcDbCircle
 10
256.9449352541358
 20
181.1910547208595
 30
0.0
 40
6.044752609047293
100
AcDbArc
 50
152.217210439903
 51
169.8409939944129
  0
ARC
  5
172
330
52
100
AcDbEntity
  8
0
  6
Continuous
 62
     7
100
AcDbCircle
 10
255.4640238241508
 20
321.2252014678087
 30
0.0
 40
4.563250381528775
100
AcDbArc
 50
179.9999999999986
 51
199.0565476763892
  0
ARC
  5
173
330
52
100
AcDbEntity
  8
0
  6
Continuous
 62
     7
100
AcDbCircle
 10
236.789662331511
 20
336.250383569786
 30
0.0
 40
19.61111111111103
100
AcDbArc
 50
320.40224729095
 51
326.8729675658621
  0
ARC
  5
174
330
52
100
AcDbEntity
  8
0
  6
Continuous
 62
     7
100
AcDbCircle
 10
236.789662331511
 20
336.250383569786
 30
0.0
 40
19.61111111111103
100
AcDbArc
 50
326.8729675658621
 51
345.6922490955917
  0
ARC
  5
175
330
52
100
AcDbEntity
  8
0
  6
Continuous
 62
     7
100
AcDbCircle
 10
236.789662331511
 20
336.250383569786
 30
0.0
 40
19.61111111111122
100
AcDbArc
 50
345.6922490955917
 51
356.2599300876006
  0
ARC
  5
176
330
52
100
AcDbEntity
  8
0
  6
Continuous
 62
     7
100
AcDbCircle
 10
236.789662331511
 20
336.250383569786
 30
0.0
 40
19.61111111111099
100
AcDbArc
 50
356.2599300876006
 51
358.2923220438163
  0
CIRCLE
  5
177
330
52
100
AcDbEntity
  8
1
  6
Continuous
 62
     7
100
AcDbCircle
 10
220.900773442622
 20
441.9444080730923
 30
0.0
 40
36.0
  0
CIRCLE
  5
178
330
52
100
AcDbEntity
  8
1
  6
Continuous
 62
     7
100
AcDbCircle
 10
220.900773442622
 20
441.9444080730923
 30
0.0
 40
30.5
  0
CIRCLE
  5
179
330
52
100
AcDbEntity
  8
1
  6
Continuous
 62
     7
100
AcDbCircle
 10
220.900773442622
 20
441.9444080730923
 30
0.0
 40
30.0
  0
CIRCLE
  5
17A
330
52
100
AcDbEntity
  8
1
  6
Continuous
 62
     7
100
AcDbCircle
 10
220.900773442622
 20
441.9444080730923
 30
0.0
 40
31.0
  0
CIRCLE
  5
17B
330
52
100
AcDbEntity
  8
1
  6
Continuous
 62
     7
100
AcDbCircle
 10
220.900773442622
 20
441.9444080730923
 30
0.0
 40
25.75
  0
SPLINE
  5
17C
330
52
100
AcDbEntity
  8
0
  6
Continuous
 62
     7
100
AcDbSpline
210
0.0
220
0.0
230
1.0
 70
     8
 71
     3
 72
    39
 73
    35
 74
    33
 42
0.000000001
 43
0.0000000001
 44
0.00000001
 40
0.0
 40
0.0
 40
0.0
 40
0.0
 40
0.4660900542784941
 40
0.9322570124075211
 40
1.181323239708883
 40
1.430415308696157
 40
1.695056878245817
 40
1.959723323925052
 40
2.241043867497603
 40
2.52238411163411
 40
2.819455704553974
 40
3.116538715479471
 40
3.42680352024143
 40
3.737076290417749
 40
4.056783883415907
 40
4.376495650534328
 40
4.7011165874357
 40
5.025738929086003
 40
5.350361270736304
 40
5.674982207637619
 40
5.994693974756096
 40
6.314401567754189
 40
6.624674337930523
 40
6.934939142692502
 40
7.232022153617962
 40
7.529093746537874
 40
7.810433990674365
 40
8.09175453424694
 40
8.35642097992624
 40
8.621062549475921
 40
8.870154618463184
 40
9.11922084576453
 40
9.58538780389351
 40
10.05147785817202
 40
10.05147785817202
 40
10.05147785817202
 40
10.05147785817202
 10
192.525773442622
 20
260.980383569786
 30
0.0
 10
192.3700374285615
 20
260.9688919392063
 30
0.0
 10
192.0585397062993
 20
260.9459067686651
 30
0.0
 10
191.6880724025306
 20
260.7957864197367
 30
0.0
 10
191.4109894781133
 20
260.6327413029375
 30
0.0
 10
191.2065716442665
 20
260.4805850105832
 30
0.0
 10
191.0143099068543
 20
260.305799278077
 30
0.0
 10
190.8318482616715
 20
260.106010850955
 30
0.0
 10
190.6640650047264
 20
259.8867200303966
 30
0.0
 10
190.5090337369969
 20
259.6453517470673
 30
0.0
 10
190.3705855448339
 20
259.3881258268879
 30
0.0
 10
190.2475238697292
 20
259.1126401843055
 30
0.0
 10
190.1424892579657
 20
258.8251027352652
 30
0.0
 10
190.0549981096124
 20
258.523914967175
 30
0.0
 10
189.9865417037703
 20
258.2146142790773
 30
0.0
 10
189.9371455034235
 20
257.8968762456169
 30
0.0
 10
189.9073853612674
 20
257.575056957992
 30
0.0
 10
189.8974674911465
 20
257.250383569786
 30
0.0
 10
189.9073853612673
 20
256.9257101815799
 30
0.0
 10
189.9371455034234
 20
256.6038908939552
 30
0.0
 10
189.9865417037702
 20
256.2861528604946
 30
0.0
 10
190.0549981096124
 20
255.9768521723971
 30
0.0
 10
190.1424892579657
 20
255.6756644043068
 30
0.0
 10
190.2475238697293
 20
255.3881269552665
 30
0.0
 10
190.3705855448339
 20
255.1126413126842
 30
0.0
 10
190.5090337369971
 20
254.8554153925047
 30
0.0
 10
190.6640650047263
 20
254.6140471091754
 30
0.0
 10
190.8318482616716
 20
254.394756288617
 30
0.0
 10
191.0143099068542
 20
254.1949678614948
 30
0.0
 10
191.2065716442665
 20
254.0201821289887
 30
0.0
 10
191.4109894781133
 20
253.8680258366344
 30
0.0
 10
191.6880724025308
 20
253.7049807198353
 30
0.0
 10
192.0585397062991
 20
253.5548603709069
 30
0.0
 10
192.3700374285616
 20
253.5318752003656
 30
0.0
 10
192.525773442622
 20
253.5203835697859
 30
0.0
 11
192.525773442622
 21
260.980383569786
 31
0.0
 11
192.0633492316127
 21
260.9220415333088
 31
0.0
 11
191.6279705663922
 21
260.7554370453174
 31
0.0
 11
191.4134064715942
 21
260.6289608205573
 31
0.0
 11
191.213273442622
 21
260.4806583259019
 31
0.0
 11
191.0172149768356
 21
260.3029050176486
 31
0.0
 11
190.8384559671949
 21
260.1077293426198
 31
0.0
 11
190.6672304364124
 21
259.884518531969
 31
0.0
 11
190.5149067794347
 21
259.6479813539168
 31
0.0
 11
190.3738654689957
 21
259.386526041973
 31
0.0
 11
190.2524567576878
 21
259.1153835697861
 31
0.0
 11
190.1458119192563
 21
258.8240227497355
 31
0.0
 11
190.059080313059
 21
258.5261187043908
 31
0.0
 11
189.9898739676588
 21
258.2139914444475
 31
0.0
 11
189.940653090965
 21
257.8980912724837
 31
0.0
 11
189.9107175601231
 21
257.5748535649782
 31
0.0
 11
189.9007734426221
 21
257.250383569786
 31
0.0
 11
189.910717560123
 21
256.9259135745938
 31
0.0
 11
189.940653090965
 21
256.6026758670884
 31
0.0
 11
189.9898739676588
 21
256.2867756951245
 31
0.0
 11
190.059080313059
 21
255.9746484351812
 31
0.0
 11
190.1458119192564
 21
255.6767443898365
 31
0.0
 11
190.252456757688
 21
255.385383569786
 31
0.0
 11
190.3738654689958
 21
255.1142410975991
 31
0.0
 11
190.5149067794347
 21
254.8527857856552
 31
0.0
 11
190.6672304364124
 21
254.616248607603
 31
0.0
 11
190.8384559671949
 21
254.3930377969522
 31
0.0
 11
191.0172149768356
 21
254.1978621219232
 31
0.0
 11
191.213273442622
 21
254.02010881367
 31
0.0
 11
191.4134064715942
 21
253.8718063190146
 31
0.0
 11
191.6279705663922
 21
253.7453300942545
 31
0.0
 11
192.0633492316127
 21
253.5787256062632
 31
0.0
 11
192.525773442622
 21
253.5203835697859
 31
0.0
  0
SPLINE
  5
17D
330
52
100
AcDbEntity
  8
0
  6
Continuous
 62
     7
100
AcDbSpline
210
0.0
220
0.0
230
1.0
 70
     8
 71
     3
 72
    39
 73
    35
 74
    33
 42
0.000000001
 43
0.0000000001
 44
0.00000001
 40
0.0
 40
0.0
 40
0.0
 40
0.0
 40
0.4660900542784941
 40
0.9322570124075211
 40
1.181323239708883
 40
1.430415308696157
 40
1.695056878245817
 40
1.959723323925052
 40
2.241043867497603
 40
2.52238411163411
 40
2.819455704553974
 40
3.116538715479471
 40
3.42680352024143
 40
3.737076290417749
 40
4.056783883415907
 40
4.376495650534328
 40
4.7011165874357
 40
5.025738929086003
 40
5.350361270736304
 40
5.674982207637619
 40
5.994693974756096
 40
6.314401567754189
 40
6.624674337930523
 40
6.934939142692502
 40
7.232022153617962
 40
7.529093746537874
 40
7.810433990674365
 40
8.09175453424694
 40
8.35642097992624
 40
8.621062549475921
 40
8.870154618463184
 40
9.11922084576453
 40
9.58538780389351
 40
10.05147785817202
 40
10.05147785817202
 40
10.05147785817202
 40
10.05147785817202
 10
192.525773442622
 20
260.980383569786
 30
0.0
 10
192.3700374285615
 20
260.9688919392063
 30
0.0
 10
192.0585397062993
 20
260.9459067686651
 30
0.0
 10
191.6880724025306
 20
260.7957864197367
 30
0.0
 10
191.4109894781133
 20
260.6327413029375
 30
0.0
 10
191.2065716442665
 20
260.4805850105832
 30
0.0
 10
191.0143099068543
 20
260.305799278077
 30
0.0
 10
190.8318482616715
 20
260.106010850955
 30
0.0
 10
190.6640650047264
 20
259.8867200303966
 30
0.0
 10
190.5090337369969
 20
259.6453517470673
 30
0.0
 10
190.3705855448339
 20
259.3881258268879
 30
0.0
 10
190.2475238697292
 20
259.1126401843055
 30
0.0
 10
190.1424892579657
 20
258.8251027352652
 30
0.0
 10
190.0549981096124
 20
258.523914967175
 30
0.0
 10
189.9865417037703
 20
258.2146142790773
 30
0.0
 10
189.9371455034235
 20
257.8968762456169
 30
0.0
 10
189.9073853612674
 20
257.575056957992
 30
0.0
 10
189.8974674911465
 20
257.250383569786
 30
0.0
 10
189.9073853612673
 20
256.9257101815799
 30
0.0
 10
189.9371455034234
 20
256.6038908939552
 30
0.0
 10
189.9865417037702
 20
256.2861528604946
 30
0.0
 10
190.0549981096124
 20
255.9768521723971
 30
0.0
 10
190.1424892579657
 20
255.6756644043068
 30
0.0
 10
190.2475238697293
 20
255.3881269552665
 30
0.0
 10
190.3705855448339
 20
255.1126413126842
 30
0.0
 10
190.5090337369971
 20
254.8554153925047
 30
0.0
 10
190.6640650047263
 20
254.6140471091754
 30
0.0
 10
190.8318482616716
 20
254.394756288617
 30
0.0
 10
191.0143099068542
 20
254.1949678614948
 30
0.0
 10
191.2065716442665
 20
254.0201821289887
 30
0.0
 10
191.4109894781133
 20
253.8680258366344
 30
0.0
 10
191.6880724025308
 20
253.7049807198353
 30
0.0
 10
192.0585397062991
 20
253.5548603709069
 30
0.0
 10
192.3700374285616
 20
253.5318752003656
 30
0.0
 10
192.525773442622
 20
253.5203835697859
 30
0.0
 11
192.525773442622
 21
260.980383569786
 31
0.0
 11
192.0633492316127
 21
260.9220415333088
 31
0.0
 11
191.6279705663922
 21
260.7554370453174
 31
0.0
 11
191.4134064715942
 21
260.6289608205573
 31
0.0
 11
191.213273442622
 21
260.4806583259019
 31
0.0
 11
191.0172149768356
 21
260.3029050176486
 31
0.0
 11
190.8384559671949
 21
260.1077293426198
 31
0.0
 11
190.6672304364124
 21
259.884518531969
 31
0.0
 11
190.5149067794347
 21
259.6479813539168
 31
0.0
 11
190.3738654689957
 21
259.386526041973
 31
0.0
 11
190.2524567576878
 21
259.1153835697861
 31
0.0
 11
190.1458119192563
 21
258.8240227497355
 31
0.0
 11
190.059080313059
 21
258.5261187043908
 31
0.0
 11
189.9898739676588
 21
258.2139914444475
 31
0.0
 11
189.940653090965
 21
257.8980912724837
 31
0.0
 11
189.9107175601231
 21
257.5748535649782
 31
0.0
 11
189.9007734426221
 21
257.250383569786
 31
0.0
 11
189.910717560123
 21
256.9259135745938
 31
0.0
 11
189.940653090965
 21
256.6026758670884
 31
0.0
 11
189.9898739676588
 21
256.2867756951245
 31
0.0
 11
190.059080313059
 21
255.9746484351812
 31
0.0
 11
190.1458119192564
 21
255.6767443898365
 31
0.0
 11
190.252456757688
 21
255.385383569786
 31
0.0
 11
190.3738654689958
 21
255.1142410975991
 31
0.0
 11
190.5149067794347
 21
254.8527857856552
 31
0.0
 11
190.6672304364124
 21
254.616248607603
 31
0.0
 11
190.8384559671949
 21
254.3930377969522
 31
0.0
 11
191.0172149768356
 21
254.1978621219232
 31
0.0
 11
191.213273442622
 21
254.02010881367
 31
0.0
 11
191.4134064715942
 21
253.8718063190146
 31
0.0
 11
191.6279705663922
 21
253.7453300942545
 31
0.0
 11
192.0633492316127
 21
253.5787256062632
 31
0.0
 11
192.525773442622
 21
253.5203835697859
 31
0.0
  0
SPLINE
  5
17E
330
52
100
AcDbEntity
  8
1
  6
Continuous
 62
     7
100
AcDbSpline
210
0.0
220
0.0
230
1.0
 70
     8
 71
     3
 72
    29
 73
    25
 74
    23
 42
0.000000001
 43
0.0000000001
 44
0.00000001
 40
0.0
 40
0.0
 40
0.0
 40
0.0
 40
0.4660900537910345
 40
0.9322570117308105
 40
1.181323239223167
 40
1.430415308748795
 40
1.69505687939116
 40
1.959723324475079
 40
2.241043864694086
 40
2.5223841126046
 40
2.819455720720226
 40
3.116538716269669
 40
3.426803459015728
 40
3.737076291008738
 40
4.056784126399163
 40
4.376495650433787
 40
4.701115667204751
 40
5.025738913990515
 40
5.350364593430229
 40
5.674982255672289
 40
5.994682349239017
 40
6.314401269225673
 40
6.921393062046008
 40
7.528332116868319
 40
7.528332116868319
 40
7.528332116868319
 40
7.528332116868319
 10
192.525773442622
 20
266.5203835697859
 30
0.0
 10
192.3700374287186
 20
266.5318752003443
 30
0.0
 10
192.0585397067777
 20
266.5548603708146
 30
0.0
 10
191.6880724025998
 20
266.7049807180981
 30
0.0
 10
191.4109894775353
 20
266.8680258342117
 30
0.0
 10
191.2065716430853
 20
267.0201821268197
 30
0.0
 10
191.0143099058402
 20
267.1949678600306
 30
0.0
 10
190.8318482609531
 20
267.3947562860311
 30
0.0
 10
190.6640650019941
 20
267.6140471049979
 30
0.0
 10
190.5090337322189
 20
267.8554153933342
 30
0.0
 10
190.3705855442375
 20
268.1126413173323
 30
0.0
 10
190.2475238747129
 20
268.3881269384383
 30
0.0
 10
190.1424892519144
 20
268.6756643813716
 30
0.0
 10
190.054998101884
 20
268.9768522219009
 30
0.0
 10
189.9865416354079
 20
269.2861529570181
 30
0.0
 10
189.9371456206522
 20
269.6038905684456
 30
0.0
 10
189.907385087633
 20
269.925710240198
 30
0.0
 10
189.8974695739388
 20
270.2503830553232
 30
0.0
 10
189.9073771807222
 20
270.5750629828619
 30
0.0
 10
189.937169494497
 20
270.8968555383114
 30
0.0
 10
189.9864538742191
 20
271.2146758497896
 30
0.0
 10
190.0768751542986
 20
271.6202038857669
 30
0.0
 10
190.2304778859584
 20
272.1105798438079
 30
0.0
 10
190.4200998899682
 20
272.4688527075693
 30
0.0
 10
190.5149067794347
 20
272.6479813539169
 30
0.0
 11
192.525773442622
 21
266.5203835697859
 31
0.0
 11
192.063349231612
 21
266.5787256062658
 31
0.0
 11
191.6279705663923
 21
266.7453300942546
 31
0.0
 11
191.4134064716534
 21
266.8718063187882
 31
0.0
 11
191.2132734426221
 21
267.0201088136699
 31
0.0
 11
191.0172149765988
 21
267.1978621228322
 31
0.0
 11
190.8384559671949
 21
267.3930377969522
 31
0.0
 11
190.6672304373811
 21
267.6162486038871
 31
0.0
 11
190.5149067794347
 21
267.8527857856553
 31
0.0
 11
190.3738654650671
 21
268.1142411126706
 31
0.0
 11
190.2524567576878
 21
268.385383569786
 31
0.0
 11
190.1458119349364
 21
268.6767443296819
 31
0.0
 11
190.059080313059
 21
268.9746484351814
 31
0.0
 11
189.9898739063157
 21
269.2867759304589
 31
0.0
 11
189.9406530909649
 21
269.6026758670883
 31
0.0
 11
189.910717794872
 21
269.9259126740118
 31
0.0
 11
189.900773442622
 21
270.2503835697861
 31
0.0
 11
189.9107166820972
 21
270.5748569334028
 31
0.0
 11
189.940653090965
 21
270.8980912724838
 31
0.0
 11
189.9898771774132
 21
271.2139791306688
 31
0.0
 11
190.059080313059
 21
271.5261187043907
 31
0.0
 11
190.247494821131
 21
272.1031273763491
 31
0.0
 11
190.5149067794347
 21
272.6479813539169
 31
0.0
  0
SPLINE
  5
17F
330
52
100
AcDbEntity
  8
0
  6
Continuous
 62
     7
100
AcDbSpline
210
0.0
220
0.0
230
1.0
 70
     8
 71
     3
 72
    39
 73
    35
 74
    33
 42
0.000000001
 43
0.0000000001
 44
0.00000001
 40
0.0
 40
0.0
 40
0.0
 40
0.0
 40
0.4660900542785787
 40
0.9322570124075854
 40
1.181323239708942
 40
1.430415308696251
 40
1.69505687824591
 40
1.959723323925224
 40
2.241043867497763
 40
2.5223841116342
 40
2.819455704554178
 40
3.116538715479611
 40
3.426803520241544
 40
3.737076290417925
 40
4.05678388341595
 40
4.376495650534432
 40
4.701116587435799
 40
5.025738929086072
 40
5.350361270736344
 40
5.674982207637687
 40
5.994693974756188
 40
6.314401567754247
 40
6.624674337930629
 40
6.934939142692608
 40
7.232022153618029
 40
7.529093746537955
 40
7.810433990674431
 40
8.091754534247006
 40
8.356420979926423
 40
8.621062549476084
 40
8.870154618463324
 40
9.119220845764637
 40
9.58538780389358
 40
10.0514778581722
 40
10.0514778581722
 40
10.0514778581722
 40
10.0514778581722
 10
249.275773442622
 20
254.480383569786
 30
0.0
 10
249.4315094566825
 20
254.4688919392063
 30
0.0
 10
249.7430071789448
 20
254.4459067686649
 30
0.0
 10
250.1134744827136
 20
254.295786419737
 30
0.0
 10
250.3905574071306
 20
254.1327413029372
 30
0.0
 10
250.5949752409776
 20
253.9805850105834
 30
0.0
 10
250.7872369783898
 20
253.8057992780768
 30
0.0
 10
250.9696986235727
 20
253.6060108509551
 30
0.0
 10
251.1374818805178
 20
253.3867200303965
 30
0.0
 10
251.2925131482471
 20
253.1453517470673
 30
0.0
 10
251.4309613404103
 20
252.8881258268878
 30
0.0
 10
251.5540230155148
 20
252.6126401843055
 30
0.0
 10
251.6590576272785
 20
252.3251027352651
 30
0.0
 10
251.7465487756317
 20
252.023914967175
 30
0.0
 10
251.8150051814738
 20
251.7146142790774
 30
0.0
 10
251.8644013818207
 20
251.3968762456169
 30
0.0
 10
251.8941615239768
 20
251.0750569579922
 30
0.0
 10
251.9040793940976
 20
250.750383569786
 30
0.0
 10
251.8941615239767
 20
250.4257101815799
 30
0.0
 10
251.8644013818207
 20
250.1038908939552
 30
0.0
 10
251.8150051814739
 20
249.7861528604947
 30
0.0
 10
251.7465487756317
 20
249.4768521723971
 30
0.0
 10
251.6590576272784
 20
249.1756644043068
 30
0.0
 10
251.5540230155148
 20
248.8881269552665
 30
0.0
 10
251.4309613404102
 20
248.6126413126843
 30
0.0
 10
251.2925131482472
 20
248.3554153925048
 30
0.0
 10
251.1374818805178
 20
248.1140471091754
 30
0.0
 10
250.9696986235727
 20
247.8947562886169
 30
0.0
 10
250.7872369783898
 20
247.6949678614949
 30
0.0
 10
250.5949752409775
 20
247.5201821289886
 30
0.0
 10
250.3905574071307
 20
247.3680258366345
 30
0.0
 10
250.1134744827134
 20
247.2049807198352
 30
0.0
 10
249.7430071789449
 20
247.054860370907
 30
0.0
 10
249.4315094566825
 20
247.0318752003656
 30
0.0
 10
249.275773442622
 20
247.0203835697859
 30
0.0
 11
249.275773442622
 21
254.480383569786
 31
0.0
 11
249.7381976536314
 21
254.4220415333088
 31
0.0
 11
250.173576318852
 21
254.2554370453175
 31
0.0
 11
250.3881404136499
 21
254.1289608205573
 31
0.0
 11
250.5882734426221
 21
253.9806583259019
 31
0.0
 11
250.7843319084085
 21
253.8029050176486
 31
0.0
 11
250.9630909180493
 21
253.6077293426198
 31
0.0
 11
251.1343164488317
 21
253.384518531969
 31
0.0
 11
251.2866401058094
 21
253.1479813539168
 31
0.0
 11
251.4276814162484
 21
252.8865260419728
 31
0.0
 11
251.5490901275562
 21
252.615383569786
 31
0.0
 11
251.6557349659878
 21
252.3240227497355
 31
0.0
 11
251.7424665721851
 21
252.0261187043907
 31
0.0
 11
251.8116729175853
 21
251.7139914444475
 31
0.0
 11
251.8608937942791
 21
251.3980912724837
 31
0.0
 11
251.890829325121
 21
251.0748535649782
 31
0.0
 11
251.900773442622
 21
250.750383569786
 31
0.0
 11
251.890829325121
 21
250.4259135745938
 31
0.0
 11
251.8608937942791
 21
250.1026758670884
 31
0.0
 11
251.8116729175853
 21
249.7867756951245
 31
0.0
 11
251.7424665721851
 21
249.4746484351813
 31
0.0
 11
251.6557349659878
 21
249.1767443898365
 31
0.0
 11
251.5490901275562
 21
248.8853835697859
 31
0.0
 11
251.4276814162484
 21
248.6142410975991
 31
0.0
 11
251.2866401058094
 21
248.3527857856552
 31
0.0
 11
251.1343164488317
 21
248.116248607603
 31
0.0
 11
250.9630909180492
 21
247.8930377969522
 31
0.0
 11
250.7843319084084
 21
247.6978621219232
 31
0.0
 11
250.588273442622
 21
247.52010881367
 31
0.0
 11
250.3881404136498
 21
247.3718063190146
 31
0.0
 11
250.1735763188519
 21
247.2453300942545
 31
0.0
 11
249.7381976536314
 21
247.0787256062632
 31
0.0
 11
249.275773442622
 21
247.0203835697859
 31
0.0
  0
SPLINE
  5
180
330
52
100
AcDbEntity
  8
0
  6
Continuous
 62
     7
100
AcDbSpline
210
0.0
220
0.0
230
1.0
 70
     8
 71
     3
 72
    39
 73
    35
 74
    33
 42
0.000000001
 43
0.0000000001
 44
0.00000001
 40
0.0
 40
0.0
 40
0.0
 40
0.0
 40
0.4660900542785787
 40
0.9322570124075854
 40
1.181323239708942
 40
1.430415308696251
 40
1.69505687824591
 40
1.959723323925224
 40
2.241043867497763
 40
2.5223841116342
 40
2.819455704554178
 40
3.116538715479611
 40
3.426803520241544
 40
3.737076290417925
 40
4.05678388341595
 40
4.376495650534432
 40
4.701116587435799
 40
5.025738929086072
 40
5.350361270736344
 40
5.674982207637687
 40
5.994693974756188
 40
6.314401567754247
 40
6.624674337930629
 40
6.934939142692608
 40
7.232022153618029
 40
7.529093746537955
 40
7.810433990674431
 40
8.091754534247006
 40
8.356420979926423
 40
8.621062549476084
 40
8.870154618463324
 40
9.119220845764637
 40
9.58538780389358
 40
10.0514778581722
 40
10.0514778581722
 40
10.0514778581722
 40
10.0514778581722
 10
249.275773442622
 20
254.480383569786
 30
0.0
 10
249.4315094566825
 20
254.4688919392063
 30
0.0
 10
249.7430071789448
 20
254.4459067686649
 30
0.0
 10
250.1134744827136
 20
254.295786419737
 30
0.0
 10
250.3905574071306
 20
254.1327413029372
 30
0.0
 10
250.5949752409776
 20
253.9805850105834
 30
0.0
 10
250.7872369783898
 20
253.8057992780768
 30
0.0
 10
250.9696986235727
 20
253.6060108509551
 30
0.0
 10
251.1374818805178
 20
253.3867200303965
 30
0.0
 10
251.2925131482471
 20
253.1453517470673
 30
0.0
 10
251.4309613404103
 20
252.8881258268878
 30
0.0
 10
251.5540230155148
 20
252.6126401843055
 30
0.0
 10
251.6590576272785
 20
252.3251027352651
 30
0.0
 10
251.7465487756317
 20
252.023914967175
 30
0.0
 10
251.8150051814738
 20
251.7146142790774
 30
0.0
 10
251.8644013818207
 20
251.3968762456169
 30
0.0
 10
251.8941615239768
 20
251.0750569579922
 30
0.0
 10
251.9040793940976
 20
250.750383569786
 30
0.0
 10
251.8941615239767
 20
250.4257101815799
 30
0.0
 10
251.8644013818207
 20
250.1038908939552
 30
0.0
 10
251.8150051814739
 20
249.7861528604947
 30
0.0
 10
251.7465487756317
 20
249.4768521723971
 30
0.0
 10
251.6590576272784
 20
249.1756644043068
 30
0.0
 10
251.5540230155148
 20
248.8881269552665
 30
0.0
 10
251.4309613404102
 20
248.6126413126843
 30
0.0
 10
251.2925131482472
 20
248.3554153925048
 30
0.0
 10
251.1374818805178
 20
248.1140471091754
 30
0.0
 10
250.9696986235727
 20
247.8947562886169
 30
0.0
 10
250.7872369783898
 20
247.6949678614949
 30
0.0
 10
250.5949752409775
 20
247.5201821289886
 30
0.0
 10
250.3905574071307
 20
247.3680258366345
 30
0.0
 10
250.1134744827134
 20
247.2049807198352
 30
0.0
 10
249.7430071789449
 20
247.054860370907
 30
0.0
 10
249.4315094566825
 20
247.0318752003656
 30
0.0
 10
249.275773442622
 20
247.0203835697859
 30
0.0
 11
249.275773442622
 21
254.480383569786
 31
0.0
 11
249.7381976536314
 21
254.4220415333088
 31
0.0
 11
250.173576318852
 21
254.2554370453175
 31
0.0
 11
250.3881404136499
 21
254.1289608205573
 31
0.0
 11
250.5882734426221
 21
253.9806583259019
 31
0.0
 11
250.7843319084085
 21
253.8029050176486
 31
0.0
 11
250.9630909180493
 21
253.6077293426198
 31
0.0
 11
251.1343164488317
 21
253.384518531969
 31
0.0
 11
251.2866401058094
 21
253.1479813539168
 31
0.0
 11
251.4276814162484
 21
252.8865260419728
 31
0.0
 11
251.5490901275562
 21
252.615383569786
 31
0.0
 11
251.6557349659878
 21
252.3240227497355
 31
0.0
 11
251.7424665721851
 21
252.0261187043907
 31
0.0
 11
251.8116729175853
 21
251.7139914444475
 31
0.0
 11
251.8608937942791
 21
251.3980912724837
 31
0.0
 11
251.890829325121
 21
251.0748535649782
 31
0.0
 11
251.900773442622
 21
250.750383569786
 31
0.0
 11
251.890829325121
 21
250.4259135745938
 31
0.0
 11
251.8608937942791
 21
250.1026758670884
 31
0.0
 11
251.8116729175853
 21
249.7867756951245
 31
0.0
 11
251.7424665721851
 21
249.4746484351813
 31
0.0
 11
251.6557349659878
 21
249.1767443898365
 31
0.0
 11
251.5490901275562
 21
248.8853835697859
 31
0.0
 11
251.4276814162484
 21
248.6142410975991
 31
0.0
 11
251.2866401058094
 21
248.3527857856552
 31
0.0
 11
251.1343164488317
 21
248.116248607603
 31
0.0
 11
250.9630909180492
 21
247.8930377969522
 31
0.0
 11
250.7843319084084
 21
247.6978621219232
 31
0.0
 11
250.588273442622
 21
247.52010881367
 31
0.0
 11
250.3881404136498
 21
247.3718063190146
 31
0.0
 11
250.1735763188519
 21
247.2453300942545
 31
0.0
 11
249.7381976536314
 21
247.0787256062632
 31
0.0
 11
249.275773442622
 21
247.0203835697859
 31
0.0
  0
SPLINE
  5
181
330
52
100
AcDbEntity
  8
0
  6
Continuous
 62
     7
100
AcDbSpline
210
0.0
220
0.0
230
1.0
 70
     8
 71
     3
 72
    39
 73
    35
 74
    33
 42
0.000000001
 43
0.0000000001
 44
0.00000001
 40
0.0
 40
0.0
 40
0.0
 40
0.0
 40
0.4660900542785787
 40
0.9322570124075854
 40
1.181323239708942
 40
1.430415308696251
 40
1.69505687824591
 40
1.959723323925224
 40
2.241043867497763
 40
2.5223841116342
 40
2.819455704554178
 40
3.116538715479611
 40
3.426803520241544
 40
3.737076290417925
 40
4.05678388341595
 40
4.376495650534432
 40
4.701116587435799
 40
5.025738929086072
 40
5.350361270736344
 40
5.674982207637687
 40
5.994693974756188
 40
6.314401567754247
 40
6.624674337930629
 40
6.934939142692608
 40
7.232022153618029
 40
7.529093746537955
 40
7.810433990674431
 40
8.091754534247006
 40
8.356420979926423
 40
8.621062549476084
 40
8.870154618463324
 40
9.119220845764637
 40
9.58538780389358
 40
10.0514778581722
 40
10.0514778581722
 40
10.0514778581722
 40
10.0514778581722
 10
249.275773442622
 20
254.480383569786
 30
0.0
 10
249.4315094566825
 20
254.4688919392063
 30
0.0
 10
249.7430071789448
 20
254.4459067686649
 30
0.0
 10
250.1134744827136
 20
254.295786419737
 30
0.0
 10
250.3905574071306
 20
254.1327413029372
 30
0.0
 10
250.5949752409776
 20
253.9805850105834
 30
0.0
 10
250.7872369783898
 20
253.8057992780768
 30
0.0
 10
250.9696986235727
 20
253.6060108509551
 30
0.0
 10
251.1374818805178
 20
253.3867200303965
 30
0.0
 10
251.2925131482471
 20
253.1453517470673
 30
0.0
 10
251.4309613404103
 20
252.8881258268878
 30
0.0
 10
251.5540230155148
 20
252.6126401843055
 30
0.0
 10
251.6590576272785
 20
252.3251027352651
 30
0.0
 10
251.7465487756317
 20
252.023914967175
 30
0.0
 10
251.8150051814738
 20
251.7146142790774
 30
0.0
 10
251.8644013818207
 20
251.3968762456169
 30
0.0
 10
251.8941615239768
 20
251.0750569579922
 30
0.0
 10
251.9040793940976
 20
250.750383569786
 30
0.0
 10
251.8941615239767
 20
250.4257101815799
 30
0.0
 10
251.8644013818207
 20
250.1038908939552
 30
0.0
 10
251.8150051814739
 20
249.7861528604947
 30
0.0
 10
251.7465487756317
 20
249.4768521723971
 30
0.0
 10
251.6590576272784
 20
249.1756644043068
 30
0.0
 10
251.5540230155148
 20
248.8881269552665
 30
0.0
 10
251.4309613404102
 20
248.6126413126843
 30
0.0
 10
251.2925131482472
 20
248.3554153925048
 30
0.0
 10
251.1374818805178
 20
248.1140471091754
 30
0.0
 10
250.9696986235727
 20
247.8947562886169
 30
0.0
 10
250.7872369783898
 20
247.6949678614949
 30
0.0
 10
250.5949752409775
 20
247.5201821289886
 30
0.0
 10
250.3905574071307
 20
247.3680258366345
 30
0.0
 10
250.1134744827134
 20
247.2049807198352
 30
0.0
 10
249.7430071789449
 20
247.054860370907
 30
0.0
 10
249.4315094566825
 20
247.0318752003656
 30
0.0
 10
249.275773442622
 20
247.0203835697859
 30
0.0
 11
249.275773442622
 21
254.480383569786
 31
0.0
 11
249.7381976536314
 21
254.4220415333088
 31
0.0
 11
250.173576318852
 21
254.2554370453175
 31
0.0
 11
250.3881404136499
 21
254.1289608205573
 31
0.0
 11
250.5882734426221
 21
253.9806583259019
 31
0.0
 11
250.7843319084085
 21
253.8029050176486
 31
0.0
 11
250.9630909180493
 21
253.6077293426198
 31
0.0
 11
251.1343164488317
 21
253.384518531969
 31
0.0
 11
251.2866401058094
 21
253.1479813539168
 31
0.0
 11
251.4276814162484
 21
252.8865260419728
 31
0.0
 11
251.5490901275562
 21
252.615383569786
 31
0.0
 11
251.6557349659878
 21
252.3240227497355
 31
0.0
 11
251.7424665721851
 21
252.0261187043907
 31
0.0
 11
251.8116729175853
 21
251.7139914444475
 31
0.0
 11
251.8608937942791
 21
251.3980912724837
 31
0.0
 11
251.890829325121
 21
251.0748535649782
 31
0.0
 11
251.900773442622
 21
250.750383569786
 31
0.0
 11
251.890829325121
 21
250.4259135745938
 31
0.0
 11
251.8608937942791
 21
250.1026758670884
 31
0.0
 11
251.8116729175853
 21
249.7867756951245
 31
0.0
 11
251.7424665721851
 21
249.4746484351813
 31
0.0
 11
251.6557349659878
 21
249.1767443898365
 31
0.0
 11
251.5490901275562
 21
248.8853835697859
 31
0.0
 11
251.4276814162484
 21
248.6142410975991
 31
0.0
 11
251.2866401058094
 21
248.3527857856552
 31
0.0
 11
251.1343164488317
 21
248.116248607603
 31
0.0
 11
250.9630909180492
 21
247.8930377969522
 31
0.0
 11
250.7843319084084
 21
247.6978621219232
 31
0.0
 11
250.588273442622
 21
247.52010881367
 31
0.0
 11
250.3881404136498
 21
247.3718063190146
 31
0.0
 11
250.1735763188519
 21
247.2453300942545
 31
0.0
 11
249.7381976536314
 21
247.0787256062632
 31
0.0
 11
249.275773442622
 21
247.0203835697859
 31
0.0
  0
SPLINE
  5
182
330
52
100
AcDbEntity
  8
0
  6
Continuous
 62
     7
100
AcDbSpline
210
0.0
220
0.0
230
1.0
 70
     8
 71
     3
 72
    39
 73
    35
 74
    33
 42
0.000000001
 43
0.0000000001
 44
0.00000001
 40
0.0
 40
0.0
 40
0.0
 40
0.0
 40
0.4660900542785787
 40
0.9322570124075854
 40
1.181323239708942
 40
1.430415308696251
 40
1.69505687824591
 40
1.959723323925224
 40
2.241043867497763
 40
2.5223841116342
 40
2.819455704554178
 40
3.116538715479611
 40
3.426803520241544
 40
3.737076290417925
 40
4.05678388341595
 40
4.376495650534432
 40
4.701116587435799
 40
5.025738929086072
 40
5.350361270736344
 40
5.674982207637687
 40
5.994693974756188
 40
6.314401567754247
 40
6.624674337930629
 40
6.934939142692608
 40
7.232022153618029
 40
7.529093746537955
 40
7.810433990674431
 40
8.091754534247006
 40
8.356420979926423
 40
8.621062549476084
 40
8.870154618463324
 40
9.119220845764637
 40
9.58538780389358
 40
10.0514778581722
 40
10.0514778581722
 40
10.0514778581722
 40
10.0514778581722
 10
249.275773442622
 20
254.480383569786
 30
0.0
 10
249.4315094566825
 20
254.4688919392063
 30
0.0
 10
249.7430071789448
 20
254.4459067686649
 30
0.0
 10
250.1134744827136
 20
254.295786419737
 30
0.0
 10
250.3905574071306
 20
254.1327413029372
 30
0.0
 10
250.5949752409776
 20
253.9805850105834
 30
0.0
 10
250.7872369783898
 20
253.8057992780768
 30
0.0
 10
250.9696986235727
 20
253.6060108509551
 30
0.0
 10
251.1374818805178
 20
253.3867200303965
 30
0.0
 10
251.2925131482471
 20
253.1453517470673
 30
0.0
 10
251.4309613404103
 20
252.8881258268878
 30
0.0
 10
251.5540230155148
 20
252.6126401843055
 30
0.0
 10
251.6590576272785
 20
252.3251027352651
 30
0.0
 10
251.7465487756317
 20
252.023914967175
 30
0.0
 10
251.8150051814738
 20
251.7146142790774
 30
0.0
 10
251.8644013818207
 20
251.3968762456169
 30
0.0
 10
251.8941615239768
 20
251.0750569579922
 30
0.0
 10
251.9040793940976
 20
250.750383569786
 30
0.0
 10
251.8941615239767
 20
250.4257101815799
 30
0.0
 10
251.8644013818207
 20
250.1038908939552
 30
0.0
 10
251.8150051814739
 20
249.7861528604947
 30
0.0
 10
251.7465487756317
 20
249.4768521723971
 30
0.0
 10
251.6590576272784
 20
249.1756644043068
 30
0.0
 10
251.5540230155148
 20
248.8881269552665
 30
0.0
 10
251.4309613404102
 20
248.6126413126843
 30
0.0
 10
251.2925131482472
 20
248.3554153925048
 30
0.0
 10
251.1374818805178
 20
248.1140471091754
 30
0.0
 10
250.9696986235727
 20
247.8947562886169
 30
0.0
 10
250.7872369783898
 20
247.6949678614949
 30
0.0
 10
250.5949752409775
 20
247.5201821289886
 30
0.0
 10
250.3905574071307
 20
247.3680258366345
 30
0.0
 10
250.1134744827134
 20
247.2049807198352
 30
0.0
 10
249.7430071789449
 20
247.054860370907
 30
0.0
 10
249.4315094566825
 20
247.0318752003656
 30
0.0
 10
249.275773442622
 20
247.0203835697859
 30
0.0
 11
249.275773442622
 21
254.480383569786
 31
0.0
 11
249.7381976536314
 21
254.4220415333088
 31
0.0
 11
250.173576318852
 21
254.2554370453175
 31
0.0
 11
250.3881404136499
 21
254.1289608205573
 31
0.0
 11
250.5882734426221
 21
253.9806583259019
 31
0.0
 11
250.7843319084085
 21
253.8029050176486
 31
0.0
 11
250.9630909180493
 21
253.6077293426198
 31
0.0
 11
251.1343164488317
 21
253.384518531969
 31
0.0
 11
251.2866401058094
 21
253.1479813539168
 31
0.0
 11
251.4276814162484
 21
252.8865260419728
 31
0.0
 11
251.5490901275562
 21
252.615383569786
 31
0.0
 11
251.6557349659878
 21
252.3240227497355
 31
0.0
 11
251.7424665721851
 21
252.0261187043907
 31
0.0
 11
251.8116729175853
 21
251.7139914444475
 31
0.0
 11
251.8608937942791
 21
251.3980912724837
 31
0.0
 11
251.890829325121
 21
251.0748535649782
 31
0.0
 11
251.900773442622
 21
250.750383569786
 31
0.0
 11
251.890829325121
 21
250.4259135745938
 31
0.0
 11
251.8608937942791
 21
250.1026758670884
 31
0.0
 11
251.8116729175853
 21
249.7867756951245
 31
0.0
 11
251.7424665721851
 21
249.4746484351813
 31
0.0
 11
251.6557349659878
 21
249.1767443898365
 31
0.0
 11
251.5490901275562
 21
248.8853835697859
 31
0.0
 11
251.4276814162484
 21
248.6142410975991
 31
0.0
 11
251.2866401058094
 21
248.3527857856552
 31
0.0
 11
251.1343164488317
 21
248.116248607603
 31
0.0
 11
250.9630909180492
 21
247.8930377969522
 31
0.0
 11
250.7843319084084
 21
247.6978621219232
 31
0.0
 11
250.588273442622
 21
247.52010881367
 31
0.0
 11
250.3881404136498
 21
247.3718063190146
 31
0.0
 11
250.1735763188519
 21
247.2453300942545
 31
0.0
 11
249.7381976536314
 21
247.0787256062632
 31
0.0
 11
249.275773442622
 21
247.0203835697859
 31
0.0
  0
SPLINE
  5
183
330
52
100
AcDbEntity
  8
1
  6
Continuous
 62
     7
100
AcDbSpline
210
0.0
220
0.0
230
1.0
 70
     8
 71
     3
 72
    29
 73
    25
 74
    23
 42
0.000000001
 43
0.0000000001
 44
0.00000001
 40
0.0
 40
0.0
 40
0.0
 40
0.0
 40
0.4660900537910239
 40
0.9322570117308506
 40
1.181323239223207
 40
1.430415308748767
 40
1.695056879391152
 40
1.959723324475071
 40
2.241043864694033
 40
2.522384112604546
 40
2.819455720720172
 40
3.116538716269641
 40
3.426803459015647
 40
3.737076291008684
 40
4.056784126399137
 40
4.376495650433818
 40
4.701115667204782
 40
5.025738913990489
 40
5.35036459343026
 40
5.67498225567232
 40
5.994682349239048
 40
6.314401269225704
 40
6.921393062046038
 40
7.528332116868349
 40
7.528332116868349
 40
7.528332116868349
 40
7.528332116868349
 10
192.525773442622
 20
253.5203835697859
 30
0.0
 10
192.3700374287186
 20
253.5318752003443
 30
0.0
 10
192.0585397067777
 20
253.5548603708144
 30
0.0
 10
191.6880724025998
 20
253.7049807180981
 30
0.0
 10
191.4109894775353
 20
253.8680258342117
 30
0.0
 10
191.2065716430853
 20
254.0201821268196
 30
0.0
 10
191.0143099058402
 20
254.1949678600306
 30
0.0
 10
190.8318482609532
 20
254.3947562860311
 30
0.0
 10
190.664065001994
 20
254.6140471049978
 30
0.0
 10
190.509033732219
 20
254.8554153933341
 30
0.0
 10
190.3705855442376
 20
255.1126413173323
 30
0.0
 10
190.2475238747129
 20
255.3881269384383
 30
0.0
 10
190.1424892519144
 20
255.6756643813715
 30
0.0
 10
190.0549981018841
 20
255.9768522219009
 30
0.0
 10
189.9865416354079
 20
256.2861529570181
 30
0.0
 10
189.9371456206521
 20
256.6038905684456
 30
0.0
 10
189.9073850876331
 20
256.925710240198
 30
0.0
 10
189.8974695739387
 20
257.2503830553231
 30
0.0
 10
189.9073771807223
 20
257.5750629828619
 30
0.0
 10
189.9371694944969
 20
257.8968555383114
 30
0.0
 10
189.9864538742191
 20
258.2146758497896
 30
0.0
 10
190.0768751542986
 20
258.6202038857669
 30
0.0
 10
190.2304778859584
 20
259.1105798438078
 30
0.0
 10
190.4200998899682
 20
259.4688527075693
 30
0.0
 10
190.5149067794347
 20
259.6479813539169
 30
0.0
 11
192.525773442622
 21
253.5203835697859
 31
0.0
 11
192.063349231612
 21
253.5787256062658
 31
0.0
 11
191.6279705663923
 21
253.7453300942547
 31
0.0
 11
191.4134064716534
 21
253.8718063187882
 31
0.0
 11
191.2132734426221
 21
254.0201088136699
 31
0.0
 11
191.0172149765988
 21
254.1978621228321
 31
0.0
 11
190.8384559671949
 21
254.3930377969521
 31
0.0
 11
190.6672304373811
 21
254.616248603887
 31
0.0
 11
190.5149067794347
 21
254.8527857856552
 31
0.0
 11
190.3738654650671
 21
255.1142411126705
 31
0.0
 11
190.2524567576878
 21
255.3853835697859
 31
0.0
 11
190.1458119349364
 21
255.6767443296818
 31
0.0
 11
190.059080313059
 21
255.9746484351813
 31
0.0
 11
189.9898739063157
 21
256.2867759304588
 31
0.0
 11
189.9406530909649
 21
256.6026758670883
 31
0.0
 11
189.910717794872
 21
256.9259126740118
 31
0.0
 11
189.900773442622
 21
257.250383569786
 31
0.0
 11
189.9107166820972
 21
257.5748569334028
 31
0.0
 11
189.940653090965
 21
257.8980912724838
 31
0.0
 11
189.9898771774132
 21
258.2139791306688
 31
0.0
 11
190.059080313059
 21
258.5261187043907
 31
0.0
 11
190.247494821131
 21
259.1031273763491
 31
0.0
 11
190.5149067794347
 21
259.6479813539169
 31
0.0
  0
SPLINE
  5
184
330
52
100
AcDbEntity
  8
1
  6
Continuous
 62
     7
100
AcDbSpline
210
0.0
220
0.0
230
1.0
 70
     8
 71
     3
 72
    33
 73
    29
 74
    27
 42
0.000000001
 43
0.0000000001
 44
0.00000001
 40
0.0
 40
0.0
 40
0.0
 40
0.0
 40
0.4660900538317246
 40
0.9322570116040053
 40
1.181323239346655
 40
1.430415308805523
 40
1.695056878801258
 40
1.959723324758206
 40
2.241043868365527
 40
2.522384112961454
 40
2.819455707226701
 40
3.116538716847522
 40
3.426803515719324
 40
3.737076291807306
 40
4.056783909844954
 40
4.376495648940522
 40
4.701116476731134
 40
5.025738927381771
 40
5.350361695799173
 40
5.674982190650097
 40
5.994692311374861
 40
6.31440157923215
 40
6.624680423741416
 40
6.934939094739674
 40
7.232000498725632
 40
7.529093706418369
 40
8.074605253855754
 40
8.620006293004465
 40
8.620006293004465
 40
8.620006293004465
 40
8.620006293004465
 10
192.525773442622
 20
273.980383569786
 30
0.0
 10
192.3700374287097
 20
273.9688919392191
 30
0.0
 10
192.0585397068687
 20
273.9459067685602
 30
0.0
 10
191.6880724024243
 20
273.7957864218945
 30
0.0
 10
191.4109894773509
 20
273.6327413057541
 30
0.0
 10
191.2065716429148
 20
273.4805850134211
 30
0.0
 10
191.0143099051604
 20
273.3057992806892
 30
0.0
 10
190.8318482596014
 20
273.1060108535947
 30
0.0
 10
190.6640650017178
 20
272.8867200334372
 30
0.0
 10
190.5090337335638
 20
272.6453517495783
 30
0.0
 10
190.370585543362
 20
272.3881258281357
 30
0.0
 10
190.2475238678519
 20
272.1126401881089
 30
0.0
 10
190.1424892465884
 20
271.825102743021
 30
0.0
 10
190.0549980982556
 20
271.5239149656297
 30
0.0
 10
189.9865417230194
 20
271.2146142692573
 30
0.0
 10
189.9371455165432
 20
270.8968762780542
 30
0.0
 10
189.9073852659503
 20
270.5750570053135
 30
0.0
 10
189.8974674437429
 20
270.250383484414
 30
0.0
 10
189.9073855870524
 20
269.9257100099129
 30
0.0
 10
189.9371457044306
 20
269.6038915182687
 30
0.0
 10
189.9865404536254
 20
269.2861526145816
 30
0.0
 10
190.0549999284892
 20
268.9768532137164
 30
0.0
 10
190.1424849805551
 20
268.6756537430746
 30
0.0
 10
190.2475450583358
 20
268.3881655115715
 30
0.0
 10
190.370500000959
 20
268.1125277727536
 30
0.0
 10
190.5512212604422
 20
267.778413285033
 30
0.0
 10
190.8121098718433
 20
267.3919522714977
 30
0.0
 10
191.0795612797283
 20
267.1440482586606
 30
0.0
 10
191.213273442622
 20
267.0201088136699
 30
0.0
 11
192.525773442622
 21
273.980383569786
 31
0.0
 11
192.0633492316128
 21
273.9220415333083
 31
0.0
 11
191.6279705663922
 21
273.7554370453174
 31
0.0
 11
191.4134064715801
 21
273.6289608205859
 31
0.0
 11
191.213273442622
 21
273.480658325902
 31
0.0
 11
191.0172149768923
 21
273.3029050175347
 31
0.0
 11
190.8384559671949
 21
273.1077293426198
 31
0.0
 11
190.6672304361804
 21
272.8845185324353
 31
0.0
 11
190.5149067794347
 21
272.6479813539169
 31
0.0
 11
190.3738654699367
 21
272.3865260400813
 31
0.0
 11
190.2524567576878
 21
272.115383569786
 31
0.0
 11
190.1458119155004
 21
271.8240227572853
 31
0.0
 11
190.059080313059
 21
271.5261187043907
 31
0.0
 11
189.9898739823522
 21
271.2139914149112
 31
0.0
 11
189.940653090965
 21
270.8980912724837
 31
0.0
 11
189.9107175038941
 21
270.5748536780077
 31
0.0
 11
189.900773442622
 21
270.250383569786
 31
0.0
 11
189.9107177704348
 21
269.9259131518321
 31
0.0
 11
189.940653090965
 21
269.6026758670882
 31
0.0
 11
189.989873198833
 21
269.2867772405933
 31
0.0
 11
190.059080313059
 21
268.9746484351813
 31
0.0
 11
190.1458146683151
 21
268.6767388637679
 31
0.0
 11
190.2524567576878
 21
268.3853835697859
 31
0.0
 11
190.3738558369207
 21
268.1142604596834
 31
0.0
 11
190.5149067794347
 21
267.8527857856552
 31
0.0
 11
190.8277348548401
 21
267.4058837353923
 31
0.0
 11
191.213273442622
 21
267.0201088136699
 31
0.0
  0
SPLINE
  5
185
330
52
100
AcDbEntity
  8
0
  6
Continuous
 62
     7
100
AcDbSpline
210
0.0
220
0.0
230
1.0
 70
     8
 71
     3
 72
    23
 73
    19
 74
    17
 42
0.000000001
 43
0.0000000001
 44
0.00000001
 40
0.0
 40
0.0
 40
0.0
 40
0.0
 40
0.4660900546318605
 40
0.9322570128431644
 40
1.181323244057755
 40
1.430415309071578
 40
1.695056864577134
 40
1.959723322654674
 40
2.241043911645902
 40
2.522384115820489
 40
2.819455569530571
 40
3.116538697149268
 40
3.426803881023992
 40
3.737076357157978
 40
4.056783128145335
 40
4.376495392460651
 40
5.035405043678025
 40
5.694340612484488
 40
5.694340612484488
 40
5.694340612484488
 40
5.694340612484488
 10
192.525773442622
 20
182.980383569786
 30
0.0
 10
192.3700374283386
 20
182.9688919393701
 30
0.0
 10
192.058539705691
 20
182.9459067689869
 30
0.0
 10
191.6880724021792
 20
182.7957864165605
 30
0.0
 10
191.4109894750276
 20
182.6327413044144
 30
0.0
 10
191.2065716453117
 20
182.4805850142513
 30
0.0
 10
191.0143099216828
 20
182.3057992661021
 30
0.0
 10
190.8318482734545
 20
182.1060108344261
 30
0.0
 10
190.664064898979
 20
181.8867200666562
 30
0.0
 10
190.5090337905827
 20
181.6453518275297
 30
0.0
 10
190.3705855340528
 20
181.388125595613
 30
0.0
 10
190.2475255673846
 20
181.1126403303508
 30
0.0
 10
190.1424819309078
 20
180.8251019298875
 30
0.0
 10
190.0550185229293
 20
180.523920120664
 30
0.0
 10
189.9864652768093
 20
180.2145947999529
 30
0.0
 10
189.9204697757679
 20
179.7867970324355
 30
0.0
 10
189.8833485930915
 20
179.239841102602
 30
0.0
 10
189.9232200947438
 20
178.8018279206643
 30
0.0
 10
189.943156244366
 20
178.5828170229834
 30
0.0
 11
192.525773442622
 21
182.980383569786
 31
0.0
 11
192.0633492316706
 21
182.9220415333055
 31
0.0
 11
191.6279705663922
 21
182.7554370453174
 31
0.0
 11
191.4134064666673
 21
182.62896082084
 31
0.0
 11
191.213273442622
 21
182.480658325902
 31
0.0
 11
191.0172149966099
 21
182.3029050165146
 31
0.0
 11
190.8384559671949
 21
182.1077293426198
 31
0.0
 11
190.6672303555754
 21
181.8845185366055
 31
0.0
 11
190.5149067794348
 21
181.6479813539168
 31
0.0
 11
190.3738657968524
 21
181.3865260231684
 31
0.0
 11
190.2524567576879
 21
181.115383569786
 31
0.0
 11
190.145810610672
 21
180.8240228247905
 31
0.0
 11
190.059080313059
 21
180.5261187043907
 31
0.0
 11
189.9898790870314
 21
180.2139911508206
 31
0.0
 11
189.9406530909649
 21
179.8980912724837
 31
0.0
 11
189.9007847976349
 21
179.2403888732827
 31
0.0
 11
189.943156244366
 21
178.5828170229834
 31
0.0
  0
SPLINE
  5
186
330
52
100
AcDbEntity
  8
0
  6
Continuous
 62
     7
100
AcDbSpline
210
0.0
220
0.0
230
1.0
 70
     8
 71
     3
 72
    29
 73
    25
 74
    23
 42
0.000000001
 43
0.0000000001
 44
0.00000001
 40
0.0
 40
0.0
 40
0.0
 40
0.0
 40
0.6069390548223376
 40
1.213930847642635
 40
1.533649767629223
 40
1.853349861196133
 40
2.177967523438076
 40
2.502593202877848
 40
2.827216449663444
 40
3.151836466434408
 40
3.47154799046908
 40
3.791255825859672
 40
4.101528657852682
 40
4.411793400598635
 40
4.708876396148181
 40
5.005948004263757
 40
5.287288252174255
 40
5.5686087923932
 40
5.833275237477078
 40
6.097916808119362
 40
6.347008877645035
 40
6.596075105137387
 40
7.06224206307729
 40
7.528332116868324
 40
7.528332116868324
 40
7.528332116868324
 40
7.528332116868324
 10
190.5149067794347
 20
324.6479813539169
 30
0.0
 10
190.4200998899683
 20
324.4688527075694
 30
0.0
 10
190.2304778859585
 20
324.1105798438078
 30
0.0
 10
190.0768751542984
 20
323.6202038857668
 30
0.0
 10
189.9864538742193
 20
323.2146758497897
 30
0.0
 10
189.9371694944969
 20
322.8968555383113
 30
0.0
 10
189.9073771807223
 20
322.5750629828619
 30
0.0
 10
189.8974695739387
 20
322.2503830553231
 30
0.0
 10
189.9073850876332
 20
321.9257102401982
 30
0.0
 10
189.9371456206522
 20
321.6038905684456
 30
0.0
 10
189.9865416354078
 20
321.2861529570181
 30
0.0
 10
190.0549981018841
 20
320.976852221901
 30
0.0
 10
190.1424892519144
 20
320.6756643813715
 30
0.0
 10
190.247523874713
 20
320.3881269384383
 30
0.0
 10
190.3705855442375
 20
320.1126413173323
 30
0.0
 10
190.5090337322189
 20
319.8554153933342
 30
0.0
 10
190.664065001994
 20
319.6140471049978
 30
0.0
 10
190.831848260953
 20
319.3947562860311
 30
0.0
 10
191.0143099058402
 20
319.1949678600307
 30
0.0
 10
191.2065716430853
 20
319.0201821268199
 30
0.0
 10
191.410989477535
 20
318.8680258342116
 30
0.0
 10
191.6880724025998
 20
318.7049807180983
 30
0.0
 10
192.0585397067776
 20
318.5548603708145
 30
0.0
 10
192.3700374287186
 20
318.5318752003443
 30
0.0
 10
192.525773442622
 20
318.5203835697859
 30
0.0
 11
190.5149067794347
 21
324.6479813539169
 31
0.0
 11
190.247494821131
 21
324.103127376349
 31
0.0
 11
190.059080313059
 21
323.5261187043907
 31
0.0
 11
189.9898771774133
 21
323.2139791306689
 31
0.0
 11
189.940653090965
 21
322.8980912724837
 31
0.0
 11
189.9107166820972
 21
322.5748569334028
 31
0.0
 11
189.900773442622
 21
322.250383569786
 31
0.0
 11
189.910717794872
 21
321.9259126740119
 31
0.0
 11
189.940653090965
 21
321.6026758670884
 31
0.0
 11
189.9898739063157
 21
321.2867759304589
 31
0.0
 11
190.059080313059
 21
320.9746484351813
 31
0.0
 11
190.1458119349364
 21
320.6767443296818
 31
0.0
 11
190.2524567576878
 21
320.385383569786
 31
0.0
 11
190.3738654650671
 21
320.1142411126705
 31
0.0
 11
190.5149067794347
 21
319.8527857856552
 31
0.0
 11
190.667230437381
 21
319.616248603887
 31
0.0
 11
190.8384559671949
 21
319.3930377969522
 31
0.0
 11
191.0172149765987
 21
319.1978621228322
 31
0.0
 11
191.213273442622
 21
319.02010881367
 31
0.0
 11
191.4134064716532
 21
318.8718063187882
 31
0.0
 11
191.6279705663922
 21
318.7453300942547
 31
0.0
 11
192.063349231612
 21
318.5787256062658
 31
0.0
 11
192.525773442622
 21
318.5203835697859
 31
0.0
  0
SPLINE
  5
187
330
52
100
AcDbEntity
  8
0
  6
Continuous
 62
     7
100
AcDbSpline
210
0.0
220
0.0
230
1.0
 70
     8
 71
     3
 72
    21
 73
    17
 74
    15
 42
0.000000001
 43
0.0000000001
 44
0.00000001
 40
0.0
 40
0.0
 40
0.0
 40
0.0
 40
0.6440205864016058
 40
1.288029505826317
 40
1.598300478938141
 40
1.908566711190865
 40
2.205649981901458
 40
2.502721418878831
 40
2.784061651608324
 40
3.065382177220977
 40
3.330048610808885
 40
3.594690199673536
 40
3.843782275222675
 40
4.092848493173958
 40
4.559015451455247
 40
5.025105506858293
 40
5.025105506858293
 40
5.025105506858293
 40
5.025105506858293
 10
251.900773442622
 20
315.750383569786
 30
0.0
 10
251.8932830665364
 20
315.5355881808575
 30
0.0
 10
251.8783024365056
 20
315.106001295063
 30
0.0
 10
251.7762993776496
 20
314.58069675416
 30
0.0
 10
251.6591287538082
 20
314.1756746531
 30
0.0
 10
251.5540044746681
 20
313.8881250436614
 30
0.0
 10
251.4309682318712
 20
313.6126408674996
 30
0.0
 10
251.2925115128038
 20
313.3554153746513
 30
0.0
 10
251.137481847429
 20
313.114047423246
 30
0.0
 10
250.969698598831
 20
312.8947562346704
 30
0.0
 10
250.7872370812239
 20
312.6949677876045
 30
0.0
 10
250.5949752250555
 20
312.5201821472694
 30
0.0
 10
250.3905573925933
 20
312.3680258603176
 30
0.0
 10
250.1134744864782
 20
312.2049807084983
 30
0.0
 10
249.7430071779754
 20
312.0548603748605
 30
0.0
 10
249.4315094564444
 20
312.0318752015759
 30
0.0
 10
249.275773442622
 20
312.0203835697859
 30
0.0
 11
251.900773442622
 21
315.750383569786
 31
0.0
 11
251.8614967486142
 21
315.1075617815391
 31
0.0
 11
251.742466572185
 21
314.4746484351813
 31
0.0
 11
251.6557302740568
 21
314.1767476273977
 31
0.0
 11
251.5490901275562
 21
313.8853835697859
 31
0.0
 11
251.4276825917788
 21
313.6142402864509
 31
0.0
 11
251.2866401058093
 21
313.3527857856552
 31
0.0
 11
251.1343161589901
 21
313.1162488076017
 31
0.0
 11
250.9630909180491
 21
312.8930377969523
 31
0.0
 11
250.7843319793087
 21
312.6978620730001
 31
0.0
 11
250.588273442622
 21
312.52010881367
 31
0.0
 11
250.3881403959842
 21
312.3718063312044
 31
0.0
 11
250.173576318852
 21
312.2453300942545
 31
0.0
 11
249.738197653839
 21
312.07872560612
 31
0.0
 11
249.275773442622
 21
312.0203835697859
 31
0.0
  0
SPLINE
  5
188
330
52
100
AcDbEntity
  8
0
  6
Continuous
 62
     7
100
AcDbSpline
210
0.0
220
0.0
230
1.0
 70
     8
 71
     3
 72
    27
 73
    23
 74
    21
 42
0.000000001
 43
0.0000000001
 44
0.00000001
 40
0.0
 40
0.0
 40
0.0
 40
0.0
 40
0.4660900540755355
 40
0.9322570120241876
 40
1.181323239896531
 40
1.43041530856635
 40
1.695056876215036
 40
1.959723324171118
 40
2.241043876993289
 40
2.522384111769498
 40
2.819455665778115
 40
3.116538716048293
 40
3.426803678974139
 40
3.737076290187801
 40
4.056783263623195
 40
4.376495644438317
 40
4.701118907747524
 40
5.025738952466381
 40
5.350352864990707
 40
5.674982038637908
 40
6.238721963771053
 40
6.802280105743527
 40
6.802280105743527
 40
6.802280105743527
 40
6.802280105743527
 10
249.275773442622
 20
189.480383569786
 30
0.0
 10
249.4315094566005
 20
189.4688919391886
 30
0.0
 10
249.7430071786536
 20
189.4459067685881
 30
0.0
 10
250.1134744829588
 20
189.2957864207867
 30
0.0
 10
250.39055740719
 20
189.1327413035698
 30
0.0
 10
250.5949752408407
 20
188.9805850119894
 30
0.0
 10
250.7872369797158
 20
188.805799281044
 30
0.0
 10
250.9696986265907
 20
188.6060108509521
 30
0.0
 10
251.1374818798979
 20
188.3867200265125
 30
0.0
 10
251.2925131424264
 20
188.1453517564819
 30
0.0
 10
251.4309613474366
 20
187.8881258439359
 30
0.0
 10
251.554023026743
 20
187.6126401533923
 30
0.0
 10
251.6590576660767
 20
187.3251026702614
 30
0.0
 10
251.7465486359466
 20
187.0239151732873
 30
0.0
 10
251.8150055243802
 20
186.7146142701025
 30
0.0
 10
251.8643996841784
 20
186.3968764223858
 30
0.0
 10
251.894168525018
 20
186.0750534053557
 30
0.0
 10
251.9040565747973
 20
185.7503962188931
 30
0.0
 10
251.8942456125876
 20
185.4256734851608
 30
0.0
 10
251.8564736215077
 20
185.02303910576
 30
0.0
 10
251.7742281602259
 20
184.5443578775337
 30
0.0
 10
251.6560800484443
 20
184.1871936309852
 30
0.0
 10
251.5970155119433
 20
184.0086403070754
 30
0.0
 11
249.275773442622
 21
189.480383569786
 31
0.0
 11
249.7381976536294
 21
189.4220415333155
 31
0.0
 11
250.1735763188519
 21
189.2554370453174
 31
0.0
 11
250.3881404138211
 21
189.1289608199852
 31
0.0
 11
250.5882734426221
 21
188.980658325902
 31
0.0
 11
250.7843319077211
 21
188.802905019945
 31
0.0
 11
250.9630909180492
 21
188.6077293426197
 31
0.0
 11
251.1343164516415
 21
188.3845185225817
 31
0.0
 11
251.2866401058093
 21
188.1479813539168
 31
0.0
 11
251.4276814048523
 21
187.8865260800454
 31
0.0
 11
251.5490901275561
 21
187.6153835697859
 31
0.0
 11
251.655735011473
 21
187.3240225977754
 31
0.0
 11
251.742466572185
 21
187.0261187043908
 31
0.0
 11
251.8116727396401
 21
186.7139920389371
 31
0.0
 11
251.860893794279
 21
186.3980912724837
 31
0.0
 11
251.8908300060848
 21
186.0748512899731
 31
0.0
 11
251.900773442622
 21
185.750383569786
 31
0.0
 11
251.8908267781287
 21
185.4259220837393
 31
0.0
 11
251.8608937942791
 21
185.1026758670883
 31
0.0
 11
251.7606406169894
 21
184.5479218659918
 31
0.0
 11
251.5970155119433
 21
184.0086403070754
 31
0.0
  0
SPLINE
  5
189
330
52
100
AcDbEntity
  8
0
  6
Continuous
 62
     7
100
AcDbSpline
210
0.0
220
0.0
230
1.0
 70
     8
 71
     3
 72
    39
 73
    35
 74
    33
 42
0.000000001
 43
0.0000000001
 44
0.00000001
 40
0.0
 40
0.0
 40
0.0
 40
0.0
 40
0.4660900542784941
 40
0.9322570124075008
 40
1.181323239708892
 40
1.430415308696132
 40
1.695056878245772
 40
1.959723323925028
 40
2.241043867497602
 40
2.522384111634156
 40
2.819455704554071
 40
3.116538715479541
 40
3.426803520241474
 40
3.737076290417793
 40
4.056783883415895
 40
4.376495650534345
 40
4.701116587435717
 40
5.025738929085963
 40
5.350361270736292
 40
5.674982207637636
 40
5.994693974756085
 40
6.314401567754178
 40
6.62467433793054
 40
6.934939142692546
 40
7.232022153618005
 40
7.529093746537868
 40
7.810433990674407
 40
8.091754534246958
 40
8.356420979926257
 40
8.62106254947592
 40
8.870154618463182
 40
9.119220845764529
 40
9.58538780389352
 40
10.05147785817201
 40
10.05147785817201
 40
10.05147785817201
 40
10.05147785817201
 10
192.525773442622
 20
195.980383569786
 30
0.0
 10
192.3700374285615
 20
195.9688919392063
 30
0.0
 10
192.0585397062992
 20
195.945906768665
 30
0.0
 10
191.6880724025307
 20
195.7957864197368
 30
0.0
 10
191.4109894781133
 20
195.6327413029375
 30
0.0
 10
191.2065716442665
 20
195.4805850105833
 30
0.0
 10
191.0143099068543
 20
195.305799278077
 30
0.0
 10
190.8318482616715
 20
195.1060108509551
 30
0.0
 10
190.6640650047264
 20
194.8867200303966
 30
0.0
 10
190.509033736997
 20
194.6453517470673
 30
0.0
 10
190.3705855448338
 20
194.3881258268877
 30
0.0
 10
190.2475238697292
 20
194.1126401843055
 30
0.0
 10
190.1424892579656
 20
193.8251027352651
 30
0.0
 10
190.0549981096124
 20
193.523914967175
 30
0.0
 10
189.9865417037703
 20
193.2146142790773
 30
0.0
 10
189.9371455034235
 20
192.8968762456169
 30
0.0
 10
189.9073853612674
 20
192.5750569579921
 30
0.0
 10
189.8974674911464
 20
192.250383569786
 30
0.0
 10
189.9073853612673
 20
191.9257101815799
 30
0.0
 10
189.9371455034234
 20
191.6038908939551
 30
0.0
 10
189.9865417037703
 20
191.2861528604947
 30
0.0
 10
190.0549981096124
 20
190.9768521723971
 30
0.0
 10
190.1424892579657
 20
190.6756644043068
 30
0.0
 10
190.2475238697293
 20
190.3881269552665
 30
0.0
 10
190.3705855448339
 20
190.1126413126842
 30
0.0
 10
190.5090337369971
 20
189.8554153925047
 30
0.0
 10
190.6640650047263
 20
189.6140471091754
 30
0.0
 10
190.8318482616716
 20
189.3947562886169
 30
0.0
 10
191.0143099068542
 20
189.1949678614949
 30
0.0
 10
191.2065716442665
 20
189.0201821289886
 30
0.0
 10
191.4109894781133
 20
188.8680258366345
 30
0.0
 10
191.6880724025308
 20
188.7049807198352
 30
0.0
 10
192.0585397062991
 20
188.5548603709069
 30
0.0
 10
192.3700374285616
 20
188.5318752003657
 30
0.0
 10
192.525773442622
 20
188.520383569786
 30
0.0
 11
192.525773442622
 21
195.980383569786
 31
0.0
 11
192.0633492316127
 21
195.9220415333088
 31
0.0
 11
191.6279705663922
 21
195.7554370453175
 31
0.0
 11
191.4134064715942
 21
195.6289608205573
 31
0.0
 11
191.213273442622
 21
195.4806583259019
 31
0.0
 11
191.0172149768356
 21
195.3029050176487
 31
0.0
 11
190.8384559671949
 21
195.1077293426198
 31
0.0
 11
190.6672304364124
 21
194.884518531969
 31
0.0
 11
190.5149067794347
 21
194.6479813539168
 31
0.0
 11
190.3738654689957
 21
194.3865260419729
 31
0.0
 11
190.2524567576878
 21
194.115383569786
 31
0.0
 11
190.1458119192563
 21
193.8240227497355
 31
0.0
 11
190.059080313059
 21
193.5261187043908
 31
0.0
 11
189.9898739676588
 21
193.2139914444475
 31
0.0
 11
189.940653090965
 21
192.8980912724837
 31
0.0
 11
189.9107175601231
 21
192.5748535649782
 31
0.0
 11
189.9007734426221
 21
192.250383569786
 31
0.0
 11
189.910717560123
 21
191.9259135745938
 31
0.0
 11
189.940653090965
 21
191.6026758670884
 31
0.0
 11
189.9898739676588
 21
191.2867756951246
 31
0.0
 11
190.059080313059
 21
190.9746484351813
 31
0.0
 11
190.1458119192564
 21
190.6767443898365
 31
0.0
 11
190.252456757688
 21
190.3853835697859
 31
0.0
 11
190.3738654689958
 21
190.1142410975991
 31
0.0
 11
190.5149067794347
 21
189.8527857856552
 31
0.0
 11
190.6672304364124
 21
189.616248607603
 31
0.0
 11
190.8384559671949
 21
189.3930377969522
 31
0.0
 11
191.0172149768356
 21
189.1978621219232
 31
0.0
 11
191.213273442622
 21
189.02010881367
 31
0.0
 11
191.4134064715942
 21
188.8718063190146
 31
0.0
 11
191.6279705663922
 21
188.7453300942545
 31
0.0
 11
192.0633492316127
 21
188.5787256062632
 31
0.0
 11
192.525773442622
 21
188.520383569786
 31
0.0
  0
SPLINE
  5
18A
330
52
100
AcDbEntity
  8
0
  6
Continuous
 62
     7
100
AcDbSpline
210
0.0
220
0.0
230
1.0
 70
     8
 71
     3
 72
    39
 73
    35
 74
    33
 42
0.000000001
 43
0.0000000001
 44
0.00000001
 40
0.0
 40
0.0
 40
0.0
 40
0.0
 40
0.4660900542784941
 40
0.9322570124075211
 40
1.181323239708883
 40
1.430415308696123
 40
1.695056878245764
 40
1.959723323925041
 40
2.241043867497615
 40
2.522384111634122
 40
2.819455704554086
 40
3.116538715479504
 40
3.42680352024149
 40
3.737076290417837
 40
4.056783883415884
 40
4.376495650534333
 40
4.701116587435677
 40
5.02573892908598
 40
5.350361270736252
 40
5.674982207637624
 40
5.994693974756074
 40
6.314401567754194
 40
6.624674337930529
 40
6.934939142692508
 40
7.232022153617967
 40
7.529093746537879
 40
7.810433990674395
 40
8.091754534246945
 40
8.356420979926266
 40
8.621062549475928
 40
8.870154618463173
 40
9.11922084576452
 40
9.58538780389351
 40
10.051477858172
 40
10.051477858172
 40
10.051477858172
 40
10.051477858172
 10
192.525773442622
 20
208.980383569786
 30
0.0
 10
192.3700374285615
 20
208.9688919392063
 30
0.0
 10
192.0585397062993
 20
208.9459067686651
 30
0.0
 10
191.6880724025306
 20
208.7957864197367
 30
0.0
 10
191.4109894781134
 20
208.6327413029375
 30
0.0
 10
191.2065716442665
 20
208.4805850105833
 30
0.0
 10
191.0143099068543
 20
208.305799278077
 30
0.0
 10
190.8318482616715
 20
208.1060108509551
 30
0.0
 10
190.6640650047264
 20
207.8867200303965
 30
0.0
 10
190.5090337369969
 20
207.6453517470673
 30
0.0
 10
190.3705855448339
 20
207.3881258268878
 30
0.0
 10
190.2475238697291
 20
207.1126401843054
 30
0.0
 10
190.1424892579657
 20
206.8251027352651
 30
0.0
 10
190.0549981096124
 20
206.5239149671749
 30
0.0
 10
189.9865417037703
 20
206.2146142790774
 30
0.0
 10
189.9371455034235
 20
205.8968762456169
 30
0.0
 10
189.9073853612674
 20
205.5750569579921
 30
0.0
 10
189.8974674911465
 20
205.250383569786
 30
0.0
 10
189.9073853612673
 20
204.9257101815799
 30
0.0
 10
189.9371455034235
 20
204.6038908939552
 30
0.0
 10
189.9865417037702
 20
204.2861528604946
 30
0.0
 10
190.0549981096124
 20
203.976852172397
 30
0.0
 10
190.1424892579658
 20
203.6756644043069
 30
0.0
 10
190.2475238697293
 20
203.3881269552664
 30
0.0
 10
190.3705855448339
 20
203.1126413126843
 30
0.0
 10
190.509033736997
 20
202.8554153925046
 30
0.0
 10
190.6640650047264
 20
202.6140471091754
 30
0.0
 10
190.8318482616716
 20
202.3947562886169
 30
0.0
 10
191.0143099068542
 20
202.1949678614949
 30
0.0
 10
191.2065716442665
 20
202.0201821289886
 30
0.0
 10
191.4109894781133
 20
201.8680258366345
 30
0.0
 10
191.6880724025307
 20
201.7049807198352
 30
0.0
 10
192.0585397062991
 20
201.554860370907
 30
0.0
 10
192.3700374285616
 20
201.5318752003657
 30
0.0
 10
192.525773442622
 20
201.520383569786
 30
0.0
 11
192.525773442622
 21
208.980383569786
 31
0.0
 11
192.0633492316127
 21
208.9220415333088
 31
0.0
 11
191.6279705663922
 21
208.7554370453174
 31
0.0
 11
191.4134064715942
 21
208.6289608205573
 31
0.0
 11
191.213273442622
 21
208.4806583259019
 31
0.0
 11
191.0172149768356
 21
208.3029050176487
 31
0.0
 11
190.8384559671949
 21
208.1077293426198
 31
0.0
 11
190.6672304364124
 21
207.884518531969
 31
0.0
 11
190.5149067794347
 21
207.6479813539168
 31
0.0
 11
190.3738654689957
 21
207.3865260419728
 31
0.0
 11
190.2524567576878
 21
207.115383569786
 31
0.0
 11
190.1458119192563
 21
206.8240227497355
 31
0.0
 11
190.059080313059
 21
206.5261187043907
 31
0.0
 11
189.9898739676588
 21
206.2139914444475
 31
0.0
 11
189.940653090965
 21
205.8980912724837
 31
0.0
 11
189.9107175601231
 21
205.5748535649782
 31
0.0
 11
189.9007734426221
 21
205.250383569786
 31
0.0
 11
189.910717560123
 21
204.9259135745938
 31
0.0
 11
189.940653090965
 21
204.6026758670884
 31
0.0
 11
189.9898739676588
 21
204.2867756951246
 31
0.0
 11
190.059080313059
 21
203.9746484351812
 31
0.0
 11
190.1458119192564
 21
203.6767443898365
 31
0.0
 11
190.252456757688
 21
203.385383569786
 31
0.0
 11
190.3738654689958
 21
203.1142410975991
 31
0.0
 11
190.5149067794347
 21
202.8527857856552
 31
0.0
 11
190.6672304364124
 21
202.616248607603
 31
0.0
 11
190.8384559671949
 21
202.3930377969522
 31
0.0
 11
191.0172149768356
 21
202.1978621219232
 31
0.0
 11
191.213273442622
 21
202.02010881367
 31
0.0
 11
191.4134064715942
 21
201.8718063190146
 31
0.0
 11
191.6279705663922
 21
201.7453300942545
 31
0.0
 11
192.0633492316127
 21
201.5787256062632
 31
0.0
 11
192.525773442622
 21
201.520383569786
 31
0.0
  0
SPLINE
  5
18B
330
52
100
AcDbEntity
  8
0
  6
Continuous
 62
     7
100
AcDbSpline
210
0.0
220
0.0
230
1.0
 70
     8
 71
     3
 72
    39
 73
    35
 74
    33
 42
0.000000001
 43
0.0000000001
 44
0.00000001
 40
0.0
 40
0.0
 40
0.0
 40
0.0
 40
0.4660900542784977
 40
0.9322570124075044
 40
1.181323239708895
 40
1.430415308696135
 40
1.695056878245795
 40
1.959723323925072
 40
2.2410438674976
 40
2.522384111634107
 40
2.819455704554047
 40
3.116538715479491
 40
3.426803520241451
 40
3.737076290417825
 40
4.056783883415871
 40
4.376495650534321
 40
4.701116587435693
 40
5.025738929085968
 40
5.350361270736268
 40
5.674982207637612
 40
5.994693974756061
 40
6.314401567754182
 40
6.624674337930516
 40
6.934939142692495
 40
7.232022153617928
 40
7.529093746537865
 40
7.810433990674357
 40
8.091754534246931
 40
8.356420979926252
 40
8.621062549475914
 40
8.87015461846316
 40
9.119220845764492
 40
9.585387803893493
 40
10.05147785817199
 40
10.05147785817199
 40
10.05147785817199
 40
10.05147785817199
 10
192.525773442622
 20
221.980383569786
 30
0.0
 10
192.3700374285616
 20
221.9688919392063
 30
0.0
 10
192.0585397062992
 20
221.945906768665
 30
0.0
 10
191.6880724025306
 20
221.7957864197368
 30
0.0
 10
191.4109894781134
 20
221.6327413029374
 30
0.0
 10
191.2065716442665
 20
221.4805850105832
 30
0.0
 10
191.0143099068543
 20
221.3057992780769
 30
0.0
 10
190.8318482616716
 20
221.1060108509551
 30
0.0
 10
190.6640650047264
 20
220.8867200303965
 30
0.0
 10
190.5090337369969
 20
220.6453517470673
 30
0.0
 10
190.3705855448339
 20
220.3881258268878
 30
0.0
 10
190.2475238697292
 20
220.1126401843055
 30
0.0
 10
190.1424892579657
 20
219.8251027352651
 30
0.0
 10
190.0549981096124
 20
219.523914967175
 30
0.0
 10
189.9865417037703
 20
219.2146142790774
 30
0.0
 10
189.9371455034236
 20
218.8968762456169
 30
0.0
 10
189.9073853612674
 20
218.575056957992
 30
0.0
 10
189.8974674911465
 20
218.2503835697861
 30
0.0
 10
189.9073853612673
 20
217.9257101815799
 30
0.0
 10
189.9371455034235
 20
217.6038908939552
 30
0.0
 10
189.9865417037702
 20
217.2861528604946
 30
0.0
 10
190.0549981096124
 20
216.976852172397
 30
0.0
 10
190.1424892579658
 20
216.6756644043069
 30
0.0
 10
190.2475238697293
 20
216.3881269552665
 30
0.0
 10
190.370585544834
 20
216.1126413126844
 30
0.0
 10
190.509033736997
 20
215.8554153925047
 30
0.0
 10
190.6640650047264
 20
215.6140471091754
 30
0.0
 10
190.8318482616715
 20
215.3947562886169
 30
0.0
 10
191.0143099068542
 20
215.1949678614949
 30
0.0
 10
191.2065716442665
 20
215.0201821289886
 30
0.0
 10
191.4109894781134
 20
214.8680258366346
 30
0.0
 10
191.6880724025307
 20
214.7049807198352
 30
0.0
 10
192.0585397062992
 20
214.554860370907
 30
0.0
 10
192.3700374285615
 20
214.5318752003657
 30
0.0
 10
192.525773442622
 20
214.520383569786
 30
0.0
 11
192.525773442622
 21
221.980383569786
 31
0.0
 11
192.0633492316127
 21
221.9220415333088
 31
0.0
 11
191.6279705663922
 21
221.7554370453174
 31
0.0
 11
191.4134064715942
 21
221.6289608205573
 31
0.0
 11
191.213273442622
 21
221.4806583259019
 31
0.0
 11
191.0172149768356
 21
221.3029050176486
 31
0.0
 11
190.8384559671949
 21
221.1077293426198
 31
0.0
 11
190.6672304364124
 21
220.884518531969
 31
0.0
 11
190.5149067794347
 21
220.6479813539168
 31
0.0
 11
190.3738654689957
 21
220.3865260419729
 31
0.0
 11
190.2524567576878
 21
220.115383569786
 31
0.0
 11
190.1458119192563
 21
219.8240227497355
 31
0.0
 11
190.059080313059
 21
219.5261187043907
 31
0.0
 11
189.9898739676588
 21
219.2139914444475
 31
0.0
 11
189.940653090965
 21
218.8980912724837
 31
0.0
 11
189.9107175601231
 21
218.5748535649782
 31
0.0
 11
189.9007734426221
 21
218.250383569786
 31
0.0
 11
189.910717560123
 21
217.9259135745938
 31
0.0
 11
189.940653090965
 21
217.6026758670884
 31
0.0
 11
189.9898739676588
 21
217.2867756951246
 31
0.0
 11
190.059080313059
 21
216.9746484351812
 31
0.0
 11
190.1458119192564
 21
216.6767443898365
 31
0.0
 11
190.252456757688
 21
216.385383569786
 31
0.0
 11
190.3738654689958
 21
216.1142410975991
 31
0.0
 11
190.5149067794347
 21
215.8527857856552
 31
0.0
 11
190.6672304364124
 21
215.616248607603
 31
0.0
 11
190.8384559671949
 21
215.3930377969522
 31
0.0
 11
191.0172149768356
 21
215.1978621219232
 31
0.0
 11
191.213273442622
 21
215.02010881367
 31
0.0
 11
191.4134064715942
 21
214.8718063190146
 31
0.0
 11
191.6279705663922
 21
214.7453300942546
 31
0.0
 11
192.0633492316127
 21
214.5787256062632
 31
0.0
 11
192.525773442622
 21
214.520383569786
 31
0.0
  0
SPLINE
  5
18C
330
52
100
AcDbEntity
  8
0
  6
Continuous
 62
     7
100
AcDbSpline
210
0.0
220
0.0
230
1.0
 70
     8
 71
     3
 72
    39
 73
    35
 74
    33
 42
0.000000001
 43
0.0000000001
 44
0.00000001
 40
0.0
 40
0.0
 40
0.0
 40
0.0
 40
0.4660900542784941
 40
0.9322570124075008
 40
1.181323239708906
 40
1.430415308696146
 40
1.695056878245806
 40
1.959723323925104
 40
2.241043867497632
 40
2.522384111634115
 40
2.819455704554055
 40
3.116538715479525
 40
3.426803520241485
 40
3.737076290417831
 40
4.056783883415878
 40
4.376495650534327
 40
4.701116587435642
 40
5.025738929086002
 40
5.350361270736275
 40
5.67498220763759
 40
5.994693974756068
 40
6.314401567754188
 40
6.624674337930523
 40
6.934939142692502
 40
7.232022153617962
 40
7.529093746537874
 40
7.810433990674389
 40
8.09175453424694
 40
8.35642097992624
 40
8.621062549475921
 40
8.870154618463202
 40
9.119220845764534
 40
9.585387803893514
 40
10.05147785817202
 40
10.05147785817202
 40
10.05147785817202
 40
10.05147785817202
 10
192.525773442622
 20
234.980383569786
 30
0.0
 10
192.3700374285615
 20
234.9688919392063
 30
0.0
 10
192.0585397062992
 20
234.9459067686651
 30
0.0
 10
191.6880724025306
 20
234.7957864197368
 30
0.0
 10
191.4109894781133
 20
234.6327413029374
 30
0.0
 10
191.2065716442665
 20
234.4805850105833
 30
0.0
 10
191.0143099068542
 20
234.3057992780769
 30
0.0
 10
190.8318482616716
 20
234.106010850955
 30
0.0
 10
190.6640650047264
 20
233.8867200303965
 30
0.0
 10
190.509033736997
 20
233.6453517470673
 30
0.0
 10
190.3705855448338
 20
233.3881258268877
 30
0.0
 10
190.2475238697292
 20
233.1126401843055
 30
0.0
 10
190.1424892579657
 20
232.8251027352652
 30
0.0
 10
190.0549981096123
 20
232.5239149671748
 30
0.0
 10
189.9865417037703
 20
232.2146142790774
 30
0.0
 10
189.9371455034235
 20
231.8968762456169
 30
0.0
 10
189.9073853612674
 20
231.5750569579921
 30
0.0
 10
189.8974674911464
 20
231.250383569786
 30
0.0
 10
189.9073853612672
 20
230.9257101815799
 30
0.0
 10
189.9371455034234
 20
230.6038908939551
 30
0.0
 10
189.9865417037703
 20
230.2861528604947
 30
0.0
 10
190.0549981096124
 20
229.9768521723971
 30
0.0
 10
190.1424892579657
 20
229.6756644043068
 30
0.0
 10
190.2475238697293
 20
229.3881269552665
 30
0.0
 10
190.3705855448339
 20
229.1126413126843
 30
0.0
 10
190.509033736997
 20
228.8554153925046
 30
0.0
 10
190.6640650047264
 20
228.6140471091754
 30
0.0
 10
190.8318482616716
 20
228.3947562886169
 30
0.0
 10
191.0143099068542
 20
228.1949678614949
 30
0.0
 10
191.2065716442665
 20
228.0201821289886
 30
0.0
 10
191.4109894781132
 20
227.8680258366344
 30
0.0
 10
191.6880724025307
 20
227.7049807198351
 30
0.0
 10
192.0585397062991
 20
227.554860370907
 30
0.0
 10
192.3700374285616
 20
227.5318752003656
 30
0.0
 10
192.525773442622
 20
227.5203835697859
 30
0.0
 11
192.525773442622
 21
234.980383569786
 31
0.0
 11
192.0633492316127
 21
234.9220415333088
 31
0.0
 11
191.6279705663922
 21
234.7554370453175
 31
0.0
 11
191.4134064715942
 21
234.6289608205573
 31
0.0
 11
191.213273442622
 21
234.4806583259019
 31
0.0
 11
191.0172149768356
 21
234.3029050176486
 31
0.0
 11
190.8384559671949
 21
234.1077293426197
 31
0.0
 11
190.6672304364124
 21
233.884518531969
 31
0.0
 11
190.5149067794347
 21
233.6479813539168
 31
0.0
 11
190.3738654689957
 21
233.3865260419729
 31
0.0
 11
190.2524567576878
 21
233.115383569786
 31
0.0
 11
190.1458119192563
 21
232.8240227497355
 31
0.0
 11
190.059080313059
 21
232.5261187043907
 31
0.0
 11
189.9898739676588
 21
232.2139914444475
 31
0.0
 11
189.940653090965
 21
231.8980912724837
 31
0.0
 11
189.9107175601231
 21
231.5748535649782
 31
0.0
 11
189.9007734426221
 21
231.250383569786
 31
0.0
 11
189.910717560123
 21
230.9259135745938
 31
0.0
 11
189.940653090965
 21
230.6026758670884
 31
0.0
 11
189.9898739676588
 21
230.2867756951246
 31
0.0
 11
190.059080313059
 21
229.9746484351812
 31
0.0
 11
190.1458119192564
 21
229.6767443898365
 31
0.0
 11
190.252456757688
 21
229.385383569786
 31
0.0
 11
190.3738654689958
 21
229.1142410975991
 31
0.0
 11
190.5149067794347
 21
228.8527857856552
 31
0.0
 11
190.6672304364124
 21
228.616248607603
 31
0.0
 11
190.8384559671949
 21
228.3930377969522
 31
0.0
 11
191.0172149768356
 21
228.1978621219232
 31
0.0
 11
191.213273442622
 21
228.02010881367
 31
0.0
 11
191.4134064715942
 21
227.8718063190146
 31
0.0
 11
191.6279705663922
 21
227.7453300942545
 31
0.0
 11
192.0633492316127
 21
227.5787256062632
 31
0.0
 11
192.525773442622
 21
227.5203835697859
 31
0.0
  0
SPLINE
  5
18D
330
52
100
AcDbEntity
  8
0
  6
Continuous
 62
     7
100
AcDbSpline
210
0.0
220
0.0
230
1.0
 70
     8
 71
     3
 72
    39
 73
    35
 74
    33
 42
0.000000001
 43
0.0000000001
 44
0.00000001
 40
0.0
 40
0.0
 40
0.0
 40
0.0
 40
0.4660900542784941
 40
0.9322570124075008
 40
1.181323239708906
 40
1.430415308696129
 40
1.695056878245808
 40
1.959723323925085
 40
2.241043867497614
 40
2.522384111634121
 40
2.81945570455406
 40
3.116538715479557
 40
3.426803520241489
 40
3.737076290417836
 40
4.056783883415854
 40
4.376495650534332
 40
4.701116587435704
 40
5.025738929085979
 40
5.350361270736252
 40
5.674982207637624
 40
5.994693974756101
 40
6.314401567754194
 40
6.624674337930529
 40
6.934939142692508
 40
7.23202215361794
 40
7.529093746537852
 40
7.810433990674392
 40
8.091754534246967
 40
8.356420979926266
 40
8.621062549475928
 40
8.870154618463191
 40
9.119220845764554
 40
9.585387803893523
 40
10.05147785817203
 40
10.05147785817203
 40
10.05147785817203
 40
10.05147785817203
 10
192.525773442622
 20
247.980383569786
 30
0.0
 10
192.3700374285615
 20
247.9688919392063
 30
0.0
 10
192.0585397062992
 20
247.9459067686651
 30
0.0
 10
191.6880724025307
 20
247.7957864197369
 30
0.0
 10
191.4109894781134
 20
247.6327413029374
 30
0.0
 10
191.2065716442665
 20
247.4805850105834
 30
0.0
 10
191.0143099068543
 20
247.3057992780769
 30
0.0
 10
190.8318482616716
 20
247.1060108509551
 30
0.0
 10
190.6640650047263
 20
246.8867200303965
 30
0.0
 10
190.509033736997
 20
246.6453517470673
 30
0.0
 10
190.3705855448338
 20
246.3881258268877
 30
0.0
 10
190.2475238697292
 20
246.1126401843055
 30
0.0
 10
190.1424892579657
 20
245.8251027352651
 30
0.0
 10
190.0549981096124
 20
245.5239149671749
 30
0.0
 10
189.9865417037703
 20
245.2146142790773
 30
0.0
 10
189.9371455034235
 20
244.8968762456169
 30
0.0
 10
189.9073853612674
 20
244.5750569579921
 30
0.0
 10
189.8974674911465
 20
244.250383569786
 30
0.0
 10
189.9073853612672
 20
243.92571018158
 30
0.0
 10
189.9371455034235
 20
243.6038908939552
 30
0.0
 10
189.9865417037702
 20
243.2861528604946
 30
0.0
 10
190.0549981096123
 20
242.976852172397
 30
0.0
 10
190.1424892579657
 20
242.6756644043069
 30
0.0
 10
190.2475238697293
 20
242.3881269552665
 30
0.0
 10
190.3705855448339
 20
242.1126413126843
 30
0.0
 10
190.509033736997
 20
241.8554153925047
 30
0.0
 10
190.6640650047264
 20
241.6140471091754
 30
0.0
 10
190.8318482616716
 20
241.3947562886169
 30
0.0
 10
191.0143099068542
 20
241.1949678614949
 30
0.0
 10
191.2065716442665
 20
241.0201821289886
 30
0.0
 10
191.4109894781134
 20
240.8680258366345
 30
0.0
 10
191.6880724025307
 20
240.7049807198352
 30
0.0
 10
192.0585397062992
 20
240.554860370907
 30
0.0
 10
192.3700374285616
 20
240.5318752003656
 30
0.0
 10
192.525773442622
 20
240.5203835697859
 30
0.0
 11
192.525773442622
 21
247.980383569786
 31
0.0
 11
192.0633492316127
 21
247.9220415333088
 31
0.0
 11
191.6279705663922
 21
247.7554370453175
 31
0.0
 11
191.4134064715942
 21
247.6289608205573
 31
0.0
 11
191.213273442622
 21
247.4806583259019
 31
0.0
 11
191.0172149768356
 21
247.3029050176486
 31
0.0
 11
190.8384559671949
 21
247.1077293426198
 31
0.0
 11
190.6672304364124
 21
246.884518531969
 31
0.0
 11
190.5149067794347
 21
246.6479813539168
 31
0.0
 11
190.3738654689957
 21
246.3865260419729
 31
0.0
 11
190.2524567576878
 21
246.115383569786
 31
0.0
 11
190.1458119192563
 21
245.8240227497355
 31
0.0
 11
190.059080313059
 21
245.5261187043907
 31
0.0
 11
189.9898739676588
 21
245.2139914444475
 31
0.0
 11
189.940653090965
 21
244.8980912724837
 31
0.0
 11
189.9107175601231
 21
244.5748535649782
 31
0.0
 11
189.9007734426221
 21
244.250383569786
 31
0.0
 11
189.910717560123
 21
243.9259135745938
 31
0.0
 11
189.940653090965
 21
243.6026758670884
 31
0.0
 11
189.9898739676588
 21
243.2867756951245
 31
0.0
 11
190.059080313059
 21
242.9746484351812
 31
0.0
 11
190.1458119192564
 21
242.6767443898365
 31
0.0
 11
190.252456757688
 21
242.385383569786
 31
0.0
 11
190.3738654689958
 21
242.1142410975991
 31
0.0
 11
190.5149067794347
 21
241.8527857856552
 31
0.0
 11
190.6672304364124
 21
241.616248607603
 31
0.0
 11
190.8384559671949
 21
241.3930377969521
 31
0.0
 11
191.0172149768356
 21
241.1978621219232
 31
0.0
 11
191.213273442622
 21
241.02010881367
 31
0.0
 11
191.4134064715942
 21
240.8718063190146
 31
0.0
 11
191.6279705663922
 21
240.7453300942545
 31
0.0
 11
192.0633492316127
 21
240.5787256062632
 31
0.0
 11
192.525773442622
 21
240.5203835697859
 31
0.0
  0
SPLINE
  5
18E
330
52
100
AcDbEntity
  8
0
  6
Continuous
 62
     7
100
AcDbSpline
210
0.0
220
0.0
230
1.0
 70
     8
 71
     3
 72
    39
 73
    35
 74
    33
 42
0.000000001
 43
0.0000000001
 44
0.00000001
 40
0.0
 40
0.0
 40
0.0
 40
0.0
 40
0.4660900542784941
 40
0.9322570124075008
 40
1.181323239708892
 40
1.430415308696132
 40
1.695056878245829
 40
1.959723323925064
 40
2.241043867497661
 40
2.52238411163412
 40
2.819455704553984
 40
3.116538715479481
 40
3.42680352024144
 40
3.737076290417759
 40
4.056783883415862
 40
4.376495650534395
 40
4.701116587435711
 40
5.025738929086014
 40
5.350361270736315
 40
5.67498220763763
 40
5.994693974756107
 40
6.314401567754227
 40
6.624674337930507
 40
6.934939142692486
 40
7.232022153617971
 40
7.529093746537859
 40
7.81043399067435
 40
8.091754534246947
 40
8.356420979926247
 40
8.621062549475928
 40
8.870154618463191
 40
9.119220845764524
 40
9.585387803893525
 40
10.05147785817203
 40
10.05147785817203
 40
10.05147785817203
 40
10.05147785817203
 10
192.525773442622
 20
286.980383569786
 30
0.0
 10
192.3700374285615
 20
286.9688919392063
 30
0.0
 10
192.0585397062992
 20
286.9459067686651
 30
0.0
 10
191.6880724025306
 20
286.7957864197367
 30
0.0
 10
191.4109894781134
 20
286.6327413029375
 30
0.0
 10
191.2065716442665
 20
286.4805850105833
 30
0.0
 10
191.0143099068543
 20
286.3057992780768
 30
0.0
 10
190.8318482616715
 20
286.1060108509552
 30
0.0
 10
190.6640650047264
 20
285.8867200303964
 30
0.0
 10
190.509033736997
 20
285.6453517470674
 30
0.0
 10
190.3705855448338
 20
285.3881258268877
 30
0.0
 10
190.2475238697292
 20
285.1126401843056
 30
0.0
 10
190.1424892579657
 20
284.8251027352651
 30
0.0
 10
190.0549981096124
 20
284.523914967175
 30
0.0
 10
189.9865417037704
 20
284.2146142790774
 30
0.0
 10
189.9371455034235
 20
283.8968762456168
 30
0.0
 10
189.9073853612674
 20
283.575056957992
 30
0.0
 10
189.8974674911465
 20
283.2503835697861
 30
0.0
 10
189.9073853612672
 20
282.9257101815798
 30
0.0
 10
189.9371455034235
 20
282.6038908939552
 30
0.0
 10
189.9865417037702
 20
282.2861528604946
 30
0.0
 10
190.0549981096124
 20
281.9768521723971
 30
0.0
 10
190.1424892579657
 20
281.6756644043069
 30
0.0
 10
190.2475238697293
 20
281.3881269552665
 30
0.0
 10
190.3705855448339
 20
281.1126413126842
 30
0.0
 10
190.5090337369971
 20
280.8554153925047
 30
0.0
 10
190.6640650047264
 20
280.6140471091755
 30
0.0
 10
190.8318482616716
 20
280.3947562886169
 30
0.0
 10
191.0143099068542
 20
280.1949678614948
 30
0.0
 10
191.2065716442665
 20
280.0201821289886
 30
0.0
 10
191.4109894781133
 20
279.8680258366344
 30
0.0
 10
191.6880724025307
 20
279.7049807198354
 30
0.0
 10
192.0585397062992
 20
279.5548603709069
 30
0.0
 10
192.3700374285615
 20
279.5318752003656
 30
0.0
 10
192.525773442622
 20
279.5203835697859
 30
0.0
 11
192.525773442622
 21
286.980383569786
 31
0.0
 11
192.0633492316127
 21
286.9220415333088
 31
0.0
 11
191.6279705663922
 21
286.7554370453175
 31
0.0
 11
191.4134064715942
 21
286.6289608205573
 31
0.0
 11
191.213273442622
 21
286.4806583259019
 31
0.0
 11
191.0172149768356
 21
286.3029050176486
 31
0.0
 11
190.8384559671949
 21
286.1077293426198
 31
0.0
 11
190.6672304364124
 21
285.8845185319689
 31
0.0
 11
190.5149067794347
 21
285.6479813539168
 31
0.0
 11
190.3738654689957
 21
285.386526041973
 31
0.0
 11
190.2524567576878
 21
285.1153835697861
 31
0.0
 11
190.1458119192563
 21
284.8240227497355
 31
0.0
 11
190.059080313059
 21
284.5261187043908
 31
0.0
 11
189.9898739676588
 21
284.2139914444475
 31
0.0
 11
189.940653090965
 21
283.8980912724836
 31
0.0
 11
189.9107175601231
 21
283.5748535649782
 31
0.0
 11
189.9007734426221
 21
283.250383569786
 31
0.0
 11
189.910717560123
 21
282.9259135745938
 31
0.0
 11
189.940653090965
 21
282.6026758670884
 31
0.0
 11
189.9898739676588
 21
282.2867756951245
 31
0.0
 11
190.059080313059
 21
281.9746484351812
 31
0.0
 11
190.1458119192564
 21
281.6767443898365
 31
0.0
 11
190.252456757688
 21
281.385383569786
 31
0.0
 11
190.3738654689958
 21
281.1142410975991
 31
0.0
 11
190.5149067794347
 21
280.8527857856552
 31
0.0
 11
190.6672304364124
 21
280.616248607603
 31
0.0
 11
190.8384559671949
 21
280.3930377969522
 31
0.0
 11
191.0172149768356
 21
280.1978621219232
 31
0.0
 11
191.213273442622
 21
280.02010881367
 31
0.0
 11
191.4134064715942
 21
279.8718063190146
 31
0.0
 11
191.6279705663922
 21
279.7453300942545
 31
0.0
 11
192.0633492316127
 21
279.5787256062632
 31
0.0
 11
192.525773442622
 21
279.5203835697859
 31
0.0
  0
SPLINE
  5
18F
330
52
100
AcDbEntity
  8
0
  6
Continuous
 62
     7
100
AcDbSpline
210
0.0
220
0.0
230
1.0
 70
     8
 71
     3
 72
    39
 73
    35
 74
    33
 42
0.000000001
 43
0.0000000001
 44
0.00000001
 40
0.0
 40
0.0
 40
0.0
 40
0.0
 40
0.466090054278487
 40
0.9322570124075342
 40
1.181323239708896
 40
1.43041530869617
 40
1.69505687824583
 40
1.959723323925065
 40
2.241043867497616
 40
2.522384111634123
 40
2.819455704554038
 40
3.116538715479483
 40
3.426803520241442
 40
3.737076290417816
 40
4.056783883415918
 40
4.376495650534339
 40
4.701116587435711
 40
5.025738929086014
 40
5.350361270736258
 40
5.67498220763763
 40
5.994693974756107
 40
6.314401567754227
 40
6.624674337930507
 40
6.934939142692486
 40
7.232022153617971
 40
7.529093746537859
 40
7.810433990674398
 40
8.091754534246949
 40
8.356420979926206
 40
8.621062549475925
 40
8.870154618463188
 40
9.11922084576455
 40
9.58538780389353
 40
10.05147785817203
 40
10.05147785817203
 40
10.05147785817203
 40
10.05147785817203
 10
192.525773442622
 20
299.980383569786
 30
0.0
 10
192.3700374285615
 20
299.9688919392065
 30
0.0
 10
192.0585397062991
 20
299.945906768665
 30
0.0
 10
191.6880724025307
 20
299.7957864197367
 30
0.0
 10
191.4109894781133
 20
299.6327413029374
 30
0.0
 10
191.2065716442665
 20
299.4805850105832
 30
0.0
 10
191.0143099068543
 20
299.3057992780769
 30
0.0
 10
190.8318482616715
 20
299.106010850955
 30
0.0
 10
190.6640650047264
 20
298.8867200303965
 30
0.0
 10
190.509033736997
 20
298.6453517470674
 30
0.0
 10
190.3705855448339
 20
298.3881258268879
 30
0.0
 10
190.2475238697291
 20
298.1126401843055
 30
0.0
 10
190.1424892579657
 20
297.8251027352651
 30
0.0
 10
190.0549981096124
 20
297.523914967175
 30
0.0
 10
189.9865417037703
 20
297.2146142790774
 30
0.0
 10
189.9371455034235
 20
296.8968762456169
 30
0.0
 10
189.9073853612674
 20
296.5750569579921
 30
0.0
 10
189.8974674911464
 20
296.250383569786
 30
0.0
 10
189.9073853612673
 20
295.9257101815799
 30
0.0
 10
189.9371455034234
 20
295.6038908939551
 30
0.0
 10
189.9865417037702
 20
295.2861528604947
 30
0.0
 10
190.0549981096124
 20
294.976852172397
 30
0.0
 10
190.1424892579657
 20
294.6756644043069
 30
0.0
 10
190.2475238697293
 20
294.3881269552666
 30
0.0
 10
190.3705855448339
 20
294.1126413126842
 30
0.0
 10
190.509033736997
 20
293.8554153925047
 30
0.0
 10
190.6640650047264
 20
293.6140471091755
 30
0.0
 10
190.8318482616715
 20
293.3947562886169
 30
0.0
 10
191.0143099068543
 20
293.194967861495
 30
0.0
 10
191.2065716442665
 20
293.0201821289886
 30
0.0
 10
191.4109894781133
 20
292.8680258366344
 30
0.0
 10
191.6880724025307
 20
292.7049807198351
 30
0.0
 10
192.0585397062992
 20
292.554860370907
 30
0.0
 10
192.3700374285615
 20
292.5318752003656
 30
0.0
 10
192.525773442622
 20
292.5203835697859
 30
0.0
 11
192.525773442622
 21
299.980383569786
 31
0.0
 11
192.0633492316127
 21
299.9220415333089
 31
0.0
 11
191.6279705663922
 21
299.7554370453174
 31
0.0
 11
191.4134064715942
 21
299.6289608205573
 31
0.0
 11
191.213273442622
 21
299.4806583259019
 31
0.0
 11
191.0172149768356
 21
299.3029050176486
 31
0.0
 11
190.8384559671949
 21
299.1077293426198
 31
0.0
 11
190.6672304364124
 21
298.884518531969
 31
0.0
 11
190.5149067794347
 21
298.6479813539168
 31
0.0
 11
190.3738654689957
 21
298.3865260419729
 31
0.0
 11
190.2524567576878
 21
298.1153835697861
 31
0.0
 11
190.1458119192563
 21
297.8240227497355
 31
0.0
 11
190.059080313059
 21
297.5261187043907
 31
0.0
 11
189.9898739676588
 21
297.2139914444475
 31
0.0
 11
189.940653090965
 21
296.8980912724837
 31
0.0
 11
189.9107175601231
 21
296.5748535649782
 31
0.0
 11
189.9007734426221
 21
296.250383569786
 31
0.0
 11
189.910717560123
 21
295.9259135745938
 31
0.0
 11
189.940653090965
 21
295.6026758670884
 31
0.0
 11
189.9898739676588
 21
295.2867756951245
 31
0.0
 11
190.059080313059
 21
294.9746484351812
 31
0.0
 11
190.1458119192564
 21
294.6767443898365
 31
0.0
 11
190.252456757688
 21
294.385383569786
 31
0.0
 11
190.3738654689958
 21
294.1142410975991
 31
0.0
 11
190.5149067794347
 21
293.8527857856552
 31
0.0
 11
190.6672304364124
 21
293.616248607603
 31
0.0
 11
190.8384559671949
 21
293.3930377969522
 31
0.0
 11
191.0172149768356
 21
293.1978621219233
 31
0.0
 11
191.213273442622
 21
293.02010881367
 31
0.0
 11
191.4134064715942
 21
292.8718063190146
 31
0.0
 11
191.6279705663922
 21
292.7453300942545
 31
0.0
 11
192.0633492316127
 21
292.5787256062632
 31
0.0
 11
192.525773442622
 21
292.5203835697859
 31
0.0
  0
SPLINE
  5
190
330
52
100
AcDbEntity
  8
0
  6
Continuous
 62
     7
100
AcDbSpline
210
0.0
220
0.0
230
1.0
 70
     8
 71
     3
 72
    39
 73
    35
 74
    33
 42
0.000000001
 43
0.0000000001
 44
0.00000001
 40
0.0
 40
0.0
 40
0.0
 40
0.0
 40
0.4660900542784941
 40
0.9322570124075008
 40
1.181323239708863
 40
1.430415308696103
 40
1.6950568782458
 40
1.959723323925078
 40
2.241043867497674
 40
2.522384111634133
 40
2.819455704554048
 40
3.116538715479492
 40
3.426803520241398
 40
3.737076290417827
 40
4.056783883415929
 40
4.376495650534407
 40
4.701116587435722
 40
5.025738929086025
 40
5.350361270736326
 40
5.674982207637641
 40
5.994693974756119
 40
6.314401567754184
 40
6.62467433793052
 40
6.934939142692499
 40
7.232022153617931
 40
7.529093746537868
 40
7.81043399067436
 40
8.091754534246865
 40
8.356420979926208
 40
8.621062549475926
 40
8.87015461846319
 40
9.119220845764522
 40
9.585387803893521
 40
10.05147785817202
 40
10.05147785817202
 40
10.05147785817202
 40
10.05147785817202
 10
192.525773442622
 20
312.980383569786
 30
0.0
 10
192.3700374285615
 20
312.9688919392063
 30
0.0
 10
192.0585397062993
 20
312.9459067686651
 30
0.0
 10
191.6880724025307
 20
312.7957864197368
 30
0.0
 10
191.4109894781133
 20
312.6327413029375
 30
0.0
 10
191.2065716442665
 20
312.4805850105834
 30
0.0
 10
191.0143099068542
 20
312.3057992780768
 30
0.0
 10
190.8318482616716
 20
312.1060108509552
 30
0.0
 10
190.6640650047264
 20
311.8867200303965
 30
0.0
 10
190.509033736997
 20
311.6453517470673
 30
0.0
 10
190.3705855448338
 20
311.3881258268878
 30
0.0
 10
190.2475238697292
 20
311.1126401843055
 30
0.0
 10
190.1424892579657
 20
310.8251027352653
 30
0.0
 10
190.0549981096124
 20
310.5239149671749
 30
0.0
 10
189.9865417037703
 20
310.2146142790773
 30
0.0
 10
189.9371455034235
 20
309.8968762456169
 30
0.0
 10
189.9073853612674
 20
309.5750569579921
 30
0.0
 10
189.8974674911465
 20
309.250383569786
 30
0.0
 10
189.9073853612673
 20
308.9257101815799
 30
0.0
 10
189.9371455034234
 20
308.603890893955
 30
0.0
 10
189.9865417037703
 20
308.2861528604947
 30
0.0
 10
190.0549981096124
 20
307.9768521723971
 30
0.0
 10
190.1424892579657
 20
307.6756644043069
 30
0.0
 10
190.2475238697293
 20
307.3881269552666
 30
0.0
 10
190.370585544834
 20
307.1126413126844
 30
0.0
 10
190.509033736997
 20
306.8554153925047
 30
0.0
 10
190.6640650047263
 20
306.6140471091754
 30
0.0
 10
190.8318482616716
 20
306.394756288617
 30
0.0
 10
191.0143099068542
 20
306.194967861495
 30
0.0
 10
191.2065716442664
 20
306.0201821289886
 30
0.0
 10
191.4109894781133
 20
305.8680258366344
 30
0.0
 10
191.6880724025307
 20
305.7049807198353
 30
0.0
 10
192.0585397062992
 20
305.5548603709069
 30
0.0
 10
192.3700374285615
 20
305.5318752003656
 30
0.0
 10
192.525773442622
 20
305.5203835697859
 30
0.0
 11
192.525773442622
 21
312.980383569786
 31
0.0
 11
192.0633492316127
 21
312.9220415333088
 31
0.0
 11
191.6279705663922
 21
312.7554370453175
 31
0.0
 11
191.4134064715942
 21
312.6289608205574
 31
0.0
 11
191.213273442622
 21
312.480658325902
 31
0.0
 11
191.0172149768356
 21
312.3029050176487
 31
0.0
 11
190.8384559671949
 21
312.1077293426198
 31
0.0
 11
190.6672304364124
 21
311.8845185319689
 31
0.0
 11
190.5149067794347
 21
311.6479813539168
 31
0.0
 11
190.3738654689957
 21
311.3865260419729
 31
0.0
 11
190.2524567576878
 21
311.1153835697861
 31
0.0
 11
190.1458119192563
 21
310.8240227497356
 31
0.0
 11
190.059080313059
 21
310.5261187043907
 31
0.0
 11
189.9898739676588
 21
310.2139914444475
 31
0.0
 11
189.940653090965
 21
309.8980912724836
 31
0.0
 11
189.9107175601231
 21
309.5748535649782
 31
0.0
 11
189.9007734426221
 21
309.250383569786
 31
0.0
 11
189.910717560123
 21
308.9259135745938
 31
0.0
 11
189.940653090965
 21
308.6026758670884
 31
0.0
 11
189.9898739676588
 21
308.2867756951245
 31
0.0
 11
190.059080313059
 21
307.9746484351813
 31
0.0
 11
190.1458119192564
 21
307.6767443898365
 31
0.0
 11
190.252456757688
 21
307.385383569786
 31
0.0
 11
190.3738654689958
 21
307.1142410975992
 31
0.0
 11
190.5149067794347
 21
306.8527857856552
 31
0.0
 11
190.6672304364124
 21
306.616248607603
 31
0.0
 11
190.8384559671949
 21
306.3930377969523
 31
0.0
 11
191.0172149768356
 21
306.1978621219233
 31
0.0
 11
191.213273442622
 21
306.02010881367
 31
0.0
 11
191.4134064715942
 21
305.8718063190146
 31
0.0
 11
191.6279705663922
 21
305.7453300942545
 31
0.0
 11
192.0633492316127
 21
305.5787256062632
 31
0.0
 11
192.525773442622
 21
305.5203835697859
 31
0.0
  0
SPLINE
  5
191
330
52
100
AcDbEntity
  8
0
  6
Continuous
 62
     7
100
AcDbSpline
210
0.0
220
0.0
230
1.0
 70
     8
 71
     3
 72
    39
 73
    35
 74
    33
 42
0.000000001
 43
0.0000000001
 44
0.00000001
 40
0.0
 40
0.0
 40
0.0
 40
0.0
 40
0.4660900542785787
 40
0.9322570124076057
 40
1.181323239708919
 40
1.430415308696227
 40
1.695056878245868
 40
1.959723323925181
 40
2.241043867497721
 40
2.522384111634206
 40
2.819455704554158
 40
3.116538715479591
 40
3.426803520241577
 40
3.737076290417904
 40
4.056783883415958
 40
4.376495650534439
 40
4.701116587435806
 40
5.025738929086107
 40
5.350361270736351
 40
5.674982207637723
 40
5.994693974756168
 40
6.314401567754283
 40
6.62467433793061
 40
6.934939142692616
 40
7.232022153618011
 40
7.529093746537937
 40
7.810433990674461
 40
8.091754534247013
 40
8.356420979926408
 40
8.62106254947609
 40
8.870154618463296
 40
9.119220845764609
 40
9.585387803893573
 40
10.05147785817218
 40
10.05147785817218
 40
10.05147785817218
 40
10.05147785817218
 10
249.275773442622
 20
202.480383569786
 30
0.0
 10
249.4315094566825
 20
202.4688919392063
 30
0.0
 10
249.7430071789449
 20
202.445906768665
 30
0.0
 10
250.1134744827133
 20
202.2957864197367
 30
0.0
 10
250.3905574071308
 20
202.1327413029374
 30
0.0
 10
250.5949752409775
 20
201.9805850105833
 30
0.0
 10
250.7872369783898
 20
201.805799278077
 30
0.0
 10
250.9696986235727
 20
201.6060108509552
 30
0.0
 10
251.1374818805177
 20
201.3867200303965
 30
0.0
 10
251.2925131482471
 20
201.1453517470673
 30
0.0
 10
251.4309613404102
 20
200.8881258268878
 30
0.0
 10
251.5540230155149
 20
200.6126401843055
 30
0.0
 10
251.6590576272784
 20
200.3251027352651
 30
0.0
 10
251.7465487756317
 20
200.0239149671749
 30
0.0
 10
251.8150051814739
 20
199.7146142790775
 30
0.0
 10
251.8644013818206
 20
199.3968762456169
 30
0.0
 10
251.8941615239767
 20
199.075056957992
 30
0.0
 10
251.9040793940976
 20
198.750383569786
 30
0.0
 10
251.8941615239767
 20
198.42571018158
 30
0.0
 10
251.8644013818206
 20
198.1038908939551
 30
0.0
 10
251.8150051814739
 20
197.7861528604946
 30
0.0
 10
251.7465487756317
 20
197.4768521723971
 30
0.0
 10
251.6590576272783
 20
197.1756644043068
 30
0.0
 10
251.5540230155149
 20
196.8881269552666
 30
0.0
 10
251.4309613404102
 20
196.6126413126842
 30
0.0
 10
251.2925131482471
 20
196.3554153925047
 30
0.0
 10
251.1374818805178
 20
196.1140471091754
 30
0.0
 10
250.9696986235726
 20
195.8947562886169
 30
0.0
 10
250.7872369783897
 20
195.6949678614949
 30
0.0
 10
250.5949752409776
 20
195.5201821289886
 30
0.0
 10
250.3905574071307
 20
195.3680258366346
 30
0.0
 10
250.1134744827134
 20
195.2049807198352
 30
0.0
 10
249.7430071789449
 20
195.054860370907
 30
0.0
 10
249.4315094566825
 20
195.0318752003656
 30
0.0
 10
249.275773442622
 20
195.020383569786
 30
0.0
 11
249.275773442622
 21
202.480383569786
 31
0.0
 11
249.7381976536314
 21
202.4220415333088
 31
0.0
 11
250.173576318852
 21
202.2554370453174
 31
0.0
 11
250.3881404136499
 21
202.1289608205573
 31
0.0
 11
250.5882734426221
 21
201.9806583259019
 31
0.0
 11
250.7843319084085
 21
201.8029050176487
 31
0.0
 11
250.9630909180493
 21
201.6077293426198
 31
0.0
 11
251.1343164488317
 21
201.384518531969
 31
0.0
 11
251.2866401058094
 21
201.1479813539168
 31
0.0
 11
251.4276814162484
 21
200.8865260419729
 31
0.0
 11
251.5490901275562
 21
200.615383569786
 31
0.0
 11
251.6557349659878
 21
200.3240227497355
 31
0.0
 11
251.7424665721851
 21
200.0261187043908
 31
0.0
 11
251.8116729175853
 21
199.7139914444475
 31
0.0
 11
251.8608937942791
 21
199.3980912724837
 31
0.0
 11
251.890829325121
 21
199.0748535649782
 31
0.0
 11
251.900773442622
 21
198.750383569786
 31
0.0
 11
251.890829325121
 21
198.4259135745938
 31
0.0
 11
251.8608937942791
 21
198.1026758670884
 31
0.0
 11
251.8116729175853
 21
197.7867756951246
 31
0.0
 11
251.7424665721851
 21
197.4746484351812
 31
0.0
 11
251.6557349659878
 21
197.1767443898365
 31
0.0
 11
251.5490901275562
 21
196.8853835697859
 31
0.0
 11
251.4276814162484
 21
196.6142410975991
 31
0.0
 11
251.2866401058094
 21
196.3527857856552
 31
0.0
 11
251.1343164488317
 21
196.116248607603
 31
0.0
 11
250.9630909180492
 21
195.8930377969522
 31
0.0
 11
250.7843319084084
 21
195.6978621219232
 31
0.0
 11
250.588273442622
 21
195.52010881367
 31
0.0
 11
250.3881404136498
 21
195.3718063190146
 31
0.0
 11
250.1735763188519
 21
195.2453300942545
 31
0.0
 11
249.7381976536314
 21
195.0787256062632
 31
0.0
 11
249.275773442622
 21
195.020383569786
 31
0.0
  0
SPLINE
  5
192
330
52
100
AcDbEntity
  8
0
  6
Continuous
 62
     7
100
AcDbSpline
210
0.0
220
0.0
230
1.0
 70
     8
 71
     3
 72
    39
 73
    35
 74
    33
 42
0.000000001
 43
0.0000000001
 44
0.00000001
 40
0.0
 40
0.0
 40
0.0
 40
0.0
 40
0.4660900542785751
 40
0.9322570124076022
 40
1.181323239708944
 40
1.430415308696236
 40
1.695056878245876
 40
1.95972332392519
 40
2.241043867497729
 40
2.522384111634214
 40
2.819455704554141
 40
3.116538715479626
 40
3.426803520241559
 40
3.737076290417941
 40
4.056783883415966
 40
4.376495650534447
 40
4.701116587435785
 40
5.025738929086087
 40
5.350361270736387
 40
5.674982207637703
 40
5.994693974756176
 40
6.31440156775429
 40
6.62467433793059
 40
6.934939142692622
 40
7.232022153618043
 40
7.529093746537969
 40
7.810433990674469
 40
8.091754534247043
 40
8.356420979926417
 40
8.621062549476079
 40
8.870154618463303
 40
9.119220845764616
 40
9.58538780389358
 40
10.05147785817219
 40
10.05147785817219
 40
10.05147785817219
 40
10.05147785817219
 10
249.275773442622
 20
215.480383569786
 30
0.0
 10
249.4315094566825
 20
215.4688919392064
 30
0.0
 10
249.7430071789449
 20
215.4459067686651
 30
0.0
 10
250.1134744827135
 20
215.2957864197368
 30
0.0
 10
250.3905574071307
 20
215.1327413029374
 30
0.0
 10
250.5949752409776
 20
214.9805850105833
 30
0.0
 10
250.7872369783898
 20
214.805799278077
 30
0.0
 10
250.9696986235727
 20
214.6060108509552
 30
0.0
 10
251.1374818805178
 20
214.3867200303966
 30
0.0
 10
251.2925131482471
 20
214.1453517470673
 30
0.0
 10
251.4309613404102
 20
213.8881258268877
 30
0.0
 10
251.5540230155149
 20
213.6126401843055
 30
0.0
 10
251.6590576272784
 20
213.3251027352651
 30
0.0
 10
251.7465487756317
 20
213.0239149671749
 30
0.0
 10
251.8150051814737
 20
212.7146142790774
 30
0.0
 10
251.8644013818207
 20
212.3968762456169
 30
0.0
 10
251.8941615239767
 20
212.0750569579921
 30
0.0
 10
251.9040793940975
 20
211.750383569786
 30
0.0
 10
251.8941615239768
 20
211.4257101815799
 30
0.0
 10
251.8644013818206
 20
211.1038908939552
 30
0.0
 10
251.8150051814739
 20
210.7861528604946
 30
0.0
 10
251.7465487756317
 20
210.4768521723971
 30
0.0
 10
251.6590576272784
 20
210.1756644043068
 30
0.0
 10
251.5540230155148
 20
209.8881269552666
 30
0.0
 10
251.4309613404103
 20
209.6126413126842
 30
0.0
 10
251.2925131482471
 20
209.3554153925046
 30
0.0
 10
251.1374818805178
 20
209.1140471091754
 30
0.0
 10
250.9696986235726
 20
208.8947562886167
 30
0.0
 10
250.7872369783898
 20
208.694967861495
 30
0.0
 10
250.5949752409775
 20
208.5201821289886
 30
0.0
 10
250.3905574071307
 20
208.3680258366346
 30
0.0
 10
250.1134744827134
 20
208.2049807198352
 30
0.0
 10
249.743007178945
 20
208.054860370907
 30
0.0
 10
249.4315094566825
 20
208.0318752003656
 30
0.0
 10
249.275773442622
 20
208.020383569786
 30
0.0
 11
249.275773442622
 21
215.480383569786
 31
0.0
 11
249.7381976536314
 21
215.4220415333088
 31
0.0
 11
250.173576318852
 21
215.2554370453174
 31
0.0
 11
250.3881404136499
 21
215.1289608205573
 31
0.0
 11
250.5882734426221
 21
214.9806583259019
 31
0.0
 11
250.7843319084085
 21
214.8029050176487
 31
0.0
 11
250.9630909180493
 21
214.6077293426198
 31
0.0
 11
251.1343164488317
 21
214.384518531969
 31
0.0
 11
251.2866401058094
 21
214.1479813539168
 31
0.0
 11
251.4276814162484
 21
213.8865260419729
 31
0.0
 11
251.5490901275562
 21
213.615383569786
 31
0.0
 11
251.6557349659878
 21
213.3240227497355
 31
0.0
 11
251.7424665721851
 21
213.0261187043907
 31
0.0
 11
251.8116729175853
 21
212.7139914444475
 31
0.0
 11
251.8608937942791
 21
212.3980912724837
 31
0.0
 11
251.890829325121
 21
212.0748535649782
 31
0.0
 11
251.900773442622
 21
211.750383569786
 31
0.0
 11
251.890829325121
 21
211.4259135745938
 31
0.0
 11
251.8608937942791
 21
211.1026758670884
 31
0.0
 11
251.8116729175853
 21
210.7867756951246
 31
0.0
 11
251.7424665721851
 21
210.4746484351812
 31
0.0
 11
251.6557349659878
 21
210.1767443898366
 31
0.0
 11
251.5490901275562
 21
209.8853835697859
 31
0.0
 11
251.4276814162484
 21
209.6142410975991
 31
0.0
 11
251.2866401058094
 21
209.3527857856552
 31
0.0
 11
251.1343164488317
 21
209.116248607603
 31
0.0
 11
250.9630909180492
 21
208.8930377969521
 31
0.0
 11
250.7843319084084
 21
208.6978621219232
 31
0.0
 11
250.588273442622
 21
208.52010881367
 31
0.0
 11
250.3881404136498
 21
208.3718063190146
 31
0.0
 11
250.1735763188519
 21
208.2453300942545
 31
0.0
 11
249.7381976536314
 21
208.0787256062632
 31
0.0
 11
249.275773442622
 21
208.020383569786
 31
0.0
  0
SPLINE
  5
193
330
52
100
AcDbEntity
  8
0
  6
Continuous
 62
     7
100
AcDbSpline
210
0.0
220
0.0
230
1.0
 70
     8
 71
     3
 72
    39
 73
    35
 74
    33
 42
0.000000001
 43
0.0000000001
 44
0.00000001
 40
0.0
 40
0.0
 40
0.0
 40
0.0
 40
0.4660900542785751
 40
0.9322570124076022
 40
1.181323239708929
 40
1.430415308696255
 40
1.695056878245895
 40
1.959723323925251
 40
2.241043867497768
 40
2.522384111634205
 40
2.819455704554132
 40
3.116538715479618
 40
3.42680352024155
 40
3.737076290417932
 40
4.056783883415957
 40
4.376495650534467
 40
4.701116587435776
 40
5.025738929086049
 40
5.35036127073635
 40
5.674982207637722
 40
5.994693974756167
 40
6.314401567754254
 40
6.624674337930608
 40
6.934939142692613
 40
7.232022153618034
 40
7.529093746537935
 40
7.810433990674436
 40
8.09175453424701
 40
8.356420979926405
 40
8.621062549476086
 40
8.870154618463344
 40
9.119220845764628
 40
9.585387803893582
 40
10.0514778581722
 40
10.0514778581722
 40
10.0514778581722
 40
10.0514778581722
 10
249.275773442622
 20
228.480383569786
 30
0.0
 10
249.4315094566825
 20
228.4688919392064
 30
0.0
 10
249.7430071789448
 20
228.445906768665
 30
0.0
 10
250.1134744827136
 20
228.2957864197369
 30
0.0
 10
250.3905574071308
 20
228.1327413029373
 30
0.0
 10
250.5949752409776
 20
227.9805850105833
 30
0.0
 10
250.7872369783899
 20
227.805799278077
 30
0.0
 10
250.9696986235726
 20
227.6060108509551
 30
0.0
 10
251.1374818805178
 20
227.3867200303965
 30
0.0
 10
251.2925131482471
 20
227.1453517470673
 30
0.0
 10
251.4309613404103
 20
226.8881258268878
 30
0.0
 10
251.5540230155149
 20
226.6126401843054
 30
0.0
 10
251.6590576272784
 20
226.3251027352652
 30
0.0
 10
251.7465487756317
 20
226.0239149671749
 30
0.0
 10
251.8150051814739
 20
225.7146142790774
 30
0.0
 10
251.8644013818206
 20
225.3968762456168
 30
0.0
 10
251.8941615239767
 20
225.0750569579921
 30
0.0
 10
251.9040793940976
 20
224.7503835697861
 30
0.0
 10
251.8941615239767
 20
224.4257101815799
 30
0.0
 10
251.8644013818206
 20
224.1038908939551
 30
0.0
 10
251.8150051814739
 20
223.7861528604947
 30
0.0
 10
251.7465487756316
 20
223.476852172397
 30
0.0
 10
251.6590576272785
 20
223.1756644043069
 30
0.0
 10
251.5540230155148
 20
222.8881269552665
 30
0.0
 10
251.4309613404102
 20
222.6126413126842
 30
0.0
 10
251.2925131482471
 20
222.3554153925048
 30
0.0
 10
251.1374818805178
 20
222.1140471091754
 30
0.0
 10
250.9696986235726
 20
221.8947562886169
 30
0.0
 10
250.7872369783898
 20
221.694967861495
 30
0.0
 10
250.5949752409775
 20
221.5201821289886
 30
0.0
 10
250.3905574071307
 20
221.3680258366344
 30
0.0
 10
250.1134744827134
 20
221.2049807198352
 30
0.0
 10
249.7430071789449
 20
221.0548603709069
 30
0.0
 10
249.4315094566825
 20
221.0318752003656
 30
0.0
 10
249.275773442622
 20
221.0203835697859
 30
0.0
 11
249.275773442622
 21
228.480383569786
 31
0.0
 11
249.7381976536314
 21
228.4220415333088
 31
0.0
 11
250.173576318852
 21
228.2554370453174
 31
0.0
 11
250.3881404136499
 21
228.1289608205573
 31
0.0
 11
250.5882734426221
 21
227.9806583259019
 31
0.0
 11
250.7843319084085
 21
227.8029050176487
 31
0.0
 11
250.9630909180493
 21
227.6077293426198
 31
0.0
 11
251.1343164488317
 21
227.384518531969
 31
0.0
 11
251.2866401058094
 21
227.1479813539168
 31
0.0
 11
251.4276814162484
 21
226.8865260419729
 31
0.0
 11
251.5490901275562
 21
226.615383569786
 31
0.0
 11
251.6557349659878
 21
226.3240227497355
 31
0.0
 11
251.7424665721851
 21
226.0261187043907
 31
0.0
 11
251.8116729175853
 21
225.7139914444475
 31
0.0
 11
251.8608937942791
 21
225.3980912724836
 31
0.0
 11
251.890829325121
 21
225.0748535649782
 31
0.0
 11
251.900773442622
 21
224.750383569786
 31
0.0
 11
251.890829325121
 21
224.4259135745938
 31
0.0
 11
251.8608937942791
 21
224.1026758670884
 31
0.0
 11
251.8116729175853
 21
223.7867756951246
 31
0.0
 11
251.7424665721851
 21
223.4746484351813
 31
0.0
 11
251.6557349659878
 21
223.1767443898365
 31
0.0
 11
251.5490901275562
 21
222.8853835697859
 31
0.0
 11
251.4276814162484
 21
222.6142410975991
 31
0.0
 11
251.2866401058094
 21
222.3527857856552
 31
0.0
 11
251.1343164488317
 21
222.116248607603
 31
0.0
 11
250.9630909180492
 21
221.8930377969522
 31
0.0
 11
250.7843319084084
 21
221.6978621219232
 31
0.0
 11
250.588273442622
 21
221.52010881367
 31
0.0
 11
250.3881404136498
 21
221.3718063190146
 31
0.0
 11
250.1735763188519
 21
221.2453300942545
 31
0.0
 11
249.7381976536314
 21
221.0787256062632
 31
0.0
 11
249.275773442622
 21
221.0203835697859
 31
0.0
  0
SPLINE
  5
194
330
52
100
AcDbEntity
  8
0
  6
Continuous
 62
     7
100
AcDbSpline
210
0.0
220
0.0
230
1.0
 70
     8
 71
     3
 72
    39
 73
    35
 74
    33
 42
0.000000001
 43
0.0000000001
 44
0.00000001
 40
0.0
 40
0.0
 40
0.0
 40
0.0
 40
0.4660900542785787
 40
0.9322570124075854
 40
1.181323239708942
 40
1.430415308696233
 40
1.695056878245912
 40
1.959723323925226
 40
2.241043867497765
 40
2.522384111634202
 40
2.819455704554179
 40
3.116538715479586
 40
3.426803520241546
 40
3.737076290417928
 40
4.056783883415952
 40
4.376495650534434
 40
4.7011165874358
 40
5.025738929086102
 40
5.350361270736346
 40
5.674982207637689
 40
5.99469397475619
 40
6.314401567754277
 40
6.624674337930604
 40
6.93493914269261
 40
7.232022153618031
 40
7.529093746537932
 40
7.810433990674432
 40
8.091754534247006
 40
8.356420979926423
 40
8.621062549476084
 40
8.870154618463324
 40
9.119220845764637
 40
9.58538780389358
 40
10.0514778581722
 40
10.0514778581722
 40
10.0514778581722
 40
10.0514778581722
 10
249.275773442622
 20
241.480383569786
 30
0.0
 10
249.4315094566825
 20
241.4688919392063
 30
0.0
 10
249.7430071789448
 20
241.4459067686649
 30
0.0
 10
250.1134744827135
 20
241.2957864197369
 30
0.0
 10
250.3905574071307
 20
241.1327413029373
 30
0.0
 10
250.5949752409777
 20
240.9805850105834
 30
0.0
 10
250.7872369783898
 20
240.8057992780769
 30
0.0
 10
250.9696986235727
 20
240.6060108509552
 30
0.0
 10
251.1374818805178
 20
240.3867200303965
 30
0.0
 10
251.2925131482471
 20
240.1453517470673
 30
0.0
 10
251.4309613404103
 20
239.8881258268878
 30
0.0
 10
251.5540230155149
 20
239.6126401843055
 30
0.0
 10
251.6590576272785
 20
239.3251027352651
 30
0.0
 10
251.7465487756317
 20
239.0239149671749
 30
0.0
 10
251.8150051814738
 20
238.7146142790773
 30
0.0
 10
251.8644013818207
 20
238.3968762456169
 30
0.0
 10
251.8941615239767
 20
238.075056957992
 30
0.0
 10
251.9040793940976
 20
237.750383569786
 30
0.0
 10
251.8941615239768
 20
237.4257101815799
 30
0.0
 10
251.8644013818206
 20
237.1038908939551
 30
0.0
 10
251.815005181474
 20
236.7861528604947
 30
0.0
 10
251.7465487756317
 20
236.476852172397
 30
0.0
 10
251.6590576272784
 20
236.1756644043068
 30
0.0
 10
251.5540230155149
 20
235.8881269552665
 30
0.0
 10
251.4309613404102
 20
235.6126413126842
 30
0.0
 10
251.2925131482471
 20
235.3554153925048
 30
0.0
 10
251.1374818805178
 20
235.1140471091754
 30
0.0
 10
250.9696986235726
 20
234.8947562886169
 30
0.0
 10
250.7872369783898
 20
234.6949678614949
 30
0.0
 10
250.5949752409775
 20
234.5201821289886
 30
0.0
 10
250.3905574071307
 20
234.3680258366345
 30
0.0
 10
250.1134744827134
 20
234.2049807198352
 30
0.0
 10
249.7430071789449
 20
234.054860370907
 30
0.0
 10
249.4315094566825
 20
234.0318752003656
 30
0.0
 10
249.275773442622
 20
234.0203835697859
 30
0.0
 11
249.275773442622
 21
241.480383569786
 31
0.0
 11
249.7381976536314
 21
241.4220415333088
 31
0.0
 11
250.173576318852
 21
241.2554370453175
 31
0.0
 11
250.3881404136499
 21
241.1289608205573
 31
0.0
 11
250.5882734426221
 21
240.9806583259019
 31
0.0
 11
250.7843319084085
 21
240.8029050176486
 31
0.0
 11
250.9630909180493
 21
240.6077293426198
 31
0.0
 11
251.1343164488317
 21
240.384518531969
 31
0.0
 11
251.2866401058094
 21
240.1479813539168
 31
0.0
 11
251.4276814162484
 21
239.8865260419728
 31
0.0
 11
251.5490901275562
 21
239.615383569786
 31
0.0
 11
251.6557349659878
 21
239.3240227497355
 31
0.0
 11
251.7424665721851
 21
239.0261187043907
 31
0.0
 11
251.8116729175853
 21
238.7139914444475
 31
0.0
 11
251.8608937942791
 21
238.3980912724837
 31
0.0
 11
251.890829325121
 21
238.0748535649782
 31
0.0
 11
251.900773442622
 21
237.750383569786
 31
0.0
 11
251.890829325121
 21
237.4259135745938
 31
0.0
 11
251.8608937942791
 21
237.1026758670884
 31
0.0
 11
251.8116729175853
 21
236.7867756951245
 31
0.0
 11
251.7424665721851
 21
236.4746484351812
 31
0.0
 11
251.6557349659878
 21
236.1767443898365
 31
0.0
 11
251.5490901275562
 21
235.8853835697859
 31
0.0
 11
251.4276814162484
 21
235.6142410975991
 31
0.0
 11
251.2866401058094
 21
235.3527857856552
 31
0.0
 11
251.1343164488317
 21
235.116248607603
 31
0.0
 11
250.9630909180492
 21
234.8930377969522
 31
0.0
 11
250.7843319084084
 21
234.6978621219232
 31
0.0
 11
250.588273442622
 21
234.52010881367
 31
0.0
 11
250.3881404136498
 21
234.3718063190146
 31
0.0
 11
250.1735763188519
 21
234.2453300942545
 31
0.0
 11
249.7381976536314
 21
234.0787256062632
 31
0.0
 11
249.275773442622
 21
234.0203835697859
 31
0.0
  0
SPLINE
  5
195
330
52
100
AcDbEntity
  8
0
  6
Continuous
 62
     7
100
AcDbSpline
210
0.0
220
0.0
230
1.0
 70
     8
 71
     3
 72
    39
 73
    35
 74
    33
 42
0.000000001
 43
0.0000000001
 44
0.00000001
 40
0.0
 40
0.0
 40
0.0
 40
0.0
 40
0.4660900542785787
 40
0.9322570124076057
 40
1.181323239708947
 40
1.430415308696256
 40
1.695056878245916
 40
1.959723323925208
 40
2.241043867497725
 40
2.522384111634186
 40
2.819455704554114
 40
3.116538715479547
 40
3.426803520241506
 40
3.737076290417833
 40
4.056783883415997
 40
4.376495650534423
 40
4.701116587435846
 40
5.025738929086091
 40
5.350361270736392
 40
5.674982207637707
 40
5.994693974756124
 40
6.314401567754294
 40
6.624674337930566
 40
6.934939142692545
 40
7.232022153618018
 40
7.529093746537919
 40
7.810433990674444
 40
8.091754534246995
 40
8.35642097992639
 40
8.621062549476072
 40
8.870154618463312
 40
9.119220845764625
 40
9.585387803893578
 40
10.05147785817219
 40
10.05147785817219
 40
10.05147785817219
 40
10.05147785817219
 10
249.275773442622
 20
267.480383569786
 30
0.0
 10
249.4315094566825
 20
267.4688919392063
 30
0.0
 10
249.7430071789449
 20
267.445906768665
 30
0.0
 10
250.1134744827135
 20
267.2957864197368
 30
0.0
 10
250.3905574071308
 20
267.1327413029373
 30
0.0
 10
250.5949752409776
 20
266.9805850105833
 30
0.0
 10
250.7872369783898
 20
266.8057992780768
 30
0.0
 10
250.9696986235726
 20
266.606010850955
 30
0.0
 10
251.1374818805178
 20
266.3867200303966
 30
0.0
 10
251.292513148247
 20
266.1453517470672
 30
0.0
 10
251.4309613404103
 20
265.8881258268879
 30
0.0
 10
251.5540230155149
 20
265.6126401843055
 30
0.0
 10
251.6590576272783
 20
265.3251027352651
 30
0.0
 10
251.7465487756318
 20
265.023914967175
 30
0.0
 10
251.8150051814737
 20
264.7146142790774
 30
0.0
 10
251.8644013818207
 20
264.3968762456169
 30
0.0
 10
251.8941615239767
 20
264.075056957992
 30
0.0
 10
251.9040793940977
 20
263.750383569786
 30
0.0
 10
251.8941615239767
 20
263.4257101815799
 30
0.0
 10
251.8644013818206
 20
263.1038908939552
 30
0.0
 10
251.8150051814738
 20
262.7861528604947
 30
0.0
 10
251.7465487756317
 20
262.476852172397
 30
0.0
 10
251.6590576272784
 20
262.1756644043069
 30
0.0
 10
251.5540230155148
 20
261.8881269552665
 30
0.0
 10
251.4309613404103
 20
261.6126413126843
 30
0.0
 10
251.2925131482471
 20
261.3554153925047
 30
0.0
 10
251.1374818805178
 20
261.1140471091755
 30
0.0
 10
250.9696986235726
 20
260.8947562886169
 30
0.0
 10
250.7872369783897
 20
260.6949678614949
 30
0.0
 10
250.5949752409776
 20
260.5201821289887
 30
0.0
 10
250.3905574071307
 20
260.3680258366345
 30
0.0
 10
250.1134744827134
 20
260.2049807198351
 30
0.0
 10
249.7430071789449
 20
260.0548603709069
 30
0.0
 10
249.4315094566825
 20
260.0318752003657
 30
0.0
 10
249.275773442622
 20
260.0203835697859
 30
0.0
 11
249.275773442622
 21
267.480383569786
 31
0.0
 11
249.7381976536314
 21
267.4220415333088
 31
0.0
 11
250.173576318852
 21
267.2554370453174
 31
0.0
 11
250.3881404136499
 21
267.1289608205573
 31
0.0
 11
250.5882734426221
 21
266.9806583259019
 31
0.0
 11
250.7843319084085
 21
266.8029050176486
 31
0.0
 11
250.9630909180493
 21
266.6077293426198
 31
0.0
 11
251.1343164488317
 21
266.384518531969
 31
0.0
 11
251.2866401058094
 21
266.1479813539168
 31
0.0
 11
251.4276814162484
 21
265.8865260419729
 31
0.0
 11
251.5490901275562
 21
265.6153835697861
 31
0.0
 11
251.6557349659878
 21
265.3240227497355
 31
0.0
 11
251.7424665721851
 21
265.0261187043908
 31
0.0
 11
251.8116729175853
 21
264.7139914444475
 31
0.0
 11
251.8608937942791
 21
264.3980912724837
 31
0.0
 11
251.890829325121
 21
264.0748535649781
 31
0.0
 11
251.900773442622
 21
263.750383569786
 31
0.0
 11
251.890829325121
 21
263.4259135745938
 31
0.0
 11
251.8608937942791
 21
263.1026758670884
 31
0.0
 11
251.8116729175853
 21
262.7867756951246
 31
0.0
 11
251.7424665721851
 21
262.4746484351812
 31
0.0
 11
251.6557349659878
 21
262.1767443898365
 31
0.0
 11
251.5490901275562
 21
261.885383569786
 31
0.0
 11
251.4276814162484
 21
261.6142410975991
 31
0.0
 11
251.2866401058094
 21
261.3527857856552
 31
0.0
 11
251.1343164488317
 21
261.116248607603
 31
0.0
 11
250.9630909180492
 21
260.8930377969522
 31
0.0
 11
250.7843319084084
 21
260.6978621219232
 31
0.0
 11
250.588273442622
 21
260.52010881367
 31
0.0
 11
250.3881404136498
 21
260.3718063190146
 31
0.0
 11
250.1735763188519
 21
260.2453300942545
 31
0.0
 11
249.7381976536314
 21
260.0787256062632
 31
0.0
 11
249.275773442622
 21
260.0203835697859
 31
0.0
  0
SPLINE
  5
196
330
52
100
AcDbEntity
  8
0
  6
Continuous
 62
     7
100
AcDbSpline
210
0.0
220
0.0
230
1.0
 70
     8
 71
     3
 72
    39
 73
    35
 74
    33
 42
0.000000001
 43
0.0000000001
 44
0.00000001
 40
0.0
 40
0.0
 40
0.0
 40
0.0
 40
0.4660900542785787
 40
0.9322570124076057
 40
1.181323239708919
 40
1.430415308696227
 40
1.695056878245925
 40
1.959723323925218
 40
2.241043867497734
 40
2.522384111634195
 40
2.819455704554073
 40
3.116538715479558
 40
3.426803520241517
 40
3.737076290417845
 40
4.056783883416008
 40
4.376495650534434
 40
4.7011165874358
 40
5.025738929086102
 40
5.350361270736346
 40
5.674982207637718
 40
5.994693974756134
 40
6.314401567754304
 40
6.624674337930522
 40
6.934939142692555
 40
7.232022153618028
 40
7.529093746537929
 40
7.810433990674452
 40
8.091754534247004
 40
8.3564209799264
 40
8.62106254947608
 40
8.870154618463355
 40
9.11922084576461
 40
9.585387803893585
 40
10.0514778581722
 40
10.0514778581722
 40
10.0514778581722
 40
10.0514778581722
 10
249.275773442622
 20
280.480383569786
 30
0.0
 10
249.4315094566825
 20
280.4688919392063
 30
0.0
 10
249.7430071789449
 20
280.445906768665
 30
0.0
 10
250.1134744827133
 20
280.2957864197367
 30
0.0
 10
250.3905574071308
 20
280.1327413029374
 30
0.0
 10
250.5949752409776
 20
279.9805850105834
 30
0.0
 10
250.7872369783898
 20
279.8057992780768
 30
0.0
 10
250.9696986235727
 20
279.6060108509552
 30
0.0
 10
251.1374818805178
 20
279.3867200303965
 30
0.0
 10
251.292513148247
 20
279.1453517470673
 30
0.0
 10
251.4309613404103
 20
278.8881258268878
 30
0.0
 10
251.5540230155149
 20
278.6126401843055
 30
0.0
 10
251.6590576272784
 20
278.3251027352652
 30
0.0
 10
251.7465487756317
 20
278.0239149671749
 30
0.0
 10
251.8150051814738
 20
277.7146142790774
 30
0.0
 10
251.8644013818207
 20
277.3968762456169
 30
0.0
 10
251.8941615239767
 20
277.075056957992
 30
0.0
 10
251.9040793940977
 20
276.750383569786
 30
0.0
 10
251.8941615239767
 20
276.4257101815799
 30
0.0
 10
251.8644013818206
 20
276.1038908939552
 30
0.0
 10
251.8150051814738
 20
275.7861528604946
 30
0.0
 10
251.7465487756317
 20
275.4768521723971
 30
0.0
 10
251.6590576272783
 20
275.1756644043069
 30
0.0
 10
251.5540230155149
 20
274.8881269552666
 30
0.0
 10
251.4309613404103
 20
274.6126413126843
 30
0.0
 10
251.2925131482471
 20
274.3554153925046
 30
0.0
 10
251.1374818805178
 20
274.1140471091754
 30
0.0
 10
250.9696986235726
 20
273.8947562886169
 30
0.0
 10
250.7872369783898
 20
273.6949678614949
 30
0.0
 10
250.5949752409775
 20
273.5201821289886
 30
0.0
 10
250.3905574071308
 20
273.3680258366344
 30
0.0
 10
250.1134744827134
 20
273.2049807198353
 30
0.0
 10
249.7430071789449
 20
273.054860370907
 30
0.0
 10
249.4315094566825
 20
273.0318752003656
 30
0.0
 10
249.275773442622
 20
273.0203835697859
 30
0.0
 11
249.275773442622
 21
280.480383569786
 31
0.0
 11
249.7381976536314
 21
280.4220415333088
 31
0.0
 11
250.173576318852
 21
280.2554370453174
 31
0.0
 11
250.3881404136499
 21
280.1289608205573
 31
0.0
 11
250.5882734426221
 21
279.9806583259019
 31
0.0
 11
250.7843319084085
 21
279.8029050176486
 31
0.0
 11
250.9630909180493
 21
279.6077293426198
 31
0.0
 11
251.1343164488317
 21
279.384518531969
 31
0.0
 11
251.2866401058094
 21
279.1479813539168
 31
0.0
 11
251.4276814162484
 21
278.886526041973
 31
0.0
 11
251.5490901275562
 21
278.6153835697861
 31
0.0
 11
251.6557349659878
 21
278.3240227497355
 31
0.0
 11
251.7424665721851
 21
278.0261187043908
 31
0.0
 11
251.8116729175853
 21
277.7139914444475
 31
0.0
 11
251.8608937942791
 21
277.3980912724837
 31
0.0
 11
251.890829325121
 21
277.0748535649782
 31
0.0
 11
251.900773442622
 21
276.750383569786
 31
0.0
 11
251.890829325121
 21
276.4259135745938
 31
0.0
 11
251.8608937942791
 21
276.1026758670884
 31
0.0
 11
251.8116729175853
 21
275.7867756951246
 31
0.0
 11
251.7424665721851
 21
275.4746484351812
 31
0.0
 11
251.6557349659878
 21
275.1767443898366
 31
0.0
 11
251.5490901275562
 21
274.885383569786
 31
0.0
 11
251.4276814162484
 21
274.6142410975991
 31
0.0
 11
251.2866401058094
 21
274.3527857856552
 31
0.0
 11
251.1343164488317
 21
274.116248607603
 31
0.0
 11
250.9630909180492
 21
273.8930377969522
 31
0.0
 11
250.7843319084084
 21
273.6978621219232
 31
0.0
 11
250.588273442622
 21
273.52010881367
 31
0.0
 11
250.3881404136498
 21
273.3718063190145
 31
0.0
 11
250.1735763188519
 21
273.2453300942545
 31
0.0
 11
249.7381976536314
 21
273.0787256062632
 31
0.0
 11
249.275773442622
 21
273.0203835697859
 31
0.0
  0
SPLINE
  5
197
330
52
100
AcDbEntity
  8
0
  6
Continuous
 62
     7
100
AcDbSpline
210
0.0
220
0.0
230
1.0
 70
     8
 71
     3
 72
    39
 73
    35
 74
    33
 42
0.000000001
 43
0.0000000001
 44
0.00000001
 40
0.0
 40
0.0
 40
0.0
 40
0.0
 40
0.4660900542785716
 40
0.9322570124075986
 40
1.18132323970894
 40
1.430415308696249
 40
1.695056878245947
 40
1.959723323925239
 40
2.241043867497756
 40
2.522384111634217
 40
2.819455704554095
 40
3.11653871547958
 40
3.426803520241539
 40
3.737076290417866
 40
4.056783883416085
 40
4.376495650534455
 40
4.701116587435822
 40
5.025738929086123
 40
5.350361270736367
 40
5.674982207637739
 40
5.994693974756156
 40
6.314401567754325
 40
6.624674337930598
 40
6.93493914269263
 40
7.232022153618051
 40
7.529093746537952
 40
7.810433990674476
 40
8.091754534247027
 40
8.356420979926423
 40
8.621062549476104
 40
8.870154618463344
 40
9.119220845764657
 40
9.58538780389361
 40
10.05147785817223
 40
10.05147785817223
 40
10.05147785817223
 40
10.05147785817223
 10
249.275773442622
 20
293.480383569786
 30
0.0
 10
249.4315094566826
 20
293.4688919392064
 30
0.0
 10
249.7430071789448
 20
293.4459067686651
 30
0.0
 10
250.1134744827136
 20
293.2957864197369
 30
0.0
 10
250.3905574071307
 20
293.1327413029373
 30
0.0
 10
250.5949752409776
 20
292.9805850105833
 30
0.0
 10
250.7872369783898
 20
292.805799278077
 30
0.0
 10
250.9696986235727
 20
292.606010850955
 30
0.0
 10
251.1374818805178
 20
292.3867200303966
 30
0.0
 10
251.292513148247
 20
292.1453517470673
 30
0.0
 10
251.4309613404103
 20
291.8881258268878
 30
0.0
 10
251.5540230155149
 20
291.6126401843056
 30
0.0
 10
251.6590576272784
 20
291.3251027352651
 30
0.0
 10
251.7465487756317
 20
291.023914967175
 30
0.0
 10
251.8150051814738
 20
290.7146142790774
 30
0.0
 10
251.8644013818206
 20
290.3968762456169
 30
0.0
 10
251.8941615239767
 20
290.075056957992
 30
0.0
 10
251.9040793940976
 20
289.7503835697861
 30
0.0
 10
251.8941615239767
 20
289.4257101815799
 30
0.0
 10
251.8644013818206
 20
289.1038908939552
 30
0.0
 10
251.8150051814738
 20
288.7861528604946
 30
0.0
 10
251.7465487756317
 20
288.4768521723971
 30
0.0
 10
251.6590576272784
 20
288.1756644043068
 30
0.0
 10
251.5540230155148
 20
287.8881269552665
 30
0.0
 10
251.4309613404103
 20
287.6126413126843
 30
0.0
 10
251.292513148247
 20
287.3554153925046
 30
0.0
 10
251.1374818805178
 20
287.1140471091754
 30
0.0
 10
250.9696986235727
 20
286.8947562886169
 30
0.0
 10
250.7872369783897
 20
286.6949678614949
 30
0.0
 10
250.5949752409776
 20
286.5201821289887
 30
0.0
 10
250.3905574071307
 20
286.3680258366345
 30
0.0
 10
250.1134744827134
 20
286.2049807198351
 30
0.0
 10
249.7430071789449
 20
286.054860370907
 30
0.0
 10
249.4315094566825
 20
286.0318752003656
 30
0.0
 10
249.275773442622
 20
286.0203835697859
 30
0.0
 11
249.275773442622
 21
293.480383569786
 31
0.0
 11
249.7381976536314
 21
293.4220415333089
 31
0.0
 11
250.173576318852
 21
293.2554370453175
 31
0.0
 11
250.3881404136499
 21
293.1289608205573
 31
0.0
 11
250.5882734426221
 21
292.9806583259019
 31
0.0
 11
250.7843319084085
 21
292.8029050176486
 31
0.0
 11
250.9630909180493
 21
292.6077293426198
 31
0.0
 11
251.1343164488317
 21
292.384518531969
 31
0.0
 11
251.2866401058094
 21
292.1479813539168
 31
0.0
 11
251.4276814162484
 21
291.886526041973
 31
0.0
 11
251.5490901275562
 21
291.6153835697861
 31
0.0
 11
251.6557349659878
 21
291.3240227497355
 31
0.0
 11
251.7424665721851
 21
291.0261187043908
 31
0.0
 11
251.8116729175853
 21
290.7139914444474
 31
0.0
 11
251.8608937942791
 21
290.3980912724837
 31
0.0
 11
251.890829325121
 21
290.0748535649782
 31
0.0
 11
251.900773442622
 21
289.750383569786
 31
0.0
 11
251.890829325121
 21
289.4259135745938
 31
0.0
 11
251.8608937942791
 21
289.1026758670884
 31
0.0
 11
251.8116729175853
 21
288.7867756951246
 31
0.0
 11
251.7424665721851
 21
288.4746484351812
 31
0.0
 11
251.6557349659878
 21
288.1767443898365
 31
0.0
 11
251.5490901275562
 21
287.8853835697859
 31
0.0
 11
251.4276814162484
 21
287.6142410975991
 31
0.0
 11
251.2866401058094
 21
287.3527857856552
 31
0.0
 11
251.1343164488317
 21
287.116248607603
 31
0.0
 11
250.9630909180492
 21
286.8930377969522
 31
0.0
 11
250.7843319084084
 21
286.6978621219232
 31
0.0
 11
250.588273442622
 21
286.52010881367
 31
0.0
 11
250.3881404136498
 21
286.3718063190146
 31
0.0
 11
250.1735763188519
 21
286.2453300942545
 31
0.0
 11
249.7381976536314
 21
286.0787256062632
 31
0.0
 11
249.275773442622
 21
286.0203835697859
 31
0.0
  0
SPLINE
  5
198
330
52
100
AcDbEntity
  8
0
  6
Continuous
 62
     7
100
AcDbSpline
210
0.0
220
0.0
230
1.0
 70
     8
 71
     3
 72
    39
 73
    35
 74
    33
 42
0.000000001
 43
0.0000000001
 44
0.00000001
 40
0.0
 40
0.0
 40
0.0
 40
0.0
 40
0.4660900542785787
 40
0.9322570124075854
 40
1.181323239708927
 40
1.430415308696202
 40
1.6950568782459
 40
1.959723323925235
 40
2.241043867497751
 40
2.522384111634212
 40
2.81945570455409
 40
3.116538715479575
 40
3.426803520241534
 40
3.737076290417916
 40
4.05678388341608
 40
4.376495650534506
 40
4.701116587435815
 40
5.025738929086117
 40
5.350361270736418
 40
5.674982207637733
 40
5.994693974756206
 40
6.31440156775432
 40
6.624674337930593
 40
6.934939142692572
 40
7.232022153617993
 40
7.529093746537994
 40
7.81043399067447
 40
8.091754534247022
 40
8.356420979926417
 40
8.621062549476099
 40
8.870154618463339
 40
9.119220845764652
 40
9.585387803893605
 40
10.05147785817222
 40
10.05147785817222
 40
10.05147785817222
 40
10.05147785817222
 10
249.275773442622
 20
306.480383569786
 30
0.0
 10
249.4315094566825
 20
306.4688919392064
 30
0.0
 10
249.7430071789448
 20
306.4459067686649
 30
0.0
 10
250.1134744827135
 20
306.2957864197369
 30
0.0
 10
250.3905574071307
 20
306.1327413029373
 30
0.0
 10
250.5949752409778
 20
305.9805850105835
 30
0.0
 10
250.7872369783898
 20
305.8057992780769
 30
0.0
 10
250.9696986235727
 20
305.6060108509552
 30
0.0
 10
251.1374818805178
 20
305.3867200303965
 30
0.0
 10
251.2925131482471
 20
305.1453517470673
 30
0.0
 10
251.4309613404102
 20
304.8881258268878
 30
0.0
 10
251.5540230155149
 20
304.6126401843056
 30
0.0
 10
251.6590576272784
 20
304.3251027352652
 30
0.0
 10
251.7465487756317
 20
304.0239149671749
 30
0.0
 10
251.8150051814738
 20
303.7146142790774
 30
0.0
 10
251.8644013818207
 20
303.3968762456169
 30
0.0
 10
251.8941615239767
 20
303.075056957992
 30
0.0
 10
251.9040793940976
 20
302.750383569786
 30
0.0
 10
251.8941615239767
 20
302.4257101815799
 30
0.0
 10
251.8644013818206
 20
302.1038908939551
 30
0.0
 10
251.8150051814739
 20
301.7861528604946
 30
0.0
 10
251.7465487756316
 20
301.4768521723969
 30
0.0
 10
251.6590576272785
 20
301.175664404307
 30
0.0
 10
251.5540230155148
 20
300.8881269552664
 30
0.0
 10
251.4309613404102
 20
300.6126413126842
 30
0.0
 10
251.2925131482471
 20
300.3554153925047
 30
0.0
 10
251.1374818805178
 20
300.1140471091754
 30
0.0
 10
250.9696986235726
 20
299.8947562886169
 30
0.0
 10
250.7872369783898
 20
299.694967861495
 30
0.0
 10
250.5949752409776
 20
299.5201821289887
 30
0.0
 10
250.3905574071307
 20
299.3680258366346
 30
0.0
 10
250.1134744827134
 20
299.2049807198351
 30
0.0
 10
249.7430071789449
 20
299.0548603709069
 30
0.0
 10
249.4315094566825
 20
299.0318752003656
 30
0.0
 10
249.275773442622
 20
299.0203835697859
 30
0.0
 11
249.275773442622
 21
306.480383569786
 31
0.0
 11
249.7381976536314
 21
306.4220415333088
 31
0.0
 11
250.173576318852
 21
306.2554370453175
 31
0.0
 11
250.3881404136499
 21
306.1289608205573
 31
0.0
 11
250.5882734426221
 21
305.980658325902
 31
0.0
 11
250.7843319084085
 21
305.8029050176487
 31
0.0
 11
250.9630909180493
 21
305.6077293426198
 31
0.0
 11
251.1343164488317
 21
305.384518531969
 31
0.0
 11
251.2866401058094
 21
305.1479813539168
 31
0.0
 11
251.4276814162484
 21
304.886526041973
 31
0.0
 11
251.5490901275562
 21
304.6153835697861
 31
0.0
 11
251.6557349659878
 21
304.3240227497355
 31
0.0
 11
251.7424665721851
 21
304.0261187043907
 31
0.0
 11
251.8116729175853
 21
303.7139914444474
 31
0.0
 11
251.8608937942791
 21
303.3980912724836
 31
0.0
 11
251.890829325121
 21
303.0748535649782
 31
0.0
 11
251.900773442622
 21
302.750383569786
 31
0.0
 11
251.890829325121
 21
302.4259135745938
 31
0.0
 11
251.8608937942791
 21
302.1026758670884
 31
0.0
 11
251.8116729175853
 21
301.7867756951245
 31
0.0
 11
251.7424665721851
 21
301.4746484351812
 31
0.0
 11
251.6557349659878
 21
301.1767443898365
 31
0.0
 11
251.5490901275562
 21
300.885383569786
 31
0.0
 11
251.4276814162484
 21
300.6142410975992
 31
0.0
 11
251.2866401058094
 21
300.3527857856552
 31
0.0
 11
251.1343164488317
 21
300.116248607603
 31
0.0
 11
250.9630909180492
 21
299.8930377969522
 31
0.0
 11
250.7843319084084
 21
299.6978621219232
 31
0.0
 11
250.588273442622
 21
299.52010881367
 31
0.0
 11
250.3881404136498
 21
299.3718063190146
 31
0.0
 11
250.1735763188519
 21
299.2453300942545
 31
0.0
 11
249.7381976536314
 21
299.0787256062632
 31
0.0
 11
249.275773442622
 21
299.0203835697859
 31
0.0
  0
ARC
  5
199
330
52
100
AcDbEntity
  8
0
  6
Continuous
 62
     7
100
AcDbCircle
 10
192.8507734426221
 20
266.0203835697859
 30
0.0
 40
0.5
100
AcDbArc
 50
0.0
 51
90.0
  0
ARC
  5
19A
330
52
100
AcDbEntity
  8
0
  6
Continuous
 62
     7
100
AcDbCircle
 10
192.8507734426221
 20
261.480383569786
 30
0.0
 40
0.5
100
AcDbArc
 50
270.0
 51
0.0
  0
ARC
  5
19B
330
52
100
AcDbEntity
  8
0
  6
Continuous
 62
     7
100
AcDbCircle
 10
248.9507734426221
 20
254.980383569786
 30
0.0
 40
0.5
100
AcDbArc
 50
180.0
 51
270.0
  0
ARC
  5
19C
330
52
100
AcDbEntity
  8
0
  6
Continuous
 62
     7
100
AcDbCircle
 10
248.9507734426221
 20
246.5203835697859
 30
0.0
 40
0.5
100
AcDbArc
 50
90.0
 51
180.0
  0
ARC
  5
19D
330
52
100
AcDbEntity
  8
0
  6
Continuous
 62
     7
100
AcDbCircle
 10
192.8507734426221
 20
183.480383569786
 30
0.0
 40
0.5
100
AcDbArc
 50
270.0
 51
0.0
  0
ARC
  5
19E
330
52
100
AcDbEntity
  8
0
  6
Continuous
 62
     7
100
AcDbCircle
 10
192.8507734426221
 20
188.020383569786
 30
0.0
 40
0.5
100
AcDbArc
 50
0.0
 51
90.0
  0
ARC
  5
19F
330
52
100
AcDbEntity
  8
0
  6
Continuous
 62
     7
100
AcDbCircle
 10
192.8507734426221
 20
196.480383569786
 30
0.0
 40
0.5
100
AcDbArc
 50
270.0
 51
0.0
  0
ARC
  5
1A0
330
52
100
AcDbEntity
  8
0
  6
Continuous
 62
     7
100
AcDbCircle
 10
192.8507734426221
 20
201.020383569786
 30
0.0
 40
0.5
100
AcDbArc
 50
0.0
 51
90.0
  0
ARC
  5
1A1
330
52
100
AcDbEntity
  8
0
  6
Continuous
 62
     7
100
AcDbCircle
 10
192.8507734426221
 20
209.480383569786
 30
0.0
 40
0.5
100
AcDbArc
 50
270.0
 51
0.0
  0
ARC
  5
1A2
330
52
100
AcDbEntity
  8
0
  6
Continuous
 62
     7
100
AcDbCircle
 10
192.8507734426221
 20
214.020383569786
 30
0.0
 40
0.5
100
AcDbArc
 50
0.0
 51
90.0
  0
ARC
  5
1A3
330
52
100
AcDbEntity
  8
0
  6
Continuous
 62
     7
100
AcDbCircle
 10
192.8507734426221
 20
222.480383569786
 30
0.0
 40
0.5
100
AcDbArc
 50
270.0
 51
0.0
  0
ARC
  5
1A4
330
52
100
AcDbEntity
  8
0
  6
Continuous
 62
     7
100
AcDbCircle
 10
192.8507734426221
 20
227.0203835697859
 30
0.0
 40
0.5
100
AcDbArc
 50
0.0
 51
90.0
  0
ARC
  5
1A5
330
52
100
AcDbEntity
  8
0
  6
Continuous
 62
     7
100
AcDbCircle
 10
192.8507734426221
 20
235.480383569786
 30
0.0
 40
0.5
100
AcDbArc
 50
270.0
 51
0.0
  0
ARC
  5
1A6
330
52
100
AcDbEntity
  8
0
  6
Continuous
 62
     7
100
AcDbCircle
 10
192.8507734426221
 20
240.0203835697859
 30
0.0
 40
0.5
100
AcDbArc
 50
0.0
 51
90.0
  0
ARC
  5
1A7
330
52
100
AcDbEntity
  8
0
  6
Continuous
 62
     7
100
AcDbCircle
 10
192.8507734426221
 20
248.480383569786
 30
0.0
 40
0.5
100
AcDbArc
 50
270.0
 51
0.0
  0
ARC
  5
1A8
330
52
100
AcDbEntity
  8
0
  6
Continuous
 62
     7
100
AcDbCircle
 10
192.8507734426221
 20
253.0203835697859
 30
0.0
 40
0.5
100
AcDbArc
 50
0.0
 51
90.0
  0
ARC
  5
1A9
330
52
100
AcDbEntity
  8
0
  6
Continuous
 62
     7
100
AcDbCircle
 10
192.8507734426221
 20
274.480383569786
 30
0.0
 40
0.5
100
AcDbArc
 50
270.0
 51
0.0
  0
ARC
  5
1AA
330
52
100
AcDbEntity
  8
0
  6
Continuous
 62
     7
100
AcDbCircle
 10
192.8507734426221
 20
279.0203835697859
 30
0.0
 40
0.5
100
AcDbArc
 50
0.0
 51
90.0
  0
ARC
  5
1AB
330
52
100
AcDbEntity
  8
0
  6
Continuous
 62
     7
100
AcDbCircle
 10
192.8507734426221
 20
287.480383569786
 30
0.0
 40
0.5
100
AcDbArc
 50
270.0
 51
0.0
  0
ARC
  5
1AC
330
52
100
AcDbEntity
  8
0
  6
Continuous
 62
     7
100
AcDbCircle
 10
192.8507734426221
 20
292.0203835697859
 30
0.0
 40
0.5
100
AcDbArc
 50
0.0
 51
90.0
  0
ARC
  5
1AD
330
52
100
AcDbEntity
  8
0
  6
Continuous
 62
     7
100
AcDbCircle
 10
192.8507734426221
 20
300.480383569786
 30
0.0
 40
0.5
100
AcDbArc
 50
270.0
 51
0.0
  0
ARC
  5
1AE
330
52
100
AcDbEntity
  8
0
  6
Continuous
 62
     7
100
AcDbCircle
 10
192.8507734426221
 20
305.0203835697859
 30
0.0
 40
0.5
100
AcDbArc
 50
0.0
 51
90.0
  0
ARC
  5
1AF
330
52
100
AcDbEntity
  8
0
  6
Continuous
 62
     7
100
AcDbCircle
 10
192.8507734426221
 20
313.480383569786
 30
0.0
 40
0.5
100
AcDbArc
 50
270.0
 51
0.0
  0
ARC
  5
1B0
330
52
100
AcDbEntity
  8
0
  6
Continuous
 62
     7
100
AcDbCircle
 10
192.8507734426221
 20
318.0203835697859
 30
0.0
 40
0.5
100
AcDbArc
 50
0.0
 51
90.0
  0
ARC
  5
1B1
330
52
100
AcDbEntity
  8
0
  6
Continuous
 62
     7
100
AcDbCircle
 10
248.9507734426221
 20
189.980383569786
 30
0.0
 40
0.5
100
AcDbArc
 50
180.0
 51
270.0
  0
ARC
  5
1B2
330
52
100
AcDbEntity
  8
0
  6
Continuous
 62
     7
100
AcDbCircle
 10
248.9507734426221
 20
194.520383569786
 30
0.0
 40
0.5
100
AcDbArc
 50
90.0
 51
180.0
  0
ARC
  5
1B3
330
52
100
AcDbEntity
  8
0
  6
Continuous
 62
     7
100
AcDbCircle
 10
248.9507734426221
 20
202.980383569786
 30
0.0
 40
0.5
100
AcDbArc
 50
180.0
 51
270.0
  0
ARC
  5
1B4
330
52
100
AcDbEntity
  8
0
  6
Continuous
 62
     7
100
AcDbCircle
 10
248.9507734426221
 20
207.520383569786
 30
0.0
 40
0.5
100
AcDbArc
 50
90.0
 51
180.0
  0
ARC
  5
1B5
330
52
100
AcDbEntity
  8
0
  6
Continuous
 62
     7
100
AcDbCircle
 10
248.9507734426221
 20
215.980383569786
 30
0.0
 40
0.5
100
AcDbArc
 50
180.0
 51
270.0
  0
ARC
  5
1B6
330
52
100
AcDbEntity
  8
0
  6
Continuous
 62
     7
100
AcDbCircle
 10
248.9507734426221
 20
220.5203835697859
 30
0.0
 40
0.5
100
AcDbArc
 50
90.0
 51
180.0
  0
ARC
  5
1B7
330
52
100
AcDbEntity
  8
0
  6
Continuous
 62
     7
100
AcDbCircle
 10
248.9507734426221
 20
228.980383569786
 30
0.0
 40
0.5
100
AcDbArc
 50
180.0
 51
270.0
  0
ARC
  5
1B8
330
52
100
AcDbEntity
  8
0
  6
Continuous
 62
     7
100
AcDbCircle
 10
248.9507734426221
 20
233.5203835697859
 30
0.0
 40
0.5
100
AcDbArc
 50
90.0
 51
180.0
  0
ARC
  5
1B9
330
52
100
AcDbEntity
  8
0
  6
Continuous
 62
     7
100
AcDbCircle
 10
248.9507734426221
 20
241.980383569786
 30
0.0
 40
0.5
100
AcDbArc
 50
180.0
 51
270.0
  0
ARC
  5
1BA
330
52
100
AcDbEntity
  8
0
  6
Continuous
 62
     7
100
AcDbCircle
 10
248.9507734426221
 20
259.5203835697859
 30
0.0
 40
0.5
100
AcDbArc
 50
90.0
 51
180.0
  0
ARC
  5
1BB
330
52
100
AcDbEntity
  8
0
  6
Continuous
 62
     7
100
AcDbCircle
 10
248.9507734426221
 20
267.980383569786
 30
0.0
 40
0.5
100
AcDbArc
 50
180.0
 51
270.0
  0
ARC
  5
1BC
330
52
100
AcDbEntity
  8
0
  6
Continuous
 62
     7
100
AcDbCircle
 10
248.9507734426221
 20
272.5203835697859
 30
0.0
 40
0.5
100
AcDbArc
 50
90.0
 51
180.0
  0
ARC
  5
1BD
330
52
100
AcDbEntity
  8
0
  6
Continuous
 62
     7
100
AcDbCircle
 10
248.9507734426221
 20
280.980383569786
 30
0.0
 40
0.5
100
AcDbArc
 50
180.0
 51
270.0
  0
ARC
  5
1BE
330
52
100
AcDbEntity
  8
0
  6
Continuous
 62
     7
100
AcDbCircle
 10
248.9507734426221
 20
285.5203835697859
 30
0.0
 40
0.5
100
AcDbArc
 50
90.0
 51
180.0
  0
ARC
  5
1BF
330
52
100
AcDbEntity
  8
0
  6
Continuous
 62
     7
100
AcDbCircle
 10
248.9507734426221
 20
293.980383569786
 30
0.0
 40
0.5
100
AcDbArc
 50
180.0
 51
270.0
  0
ARC
  5
1C0
330
52
100
AcDbEntity
  8
0
  6
Continuous
 62
     7
100
AcDbCircle
 10
248.9507734426221
 20
298.5203835697859
 30
0.0
 40
0.5
100
AcDbArc
 50
90.0
 51
180.0
  0
ARC
  5
1C1
330
52
100
AcDbEntity
  8
0
  6
Continuous
 62
     7
100
AcDbCircle
 10
248.9507734426221
 20
306.980383569786
 30
0.0
 40
0.5
100
AcDbArc
 50
180.0
 51
270.0
  0
ARC
  5
1C2
330
52
100
AcDbEntity
  8
0
  6
Continuous
 62
     7
100
AcDbCircle
 10
248.9507734426221
 20
311.5203835697859
 30
0.0
 40
0.5
100
AcDbArc
 50
90.0
 51
180.0
  0
ENDBLK
  5
54
330
52
100
AcDbEntity
  8
0
100
AcDbBlockEnd
  0
BLOCK
  5
56
330
55
100
AcDbEntity
  8
0
100
AcDbBlockBegin
  2
開示A4
 70
     0
 10
-0.29961327868898
 20
0.0
 30
0.0
  3
開示A4
  1

  0
POINT
  5
1C3
330
55
100
AcDbEntity
  8
1
 62
     4
100
AcDbPoint
 10
93.45038672131102
 20
17.0
 30
0.0
  0
POINT
  5
1C4
330
55
100
AcDbEntity
  8
1
 62
     4
100
AcDbPoint
 10
84.95038672131102
 20
17.0
 30
0.0
  0
POINT
  5
1C5
330
55
100
AcDbEntity
  8
1
 62
     4
100
AcDbPoint
 10
106.200386721311
 20
19.00000000000001
 30
0.0
  0
POINT
  5
1C6
330
55
100
AcDbEntity
  8
1
 62
     4
100
AcDbPoint
 10
106.200386721311
 20
12.5
 30
0.0
  0
POINT
  5
1C7
330
55
100
AcDbEntity
  8
1
 62
     4
100
AcDbPoint
 10
111.950386721311
 20
12.5
 30
0.0
  0
POINT
  5
1C8
330
55
100
AcDbEntity
  8
1
 62
     4
100
AcDbPoint
 10
100.450386721311
 20
12.5
 30
0.0
  0
POINT
  5
1C9
330
55
100
AcDbEntity
  8
1
 62
     4
100
AcDbPoint
 10
123.200386721311
 20
19.00000000000001
 30
0.0
  0
POINT
  5
1CA
330
55
100
AcDbEntity
  8
1
 62
     4
100
AcDbPoint
 10
123.200386721311
 20
12.5
 30
0.0
  0
POINT
  5
1CB
330
55
100
AcDbEntity
  8
1
 62
     4
100
AcDbPoint
 10
128.950386721311
 20
12.5
 30
0.0
  0
POINT
  5
1CC
330
55
100
AcDbEntity
  8
1
 62
     4
100
AcDbPoint
 10
117.450386721311
 20
12.5
 30
0.0
  0
POINT
  5
1CD
330
55
100
AcDbEntity
  8
1
 62
     4
100
AcDbPoint
 10
140.200386721311
 20
19.00000000000001
 30
0.0
  0
POINT
  5
1CE
330
55
100
AcDbEntity
  8
1
 62
     4
100
AcDbPoint
 10
140.200386721311
 20
12.5
 30
0.0
  0
POINT
  5
1CF
330
55
100
AcDbEntity
  8
1
 62
     4
100
AcDbPoint
 10
145.950386721311
 20
12.5
 30
0.0
  0
POINT
  5
1D0
330
55
100
AcDbEntity
  8
1
 62
     4
100
AcDbPoint
 10
134.450386721311
 20
12.5
 30
0.0
  0
POINT
  5
1D1
330
55
100
AcDbEntity
  8
1
 62
     4
100
AcDbPoint
 10
151.450386721311
 20
12.5
 30
0.0
  0
POINT
  5
1D2
330
55
100
AcDbEntity
  8
1
 62
     4
100
AcDbPoint
 10
162.950386721311
 20
12.5
 30
0.0
  0
POINT
  5
1D3
330
55
100
AcDbEntity
  8
1
 62
     4
100
AcDbPoint
 10
157.200386721311
 20
12.5
 30
0.0
  0
POINT
  5
1D4
330
55
100
AcDbEntity
  8
1
 62
     4
100
AcDbPoint
 10
56.70038672131102
 20
14.25
 30
0.0
  0
POINT
  5
1D5
330
55
100
AcDbEntity
  8
1
 62
     4
100
AcDbPoint
 10
56.70038672131102
 20
22.75000000000001
 30
0.0
  0
POINT
  5
1D6
330
55
100
AcDbEntity
  8
1
 62
     4
100
AcDbPoint
 10
47.20038672131102
 20
282.0000000000003
 30
0.0
  0
POINT
  5
1D7
330
55
100
AcDbEntity
  8
1
 62
     4
100
AcDbPoint
 10
157.200386721311
 20
19.00000000000001
 30
0.0
  0
POINT
  5
1D8
330
55
100
AcDbEntity
  8
1
 62
     4
100
AcDbPoint
 10
56.70038672131102
 20
16.25
 30
0.0
  0
POINT
  5
1D9
330
55
100
AcDbEntity
  8
1
 62
     4
100
AcDbPoint
 10
56.70038672131102
 20
24.75000000000001
 30
0.0
  0
POINT
  5
1DA
330
55
100
AcDbEntity
  8
1
 62
     4
100
AcDbPoint
 10
56.70038672131102
 20
20.75000000000001
 30
0.0
  0
POINT
  5
1DB
330
55
100
AcDbEntity
  8
1
 62
     4
100
AcDbPoint
 10
56.70038672131102
 20
12.25
 30
0.0
  0
POINT
  5
1DC
330
55
100
AcDbEntity
  8
1
 62
     4
100
AcDbPoint
 10
33.70038672131102
 20
34.00000000000001
 30
0.0
  0
LINE
  5
1DD
330
55
100
AcDbEntity
  8
1
  6
Continuous
 62
     7
100
AcDbLine
 10
104.700386721311
 20
10.0
 30
0.0
 11
199.700386721311
 21
10.0
 31
0.0
  0
LINE
  5
1DE
330
55
100
AcDbEntity
  8
1
  6
Continuous
 62
     2
100
AcDbLine
 10
104.700386721311
 20
10.0
 30
0.0
 11
104.700386721311
 21
5.0
 31
0.0
  0
LINE
  5
1DF
330
55
100
AcDbEntity
  8
1
  6
Continuous
 62
     7
100
AcDbLine
 10
199.700386721311
 20
148.5
 30
0.0
 11
199.700386721311
 21
287.0000000000003
 31
0.0
  0
LINE
  5
1E0
330
55
100
AcDbEntity
  8
1
  6
Continuous
 62
     2
100
AcDbLine
 10
199.700386721311
 20
148.5
 30
0.0
 11
204.700386721311
 21
148.5
 31
0.0
  0
LINE
  5
1E1
330
55
100
AcDbEntity
  8
1
  6
Continuous
 62
     7
100
AcDbLine
 10
24.70038672131102
 20
148.5
 30
0.0
 11
24.70038672131102
 21
287.0000000000003
 31
0.0
  0
LINE
  5
1E2
330
55
100
AcDbEntity
  8
1
  6
Continuous
 62
     2
100
AcDbLine
 10
24.70038672131102
 20
148.5
 30
0.0
 11
19.70038672131102
 21
148.5
 31
0.0
  0
LINE
  5
1E3
330
55
100
AcDbEntity
  8
1
  6
Continuous
 62
     7
100
AcDbLine
 10
104.700386721311
 20
287.0000000000003
 30
0.0
 11
24.70038672131102
 21
287.0000000000003
 31
0.0
  0
LINE
  5
1E4
330
55
100
AcDbEntity
  8
1
  6
Continuous
 62
     2
100
AcDbLine
 10
104.700386721311
 20
287.0000000000003
 30
0.0
 11
104.700386721311
 21
292.0000000000003
 31
0.0
  0
LINE
  5
1E5
330
55
100
AcDbEntity
  8
1
  6
Continuous
 62
     2
100
AcDbLine
 10
165.700386721311
 20
20.00000000000001
 30
0.0
 11
199.700386721311
 21
20.00000000000001
 31
0.0
  0
LINE
  5
1E6
330
55
100
AcDbEntity
  8
1
  6
Continuous
 62
     2
100
AcDbLine
 10
97.70038672131102
 20
27.00000000000001
 30
0.0
 11
97.70038672131102
 21
9.99999999999999
 31
0.0
  0
LINE
  5
1E7
330
55
100
AcDbEntity
  8
1
  6
Continuous
 62
     2
100
AcDbLine
 10
114.700386721311
 20
27.00000000000001
 30
0.0
 11
114.700386721311
 21
9.99999999999999
 31
0.0
  0
LINE
  5
1E8
330
55
100
AcDbEntity
  8
1
  6
Continuous
 62
     2
100
AcDbLine
 10
148.700386721311
 20
27.00000000000001
 30
0.0
 11
148.700386721311
 21
10.0
 31
0.0
  0
LINE
  5
1E9
330
55
100
AcDbEntity
  8
1
  6
Continuous
 62
     2
100
AcDbLine
 10
131.700386721311
 20
27.00000000000001
 30
0.0
 11
131.700386721311
 21
9.99999999999999
 31
0.0
  0
LINE
  5
1EA
330
55
100
AcDbEntity
  8
1
  6
Continuous
 62
     2
100
AcDbLine
 10
165.700386721311
 20
27.00000000000001
 30
0.0
 11
165.700386721311
 21
10.0
 31
0.0
  0
LINE
  5
1EB
330
55
100
AcDbEntity
  8
1
  6
Continuous
 62
     2
100
AcDbLine
 10
54.70038672131102
 20
277.0000000000003
 30
0.0
 11
24.70038672131102
 21
277.0000000000003
 31
0.0
  0
LINE
  5
1EC
330
55
100
AcDbEntity
  8
1
  6
Continuous
 62
     7
100
AcDbLine
 10
24.70038672131102
 20
10.0
 30
0.0
 11
24.70038672131102
 21
148.5
 31
0.0
  0
LINE
  5
1ED
330
55
100
AcDbEntity
  8
1
  6
Continuous
 62
     2
100
AcDbLine
 10
39.70038672131102
 20
287.0000000000003
 30
0.0
 11
39.70038672131102
 21
277.0000000000003
 31
0.0
  0
LINE
  5
1EE
330
55
100
AcDbEntity
  8
1
  6
Continuous
 62
     2
100
AcDbLine
 10
54.70038672131102
 20
287.0000000000003
 30
0.0
 11
54.70038672131102
 21
277.0000000000003
 31
0.0
  0
LINE
  5
1EF
330
55
100
AcDbEntity
  8
1
  6
Continuous
 62
     2
100
AcDbLine
 10
32.70038672131102
 20
41.00000000000001
 30
0.0
 11
32.70038672131102
 21
27.0
 31
0.0
  0
LINE
  5
1F0
330
55
100
AcDbEntity
  8
1
  6
Continuous
 62
     7
100
AcDbLine
 10
199.700386721311
 20
27.00000000000001
 30
0.0
 11
24.70038672131102
 21
27.00000000000001
 31
0.0
  0
LINE
  5
1F1
330
55
100
AcDbEntity
  8
1
  6
Continuous
 62
     7
100
AcDbLine
 10
24.70038672131102
 20
41.0
 30
0.0
 11
199.700386721311
 21
41.0
 31
0.0
  0
LINE
  5
1F2
330
55
100
AcDbEntity
  8
1
  6
PHANTOM
 62
     4
100
AcDbLine
 10
-0.29961327868898
 20
0.0
 30
0.0
 11
209.700386721311
 21
0.0
 31
0.0
  0
LINE
  5
1F3
330
55
100
AcDbEntity
  8
1
  6
PHANTOM
 62
     4
100
AcDbLine
 10
209.700386721311
 20
0.0
 30
0.0
 11
209.700386721311
 21
297.0
 31
0.0
  0
LINE
  5
1F4
330
55
100
AcDbEntity
  8
1
  6
PHANTOM
 62
     4
100
AcDbLine
 10
209.700386721311
 20
297.0
 30
0.0
 11
-0.29961327868898
 21
297.0
 31
0.0
  0
LINE
  5
1F5
330
55
100
AcDbEntity
  8
1
  6
PHANTOM
 62
     4
100
AcDbLine
 10
-0.29961327868898
 20
297.0
 30
0.0
 11
-0.29961327868898
 21
0.0
 31
0.0
  0
LINE
  5
1F6
330
55
100
AcDbEntity
  8
1
  6
Continuous
 62
     7
100
AcDbLine
 10
24.70038672131102
 20
10.0
 30
0.0
 11
104.700386721311
 21
10.0
 31
0.0
  0
LINE
  5
1F7
330
55
100
AcDbEntity
  8
1
  6
Continuous
 62
     7
100
AcDbLine
 10
199.700386721311
 20
10.0
 30
0.0
 11
199.700386721311
 21
148.5
 31
0.0
  0
LINE
  5
1F8
330
55
100
AcDbEntity
  8
1
  6
Continuous
 62
     7
100
AcDbLine
 10
199.700386721311
 20
287.0000000000003
 30
0.0
 11
104.700386721311
 21
287.0000000000003
 31
0.0
  0
LINE
  5
1F9
330
55
100
AcDbEntity
  8
1
  6
Continuous
 62
     2
100
AcDbLine
 10
24.70038672131102
 20
18.50000000000001
 30
0.0
 11
80.70038672131102
 21
18.50000000000001
 31
0.0
  0
LINE
  5
1FA
330
55
100
AcDbEntity
  8
1
  6
Continuous
 62
     2
100
AcDbLine
 10
32.70038672131102
 20
27.0
 30
0.0
 11
32.70038672131102
 21
10.0
 31
0.0
  0
LINE
  5
1FB
330
55
100
AcDbEntity
  8
1
  6
Continuous
 62
     7
100
AcDbLine
 10
190.700386721311
 20
24.70000000000001
 30
0.0
 11
190.700386721311
 21
22.30000000000001
 31
0.0
  0
LINE
  5
1FC
330
55
100
AcDbEntity
  8
1
  6
Continuous
 62
     7
100
AcDbLine
 10
190.700386721311
 20
24.70000000000001
 30
0.0
 11
195.700386721311
 21
25.50000000000001
 31
0.0
  0
LINE
  5
1FD
330
55
100
AcDbEntity
  8
1
  6
Continuous
 62
     7
100
AcDbLine
 10
195.700386721311
 20
25.50000000000001
 30
0.0
 11
195.700386721311
 21
21.50000000000001
 31
0.0
  0
LINE
  5
1FE
330
55
100
AcDbEntity
  8
1
  6
Continuous
 62
     7
100
AcDbLine
 10
195.700386721311
 20
21.50000000000001
 30
0.0
 11
190.700386721311
 21
22.30000000000001
 31
0.0
  0
LINE
  5
1FF
330
55
100
AcDbEntity
  8
1
  6
DOT_CENTER
 62
     2
100
AcDbLine
 10
183.700386721311
 20
23.50000000000001
 30
0.0
 11
196.700386721311
 21
23.50000000000001
 31
0.0
  0
LINE
  5
200
330
55
100
AcDbEntity
  8
1
  6
DOT_CENTER
 62
     2
100
AcDbLine
 10
186.700386721311
 20
26.50000000000001
 30
0.0
 11
186.700386721311
 21
20.50000000000001
 31
0.0
  0
LINE
  5
201
330
55
100
AcDbEntity
  8
1
  6
Continuous
 62
     2
100
AcDbLine
 10
80.70038672131102
 20
27.00000000000001
 30
0.0
 11
80.70038672131102
 21
10.0
 31
0.0
  0
CIRCLE
  5
202
330
55
100
AcDbEntity
  8
1
  6
Continuous
 62
     7
100
AcDbCircle
 10
103.200386721311
 20
12.5
 30
0.0
 40
0.2999999999999972
  0
CIRCLE
  5
203
330
55
100
AcDbEntity
  8
1
  6
Continuous
 62
     7
100
AcDbCircle
 10
109.200386721311
 20
12.5
 30
0.0
 40
0.2999999999999972
  0
CIRCLE
  5
204
330
55
100
AcDbEntity
  8
1
  6
Continuous
 62
     7
100
AcDbCircle
 10
120.200386721311
 20
12.5
 30
0.0
 40
0.2999999999999972
  0
CIRCLE
  5
205
330
55
100
AcDbEntity
  8
1
  6
Continuous
 62
     7
100
AcDbCircle
 10
126.200386721311
 20
12.5
 30
0.0
 40
0.2999999999999972
  0
CIRCLE
  5
206
330
55
100
AcDbEntity
  8
1
  6
Continuous
 62
     7
100
AcDbCircle
 10
137.200386721311
 20
12.5
 30
0.0
 40
0.3000000000000114
  0
CIRCLE
  5
207
330
55
100
AcDbEntity
  8
1
  6
Continuous
 62
     7
100
AcDbCircle
 10
143.200386721311
 20
12.5
 30
0.0
 40
0.3000000000000114
  0
CIRCLE
  5
208
330
55
100
AcDbEntity
  8
1
  6
Continuous
 62
     7
100
AcDbCircle
 10
160.200386721311
 20
12.5
 30
0.0
 40
0.3000000000000114
  0
CIRCLE
  5
209
330
55
100
AcDbEntity
  8
1
  6
Continuous
 62
     7
100
AcDbCircle
 10
154.200386721311
 20
12.5
 30
0.0
 40
0.3000000000000114
  0
CIRCLE
  5
20A
330
55
100
AcDbEntity
  8
1
  6
Continuous
 62
     7
100
AcDbCircle
 10
186.700386721311
 20
23.50000000000001
 30
0.0
 40
1.200000000000102
  0
CIRCLE
  5
20B
330
55
100
AcDbEntity
  8
1
  6
Continuous
 62
     7
100
AcDbCircle
 10
186.700386721311
 20
23.50000000000001
 30
0.0
 40
2.0
  0
CIRCLE
  5
20C
330
55
100
AcDbEntity
  8
1
  6
DOT_CENTER
 62
     7
100
AcDbCircle
 10
89.20038672131102
 20
16.0
 30
0.0
 40
0.1000000000000227
  0
CIRCLE
  5
20D
330
55
100
AcDbEntity
  8
1
  6
DOT_CENTER
 62
     7
100
AcDbCircle
 10
89.20038672131102
 20
18.0
 30
0.0
 40
0.1000000000000227
  0
MTEXT
  5
20F
330
55
100
AcDbEntity
  8
1
 62
     7
100
AcDbMText
 10
188.200386721311
 20
15.0
 30
0.0
 40
3.0
 41
0.0
 71
     5
 72
     1
  1
三栄水栓製作所
  7
CONVERTER_11
 73
     1
 44
1.0
  0
MTEXT
  5
210
330
55
100
AcDbEntity
  8
1
 62
     7
100
AcDbMText
 10
171.200386721311
 20
15.0
 30
0.0
 40
2.5
 41
0.0
 71
     5
 72
     1
  1
株式会社
  7
CONVERTER_11
 73
     1
 44
1.0
  0
MTEXT
  5
211
330
55
100
AcDbEntity
  8
1
 62
     2
100
AcDbMText
 10
32.20038672131102
 20
282.0000000000003
 30
0.0
 40
5.0
 41
0.0
 71
     5
 72
     1
  1
図番
  7
CONVERTER_11
 73
     1
 44
0.45454545454545
  0
MTEXT
  5
212
330
55
100
AcDbEntity
  8
1
 62
     2
100
AcDbMText
 10
28.70038672131102
 20
34.00000000000001
 30
0.0
 40
3.5
 41
0.0
 71
     5
 72
     1
  1
備考
  7
CONVERTER_11
 73
     1
 44
0.45454545454545
  0
MTEXT
  5
213
330
55
100
AcDbEntity
  8
1
 62
     2
100
AcDbMText
 10
28.70038672131102
 20
22.75
 30
0.0
 40
3.5
 41
0.0
 71
     5
 72
     1
  1
品名
  7
CONVERTER_11
 73
     1
 44
0.72727272727273
  0
MTEXT
  5
214
330
55
100
AcDbEntity
  8
1
 62
     2
100
AcDbMText
 10
28.70038672131102
 20
14.25
 30
0.0
 40
3.5
 41
0.0
 71
     5
 72
     1
  1
品番
  7
CONVERTER_11
 73
     1
 44
0.72727272727273
  0
MTEXT
  5
215
330
55
100
AcDbEntity
  8
1
 62
     2
100
AcDbMText
 10
101.200386721311
 20
25.00000000000001
 30
0.0
 40
3.0
 41
0.0
 71
     5
 72
     1
  1
承認
  7
CONVERTER_11
 73
     1
 44
0.59090909090909
  0
MTEXT
  5
216
330
55
100
AcDbEntity
  8
1
 62
     2
100
AcDbMText
 10
174.700386721311
 20
23.50000000000001
 30
0.0
 40
3.5
 41
0.0
 71
     5
 72
     1
  1
第三角法
  7
CONVERTER_11
 73
     1
 44
0.54545454545455
  0
MTEXT
  5
217
330
55
100
AcDbEntity
  8
1
 62
     2
100
AcDbMText
 10
118.200386721311
 20
25.00000000000001
 30
0.0
 40
3.0
 41
0.0
 71
     5
 72
     1
  1
検図
  7
CONVERTER_11
 73
     1
 44
0.59090909090909
  0
MTEXT
  5
218
330
55
100
AcDbEntity
  8
1
 62
     2
100
AcDbMText
 10
152.200386721311
 20
25.00000000000001
 30
0.0
 40
3.0
 41
0.0
 71
     5
 72
     1
  1
担当
  7
CONVERTER_11
 73
     1
 44
0.59090909090909
  0
MTEXT
  5
219
330
55
100
AcDbEntity
  8
1
 62
     2
100
AcDbMText
 10
135.200386721311
 20
25.00000000000001
 30
0.0
 40
3.0
 41
0.0
 71
     5
 72
     1
  1
製図
  7
CONVERTER_11
 73
     1
 44
0.59090909090909
  0
MTEXT
  5
21A
330
55
100
AcDbEntity
  8
1
 62
     2
100
AcDbMText
 10
89.20038672131102
 20
24.00000000000001
 30
0.0
 40
3.5
 41
0.0
 71
     5
 72
     1
  1
尺度
  7
CONVERTER_11
 73
     1
 44
0.54545454545455
  0
MTEXT
  5
21B
330
55
100
AcDbEntity
  8
1
 62
   250
100
AcDbMText
 10
24.70038672131102
 20
5.0
 30
0.0
 40
3.5
 41
0.0
 71
     4
 72
     1
  1
備考欄の文字列 原点位置=4
  7
CONVERTER_11
 73
     1
 44
0.54545454545455
  0
ENDBLK
  5
57
330
55
100
AcDbEntity
  8
0
100
AcDbBlockEnd
  0
BLOCK
  5
330
330
327
100
AcDbEntity
  8
0
100
AcDbBlockBegin
  2
*D5
 70
     1
 10
0.0
 20
0.0
 30
0.0
  3
*D5
  1

  0
LINE
  5
328
330
327
100
AcDbEntity
  8
1
  6
Continuous
 62
     2
100
AcDbLine
 10
150.0235126758221
 20
161.706217949709
 30
0.0
 11
150.0235126758221
 21
117.5828816362689
 31
0.0
  0
LINE
  5
329
330
327
100
AcDbEntity
  8
1
  6
Continuous
 62
     2
100
AcDbLine
 10
150.0235126758221
 20
117.5828816362689
 30
0.0
 11
150.0235126758221
 21
107.4651306362689
 31
0.0
  0
LINE
  5
32A
330
327
100
AcDbEntity
  8
1
  6
Continuous
 62
     2
100
AcDbLine
 10
150.0235126758221
 20
107.4651306362689
 30
0.0
 11
150.0235126758221
 21
93.4651306362689
 31
0.0
  0
LINE
  5
32B
330
327
100
AcDbEntity
  8
1
  6
Continuous
 62
     2
100
AcDbLine
 10
79.8762428403841
 20
117.5828816362689
 30
0.0
 11
152.0235126758221
 21
117.5828816362689
 31
0.0
  0
LINE
  5
32C
330
327
100
AcDbEntity
  8
1
  6
Continuous
 62
     2
100
AcDbLine
 10
141.032080675822
 20
107.4651306362689
 30
0.0
 11
152.0235126758221
 21
107.4651306362689
 31
0.0
  0
SOLID
  5
32D
330
327
100
AcDbEntity
  8
1
 62
     2
100
AcDbTrace
 10
149.1019451927103
 20
124.5828816362689
 30
0.0
 11
150.9450801589339
 21
124.5828816362689
 31
0.0
 12
150.0235126758221
 22
117.5828816362689
 32
0.0
 13
150.0235126758221
 23
117.5828816362689
 33
0.0
  0
SOLID
  5
32E
330
327
100
AcDbEntity
  8
1
 62
     2
100
AcDbTrace
 10
150.9450801589339
 20
100.4651306362689
 30
0.0
 11
149.1019451927103
 21
100.4651306362689
 31
0.0
 12
150.0235126758221
 22
107.4651306362689
 32
0.0
 13
150.0235126758221
 23
107.4651306362689
 33
0.0
  0
MTEXT
  5
32F
330
327
100
AcDbEntity
  8
1
 62
     7
100
AcDbMText
 10
148.0235126758221
 20
127.493717949709
 30
0.0
 40
7.0
 41
0.0
 71
     7
 72
     1
  1
許容変位量
  7
CONVERTER_11
 11
0.0
 21
1.0
 31
0.0
 73
     1
 44
0.45454545454545
  0
ENDBLK
  5
331
330
327
100
AcDbEntity
  8
0
100
AcDbBlockEnd
  0
BLOCK
  5
33B
330
334
100
AcDbEntity
  8
0
100
AcDbBlockBegin
  2
*D6
 70
     1
 10
0.0
 20
0.0
 30
0.0
  3
*D6
  1

  0
LINE
  5
335
330
334
100
AcDbEntity
  8
1
  6
Continuous
 62
     2
100
AcDbLine
 10
164.4458603465369
 20
126.250383569786
 30
0.0
 11
164.4458603465369
 21
376.250383569786
 31
0.0
  0
LINE
  5
336
330
334
100
AcDbEntity
  8
1
  6
Continuous
 62
     2
100
AcDbLine
 10
184.900773442622
 20
376.250383569786
 30
0.0
 11
162.4458603465369
 21
376.250383569786
 31
0.0
  0
LINE
  5
337
330
334
100
AcDbEntity
  8
1
  6
Continuous
 62
     2
100
AcDbLine
 10
184.900773442622
 20
126.250383569786
 30
0.0
 11
162.4458603465369
 21
126.250383569786
 31
0.0
  0
SOLID
  5
338
330
334
100
AcDbEntity
  8
1
 62
     2
100
AcDbTrace
 10
163.5242928634251
 20
133.250383569786
 30
0.0
 11
165.3674278296487
 21
133.250383569786
 31
0.0
 12
164.4458603465369
 22
126.250383569786
 32
0.0
 13
164.4458603465369
 23
126.250383569786
 33
0.0
  0
SOLID
  5
339
330
334
100
AcDbEntity
  8
1
 62
     2
100
AcDbTrace
 10
165.3674278296487
 20
369.250383569786
 30
0.0
 11
163.5242928634251
 21
369.250383569786
 31
0.0
 12
164.4458603465369
 22
376.250383569786
 32
0.0
 13
164.4458603465369
 23
376.250383569786
 33
0.0
  0
MTEXT
  5
33A
330
334
100
AcDbEntity
  8
1
 62
     7
100
AcDbMText
 10
162.4458603465369
 20
249.150383569786
 30
0.0
 40
7.0
 41
0.0
 71
     7
 72
     1
  1
L
  7
CONVERTER_12
 11
0.0
 21
1.0
 31
0.0
 73
     1
 44
0.60024009603842
  0
ENDBLK
  5
33C
330
334
100
AcDbEntity
  8
0
100
AcDbBlockEnd
  0
BLOCK
  5
346
330
33F
100
AcDbEntity
  8
0
100
AcDbBlockBegin
  2
*D7
 70
     1
 10
0.0
 20
0.0
 30
0.0
  3
*D7
  1

  0
LINE
  5
340
330
33F
100
AcDbEntity
  8
1
  6
Continuous
 62
     2
100
AcDbLine
 10
286.4722978408463
 20
376.250383569786
 30
0.0
 11
286.4722978408463
 21
336.250383569786
 31
0.0
  0
LINE
  5
341
330
33F
100
AcDbEntity
  8
1
  6
Continuous
 62
     2
100
AcDbLine
 10
256.4007734426222
 20
336.250383569786
 30
0.0
 11
288.4722978408463
 21
336.250383569786
 31
0.0
  0
LINE
  5
342
330
33F
100
AcDbEntity
  8
1
  6
Continuous
 62
     2
100
AcDbLine
 10
256.9007734426222
 20
376.250383569786
 30
0.0
 11
288.4722978408463
 21
376.250383569786
 31
0.0
  0
SOLID
  5
343
330
33F
100
AcDbEntity
  8
1
 62
     2
100
AcDbTrace
 10
287.393865323958
 20
369.250383569786
 30
0.0
 11
285.5507303577346
 21
369.250383569786
 31
0.0
 12
286.4722978408463
 22
376.250383569786
 32
0.0
 13
286.4722978408463
 23
376.250383569786
 33
0.0
  0
SOLID
  5
344
330
33F
100
AcDbEntity
  8
1
 62
     2
100
AcDbTrace
 10
285.5507303577346
 20
343.250383569786
 30
0.0
 11
287.393865323958
 21
343.250383569786
 31
0.0
 12
286.4722978408463
 22
336.250383569786
 32
0.0
 13
286.4722978408463
 23
336.250383569786
 33
0.0
  0
MTEXT
  5
345
330
33F
100
AcDbEntity
  8
1
 62
     7
100
AcDbMText
 10
284.4722978408463
 20
351.000383569786
 30
0.0
 40
7.0
 41
0.0
 71
     7
 72
     1
  1
40
  7
CONVERTER_12
 11
0.0
 21
1.0
 31
0.0
 73
     1
 44
0.60024009603842
  0
ENDBLK
  5
347
330
33F
100
AcDbEntity
  8
0
100
AcDbBlockEnd
  0
BLOCK
  5
34F
330
34A
100
AcDbEntity
  8
0
100
AcDbBlockBegin
  2
*D8
 70
     1
 10
0.0
 20
0.0
 30
0.0
  3
*D8
  1

  0
LINE
  5
34B
330
34A
100
AcDbEntity
  8
1
  6
Continuous
 62
     2
100
AcDbLine
 10
192.2629488045669
 20
470.5822327111475
 30
0.0
 11
273.5394449620533
 21
389.3057365536609
 31
0.0
  0
SOLID
  5
34C
330
34A
100
AcDbEntity
  8
1
 62
     2
100
AcDbTrace
 10
247.7153709631536
 20
416.4331037858194
 30
0.0
 11
246.4120777298949
 21
415.1298105525607
 31
0.0
 12
242.1139768782184
 22
420.7312046374959
 32
0.0
 13
242.1139768782184
 23
420.7312046374959
 33
0.0
  0
SOLID
  5
34D
330
34A
100
AcDbEntity
  8
1
 62
     2
100
AcDbTrace
 10
194.0861759220904
 20
467.4557123603652
 30
0.0
 11
195.3894691553491
 21
468.7590055936239
 31
0.0
 12
199.6875700070256
 22
463.1576115086887
 32
0.0
 13
199.6875700070256
 23
463.1576115086887
 33
0.0
  0
MTEXT
  5
34E
330
34A
100
AcDbEntity
  8
1
 62
     7
100
AcDbMText
 10
255.3526585499353
 20
410.3209500905251
 30
0.0
 40
7.0
 41
0.0
 71
     7
 72
     1
  1
\C7;内径{\Fgdt;n}\C7;60
  7
CONVERTER_11
 11
0.7071067811865468
 21
-0.7071067811865482
 31
0.0
 73
     1
 44
0.45454545454545
  0
ENDBLK
  5
350
330
34A
100
AcDbEntity
  8
0
100
AcDbBlockEnd
  0
ENDSEC
  0
SECTION
  2
ENTITIES
  0
INSERT
  5
58
330
1F
100
AcDbEntity
  8
0
100
AcDbBlockReference
  2
バンド__1
 10
1078.793339347624
 20
84.62359983237391
 30
0.0
  0
INSERT
  5
59
330
1F
100
AcDbEntity
  8
0
100
AcDbBlockReference
  2
バンド__2
 10
659.3925659050019
 20
84.62359983237391
 30
0.0
  0
INSERT
  5
5A
330
1F
100
AcDbEntity
  8
0
100
AcDbBlockReference
  2
H642-1
 10
49.40077344262204
 20
218.1201683863345
 30
0.0
  0
INSERT
  5
5B
330
1F
100
AcDbEntity
  8
1
100
AcDbBlockReference
  2
開示A4
 10
-0.59922655737796
 20
0.0
 30
0.0
 41
2.0
 42
2.0
 43
2.0
  0
LINE
  5
21C
330
1F
100
AcDbEntity
  8
1
  6
DASH_CENTER
 62
     2
100
AcDbLine
 10
260.6770714246493
 20
369.4155854866007
 30
0.0
 11
260.6770714246493
 21
348.7372673643632
 31
0.0
  0
LINE
  5
21D
330
1F
100
AcDbEntity
  8
1
  6
DASH_CENTER
 62
     2
100
AcDbLine
 10
260.6770714246493
 20
132.9091387972753
 30
0.0
 11
260.6770714246493
 21
154.2916283422968
 31
0.0
  0
LINE
  5
21E
330
1F
100
AcDbEntity
  8
1
  6
DASH_CENTER
 62
     2
100
AcDbLine
 10
178.4458603465369
 20
143.6003835697861
 30
0.0
 11
271.6756781842879
 21
143.6003835697861
 31
0.0
  0
LINE
  5
21F
330
1F
100
AcDbEntity
  8
7
  6
Continuous
 62
     7
100
AcDbLine
 10
79.862660639626
 20
124.76414509022
 30
0.0
 11
79.862660639626
 21
110.4242815325494
 31
0.0
  0
LINE
  5
220
330
1F
100
AcDbEntity
  8
7
  6
Continuous
 62
     7
100
AcDbLine
 10
79.862660639626
 20
124.7740526362688
 30
0.0
 11
79.862660639626
 21
124.76414509022
 31
0.0
  0
LINE
  5
221
330
1F
100
AcDbEntity
  8
1
  6
Continuous
 62
     4
100
AcDbLine
 10
79.8475479622051
 20
117.5828816362689
 30
0.0
 11
79.8762428403841
 21
117.5828816362689
 31
0.0
  0
LINE
  5
222
330
1F
100
AcDbEntity
  8
2
  6
DASH_CENTER
 62
     4
100
AcDbLine
 10
79.8475479622051
 20
117.5828816362689
 30
0.0
 11
79.8762428403841
 21
117.5828816362689
 31
0.0
  0
LINE
  5
223
330
1F
100
AcDbEntity
  8
5
  6
Continuous
 62
     7
100
AcDbLine
 10
66.73781363962598
 20
125.0828816362689
 30
0.0
 11
66.73781363962598
 21
110.0828816362689
 31
0.0
  0
LINE
  5
224
330
1F
100
AcDbEntity
  8
1
  6
Continuous
 62
     7
100
AcDbLine
 10
79.862660639626
 20
124.7740526362688
 30
0.0
 11
66.73781363962598
 21
125.0828816362689
 31
0.0
  0
LINE
  5
225
330
1F
100
AcDbEntity
  8
1
  6
Continuous
 62
     7
100
AcDbLine
 10
79.862660639626
 20
110.4242815325494
 30
0.0
 11
66.73781363962598
 21
110.0828816362689
 31
0.0
  0
LINE
  5
226
330
1F
100
AcDbEntity
  8
1
  6
Continuous
 62
     7
100
AcDbLine
 10
127.9986677898171
 20
114.6523436912576
 30
0.0
 11
140.0235126758221
 21
114.9651306362689
 31
0.0
  0
LINE
  5
227
330
1F
100
AcDbEntity
  8
1
  6
Continuous
 62
     7
100
AcDbLine
 10
126.898665675822
 20
100.273959636269
 30
0.0
 11
140.0235126758221
 21
99.9651306362689
 31
0.0
  0
LINE
  5
228
330
1F
100
AcDbEntity
  8
2
  6
DASH_CENTER
 62
     2
100
AcDbLine
 10
141.032080675822
 20
107.4651306362689
 30
0.0
 11
124.7486656758221
 21
107.4651306362689
 31
0.0
  0
LINE
  5
229
330
1F
100
AcDbEntity
  8
6
  6
Continuous
 62
     7
100
AcDbLine
 10
80.7875076758221
 20
117.5828816362689
 30
0.0
 11
81.6355408198765
 21
124.1535611927404
 31
0.0
  0
LINE
  5
22A
330
1F
100
AcDbEntity
  8
1
  6
Continuous
 62
     7
100
AcDbLine
 10
92.529649675822
 20
109.5486536362689
 30
0.0
 11
92.5532756758221
 21
109.8712286362689
 31
0.0
  0
LINE
  5
22B
330
1F
100
AcDbEntity
  8
6
  6
Continuous
 62
     7
100
AcDbLine
 10
79.8626606758221
 20
110.417041636269
 30
0.0
 11
80.7875076758221
 21
117.5828816362689
 31
0.0
  0
LINE
  5
22C
330
1F
100
AcDbEntity
  8
6
  6
Continuous
 62
     7
100
AcDbLine
 10
81.5726706758221
 20
117.5828816362689
 30
0.0
 11
82.3851706758221
 21
124.2293466362689
 31
0.0
  0
LINE
  5
22D
330
1F
100
AcDbEntity
  8
6
  6
Continuous
 62
     7
100
AcDbLine
 10
80.7601706758221
 20
110.936416636269
 30
0.0
 11
81.5726706758221
 21
117.5828816362689
 31
0.0
  0
LINE
  5
22E
330
1F
100
AcDbEntity
  8
6
  6
Continuous
 62
     7
100
AcDbLine
 10
81.647138675822
 20
117.5828816362689
 30
0.0
 11
80.834638675822
 21
110.621666636269
 31
0.0
  0
LINE
  5
22F
330
1F
100
AcDbEntity
  8
6
  6
Continuous
 62
     7
100
AcDbLine
 10
82.459638675822
 20
124.5440966362689
 30
0.0
 11
81.647138675822
 21
117.5828816362689
 31
0.0
  0
LINE
  5
230
330
1F
100
AcDbEntity
  8
6
  6
Continuous
 62
     7
100
AcDbLine
 10
83.297138675822
 20
117.5828816362689
 30
0.0
 11
84.109638675822
 21
124.5472626362689
 31
0.0
  0
LINE
  5
231
330
1F
100
AcDbEntity
  8
6
  6
Continuous
 62
     7
100
AcDbLine
 10
82.484638675822
 20
110.6185006362689
 30
0.0
 11
83.297138675822
 21
117.5828816362689
 31
0.0
  0
LINE
  5
232
330
1F
100
AcDbEntity
  8
5
  6
Continuous
 62
     7
100
AcDbLine
 10
82.459638675822
 20
124.5440966362689
 30
0.0
 11
82.3851706758221
 21
124.2293466362689
 31
0.0
  0
LINE
  5
233
330
1F
100
AcDbEntity
  8
5
  6
Continuous
 62
     7
100
AcDbLine
 10
80.834638675822
 20
110.621666636269
 30
0.0
 11
80.7601706758221
 21
110.936416636269
 31
0.0
  0
LINE
  5
234
330
1F
100
AcDbEntity
  8
6
  6
Continuous
 62
     7
100
AcDbLine
 10
84.3592876758221
 20
117.573220636269
 30
0.0
 11
85.576029675822
 21
124.157686636269
 31
0.0
  0
LINE
  5
235
330
1F
100
AcDbEntity
  8
6
  6
Continuous
 62
     7
100
AcDbLine
 10
83.142546675822
 20
110.9887546362689
 30
0.0
 11
84.3592876758221
 21
117.573220636269
 31
0.0
  0
LINE
  5
236
330
1F
100
AcDbEntity
  8
6
  6
Continuous
 62
     7
100
AcDbLine
 10
84.4336166758221
 20
117.568673636269
 30
0.0
 11
83.197660675822
 21
110.6700446362689
 31
0.0
  0
LINE
  5
237
330
1F
100
AcDbEntity
  8
6
  6
Continuous
 62
     7
100
AcDbLine
 10
85.669573675822
 20
124.467302636269
 30
0.0
 11
84.4336166758221
 21
117.568673636269
 31
0.0
  0
LINE
  5
238
330
1F
100
AcDbEntity
  8
6
  6
Continuous
 62
     7
100
AcDbLine
 10
86.080539675822
 20
117.467943636269
 30
0.0
 11
87.3166886758221
 21
124.369733636269
 31
0.0
  0
LINE
  5
239
330
1F
100
AcDbEntity
  8
6
  6
Continuous
 62
     7
100
AcDbLine
 10
84.8443896758221
 20
110.566154636269
 30
0.0
 11
86.080539675822
 21
117.467943636269
 31
0.0
  0
LINE
  5
23A
330
1F
100
AcDbEntity
  8
5
  6
Continuous
 62
     7
100
AcDbLine
 10
85.669573675822
 20
124.467302636269
 30
0.0
 11
85.576029675822
 21
124.157686636269
 31
0.0
  0
LINE
  5
23B
330
1F
100
AcDbEntity
  8
5
  6
Continuous
 62
     7
100
AcDbLine
 10
83.197660675822
 20
110.6700446362689
 30
0.0
 11
83.142546675822
 21
110.9887546362689
 31
0.0
  0
LINE
  5
23C
330
1F
100
AcDbEntity
  8
6
  6
Continuous
 62
     7
100
AcDbLine
 10
87.184435675822
 20
117.5643256362689
 30
0.0
 11
88.800879675822
 21
124.062229636269
 31
0.0
  0
LINE
  5
23D
330
1F
100
AcDbEntity
  8
6
  6
Continuous
 62
     7
100
AcDbLine
 10
85.5679916758221
 20
111.066421636269
 30
0.0
 11
87.184435675822
 21
117.5643256362689
 31
0.0
  0
LINE
  5
23E
330
1F
100
AcDbEntity
  8
6
  6
Continuous
 62
     7
100
AcDbLine
 10
87.2583486758221
 20
117.555250636269
 30
0.0
 11
85.603545675822
 21
110.7449426362689
 31
0.0
  0
LINE
  5
23F
330
1F
100
AcDbEntity
  8
6
  6
Continuous
 62
     7
100
AcDbLine
 10
88.9131506758221
 20
124.3655586362689
 30
0.0
 11
87.2583486758221
 21
117.555250636269
 31
0.0
  0
LINE
  5
240
330
1F
100
AcDbEntity
  8
6
  6
Continuous
 62
     7
100
AcDbLine
 10
87.2408616758221
 20
110.5407146362689
 30
0.0
 11
88.896049675822
 21
117.3541656362689
 31
0.0
  0
LINE
  5
241
330
1F
100
AcDbEntity
  8
5
  6
Continuous
 62
     7
100
AcDbLine
 10
88.9131506758221
 20
124.3655586362689
 30
0.0
 11
88.800879675822
 21
124.062229636269
 31
0.0
  0
LINE
  5
242
330
1F
100
AcDbEntity
  8
5
  6
Continuous
 62
     7
100
AcDbLine
 10
85.603545675822
 20
110.7449426362689
 30
0.0
 11
85.5679916758221
 21
111.066421636269
 31
0.0
  0
LINE
  5
243
330
1F
100
AcDbEntity
  8
6
  6
Continuous
 62
     7
100
AcDbLine
 10
89.8922036758221
 20
117.1048876362689
 30
0.0
 11
91.9023196758221
 21
123.491989636269
 31
0.0
  0
LINE
  5
244
330
1F
100
AcDbEntity
  8
6
  6
Continuous
 62
     7
100
AcDbLine
 10
87.8820866758221
 20
110.7177846362689
 30
0.0
 11
89.8922036758221
 21
117.1048876362689
 31
0.0
  0
LINE
  5
245
330
1F
100
AcDbEntity
  8
6
  6
Continuous
 62
     7
100
AcDbLine
 10
89.9654246758221
 20
117.091316636269
 30
0.0
 11
87.897948675822
 21
110.3947346362689
 31
0.0
  0
LINE
  5
246
330
1F
100
AcDbEntity
  8
6
  6
Continuous
 62
     7
100
AcDbLine
 10
92.032899675822
 20
123.7878986362689
 30
0.0
 11
89.9654246758221
 21
117.091316636269
 31
0.0
  0
LINE
  5
247
330
1F
100
AcDbEntity
  8
6
  6
Continuous
 62
     7
100
AcDbLine
 10
89.519742675822
 20
110.0909326362689
 30
0.0
 11
93.5841945848569
 21
123.2581973533556
 31
0.0
  0
LINE
  5
248
330
1F
100
AcDbEntity
  8
5
  6
Continuous
 62
     7
100
AcDbLine
 10
92.032899675822
 20
123.7878986362689
 30
0.0
 11
91.9023196758221
 21
123.491989636269
 31
0.0
  0
LINE
  5
249
330
1F
100
AcDbEntity
  8
5
  6
Continuous
 62
     7
100
AcDbLine
 10
87.897948675822
 20
110.3947346362689
 30
0.0
 11
87.8820866758221
 21
110.7177846362689
 31
0.0
  0
LINE
  5
24A
330
1F
100
AcDbEntity
  8
6
  6
Continuous
 62
     7
100
AcDbLine
 10
92.6269036758221
 20
116.618340636269
 30
0.0
 11
95.0231946758221
 21
122.870815636269
 31
0.0
  0
LINE
  5
24B
330
1F
100
AcDbEntity
  8
6
  6
Continuous
 62
     7
100
AcDbLine
 10
90.230613675822
 20
110.365865636269
 30
0.0
 11
92.6269036758221
 21
116.618340636269
 31
0.0
  0
LINE
  5
24C
330
1F
100
AcDbEntity
  8
6
  6
Continuous
 62
     7
100
AcDbLine
 10
92.6991596758221
 20
116.600324636269
 30
0.0
 11
90.2267246758221
 21
110.042449636269
 31
0.0
  0
LINE
  5
24D
330
1F
100
AcDbEntity
  8
6
  6
Continuous
 62
     7
100
AcDbLine
 10
95.1715956758221
 20
123.1582006362689
 30
0.0
 11
92.6991596758221
 21
116.600324636269
 31
0.0
  0
LINE
  5
24E
330
1F
100
AcDbEntity
  8
6
  6
Continuous
 62
     7
100
AcDbLine
 10
94.300147675822
 20
116.2011536362689
 30
0.0
 11
96.773349675822
 21
122.762101636269
 31
0.0
  0
LINE
  5
24F
330
1F
100
AcDbEntity
  8
6
  6
Continuous
 62
     7
100
AcDbLine
 10
91.826946675822
 20
109.640205636269
 30
0.0
 11
94.300147675822
 21
116.2011536362689
 31
0.0
  0
LINE
  5
250
330
1F
100
AcDbEntity
  8
5
  6
Continuous
 62
     7
100
AcDbLine
 10
95.1715956758221
 20
123.1582006362689
 30
0.0
 11
95.0231946758221
 21
122.870815636269
 31
0.0
  0
LINE
  5
251
330
1F
100
AcDbEntity
  8
5
  6
Continuous
 62
     7
100
AcDbLine
 10
90.2267246758221
 20
110.042449636269
 30
0.0
 11
90.230613675822
 21
110.365865636269
 31
0.0
  0
LINE
  5
252
330
1F
100
AcDbEntity
  8
6
  6
Continuous
 62
     7
100
AcDbLine
 10
95.326800675822
 20
115.9657516362689
 30
0.0
 11
98.1003266758221
 21
122.0602746362689
 31
0.0
  0
LINE
  5
253
330
1F
100
AcDbEntity
  8
6
  6
Continuous
 62
     7
100
AcDbLine
 10
92.5532756758221
 20
109.8712286362689
 30
0.0
 11
95.326800675822
 21
115.9657516362689
 31
0.0
  0
LINE
  5
254
330
1F
100
AcDbEntity
  8
6
  6
Continuous
 62
     7
100
AcDbLine
 10
95.397822675822
 20
115.943358636269
 30
0.0
 11
92.529649675822
 21
109.5486536362689
 31
0.0
  0
LINE
  5
255
330
1F
100
AcDbEntity
  8
6
  6
Continuous
 62
     7
100
AcDbLine
 10
98.2659946758221
 20
122.338063636269
 30
0.0
 11
95.397822675822
 21
115.943358636269
 31
0.0
  0
LINE
  5
256
330
1F
100
AcDbEntity
  8
6
  6
Continuous
 62
     7
100
AcDbLine
 10
96.9714556758222
 20
115.4471936362689
 30
0.0
 11
99.7447430542954
 21
121.6312170501902
 31
0.0
  0
LINE
  5
257
330
1F
100
AcDbEntity
  8
6
  6
Continuous
 62
     7
100
AcDbLine
 10
94.102330675822
 20
109.049468636269
 30
0.0
 11
96.9714556758222
 21
115.4471936362689
 31
0.0
  0
LINE
  5
258
330
1F
100
AcDbEntity
  8
5
  6
Continuous
 62
     7
100
AcDbLine
 10
98.2659946758221
 20
122.338063636269
 30
0.0
 11
98.1003266758221
 21
122.0602746362689
 31
0.0
  0
LINE
  5
259
330
1F
100
AcDbEntity
  8
6
  6
Continuous
 62
     7
100
AcDbLine
 10
97.9818246758221
 20
115.1495546362689
 30
0.0
 11
101.122238675822
 21
121.063389636269
 31
0.0
  0
LINE
  5
25A
330
1F
100
AcDbEntity
  8
6
  6
Continuous
 62
     7
100
AcDbLine
 10
94.8414096758221
 20
109.235718636269
 30
0.0
 11
97.9818246758221
 21
115.1495546362689
 31
0.0
  0
LINE
  5
25B
330
1F
100
AcDbEntity
  8
6
  6
Continuous
 62
     7
100
AcDbLine
 10
98.0513456758221
 20
115.1228676362689
 30
0.0
 11
94.7981356758221
 21
108.9151876362689
 31
0.0
  0
LINE
  5
25C
330
1F
100
AcDbEntity
  8
6
  6
Continuous
 62
     7
100
AcDbLine
 10
101.304556675822
 20
121.330547636269
 30
0.0
 11
98.0513456758221
 21
115.1228676362689
 31
0.0
  0
LINE
  5
25D
330
1F
100
AcDbEntity
  8
6
  6
Continuous
 62
     7
100
AcDbLine
 10
99.591753675822
 20
114.531560636269
 30
0.0
 11
102.8460986758221
 21
120.742196636269
 31
0.0
  0
LINE
  5
25E
330
1F
100
AcDbEntity
  8
6
  6
Continuous
 62
     7
100
AcDbLine
 10
96.3374086758221
 20
108.320923636269
 30
0.0
 11
99.591753675822
 21
114.531560636269
 31
0.0
  0
LINE
  5
25F
330
1F
100
AcDbEntity
  8
5
  6
Continuous
 62
     7
100
AcDbLine
 10
101.304556675822
 20
121.330547636269
 30
0.0
 11
101.122238675822
 21
121.063389636269
 31
0.0
  0
LINE
  5
260
330
1F
100
AcDbEntity
  8
5
  6
Continuous
 62
     7
100
AcDbLine
 10
94.7981356758221
 20
108.9151876362689
 30
0.0
 11
94.8414096758221
 21
109.235718636269
 31
0.0
  0
LINE
  5
261
330
1F
100
AcDbEntity
  8
5
  6
Continuous
 62
     7
100
AcDbLine
 10
104.118716675822
 20
119.8985736362689
 30
0.0
 11
104.3010346758221
 21
120.1657316362689
 31
0.0
  0
LINE
  5
262
330
1F
100
AcDbEntity
  8
6
  6
Continuous
 62
     7
100
AcDbLine
 10
100.9783026758221
 20
113.984738636269
 30
0.0
 11
104.118716675822
 21
119.8985736362689
 31
0.0
  0
LINE
  5
263
330
1F
100
AcDbEntity
  8
6
  6
Continuous
 62
     7
100
AcDbLine
 10
97.8378886758221
 20
108.070902636269
 30
0.0
 11
100.9783026758221
 21
113.984738636269
 31
0.0
  0
LINE
  5
264
330
1F
100
AcDbEntity
  8
6
  6
Continuous
 62
     7
100
AcDbLine
 10
101.0478236758222
 20
113.9580516362689
 30
0.0
 11
97.7946136758221
 21
107.7503716362689
 31
0.0
  0
LINE
  5
265
330
1F
100
AcDbEntity
  8
6
  6
Continuous
 62
     7
100
AcDbLine
 10
104.3010346758221
 20
120.1657316362689
 30
0.0
 11
101.0478236758222
 21
113.9580516362689
 31
0.0
  0
LINE
  5
266
330
1F
100
AcDbEntity
  8
6
  6
Continuous
 62
     7
100
AcDbLine
 10
102.588231675822
 20
113.366744636269
 30
0.0
 11
105.8425766758221
 21
119.5773806362689
 31
0.0
  0
LINE
  5
267
330
1F
100
AcDbEntity
  8
6
  6
Continuous
 62
     7
100
AcDbLine
 10
99.333886675822
 20
107.156107636269
 30
0.0
 11
99.4620332977336
 21
107.4006644215724
 31
0.0
  0
LINE
  5
268
330
1F
100
AcDbEntity
  8
5
  6
Continuous
 62
     7
100
AcDbLine
 10
97.7946136758221
 20
107.7503716362689
 30
0.0
 11
97.8378886758221
 21
108.070902636269
 31
0.0
  0
LINE
  5
269
330
1F
100
AcDbEntity
  8
5
  6
Continuous
 62
     7
100
AcDbLine
 10
108.5540246758221
 20
117.670571636269
 30
0.0
 11
108.736342675822
 21
117.937729636269
 31
0.0
  0
LINE
  5
26A
330
1F
100
AcDbEntity
  8
6
  6
Continuous
 62
     7
100
AcDbLine
 10
105.413610675822
 20
111.756735636269
 30
0.0
 11
108.5540246758221
 21
117.670571636269
 31
0.0
  0
LINE
  5
26B
330
1F
100
AcDbEntity
  8
6
  6
Continuous
 62
     7
100
AcDbLine
 10
102.2731966758221
 20
105.842900636269
 30
0.0
 11
105.413610675822
 21
111.756735636269
 31
0.0
  0
LINE
  5
26C
330
1F
100
AcDbEntity
  8
6
  6
Continuous
 62
     7
100
AcDbLine
 10
105.4831316758221
 20
111.730049636269
 30
0.0
 11
102.2299216758221
 21
105.522368636269
 31
0.0
  0
LINE
  5
26D
330
1F
100
AcDbEntity
  8
6
  6
Continuous
 62
     7
100
AcDbLine
 10
108.736342675822
 20
117.937729636269
 30
0.0
 11
105.4831316758221
 21
111.730049636269
 31
0.0
  0
LINE
  5
26E
330
1F
100
AcDbEntity
  8
6
  6
Continuous
 62
     7
100
AcDbLine
 10
107.0235396758221
 20
111.138741636269
 30
0.0
 11
110.2778846758221
 21
117.349378636269
 31
0.0
  0
LINE
  5
26F
330
1F
100
AcDbEntity
  8
6
  6
Continuous
 62
     7
100
AcDbLine
 10
103.7691946758221
 20
104.9281056362689
 30
0.0
 11
107.0235396758221
 21
111.138741636269
 31
0.0
  0
LINE
  5
270
330
1F
100
AcDbEntity
  8
5
  6
Continuous
 62
     7
100
AcDbLine
 10
102.2299216758221
 20
105.522368636269
 30
0.0
 11
102.2731966758221
 21
105.842900636269
 31
0.0
  0
LINE
  5
271
330
1F
100
AcDbEntity
  8
6
  6
Continuous
 62
     7
100
AcDbLine
 10
108.3706896758221
 20
110.5167296362689
 30
0.0
 11
111.511103675822
 21
116.430564636269
 31
0.0
  0
LINE
  5
272
330
1F
100
AcDbEntity
  8
6
  6
Continuous
 62
     7
100
AcDbLine
 10
105.2302756758221
 20
104.602893636269
 30
0.0
 11
108.3706896758221
 21
110.5167296362689
 31
0.0
  0
LINE
  5
273
330
1F
100
AcDbEntity
  8
6
  6
Continuous
 62
     7
100
AcDbLine
 10
108.4402116758221
 20
110.490042636269
 30
0.0
 11
105.1870016758221
 21
104.282362636269
 31
0.0
  0
LINE
  5
274
330
1F
100
AcDbEntity
  8
6
  6
Continuous
 62
     7
100
AcDbLine
 10
111.693421675822
 20
116.697722636269
 30
0.0
 11
108.4402116758221
 21
110.490042636269
 31
0.0
  0
LINE
  5
275
330
1F
100
AcDbEntity
  8
6
  6
Continuous
 62
     7
100
AcDbLine
 10
109.980619675822
 20
109.898735636269
 30
0.0
 11
113.2349646758221
 21
116.109371636269
 31
0.0
  0
LINE
  5
276
330
1F
100
AcDbEntity
  8
6
  6
Continuous
 62
     7
100
AcDbLine
 10
106.7262736758221
 20
103.6880996362689
 30
0.0
 11
109.980619675822
 21
109.898735636269
 31
0.0
  0
LINE
  5
277
330
1F
100
AcDbEntity
  8
5
  6
Continuous
 62
     7
100
AcDbLine
 10
111.693421675822
 20
116.697722636269
 30
0.0
 11
111.511103675822
 21
116.430564636269
 31
0.0
  0
LINE
  5
278
330
1F
100
AcDbEntity
  8
5
  6
Continuous
 62
     7
100
AcDbLine
 10
105.1870016758221
 20
104.282362636269
 30
0.0
 11
105.2302756758221
 21
104.602893636269
 31
0.0
  0
LINE
  5
279
330
1F
100
AcDbEntity
  8
6
  6
Continuous
 62
     7
100
AcDbLine
 10
110.991126675822
 20
109.596005636269
 30
0.0
 11
113.7646516758221
 21
115.6905276362689
 31
0.0
  0
LINE
  5
27A
330
1F
100
AcDbEntity
  8
6
  6
Continuous
 62
     7
100
AcDbLine
 10
108.217600675822
 20
103.501482636269
 30
0.0
 11
110.991126675822
 21
109.596005636269
 31
0.0
  0
LINE
  5
27B
330
1F
100
AcDbEntity
  8
6
  6
Continuous
 62
     7
100
AcDbLine
 10
111.0621476758221
 20
109.573612636269
 30
0.0
 11
108.1939746758221
 21
103.178906636269
 31
0.0
  0
LINE
  5
27C
330
1F
100
AcDbEntity
  8
6
  6
Continuous
 62
     7
100
AcDbLine
 10
113.930320675822
 20
115.9683176362689
 30
0.0
 11
111.0621476758221
 21
109.573612636269
 31
0.0
  0
LINE
  5
27D
330
1F
100
AcDbEntity
  8
6
  6
Continuous
 62
     7
100
AcDbLine
 10
112.6357806758221
 20
109.077447636269
 30
0.0
 11
115.3472195303767
 21
115.1235558210835
 31
0.0
  0
LINE
  5
27E
330
1F
100
AcDbEntity
  8
6
  6
Continuous
 62
     7
100
AcDbLine
 10
109.766655675822
 20
102.6797226362689
 30
0.0
 11
112.6357806758221
 21
109.077447636269
 31
0.0
  0
LINE
  5
27F
330
1F
100
AcDbEntity
  8
5
  6
Continuous
 62
     7
100
AcDbLine
 10
113.930320675822
 20
115.9683176362689
 30
0.0
 11
113.7646516758221
 21
115.6905276362689
 31
0.0
  0
LINE
  5
280
330
1F
100
AcDbEntity
  8
5
  6
Continuous
 62
     7
100
AcDbLine
 10
108.1939746758221
 20
103.178906636269
 30
0.0
 11
108.217600675822
 21
103.501482636269
 31
0.0
  0
LINE
  5
281
330
1F
100
AcDbEntity
  8
6
  6
Continuous
 62
     7
100
AcDbLine
 10
113.6628826758221
 20
108.8369726362689
 30
0.0
 11
116.0591726758221
 21
115.0894476362689
 31
0.0
  0
LINE
  5
282
330
1F
100
AcDbEntity
  8
6
  6
Continuous
 62
     7
100
AcDbLine
 10
111.266591675822
 20
102.5844976362689
 30
0.0
 11
113.6628826758221
 21
108.8369726362689
 31
0.0
  0
LINE
  5
283
330
1F
100
AcDbEntity
  8
6
  6
Continuous
 62
     7
100
AcDbLine
 10
113.7351386758221
 20
108.8189566362689
 30
0.0
 11
111.2627026758221
 21
102.261081636269
 31
0.0
  0
LINE
  5
284
330
1F
100
AcDbEntity
  8
6
  6
Continuous
 62
     7
100
AcDbLine
 10
116.207573675822
 20
115.376832636269
 30
0.0
 11
113.7351386758221
 21
108.8189566362689
 31
0.0
  0
LINE
  5
285
330
1F
100
AcDbEntity
  8
6
  6
Continuous
 62
     7
100
AcDbLine
 10
115.336126675822
 20
108.4197856362689
 30
0.0
 11
117.809327675822
 21
114.980733636269
 31
0.0
  0
LINE
  5
286
330
1F
100
AcDbEntity
  8
6
  6
Continuous
 62
     7
100
AcDbLine
 10
112.8629246758221
 20
101.858837636269
 30
0.0
 11
115.336126675822
 21
108.4197856362689
 31
0.0
  0
LINE
  5
287
330
1F
100
AcDbEntity
  8
5
  6
Continuous
 62
     7
100
AcDbLine
 10
116.207573675822
 20
115.376832636269
 30
0.0
 11
116.0591726758221
 21
115.0894476362689
 31
0.0
  0
LINE
  5
288
330
1F
100
AcDbEntity
  8
5
  6
Continuous
 62
     7
100
AcDbLine
 10
111.2627026758221
 20
102.261081636269
 30
0.0
 11
111.266591675822
 21
102.5844976362689
 31
0.0
  0
LINE
  5
289
330
1F
100
AcDbEntity
  8
6
  6
Continuous
 62
     7
100
AcDbLine
 10
116.3759926758221
 20
108.2424616362689
 30
0.0
 11
118.3861096758221
 21
114.6295646362689
 31
0.0
  0
LINE
  5
28A
330
1F
100
AcDbEntity
  8
6
  6
Continuous
 62
     7
100
AcDbLine
 10
114.3658766758221
 20
101.855359636269
 30
0.0
 11
116.3759926758221
 21
108.2424616362689
 31
0.0
  0
LINE
  5
28B
330
1F
100
AcDbEntity
  8
6
  6
Continuous
 62
     7
100
AcDbLine
 10
116.4492136758221
 20
108.2288916362689
 30
0.0
 11
114.381738675822
 21
101.5323086362689
 31
0.0
  0
LINE
  5
28C
330
1F
100
AcDbEntity
  8
6
  6
Continuous
 62
     7
100
AcDbLine
 10
118.516688675822
 20
114.925473636269
 30
0.0
 11
116.4492136758221
 21
108.2288916362689
 31
0.0
  0
LINE
  5
28D
330
1F
100
AcDbEntity
  8
6
  6
Continuous
 62
     7
100
AcDbLine
 10
118.0715846758221
 20
107.9282026362689
 30
0.0
 11
120.1396366758222
 21
114.6278986362689
 31
0.0
  0
LINE
  5
28E
330
1F
100
AcDbEntity
  8
6
  6
Continuous
 62
     7
100
AcDbLine
 10
116.0035316758221
 20
101.228506636269
 30
0.0
 11
118.0715846758221
 21
107.9282026362689
 31
0.0
  0
LINE
  5
28F
330
1F
100
AcDbEntity
  8
5
  6
Continuous
 62
     7
100
AcDbLine
 10
118.516688675822
 20
114.925473636269
 30
0.0
 11
118.3861096758221
 21
114.6295646362689
 31
0.0
  0
LINE
  5
290
330
1F
100
AcDbEntity
  8
5
  6
Continuous
 62
     7
100
AcDbLine
 10
114.381738675822
 20
101.5323086362689
 30
0.0
 11
114.3658766758221
 21
101.855359636269
 31
0.0
  0
LINE
  5
291
330
1F
100
AcDbEntity
  8
6
  6
Continuous
 62
     7
100
AcDbLine
 10
119.1380546758221
 20
107.958984636269
 30
0.0
 11
120.7544986758221
 21
114.4568886362689
 31
0.0
  0
LINE
  5
292
330
1F
100
AcDbEntity
  8
6
  6
Continuous
 62
     7
100
AcDbLine
 10
117.5216106758221
 20
101.4610806362689
 30
0.0
 11
119.1380546758221
 21
107.958984636269
 31
0.0
  0
LINE
  5
293
330
1F
100
AcDbEntity
  8
6
  6
Continuous
 62
     7
100
AcDbLine
 10
119.2119666758221
 20
107.949909636269
 30
0.0
 11
117.557164675822
 21
101.1396006362689
 31
0.0
  0
LINE
  5
294
330
1F
100
AcDbEntity
  8
6
  6
Continuous
 62
     7
100
AcDbLine
 10
120.8667696758221
 20
114.760217636269
 30
0.0
 11
119.2119666758221
 21
107.949909636269
 31
0.0
  0
LINE
  5
295
330
1F
100
AcDbEntity
  8
6
  6
Continuous
 62
     7
100
AcDbLine
 10
120.849668675822
 20
107.748824636269
 30
0.0
 11
122.504856675822
 21
114.562275636269
 31
0.0
  0
LINE
  5
296
330
1F
100
AcDbEntity
  8
6
  6
Continuous
 62
     7
100
AcDbLine
 10
119.1944796758221
 20
100.9353736362689
 30
0.0
 11
120.849668675822
 21
107.748824636269
 31
0.0
  0
LINE
  5
297
330
1F
100
AcDbEntity
  8
5
  6
Continuous
 62
     7
100
AcDbLine
 10
120.8667696758221
 20
114.760217636269
 30
0.0
 11
120.7544986758221
 21
114.4568886362689
 31
0.0
  0
LINE
  5
298
330
1F
100
AcDbEntity
  8
5
  6
Continuous
 62
     7
100
AcDbLine
 10
117.557164675822
 20
101.1396006362689
 30
0.0
 11
117.5216106758221
 21
101.4610806362689
 31
0.0
  0
LINE
  5
299
330
1F
100
AcDbEntity
  8
6
  6
Continuous
 62
     7
100
AcDbLine
 10
121.8856776758221
 20
107.555257636269
 30
0.0
 11
123.102418675822
 21
114.139722636269
 31
0.0
  0
LINE
  5
29A
330
1F
100
AcDbEntity
  8
6
  6
Continuous
 62
     7
100
AcDbLine
 10
120.668935675822
 20
100.9707916362689
 30
0.0
 11
121.8856776758221
 21
107.555257636269
 31
0.0
  0
LINE
  5
29B
330
1F
100
AcDbEntity
  8
6
  6
Continuous
 62
     7
100
AcDbLine
 10
121.9600066758219
 20
107.550710636269
 30
0.0
 11
120.724049675822
 21
100.6520816362689
 31
0.0
  0
LINE
  5
29C
330
1F
100
AcDbEntity
  8
6
  6
Continuous
 62
     7
100
AcDbLine
 10
123.1959626758221
 20
114.449339636269
 30
0.0
 11
121.9600066758219
 21
107.550710636269
 31
0.0
  0
LINE
  5
29D
330
1F
100
AcDbEntity
  8
6
  6
Continuous
 62
     7
100
AcDbLine
 10
123.6069286758221
 20
107.449980636269
 30
0.0
 11
124.8430786758222
 21
114.351770636269
 31
0.0
  0
LINE
  5
29E
330
1F
100
AcDbEntity
  8
6
  6
Continuous
 62
     7
100
AcDbLine
 10
122.3707786758221
 20
100.5481916362689
 30
0.0
 11
123.6069286758221
 21
107.449980636269
 31
0.0
  0
LINE
  5
29F
330
1F
100
AcDbEntity
  8
5
  6
Continuous
 62
     7
100
AcDbLine
 10
123.1959626758221
 20
114.449339636269
 30
0.0
 11
123.102418675822
 21
114.139722636269
 31
0.0
  0
LINE
  5
2A0
330
1F
100
AcDbEntity
  8
5
  6
Continuous
 62
     7
100
AcDbLine
 10
120.724049675822
 20
100.6520816362689
 30
0.0
 11
120.668935675822
 21
100.9707916362689
 31
0.0
  0
LINE
  5
2A1
330
1F
100
AcDbEntity
  8
5
  6
Continuous
 62
     7
100
AcDbLine
 10
140.0235126758221
 20
107.4651306362689
 30
0.0
 11
140.0235126758221
 21
114.9651306362689
 31
0.0
  0
LINE
  5
2A2
330
1F
100
AcDbEntity
  8
5
  6
Continuous
 62
     7
100
AcDbLine
 10
140.0235126758221
 20
99.9651306362689
 30
0.0
 11
140.0235126758221
 21
107.4651306362689
 31
0.0
  0
LINE
  5
2A3
330
1F
100
AcDbEntity
  8
6
  6
Continuous
 62
     7
100
AcDbLine
 10
127.2582956758221
 20
107.4651306362689
 30
0.0
 11
126.7032336758221
 21
100.8766026362689
 31
0.0
  0
LINE
  5
2A4
330
1F
100
AcDbEntity
  8
6
  6
Continuous
 62
     7
100
AcDbLine
 10
127.8111656758221
 20
114.0276306362689
 30
0.0
 11
127.2582956758221
 21
107.4651306362689
 31
0.0
  0
LINE
  5
2A5
330
1F
100
AcDbEntity
  8
6
  6
Continuous
 62
     7
100
AcDbLine
 10
127.4488166758221
 20
107.4651306362689
 30
0.0
 11
127.9986656758221
 21
114.6523436362689
 31
0.0
  0
LINE
  5
2A6
330
1F
100
AcDbEntity
  8
6
  6
Continuous
 62
     7
100
AcDbLine
 10
126.898665675822
 20
100.273959636269
 30
0.0
 11
127.4488166758221
 21
107.4651306362689
 31
0.0
  0
LINE
  5
2A7
330
1F
100
AcDbEntity
  8
5
  6
Continuous
 62
     7
100
AcDbLine
 10
127.9986656758221
 20
114.6523436362689
 30
0.0
 11
127.8111656758221
 21
114.0276306362689
 31
0.0
  0
LINE
  5
2A8
330
1F
100
AcDbEntity
  8
5
  6
Continuous
 62
     7
100
AcDbLine
 10
126.898665675822
 20
100.273959636269
 30
0.0
 11
126.7032336758221
 21
100.8766026362689
 31
0.0
  0
LINE
  5
2A9
330
1F
100
AcDbEntity
  8
6
  6
Continuous
 62
     7
100
AcDbLine
 10
124.6616976758219
 20
107.4651306362689
 30
0.0
 11
125.4741976758219
 21
114.1115956362689
 31
0.0
  0
LINE
  5
2AA
330
1F
100
AcDbEntity
  8
6
  6
Continuous
 62
     7
100
AcDbLine
 10
123.8491976758219
 20
100.818665636269
 30
0.0
 11
124.6616976758219
 21
107.4651306362689
 31
0.0
  0
LINE
  5
2AB
330
1F
100
AcDbEntity
  8
6
  6
Continuous
 62
     7
100
AcDbLine
 10
124.7361656758221
 20
107.4651306362689
 30
0.0
 11
123.9236656758221
 21
100.503915636269
 31
0.0
  0
LINE
  5
2AC
330
1F
100
AcDbEntity
  8
6
  6
Continuous
 62
     7
100
AcDbLine
 10
125.5486656758221
 20
114.4263456362689
 30
0.0
 11
124.7361656758221
 21
107.4651306362689
 31
0.0
  0
LINE
  5
2AD
330
1F
100
AcDbEntity
  8
6
  6
Continuous
 62
     7
100
AcDbLine
 10
126.3861656758221
 20
107.4651306362689
 30
0.0
 11
127.1986656758221
 21
114.4295116362689
 31
0.0
  0
LINE
  5
2AE
330
1F
100
AcDbEntity
  8
6
  6
Continuous
 62
     7
100
AcDbLine
 10
125.5736656758221
 20
100.500748636269
 30
0.0
 11
126.3861656758221
 21
107.4651306362689
 31
0.0
  0
LINE
  5
2AF
330
1F
100
AcDbEntity
  8
5
  6
Continuous
 62
     7
100
AcDbLine
 10
125.5486656758221
 20
114.4263456362689
 30
0.0
 11
125.4741976758219
 21
114.1115956362689
 31
0.0
  0
LINE
  5
2B0
330
1F
100
AcDbEntity
  8
5
  6
Continuous
 62
     7
100
AcDbLine
 10
123.9236656758221
 20
100.503915636269
 30
0.0
 11
123.8491976758219
 21
100.818665636269
 31
0.0
  0
LINE
  5
2B1
330
1F
100
AcDbEntity
  8
6
  6
Continuous
 62
     7
100
AcDbLine
 10
99.4620332977336
 20
107.4006644215724
 30
0.0
 11
102.588231675822
 21
113.366744636269
 31
0.0
  0
LINE
  5
2B2
330
1F
100
AcDbEntity
  8
6
  6
Continuous
 62
     7
100
AcDbLine
 10
81.6355408198765
 20
124.1535611927404
 30
0.0
 11
81.712660675822
 21
124.5010966362689
 31
0.0
  0
LINE
  5
2B3
330
1F
100
AcDbEntity
  8
6
  6
Continuous
 62
     7
100
AcDbLine
 10
88.896049675822
 20
117.3541656362689
 30
0.0
 11
90.4604201468787
 21
123.793773433324
 31
0.0
  0
LINE
  5
2B4
330
1F
100
AcDbEntity
  8
6
  6
Continuous
 62
     7
100
AcDbLine
 10
90.4604201468787
 20
123.793773433324
 30
0.0
 11
90.551237675822
 21
124.1676166362689
 31
0.0
  0
LINE
  5
2B5
330
1F
100
AcDbEntity
  8
6
  6
Continuous
 62
     7
100
AcDbLine
 10
93.5841943250757
 20
123.2581974771173
 30
0.0
 11
93.6558466758221
 21
123.490323636269
 31
0.0
  0
LINE
  5
2B6
330
1F
100
AcDbEntity
  8
6
  6
Continuous
 62
     7
100
AcDbLine
 10
99.7447430542954
 20
121.6312170501902
 30
0.0
 11
99.840579675822
 21
121.844918636269
 31
0.0
  0
LINE
  5
2B7
330
1F
100
AcDbEntity
  8
6
  6
Continuous
 62
     7
100
AcDbLine
 10
115.3472195303767
 20
115.1235558210835
 30
0.0
 11
115.5049056758221
 21
115.475172636269
 31
0.0
  0
LINE
  5
2B8
330
1F
100
AcDbEntity
  8
2
  6
DASH_CENTER
 62
     2
100
AcDbLine
 10
60.73781363962598
 20
117.5828816362689
 30
0.0
 11
83.2971376758221
 21
117.5828816362689
 31
0.0
  0
LINE
  5
2B9
330
1F
100
AcDbEntity
  8
1
  6
Continuous
 62
     7
100
AcDbLine
 10
393.24293089329
 20
567.0252258443645
 30
0.0
 11
393.24293089329
 21
497.0252258443645
 31
0.0
  0
LINE
  5
2BA
330
1F
100
AcDbEntity
  8
1
  6
DASH_CENTER
 62
     2
100
AcDbLine
 10
178.4458603465369
 20
358.900383569786
 30
0.0
 11
272.4722978408463
 21
358.900383569786
 31
0.0
  0
LINE
  5
2BB
330
1F
100
AcDbEntity
  8
1
  6
DASH_CENTER
 62
     2
100
AcDbLine
 10
220.900773442622
 20
382.250383569786
 30
0.0
 11
220.900773442622
 21
120.250383569786
 31
0.0
  0
LINE
  5
2BC
330
1F
100
AcDbEntity
  8
1
  6
Continuous
 62
     7
100
AcDbLine
 10
239.24293089329
 20
497.0252258443645
 30
0.0
 11
393.24293089329
 21
497.0252258443645
 31
0.0
  0
LINE
  5
2BD
330
1F
100
AcDbEntity
  8
1
  6
Continuous
 62
     2
100
AcDbLine
 10
239.24293089329
 20
539.0252258443645
 30
0.0
 11
393.24293089329
 21
539.0252258443645
 31
0.0
  0
LINE
  5
2BE
330
1F
100
AcDbEntity
  8
1
  6
Continuous
 62
     2
100
AcDbLine
 10
239.24293089329
 20
525.0252258443645
 30
0.0
 11
393.24293089329
 21
525.0252258443645
 31
0.0
  0
LINE
  5
2BF
330
1F
100
AcDbEntity
  8
1
  6
Continuous
 62
     2
100
AcDbLine
 10
343.24293089329
 20
567.0252258443645
 30
0.0
 11
343.24293089329
 21
497.0252258443645
 31
0.0
  0
LINE
  5
2C0
330
1F
100
AcDbEntity
  8
1
  6
Continuous
 62
     2
100
AcDbLine
 10
239.24293089329
 20
511.0252258443645
 30
0.0
 11
393.24293089329
 21
511.0252258443645
 31
0.0
  0
LINE
  5
2C1
330
1F
100
AcDbEntity
  8
1
  6
Continuous
 62
     2
100
AcDbLine
 10
315.24293089329
 20
567.0252258443645
 30
0.0
 11
315.24293089329
 21
497.0252258443643
 31
0.0
  0
LINE
  5
2C2
330
1F
100
AcDbEntity
  8
1
  6
Continuous
 62
     7
100
AcDbLine
 10
239.24293089329
 20
567.0252258443645
 30
0.0
 11
393.24293089329
 21
567.0252258443645
 31
0.0
  0
LINE
  5
2C3
330
1F
100
AcDbEntity
  8
1
  6
Continuous
 62
     2
100
AcDbLine
 10
239.24293089329
 20
553.0252258443645
 30
0.0
 11
393.24293089329
 21
553.0252258443645
 31
0.0
  0
LINE
  5
2C4
330
1F
100
AcDbEntity
  8
1
  6
Continuous
 62
     7
100
AcDbLine
 10
239.24293089329
 20
497.0252258443645
 30
0.0
 11
239.24293089329
 21
567.0252258443645
 31
0.0
  0
LINE
  5
2C5
330
1F
100
AcDbEntity
  8
1
  6
DASH_CENTER
 62
     2
100
AcDbLine
 10
178.900773442622
 20
441.9444080730923
 30
0.0
 11
262.900773442622
 21
441.9444080730923
 31
0.0
  0
LINE
  5
2C6
330
1F
100
AcDbEntity
  8
1
  6
DASH_CENTER
 62
     2
100
AcDbLine
 10
220.900773442622
 20
399.9444080730923
 30
0.0
 11
220.900773442622
 21
483.9444080730923
 31
0.0
  0
LINE
  5
2C7
330
1F
100
AcDbEntity
  8
5
  6
Continuous
 62
     3
100
AcDbLine
 10
127.9986677898171
 20
114.6523436912576
 30
0.0
 11
127.9986651891741
 21
114.652343446533
 31
0.0
  0
ARC
  5
2C8
330
1F
100
AcDbEntity
  8
2
  6
DASH_CENTER
 62
     2
100
AcDbCircle
 10
124.7486646758221
 20
152.9401296362689
 30
0.0
 40
45.4749990000004
100
AcDbArc
 50
245.6566259999997
 51
270.0000009999991
  0
ARC
  5
2C9
330
1F
100
AcDbEntity
  8
2
  6
DASH_CENTER
 62
     2
100
AcDbCircle
 10
83.297138675822
 20
72.10788263626898
 30
0.0
 40
45.47499900000005
100
AcDbArc
 50
60.0450309999993
 51
90.0000009999993
  0
ARC
  5
2CA
330
1F
100
AcDbEntity
  8
1
  6
Continuous
 62
     7
100
AcDbCircle
 10
124.7761466758221
 20
116.2059866362689
 30
0.0
 40
2.207657999999775
100
AcDbArc
 50
269.2867650000096
 51
288.432998000008
  0
ARC
  5
2CB
330
1F
100
AcDbEntity
  8
1
  6
Continuous
 62
     7
100
AcDbCircle
 10
122.5234046758221
 20
122.1459646362689
 30
0.0
 40
8.02715099999989
100
AcDbArc
 50
269.1003349999997
 51
274.1364480000024
  0
ARC
  5
2CC
330
1F
100
AcDbEntity
  8
1
  6
Continuous
 62
     7
100
AcDbCircle
 10
120.337520675822
 20
115.096638636269
 30
0.0
 40
0.8565039999999635
100
AcDbArc
 50
249.443582999975
 51
296.7798789999957
  0
ARC
  5
2CD
330
1F
100
AcDbEntity
  8
1
  6
Continuous
 62
     7
100
AcDbCircle
 10
113.7115358860013
 20
116.6986302381807
 30
0.0
 40
1.009500520912486
100
AcDbArc
 50
233.8789716748672
 51
273.0161046748813
  0
ARC
  5
2CE
330
1F
100
AcDbEntity
  8
1
  6
Continuous
 62
     7
100
AcDbCircle
 10
94.1541896758221
 20
106.2990166362689
 30
0.0
 40
3.016039000000465
100
AcDbArc
 50
76.82916100000811
 51
88.72875199999464
  0
ARC
  5
2CF
330
1F
100
AcDbEntity
  8
1
  6
Continuous
 62
     7
100
AcDbCircle
 10
92.103956675822
 20
109.4958296362689
 30
0.0
 40
0.5855020000002736
100
AcDbArc
 50
39.87827000002027
 51
101.3298469999667
  0
ARC
  5
2D0
330
1F
100
AcDbEntity
  8
1
  6
Continuous
 62
     7
100
AcDbCircle
 10
89.9207556758221
 20
110.367872636269
 30
0.0
 40
0.3098640000003133
100
AcDbArc
 50
359.628846999932
 51
176.196096000067
  0
ARC
  5
2D1
330
1F
100
AcDbEntity
  8
1
  6
Continuous
 62
     7
100
AcDbCircle
 10
87.5701076758221
 20
110.576182636269
 30
0.0
 40
0.3426100000000392
100
AcDbArc
 50
24.41247299995951
 51
141.7676509999543
  0
ARC
  5
2D2
330
1F
100
AcDbEntity
  8
1
  6
Continuous
 62
     7
100
AcDbCircle
 10
85.2889966758221
 20
110.7742046362689
 30
0.0
 40
0.4040160000000598
100
AcDbArc
 50
46.32603000009222
 51
162.7991349999712
  0
ARC
  5
2D3
330
1F
100
AcDbEntity
  8
1
  6
Continuous
 62
     7
100
AcDbCircle
 10
80.5355266758221
 20
108.8007596362689
 30
0.0
 40
2.147439000000338
100
AcDbArc
 50
83.99529099999542
 51
106.6685169999962
  0
ARC
  5
2D4
330
1F
100
AcDbEntity
  8
5
  6
Continuous
 62
     7
100
AcDbCircle
 10
81.6700776758221
 20
116.060100636269
 30
0.0
 40
5.502229000000113
100
AcDbArc
 50
261.2666290000013
 51
278.5134699999962
  0
ARC
  5
2D5
330
1F
100
AcDbEntity
  8
5
  6
Continuous
 62
     7
100
AcDbCircle
 10
83.2950776758221
 20
119.1056626362689
 30
0.0
 40
5.502229000000155
100
AcDbArc
 50
81.4865300000038
 51
98.73337099999866
  0
ARC
  5
2D6
330
1F
100
AcDbEntity
  8
5
  6
Continuous
 62
     7
100
AcDbCircle
 10
84.363549675822
 20
116.047333636269
 30
0.0
 40
5.502228999999504
100
AcDbArc
 50
257.7666290000033
 51
275.0134700000055
  0
ARC
  5
2D7
330
1F
100
AcDbEntity
  8
5
  6
Continuous
 62
     7
100
AcDbCircle
 10
86.171445675822
 20
118.988010636269
 30
0.0
 40
5.502229000000241
100
AcDbArc
 50
77.98652999999612
 51
95.23337100000259
  0
ARC
  5
2D8
330
1F
100
AcDbEntity
  8
5
  6
Continuous
 62
     7
100
AcDbCircle
 10
87.095536675822
 20
116.041024636269
 30
0.0
 40
5.502229000000264
100
AcDbArc
 50
254.2666289999995
 51
271.5134699999994
  0
ARC
  5
2D9
330
1F
100
AcDbEntity
  8
5
  6
Continuous
 62
     7
100
AcDbCircle
 10
89.0795846758221
 20
118.865847636269
 30
0.0
 40
5.502228999999481
100
AcDbArc
 50
74.48653000000388
 51
91.73337099999891
  0
ARC
  5
2DA
330
1F
100
AcDbEntity
  8
5
  6
Continuous
 62
     7
100
AcDbCircle
 10
89.7104746758221
 20
115.5898546362689
 30
0.0
 40
5.502229000000228
100
AcDbArc
 50
250.7666289999996
 51
268.0134699999952
  0
ARC
  5
2DB
330
1F
100
AcDbEntity
  8
5
  6
Continuous
 62
     7
100
AcDbCircle
 10
91.863273675822
 20
118.2882846362689
 30
0.0
 40
5.502229000000455
100
AcDbArc
 50
70.98653000000236
 51
88.23337099999826
  0
ARC
  5
2DC
330
1F
100
AcDbEntity
  8
5
  6
Continuous
 62
     7
100
AcDbCircle
 10
92.353023675822
 20
115.1172276362689
 30
0.0
 40
5.502229000000311
100
AcDbArc
 50
247.2666289999971
 51
264.5134699999985
  0
ARC
  5
2DD
330
1F
100
AcDbEntity
  8
5
  6
Continuous
 62
     7
100
AcDbCircle
 10
94.666542675822
 20
117.679199636269
 30
0.0
 40
5.502229000000346
100
AcDbArc
 50
67.48652999999615
 51
84.73337099999969
  0
ARC
  5
2DE
330
1F
100
AcDbEntity
  8
5
  6
Continuous
 62
     7
100
AcDbCircle
 10
94.961790675822
 20
114.4841586362689
 30
0.0
 40
5.502229000000241
100
AcDbArc
 50
243.766629000001
 51
261.0134699999994
  0
ARC
  5
2DF
330
1F
100
AcDbEntity
  8
5
  6
Continuous
 62
     7
100
AcDbCircle
 10
97.427398675822
 20
116.900115636269
 30
0.0
 40
5.502228999999863
100
AcDbArc
 50
63.98652999999754
 51
81.23337100000226
  0
ARC
  5
2E0
330
1F
100
AcDbEntity
  8
5
  6
Continuous
 62
     7
100
AcDbCircle
 10
97.527045675822
 20
113.6930086362689
 30
0.0
 40
5.502229000000292
100
AcDbArc
 50
240.2666290000029
 51
257.5134699999967
  0
ARC
  5
2E1
330
1F
100
AcDbEntity
  8
5
  6
Continuous
 62
     7
100
AcDbCircle
 10
100.1355456758221
 20
115.953936636269
 30
0.0
 40
5.502229000000012
100
AcDbArc
 50
60.48653000000512
 51
77.73337100000022
  0
ARC
  5
2E2
330
1F
100
AcDbEntity
  8
5
  6
Continuous
 62
     7
100
AcDbCircle
 10
100.5235236758221
 20
112.528192636269
 30
0.0
 40
5.502229000000521
100
AcDbArc
 50
240.2666290000029
 51
257.5134699999957
  0
ARC
  5
2E3
330
1F
100
AcDbEntity
  8
5
  6
Continuous
 62
     7
100
AcDbCircle
 10
103.1320236758221
 20
114.789120636269
 30
0.0
 40
5.502228999999926
100
AcDbArc
 50
60.48653000000462
 51
77.73337100000006
  0
ARC
  5
2E4
330
1F
100
AcDbEntity
  8
5
  6
Continuous
 62
     7
100
AcDbCircle
 10
104.958831675822
 20
110.3001896362689
 30
0.0
 40
5.502228999999429
100
AcDbArc
 50
240.2666289999977
 51
257.5134699999967
  0
ARC
  5
2E5
330
1F
100
AcDbEntity
  8
5
  6
Continuous
 62
     7
100
AcDbCircle
 10
107.5673316758221
 20
112.5611186362689
 30
0.0
 40
5.502229000000112
100
AcDbArc
 50
60.48653000000571
 51
77.73337100000069
  0
ARC
  5
2E6
330
1F
100
AcDbEntity
  8
5
  6
Continuous
 62
     7
100
AcDbCircle
 10
107.915911675822
 20
109.0601836362689
 30
0.0
 40
5.502228999999429
100
AcDbArc
 50
240.2666289999977
 51
257.5134699999967
  0
ARC
  5
2E7
330
1F
100
AcDbEntity
  8
5
  6
Continuous
 62
     7
100
AcDbCircle
 10
110.5244116758221
 20
111.3211116362689
 30
0.0
 40
5.502229000000112
100
AcDbArc
 50
60.48653000000571
 51
77.73337100000053
  0
ARC
  5
2E8
330
1F
100
AcDbEntity
  8
5
  6
Continuous
 62
     7
100
AcDbCircle
 10
110.626116675822
 20
108.114412636269
 30
0.0
 40
5.502229000000273
100
AcDbArc
 50
243.7666290000024
 51
261.0134699999994
  0
ARC
  5
2E9
330
1F
100
AcDbEntity
  8
5
  6
Continuous
 62
     7
100
AcDbCircle
 10
113.0917246758221
 20
110.5303686362689
 30
0.0
 40
5.502228999999863
100
AcDbArc
 50
63.98652999999754
 51
81.23337100000157
  0
ARC
  5
2EA
330
1F
100
AcDbEntity
  8
5
  6
Continuous
 62
     7
100
AcDbCircle
 10
113.3890026758221
 20
107.335859636269
 30
0.0
 40
5.502229000000448
100
AcDbArc
 50
247.2666289999967
 51
264.5134699999978
  0
ARC
  5
2EB
330
1F
100
AcDbEntity
  8
5
  6
Continuous
 62
     7
100
AcDbCircle
 10
115.702520675822
 20
109.897831636269
 30
0.0
 40
5.5022290000004
100
AcDbArc
 50
67.48652999999752
 51
84.7333710000008
  0
ARC
  5
2EC
330
1F
100
AcDbEntity
  8
5
  6
Continuous
 62
     7
100
AcDbCircle
 10
116.1942646758221
 20
106.727429636269
 30
0.0
 40
5.502229000000402
100
AcDbArc
 50
250.7666290000002
 51
268.0134699999952
  0
ARC
  5
2ED
330
1F
100
AcDbEntity
  8
5
  6
Continuous
 62
     7
100
AcDbCircle
 10
118.347062675822
 20
109.4258596362689
 30
0.0
 40
5.502229000000518
100
AcDbArc
 50
70.98653000000368
 51
88.23337099999826
  0
ARC
  5
2EE
330
1F
100
AcDbEntity
  8
5
  6
Continuous
 62
     7
100
AcDbCircle
 10
119.049155675822
 20
106.435683636269
 30
0.0
 40
5.502229000000264
100
AcDbArc
 50
254.2666289999995
 51
271.5134699999983
  0
ARC
  5
2EF
330
1F
100
AcDbEntity
  8
5
  6
Continuous
 62
     7
100
AcDbCircle
 10
121.0332036758221
 20
109.2605056362689
 30
0.0
 40
5.502228999999703
100
AcDbArc
 50
74.4865300000033
 51
91.73337099999884
  0
ARC
  5
2F0
330
1F
100
AcDbEntity
  8
5
  6
Continuous
 62
     7
100
AcDbCircle
 10
121.8899396758221
 20
106.0293706362689
 30
0.0
 40
5.502228999999431
100
AcDbArc
 50
257.7666290000019
 51
275.0134700000036
  0
ARC
  5
2F1
330
1F
100
AcDbEntity
  8
5
  6
Continuous
 62
     7
100
AcDbCircle
 10
123.697835675822
 20
108.970046636269
 30
0.0
 40
5.502229000000269
100
AcDbArc
 50
77.98652999999406
 51
95.23337100000363
  0
ARC
  5
2F2
330
1F
100
AcDbEntity
  8
1
  6
Continuous
 62
     7
100
AcDbCircle
 10
126.3736656758221
 20
106.582175636269
 30
0.0
 40
7.582954999999515
100
AcDbArc
 50
79.07231399999985
 51
84.02495500000184
  0
ARC
  5
2F3
330
1F
100
AcDbEntity
  8
5
  6
Continuous
 62
     7
100
AcDbCircle
 10
126.3841046758221
 20
108.9879116362689
 30
0.0
 40
5.50222900000017
100
AcDbArc
 50
81.48653000000279
 51
98.73337099999883
  0
ARC
  5
2F4
330
1F
100
AcDbEntity
  8
5
  6
Continuous
 62
     7
100
AcDbCircle
 10
124.7591072126386
 20
105.9423497397373
 30
0.0
 40
5.502229371736999
100
AcDbArc
 50
261.2666064631168
 51
278.5134474631185
  0
ARC
  5
2F5
330
1F
100
AcDbEntity
  8
1
  6
Continuous
 62
     7
100
AcDbCircle
 10
126.3085452312753
 20
98.18492710948391
 30
0.0
 40
2.720457537821995
100
AcDbArc
 50
81.65799583820741
 51
104.873582024334
  0
ARC
  5
2F6
330
1F
100
AcDbEntity
  8
1
  6
Continuous
 62
     7
100
AcDbCircle
 10
123.0263476815835
 20
96.89329035388931
 30
0.0
 40
4.010692361741993
100
AcDbArc
 50
78.16089590713571
 51
98.60269236614778
  0
ARC
  5
2F7
330
1F
100
AcDbEntity
  8
1
  6
Continuous
 62
     7
100
AcDbCircle
 10
119.6406325818361
 20
99.41204218069242
 30
0.0
 40
1.867379746693459
100
AcDbArc
 50
56.5872641185717
 51
101.4797335337414
  0
ARC
  5
2F8
330
1F
100
AcDbEntity
  8
1
  6
Continuous
 62
     7
100
AcDbCircle
 10
116.7187508454581
 20
99.62930114823382
 30
0.0
 40
1.999999999999544
100
AcDbArc
 50
66.33240013995695
 51
108.123438425879
  0
ARC
  5
2F9
330
1F
100
AcDbEntity
  8
1
  6
Continuous
 62
     7
100
AcDbCircle
 10
112.8414819694094
 20
98.1457907497367
 30
0.0
 40
4.010571099590119
100
AcDbArc
 50
67.66048391276928
 51
88.10290528446829
  0
ARC
  5
2FA
330
1F
100
AcDbEntity
  8
1
  6
Continuous
 62
     7
100
AcDbCircle
 10
109.5185698945646
 20
98.97488642382973
 30
0.0
 40
4.010595124506697
100
AcDbArc
 50
64.16054511755863
 51
84.6028307592929
  0
ARC
  5
2FB
330
1F
100
AcDbEntity
  8
1
  6
Continuous
 62
     7
100
AcDbCircle
 10
106.2524786923311
 20
100.0053226118125
 30
0.0
 40
4.010590894943898
100
AcDbArc
 50
60.66052553654682
 51
81.1028613057129
  0
ARC
  5
2FC
330
1F
100
AcDbEntity
  8
1
  6
Continuous
 62
     7
100
AcDbCircle
 10
103.8079759925024
 20
103.2423847925491
 30
0.0
 40
1.968227807701983
100
AcDbArc
 50
43.72798555319361
 51
86.86307801404912
  0
ARC
  5
2FD
330
1F
100
AcDbEntity
  8
1
  6
Continuous
 62
     7
100
AcDbCircle
 10
92.908197373447
 20
92.25810074571064
 30
0.0
 40
16.50000000000026
100
AcDbArc
 50
62.96227089079053
 51
66.59661082332302
  0
ARC
  5
2FE
330
1F
100
AcDbEntity
  8
1
  6
Continuous
 62
     7
100
AcDbCircle
 10
95.7439052398238
 20
104.1326176205522
 30
0.0
 40
4.46036495090421
100
AcDbArc
 50
62.00045199233312
 51
80.8855893198201
  0
ARC
  5
2FF
330
1F
100
AcDbEntity
  8
1
  6
Continuous
 62
     7
100
AcDbCircle
 10
82.7997574201413
 20
110.0493423060328
 30
0.0
 40
1.000000000004869
100
AcDbArc
 50
69.95309800090264
 51
105.6142777504495
  0
ARC
  5
300
330
1F
100
AcDbEntity
  8
1
  6
Continuous
 62
     7
100
AcDbCircle
 10
79.0246601527951
 20
112.2335706162521
 30
0.0
 40
12.55856446667302
100
AcDbArc
 50
77.64094935379659
 51
86.17395813662313
  0
ARC
  5
301
330
1F
100
AcDbEntity
  8
1
  6
Continuous
 62
     7
100
AcDbCircle
 10
81.7617660719786
 20
126.6503725964585
 30
0.0
 40
2.500000000000996
100
AcDbArc
 50
267.1058997943569
 51
284.4397524794206
  0
ARC
  5
302
330
1F
100
AcDbEntity
  8
1
  6
Continuous
 62
     7
100
AcDbCircle
 10
85.1585337135446
 20
128.1062118113981
 30
0.0
 40
3.970535724199765
100
AcDbArc
 50
254.2244970988321
 51
276.0357236027811
  0
ARC
  5
303
330
1F
100
AcDbEntity
  8
1
  6
Continuous
 62
     7
100
AcDbCircle
 10
87.9220979025866
 20
126.4026874109433
 30
0.0
 40
2.500000000000967
100
AcDbArc
 50
254.3939864189613
 51
290.5798671154
  0
ARC
  5
304
330
1F
100
AcDbEntity
  8
1
  6
Continuous
 62
     7
100
AcDbCircle
 10
91.9566487728004
 20
127.3471036833457
 30
0.0
 40
3.855496850828274
100
AcDbArc
 50
247.1651190047643
 51
269.1925992659103
  0
ARC
  5
305
330
1F
100
AcDbEntity
  8
1
  6
Continuous
 62
     7
100
AcDbCircle
 10
95.3583249949326
 20
126.9821234696251
 30
0.0
 40
4.124944173123969
100
AcDbArc
 50
244.5262177390329
 51
265.3398787791432
  0
ARC
  5
306
330
1F
100
AcDbEntity
  8
1
  6
Continuous
 62
     7
100
AcDbCircle
 10
98.6426595743085
 20
125.9594153104965
 30
0.0
 40
3.936676640288905
100
AcDbArc
 50
240.2639687907392
 51
262.0815123585615
  0
ARC
  5
307
330
1F
100
AcDbEntity
  8
1
  6
Continuous
 62
     7
100
AcDbCircle
 10
101.8868868389437
 20
124.8731045660786
 30
0.0
 40
3.885693587994343
100
AcDbArc
 50
236.5444466833104
 51
258.6509534425514
  0
ARC
  5
308
330
1F
100
AcDbEntity
  8
1
  6
Continuous
 62
     7
100
AcDbCircle
 10
104.2071175634364
 20
122.4750921623048
 30
0.0
 40
2.578034606427245
100
AcDbArc
 50
233.3918302787123
 51
268.0349407046571
  0
ARC
  5
309
330
1F
100
AcDbEntity
  8
1
  6
Continuous
 62
     7
100
AcDbCircle
 10
114.2423188870582
 20
124.0333305153054
 30
0.0
 40
8.07846430588927
100
AcDbArc
 50
239.4415871657834
 51
250.2396978794516
  0
ARC
  5
30A
330
1F
100
AcDbEntity
  8
1
  6
Continuous
 62
     7
100
AcDbCircle
 10
115.7479076026174
 20
116.0397703531553
 30
0.0
 40
1.000000000007762
100
AcDbArc
 50
246.3787997559762
 51
288.1354939851636
  0
ARC
  5
30B
330
1F
100
AcDbEntity
  8
1
  6
Continuous
 62
     7
100
AcDbCircle
 10
117.9983576257807
 20
115.5513283520312
 30
0.0
 40
1.000000000003467
100
AcDbArc
 50
250.7429433821428
 51
292.8146975136459
  0
ARC
  5
30C
330
1F
100
AcDbEntity
  8
1
  6
Continuous
 62
     7
100
AcDbCircle
 10
98.6984614464936
 20
103.2096631781983
 30
0.0
 40
17.50000000000009
100
AcDbArc
 50
65.1466534975231
 51
66.50358965709383
  0
ARC
  5
30D
330
1F
100
AcDbEntity
  8
1
  6
Continuous
 62
     7
100
AcDbCircle
 10
92.908197373447
 20
92.25810074571064
 30
0.0
 40
16.50000000000002
100
AcDbArc
 50
55.41865456359565
 51
59.42632263415629
  0
ARC
  5
30E
330
1F
100
AcDbEntity
  8
1
  6
Continuous
 62
     7
100
AcDbCircle
 10
98.6984614464936
 20
103.2096631781983
 30
0.0
 40
17.4999999999998
100
AcDbArc
 50
55.72434131831309
 51
61.90031176165074
  0
LINE
  5
30F
330
1F
100
AcDbEntity
  8
1
  6
Continuous
 62
     7
100
AcDbLine
 10
93.5841943250757
 20
123.2581974771173
 30
0.0
 11
93.5841945848569
 21
123.2581973533556
 31
0.0
  0
SPLINE
  5
310
330
1F
100
AcDbEntity
  8
1
  6
Continuous
 62
     2
100
AcDbSpline
210
0.0
220
0.0
230
1.0
 70
     8
 71
     3
 72
     9
 73
     5
 74
     3
 42
0.000000001
 43
0.0000000001
 44
0.00000001
 40
0.0
 40
0.0
 40
0.0
 40
0.0
 40
6.753502173369579
 40
13.43070958153519
 40
13.43070958153519
 40
13.43070958153519
 40
13.43070958153519
 10
100.4087199615376
 20
106.954772508581
 30
0.0
 10
101.6124566761632
 20
108.8689466528786
 30
0.0
 10
104.0063313936769
 20
112.6756703974145
 30
0.0
 10
105.373807051192
 20
116.9592864727111
 30
0.0
 10
106.053660815639
 20
119.0889277153274
 30
0.0
 11
100.4087199615376
 21
106.954772508581
 31
0.0
 11
103.7604067595805
 21
112.8178763985794
 31
0.0
 11
106.053660815639
 21
119.0889277153274
 31
0.0
  0
SPLINE
  5
311
330
1F
100
AcDbEntity
  8
1
  6
Continuous
 62
     2
100
AcDbSpline
210
0.0
220
0.0
230
1.0
 70
     8
 71
     3
 72
     9
 73
     5
 74
     3
 42
0.000000001
 43
0.0000000001
 44
0.00000001
 40
0.0
 40
0.0
 40
0.0
 40
0.0
 40
6.788398215325785
 40
13.47110605168283
 40
13.47110605168283
 40
13.47110605168283
 40
13.47110605168283
 10
101.3008551003001
 20
106.4642014168976
 30
0.0
 10
102.5022627878053
 20
108.3931953916704
 30
0.0
 10
104.8863731090082
 20
112.2211503295708
 30
0.0
 10
106.259773054333
 20
116.5162348913606
 30
0.0
 10
106.9410853696702
 20
118.6469281840559
 30
0.0
 11
101.3008551003001
 21
106.4642014168976
 31
0.0
 11
104.6484201367031
 21
112.3698054222566
 31
0.0
 11
106.9410853696702
 21
118.6469281840559
 31
0.0
  0
MTEXT
  5
312
330
1F
100
AcDbEntity
  8
1
 62
     7
100
AcDbMText
 10
368.24293089329
 20
504.0252258443643
 30
0.0
 40
7.0
 41
0.0
 71
     5
 72
     1
  1
50以下
  7
CONVERTER_11
 73
     1
 44
0.54545454545455
  0
MTEXT
  5
313
330
1F
100
AcDbEntity
  8
1
 62
     7
100
AcDbMText
 10
368.24293089329
 20
518.0252258443643
 30
0.0
 40
7.0
 41
0.0
 71
     5
 72
     1
  1
40以下
  7
CONVERTER_11
 73
     1
 44
0.54545454545455
  0
MTEXT
  5
314
330
1F
100
AcDbEntity
  8
1
 62
     7
100
AcDbMText
 10
368.24293089329
 20
532.0252258443645
 30
0.0
 40
7.0
 41
0.0
 71
     5
 72
     1
  1
30以下
  7
CONVERTER_11
 73
     1
 44
0.54545454545455
  0
MTEXT
  5
315
330
1F
100
AcDbEntity
  8
1
 62
     7
100
AcDbMText
 10
368.24293089329
 20
546.0252258443645
 30
0.0
 40
7.0
 41
0.0
 71
     5
 72
     1
  1
20以下
  7
CONVERTER_11
 73
     1
 44
0.54545454545455
  0
MTEXT
  5
316
330
1F
100
AcDbEntity
  8
1
 62
     7
100
AcDbMText
 10
368.24293089329
 20
560.0252258443645
 30
0.0
 40
7.0
 41
0.0
 71
     5
 72
     1
  1
許容変位量
  7
CONVERTER_11
 73
     1
 44
0.54545454545455
  0
MTEXT
  5
317
330
1F
100
AcDbEntity
  8
1
 62
     7
100
AcDbMText
 10
114.0
 20
28.5
 30
0.0
 40
7.0
 41
0.0
 71
     5
 72
     1
  1
H642-50Xサイズ
  7
CONVERTER_11
 73
     1
 44
0.63636363636364
  0
MTEXT
  5
319
330
1F
100
AcDbEntity
  8
1
 62
     7
100
AcDbMText
 10
187.5
 20
34.0
 30
0.0
 40
7.0
 41
0.0
 71
     5
 72
     1
  1
2
  7
CONVERTER_12
 73
     1
 44
0.7202881152461
  0
MTEXT
  5
31A
330
1F
100
AcDbEntity
  8
1
 62
     7
100
AcDbMText
 10
170.5
 20
34.0
 30
0.0
 40
7.0
 41
0.0
 71
     5
 72
     1
  1
1
  7
CONVERTER_12
 73
     1
 44
0.7202881152461
  0
MTEXT
  5
31B
330
1F
100
AcDbEntity
  8
1
 62
     7
100
AcDbMText
 10
114.0
 20
45.50000000000002
 30
0.0
 40
7.0
 41
0.0
 71
     5
 72
     1
  1
パン排水フレキ
  7
CONVERTER_11
 73
     1
 44
0.54545454545455
  0
MTEXT
  5
31C
330
1F
100
AcDbEntity
  8
1
 62
     7
100
AcDbMText
 10
277.24293089329
 20
560.0252258443645
 30
0.0
 40
7.0
 41
0.0
 71
     5
 72
     1
  1
品番
  7
CONVERTER_11
 73
     1
 44
0.54545454545455
  0
MTEXT
  5
31D
330
1F
100
AcDbEntity
  8
1
 62
     7
100
AcDbMText
 10
277.24293089329
 20
546.0252258443645
 30
0.0
 40
7.0
 41
0.0
 71
     5
 72
     1
  1
H642-50X250
  7
CONVERTER_12
 73
     1
 44
0.7202881152461
  0
MTEXT
  5
31E
330
1F
100
AcDbEntity
  8
1
 62
     7
100
AcDbMText
 10
329.24293089329
 20
546.0252258443645
 30
0.0
 40
7.0
 41
0.0
 71
     5
 72
     1
  1
250
  7
CONVERTER_12
 73
     1
 44
0.7202881152461
  0
MTEXT
  5
31F
330
1F
100
AcDbEntity
  8
1
 62
     7
100
AcDbMText
 10
329.24293089329
 20
560.0252258443645
 30
0.0
 40
7.0
 41
0.0
 71
     5
 72
     1
  1
L
  7
CONVERTER_12
 73
     1
 44
0.7202881152461
  0
MTEXT
  5
320
330
1F
100
AcDbEntity
  8
1
 62
     7
100
AcDbMText
 10
277.24293089329
 20
532.0252258443645
 30
0.0
 40
7.0
 41
0.0
 71
     5
 72
     1
  1
H642-50X300
  7
CONVERTER_12
 73
     1
 44
0.7202881152461
  0
MTEXT
  5
321
330
1F
100
AcDbEntity
  8
1
 62
     7
100
AcDbMText
 10
329.24293089329
 20
532.0252258443645
 30
0.0
 40
7.0
 41
0.0
 71
     5
 72
     1
  1
300
  7
CONVERTER_12
 73
     1
 44
0.7202881152461
  0
MTEXT
  5
322
330
1F
100
AcDbEntity
  8
1
 62
     7
100
AcDbMText
 10
277.2414144746439
 20
518.0717888796249
 30
0.0
 40
7.0
 41
0.0
 71
     5
 72
     1
  1
H642-50X350
  7
CONVERTER_12
 73
     1
 44
0.7202881152461
  0
MTEXT
  5
323
330
1F
100
AcDbEntity
  8
1
 62
     7
100
AcDbMText
 10
329.24293089329
 20
518.0252258443645
 30
0.0
 40
7.0
 41
0.0
 71
     5
 72
     1
  1
350
  7
CONVERTER_12
 73
     1
 44
0.7202881152461
  0
MTEXT
  5
324
330
1F
100
AcDbEntity
  8
1
 62
     7
100
AcDbMText
 10
277.0137383825751
 20
503.910907918728
 30
0.0
 40
7.0
 41
0.0
 71
     5
 72
     1
  1
H642-50X400
  7
CONVERTER_12
 73
     1
 44
0.7202881152461
  0
MTEXT
  5
325
330
1F
100
AcDbEntity
  8
1
 62
     7
100
AcDbMText
 10
329.24293089329
 20
504.0252258443645
 30
0.0
 40
7.0
 41
0.0
 71
     5
 72
     1
  1
400
  7
CONVERTER_12
 73
     1
 44
0.7202881152461
  0
MTEXT
  5
326
330
1F
100
AcDbEntity
  8
1
 62
     7
100
AcDbMText
 10
291.1357988890884
 20
100.5482673076249
 30
0.0
 40
10.0
 41
0.0
 71
     5
 72
     1
  1
注、ネジリ、引張り配管はしないこと。
  7
CONVERTER_11
 73
     1
 44
0.68181818181818
  0
DIMENSION
  5
333
330
1F
100
AcDbEntity
  8
1
100
AcDbDimension
  2
*D5
 10
150.0235126758221
 20
117.5828816362689
 30
0.0
 11
144.5235126758221
 21
144.599967949709
 31
0.0
 70
    32
  1
許容変位量
 71
     5
 42
-1.0
 53
90.0
  3
ME10_DIM_10
100
AcDbAlignedDimension
 13
141.032080675822
 23
107.4651306362689
 33
0.0
 14
79.8762428403841
 24
117.5828816362689
 34
0.0
 50
90.0
100
AcDbRotatedDimension
  0
DIMENSION
  5
33E
330
1F
100
AcDbEntity
  8
1
100
AcDbDimension
  2
*D6
 10
164.4458603465369
 20
126.250383569786
 30
0.0
 11
158.9458603465369
 21
251.250383569786
 31
0.0
 70
    33
  1
L
 71
     5
 42
-1.0
 53
90.0
  3
ME10_DIM_11
100
AcDbAlignedDimension
 13
184.900773442622
 23
376.250383569786
 33
0.0
 14
184.900773442622
 24
126.250383569786
 34
0.0
  0
DIMENSION
  5
349
330
1F
100
AcDbEntity
  8
1
100
AcDbDimension
  2
*D7
 10
286.4722978408463
 20
376.250383569786
 30
0.0
 11
280.9722978408463
 21
356.250383569786
 31
0.0
 70
    32
  1
<>
 71
     5
 42
-1.0
 53
90.0
  3
ME10_DIM_12
100
AcDbAlignedDimension
 13
256.4007734426222
 23
336.250383569786
 33
0.0
 14
256.9007734426222
 24
376.250383569786
 34
0.0
 50
90.0
100
AcDbRotatedDimension
  0
INSERT
  5
351
330
1F
100
AcDbEntity
  8
1
100
AcDbBlockReference
  2
*D8
 10
0.0
 20
0.0
 30
0.0
  0
ENDSEC
  0
SECTION
  2
OBJECTS
  0
DICTIONARY
  5
C
330
0
100
AcDbDictionary
281
     1
  3
ACAD_GROUP
350
D
  3
ACAD_LAYOUT
350
1A
  3
ACAD_MATERIAL
350
3B
  3
ACAD_MLEADERSTYLE
350
354
  3
ACAD_MLINESTYLE
350
17
  3
ACAD_PLOTSETTINGS
350
19
  3
ACAD_PLOTSTYLENAME
350
E
  3
ACAD_VISUALSTYLE
350
2A
  3
AcDbVariableDictionary
350
352
  0
DICTIONARY
  5
D
102
{ACAD_REACTORS
330
C
102
}
330
C
100
AcDbDictionary
281
     1
  0
DICTIONARY
  5
1A
102
{ACAD_REACTORS
330
C
102
}
330
C
100
AcDbDictionary
281
     1
  3
Layout1
350
1E
  3
Layout2
350
26
  3
Model
350
22
  0
DICTIONARY
  5
3B
102
{ACAD_REACTORS
330
C
102
}
330
C
100
AcDbDictionary
281
     1
  3
ByBlock
350
3D
  3
ByLayer
350
3C
  3
Global
350
3E
  0
DICTIONARY
  5
354
102
{ACAD_REACTORS
330
C
102
}
330
C
100
AcDbDictionary
281
     1
  0
DICTIONARY
  5
17
102
{ACAD_REACTORS
330
C
102
}
330
C
100
AcDbDictionary
281
     1
  3
Standard
350
18
  0
DICTIONARY
  5
19
102
{ACAD_REACTORS
330
C
102
}
330
C
100
AcDbDictionary
281
     1
  0
ACDBDICTIONARYWDFLT
  5
E
102
{ACAD_REACTORS
330
C
102
}
330
C
100
AcDbDictionary
281
     1
  3
Normal
350
F
100
AcDbDictionaryWithDefault
340
F
  0
DICTIONARY
  5
2A
102
{ACAD_REACTORS
330
C
102
}
330
C
100
AcDbDictionary
281
     1
  3
2dWireframe
350
2F
  3
3D Hidden
350
31
  3
3dWireframe
350
30
  3
Basic
350
32
  3
Brighten
350
36
  3
ColorChange
350
3A
  3
Conceptual
350
34
  3
Dim
350
35
  3
Facepattern
350
39
  3
Flat
350
2B
  3
FlatWithEdges
350
2C
  3
Gouraud
350
2D
  3
GouraudWithEdges
350
2E
  3
Linepattern
350
38
  3
Realistic
350
33
  3
Thicken
350
37
  0
DICTIONARY
  5
352
102
{ACAD_REACTORS
330
C
102
}
330
C
100
AcDbDictionary
281
     1
  3
DIMASSOC
350
355
  3
HIDETEXT
350
356
  0
LAYOUT
  5
1E
102
{ACAD_REACTORS
330
1A
102
}
330
1A
100
AcDbPlotSettings
  1

  2
none_device
  4

  6

 40
0.0
 41
0.0
 42
0.0
 43
0.0
 44
0.0
 45
0.0
 46
0.0
 47
0.0
 48
0.0
 49
0.0
140
0.0
141
0.0
142
1.0
143
1.0
 70
   688
 72
     0
 73
     0
 74
     5
  7

 75
    16
147
1.0
148
0.0
149
0.0
100
AcDbLayout
  1
Layout1
 70
     1
 71
     1
 10
0.0
 20
0.0
 11
12.0
 21
9.0
 12
0.0
 22
0.0
 32
0.0
 14
1.00000000000000E+20
 24
1.00000000000000E+20
 34
1.00000000000000E+20
 15
-1.00000000000000E+20
 25
-1.00000000000000E+20
 35
-1.00000000000000E+20
146
0.0
 13
0.0
 23
0.0
 33
0.0
 16
1.0
 26
0.0
 36
0.0
 17
0.0
 27
1.0
 37
0.0
 76
     0
330
1B
  0
LAYOUT
  5
26
102
{ACAD_REACTORS
330
1A
102
}
330
1A
100
AcDbPlotSettings
  1

  2
none_device
  4

  6

 40
0.0
 41
0.0
 42
0.0
 43
0.0
 44
0.0
 45
0.0
 46
0.0
 47
0.0
 48
0.0
 49
0.0
140
0.0
141
0.0
142
1.0
143
1.0
 70
   688
 72
     0
 73
     0
 74
     5
  7

 75
    16
147
1.0
148
0.0
149
0.0
100
AcDbLayout
  1
Layout2
 70
     1
 71
     2
 10
0.0
 20
0.0
 11
0.0
 21
0.0
 12
0.0
 22
0.0
 32
0.0
 14
0.0
 24
0.0
 34
0.0
 15
0.0
 25
0.0
 35
0.0
146
0.0
 13
0.0
 23
0.0
 33
0.0
 16
1.0
 26
0.0
 36
0.0
 17
0.0
 27
1.0
 37
0.0
 76
     0
330
23
  0
LAYOUT
  5
22
102
{ACAD_REACTORS
330
1A
102
}
330
1A
100
AcDbPlotSettings
  1

  2
none_device
  4

  6

 40
0.0
 41
0.0
 42
0.0
 43
0.0
 44
0.0
 45
0.0
 46
0.0
 47
0.0
 48
0.0
 49
0.0
140
0.0
141
0.0
142
1.0
143
1.0
 70
  1712
 72
     0
 73
     0
 74
     0
  7

 75
     0
147
1.0
148
0.0
149
0.0
100
AcDbLayout
  1
Model
 70
     1
 71
     0
 10
0.0
 20
0.0
 11
12.0
 21
9.0
 12
0.0
 22
0.0
 32
0.0
 14
-0.59922655737796
 24
0.0
 34
0.0
 15
419.400773442622
 25
594.0
 35
0.0
146
0.0
 13
0.0
 23
0.0
 33
0.0
 16
1.0
 26
0.0
 36
0.0
 17
0.0
 27
1.0
 37
0.0
 76
     0
330
1F
331
29
  0
MATERIAL
  5
3D
102
{ACAD_REACTORS
330
3B
102
}
102
{ACAD_XDICTIONARY
360
379
102
}
330
3B
100
AcDbMaterial
  1
ByBlock
  0
MATERIAL
  5
3C
102
{ACAD_REACTORS
330
3B
102
}
102
{ACAD_XDICTIONARY
360
377
102
}
330
3B
100
AcDbMaterial
  1
ByLayer
  0
MATERIAL
  5
3E
102
{ACAD_REACTORS
330
3B
102
}
102
{ACAD_XDICTIONARY
360
37B
102
}
330
3B
100
AcDbMaterial
  1
Global
  0
MLINESTYLE
  5
18
102
{ACAD_REACTORS
330
17
102
}
330
17
100
AcDbMlineStyle
  2
Standard
 70
     0
  3

 62
   256
 51
90.0
 52
90.0
 71
     2
 49
0.5
 62
   256
  6
BYLAYER
 49
-0.5
 62
   256
  6
BYLAYER
  0
ACDBPLACEHOLDER
  5
F
102
{ACAD_REACTORS
330
E
102
}
330
E
  0
VISUALSTYLE
  5
2F
102
{ACAD_REACTORS
330
2A
102
}
102
{ACAD_XDICTIONARY
360
35F
102
}
330
2A
100
AcDbVisualStyle
  2
2dWireframe
 70
     4
 71
     0
 72
     2
 73
     0
 90
        0
 40
-0.6
 41
-30.0
 62
     5
 63
     7
 74
     1
 91
        4
 64
     7
 65
   257
 75
     1
175
     1
 42
1.0
 92
        0
 66
   257
 43
1.0
 76
     1
 77
     6
 78
     2
 67
     7
 79
     5
170
     0
171
     0
290
     0
174
     0
 93
        1
 44
0.0
173
     0
291
     0
 45
0.0
1001
ACAD
1000
AcDbSavedByObjectVersion
1070
     0
  0
VISUALSTYLE
  5
31
102
{ACAD_REACTORS
330
2A
102
}
102
{ACAD_XDICTIONARY
360
363
102
}
330
2A
100
AcDbVisualStyle
  2
3D Hidden
 70
     6
 71
     1
 72
     2
 73
     2
 90
        0
 40
-0.6
 41
-30.0
 62
     5
 63
     7
 74
     2
 91
        2
 64
     7
 65
   257
 75
     2
175
     1
 42
40.0
 92
        0
 66
   257
 43
1.0
 76
     1
 77
     6
 78
     2
 67
     7
 79
     3
170
     0
171
     0
290
     0
174
     0
 93
        1
 44
0.0
173
     0
291
     0
 45
0.0
1001
ACAD
1000
AcDbSavedByObjectVersion
1070
     0
  0
VISUALSTYLE
  5
30
102
{ACAD_REACTORS
330
2A
102
}
102
{ACAD_XDICTIONARY
360
361
102
}
330
2A
100
AcDbVisualStyle
  2
3dWireframe
 70
     5
 71
     0
 72
     2
 73
     0
 90
        0
 40
-0.6
 41
-30.0
 62
     5
 63
     7
 74
     1
 91
        4
 64
     7
 65
   257
 75
     1
175
     1
 42
1.0
 92
        0
 66
   257
 43
1.0
 76
     1
 77
     6
 78
     2
 67
     7
 79
     5
170
     0
171
     0
290
     0
174
     0
 93
        1
 44
0.0
173
     0
291
     0
 45
0.0
1001
ACAD
1000
AcDbSavedByObjectVersion
1070
     0
  0
VISUALSTYLE
  5
32
102
{ACAD_REACTORS
330
2A
102
}
102
{ACAD_XDICTIONARY
360
365
102
}
330
2A
100
AcDbVisualStyle
  2
Basic
 70
     7
 71
     1
 72
     0
 73
     1
 90
        0
 40
-0.6
 41
-30.0
 62
     5
 63
     7
 74
     0
 91
        4
 64
     7
 65
   257
 75
     1
175
     1
 42
1.0
 92
        8
 66
     7
 43
1.0
 76
     1
 77
     6
 78
     2
 67
     7
 79
     5
170
     0
171
     0
290
     0
174
     0
 93
        1
 44
0.0
173
     0
291
     1
 45
0.0
1001
ACAD
1000
AcDbSavedByObjectVersion
1070
     0
  0
VISUALSTYLE
  5
36
102
{ACAD_REACTORS
330
2A
102
}
102
{ACAD_XDICTIONARY
360
36D
102
}
330
2A
100
AcDbVisualStyle
  2
Brighten
 70
    12
 71
     2
 72
     2
 73
     0
 90
        0
 40
-0.6
 41
-30.0
 62
     5
 63
     7
 74
     1
 91
        4
 64
     7
 65
   257
 75
     1
175
     1
 42
1.0
 92
        8
 66
     7
 43
1.0
 76
     1
 77
     6
 78
     2
 67
     7
 79
     5
170
     0
171
     0
290
     0
174
     0
 93
        1
 44
50.0
173
     0
291
     1
 45
0.0
1001
ACAD
1000
AcDbSavedByObjectVersion
1070
     0
  0
VISUALSTYLE
  5
3A
102
{ACAD_REACTORS
330
2A
102
}
102
{ACAD_XDICTIONARY
360
375
102
}
330
2A
100
AcDbVisualStyle
  2
ColorChange
 70
    16
 71
     2
 72
     2
 73
     3
 90
        0
 40
-0.6
 41
-30.0
 62
     5
 63
     8
 74
     1
 91
        4
 64
     7
 65
   257
 75
     1
175
     1
 42
1.0
 92
        8
 66
     8
 43
1.0
 76
     1
 77
     6
 78
     2
 67
     7
 79
     5
170
     0
171
     0
290
     0
174
     0
 93
        1
 44
0.0
173
     0
291
     1
 45
0.0
1001
ACAD
1000
AcDbSavedByObjectVersion
1070
     0
  0
VISUALSTYLE
  5
34
102
{ACAD_REACTORS
330
2A
102
}
102
{ACAD_XDICTIONARY
360
369
102
}
330
2A
100
AcDbVisualStyle
  2
Conceptual
 70
     9
 71
     3
 72
     2
 73
     0
 90
        0
 40
-0.6
 41
-30.0
 62
     5
 63
     7
 74
     2
 91
        2
 64
     7
 65
   257
 75
     1
175
     1
 42
40.0
 92
        8
 66
     7
 43
1.0
 76
     1
 77
     6
 78
     2
 67
     7
 79
     3
170
     0
171
     0
290
     0
174
     0
 93
        1
 44
0.0
173
     0
291
     0
 45
0.0
1001
ACAD
1000
AcDbSavedByObjectVersion
1070
     0
  0
VISUALSTYLE
  5
35
102
{ACAD_REACTORS
330
2A
102
}
102
{ACAD_XDICTIONARY
360
36B
102
}
330
2A
100
AcDbVisualStyle
  2
Dim
 70
    11
 71
     2
 72
     2
 73
     0
 90
        0
 40
-0.6
 41
-30.0
 62
     5
 63
     7
 74
     1
 91
        4
 64
     7
 65
   257
 75
     1
175
     1
 42
1.0
 92
        8
 66
     7
 43
1.0
 76
     1
 77
     6
 78
     2
 67
     7
 79
     5
170
     0
171
     0
290
     0
174
     0
 93
        1
 44
-50.0
173
     0
291
     1
 45
0.0
1001
ACAD
1000
AcDbSavedByObjectVersion
1070
     0
  0
VISUALSTYLE
  5
39
102
{ACAD_REACTORS
330
2A
102
}
102
{ACAD_XDICTIONARY
360
373
102
}
330
2A
100
AcDbVisualStyle
  2
Facepattern
 70
    15
 71
     2
 72
     2
 73
     0
 90
        0
 40
-0.6
 41
-30.0
 62
     5
 63
     7
 74
     1
 91
        4
 64
     7
 65
   257
 75
     1
175
     1
 42
1.0
 92
        8
 66
     7
 43
1.0
 76
     1
 77
     6
 78
     2
 67
     7
 79
     5
170
     0
171
     0
290
     0
174
     0
 93
        1
 44
0.0
173
     0
291
     1
 45
0.0
1001
ACAD
1000
AcDbSavedByObjectVersion
1070
     0
  0
VISUALSTYLE
  5
2B
102
{ACAD_REACTORS
330
2A
102
}
102
{ACAD_XDICTIONARY
360
357
102
}
330
2A
100
AcDbVisualStyle
  2
Flat
 70
     0
 71
     2
 72
     1
 73
     1
 90
        2
 40
-0.6
 41
30.0
 62
     5
 63
     7
 74
     0
 91
        4
 64
     7
 65
   257
 75
     1
175
     1
 42
1.0
 92
        8
 66
     7
 43
1.0
 76
     1
 77
     6
 78
     2
 67
     7
 79
     5
170
     0
171
     0
290
     0
174
     0
 93
       13
 44
0.0
173
     0
291
     1
 45
0.0
1001
ACAD
1000
AcDbSavedByObjectVersion
1070
     0
  0
VISUALSTYLE
  5
2C
102
{ACAD_REACTORS
330
2A
102
}
102
{ACAD_XDICTIONARY
360
359
102
}
330
2A
100
AcDbVisualStyle
  2
FlatWithEdges
 70
     1
 71
     2
 72
     1
 73
     1
 90
        2
 40
-0.6
 41
30.0
 62
     5
 63
     7
 74
     1
 91
        4
 64
     7
 65
   257
 75
     1
175
     1
 42
1.0
 92
        0
 66
   257
 43
1.0
 76
     1
 77
     6
 78
     2
 67
     7
 79
     5
170
     0
171
     0
290
     0
174
     0
 93
       13
 44
0.0
173
     0
291
     1
 45
0.0
1001
ACAD
1000
AcDbSavedByObjectVersion
1070
     0
  0
VISUALSTYLE
  5
2D
102
{ACAD_REACTORS
330
2A
102
}
102
{ACAD_XDICTIONARY
360
35B
102
}
330
2A
100
AcDbVisualStyle
  2
Gouraud
 70
     2
 71
     2
 72
     2
 73
     1
 90
        2
 40
-0.6
 41
30.0
 62
     5
 63
     7
 74
     0
 91
        4
 64
     7
 65
   257
 75
     1
175
     1
 42
1.0
 92
        0
 66
     7
 43
1.0
 76
     1
 77
     6
 78
     2
 67
     7
 79
     5
170
     0
171
     0
290
     0
174
     0
 93
       13
 44
0.0
173
     0
291
     1
 45
0.0
1001
ACAD
1000
AcDbSavedByObjectVersion
1070
     0
  0
VISUALSTYLE
  5
2E
102
{ACAD_REACTORS
330
2A
102
}
102
{ACAD_XDICTIONARY
360
35D
102
}
330
2A
100
AcDbVisualStyle
  2
GouraudWithEdges
 70
     3
 71
     2
 72
     2
 73
     1
 90
        2
 40
-0.6
 41
30.0
 62
     5
 63
     7
 74
     1
 91
        4
 64
     7
 65
   257
 75
     1
175
     1
 42
1.0
 92
        0
 66
   257
 43
1.0
 76
     1
 77
     6
 78
     2
 67
     7
 79
     5
170
     0
171
     0
290
     0
174
     0
 93
       13
 44
0.0
173
     0
291
     1
 45
0.0
1001
ACAD
1000
AcDbSavedByObjectVersion
1070
     0
  0
VISUALSTYLE
  5
38
102
{ACAD_REACTORS
330
2A
102
}
102
{ACAD_XDICTIONARY
360
371
102
}
330
2A
100
AcDbVisualStyle
  2
Linepattern
 70
    14
 71
     2
 72
     2
 73
     0
 90
        0
 40
-0.6
 41
-30.0
 62
     5
 63
     7
 74
     1
 91
        4
 64
     7
 65
   257
 75
     7
175
     7
 42
1.0
 92
        8
 66
     7
 43
1.0
 76
     1
 77
     6
 78
     2
 67
     7
 79
     5
170
     0
171
     0
290
     0
174
     0
 93
        1
 44
0.0
173
     0
291
     1
 45
0.0
1001
ACAD
1000
AcDbSavedByObjectVersion
1070
     0
  0
VISUALSTYLE
  5
33
102
{ACAD_REACTORS
330
2A
102
}
102
{ACAD_XDICTIONARY
360
367
102
}
330
2A
100
AcDbVisualStyle
  2
Realistic
 70
     8
 71
     2
 72
     2
 73
     0
 90
        0
 40
-0.6
 41
-30.0
 62
     5
 63
     7
 74
     1
 91
        0
 64
     7
 65
   257
 75
     1
175
     1
 42
1.0
 92
        8
 66
     8
 43
1.0
 76
     1
 77
     6
 78
     2
 67
     7
 79
     5
170
     0
171
     0
290
     0
174
     0
 93
       13
 44
0.0
173
     0
291
     0
 45
0.0
1001
ACAD
1000
AcDbSavedByObjectVersion
1070
     0
  0
VISUALSTYLE
  5
37
102
{ACAD_REACTORS
330
2A
102
}
102
{ACAD_XDICTIONARY
360
36F
102
}
330
2A
100
AcDbVisualStyle
  2
Thicken
 70
    13
 71
     2
 72
     2
 73
     0
 90
        0
 40
-0.6
 41
-30.0
 62
     5
 63
     7
 74
     1
 91
        4
 64
     7
 65
   257
 75
     1
175
     1
 42
1.0
 92
       12
 66
     7
 43
1.0
 76
     1
 77
     6
 78
     2
 67
     7
 79
     5
170
     0
171
     0
290
     0
174
     0
 93
        1
 44
0.0
173
     0
291
     1
 45
0.0
1001
ACAD
1000
AcDbSavedByObjectVersion
1070
     0
  0
DICTIONARYVAR
  5
355
102
{ACAD_REACTORS
330
352
102
}
330
352
100
DictionaryVariables
280
     0
  1
2
  0
DICTIONARYVAR
  5
356
102
{ACAD_REACTORS
330
352
102
}
330
352
100
DictionaryVariables
280
     0
  1
1
  0
DICTIONARY
  5
379
330
3D
100
AcDbDictionary
280
     1
281
     1
  3
ACAD_XREC_ROUNDTRIP
360
37A
  0
DICTIONARY
  5
377
330
3C
100
AcDbDictionary
280
     1
281
     1
  3
ACAD_XREC_ROUNDTRIP
360
378
  0
DICTIONARY
  5
37B
330
3E
100
AcDbDictionary
280
     1
281
     1
  3
ACAD_XREC_ROUNDTRIP
360
37C
  0
DICTIONARY
  5
35F
330
2F
100
AcDbDictionary
280
     1
281
     1
  3
ACAD_XREC_ROUNDTRIP
360
360
  0
DICTIONARY
  5
363
330
31
100
AcDbDictionary
280
     1
281
     1
  3
ACAD_XREC_ROUNDTRIP
360
364
  0
DICTIONARY
  5
361
330
30
100
AcDbDictionary
280
     1
281
     1
  3
ACAD_XREC_ROUNDTRIP
360
362
  0
DICTIONARY
  5
365
330
32
100
AcDbDictionary
280
     1
281
     1
  3
ACAD_XREC_ROUNDTRIP
360
366
  0
DICTIONARY
  5
36D
330
36
100
AcDbDictionary
280
     1
281
     1
  3
ACAD_XREC_ROUNDTRIP
360
36E
  0
DICTIONARY
  5
375
330
3A
100
AcDbDictionary
280
     1
281
     1
  3
ACAD_XREC_ROUNDTRIP
360
376
  0
DICTIONARY
  5
369
330
34
100
AcDbDictionary
280
     1
281
     1
  3
ACAD_XREC_ROUNDTRIP
360
36A
  0
DICTIONARY
  5
36B
330
35
100
AcDbDictionary
280
     1
281
     1
  3
ACAD_XREC_ROUNDTRIP
360
36C
  0
DICTIONARY
  5
373
330
39
100
AcDbDictionary
280
     1
281
     1
  3
ACAD_XREC_ROUNDTRIP
360
374
  0
DICTIONARY
  5
357
330
2B
100
AcDbDictionary
280
     1
281
     1
  3
ACAD_XREC_ROUNDTRIP
360
358
  0
DICTIONARY
  5
359
330
2C
100
AcDbDictionary
280
     1
281
     1
  3
ACAD_XREC_ROUNDTRIP
360
35A
  0
DICTIONARY
  5
35B
330
2D
100
AcDbDictionary
280
     1
281
     1
  3
ACAD_XREC_ROUNDTRIP
360
35C
  0
DICTIONARY
  5
35D
330
2E
100
AcDbDictionary
280
     1
281
     1
  3
ACAD_XREC_ROUNDTRIP
360
35E
  0
DICTIONARY
  5
371
330
38
100
AcDbDictionary
280
     1
281
     1
  3
ACAD_XREC_ROUNDTRIP
360
372
  0
DICTIONARY
  5
367
330
33
100
AcDbDictionary
280
     1
281
     1
  3
ACAD_XREC_ROUNDTRIP
360
368
  0
DICTIONARY
  5
36F
330
37
100
AcDbDictionary
280
     1
281
     1
  3
ACAD_XREC_ROUNDTRIP
360
370
  0
XRECORD
  5
37A
102
{ACAD_REACTORS
330
379
102
}
330
379
100
AcDbXrecord
280
     1
102
MATERIAL
148
0.0
149
0.0
149
0.0
 93
        0
 94
      127
282
     0
 72
     1
 77
     1
171
     1
175
     1
179
     1
273
     0
  0
XRECORD
  5
378
102
{ACAD_REACTORS
330
377
102
}
330
377
100
AcDbXrecord
280
     1
102
MATERIAL
148
0.0
149
0.0
149
0.0
 93
        0
 94
      127
282
     0
 72
     1
 77
     1
171
     1
175
     1
179
     1
273
     0
  0
XRECORD
  5
37C
102
{ACAD_REACTORS
330
37B
102
}
330
37B
100
AcDbXrecord
280
     1
102
MATERIAL
148
0.0
149
0.0
149
0.0
 93
        0
 94
      127
282
     0
 72
     1
 77
     1
171
     1
175
     1
179
     1
273
     0
  0
XRECORD
  5
360
102
{ACAD_REACTORS
330
35F
102
}
330
35F
100
AcDbXrecord
280
     1
102
RTVSPropertyOp0
 70
     1
102
RTVSPropertyOp1
 70
     1
102
RTVSPropertyOp2
 70
     1
102
RTVSPropertyOp3
 70
     1
102
RTVSPropertyOp4
 70
     1
102
RTVSPropertyOp5
 70
     1
102
RTVSPropertyOp6
 70
     1
102
RTVSPropertyOp7
 70
     1
102
RTVSPropertyOp8
 70
     1
102
RTVSPropertyOp9
 70
     1
102
RTVSPropertyOp10
 70
     1
102
RTVSPropertyOp11
 70
     1
102
RTVSPropertyOp12
 70
     1
102
RTVSPropertyOp13
 70
     1
102
RTVSPropertyOp14
 70
     1
102
RTVSPropertyOp15
 70
     1
102
RTVSPropertyOp16
 70
     1
102
RTVSPropertyOp17
 70
     1
102
RTVSPropertyOp18
 70
     1
102
RTVSPropertyOp19
 70
     1
102
RTVSPropertyOp20
 70
     1
102
RTVSPropertyOp21
 70
     1
102
RTVSPropertyOp22
 70
     1
102
RTVSPropertyOp23
 70
     1
102
RTVSPropertyOp24
 70
     1
102
RTVSPropertyOp25
 70
     1
102
RTVSPropertyOp26
 70
     1
102
RTVSPropertyOp27
 70
     1
102
RTVSPropertyOp28
 70
     1
102
RTVSPropertyOp29
 70
     1
102
RTVSPropertyOp30
 70
     1
102
RTVSPropertyOp31
 70
     1
102
RTVSPropertyOp32
 70
     1
  0
XRECORD
  5
364
102
{ACAD_REACTORS
330
363
102
}
330
363
100
AcDbXrecord
280
     1
102
RTVSPropertyOp0
 70
     1
102
RTVSPropertyOp1
 70
     1
102
RTVSPropertyOp2
 70
     1
102
RTVSPropertyOp3
 70
     1
102
RTVSPropertyOp4
 70
     1
102
RTVSPropertyOp5
 70
     1
102
RTVSPropertyOp6
 70
     1
102
RTVSPropertyOp7
 70
     1
102
RTVSPropertyOp8
 70
     1
102
RTVSPropertyOp9
 70
     1
102
RTVSPropertyOp10
 70
     1
102
RTVSPropertyOp11
 70
     1
102
RTVSPropertyOp12
 70
     1
102
RTVSPropertyOp13
 70
     1
102
RTVSPropertyOp14
 70
     1
102
RTVSPropertyOp15
 70
     1
102
RTVSPropertyOp16
 70
     1
102
RTVSPropertyOp17
 70
     1
102
RTVSPropertyOp18
 70
     1
102
RTVSPropertyOp19
 70
     1
102
RTVSPropertyOp20
 70
     1
102
RTVSPropertyOp21
 70
     1
102
RTVSPropertyOp22
 70
     1
102
RTVSPropertyOp23
 70
     1
102
RTVSPropertyOp24
 70
     1
102
RTVSPropertyOp25
 70
     1
102
RTVSPropertyOp26
 70
     1
102
RTVSPropertyOp27
 70
     1
102
RTVSPropertyOp28
 70
     1
102
RTVSPropertyOp29
 70
     1
102
RTVSPropertyOp30
 70
     1
102
RTVSPropertyOp31
 70
     1
102
RTVSPropertyOp32
 70
     1
  0
XRECORD
  5
362
102
{ACAD_REACTORS
330
361
102
}
330
361
100
AcDbXrecord
280
     1
102
RTVSPropertyOp0
 70
     1
102
RTVSPropertyOp1
 70
     1
102
RTVSPropertyOp2
 70
     1
102
RTVSPropertyOp3
 70
     1
102
RTVSPropertyOp4
 70
     1
102
RTVSPropertyOp5
 70
     1
102
RTVSPropertyOp6
 70
     1
102
RTVSPropertyOp7
 70
     1
102
RTVSPropertyOp8
 70
     1
102
RTVSPropertyOp9
 70
     1
102
RTVSPropertyOp10
 70
     1
102
RTVSPropertyOp11
 70
     1
102
RTVSPropertyOp12
 70
     1
102
RTVSPropertyOp13
 70
     1
102
RTVSPropertyOp14
 70
     1
102
RTVSPropertyOp15
 70
     1
102
RTVSPropertyOp16
 70
     1
102
RTVSPropertyOp17
 70
     1
102
RTVSPropertyOp18
 70
     1
102
RTVSPropertyOp19
 70
     1
102
RTVSPropertyOp20
 70
     1
102
RTVSPropertyOp21
 70
     1
102
RTVSPropertyOp22
 70
     1
102
RTVSPropertyOp23
 70
     1
102
RTVSPropertyOp24
 70
     1
102
RTVSPropertyOp25
 70
     1
102
RTVSPropertyOp26
 70
     1
102
RTVSPropertyOp27
 70
     1
102
RTVSPropertyOp28
 70
     1
102
RTVSPropertyOp29
 70
     1
102
RTVSPropertyOp30
 70
     1
102
RTVSPropertyOp31
 70
     1
102
RTVSPropertyOp32
 70
     1
  0
XRECORD
  5
366
102
{ACAD_REACTORS
330
365
102
}
330
365
100
AcDbXrecord
280
     1
102
RTVSPropertyOp0
 70
     1
102
RTVSPropertyOp1
 70
     1
102
RTVSPropertyOp2
 70
     1
102
RTVSPropertyOp3
 70
     1
102
RTVSPropertyOp4
 70
     1
102
RTVSPropertyOp5
 70
     1
102
RTVSPropertyOp6
 70
     1
102
RTVSPropertyOp7
 70
     1
102
RTVSPropertyOp8
 70
     1
102
RTVSPropertyOp9
 70
     1
102
RTVSPropertyOp10
 70
     1
102
RTVSPropertyOp11
 70
     1
102
RTVSPropertyOp12
 70
     1
102
RTVSPropertyOp13
 70
     1
102
RTVSPropertyOp14
 70
     1
102
RTVSPropertyOp15
 70
     1
102
RTVSPropertyOp16
 70
     1
102
RTVSPropertyOp17
 70
     1
102
RTVSPropertyOp18
 70
     1
102
RTVSPropertyOp19
 70
     1
102
RTVSPropertyOp20
 70
     1
102
RTVSPropertyOp21
 70
     1
102
RTVSPropertyOp22
 70
     1
102
RTVSPropertyOp23
 70
     1
102
RTVSPropertyOp24
 70
     1
102
RTVSPropertyOp25
 70
     1
102
RTVSPropertyOp26
 70
     1
102
RTVSPropertyOp27
 70
     1
102
RTVSPropertyOp28
 70
     1
102
RTVSPropertyOp29
 70
     1
102
RTVSPropertyOp30
 70
     1
102
RTVSPropertyOp31
 70
     1
102
RTVSPropertyOp32
 70
     1
  0
XRECORD
  5
36E
102
{ACAD_REACTORS
330
36D
102
}
330
36D
100
AcDbXrecord
280
     1
102
RTVSPropertyOp0
 70
     1
102
RTVSPropertyOp1
 70
     1
102
RTVSPropertyOp2
 70
     1
102
RTVSPropertyOp3
 70
     1
102
RTVSPropertyOp4
 70
     1
102
RTVSPropertyOp5
 70
     1
102
RTVSPropertyOp6
 70
     1
102
RTVSPropertyOp7
 70
     1
102
RTVSPropertyOp8
 70
     1
102
RTVSPropertyOp9
 70
     1
102
RTVSPropertyOp10
 70
     1
102
RTVSPropertyOp11
 70
     1
102
RTVSPropertyOp12
 70
     1
102
RTVSPropertyOp13
 70
     1
102
RTVSPropertyOp14
 70
     1
102
RTVSPropertyOp15
 70
     1
102
RTVSPropertyOp16
 70
     1
102
RTVSPropertyOp17
 70
     1
102
RTVSPropertyOp18
 70
     1
102
RTVSPropertyOp19
 70
     1
102
RTVSPropertyOp20
 70
     1
102
RTVSPropertyOp21
 70
     1
102
RTVSPropertyOp22
 70
     1
102
RTVSPropertyOp23
 70
     1
102
RTVSPropertyOp24
 70
     1
102
RTVSPropertyOp25
 70
     1
102
RTVSPropertyOp26
 70
     1
102
RTVSPropertyOp27
 70
     1
102
RTVSPropertyOp28
 70
     1
102
RTVSPropertyOp29
 70
     1
102
RTVSPropertyOp30
 70
     1
102
RTVSPropertyOp31
 70
     1
102
RTVSPropertyOp32
 70
     1
  0
XRECORD
  5
376
102
{ACAD_REACTORS
330
375
102
}
330
375
100
AcDbXrecord
280
     1
102
RTVSPropertyOp0
 70
     1
102
RTVSPropertyOp1
 70
     1
102
RTVSPropertyOp2
 70
     1
102
RTVSPropertyOp3
 70
     1
102
RTVSPropertyOp4
 70
     1
102
RTVSPropertyOp5
 70
     1
102
RTVSPropertyOp6
 70
     1
102
RTVSPropertyOp7
 70
     1
102
RTVSPropertyOp8
 70
     1
102
RTVSPropertyOp9
 70
     1
102
RTVSPropertyOp10
 70
     1
102
RTVSPropertyOp11
 70
     1
102
RTVSPropertyOp12
 70
     1
102
RTVSPropertyOp13
 70
     1
102
RTVSPropertyOp14
 70
     1
102
RTVSPropertyOp15
 70
     1
102
RTVSPropertyOp16
 70
     1
102
RTVSPropertyOp17
 70
     1
102
RTVSPropertyOp18
 70
     1
102
RTVSPropertyOp19
 70
     1
102
RTVSPropertyOp20
 70
     1
102
RTVSPropertyOp21
 70
     1
102
RTVSPropertyOp22
 70
     1
102
RTVSPropertyOp23
 70
     1
102
RTVSPropertyOp24
 70
     1
102
RTVSPropertyOp25
 70
     1
102
RTVSPropertyOp26
 70
     1
102
RTVSPropertyOp27
 70
     1
102
RTVSPropertyOp28
 70
     1
102
RTVSPropertyOp29
 70
     1
102
RTVSPropertyOp30
 70
     1
102
RTVSPropertyOp31
 70
     1
102
RTVSPropertyOp32
 70
     1
  0
XRECORD
  5
36A
102
{ACAD_REACTORS
330
369
102
}
330
369
100
AcDbXrecord
280
     1
102
RTVSPropertyOp0
 70
     1
102
RTVSPropertyOp1
 70
     1
102
RTVSPropertyOp2
 70
     1
102
RTVSPropertyOp3
 70
     1
102
RTVSPropertyOp4
 70
     1
102
RTVSPropertyOp5
 70
     1
102
RTVSPropertyOp6
 70
     1
102
RTVSPropertyOp7
 70
     1
102
RTVSPropertyOp8
 70
     1
102
RTVSPropertyOp9
 70
     1
102
RTVSPropertyOp10
 70
     1
102
RTVSPropertyOp11
 70
     1
102
RTVSPropertyOp12
 70
     1
102
RTVSPropertyOp13
 70
     1
102
RTVSPropertyOp14
 70
     1
102
RTVSPropertyOp15
 70
     1
102
RTVSPropertyOp16
 70
     1
102
RTVSPropertyOp17
 70
     1
102
RTVSPropertyOp18
 70
     1
102
RTVSPropertyOp19
 70
     1
102
RTVSPropertyOp20
 70
     1
102
RTVSPropertyOp21
 70
     1
102
RTVSPropertyOp22
 70
     1
102
RTVSPropertyOp23
 70
     1
102
RTVSPropertyOp24
 70
     1
102
RTVSPropertyOp25
 70
     1
102
RTVSPropertyOp26
 70
     1
102
RTVSPropertyOp27
 70
     1
102
RTVSPropertyOp28
 70
     1
102
RTVSPropertyOp29
 70
     1
102
RTVSPropertyOp30
 70
     1
102
RTVSPropertyOp31
 70
     1
102
RTVSPropertyOp32
 70
     1
  0
XRECORD
  5
36C
102
{ACAD_REACTORS
330
36B
102
}
330
36B
100
AcDbXrecord
280
     1
102
RTVSPropertyOp0
 70
     1
102
RTVSPropertyOp1
 70
     1
102
RTVSPropertyOp2
 70
     1
102
RTVSPropertyOp3
 70
     1
102
RTVSPropertyOp4
 70
     1
102
RTVSPropertyOp5
 70
     1
102
RTVSPropertyOp6
 70
     1
102
RTVSPropertyOp7
 70
     1
102
RTVSPropertyOp8
 70
     1
102
RTVSPropertyOp9
 70
     1
102
RTVSPropertyOp10
 70
     1
102
RTVSPropertyOp11
 70
     1
102
RTVSPropertyOp12
 70
     1
102
RTVSPropertyOp13
 70
     1
102
RTVSPropertyOp14
 70
     1
102
RTVSPropertyOp15
 70
     1
102
RTVSPropertyOp16
 70
     1
102
RTVSPropertyOp17
 70
     1
102
RTVSPropertyOp18
 70
     1
102
RTVSPropertyOp19
 70
     1
102
RTVSPropertyOp20
 70
     1
102
RTVSPropertyOp21
 70
     1
102
RTVSPropertyOp22
 70
     1
102
RTVSPropertyOp23
 70
     1
102
RTVSPropertyOp24
 70
     1
102
RTVSPropertyOp25
 70
     1
102
RTVSPropertyOp26
 70
     1
102
RTVSPropertyOp27
 70
     1
102
RTVSPropertyOp28
 70
     1
102
RTVSPropertyOp29
 70
     1
102
RTVSPropertyOp30
 70
     1
102
RTVSPropertyOp31
 70
     1
102
RTVSPropertyOp32
 70
     1
  0
XRECORD
  5
374
102
{ACAD_REACTORS
330
373
102
}
330
373
100
AcDbXrecord
280
     1
102
RTVSPropertyOp0
 70
     1
102
RTVSPropertyOp1
 70
     1
102
RTVSPropertyOp2
 70
     1
102
RTVSPropertyOp3
 70
     1
102
RTVSPropertyOp4
 70
     1
102
RTVSPropertyOp5
 70
     1
102
RTVSPropertyOp6
 70
     1
102
RTVSPropertyOp7
 70
     1
102
RTVSPropertyOp8
 70
     1
102
RTVSPropertyOp9
 70
     1
102
RTVSPropertyOp10
 70
     1
102
RTVSPropertyOp11
 70
     1
102
RTVSPropertyOp12
 70
     1
102
RTVSPropertyOp13
 70
     1
102
RTVSPropertyOp14
 70
     1
102
RTVSPropertyOp15
 70
     1
102
RTVSPropertyOp16
 70
     1
102
RTVSPropertyOp17
 70
     1
102
RTVSPropertyOp18
 70
     1
102
RTVSPropertyOp19
 70
     1
102
RTVSPropertyOp20
 70
     1
102
RTVSPropertyOp21
 70
     1
102
RTVSPropertyOp22
 70
     1
102
RTVSPropertyOp23
 70
     1
102
RTVSPropertyOp24
 70
     1
102
RTVSPropertyOp25
 70
     1
102
RTVSPropertyOp26
 70
     1
102
RTVSPropertyOp27
 70
     1
102
RTVSPropertyOp28
 70
     1
102
RTVSPropertyOp29
 70
     1
102
RTVSPropertyOp30
 70
     1
102
RTVSPropertyOp31
 70
     1
102
RTVSPropertyOp32
 70
     1
  0
XRECORD
  5
358
102
{ACAD_REACTORS
330
357
102
}
330
357
100
AcDbXrecord
280
     1
102
RTVSPropertyOp0
 70
     1
102
RTVSPropertyOp1
 70
     1
102
RTVSPropertyOp2
 70
     1
102
RTVSPropertyOp3
 70
     1
102
RTVSPropertyOp4
 70
     1
102
RTVSPropertyOp5
 70
     1
102
RTVSPropertyOp6
 70
     1
102
RTVSPropertyOp7
 70
     1
102
RTVSPropertyOp8
 70
     1
102
RTVSPropertyOp9
 70
     1
102
RTVSPropertyOp10
 70
     1
102
RTVSPropertyOp11
 70
     1
102
RTVSPropertyOp12
 70
     1
102
RTVSPropertyOp13
 70
     1
102
RTVSPropertyOp14
 70
     1
102
RTVSPropertyOp15
 70
     1
102
RTVSPropertyOp16
 70
     1
102
RTVSPropertyOp17
 70
     1
102
RTVSPropertyOp18
 70
     1
102
RTVSPropertyOp19
 70
     1
102
RTVSPropertyOp20
 70
     1
102
RTVSPropertyOp21
 70
     1
102
RTVSPropertyOp22
 70
     1
102
RTVSPropertyOp23
 70
     1
102
RTVSPropertyOp24
 70
     1
102
RTVSPropertyOp25
 70
     1
102
RTVSPropertyOp26
 70
     1
102
RTVSPropertyOp27
 70
     1
102
RTVSPropertyOp28
 70
     1
102
RTVSPropertyOp29
 70
     1
102
RTVSPropertyOp30
 70
     1
102
RTVSPropertyOp31
 70
     1
102
RTVSPropertyOp32
 70
     1
  0
XRECORD
  5
35A
102
{ACAD_REACTORS
330
359
102
}
330
359
100
AcDbXrecord
280
     1
102
RTVSPropertyOp0
 70
     1
102
RTVSPropertyOp1
 70
     1
102
RTVSPropertyOp2
 70
     1
102
RTVSPropertyOp3
 70
     1
102
RTVSPropertyOp4
 70
     1
102
RTVSPropertyOp5
 70
     1
102
RTVSPropertyOp6
 70
     1
102
RTVSPropertyOp7
 70
     1
102
RTVSPropertyOp8
 70
     1
102
RTVSPropertyOp9
 70
     1
102
RTVSPropertyOp10
 70
     1
102
RTVSPropertyOp11
 70
     1
102
RTVSPropertyOp12
 70
     1
102
RTVSPropertyOp13
 70
     1
102
RTVSPropertyOp14
 70
     1
102
RTVSPropertyOp15
 70
     1
102
RTVSPropertyOp16
 70
     1
102
RTVSPropertyOp17
 70
     1
102
RTVSPropertyOp18
 70
     1
102
RTVSPropertyOp19
 70
     1
102
RTVSPropertyOp20
 70
     1
102
RTVSPropertyOp21
 70
     1
102
RTVSPropertyOp22
 70
     1
102
RTVSPropertyOp23
 70
     1
102
RTVSPropertyOp24
 70
     1
102
RTVSPropertyOp25
 70
     1
102
RTVSPropertyOp26
 70
     1
102
RTVSPropertyOp27
 70
     1
102
RTVSPropertyOp28
 70
     1
102
RTVSPropertyOp29
 70
     1
102
RTVSPropertyOp30
 70
     1
102
RTVSPropertyOp31
 70
     1
102
RTVSPropertyOp32
 70
     1
  0
XRECORD
  5
35C
102
{ACAD_REACTORS
330
35B
102
}
330
35B
100
AcDbXrecord
280
     1
102
RTVSPropertyOp0
 70
     1
102
RTVSPropertyOp1
 70
     1
102
RTVSPropertyOp2
 70
     1
102
RTVSPropertyOp3
 70
     1
102
RTVSPropertyOp4
 70
     1
102
RTVSPropertyOp5
 70
     1
102
RTVSPropertyOp6
 70
     1
102
RTVSPropertyOp7
 70
     1
102
RTVSPropertyOp8
 70
     1
102
RTVSPropertyOp9
 70
     1
102
RTVSPropertyOp10
 70
     1
102
RTVSPropertyOp11
 70
     1
102
RTVSPropertyOp12
 70
     1
102
RTVSPropertyOp13
 70
     1
102
RTVSPropertyOp14
 70
     1
102
RTVSPropertyOp15
 70
     1
102
RTVSPropertyOp16
 70
     1
102
RTVSPropertyOp17
 70
     1
102
RTVSPropertyOp18
 70
     1
102
RTVSPropertyOp19
 70
     1
102
RTVSPropertyOp20
 70
     1
102
RTVSPropertyOp21
 70
     1
102
RTVSPropertyOp22
 70
     1
102
RTVSPropertyOp23
 70
     1
102
RTVSPropertyOp24
 70
     1
102
RTVSPropertyOp25
 70
     1
102
RTVSPropertyOp26
 70
     1
102
RTVSPropertyOp27
 70
     1
102
RTVSPropertyOp28
 70
     1
102
RTVSPropertyOp29
 70
     1
102
RTVSPropertyOp30
 70
     1
102
RTVSPropertyOp31
 70
     1
102
RTVSPropertyOp32
 70
     1
  0
XRECORD
  5
35E
102
{ACAD_REACTORS
330
35D
102
}
330
35D
100
AcDbXrecord
280
     1
102
RTVSPropertyOp0
 70
     1
102
RTVSPropertyOp1
 70
     1
102
RTVSPropertyOp2
 70
     1
102
RTVSPropertyOp3
 70
     1
102
RTVSPropertyOp4
 70
     1
102
RTVSPropertyOp5
 70
     1
102
RTVSPropertyOp6
 70
     1
102
RTVSPropertyOp7
 70
     1
102
RTVSPropertyOp8
 70
     1
102
RTVSPropertyOp9
 70
     1
102
RTVSPropertyOp10
 70
     1
102
RTVSPropertyOp11
 70
     1
102
RTVSPropertyOp12
 70
     1
102
RTVSPropertyOp13
 70
     1
102
RTVSPropertyOp14
 70
     1
102
RTVSPropertyOp15
 70
     1
102
RTVSPropertyOp16
 70
     1
102
RTVSPropertyOp17
 70
     1
102
RTVSPropertyOp18
 70
     1
102
RTVSPropertyOp19
 70
     1
102
RTVSPropertyOp20
 70
     1
102
RTVSPropertyOp21
 70
     1
102
RTVSPropertyOp22
 70
     1
102
RTVSPropertyOp23
 70
     1
102
RTVSPropertyOp24
 70
     1
102
RTVSPropertyOp25
 70
     1
102
RTVSPropertyOp26
 70
     1
102
RTVSPropertyOp27
 70
     1
102
RTVSPropertyOp28
 70
     1
102
RTVSPropertyOp29
 70
     1
102
RTVSPropertyOp30
 70
     1
102
RTVSPropertyOp31
 70
     1
102
RTVSPropertyOp32
 70
     1
  0
XRECORD
  5
372
102
{ACAD_REACTORS
330
371
102
}
330
371
100
AcDbXrecord
280
     1
102
RTVSPropertyOp0
 70
     1
102
RTVSPropertyOp1
 70
     1
102
RTVSPropertyOp2
 70
     1
102
RTVSPropertyOp3
 70
     1
102
RTVSPropertyOp4
 70
     1
102
RTVSPropertyOp5
 70
     1
102
RTVSPropertyOp6
 70
     1
102
RTVSPropertyOp7
 70
     1
102
RTVSPropertyOp8
 70
     1
102
RTVSPropertyOp9
 70
     1
102
RTVSPropertyOp10
 70
     1
102
RTVSPropertyOp11
 70
     1
102
RTVSPropertyOp12
 70
     1
102
RTVSPropertyOp13
 70
     1
102
RTVSPropertyOp14
 70
     1
102
RTVSPropertyOp15
 70
     1
102
RTVSPropertyOp16
 70
     1
102
RTVSPropertyOp17
 70
     1
102
RTVSPropertyOp18
 70
     1
102
RTVSPropertyOp19
 70
     1
102
RTVSPropertyOp20
 70
     1
102
RTVSPropertyOp21
 70
     1
102
RTVSPropertyOp22
 70
     1
102
RTVSPropertyOp23
 70
     1
102
RTVSPropertyOp24
 70
     1
102
RTVSPropertyOp25
 70
     1
102
RTVSPropertyOp26
 70
     1
102
RTVSPropertyOp27
 70
     1
102
RTVSPropertyOp28
 70
     1
102
RTVSPropertyOp29
 70
     1
102
RTVSPropertyOp30
 70
     1
102
RTVSPropertyOp31
 70
     1
102
RTVSPropertyOp32
 70
     1
  0
XRECORD
  5
368
102
{ACAD_REACTORS
330
367
102
}
330
367
100
AcDbXrecord
280
     1
102
RTVSPropertyOp0
 70
     1
102
RTVSPropertyOp1
 70
     1
102
RTVSPropertyOp2
 70
     1
102
RTVSPropertyOp3
 70
     1
102
RTVSPropertyOp4
 70
     1
102
RTVSPropertyOp5
 70
     1
102
RTVSPropertyOp6
 70
     1
102
RTVSPropertyOp7
 70
     1
102
RTVSPropertyOp8
 70
     1
102
RTVSPropertyOp9
 70
     1
102
RTVSPropertyOp10
 70
     1
102
RTVSPropertyOp11
 70
     1
102
RTVSPropertyOp12
 70
     1
102
RTVSPropertyOp13
 70
     1
102
RTVSPropertyOp14
 70
     1
102
RTVSPropertyOp15
 70
     1
102
RTVSPropertyOp16
 70
     1
102
RTVSPropertyOp17
 70
     1
102
RTVSPropertyOp18
 70
     1
102
RTVSPropertyOp19
 70
     1
102
RTVSPropertyOp20
 70
     1
102
RTVSPropertyOp21
 70
     1
102
RTVSPropertyOp22
 70
     1
102
RTVSPropertyOp23
 70
     1
102
RTVSPropertyOp24
 70
     1
102
RTVSPropertyOp25
 70
     1
102
RTVSPropertyOp26
 70
     1
102
RTVSPropertyOp27
 70
     1
102
RTVSPropertyOp28
 70
     1
102
RTVSPropertyOp29
 70
     1
102
RTVSPropertyOp30
 70
     1
102
RTVSPropertyOp31
 70
     1
102
RTVSPropertyOp32
 70
     1
  0
XRECORD
  5
370
102
{ACAD_REACTORS
330
36F
102
}
330
36F
100
AcDbXrecord
280
     1
102
RTVSPropertyOp0
 70
     1
102
RTVSPropertyOp1
 70
     1
102
RTVSPropertyOp2
 70
     1
102
RTVSPropertyOp3
 70
     1
102
RTVSPropertyOp4
 70
     1
102
RTVSPropertyOp5
 70
     1
102
RTVSPropertyOp6
 70
     1
102
RTVSPropertyOp7
 70
     1
102
RTVSPropertyOp8
 70
     1
102
RTVSPropertyOp9
 70
     1
102
RTVSPropertyOp10
 70
     1
102
RTVSPropertyOp11
 70
     1
102
RTVSPropertyOp12
 70
     1
102
RTVSPropertyOp13
 70
     1
102
RTVSPropertyOp14
 70
     1
102
RTVSPropertyOp15
 70
     1
102
RTVSPropertyOp16
 70
     1
102
RTVSPropertyOp17
 70
     1
102
RTVSPropertyOp18
 70
     1
102
RTVSPropertyOp19
 70
     1
102
RTVSPropertyOp20
 70
     1
102
RTVSPropertyOp21
 70
     1
102
RTVSPropertyOp22
 70
     1
102
RTVSPropertyOp23
 70
     1
102
RTVSPropertyOp24
 70
     1
102
RTVSPropertyOp25
 70
     1
102
RTVSPropertyOp26
 70
     1
102
RTVSPropertyOp27
 70
     1
102
RTVSPropertyOp28
 70
     1
102
RTVSPropertyOp29
 70
     1
102
RTVSPropertyOp30
 70
     1
102
RTVSPropertyOp31
 70
     1
102
RTVSPropertyOp32
 70
     1
  0
ENDSEC
  0
EOF
