  0
SECTION
  2
HEADER
  9
$ACADVER
  1
AC1015
  9
$ACADMAINTVER
 70
     6
  9
$DWGCODEPAGE
  3
ANSI_932
  9
$INSBASE
 10
0.0
 20
0.0
 30
0.0
  9
$EXTMIN
 10
0.0
 20
0.0
 30
0.0
  9
$EXTMAX
 10
420.0
 20
594.0
 30
0.0
  9
$LIMMIN
 10
0.0
 20
0.0
  9
$LIMMAX
 10
12.0
 20
9.0
  9
$ORTHOMODE
 70
     0
  9
$REGENMODE
 70
     1
  9
$FILLMODE
 70
     1
  9
$QTEXTMODE
 70
     0
  9
$MIRRTEXT
 70
     1
  9
$LTSCALE
 40
1.0
  9
$ATTMODE
 70
     1
  9
$TEXTSIZE
 40
0.2
  9
$TRACEWID
 40
0.05
  9
$TEXTSTYLE
  7
Standard
  9
$CLAYER
  8
0
  9
$CELTYPE
  6
ByLayer
  9
$CECOLOR
 62
   256
  9
$CELTSCALE
 40
1.0
  9
$DISPSILH
 70
     0
  9
$DIMSCALE
 40
1.0
  9
$DIMASZ
 40
0.18
  9
$DIMEXO
 40
0.0625
  9
$DIMDLI
 40
0.38
  9
$DIMRND
 40
0.0
  9
$DIMDLE
 40
0.0
  9
$DIMEXE
 40
0.18
  9
$DIMTP
 40
0.0
  9
$DIMTM
 40
0.0
  9
$DIMTXT
 40
0.18
  9
$DIMCEN
 40
0.09
  9
$DIMTSZ
 40
0.0
  9
$DIMTOL
 70
     0
  9
$DIMLIM
 70
     0
  9
$DIMTIH
 70
     1
  9
$DIMTOH
 70
     1
  9
$DIMSE1
 70
     0
  9
$DIMSE2
 70
     0
  9
$DIMTAD
 70
     0
  9
$DIMZIN
 70
     0
  9
$DIMBLK
  1

  9
$DIMASO
 70
     1
  9
$DIMSHO
 70
     1
  9
$DIMPOST
  1

  9
$DIMAPOST
  1

  9
$DIMALT
 70
     0
  9
$DIMALTD
 70
     2
  9
$DIMALTF
 40
25.4
  9
$DIMLFAC
 40
1.0
  9
$DIMTOFL
 70
     0
  9
$DIMTVP
 40
0.0
  9
$DIMTIX
 70
     0
  9
$DIMSOXD
 70
     0
  9
$DIMSAH
 70
     0
  9
$DIMBLK1
  1

  9
$DIMBLK2
  1

  9
$DIMSTYLE
  2
Standard
  9
$DIMCLRD
 70
     0
  9
$DIMCLRE
 70
     0
  9
$DIMCLRT
 70
     0
  9
$DIMTFAC
 40
1.0
  9
$DIMGAP
 40
0.09
  9
$DIMJUST
 70
     0
  9
$DIMSD1
 70
     0
  9
$DIMSD2
 70
     0
  9
$DIMTOLJ
 70
     1
  9
$DIMTZIN
 70
     0
  9
$DIMALTZ
 70
     0
  9
$DIMALTTZ
 70
     0
  9
$DIMUPT
 70
     0
  9
$DIMDEC
 70
     4
  9
$DIMTDEC
 70
     4
  9
$DIMALTU
 70
     2
  9
$DIMALTTD
 70
     2
  9
$DIMTXSTY
  7
Standard
  9
$DIMAUNIT
 70
     0
  9
$DIMADEC
 70
     0
  9
$DIMALTRND
 40
0.0
  9
$DIMAZIN
 70
     0
  9
$DIMDSEP
 70
    46
  9
$DIMATFIT
 70
     3
  9
$DIMFRAC
 70
     0
  9
$DIMLDRBLK
  1

  9
$DIMLUNIT
 70
     2
  9
$DIMLWD
 70
    -2
  9
$DIMLWE
 70
    -2
  9
$DIMTMOVE
 70
     0
  9
$LUNITS
 70
     2
  9
$LUPREC
 70
     4
  9
$SKETCHINC
 40
0.1
  9
$FILLETRAD
 40
0.5
  9
$AUNITS
 70
     0
  9
$AUPREC
 70
     0
  9
$MENU
  1
.
  9
$ELEVATION
 40
0.0
  9
$PELEVATION
 40
0.0
  9
$THICKNESS
 40
0.0
  9
$LIMCHECK
 70
     0
  9
$CHAMFERA
 40
0.5
  9
$CHAMFERB
 40
0.5
  9
$CHAMFERC
 40
1.0
  9
$CHAMFERD
 40
0.0
  9
$SKPOLY
 70
     0
  9
$TDCREATE
 40
2456498.408209063
  9
$TDUCREATE
 40
2456498.033209063
  9
$TDUPDATE
 40
2456498.408210139
  9
$TDUUPDATE
 40
2456498.033210139
  9
$TDINDWG
 40
0.0000000116
  9
$TDUSRTIMER
 40
0.0000000116
  9
$USRTIMER
 70
     1
  9
$ANGBASE
 50
0.0
  9
$ANGDIR
 70
     0
  9
$PDMODE
 70
     0
  9
$PDSIZE
 40
0.0
  9
$PLINEWID
 40
0.0
  9
$SPLFRAME
 70
     0
  9
$SPLINETYPE
 70
     6
  9
$SPLINESEGS
 70
     8
  9
$HANDSEED
  5
71A
  9
$SURFTAB1
 70
     6
  9
$SURFTAB2
 70
     6
  9
$SURFTYPE
 70
     6
  9
$SURFU
 70
     6
  9
$SURFV
 70
     6
  9
$UCSBASE
  2

  9
$UCSNAME
  2

  9
$UCSORG
 10
0.0
 20
0.0
 30
0.0
  9
$UCSXDIR
 10
1.0
 20
0.0
 30
0.0
  9
$UCSYDIR
 10
0.0
 20
1.0
 30
0.0
  9
$UCSORTHOREF
  2

  9
$UCSORTHOVIEW
 70
     0
  9
$UCSORGTOP
 10
0.0
 20
0.0
 30
0.0
  9
$UCSORGBOTTOM
 10
0.0
 20
0.0
 30
0.0
  9
$UCSORGLEFT
 10
0.0
 20
0.0
 30
0.0
  9
$UCSORGRIGHT
 10
0.0
 20
0.0
 30
0.0
  9
$UCSORGFRONT
 10
0.0
 20
0.0
 30
0.0
  9
$UCSORGBACK
 10
0.0
 20
0.0
 30
0.0
  9
$PUCSBASE
  2

  9
$PUCSNAME
  2

  9
$PUCSORG
 10
0.0
 20
0.0
 30
0.0
  9
$PUCSXDIR
 10
1.0
 20
0.0
 30
0.0
  9
$PUCSYDIR
 10
0.0
 20
1.0
 30
0.0
  9
$PUCSORTHOREF
  2

  9
$PUCSORTHOVIEW
 70
     0
  9
$PUCSORGTOP
 10
0.0
 20
0.0
 30
0.0
  9
$PUCSORGBOTTOM
 10
0.0
 20
0.0
 30
0.0
  9
$PUCSORGLEFT
 10
0.0
 20
0.0
 30
0.0
  9
$PUCSORGRIGHT
 10
0.0
 20
0.0
 30
0.0
  9
$PUCSORGFRONT
 10
0.0
 20
0.0
 30
0.0
  9
$PUCSORGBACK
 10
0.0
 20
0.0
 30
0.0
  9
$USERI1
 70
     0
  9
$USERI2
 70
     0
  9
$USERI3
 70
     0
  9
$USERI4
 70
     0
  9
$USERI5
 70
     0
  9
$USERR1
 40
18.1
  9
$USERR2
 40
0.0
  9
$USERR3
 40
0.0
  9
$USERR4
 40
0.0
  9
$USERR5
 40
0.0
  9
$WORLDVIEW
 70
     1
  9
$SHADEDGE
 70
     3
  9
$SHADEDIF
 70
    70
  9
$TILEMODE
 70
     1
  9
$MAXACTVP
 70
    64
  9
$PINSBASE
 10
0.0
 20
0.0
 30
0.0
  9
$PLIMCHECK
 70
     0
  9
$PEXTMIN
 10
1.00000000000000E+20
 20
1.00000000000000E+20
 30
1.00000000000000E+20
  9
$PEXTMAX
 10
-1.00000000000000E+20
 20
-1.00000000000000E+20
 30
-1.00000000000000E+20
  9
$PLIMMIN
 10
0.0
 20
0.0
  9
$PLIMMAX
 10
12.0
 20
9.0
  9
$UNITMODE
 70
     0
  9
$VISRETAIN
 70
     1
  9
$PLINEGEN
 70
     0
  9
$PSLTSCALE
 70
     1
  9
$TREEDEPTH
 70
  3020
  9
$CMLSTYLE
  2
Standard
  9
$CMLJUST
 70
     0
  9
$CMLSCALE
 40
1.0
  9
$PROXYGRAPHICS
 70
     1
  9
$MEASUREMENT
 70
     1
  9
$CELWEIGHT
370
    -1
  9
$ENDCAPS
280
     0
  9
$JOINSTYLE
280
     0
  9
$LWDISPLAY
290
     0
  9
$INSUNITS
 70
     4
  9
$HYPERLINKBASE
  1

  9
$STYLESHEET
  1

  9
$XEDIT
290
     1
  9
$CEPSNTYPE
380
     0
  9
$PSTYLEMODE
290
     1
  9
$FINGERPRINTGUID
  2
{E96F9955-71AD-41F7-9C2A-BA9FE6763FA0}
  9
$VERSIONGUID
  2
{FAEB1C32-E019-11D5-929B-00C0DF256EC4}
  9
$EXTNAMES
290
     1
  9
$PSVPSCALE
 40
0.0
  9
$OLESTARTUP
290
     0
  0
ENDSEC
  0
SECTION
  2
CLASSES
  0
CLASS
  1
ACDBDICTIONARYWDFLT
  2
AcDbDictionaryWithDefault
  3
ObjectDBX Classes
 90
        0
280
     0
281
     0
  0
CLASS
  1
VISUALSTYLE
  2
AcDbVisualStyle
  3
ObjectDBX Classes
 90
     4095
280
     0
281
     0
  0
CLASS
  1
MATERIAL
  2
AcDbMaterial
  3
ObjectDBX Classes
 90
     1153
280
     0
281
     0
  0
CLASS
  1
DICTIONARYVAR
  2
AcDbDictionaryVar
  3
ObjectDBX Classes
 90
        0
280
     0
281
     0
  0
CLASS
  1
ACDBPLACEHOLDER
  2
AcDbPlaceHolder
  3
ObjectDBX Classes
 90
        0
280
     0
281
     0
  0
CLASS
  1
LAYOUT
  2
AcDbLayout
  3
ObjectDBX Classes
 90
        0
280
     0
281
     0
  0
ENDSEC
  0
SECTION
  2
TABLES
  0
TABLE
  2
VPORT
  5
8
330
0
100
AcDbSymbolTable
 70
     1
  0
VPORT
  5
29
330
8
100
AcDbSymbolTableRecord
100
AcDbViewportTableRecord
  2
*Active
 70
     0
 10
0.0
 20
0.0
 11
1.0
 21
1.0
 12
210.0
 22
297.0
 13
0.0
 23
0.0
 14
0.5
 24
0.5
 15
0.5
 25
0.5
 16
0.0
 26
0.0
 36
1.0
 17
0.0
 27
0.0
 37
0.0
 40
653.4000000000001
 41
1.60267857142857
 42
50.0
 43
0.0
 44
0.0
 50
0.0
 51
0.0
 71
     0
 72
   100
 73
     1
 74
     3
 75
     0
 76
     0
 77
     0
 78
     0
281
     0
 65
     1
110
0.0
120
0.0
130
0.0
111
1.0
121
0.0
131
0.0
112
0.0
122
1.0
132
0.0
 79
     0
146
0.0
  0
ENDTAB
  0
TABLE
  2
LTYPE
  5
5
330
0
100
AcDbSymbolTable
 70
     8
  0
LTYPE
  5
14
330
5
100
AcDbSymbolTableRecord
100
AcDbLinetypeTableRecord
  2
ByBlock
 70
     0
  3

 72
    65
 73
     0
 40
0.0
  0
LTYPE
  5
15
330
5
100
AcDbSymbolTableRecord
100
AcDbLinetypeTableRecord
  2
ByLayer
 70
     0
  3

 72
    65
 73
     0
 40
0.0
  0
LTYPE
  5
16
330
5
100
AcDbSymbolTableRecord
100
AcDbLinetypeTableRecord
  2
Continuous
 70
     0
  3
Solid line
 72
    65
 73
     0
 40
0.0
  0
LTYPE
  5
3F
330
5
100
AcDbSymbolTableRecord
100
AcDbLinetypeTableRecord
  2
DASHED
 70
     0
  3
Dashed
 72
    65
 73
     2
 40
15.0
 49
7.0
 74
     0
 49
-8.0
 74
     0
  0
LTYPE
  5
40
330
5
100
AcDbSymbolTableRecord
100
AcDbLinetypeTableRecord
  2
DOTTED
 70
     0
  3
Dotted
 72
    65
 73
     2
 40
1.0
 49
0.0
 74
     0
 49
-1.0
 74
     0
  0
LTYPE
  5
41
330
5
100
AcDbSymbolTableRecord
100
AcDbLinetypeTableRecord
  2
DOT_CENTER
 70
     0
  3
Dot_Center
 72
    65
 73
     4
 40
14.0
 49
12.0
 74
     0
 49
-1.0
 74
     0
 49
0.0
 74
     0
 49
-1.0
 74
     0
  0
LTYPE
  5
42
330
5
100
AcDbSymbolTableRecord
100
AcDbLinetypeTableRecord
  2
LONG_DASHED
 70
     0
  3
Long_Dashed
 72
    65
 73
     2
 40
15.0
 49
10.0
 74
     0
 49
-5.0
 74
     0
  0
LTYPE
  5
43
330
5
100
AcDbSymbolTableRecord
100
AcDbLinetypeTableRecord
  2
DASH_CENTER
 70
     0
  3
Dash_Center
 72
    65
 73
     4
 40
14.0
 49
11.0
 74
     0
 49
-1.0
 74
     0
 49
1.0
 74
     0
 49
-1.0
 74
     0
  0
LTYPE
  5
44
330
5
100
AcDbSymbolTableRecord
100
AcDbLinetypeTableRecord
  2
PHANTOM
 70
     0
  3
Phantom
 72
    65
 73
     6
 40
13.0
 49
10.0
 74
     0
 49
-1.0
 74
     0
 49
0.0
 74
     0
 49
-1.0
 74
     0
 49
0.0
 74
     0
 49
-1.0
 74
     0
  0
LTYPE
  5
45
330
5
100
AcDbSymbolTableRecord
100
AcDbLinetypeTableRecord
  2
CENTER_DASH_DASH
 70
     0
  3
Center_Dash_Dash
 72
    65
 73
     6
 40
14.0
 49
9.0
 74
     0
 49
-1.0
 74
     0
 49
1.0
 74
     0
 49
-1.0
 74
     0
 49
1.0
 74
     0
 49
-1.0
 74
     0
  0
ENDTAB
  0
TABLE
  2
LAYER
  5
2
330
0
100
AcDbSymbolTable
 70
     3
  0
LAYER
  5
10
330
2
100
AcDbSymbolTableRecord
100
AcDbLayerTableRecord
  2
0
 70
     0
 62
     7
  6
Continuous
370
    -3
390
F
  0
LAYER
  5
46
330
2
100
AcDbSymbolTableRecord
100
AcDbLayerTableRecord
  2
1
 70
     0
 62
     7
  6
Continuous
370
    -3
390
F
  0
LAYER
  5
47
330
2
100
AcDbSymbolTableRecord
100
AcDbLayerTableRecord
  2
LAYER_1
 70
     0
 62
     7
  6
Continuous
370
    -3
390
F
  0
ENDTAB
  0
TABLE
  2
STYLE
  5
3
330
0
100
AcDbSymbolTable
 70
     3
  0
STYLE
  5
11
330
3
100
AcDbSymbolTableRecord
100
AcDbTextStyleTableRecord
  2
Standard
 70
     0
 40
0.0
 41
1.0
 50
0.0
 71
     0
 42
0.2
  3
txt
  4

  0
STYLE
  5
97
330
3
100
AcDbSymbolTableRecord
100
AcDbTextStyleTableRecord
  2
CONVERTER_11
 70
     0
 40
0.0
 41
0.89
 50
0.0
 71
     0
 42
0.2
  3
MS Mincho.ttf
  4

1001
ACAD
1000
MS Mincho
1071
    32785
  0
STYLE
  5
6B6
330
3
100
AcDbSymbolTableRecord
100
AcDbTextStyleTableRecord
  2
CONVERTER_12
 70
     0
 40
0.0
 41
0.9
 50
0.0
 71
     0
 42
0.2
  3
txt.shx
  4

  0
ENDTAB
  0
TABLE
  2
VIEW
  5
6
330
0
100
AcDbSymbolTable
 70
     0
  0
ENDTAB
  0
TABLE
  2
UCS
  5
7
330
0
100
AcDbSymbolTable
 70
     0
  0
ENDTAB
  0
TABLE
  2
APPID
  5
9
330
0
100
AcDbSymbolTable
 70
     1
  0
APPID
  5
12
330
9
100
AcDbSymbolTableRecord
100
AcDbRegAppTableRecord
  2
ACAD
 70
     0
  0
ENDTAB
  0
TABLE
  2
DIMSTYLE
  5
A
330
0
100
AcDbSymbolTable
 70
     5
100
AcDbDimStyleTable
  0
DIMSTYLE
105
27
330
A
100
AcDbSymbolTableRecord
100
AcDbDimStyleTableRecord
  2
Standard
 70
     0
178
     0
340
11
  0
DIMSTYLE
105
6CC
102
{ACAD_REACTORS
330
6CD
102
}
330
A
100
AcDbSymbolTableRecord
100
AcDbDimStyleTableRecord
  2
ME10_DIM_10
 70
     0
  3
{\Fgdt;n}<>
 41
7.0
 42
0.0
 44
2.0
 73
     0
 74
     0
 77
     1
 78
     8
140
7.0
147
2.0
172
     1
173
     1
174
     1
175
     1
176
     2
177
     2
271
     2
178
     7
271
     2
340
6B6
  0
DIMSTYLE
105
6D7
102
{ACAD_REACTORS
330
6D8
102
}
330
A
100
AcDbSymbolTableRecord
100
AcDbDimStyleTableRecord
  2
ME10_DIM_11
 70
     0
 41
7.0
 42
0.0
 44
2.0
 73
     0
 74
     0
 77
     1
 78
     8
140
7.0
147
2.0
172
     1
173
     1
174
     1
175
     1
176
     2
177
     2
271
     2
178
     7
271
     2
340
6B6
  0
DIMSTYLE
105
6E2
102
{ACAD_REACTORS
330
6E3
102
}
330
A
100
AcDbSymbolTableRecord
100
AcDbDimStyleTableRecord
  2
ME10_DIM_12
 70
     0
 41
7.0
 42
0.0
 44
2.0
 73
     0
 74
     0
 77
     1
 78
     8
140
7.0
147
2.0
172
     1
173
     1
174
     1
175
     1
176
     2
177
     2
271
     2
178
     7
271
     2
340
6B6
  0
DIMSTYLE
105
6ED
102
{ACAD_REACTORS
330
6EE
102
}
330
A
100
AcDbSymbolTableRecord
100
AcDbDimStyleTableRecord
  2
ME10_DIM_13
 70
     0
 41
7.0
 42
0.0
 44
2.0
 73
     0
 74
     0
 77
     1
 78
     8
140
7.0
147
2.0
172
     1
173
     1
174
     1
175
     1
176
     2
177
     2
271
     2
178
     7
271
     2
340
6B6
  0
ENDTAB
  0
TABLE
  2
BLOCK_RECORD
  5
1
330
0
100
AcDbSymbolTable
 70
     6
  0
BLOCK_RECORD
  5
1F
330
1
100
AcDbSymbolTableRecord
100
AcDbBlockTableRecord
  2
*Model_Space
340
22
  0
BLOCK_RECORD
  5
1B
330
1
100
AcDbSymbolTableRecord
100
AcDbBlockTableRecord
  2
*Paper_Space
340
1E
  0
BLOCK_RECORD
  5
23
330
1
100
AcDbSymbolTableRecord
100
AcDbBlockTableRecord
  2
*Paper_Space0
340
26
  0
BLOCK_RECORD
  5
48
330
1
100
AcDbSymbolTableRecord
100
AcDbBlockTableRecord
  2
開示A4
340
0
102
{BLKREFS
331
4B
102
}
  0
BLOCK_RECORD
  5
6C3
330
1
100
AcDbSymbolTableRecord
100
AcDbBlockTableRecord
  2
*D2
340
0
  0
BLOCK_RECORD
  5
6CE
330
1
100
AcDbSymbolTableRecord
100
AcDbBlockTableRecord
  2
*D3
340
0
  0
BLOCK_RECORD
  5
6D9
330
1
100
AcDbSymbolTableRecord
100
AcDbBlockTableRecord
  2
*D4
340
0
  0
BLOCK_RECORD
  5
6E4
330
1
100
AcDbSymbolTableRecord
100
AcDbBlockTableRecord
  2
*D5
340
0
  0
ENDTAB
  0
ENDSEC
  0
SECTION
  2
BLOCKS
  0
BLOCK
  5
20
330
1F
100
AcDbEntity
  8
0
100
AcDbBlockBegin
  2
*Model_Space
 70
     0
 10
0.0
 20
0.0
 30
0.0
  3
*Model_Space
  1

  0
ENDBLK
  5
21
330
1F
100
AcDbEntity
  8
0
100
AcDbBlockEnd
  0
BLOCK
  5
1C
330
1B
100
AcDbEntity
 67
     1
  8
0
100
AcDbBlockBegin
  2
*Paper_Space
 70
     0
 10
0.0
 20
0.0
 30
0.0
  3
*Paper_Space
  1

  0
ENDBLK
  5
1D
330
1B
100
AcDbEntity
 67
     1
  8
0
100
AcDbBlockEnd
  0
BLOCK
  5
24
330
23
100
AcDbEntity
  8
0
100
AcDbBlockBegin
  2
*Paper_Space0
 70
     0
 10
0.0
 20
0.0
 30
0.0
  3
*Paper_Space0
  1

  0
ENDBLK
  5
25
330
23
100
AcDbEntity
  8
0
100
AcDbBlockEnd
  0
BLOCK
  5
49
330
48
100
AcDbEntity
  8
0
100
AcDbBlockBegin
  2
開示A4
 70
     0
 10
0.0
 20
0.0
 30
0.0
  3
開示A4
  1

  0
POINT
  5
4C
330
48
100
AcDbEntity
  8
1
 62
     4
100
AcDbPoint
 10
34.0
 20
34.00000000000001
 30
0.0
  0
POINT
  5
4D
330
48
100
AcDbEntity
  8
1
 62
     4
100
AcDbPoint
 10
57.0
 20
12.25
 30
0.0
  0
POINT
  5
4E
330
48
100
AcDbEntity
  8
1
 62
     4
100
AcDbPoint
 10
57.0
 20
20.75000000000001
 30
0.0
  0
POINT
  5
4F
330
48
100
AcDbEntity
  8
1
 62
     4
100
AcDbPoint
 10
57.0
 20
24.75000000000001
 30
0.0
  0
POINT
  5
50
330
48
100
AcDbEntity
  8
1
 62
     4
100
AcDbPoint
 10
57.0
 20
16.25
 30
0.0
  0
POINT
  5
51
330
48
100
AcDbEntity
  8
1
 62
     4
100
AcDbPoint
 10
157.5
 20
19.00000000000001
 30
0.0
  0
POINT
  5
52
330
48
100
AcDbEntity
  8
1
 62
     4
100
AcDbPoint
 10
47.5
 20
282.0000000000003
 30
0.0
  0
POINT
  5
53
330
48
100
AcDbEntity
  8
1
 62
     4
100
AcDbPoint
 10
57.0
 20
22.75000000000001
 30
0.0
  0
POINT
  5
54
330
48
100
AcDbEntity
  8
1
 62
     4
100
AcDbPoint
 10
57.0
 20
14.25
 30
0.0
  0
POINT
  5
55
330
48
100
AcDbEntity
  8
1
 62
     4
100
AcDbPoint
 10
157.5
 20
12.5
 30
0.0
  0
POINT
  5
56
330
48
100
AcDbEntity
  8
1
 62
     4
100
AcDbPoint
 10
163.25
 20
12.5
 30
0.0
  0
POINT
  5
57
330
48
100
AcDbEntity
  8
1
 62
     4
100
AcDbPoint
 10
151.75
 20
12.5
 30
0.0
  0
POINT
  5
58
330
48
100
AcDbEntity
  8
1
 62
     4
100
AcDbPoint
 10
134.75
 20
12.5
 30
0.0
  0
POINT
  5
59
330
48
100
AcDbEntity
  8
1
 62
     4
100
AcDbPoint
 10
146.25
 20
12.5
 30
0.0
  0
POINT
  5
5A
330
48
100
AcDbEntity
  8
1
 62
     4
100
AcDbPoint
 10
140.5
 20
12.5
 30
0.0
  0
POINT
  5
5B
330
48
100
AcDbEntity
  8
1
 62
     4
100
AcDbPoint
 10
140.5
 20
19.00000000000001
 30
0.0
  0
POINT
  5
5C
330
48
100
AcDbEntity
  8
1
 62
     4
100
AcDbPoint
 10
117.75
 20
12.5
 30
0.0
  0
POINT
  5
5D
330
48
100
AcDbEntity
  8
1
 62
     4
100
AcDbPoint
 10
129.25
 20
12.5
 30
0.0
  0
POINT
  5
5E
330
48
100
AcDbEntity
  8
1
 62
     4
100
AcDbPoint
 10
123.5
 20
12.5
 30
0.0
  0
POINT
  5
5F
330
48
100
AcDbEntity
  8
1
 62
     4
100
AcDbPoint
 10
123.5
 20
19.00000000000001
 30
0.0
  0
POINT
  5
60
330
48
100
AcDbEntity
  8
1
 62
     4
100
AcDbPoint
 10
100.75
 20
12.5
 30
0.0
  0
POINT
  5
61
330
48
100
AcDbEntity
  8
1
 62
     4
100
AcDbPoint
 10
112.25
 20
12.5
 30
0.0
  0
POINT
  5
62
330
48
100
AcDbEntity
  8
1
 62
     4
100
AcDbPoint
 10
106.5
 20
12.5
 30
0.0
  0
POINT
  5
63
330
48
100
AcDbEntity
  8
1
 62
     4
100
AcDbPoint
 10
106.5
 20
19.00000000000001
 30
0.0
  0
POINT
  5
64
330
48
100
AcDbEntity
  8
1
 62
     4
100
AcDbPoint
 10
85.25
 20
17.0
 30
0.0
  0
POINT
  5
65
330
48
100
AcDbEntity
  8
1
 62
     4
100
AcDbPoint
 10
93.75
 20
17.0
 30
0.0
  0
LINE
  5
66
330
48
100
AcDbEntity
  8
1
  6
Continuous
 62
     2
100
AcDbLine
 10
81.0
 20
27.00000000000001
 30
0.0
 11
81.0
 21
10.0
 31
0.0
  0
LINE
  5
67
330
48
100
AcDbEntity
  8
1
  6
DOT_CENTER
 62
     2
100
AcDbLine
 10
187.0
 20
26.50000000000001
 30
0.0
 11
187.0
 21
20.50000000000001
 31
0.0
  0
LINE
  5
68
330
48
100
AcDbEntity
  8
1
  6
DOT_CENTER
 62
     2
100
AcDbLine
 10
184.0
 20
23.50000000000001
 30
0.0
 11
197.0
 21
23.50000000000001
 31
0.0
  0
LINE
  5
69
330
48
100
AcDbEntity
  8
1
  6
Continuous
 62
     7
100
AcDbLine
 10
196.0
 20
21.50000000000001
 30
0.0
 11
191.0
 21
22.30000000000001
 31
0.0
  0
LINE
  5
6A
330
48
100
AcDbEntity
  8
1
  6
Continuous
 62
     7
100
AcDbLine
 10
196.0
 20
25.50000000000001
 30
0.0
 11
196.0
 21
21.50000000000001
 31
0.0
  0
LINE
  5
6B
330
48
100
AcDbEntity
  8
1
  6
Continuous
 62
     7
100
AcDbLine
 10
191.0
 20
24.70000000000001
 30
0.0
 11
196.0
 21
25.50000000000001
 31
0.0
  0
LINE
  5
6C
330
48
100
AcDbEntity
  8
1
  6
Continuous
 62
     7
100
AcDbLine
 10
191.0
 20
24.70000000000001
 30
0.0
 11
191.0
 21
22.30000000000001
 31
0.0
  0
LINE
  5
6D
330
48
100
AcDbEntity
  8
1
  6
Continuous
 62
     2
100
AcDbLine
 10
33.0
 20
27.0
 30
0.0
 11
33.0
 21
10.0
 31
0.0
  0
LINE
  5
6E
330
48
100
AcDbEntity
  8
1
  6
Continuous
 62
     2
100
AcDbLine
 10
25.0
 20
18.50000000000001
 30
0.0
 11
81.0
 21
18.50000000000001
 31
0.0
  0
LINE
  5
6F
330
48
100
AcDbEntity
  8
1
  6
Continuous
 62
     7
100
AcDbLine
 10
200.0
 20
287.0000000000003
 30
0.0
 11
105.0
 21
287.0000000000003
 31
0.0
  0
LINE
  5
70
330
48
100
AcDbEntity
  8
1
  6
Continuous
 62
     7
100
AcDbLine
 10
200.0
 20
10.0
 30
0.0
 11
200.0
 21
148.5
 31
0.0
  0
LINE
  5
71
330
48
100
AcDbEntity
  8
1
  6
Continuous
 62
     7
100
AcDbLine
 10
25.0
 20
10.0
 30
0.0
 11
105.0
 21
10.0
 31
0.0
  0
LINE
  5
72
330
48
100
AcDbEntity
  8
1
  6
PHANTOM
 62
     4
100
AcDbLine
 10
0.0
 20
297.0
 30
0.0
 11
0.0
 21
0.0
 31
0.0
  0
LINE
  5
73
330
48
100
AcDbEntity
  8
1
  6
PHANTOM
 62
     4
100
AcDbLine
 10
210.0
 20
297.0
 30
0.0
 11
0.0
 21
297.0
 31
0.0
  0
LINE
  5
74
330
48
100
AcDbEntity
  8
1
  6
PHANTOM
 62
     4
100
AcDbLine
 10
210.0
 20
0.0
 30
0.0
 11
210.0
 21
297.0
 31
0.0
  0
LINE
  5
75
330
48
100
AcDbEntity
  8
1
  6
PHANTOM
 62
     4
100
AcDbLine
 10
0.0
 20
0.0
 30
0.0
 11
210.0
 21
0.0
 31
0.0
  0
LINE
  5
76
330
48
100
AcDbEntity
  8
1
  6
Continuous
 62
     7
100
AcDbLine
 10
25.0
 20
41.0
 30
0.0
 11
200.0
 21
41.0
 31
0.0
  0
LINE
  5
77
330
48
100
AcDbEntity
  8
1
  6
Continuous
 62
     7
100
AcDbLine
 10
200.0
 20
27.00000000000001
 30
0.0
 11
25.0
 21
27.00000000000001
 31
0.0
  0
LINE
  5
78
330
48
100
AcDbEntity
  8
1
  6
Continuous
 62
     2
100
AcDbLine
 10
33.0
 20
41.00000000000001
 30
0.0
 11
33.0
 21
27.0
 31
0.0
  0
LINE
  5
79
330
48
100
AcDbEntity
  8
1
  6
Continuous
 62
     2
100
AcDbLine
 10
55.0
 20
287.0000000000003
 30
0.0
 11
55.0
 21
277.0000000000003
 31
0.0
  0
LINE
  5
7A
330
48
100
AcDbEntity
  8
1
  6
Continuous
 62
     2
100
AcDbLine
 10
40.0
 20
287.0000000000003
 30
0.0
 11
40.0
 21
277.0000000000003
 31
0.0
  0
LINE
  5
7B
330
48
100
AcDbEntity
  8
1
  6
Continuous
 62
     7
100
AcDbLine
 10
25.0
 20
10.0
 30
0.0
 11
25.0
 21
148.5
 31
0.0
  0
LINE
  5
7C
330
48
100
AcDbEntity
  8
1
  6
Continuous
 62
     2
100
AcDbLine
 10
55.0
 20
277.0000000000003
 30
0.0
 11
25.0
 21
277.0000000000003
 31
0.0
  0
LINE
  5
7D
330
48
100
AcDbEntity
  8
1
  6
Continuous
 62
     2
100
AcDbLine
 10
166.0
 20
27.00000000000001
 30
0.0
 11
166.0
 21
10.0
 31
0.0
  0
LINE
  5
7E
330
48
100
AcDbEntity
  8
1
  6
Continuous
 62
     2
100
AcDbLine
 10
132.0
 20
27.00000000000001
 30
0.0
 11
132.0
 21
9.99999999999999
 31
0.0
  0
LINE
  5
7F
330
48
100
AcDbEntity
  8
1
  6
Continuous
 62
     2
100
AcDbLine
 10
149.0
 20
27.00000000000001
 30
0.0
 11
149.0
 21
10.0
 31
0.0
  0
LINE
  5
80
330
48
100
AcDbEntity
  8
1
  6
Continuous
 62
     2
100
AcDbLine
 10
115.0
 20
27.00000000000001
 30
0.0
 11
115.0
 21
9.99999999999999
 31
0.0
  0
LINE
  5
81
330
48
100
AcDbEntity
  8
1
  6
Continuous
 62
     2
100
AcDbLine
 10
98.0
 20
27.00000000000001
 30
0.0
 11
98.0
 21
9.99999999999999
 31
0.0
  0
LINE
  5
82
330
48
100
AcDbEntity
  8
1
  6
Continuous
 62
     2
100
AcDbLine
 10
166.0
 20
20.00000000000001
 30
0.0
 11
200.0
 21
20.00000000000001
 31
0.0
  0
LINE
  5
83
330
48
100
AcDbEntity
  8
1
  6
Continuous
 62
     2
100
AcDbLine
 10
105.0
 20
287.0000000000003
 30
0.0
 11
105.0
 21
292.0000000000003
 31
0.0
  0
LINE
  5
84
330
48
100
AcDbEntity
  8
1
  6
Continuous
 62
     7
100
AcDbLine
 10
105.0
 20
287.0000000000003
 30
0.0
 11
25.0
 21
287.0000000000003
 31
0.0
  0
LINE
  5
85
330
48
100
AcDbEntity
  8
1
  6
Continuous
 62
     2
100
AcDbLine
 10
25.0
 20
148.5
 30
0.0
 11
20.0
 21
148.5
 31
0.0
  0
LINE
  5
86
330
48
100
AcDbEntity
  8
1
  6
Continuous
 62
     7
100
AcDbLine
 10
25.0
 20
148.5
 30
0.0
 11
25.0
 21
287.0000000000003
 31
0.0
  0
LINE
  5
87
330
48
100
AcDbEntity
  8
1
  6
Continuous
 62
     2
100
AcDbLine
 10
200.0
 20
148.5
 30
0.0
 11
205.0
 21
148.5
 31
0.0
  0
LINE
  5
88
330
48
100
AcDbEntity
  8
1
  6
Continuous
 62
     7
100
AcDbLine
 10
200.0
 20
148.5
 30
0.0
 11
200.0
 21
287.0000000000003
 31
0.0
  0
LINE
  5
89
330
48
100
AcDbEntity
  8
1
  6
Continuous
 62
     2
100
AcDbLine
 10
105.0
 20
10.0
 30
0.0
 11
105.0
 21
5.0
 31
0.0
  0
LINE
  5
8A
330
48
100
AcDbEntity
  8
1
  6
Continuous
 62
     7
100
AcDbLine
 10
105.0
 20
10.0
 30
0.0
 11
200.0
 21
10.0
 31
0.0
  0
CIRCLE
  5
8B
330
48
100
AcDbEntity
  8
1
  6
DOT_CENTER
 62
     7
100
AcDbCircle
 10
89.5
 20
18.0
 30
0.0
 40
0.1000000000000227
  0
CIRCLE
  5
8C
330
48
100
AcDbEntity
  8
1
  6
DOT_CENTER
 62
     7
100
AcDbCircle
 10
89.5
 20
16.0
 30
0.0
 40
0.1000000000000227
  0
CIRCLE
  5
8D
330
48
100
AcDbEntity
  8
1
  6
Continuous
 62
     7
100
AcDbCircle
 10
187.0
 20
23.50000000000001
 30
0.0
 40
2.0
  0
CIRCLE
  5
8E
330
48
100
AcDbEntity
  8
1
  6
Continuous
 62
     7
100
AcDbCircle
 10
187.0
 20
23.50000000000001
 30
0.0
 40
1.200000000000102
  0
CIRCLE
  5
8F
330
48
100
AcDbEntity
  8
1
  6
Continuous
 62
     7
100
AcDbCircle
 10
154.5
 20
12.5
 30
0.0
 40
0.3000000000000114
  0
CIRCLE
  5
90
330
48
100
AcDbEntity
  8
1
  6
Continuous
 62
     7
100
AcDbCircle
 10
160.5
 20
12.5
 30
0.0
 40
0.3000000000000114
  0
CIRCLE
  5
91
330
48
100
AcDbEntity
  8
1
  6
Continuous
 62
     7
100
AcDbCircle
 10
143.5
 20
12.5
 30
0.0
 40
0.3000000000000114
  0
CIRCLE
  5
92
330
48
100
AcDbEntity
  8
1
  6
Continuous
 62
     7
100
AcDbCircle
 10
137.5
 20
12.5
 30
0.0
 40
0.3000000000000114
  0
CIRCLE
  5
93
330
48
100
AcDbEntity
  8
1
  6
Continuous
 62
     7
100
AcDbCircle
 10
126.5
 20
12.5
 30
0.0
 40
0.2999999999999972
  0
CIRCLE
  5
94
330
48
100
AcDbEntity
  8
1
  6
Continuous
 62
     7
100
AcDbCircle
 10
120.5
 20
12.5
 30
0.0
 40
0.2999999999999972
  0
CIRCLE
  5
95
330
48
100
AcDbEntity
  8
1
  6
Continuous
 62
     7
100
AcDbCircle
 10
109.5
 20
12.5
 30
0.0
 40
0.2999999999999972
  0
CIRCLE
  5
96
330
48
100
AcDbEntity
  8
1
  6
Continuous
 62
     7
100
AcDbCircle
 10
103.5
 20
12.5
 30
0.0
 40
0.2999999999999972
  0
MTEXT
  5
98
330
48
100
AcDbEntity
  8
1
 62
   250
100
AcDbMText
 10
25.0
 20
5.0
 30
0.0
 40
3.5
 41
0.0
 71
     4
 72
     1
  1
備考欄の文字列 原点位置=4
  7
CONVERTER_11
 73
     1
 44
0.54545454545455
  0
MTEXT
  5
99
330
48
100
AcDbEntity
  8
1
 62
     2
100
AcDbMText
 10
89.5
 20
24.00000000000001
 30
0.0
 40
3.5
 41
0.0
 71
     5
 72
     1
  1
尺度
  7
CONVERTER_11
 73
     1
 44
0.54545454545455
  0
MTEXT
  5
9A
330
48
100
AcDbEntity
  8
1
 62
     2
100
AcDbMText
 10
135.5
 20
25.00000000000001
 30
0.0
 40
3.0
 41
0.0
 71
     5
 72
     1
  1
製図
  7
CONVERTER_11
 73
     1
 44
0.59090909090909
  0
MTEXT
  5
9B
330
48
100
AcDbEntity
  8
1
 62
     2
100
AcDbMText
 10
152.5
 20
25.00000000000001
 30
0.0
 40
3.0
 41
0.0
 71
     5
 72
     1
  1
担当
  7
CONVERTER_11
 73
     1
 44
0.59090909090909
  0
MTEXT
  5
9C
330
48
100
AcDbEntity
  8
1
 62
     2
100
AcDbMText
 10
118.5
 20
25.00000000000001
 30
0.0
 40
3.0
 41
0.0
 71
     5
 72
     1
  1
検図
  7
CONVERTER_11
 73
     1
 44
0.59090909090909
  0
MTEXT
  5
9D
330
48
100
AcDbEntity
  8
1
 62
     2
100
AcDbMText
 10
175.0
 20
23.50000000000001
 30
0.0
 40
3.5
 41
0.0
 71
     5
 72
     1
  1
第三角法
  7
CONVERTER_11
 73
     1
 44
0.54545454545455
  0
MTEXT
  5
9E
330
48
100
AcDbEntity
  8
1
 62
     2
100
AcDbMText
 10
101.5
 20
25.00000000000001
 30
0.0
 40
3.0
 41
0.0
 71
     5
 72
     1
  1
承認
  7
CONVERTER_11
 73
     1
 44
0.59090909090909
  0
MTEXT
  5
9F
330
48
100
AcDbEntity
  8
1
 62
     2
100
AcDbMText
 10
29.0
 20
14.25
 30
0.0
 40
3.5
 41
0.0
 71
     5
 72
     1
  1
品番
  7
CONVERTER_11
 73
     1
 44
0.72727272727273
  0
MTEXT
  5
A0
330
48
100
AcDbEntity
  8
1
 62
     2
100
AcDbMText
 10
29.0
 20
22.75
 30
0.0
 40
3.5
 41
0.0
 71
     5
 72
     1
  1
品名
  7
CONVERTER_11
 73
     1
 44
0.72727272727273
  0
MTEXT
  5
A1
330
48
100
AcDbEntity
  8
1
 62
     2
100
AcDbMText
 10
29.0
 20
34.00000000000001
 30
0.0
 40
3.5
 41
0.0
 71
     5
 72
     1
  1
備考
  7
CONVERTER_11
 73
     1
 44
0.45454545454545
  0
MTEXT
  5
A2
330
48
100
AcDbEntity
  8
1
 62
     2
100
AcDbMText
 10
32.5
 20
282.0000000000003
 30
0.0
 40
5.0
 41
0.0
 71
     5
 72
     1
  1
図番
  7
CONVERTER_11
 73
     1
 44
0.45454545454545
  0
MTEXT
  5
A3
330
48
100
AcDbEntity
  8
1
 62
     7
100
AcDbMText
 10
171.5
 20
15.0
 30
0.0
 40
2.5
 41
0.0
 71
     5
 72
     1
  1
株式会社
  7
CONVERTER_11
 73
     1
 44
1.0
  0
MTEXT
  5
A4
330
48
100
AcDbEntity
  8
1
 62
     7
100
AcDbMText
 10
188.5
 20
15.0
 30
0.0
 40
3.0
 41
0.0
 71
     5
 72
     1
  1
三栄水栓製作所
  7
CONVERTER_11
 73
     1
 44
1.0
  0
ENDBLK
  5
4A
330
48
100
AcDbEntity
  8
0
100
AcDbBlockEnd
  0
BLOCK
  5
6CA
330
6C3
100
AcDbEntity
  8
0
100
AcDbBlockBegin
  2
*D2
 70
     1
 10
0.0
 20
0.0
 30
0.0
  3
*D2
  1

  0
LINE
  5
6C4
330
6C3
100
AcDbEntity
  8
1
  6
Continuous
 62
     2
100
AcDbLine
 10
206.3286561361896
 20
402.6675653674034
 30
0.0
 11
264.3286561361896
 21
402.6675653674034
 31
0.0
  0
LINE
  5
6C5
330
6C3
100
AcDbEntity
  8
1
  6
Continuous
 62
     2
100
AcDbLine
 10
206.3286561361896
 20
382.6977561202063
 30
0.0
 11
206.3286561361896
 21
404.6675653674034
 31
0.0
  0
LINE
  5
6C6
330
6C3
100
AcDbEntity
  8
1
  6
Continuous
 62
     2
100
AcDbLine
 10
264.3286561361896
 20
382.6373529228926
 30
0.0
 11
264.3286561361896
 21
404.6675653674034
 31
0.0
  0
SOLID
  5
6C7
330
6C3
100
AcDbEntity
  8
1
 62
     2
100
AcDbTrace
 10
213.3286561361896
 20
403.5891328505152
 30
0.0
 11
213.3286561361896
 21
401.7459978842917
 31
0.0
 12
206.3286561361896
 22
402.6675653674034
 32
0.0
 13
206.3286561361896
 23
402.6675653674034
 33
0.0
  0
SOLID
  5
6C8
330
6C3
100
AcDbEntity
  8
1
 62
     2
100
AcDbTrace
 10
257.3286561361896
 20
401.7459978842917
 30
0.0
 11
257.3286561361896
 21
403.5891328505152
 31
0.0
 12
264.3286561361896
 22
402.6675653674034
 32
0.0
 13
264.3286561361896
 23
402.6675653674034
 33
0.0
  0
MTEXT
  5
6C9
330
6C3
100
AcDbEntity
  8
1
 62
     7
100
AcDbMText
 10
228.5386561362065
 20
404.6675514532508
 30
0.0
 40
7.0
 41
0.0
 71
     7
 72
     1
  1
\C7;{\Fgdt;n}\C7;58
  7
CONVERTER_12
 11
0.9999999999970619
 21
2.424068405545306E-6
 31
0.0
 73
     1
 44
0.60024009603842
  0
ENDBLK
  5
6CB
330
6C3
100
AcDbEntity
  8
0
100
AcDbBlockEnd
  0
BLOCK
  5
6D5
330
6CE
100
AcDbEntity
  8
0
100
AcDbBlockBegin
  2
*D3
 70
     1
 10
0.0
 20
0.0
 30
0.0
  3
*D3
  1

  0
LINE
  5
6CF
330
6CE
100
AcDbEntity
  8
1
  6
Continuous
 62
     2
100
AcDbLine
 10
164.1487915118511
 20
382.7020463475671
 30
0.0
 11
164.1487915118511
 21
162.9695464229399
 31
0.0
  0
LINE
  5
6D0
330
6CE
100
AcDbEntity
  8
1
  6
Continuous
 62
     2
100
AcDbLine
 10
202.2091194560809
 20
382.7020463475671
 30
0.0
 11
162.1487915118511
 21
382.7020463475671
 31
0.0
  0
LINE
  5
6D1
330
6CE
100
AcDbEntity
  8
1
  6
Continuous
 62
     2
100
AcDbLine
 10
202.6550477479039
 20
162.9695464229399
 30
0.0
 11
162.1487915118511
 21
162.9695464229399
 31
0.0
  0
SOLID
  5
6D2
330
6CE
100
AcDbEntity
  8
1
 62
     2
100
AcDbTrace
 10
165.0703589949629
 20
375.7020463475671
 30
0.0
 11
163.2272240287393
 21
375.7020463475671
 31
0.0
 12
164.1487915118511
 22
382.7020463475671
 32
0.0
 13
164.1487915118511
 23
382.7020463475671
 33
0.0
  0
SOLID
  5
6D3
330
6CE
100
AcDbEntity
  8
1
 62
     2
100
AcDbTrace
 10
163.2272240287393
 20
169.9695464229399
 30
0.0
 11
165.0703589949629
 21
169.9695464229399
 31
0.0
 12
164.1487915118511
 22
162.9695464229399
 32
0.0
 13
164.1487915118511
 23
162.9695464229399
 33
0.0
  0
MTEXT
  5
6D4
330
6CE
100
AcDbEntity
  8
1
 62
     7
100
AcDbMText
 10
162.1487915118511
 20
270.7013492873022
 30
0.0
 40
7.0
 41
0.0
 71
     7
 72
     1
  1
L
  7
CONVERTER_12
 11
0.0
 21
1.0
 31
0.0
 73
     1
 44
0.60024009603842
  0
ENDBLK
  5
6D6
330
6CE
100
AcDbEntity
  8
0
100
AcDbBlockEnd
  0
BLOCK
  5
6E0
330
6D9
100
AcDbEntity
  8
0
100
AcDbBlockBegin
  2
*D4
 70
     1
 10
0.0
 20
0.0
 30
0.0
  3
*D4
  1

  0
LINE
  5
6DA
330
6D9
100
AcDbEntity
  8
1
  6
Continuous
 62
     2
100
AcDbLine
 10
180.1487915118511
 20
207.6720028742214
 30
0.0
 11
180.1487915118511
 21
162.9695464229398
 31
0.0
  0
LINE
  5
6DB
330
6D9
100
AcDbEntity
  8
1
  6
Continuous
 62
     2
100
AcDbLine
 10
204.2001538050324
 20
207.6720028742214
 30
0.0
 11
178.1487915118511
 21
207.6720028742214
 31
0.0
  0
LINE
  5
6DC
330
6D9
100
AcDbEntity
  8
1
  6
Continuous
 62
     2
100
AcDbLine
 10
202.6550477479039
 20
162.9695464229398
 30
0.0
 11
178.1487915118511
 21
162.9695464229398
 31
0.0
  0
SOLID
  5
6DD
330
6D9
100
AcDbEntity
  8
1
 62
     2
100
AcDbTrace
 10
181.0703589949629
 20
200.6720028742214
 30
0.0
 11
179.2272240287393
 21
200.6720028742214
 31
0.0
 12
180.1487915118511
 22
207.6720028742214
 32
0.0
 13
180.1487915118511
 23
207.6720028742214
 33
0.0
  0
SOLID
  5
6DE
330
6D9
100
AcDbEntity
  8
1
 62
     2
100
AcDbTrace
 10
179.2272240287393
 20
169.9695464229398
 30
0.0
 11
181.0703589949629
 21
169.9695464229398
 31
0.0
 12
180.1487915118511
 22
162.9695464229398
 32
0.0
 13
180.1487915118511
 23
162.9695464229398
 33
0.0
  0
MTEXT
  5
6DF
330
6D9
100
AcDbEntity
  8
1
 62
     7
100
AcDbMText
 10
178.1487915118511
 20
180.0535734636381
 30
0.0
 40
7.0
 41
0.0
 71
     7
 72
     1
  1
45
  7
CONVERTER_12
 11
0.0
 21
1.0
 31
0.0
 73
     1
 44
0.60024009603842
  0
ENDBLK
  5
6E1
330
6D9
100
AcDbEntity
  8
0
100
AcDbBlockEnd
  0
BLOCK
  5
6EB
330
6E4
100
AcDbEntity
  8
0
100
AcDbBlockBegin
  2
*D5
 70
     1
 10
0.0
 20
0.0
 30
0.0
  3
*D5
  1

  0
LINE
  5
6E5
330
6E4
100
AcDbEntity
  8
1
  6
Continuous
 62
     2
100
AcDbLine
 10
180.1487915118511
 20
338.5835441524485
 30
0.0
 11
180.1487915118511
 21
382.7020463475671
 31
0.0
  0
LINE
  5
6E6
330
6E4
100
AcDbEntity
  8
1
  6
Continuous
 62
     2
100
AcDbLine
 10
204.1660666115686
 20
338.5835441524485
 30
0.0
 11
178.1487915118511
 21
338.5835441524485
 31
0.0
  0
LINE
  5
6E7
330
6E4
100
AcDbEntity
  8
1
  6
Continuous
 62
     2
100
AcDbLine
 10
202.2091194560809
 20
382.7020463475671
 30
0.0
 11
178.1487915118511
 21
382.7020463475671
 31
0.0
  0
SOLID
  5
6E8
330
6E4
100
AcDbEntity
  8
1
 62
     2
100
AcDbTrace
 10
179.2272240287393
 20
345.5835441524485
 30
0.0
 11
181.0703589949629
 21
345.5835441524485
 31
0.0
 12
180.1487915118511
 22
338.5835441524485
 32
0.0
 13
180.1487915118511
 23
338.5835441524485
 33
0.0
  0
SOLID
  5
6E9
330
6E4
100
AcDbEntity
  8
1
 62
     2
100
AcDbTrace
 10
181.0703589949629
 20
375.7020463475671
 30
0.0
 11
179.2272240287393
 21
375.7020463475671
 31
0.0
 12
180.1487915118511
 22
382.7020463475671
 32
0.0
 13
180.1487915118511
 23
382.7020463475671
 33
0.0
  0
MTEXT
  5
6EA
330
6E4
100
AcDbEntity
  8
1
 62
     7
100
AcDbMText
 10
178.1487915118511
 20
355.375549336999
 30
0.0
 40
7.0
 41
0.0
 71
     7
 72
     1
  1
45
  7
CONVERTER_12
 11
0.0
 21
1.0
 31
0.0
 73
     1
 44
0.60024009603842
  0
ENDBLK
  5
6EC
330
6E4
100
AcDbEntity
  8
0
100
AcDbBlockEnd
  0
ENDSEC
  0
SECTION
  2
ENTITIES
  0
INSERT
  5
4B
330
1F
100
AcDbEntity
  8
1
100
AcDbBlockReference
  2
開示A4
 10
0.0
 20
0.0
 30
0.0
 41
2.0
 42
2.0
 43
2.0
  0
LINE
  5
A5
330
1F
100
AcDbEntity
  8
1
  6
Continuous
 62
     7
100
AcDbLine
 10
250.7409808611741
 20
488.9287731427691
 30
0.0
 11
366.7409808611743
 21
488.9287731427691
 31
0.0
  0
LINE
  5
A6
330
1F
100
AcDbEntity
  8
1
  6
Continuous
 62
     2
100
AcDbLine
 10
340.7409808611736
 20
544.9287731427692
 30
0.0
 11
340.7409808611739
 21
488.9287731427691
 31
0.0
  0
LINE
  5
A7
330
1F
100
AcDbEntity
  8
1
  6
Continuous
 62
     7
100
AcDbLine
 10
250.7409808611741
 20
544.9287731427692
 30
0.0
 11
250.7409808611741
 21
488.9287731427691
 31
0.0
  0
LINE
  5
A8
330
1F
100
AcDbEntity
  8
1
  6
Continuous
 62
     2
100
AcDbLine
 10
250.7409808611741
 20
502.9287731427691
 30
0.0
 11
366.7409808611745
 21
502.9287731427689
 31
0.0
  0
LINE
  5
A9
330
1F
100
AcDbEntity
  8
1
  6
Continuous
 62
     2
100
AcDbLine
 10
250.7409808611741
 20
530.9287731427692
 30
0.0
 11
366.7409808611745
 21
530.928773142769
 31
0.0
  0
LINE
  5
AA
330
1F
100
AcDbEntity
  8
1
  6
Continuous
 62
     7
100
AcDbLine
 10
250.7409808611741
 20
544.9287731427692
 30
0.0
 11
366.7409808611745
 21
544.928773142769
 31
0.0
  0
LINE
  5
AB
330
1F
100
AcDbEntity
  8
1
  6
Continuous
 62
     2
100
AcDbLine
 10
250.7409808611741
 20
516.9287731427692
 30
0.0
 11
366.7409808611745
 21
516.9287731427689
 31
0.0
  0
LINE
  5
AC
330
1F
100
AcDbEntity
  8
1
  6
Continuous
 62
     7
100
AcDbLine
 10
366.7409808611745
 20
544.928773142769
 30
0.0
 11
366.7409808611745
 21
530.928773142769
 31
0.0
  0
LINE
  5
AD
330
1F
100
AcDbEntity
  8
1
  6
Continuous
 62
     7
100
AcDbLine
 10
366.7409808611745
 20
502.9287731427689
 30
0.0
 11
366.7409808611743
 21
488.9287731427691
 31
0.0
  0
LINE
  5
AE
330
1F
100
AcDbEntity
  8
1
  6
Continuous
 62
     7
100
AcDbLine
 10
366.7409808611745
 20
516.9287731427689
 30
0.0
 11
366.7409808611745
 21
502.9287731427689
 31
0.0
  0
LINE
  5
AF
330
1F
100
AcDbEntity
  8
1
  6
Continuous
 62
     7
100
AcDbLine
 10
366.7409808611745
 20
530.928773142769
 30
0.0
 11
366.7409808611745
 21
516.9287731427689
 31
0.0
  0
LINE
  5
B0
330
1F
100
AcDbEntity
  8
LAYER_1
  6
Continuous
 62
     7
100
AcDbLine
 10
206.3286561361896
 20
382.6977561202064
 30
0.0
 11
202.2091194560809
 21
382.7020463475672
 31
0.0
  0
LINE
  5
B1
330
1F
100
AcDbEntity
  8
LAYER_1
  6
Continuous
 62
     7
100
AcDbLine
 10
264.3286561361896
 20
382.6373529228926
 30
0.0
 11
206.3286561361896
 21
382.6977561202064
 31
0.0
  0
LINE
  5
B2
330
1F
100
AcDbEntity
  8
1
  6
DASH_CENTER
 62
     2
100
AcDbLine
 10
235.3286561361896
 20
387.5335501274861
 30
0.0
 11
235.3286561361896
 21
158.0688728302555
 31
0.0
  0
LINE
  5
54D
330
1F
100
AcDbEntity
  8
LAYER_1
  6
Continuous
 62
     7
100
AcDbLine
 10
204.9210180612668
 20
171.3125601760744
 30
0.0
 11
204.8869308678031
 21
171.3125601760744
 31
0.0
  0
LINE
  5
54E
330
1F
100
AcDbEntity
  8
LAYER_1
  6
Continuous
 62
     7
100
AcDbLine
 10
204.9210180612668
 20
173.5103544804687
 30
0.0
 11
204.9210180612668
 21
171.3125601760744
 31
0.0
  0
LINE
  5
54F
330
1F
100
AcDbEntity
  8
LAYER_1
  6
Continuous
 62
     7
100
AcDbLine
 10
265.3931854818147
 20
171.3125601760744
 30
0.0
 11
265.3585403062168
 21
171.3125601760744
 31
0.0
  0
LINE
  5
550
330
1F
100
AcDbEntity
  8
LAYER_1
  6
Continuous
 62
     7
100
AcDbLine
 10
265.3931854818147
 20
173.3382413226652
 30
0.0
 11
265.3931854818147
 21
171.3125601760744
 31
0.0
  0
LINE
  5
551
330
1F
100
AcDbEntity
  8
LAYER_1
  6
Continuous
 62
     7
100
AcDbLine
 10
266.3202500893165
 20
173.3382413226652
 30
0.0
 11
266.2856032916773
 21
173.3382413226652
 31
0.0
  0
LINE
  5
552
330
1F
100
AcDbEntity
  8
LAYER_1
  6
Continuous
 62
     7
100
AcDbLine
 10
266.3202500893165
 20
176.0853447076243
 30
0.0
 11
266.3202500893165
 21
173.3382413226652
 31
0.0
  0
LINE
  5
553
330
1F
100
AcDbEntity
  8
LAYER_1
  6
Continuous
 62
     7
100
AcDbLine
 10
266.2515160982138
 20
183.879047758153
 30
0.0
 11
266.2168693005746
 21
183.879047758153
 31
0.0
  0
LINE
  5
554
330
1F
100
AcDbEntity
  8
LAYER_1
  6
Continuous
 62
     7
100
AcDbLine
 10
266.2515160982138
 20
181.3040575309973
 30
0.0
 11
266.2515160982138
 21
183.879047758153
 31
0.0
  0
LINE
  5
555
330
1F
100
AcDbEntity
  8
LAYER_1
  6
Continuous
 62
     7
100
AcDbLine
 10
203.5821123554057
 20
173.3382413226652
 30
0.0
 11
203.5480251619421
 21
173.3382413226652
 31
0.0
  0
LINE
  5
556
330
1F
100
AcDbEntity
  8
LAYER_1
  6
Continuous
 62
     7
100
AcDbLine
 10
203.6167575310038
 20
183.9813109605853
 30
0.0
 11
203.5821123554057
 21
173.3382413226652
 31
0.0
  0
LINE
  5
557
330
1F
100
AcDbEntity
  8
LAYER_1
  6
Continuous
 62
     7
100
AcDbLine
 10
203.6167575310038
 20
173.4064157095925
 30
0.0
 11
203.5821123554057
 21
173.4064157095925
 31
0.0
  0
LINE
  5
558
330
1F
100
AcDbEntity
  8
LAYER_1
  6
Continuous
 62
     7
100
AcDbLine
 10
267.0070255300461
 20
173.3728864982631
 30
0.0
 11
203.6167575310038
 21
173.4064157095925
 31
0.0
  0
LINE
  5
559
330
1F
100
AcDbEntity
  8
LAYER_1
  6
Continuous
 62
     7
100
AcDbLine
 10
203.6508447244673
 20
183.9813109605853
 30
0.0
 11
203.6167575310038
 21
183.9813109605853
 31
0.0
  0
LINE
  5
55A
330
1F
100
AcDbEntity
  8
LAYER_1
  6
Continuous
 62
     7
100
AcDbLine
 10
266.9036463633452
 20
183.9131365736578
 30
0.0
 11
203.6508447244673
 21
183.9813109605853
 31
0.0
  0
LINE
  5
55B
330
1F
100
AcDbEntity
  8
LAYER_1
  6
Continuous
 62
     7
100
AcDbLine
 10
267.0070255300461
 20
173.8875504032303
 30
0.0
 11
266.9723787324069
 21
173.8875504032303
 31
0.0
  0
LINE
  5
55C
330
1F
100
AcDbEntity
  8
LAYER_1
  6
Continuous
 62
     7
100
AcDbLine
 10
267.8307093488058
 20
175.089547731061
 30
0.0
 11
267.0070255300461
 21
173.8875504032303
 31
0.0
  0
LINE
  5
55D
330
1F
100
AcDbEntity
  8
LAYER_1
  6
Continuous
 62
     7
100
AcDbLine
 10
266.8349123722425
 20
183.3291806954538
 30
0.0
 11
266.8008251787786
 21
183.3291806954538
 31
0.0
  0
LINE
  5
55E
330
1F
100
AcDbEntity
  8
LAYER_1
  6
Continuous
 62
     7
100
AcDbLine
 10
267.6932429886413
 20
182.2646497277876
 30
0.0
 11
266.8349123722425
 21
183.3291806954538
 31
0.0
  0
LINE
  5
55F
330
1F
100
AcDbEntity
  8
LAYER_1
  6
Continuous
 62
     7
100
AcDbLine
 10
259.9682723071743
 20
181.5091402959552
 30
0.0
 11
259.9339045006025
 21
181.5091402959552
 31
0.0
  0
LINE
  5
560
330
1F
100
AcDbEntity
  8
LAYER_1
  6
Continuous
 62
     7
100
AcDbLine
 10
259.2817758575119
 20
181.5091402959552
 30
0.0
 11
259.9682723071743
 21
181.5091402959552
 31
0.0
  0
LINE
  5
561
330
1F
100
AcDbEntity
  8
LAYER_1
  6
Continuous
 62
     7
100
AcDbLine
 10
259.2817758575119
 20
181.5091402959552
 30
0.0
 11
259.2474080509401
 21
181.5091402959552
 31
0.0
  0
LINE
  5
562
330
1F
100
AcDbEntity
  8
LAYER_1
  6
Continuous
 62
     7
100
AcDbLine
 10
258.9040203305752
 20
175.9814059367481
 30
0.0
 11
259.2817758575119
 21
181.5091402959552
 31
0.0
  0
LINE
  5
563
330
1F
100
AcDbEntity
  8
LAYER_1
  6
Continuous
 62
     7
100
AcDbLine
 10
259.6248845868096
 20
175.9814059367481
 30
0.0
 11
259.5907973933458
 21
175.9814059367481
 31
0.0
  0
LINE
  5
564
330
1F
100
AcDbEntity
  8
LAYER_1
  6
Continuous
 62
     7
100
AcDbLine
 10
259.9682723071743
 20
181.5091402959552
 30
0.0
 11
259.6248845868096
 21
175.9814059367481
 31
0.0
  0
LINE
  5
565
330
1F
100
AcDbEntity
  8
LAYER_1
  6
Continuous
 62
     7
100
AcDbLine
 10
261.4446443732001
 20
181.5091402959552
 30
0.0
 11
261.4105571797362
 21
181.5091402959552
 31
0.0
  0
LINE
  5
566
330
1F
100
AcDbEntity
  8
LAYER_1
  6
Continuous
 62
     7
100
AcDbLine
 10
260.7237817390068
 20
181.5091402959552
 30
0.0
 11
261.4446443732001
 21
181.5091402959552
 31
0.0
  0
LINE
  5
567
330
1F
100
AcDbEntity
  8
LAYER_1
  6
Continuous
 62
     7
100
AcDbLine
 10
260.7237817390068
 20
181.5091402959552
 30
0.0
 11
260.6894139324348
 21
181.5091402959552
 31
0.0
  0
LINE
  5
568
330
1F
100
AcDbEntity
  8
LAYER_1
  6
Continuous
 62
     7
100
AcDbLine
 10
260.34602621207
 20
175.9814059367481
 30
0.0
 11
260.7237817390068
 21
181.5091402959552
 31
0.0
  0
LINE
  5
569
330
1F
100
AcDbEntity
  8
LAYER_1
  6
Continuous
 62
     7
100
AcDbLine
 10
261.0668888462633
 20
175.9814059367481
 30
0.0
 11
261.0328016527996
 21
175.9814059367481
 31
0.0
  0
LINE
  5
56A
330
1F
100
AcDbEntity
  8
LAYER_1
  6
Continuous
 62
     7
100
AcDbLine
 10
261.4446443732001
 20
181.5091402959552
 30
0.0
 11
261.0668888462633
 21
175.9814059367481
 31
0.0
  0
LINE
  5
56B
330
1F
100
AcDbEntity
  8
LAYER_1
  6
Continuous
 62
     7
100
AcDbLine
 10
262.6466417010308
 20
181.5091402959552
 30
0.0
 11
262.6119949033916
 21
181.5091402959552
 31
0.0
  0
LINE
  5
56C
330
1F
100
AcDbEntity
  8
LAYER_1
  6
Continuous
 62
     7
100
AcDbLine
 10
261.9598662603013
 20
181.5091402959552
 30
0.0
 11
262.6466417010308
 21
181.5091402959552
 31
0.0
  0
LINE
  5
56D
330
1F
100
AcDbEntity
  8
LAYER_1
  6
Continuous
 62
     7
100
AcDbLine
 10
261.9598662603013
 20
181.5091402959552
 30
0.0
 11
261.9252194626623
 21
181.5091402959552
 31
0.0
  0
LINE
  5
56E
330
1F
100
AcDbEntity
  8
LAYER_1
  6
Continuous
 62
     7
100
AcDbLine
 10
261.5821107333646
 20
175.9814059367481
 30
0.0
 11
261.9598662603013
 21
181.5091402959552
 31
0.0
  0
LINE
  5
56F
330
1F
100
AcDbEntity
  8
LAYER_1
  6
Continuous
 62
     7
100
AcDbLine
 10
262.302974989599
 20
175.9814059367481
 30
0.0
 11
262.2688877961352
 21
175.9814059367481
 31
0.0
  0
LINE
  5
570
330
1F
100
AcDbEntity
  8
LAYER_1
  6
Continuous
 62
     7
100
AcDbLine
 10
262.6466417010308
 20
181.5091402959552
 30
0.0
 11
262.302974989599
 21
175.9814059367481
 31
0.0
  0
LINE
  5
571
330
1F
100
AcDbEntity
  8
LAYER_1
  6
Continuous
 62
     7
100
AcDbLine
 10
263.2300379750595
 20
181.4750531024914
 30
0.0
 11
263.1959507815959
 21
181.4750531024914
 31
0.0
  0
LINE
  5
572
330
1F
100
AcDbEntity
  8
LAYER_1
  6
Continuous
 62
     7
100
AcDbLine
 10
262.886929245762
 20
175.9478767254187
 30
0.0
 11
263.2300379750595
 21
181.4750531024914
 31
0.0
  0
LINE
  5
573
330
1F
100
AcDbEntity
  8
LAYER_1
  6
Continuous
 62
     7
100
AcDbLine
 10
263.6077918799551
 20
175.9478767254187
 30
0.0
 11
263.5737046864915
 21
175.9478767254187
 31
0.0
  0
LINE
  5
574
330
1F
100
AcDbEntity
  8
LAYER_1
  6
Continuous
 62
     7
100
AcDbLine
 10
263.9509006092528
 20
181.4750531024914
 30
0.0
 11
263.6077918799551
 21
175.9478767254187
 31
0.0
  0
LINE
  5
575
330
1F
100
AcDbEntity
  8
LAYER_1
  6
Continuous
 62
     7
100
AcDbLine
 10
256.8096051928818
 20
173.3041541292014
 30
0.0
 11
256.7752390083509
 21
173.3041541292014
 31
0.0
  0
LINE
  5
576
330
1F
100
AcDbEntity
  8
LAYER_1
  6
Continuous
 62
     7
100
AcDbLine
 10
256.466217472517
 20
178.6256881371409
 30
0.0
 11
256.4321302790535
 21
178.6256881371409
 31
0.0
  0
LINE
  5
577
330
1F
100
AcDbEntity
  8
LAYER_1
  6
Continuous
 62
     7
100
AcDbLine
 10
266.3202500893165
 20
176.1540770766861
 30
0.0
 11
266.2856032916773
 21
176.1540770766861
 31
0.0
  0
LINE
  5
578
330
1F
100
AcDbEntity
  8
LAYER_1
  6
Continuous
 62
     7
100
AcDbLine
 10
267.0070255300461
 20
175.6042100139868
 30
0.0
 11
266.3202500893165
 21
176.1540770766861
 31
0.0
  0
LINE
  5
579
330
1F
100
AcDbEntity
  8
LAYER_1
  6
Continuous
 62
     7
100
AcDbLine
 10
267.0070255300461
 20
175.6042100139868
 30
0.0
 11
266.9723787324069
 21
175.6042100139868
 31
0.0
  0
LINE
  5
57A
330
1F
100
AcDbEntity
  8
LAYER_1
  6
Continuous
 62
     7
100
AcDbLine
 10
267.0070255300461
 20
173.5103544804687
 30
0.0
 11
267.0070255300461
 21
175.6042100139868
 31
0.0
  0
LINE
  5
57B
330
1F
100
AcDbEntity
  8
LAYER_1
  6
Continuous
 62
     7
100
AcDbLine
 10
266.2856032916773
 20
181.2694123553994
 30
0.0
 11
266.2515160982138
 21
181.2694123553994
 31
0.0
  0
LINE
  5
57C
330
1F
100
AcDbEntity
  8
LAYER_1
  6
Continuous
 62
     7
100
AcDbLine
 10
266.8349123722425
 20
181.577874287058
 30
0.0
 11
266.2856032916773
 21
181.2694123553994
 31
0.0
  0
LINE
  5
57D
330
1F
100
AcDbEntity
  8
LAYER_1
  6
Continuous
 62
     7
100
AcDbLine
 10
266.8349123722425
 20
181.577874287058
 30
0.0
 11
266.8008251787786
 21
181.577874287058
 31
0.0
  0
LINE
  5
57E
330
1F
100
AcDbEntity
  8
LAYER_1
  6
Continuous
 62
     7
100
AcDbLine
 10
266.8349123722425
 20
183.7063766182151
 30
0.0
 11
266.8349123722425
 21
181.577874287058
 31
0.0
  0
LINE
  5
57F
330
1F
100
AcDbEntity
  8
LAYER_1
  6
Continuous
 62
     7
100
AcDbLine
 10
266.8008251787786
 20
164.7549400247993
 30
0.0
 11
266.7661783811395
 21
164.7549400247993
 31
0.0
  0
LINE
  5
580
330
1F
100
AcDbEntity
  8
LAYER_1
  6
Continuous
 62
     7
100
AcDbLine
 10
203.9598662603013
 20
380.9166527457076
 30
0.0
 11
203.9257790668377
 21
380.9166527457076
 31
0.0
  0
LINE
  5
581
330
1F
100
AcDbEntity
  8
LAYER_1
  6
Continuous
 62
     7
100
AcDbLine
 10
267.4188682504464
 20
381.3284938440671
 30
0.0
 11
203.9598662603013
 21
380.9166527457076
 31
0.0
  0
LINE
  5
582
330
1F
100
AcDbEntity
  8
LAYER_1
  6
Continuous
 62
     7
100
AcDbLine
 10
201.316143664084
 20
278.1573312042135
 30
0.0
 11
201.2820564706202
 21
278.1573312042135
 31
0.0
  0
LINE
  5
583
330
1F
100
AcDbEntity
  8
LAYER_1
  6
Continuous
 62
     7
100
AcDbLine
 10
208.5946248275114
 20
274.7586571582979
 30
0.0
 11
201.316143664084
 21
278.1573312042135
 31
0.0
  0
LINE
  5
584
330
1F
100
AcDbEntity
  8
LAYER_1
  6
Continuous
 62
     7
100
AcDbLine
 10
208.5946248275114
 20
274.7586571582979
 30
0.0
 11
208.5605376340476
 21
274.7586571582979
 31
0.0
  0
LINE
  5
585
330
1F
100
AcDbEntity
  8
LAYER_1
  6
Continuous
 62
     7
100
AcDbLine
 10
201.3507888396819
 20
267.6858167419626
 30
0.0
 11
201.316143664084
 21
267.6858167419626
 31
0.0
  0
LINE
  5
586
330
1F
100
AcDbEntity
  8
LAYER_1
  6
Continuous
 62
     7
100
AcDbLine
 10
208.5946248275114
 20
271.1191359634761
 30
0.0
 11
201.3507888396819
 21
267.6858167419626
 31
0.0
  0
LINE
  5
587
330
1F
100
AcDbEntity
  8
LAYER_1
  6
Continuous
 62
     7
100
AcDbLine
 10
204.9897504303286
 20
374.7367881213691
 30
0.0
 11
204.9556632368648
 21
374.7367881213691
 31
0.0
  0
LINE
  5
588
330
1F
100
AcDbEntity
  8
LAYER_1
  6
Continuous
 62
     7
100
AcDbLine
 10
265.6334746485869
 20
374.8742544815337
 30
0.0
 11
204.9897504303286
 21
374.7367881213691
 31
0.0
  0
LINE
  5
589
330
1F
100
AcDbEntity
  8
LAYER_1
  6
Continuous
 62
     7
100
AcDbLine
 10
205.4021511328633
 20
359.5958682942692
 30
0.0
 11
205.3675059572653
 21
359.5958682942692
 31
0.0
  0
LINE
  5
58A
330
1F
100
AcDbEntity
  8
LAYER_1
  6
Continuous
 62
     7
100
AcDbLine
 10
265.5993858330821
 20
359.2521999607964
 30
0.0
 11
205.4021511328633
 21
359.5958682942692
 31
0.0
  0
LINE
  5
58B
330
1F
100
AcDbEntity
  8
LAYER_1
  6
Continuous
 62
     7
100
AcDbLine
 10
204.2348006026714
 20
164.8583191915002
 30
0.0
 11
204.2001538050324
 21
164.8583191915001
 31
0.0
  0
LINE
  5
58C
330
1F
100
AcDbEntity
  8
LAYER_1
  6
Continuous
 62
     7
100
AcDbLine
 10
266.9382915389431
 20
164.7895868224385
 30
0.0
 11
204.2348006026714
 21
164.8583191915002
 31
0.0
  0
LINE
  5
58D
330
1F
100
AcDbEntity
  8
LAYER_1
  6
Continuous
 62
     7
100
AcDbLine
 10
204.8869308678031
 20
186.3853056162469
 30
0.0
 11
204.8522840701641
 21
186.3853056162469
 31
0.0
  0
LINE
  5
58E
330
1F
100
AcDbEntity
  8
LAYER_1
  6
Continuous
 62
     7
100
AcDbLine
 10
265.2216319281864
 20
186.3506588186079
 30
0.0
 11
204.8869308678031
 21
186.3853056162469
 31
0.0
  0
LINE
  5
58F
330
1F
100
AcDbEntity
  8
LAYER_1
  6
Continuous
 62
     7
100
AcDbLine
 10
269.5473689595625
 20
225.4907341130435
 30
0.0
 11
269.5132817660988
 21
225.4907341130435
 31
0.0
  0
LINE
  5
590
330
1F
100
AcDbEntity
  8
LAYER_1
  6
Continuous
 62
     7
100
AcDbLine
 10
204.7841096832365
 20
171.380734563002
 30
0.0
 11
204.7494628855974
 21
171.380734563002
 31
0.0
  0
LINE
  5
591
330
1F
100
AcDbEntity
  8
LAYER_1
  6
Continuous
 62
     7
100
AcDbLine
 10
204.2001538050324
 20
170.2480292084081
 30
0.0
 11
204.7841096832365
 21
171.380734563002
 31
0.0
  0
LINE
  5
592
330
1F
100
AcDbEntity
  8
LAYER_1
  6
Continuous
 62
     7
100
AcDbLine
 10
265.2557191216503
 20
171.1750921938688
 30
0.0
 11
265.2216319281864
 21
171.1750921938688
 31
0.0
  0
LINE
  5
593
330
1F
100
AcDbEntity
  8
LAYER_1
  6
Continuous
 62
     7
100
AcDbLine
 10
266.7320911876757
 20
170.4542295596756
 30
0.0
 11
265.2557191216503
 21
171.1750921938688
 31
0.0
  0
LINE
  5
594
330
1F
100
AcDbEntity
  8
LAYER_1
  6
Continuous
 62
     7
100
AcDbLine
 10
202.7237817390069
 20
163.1416595807434
 30
0.0
 11
202.6896945455431
 21
163.1416595807434
 31
0.0
  0
LINE
  5
595
330
1F
100
AcDbEntity
  8
LAYER_1
  6
Continuous
 62
     7
100
AcDbLine
 10
267.9335305333724
 20
162.9008140538782
 30
0.0
 11
267.8994433399087
 21
162.9008140538782
 31
0.0
  0
LINE
  5
596
330
1F
100
AcDbEntity
  8
LAYER_1
  6
Continuous
 62
     7
100
AcDbLine
 10
202.6550477479039
 20
162.9695464229399
 30
0.0
 11
267.9335305333724
 21
162.9008140538782
 31
0.0
  0
LINE
  5
597
330
1F
100
AcDbEntity
  8
LAYER_1
  6
Continuous
 62
     7
100
AcDbLine
 10
266.6292716251504
 20
170.5911379377058
 30
0.0
 11
266.5946248275112
 21
170.5911379377058
 31
0.0
  0
LINE
  5
598
330
1F
100
AcDbEntity
  8
LAYER_1
  6
Continuous
 62
     7
100
AcDbLine
 10
266.7320911876757
 20
164.8231144117269
 30
0.0
 11
266.6292716251504
 21
170.5911379377058
 31
0.0
  0
LINE
  5
599
330
1F
100
AcDbEntity
  8
LAYER_1
  6
Continuous
 62
     7
100
AcDbLine
 10
204.2348006026714
 20
164.6521188402328
 30
0.0
 11
204.2001538050324
 21
164.6521188402328
 31
0.0
  0
LINE
  5
59A
330
1F
100
AcDbEntity
  8
LAYER_1
  6
Continuous
 62
     7
100
AcDbLine
 10
204.2001538050324
 20
170.2144999970787
 30
0.0
 11
204.2348006026714
 21
164.6521188402328
 31
0.0
  0
LINE
  5
59B
330
1F
100
AcDbEntity
  8
LAYER_1
  6
Continuous
 62
     7
100
AcDbLine
 10
265.2557191216503
 20
186.5227719764114
 30
0.0
 11
265.2216319281864
 21
186.5227719764114
 31
0.0
  0
LINE
  5
59C
330
1F
100
AcDbEntity
  8
LAYER_1
  6
Continuous
 62
     7
100
AcDbLine
 10
265.2903659192892
 20
183.9131365736578
 30
0.0
 11
265.2557191216503
 21
186.5227719764114
 31
0.0
  0
LINE
  5
59D
330
1F
100
AcDbEntity
  8
LAYER_1
  6
Continuous
 62
     7
100
AcDbLine
 10
204.8181968767003
 20
186.4540379853086
 30
0.0
 11
204.7841096832365
 21
186.4540379853086
 31
0.0
  0
LINE
  5
59E
330
1F
100
AcDbEntity
  8
LAYER_1
  6
Continuous
 62
     7
100
AcDbLine
 10
204.8181968767003
 20
183.9131365736578
 30
0.0
 11
204.8181968767003
 21
186.4540379853086
 31
0.0
  0
LINE
  5
59F
330
1F
100
AcDbEntity
  8
LAYER_1
  6
Continuous
 62
     7
100
AcDbLine
 10
204.0626874448679
 20
380.5388972187709
 30
0.0
 11
204.0286002514041
 21
380.5388972187709
 31
0.0
  0
LINE
  5
5A0
330
1F
100
AcDbEntity
  8
LAYER_1
  6
Continuous
 62
     7
100
AcDbLine
 10
268.3459312359071
 20
382.6333123564644
 30
0.0
 11
268.3112844382681
 21
382.6333123564644
 31
0.0
  0
LINE
  5
5A1
330
1F
100
AcDbEntity
  8
LAYER_1
  6
Continuous
 62
     7
100
AcDbLine
 10
202.2091194560809
 20
382.7020463475672
 30
0.0
 11
202.1744726584419
 21
382.7020463475672
 31
0.0
  0
LINE
  5
5A2
330
1F
100
AcDbEntity
  8
LAYER_1
  6
Continuous
 62
     7
100
AcDbLine
 10
268.2084648757425
 20
382.6333123564644
 30
0.0
 11
264.3286561361896
 21
382.6373529228926
 31
0.0
  0
LINE
  5
5A3
330
1F
100
AcDbEntity
  8
LAYER_1
  6
Continuous
 62
     7
100
AcDbLine
 10
204.0626874448679
 20
374.9770756661004
 30
0.0
 11
204.0286002514041
 21
374.9770756661004
 31
0.0
  0
LINE
  5
5A4
330
1F
100
AcDbEntity
  8
LAYER_1
  6
Continuous
 62
     7
100
AcDbLine
 10
204.0626874448679
 20
380.5388972187709
 30
0.0
 11
204.0626874448679
 21
374.9770756661004
 31
0.0
  0
LINE
  5
5A5
330
1F
100
AcDbEntity
  8
LAYER_1
  6
Continuous
 62
     7
100
AcDbLine
 10
205.0931312190704
 20
374.4618537789989
 30
0.0
 11
205.0584844214314
 21
374.4618537789989
 31
0.0
  0
LINE
  5
5A6
330
1F
100
AcDbEntity
  8
LAYER_1
  6
Continuous
 62
     7
100
AcDbLine
 10
204.0626874448679
 20
374.9770756661004
 30
0.0
 11
205.0931312190704
 21
374.4618537789989
 31
0.0
  0
LINE
  5
5A7
330
1F
100
AcDbEntity
  8
LAYER_1
  6
Continuous
 62
     7
100
AcDbLine
 10
204.9897504303286
 20
372.264617456739
 30
0.0
 11
204.9556632368648
 21
372.264617456739
 31
0.0
  0
LINE
  5
5A8
330
1F
100
AcDbEntity
  8
LAYER_1
  6
Continuous
 62
     7
100
AcDbLine
 10
205.0931312190704
 20
374.4618537789989
 30
0.0
 11
204.9897504303286
 21
372.264617456739
 31
0.0
  0
LINE
  5
5A9
330
1F
100
AcDbEntity
  8
LAYER_1
  6
Continuous
 62
     7
100
AcDbLine
 10
204.0973342425069
 20
358.8062716689731
 30
0.0
 11
204.0626874448679
 21
358.8062716689731
 31
0.0
  0
LINE
  5
5AA
330
1F
100
AcDbEntity
  8
LAYER_1
  6
Continuous
 62
     7
100
AcDbLine
 10
205.1272184125342
 20
359.3209339518992
 30
0.0
 11
204.0973342425069
 21
358.8062716689731
 31
0.0
  0
LINE
  5
5AB
330
1F
100
AcDbEntity
  8
LAYER_1
  6
Continuous
 62
     7
100
AcDbLine
 10
265.5993858330821
 20
359.1834659696937
 30
0.0
 11
265.5647406574841
 21
359.1834659696937
 31
0.0
  0
LINE
  5
5AC
330
1F
100
AcDbEntity
  8
LAYER_1
  6
Continuous
 62
     7
100
AcDbLine
 10
266.6292716251504
 20
358.6688036867676
 30
0.0
 11
265.5993858330821
 21
359.1834659696937
 31
0.0
  0
LINE
  5
5AD
330
1F
100
AcDbEntity
  8
LAYER_1
  6
Continuous
 62
     7
100
AcDbLine
 10
265.6675618420505
 20
375.0458096572029
 30
0.0
 11
265.6334746485869
 21
375.0458096572029
 31
0.0
  0
LINE
  5
5AE
330
1F
100
AcDbEntity
  8
LAYER_1
  6
Continuous
 62
     7
100
AcDbLine
 10
265.6675618420505
 20
372.1271510965744
 30
0.0
 11
265.6675618420505
 21
375.0458096572029
 31
0.0
  0
LINE
  5
5AF
330
1F
100
AcDbEntity
  8
LAYER_1
  6
Continuous
 62
     7
100
AcDbLine
 10
266.8695591698813
 20
375.5604719401291
 30
0.0
 11
266.8349123722425
 21
375.5604719401291
 31
0.0
  0
LINE
  5
5B0
330
1F
100
AcDbEntity
  8
LAYER_1
  6
Continuous
 62
     7
100
AcDbLine
 10
265.8396749998543
 20
375.0798968506668
 30
0.0
 11
266.8695591698813
 21
375.5604719401291
 31
0.0
  0
LINE
  5
5B1
330
1F
100
AcDbEntity
  8
LAYER_1
  6
Continuous
 62
     7
100
AcDbLine
 10
266.8349123722425
 20
381.122853096975
 30
0.0
 11
266.8008251787786
 21
381.122853096975
 31
0.0
  0
LINE
  5
5B2
330
1F
100
AcDbEntity
  8
LAYER_1
  6
Continuous
 62
     7
100
AcDbLine
 10
266.8695591698813
 20
375.5604719401291
 30
0.0
 11
266.8349123722425
 21
381.122853096975
 31
0.0
  0
LINE
  5
5B3
330
1F
100
AcDbEntity
  8
LAYER_1
  6
Continuous
 62
     7
100
AcDbLine
 10
261.1699890218969
 20
216.56432408588
 30
0.0
 11
261.1356228373661
 21
216.56432408588
 31
0.0
  0
LINE
  5
5B4
330
1F
100
AcDbEntity
  8
LAYER_1
  6
Continuous
 62
     7
100
AcDbLine
 10
261.1699890218969
 20
213.2332664447578
 30
0.0
 11
261.1699890218969
 21
216.56432408588
 31
0.0
  0
LINE
  5
5B5
330
1F
100
AcDbEntity
  8
LAYER_1
  6
Continuous
 62
     7
100
AcDbLine
 10
262.3717073586607
 20
211.4143436315689
 30
0.0
 11
262.3376201651969
 21
211.4143436315689
 31
0.0
  0
LINE
  5
5B6
330
1F
100
AcDbEntity
  8
LAYER_1
  6
Continuous
 62
     7
100
AcDbLine
 10
264.9126103923525
 20
210.2810802948409
 30
0.0
 11
262.3717073586607
 21
211.4143436315689
 31
0.0
  0
LINE
  5
5B7
330
1F
100
AcDbEntity
  8
LAYER_1
  6
Continuous
 62
     7
100
AcDbLine
 10
262.302974989599
 20
218.3832468990692
 30
0.0
 11
262.2688877961352
 21
218.3832468990692
 31
0.0
  0
LINE
  5
5B8
330
1F
100
AcDbEntity
  8
LAYER_1
  6
Continuous
 62
     7
100
AcDbLine
 10
269.5820157572017
 20
221.8165677426237
 30
0.0
 11
262.302974989599
 21
218.3832468990692
 31
0.0
  0
LINE
  5
5B9
330
1F
100
AcDbEntity
  8
LAYER_1
  6
Continuous
 62
     7
100
AcDbLine
 10
266.8349123722425
 20
187.9985860603028
 30
0.0
 11
266.8008251787786
 21
187.9985860603028
 31
0.0
  0
LINE
  5
5BA
330
1F
100
AcDbEntity
  8
LAYER_1
  6
Continuous
 62
     7
100
AcDbLine
 10
266.7320911876757
 20
207.5339769098816
 30
0.0
 11
266.8349123722425
 21
187.9985860603028
 31
0.0
  0
LINE
  5
5BB
330
1F
100
AcDbEntity
  8
LAYER_1
  6
Continuous
 62
     7
100
AcDbLine
 10
266.6292716251504
 20
358.6688036867676
 30
0.0
 11
266.5946248275112
 21
358.6688036867676
 31
0.0
  0
LINE
  5
5BC
330
1F
100
AcDbEntity
  8
LAYER_1
  6
Continuous
 62
     7
100
AcDbLine
 10
266.663358818614
 20
338.4466373964592
 30
0.0
 11
266.6292716251504
 21
358.6688036867676
 31
0.0
  0
LINE
  5
5BD
330
1F
100
AcDbEntity
  8
LAYER_1
  6
Continuous
 62
     7
100
AcDbLine
 10
262.3376201651969
 20
334.5327414634426
 30
0.0
 11
262.302974989599
 21
334.5327414634426
 31
0.0
  0
LINE
  5
5BE
330
1F
100
AcDbEntity
  8
LAYER_1
  6
Continuous
 62
     7
100
AcDbLine
 10
264.8779652167547
 20
335.6654468180362
 30
0.0
 11
262.3376201651969
 21
334.5327414634426
 31
0.0
  0
LINE
  5
5BF
330
1F
100
AcDbEntity
  8
LAYER_1
  6
Continuous
 62
     7
100
AcDbLine
 10
204.0973342425069
 20
358.8062716689731
 30
0.0
 11
204.1660666115686
 21
338.5835441524486
 31
0.0
  0
LINE
  5
5C0
330
1F
100
AcDbEntity
  8
LAYER_1
  6
Continuous
 62
     7
100
AcDbLine
 10
205.985547406892
 20
335.8029131782007
 30
0.0
 11
205.9514602134283
 21
335.8029131782007
 31
0.0
  0
LINE
  5
5C1
330
1F
100
AcDbEntity
  8
LAYER_1
  6
Continuous
 62
     7
100
AcDbLine
 10
205.985547406892
 20
335.8029131782007
 30
0.0
 11
205.9514602134283
 21
335.8029131782007
 31
0.0
  0
LINE
  5
5C2
330
1F
100
AcDbEntity
  8
LAYER_1
  6
Continuous
 62
     7
100
AcDbLine
 10
208.4918052649859
 20
334.7042950170708
 30
0.0
 11
205.985547406892
 21
335.8029131782007
 31
0.0
  0
LINE
  5
5C3
330
1F
100
AcDbEntity
  8
LAYER_1
  6
Continuous
 62
     7
100
AcDbLine
 10
208.4918052649859
 20
334.7042950170708
 30
0.0
 11
208.4577180715221
 21
334.7042950170708
 31
0.0
  0
LINE
  5
5C4
330
1F
100
AcDbEntity
  8
LAYER_1
  6
Continuous
 62
     7
100
AcDbLine
 10
209.7278897862803
 20
332.8501690461494
 30
0.0
 11
209.6938025928167
 21
332.8501690461494
 31
0.0
  0
LINE
  5
5C5
330
1F
100
AcDbEntity
  8
LAYER_1
  6
Continuous
 62
     7
100
AcDbLine
 10
209.7278897862803
 20
329.5543145627594
 30
0.0
 11
209.7278897862803
 21
332.8501690461494
 31
0.0
  0
LINE
  5
5C6
330
1F
100
AcDbEntity
  8
LAYER_1
  6
Continuous
 62
     7
100
AcDbLine
 10
209.7278897862803
 20
329.5543145627594
 30
0.0
 11
209.6938025928167
 21
329.5543145627594
 31
0.0
  0
LINE
  5
5C7
330
1F
100
AcDbEntity
  8
LAYER_1
  6
Continuous
 62
     7
100
AcDbLine
 10
201.316143664084
 20
324.3009549417475
 30
0.0
 11
201.2820564706202
 21
324.3009549417475
 31
0.0
  0
LINE
  5
5C8
330
1F
100
AcDbEntity
  8
LAYER_1
  6
Continuous
 62
     7
100
AcDbLine
 10
208.5605376340476
 20
327.7342757853019
 30
0.0
 11
201.316143664084
 21
324.3009549417475
 31
0.0
  0
LINE
  5
5C9
330
1F
100
AcDbEntity
  8
LAYER_1
  6
Continuous
 62
     7
100
AcDbLine
 10
201.316143664084
 20
320.627346553462
 30
0.0
 11
201.2820564706202
 21
320.627346553462
 31
0.0
  0
LINE
  5
5CA
330
1F
100
AcDbEntity
  8
LAYER_1
  6
Continuous
 62
     7
100
AcDbLine
 10
201.316143664084
 20
320.627346553462
 30
0.0
 11
201.2820564706202
 21
320.627346553462
 31
0.0
  0
LINE
  5
5CB
330
1F
100
AcDbEntity
  8
LAYER_1
  6
Continuous
 62
     7
100
AcDbLine
 10
208.5946248275114
 20
317.2286725075466
 30
0.0
 11
201.316143664084
 21
320.627346553462
 31
0.0
  0
LINE
  5
5CC
330
1F
100
AcDbEntity
  8
LAYER_1
  6
Continuous
 62
     7
100
AcDbLine
 10
208.5946248275114
 20
317.2286725075466
 30
0.0
 11
208.5605376340476
 21
317.2286725075466
 31
0.0
  0
LINE
  5
5CD
330
1F
100
AcDbEntity
  8
LAYER_1
  6
Continuous
 62
     7
100
AcDbLine
 10
201.3507888396819
 20
310.1558320912111
 30
0.0
 11
201.316143664084
 21
310.1558320912111
 31
0.0
  0
LINE
  5
5CE
330
1F
100
AcDbEntity
  8
LAYER_1
  6
Continuous
 62
     7
100
AcDbLine
 10
208.5946248275114
 20
313.5891513127245
 30
0.0
 11
201.3507888396819
 21
310.1558320912111
 31
0.0
  0
LINE
  5
5CF
330
1F
100
AcDbEntity
  8
LAYER_1
  6
Continuous
 62
     7
100
AcDbLine
 10
201.3507888396819
 20
306.5168705005647
 30
0.0
 11
201.316143664084
 21
306.5168705005647
 31
0.0
  0
LINE
  5
5D0
330
1F
100
AcDbEntity
  8
LAYER_1
  6
Continuous
 62
     7
100
AcDbLine
 10
201.3507888396819
 20
306.5168705005647
 30
0.0
 11
201.316143664084
 21
306.5168705005647
 31
0.0
  0
LINE
  5
5D1
330
1F
100
AcDbEntity
  8
LAYER_1
  6
Continuous
 62
     7
100
AcDbLine
 10
208.6292716251504
 20
303.1176368504739
 30
0.0
 11
201.3507888396819
 21
306.5168705005647
 31
0.0
  0
LINE
  5
5D2
330
1F
100
AcDbEntity
  8
LAYER_1
  6
Continuous
 62
     7
100
AcDbLine
 10
208.6292716251504
 20
303.1176368504739
 30
0.0
 11
208.5946248275114
 21
303.1176368504739
 31
0.0
  0
LINE
  5
5D3
330
1F
100
AcDbEntity
  8
LAYER_1
  6
Continuous
 62
     7
100
AcDbLine
 10
201.3848760331457
 20
296.0447964341385
 30
0.0
 11
201.3507888396819
 21
296.0447964341385
 31
0.0
  0
LINE
  5
5D4
330
1F
100
AcDbEntity
  8
LAYER_1
  6
Continuous
 62
     7
100
AcDbLine
 10
208.6292716251504
 20
299.4440284621882
 30
0.0
 11
201.3848760331457
 21
296.0447964341385
 31
0.0
  0
LINE
  5
5D5
330
1F
100
AcDbEntity
  8
LAYER_1
  6
Continuous
 62
     7
100
AcDbLine
 10
201.3848760331457
 20
292.3711880458527
 30
0.0
 11
201.3507888396819
 21
292.3711880458527
 31
0.0
  0
LINE
  5
5D6
330
1F
100
AcDbEntity
  8
LAYER_1
  6
Continuous
 62
     7
100
AcDbLine
 10
201.3848760331457
 20
292.3711880458527
 30
0.0
 11
201.3507888396819
 21
292.3711880458527
 31
0.0
  0
LINE
  5
5D7
330
1F
100
AcDbEntity
  8
LAYER_1
  6
Continuous
 62
     7
100
AcDbLine
 10
208.6633588186142
 20
288.9725139999376
 30
0.0
 11
201.3848760331457
 21
292.3711880458527
 31
0.0
  0
LINE
  5
5D8
330
1F
100
AcDbEntity
  8
LAYER_1
  6
Continuous
 62
     7
100
AcDbLine
 10
208.6633588186142
 20
288.9725139999376
 30
0.0
 11
208.6292716251504
 21
288.9725139999376
 31
0.0
  0
LINE
  5
5D9
330
1F
100
AcDbEntity
  8
LAYER_1
  6
Continuous
 62
     7
100
AcDbLine
 10
201.3848760331457
 20
281.8996719615609
 30
0.0
 11
201.3507888396819
 21
281.8996719615609
 31
0.0
  0
LINE
  5
5DA
330
1F
100
AcDbEntity
  8
LAYER_1
  6
Continuous
 62
     7
100
AcDbLine
 10
208.6633588186142
 20
285.3329928051155
 30
0.0
 11
201.3848760331457
 21
281.8996719615609
 31
0.0
  0
LINE
  5
5DB
330
1F
100
AcDbEntity
  8
LAYER_1
  6
Continuous
 62
     7
100
AcDbLine
 10
201.4189632266095
 20
278.2260651953164
 30
0.0
 11
201.3848760331457
 21
278.2260651953164
 31
0.0
  0
LINE
  5
5DC
330
1F
100
AcDbEntity
  8
LAYER_1
  6
Continuous
 62
     7
100
AcDbLine
 10
201.4876972177123
 20
264.321229889511
 30
0.0
 11
201.4536100242485
 21
264.321229889511
 31
0.0
  0
LINE
  5
5DD
330
1F
100
AcDbEntity
  8
LAYER_1
  6
Continuous
 62
     7
100
AcDbLine
 10
201.2133224795174
 20
264.3553170829746
 30
0.0
 11
201.1786756818784
 21
264.3553170829746
 31
0.0
  0
LINE
  5
5DE
330
1F
100
AcDbEntity
  8
LAYER_1
  6
Continuous
 62
     7
100
AcDbLine
 10
208.4918052649859
 20
260.9560834328839
 30
0.0
 11
201.2133224795174
 21
264.3553170829746
 31
0.0
  0
LINE
  5
5DF
330
1F
100
AcDbEntity
  8
LAYER_1
  6
Continuous
 62
     7
100
AcDbLine
 10
208.4918052649859
 20
260.9560834328839
 30
0.0
 11
208.4577180715221
 21
260.9560834328839
 31
0.0
  0
LINE
  5
5E0
330
1F
100
AcDbEntity
  8
LAYER_1
  6
Continuous
 62
     7
100
AcDbLine
 10
201.2474096729812
 20
253.883800998683
 30
0.0
 11
201.2133224795174
 21
253.883800998683
 31
0.0
  0
LINE
  5
5E1
330
1F
100
AcDbEntity
  8
LAYER_1
  6
Continuous
 62
     7
100
AcDbLine
 10
208.4918052649859
 20
257.3171218422374
 30
0.0
 11
201.2474096729812
 21
253.883800998683
 31
0.0
  0
LINE
  5
5E2
330
1F
100
AcDbEntity
  8
LAYER_1
  6
Continuous
 62
     7
100
AcDbLine
 10
201.2474096729812
 20
250.2101926103973
 30
0.0
 11
201.2133224795174
 21
250.2101926103973
 31
0.0
  0
LINE
  5
5E3
330
1F
100
AcDbEntity
  8
LAYER_1
  6
Continuous
 62
     7
100
AcDbLine
 10
201.2474096729812
 20
250.2101926103973
 30
0.0
 11
201.2133224795174
 21
250.2101926103973
 31
0.0
  0
LINE
  5
5E4
330
1F
100
AcDbEntity
  8
LAYER_1
  6
Continuous
 62
     7
100
AcDbLine
 10
208.5264504405838
 20
246.8109605823477
 30
0.0
 11
201.2474096729812
 21
250.2101926103973
 31
0.0
  0
LINE
  5
5E5
330
1F
100
AcDbEntity
  8
LAYER_1
  6
Continuous
 62
     7
100
AcDbLine
 10
208.5264504405838
 20
246.8109605823477
 30
0.0
 11
208.4918052649859
 21
246.8109605823477
 31
0.0
  0
LINE
  5
5E6
330
1F
100
AcDbEntity
  8
LAYER_1
  6
Continuous
 62
     7
100
AcDbLine
 10
201.2820564706202
 20
239.7386781481465
 30
0.0
 11
201.2474096729812
 21
239.7386781481465
 31
0.0
  0
LINE
  5
5E7
330
1F
100
AcDbEntity
  8
LAYER_1
  6
Continuous
 62
     7
100
AcDbLine
 10
208.5264504405838
 20
243.171998991701
 30
0.0
 11
201.2820564706202
 21
239.7386781481465
 31
0.0
  0
LINE
  5
5E8
330
1F
100
AcDbEntity
  8
LAYER_1
  6
Continuous
 62
     7
100
AcDbLine
 10
201.2820564706202
 20
236.0991569533246
 30
0.0
 11
201.2474096729812
 21
236.0991569533246
 31
0.0
  0
LINE
  5
5E9
330
1F
100
AcDbEntity
  8
LAYER_1
  6
Continuous
 62
     7
100
AcDbLine
 10
201.2820564706202
 20
236.0991569533246
 30
0.0
 11
201.2474096729812
 21
236.0991569533246
 31
0.0
  0
LINE
  5
5EA
330
1F
100
AcDbEntity
  8
LAYER_1
  6
Continuous
 62
     7
100
AcDbLine
 10
208.5605376340476
 20
232.6999249252749
 30
0.0
 11
201.2820564706202
 21
236.0991569533246
 31
0.0
  0
LINE
  5
5EB
330
1F
100
AcDbEntity
  8
LAYER_1
  6
Continuous
 62
     7
100
AcDbLine
 10
208.5605376340476
 20
232.6999249252749
 30
0.0
 11
208.5264504405838
 21
232.6999249252749
 31
0.0
  0
LINE
  5
5EC
330
1F
100
AcDbEntity
  8
LAYER_1
  6
Continuous
 62
     7
100
AcDbLine
 10
201.2820564706202
 20
225.59355529761
 30
0.0
 11
201.2474096729812
 21
225.59355529761
 31
0.0
  0
LINE
  5
5ED
330
1F
100
AcDbEntity
  8
LAYER_1
  6
Continuous
 62
     7
100
AcDbLine
 10
208.5605376340476
 20
229.0268745191236
 30
0.0
 11
201.2820564706202
 21
225.59355529761
 31
0.0
  0
LINE
  5
5EE
330
1F
100
AcDbEntity
  8
LAYER_1
  6
Continuous
 62
     7
100
AcDbLine
 10
201.316143664084
 20
221.9540341027883
 30
0.0
 11
201.2820564706202
 21
221.9540341027883
 31
0.0
  0
LINE
  5
5EF
330
1F
100
AcDbEntity
  8
LAYER_1
  6
Continuous
 62
     7
100
AcDbLine
 10
201.316143664084
 20
221.9540341027883
 30
0.0
 11
201.2820564706202
 21
221.9540341027883
 31
0.0
  0
LINE
  5
5F0
330
1F
100
AcDbEntity
  8
LAYER_1
  6
Continuous
 62
     7
100
AcDbLine
 10
208.5946248275114
 20
218.5548004526973
 30
0.0
 11
201.316143664084
 21
221.9540341027883
 31
0.0
  0
LINE
  5
5F1
330
1F
100
AcDbEntity
  8
LAYER_1
  6
Continuous
 62
     7
100
AcDbLine
 10
208.5946248275114
 20
218.5548004526973
 30
0.0
 11
208.5605376340476
 21
218.5548004526973
 31
0.0
  0
LINE
  5
5F2
330
1F
100
AcDbEntity
  8
LAYER_1
  6
Continuous
 62
     7
100
AcDbLine
 10
209.7619769797441
 20
213.4048199983861
 30
0.0
 11
209.7278897862803
 21
213.4048199983861
 31
0.0
  0
LINE
  5
5F3
330
1F
100
AcDbEntity
  8
LAYER_1
  6
Continuous
 62
     7
100
AcDbLine
 10
209.7619769797441
 20
216.7353196573741
 30
0.0
 11
209.7619769797441
 21
213.4048199983861
 31
0.0
  0
LINE
  5
5F4
330
1F
100
AcDbEntity
  8
LAYER_1
  6
Continuous
 62
     7
100
AcDbLine
 10
209.7619769797441
 20
213.4048199983861
 30
0.0
 11
209.7278897862803
 21
213.4048199983861
 31
0.0
  0
LINE
  5
5F5
330
1F
100
AcDbEntity
  8
LAYER_1
  6
Continuous
 62
     7
100
AcDbLine
 10
206.0196346003556
 20
210.4526354705101
 30
0.0
 11
205.985547406892
 21
210.4526354705101
 31
0.0
  0
LINE
  5
5F6
330
1F
100
AcDbEntity
  8
LAYER_1
  6
Continuous
 62
     7
100
AcDbLine
 10
208.5605376340476
 20
211.5506940274648
 30
0.0
 11
206.0196346003556
 21
210.4526354705101
 31
0.0
  0
LINE
  5
5F7
330
1F
100
AcDbEntity
  8
LAYER_1
  6
Continuous
 62
     7
100
AcDbLine
 10
204.2001538050324
 20
187.7577389113964
 30
0.0
 11
204.2001538050324
 21
207.6720028742215
 31
0.0
  0
LINE
  5
5F8
330
1F
100
AcDbEntity
  8
LAYER_1
  6
Continuous
 62
     7
100
AcDbLine
 10
204.2001538050324
 20
187.6890065423347
 30
0.0
 11
204.1660666115686
 21
187.6890065423347
 31
0.0
  0
LINE
  5
5F9
330
1F
100
AcDbEntity
  8
LAYER_1
  6
Continuous
 62
     7
100
AcDbLine
 10
204.9210180612668
 20
186.4193928097107
 30
0.0
 11
204.2001538050324
 21
187.6890065423347
 31
0.0
  0
LINE
  5
5FA
330
1F
100
AcDbEntity
  8
LAYER_1
  6
Continuous
 62
     7
100
AcDbLine
 10
265.3585403062168
 20
186.4881268008134
 30
0.0
 11
265.324453112753
 21
186.4881268008134
 31
0.0
  0
LINE
  5
5FB
330
1F
100
AcDbEntity
  8
LAYER_1
  6
Continuous
 62
     7
100
AcDbLine
 10
266.8008251787786
 20
187.9985860603028
 30
0.0
 11
265.3585403062168
 21
186.4881268008134
 31
0.0
  0
LINE
  5
5FC
330
1F
100
AcDbEntity
  8
LAYER_1
  6
Continuous
 62
     7
100
AcDbLine
 10
264.9126103923525
 20
210.2810802948409
 30
0.0
 11
264.8779652167547
 21
210.2810802948409
 31
0.0
  0
LINE
  5
5FD
330
1F
100
AcDbEntity
  8
LAYER_1
  6
Continuous
 62
     7
100
AcDbLine
 10
262.3717073586607
 20
211.4143436315689
 30
0.0
 11
262.3376201651969
 21
211.4143436315689
 31
0.0
  0
LINE
  5
5FE
330
1F
100
AcDbEntity
  8
LAYER_1
  6
Continuous
 62
     7
100
AcDbLine
 10
261.1699890218969
 20
216.56432408588
 30
0.0
 11
261.1356228373661
 21
216.56432408588
 31
0.0
  0
LINE
  5
5FF
330
1F
100
AcDbEntity
  8
LAYER_1
  6
Continuous
 62
     7
100
AcDbLine
 10
262.302974989599
 20
228.8547613613199
 30
0.0
 11
262.2688877961352
 21
228.8547613613199
 31
0.0
  0
LINE
  5
600
330
1F
100
AcDbEntity
  8
LAYER_1
  6
Continuous
 62
     7
100
AcDbLine
 10
269.5820157572017
 20
225.4555293332701
 30
0.0
 11
262.302974989599
 21
228.8547613613199
 31
0.0
  0
LINE
  5
601
330
1F
100
AcDbEntity
  8
LAYER_1
  6
Continuous
 62
     7
100
AcDbLine
 10
262.302974989599
 20
228.8547613613199
 30
0.0
 11
262.2688877961352
 21
228.8547613613199
 31
0.0
  0
LINE
  5
602
330
1F
100
AcDbEntity
  8
LAYER_1
  6
Continuous
 62
     7
100
AcDbLine
 10
262.2688877961352
 20
232.5283697496055
 30
0.0
 11
262.234240998496
 21
232.5283697496055
 31
0.0
  0
LINE
  5
603
330
1F
100
AcDbEntity
  8
LAYER_1
  6
Continuous
 62
     7
100
AcDbLine
 10
269.5473689595625
 20
235.9616905931601
 30
0.0
 11
262.2688877961352
 21
232.5283697496055
 31
0.0
  0
LINE
  5
604
330
1F
100
AcDbEntity
  8
LAYER_1
  6
Continuous
 62
     7
100
AcDbLine
 10
269.5473689595625
 20
239.6012117879818
 30
0.0
 11
269.5132817660988
 21
239.6012117879818
 31
0.0
  0
LINE
  5
605
330
1F
100
AcDbEntity
  8
LAYER_1
  6
Continuous
 62
     7
100
AcDbLine
 10
262.2688877961352
 20
242.9998858338976
 30
0.0
 11
262.234240998496
 21
242.9998858338976
 31
0.0
  0
LINE
  5
606
330
1F
100
AcDbEntity
  8
LAYER_1
  6
Continuous
 62
     7
100
AcDbLine
 10
269.5473689595625
 20
239.6012117879818
 30
0.0
 11
262.2688877961352
 21
242.9998858338976
 31
0.0
  0
LINE
  5
607
330
1F
100
AcDbEntity
  8
LAYER_1
  6
Continuous
 62
     7
100
AcDbLine
 10
262.2688877961352
 20
242.9998858338976
 30
0.0
 11
262.234240998496
 21
242.9998858338976
 31
0.0
  0
LINE
  5
608
330
1F
100
AcDbEntity
  8
LAYER_1
  6
Continuous
 62
     7
100
AcDbLine
 10
262.2688877961352
 20
246.6394054066782
 30
0.0
 11
262.234240998496
 21
246.6394054066782
 31
0.0
  0
LINE
  5
609
330
1F
100
AcDbEntity
  8
LAYER_1
  6
Continuous
 62
     7
100
AcDbLine
 10
269.5132817660988
 20
250.0727262502328
 30
0.0
 11
262.2688877961352
 21
246.6394054066782
 31
0.0
  0
LINE
  5
60A
330
1F
100
AcDbEntity
  8
LAYER_1
  6
Continuous
 62
     7
100
AcDbLine
 10
269.5132817660988
 20
253.7463346385182
 30
0.0
 11
269.4786365905007
 21
253.7463346385182
 31
0.0
  0
LINE
  5
60B
330
1F
100
AcDbEntity
  8
LAYER_1
  6
Continuous
 62
     7
100
AcDbLine
 10
262.577907709928
 20
257.0768342975064
 30
0.0
 11
262.5432625343299
 21
257.0768342975064
 31
0.0
  0
LINE
  5
60C
330
1F
100
AcDbEntity
  8
LAYER_1
  6
Continuous
 62
     7
100
AcDbLine
 10
269.5132817660988
 20
253.7463346385182
 30
0.0
 11
262.577907709928
 21
257.0768342975064
 31
0.0
  0
LINE
  5
60D
330
1F
100
AcDbEntity
  8
LAYER_1
  6
Continuous
 62
     7
100
AcDbLine
 10
262.5091753408664
 20
257.11092149097
 30
0.0
 11
262.4745285432272
 21
257.11092149097
 31
0.0
  0
LINE
  5
60E
330
1F
100
AcDbEntity
  8
LAYER_1
  6
Continuous
 62
     7
100
AcDbLine
 10
262.5091753408664
 20
260.7504426857918
 30
0.0
 11
262.4745285432272
 21
260.7504426857918
 31
0.0
  0
LINE
  5
60F
330
1F
100
AcDbEntity
  8
LAYER_1
  6
Continuous
 62
     7
100
AcDbLine
 10
269.7876581263346
 20
264.1837619073054
 30
0.0
 11
262.5091753408664
 21
260.7504426857918
 31
0.0
  0
LINE
  5
610
330
1F
100
AcDbEntity
  8
LAYER_1
  6
Continuous
 62
     7
100
AcDbLine
 10
269.75356931083
 20
267.8573702955911
 30
0.0
 11
269.7189241352319
 21
267.8573702955911
 31
0.0
  0
LINE
  5
611
330
1F
100
AcDbEntity
  8
LAYER_1
  6
Continuous
 62
     7
100
AcDbLine
 10
262.4404413497636
 20
271.15322315694
 30
0.0
 11
262.4063541562997
 21
271.15322315694
 31
0.0
  0
LINE
  5
612
330
1F
100
AcDbEntity
  8
LAYER_1
  6
Continuous
 62
     7
100
AcDbLine
 10
269.75356931083
 20
267.8573702955911
 30
0.0
 11
262.4404413497636
 21
271.15322315694
 31
0.0
  0
LINE
  5
613
330
1F
100
AcDbEntity
  8
LAYER_1
  6
Continuous
 62
     7
100
AcDbLine
 10
262.4404413497636
 20
271.0157567967755
 30
0.0
 11
262.4063541562997
 21
271.0157567967755
 31
0.0
  0
LINE
  5
614
330
1F
100
AcDbEntity
  8
LAYER_1
  6
Continuous
 62
     7
100
AcDbLine
 10
262.4063541562997
 20
274.6899231671952
 30
0.0
 11
262.3717073586607
 21
274.6899231671952
 31
0.0
  0
LINE
  5
615
330
1F
100
AcDbEntity
  8
LAYER_1
  6
Continuous
 62
     7
100
AcDbLine
 10
269.6848369417683
 20
278.0885972131107
 30
0.0
 11
262.4063541562997
 21
274.6899231671952
 31
0.0
  0
LINE
  5
616
330
1F
100
AcDbEntity
  8
LAYER_1
  6
Continuous
 62
     7
100
AcDbLine
 10
269.6848369417683
 20
281.7622056013964
 30
0.0
 11
269.6501901441291
 21
281.7622056013964
 31
0.0
  0
LINE
  5
617
330
1F
100
AcDbEntity
  8
LAYER_1
  6
Continuous
 62
     7
100
AcDbLine
 10
262.4063541562997
 20
285.1614392514871
 30
0.0
 11
262.3717073586607
 21
285.1614392514871
 31
0.0
  0
LINE
  5
618
330
1F
100
AcDbEntity
  8
LAYER_1
  6
Continuous
 62
     7
100
AcDbLine
 10
269.6848369417683
 20
281.7622056013964
 30
0.0
 11
262.4063541562997
 21
285.1614392514871
 31
0.0
  0
LINE
  5
619
330
1F
100
AcDbEntity
  8
LAYER_1
  6
Continuous
 62
     7
100
AcDbLine
 10
262.4063541562997
 20
285.1614392514871
 30
0.0
 11
262.3717073586607
 21
285.1614392514871
 31
0.0
  0
LINE
  5
61A
330
1F
100
AcDbEntity
  8
LAYER_1
  6
Continuous
 62
     7
100
AcDbLine
 10
262.3717073586607
 20
288.8004008421339
 30
0.0
 11
262.3376201651969
 21
288.8004008421339
 31
0.0
  0
LINE
  5
61B
330
1F
100
AcDbEntity
  8
LAYER_1
  6
Continuous
 62
     7
100
AcDbLine
 10
269.6501901441291
 20
292.2337200636471
 30
0.0
 11
262.3717073586607
 21
288.8004008421339
 31
0.0
  0
LINE
  5
61C
330
1F
100
AcDbEntity
  8
LAYER_1
  6
Continuous
 62
     7
100
AcDbLine
 10
269.6501901441291
 20
295.9078880561082
 30
0.0
 11
269.6161029506652
 21
295.9078880561082
 31
0.0
  0
LINE
  5
61D
330
1F
100
AcDbEntity
  8
LAYER_1
  6
Continuous
 62
     7
100
AcDbLine
 10
262.3717073586607
 20
299.27247490856
 30
0.0
 11
262.3376201651969
 21
299.27247490856
 31
0.0
  0
LINE
  5
61E
330
1F
100
AcDbEntity
  8
LAYER_1
  6
Continuous
 62
     7
100
AcDbLine
 10
269.6501901441291
 20
295.9078880561082
 30
0.0
 11
262.3717073586607
 21
299.27247490856
 31
0.0
  0
LINE
  5
61F
330
1F
100
AcDbEntity
  8
LAYER_1
  6
Continuous
 62
     7
100
AcDbLine
 10
262.3717073586607
 20
299.27247490856
 30
0.0
 11
262.3376201651969
 21
299.27247490856
 31
0.0
  0
LINE
  5
620
330
1F
100
AcDbEntity
  8
LAYER_1
  6
Continuous
 62
     7
100
AcDbLine
 10
262.3717073586607
 20
302.9460832968455
 30
0.0
 11
262.3376201651969
 21
302.9460832968455
 31
0.0
  0
LINE
  5
621
330
1F
100
AcDbEntity
  8
LAYER_1
  6
Continuous
 62
     7
100
AcDbLine
 10
269.6161029506652
 20
306.3794025183588
 30
0.0
 11
262.3717073586607
 21
302.9460832968455
 31
0.0
  0
LINE
  5
622
330
1F
100
AcDbEntity
  8
LAYER_1
  6
Continuous
 62
     7
100
AcDbLine
 10
269.6161029506652
 20
310.0183641090055
 30
0.0
 11
269.5820157572017
 21
310.0183641090055
 31
0.0
  0
LINE
  5
623
330
1F
100
AcDbEntity
  8
LAYER_1
  6
Continuous
 62
     7
100
AcDbLine
 10
262.3376201651969
 20
313.4175977590963
 30
0.0
 11
262.302974989599
 21
313.4175977590963
 31
0.0
  0
LINE
  5
624
330
1F
100
AcDbEntity
  8
LAYER_1
  6
Continuous
 62
     7
100
AcDbLine
 10
269.6161029506652
 20
310.0183641090055
 30
0.0
 11
262.3376201651969
 21
313.4175977590963
 31
0.0
  0
LINE
  5
625
330
1F
100
AcDbEntity
  8
LAYER_1
  6
Continuous
 62
     7
100
AcDbLine
 10
262.3376201651969
 20
313.4175977590963
 30
0.0
 11
262.302974989599
 21
313.4175977590963
 31
0.0
  0
LINE
  5
626
330
1F
100
AcDbEntity
  8
LAYER_1
  6
Continuous
 62
     7
100
AcDbLine
 10
262.3376201651969
 20
317.0912061473821
 30
0.0
 11
262.302974989599
 21
317.0912061473821
 31
0.0
  0
LINE
  5
627
330
1F
100
AcDbEntity
  8
LAYER_1
  6
Continuous
 62
     7
100
AcDbLine
 10
269.5820157572017
 20
320.4904381754316
 30
0.0
 11
262.3376201651969
 21
317.0912061473821
 31
0.0
  0
LINE
  5
628
330
1F
100
AcDbEntity
  8
LAYER_1
  6
Continuous
 62
     7
100
AcDbLine
 10
269.5820157572017
 20
324.1640465637172
 30
0.0
 11
269.5473689595625
 21
324.1640465637172
 31
0.0
  0
LINE
  5
629
330
1F
100
AcDbEntity
  8
LAYER_1
  6
Continuous
 62
     7
100
AcDbLine
 10
262.302974989599
 20
327.5627206096326
 30
0.0
 11
262.2688877961352
 21
327.5627206096326
 31
0.0
  0
LINE
  5
62A
330
1F
100
AcDbEntity
  8
LAYER_1
  6
Continuous
 62
     7
100
AcDbLine
 10
269.5820157572017
 20
324.1640465637172
 30
0.0
 11
262.302974989599
 21
327.5627206096326
 31
0.0
  0
LINE
  5
62B
330
1F
100
AcDbEntity
  8
LAYER_1
  6
Continuous
 62
     7
100
AcDbLine
 10
262.302974989599
 20
327.5627206096326
 30
0.0
 11
262.2688877961352
 21
327.5627206096326
 31
0.0
  0
LINE
  5
62C
330
1F
100
AcDbEntity
  8
LAYER_1
  6
Continuous
 62
     7
100
AcDbLine
 10
261.1356228373661
 20
329.3827610091312
 30
0.0
 11
261.1015356439024
 21
329.3827610091312
 31
0.0
  0
LINE
  5
62D
330
1F
100
AcDbEntity
  8
LAYER_1
  6
Continuous
 62
     7
100
AcDbLine
 10
261.1356228373661
 20
332.6786138704804
 30
0.0
 11
261.1356228373661
 21
329.3827610091312
 31
0.0
  0
LINE
  5
62E
330
1F
100
AcDbEntity
  8
LAYER_1
  6
Continuous
 62
     7
100
AcDbLine
 10
261.1356228373661
 20
332.6786138704804
 30
0.0
 11
261.1015356439024
 21
332.6786138704804
 31
0.0
  0
LINE
  5
62F
330
1F
100
AcDbEntity
  8
LAYER_1
  6
Continuous
 62
     7
100
AcDbLine
 10
266.663358818614
 20
338.4466373964592
 30
0.0
 11
266.6292716251504
 21
338.4466373964592
 31
0.0
  0
LINE
  5
630
330
1F
100
AcDbEntity
  8
LAYER_1
  6
Continuous
 62
     7
100
AcDbLine
 10
265.5647406574841
 20
359.2181127673325
 30
0.0
 11
265.5306534640204
 21
359.2181127673325
 31
0.0
  0
LINE
  5
631
330
1F
100
AcDbEntity
  8
LAYER_1
  6
Continuous
 62
     7
100
AcDbLine
 10
265.5647406574841
 20
361.552815449757
 30
0.0
 11
265.5647406574841
 21
359.2181127673325
 31
0.0
  0
LINE
  5
632
330
1F
100
AcDbEntity
  8
LAYER_1
  6
Continuous
 62
     7
100
AcDbLine
 10
205.2987719661625
 20
359.5958682942692
 30
0.0
 11
205.2646847726987
 21
359.5958682942692
 31
0.0
  0
LINE
  5
633
330
1F
100
AcDbEntity
  8
LAYER_1
  6
Continuous
 62
     7
100
AcDbLine
 10
205.2987719661625
 20
361.6215494408598
 30
0.0
 11
205.2987719661625
 21
359.5958682942692
 31
0.0
  0
LINE
  5
634
330
1F
100
AcDbEntity
  8
LAYER_1
  6
Continuous
 62
     7
100
AcDbLine
 10
266.4918036429447
 20
361.552815449757
 30
0.0
 11
266.457716449481
 21
361.552815449757
 31
0.0
  0
LINE
  5
635
330
1F
100
AcDbEntity
  8
LAYER_1
  6
Continuous
 62
     7
100
AcDbLine
 10
266.4918036429447
 20
364.2993592305409
 30
0.0
 11
266.4918036429447
 21
361.552815449757
 31
0.0
  0
LINE
  5
636
330
1F
100
AcDbEntity
  8
LAYER_1
  6
Continuous
 62
     7
100
AcDbLine
 10
266.4230712738829
 20
372.0930639031108
 30
0.0
 11
266.3889824583782
 21
372.0930639031108
 31
0.0
  0
LINE
  5
637
330
1F
100
AcDbEntity
  8
LAYER_1
  6
Continuous
 62
     7
100
AcDbLine
 10
266.4230712738829
 20
369.5180736759551
 30
0.0
 11
266.4230712738829
 21
372.0930639031108
 31
0.0
  0
LINE
  5
638
330
1F
100
AcDbEntity
  8
LAYER_1
  6
Continuous
 62
     7
100
AcDbLine
 10
203.753665909034
 20
361.552815449757
 30
0.0
 11
203.7195787155702
 21
361.552815449757
 31
0.0
  0
LINE
  5
639
330
1F
100
AcDbEntity
  8
LAYER_1
  6
Continuous
 62
     7
100
AcDbLine
 10
203.753665909034
 20
372.1958850876773
 30
0.0
 11
203.753665909034
 21
361.552815449757
 31
0.0
  0
LINE
  5
63A
330
1F
100
AcDbEntity
  8
LAYER_1
  6
Continuous
 62
     7
100
AcDbLine
 10
203.753665909034
 20
361.6215494408598
 30
0.0
 11
203.7195787155702
 21
361.6215494408598
 31
0.0
  0
LINE
  5
63B
330
1F
100
AcDbEntity
  8
LAYER_1
  6
Continuous
 62
     7
100
AcDbLine
 10
267.1439339080762
 20
361.5869026432208
 30
0.0
 11
203.753665909034
 21
361.6215494408598
 31
0.0
  0
LINE
  5
63C
330
1F
100
AcDbEntity
  8
LAYER_1
  6
Continuous
 62
     7
100
AcDbLine
 10
203.8223999001367
 20
372.1958850876773
 30
0.0
 11
203.788312706673
 21
372.1958850876773
 31
0.0
  0
LINE
  5
63D
330
1F
100
AcDbEntity
  8
LAYER_1
  6
Continuous
 62
     7
100
AcDbLine
 10
267.0751999169735
 20
372.1271510965744
 30
0.0
 11
203.8223999001367
 21
372.1958850876773
 31
0.0
  0
LINE
  5
63E
330
1F
100
AcDbEntity
  8
LAYER_1
  6
Continuous
 62
     7
100
AcDbLine
 10
267.1785790836742
 20
362.1021245303222
 30
0.0
 11
267.1439339080762
 21
362.1021245303222
 31
0.0
  0
LINE
  5
63F
330
1F
100
AcDbEntity
  8
LAYER_1
  6
Continuous
 62
     7
100
AcDbLine
 10
267.9681757089703
 20
363.3035622539774
 30
0.0
 11
267.1785790836742
 21
362.1021245303222
 31
0.0
  0
LINE
  5
640
330
1F
100
AcDbEntity
  8
LAYER_1
  6
Continuous
 62
     7
100
AcDbLine
 10
266.9723787324069
 20
371.5437548225457
 30
0.0
 11
266.9382915389431
 21
371.5437548225457
 31
0.0
  0
LINE
  5
641
330
1F
100
AcDbEntity
  8
LAYER_1
  6
Continuous
 62
     7
100
AcDbLine
 10
267.8307093488058
 20
370.4792238548794
 30
0.0
 11
266.9723787324069
 21
371.5437548225457
 31
0.0
  0
LINE
  5
642
330
1F
100
AcDbEntity
  8
LAYER_1
  6
Continuous
 62
     7
100
AcDbLine
 10
260.1403854649781
 20
369.7242740272225
 30
0.0
 11
260.1057386673388
 21
369.7242740272225
 31
0.0
  0
LINE
  5
643
330
1F
100
AcDbEntity
  8
LAYER_1
  6
Continuous
 62
     7
100
AcDbLine
 10
259.4189632266093
 20
369.7242740272225
 30
0.0
 11
260.1403854649781
 21
369.7242740272225
 31
0.0
  0
LINE
  5
644
330
1F
100
AcDbEntity
  8
LAYER_1
  6
Continuous
 62
     7
100
AcDbLine
 10
259.4189632266093
 20
369.7242740272225
 30
0.0
 11
259.3848760331457
 21
369.7242740272225
 31
0.0
  0
LINE
  5
645
330
1F
100
AcDbEntity
  8
LAYER_1
  6
Continuous
 62
     7
100
AcDbLine
 10
259.0758544973119
 20
364.1970976501498
 30
0.0
 11
259.4189632266093
 21
369.7242740272225
 31
0.0
  0
LINE
  5
646
330
1F
100
AcDbEntity
  8
LAYER_1
  6
Continuous
 62
     7
100
AcDbLine
 10
259.7626299380413
 20
364.1970976501498
 30
0.0
 11
259.7279847624432
 21
364.1970976501498
 31
0.0
  0
LINE
  5
647
330
1F
100
AcDbEntity
  8
LAYER_1
  6
Continuous
 62
     7
100
AcDbLine
 10
260.1403854649781
 20
369.7242740272225
 30
0.0
 11
259.7626299380413
 21
364.1970976501498
 31
0.0
  0
LINE
  5
648
330
1F
100
AcDbEntity
  8
LAYER_1
  6
Continuous
 62
     7
100
AcDbLine
 10
261.5821107333646
 20
369.7242740272225
 30
0.0
 11
261.5480235399008
 21
369.7242740272225
 31
0.0
  0
LINE
  5
649
330
1F
100
AcDbEntity
  8
LAYER_1
  6
Continuous
 62
     7
100
AcDbLine
 10
260.8612480991712
 20
369.7242740272225
 30
0.0
 11
261.5821107333646
 21
369.7242740272225
 31
0.0
  0
LINE
  5
64A
330
1F
100
AcDbEntity
  8
LAYER_1
  6
Continuous
 62
     7
100
AcDbLine
 10
260.8612480991712
 20
369.7242740272225
 30
0.0
 11
260.8266013015323
 21
369.7242740272225
 31
0.0
  0
LINE
  5
64B
330
1F
100
AcDbEntity
  8
LAYER_1
  6
Continuous
 62
     7
100
AcDbLine
 10
260.5175813877394
 20
364.1970976501498
 30
0.0
 11
260.8612480991712
 21
369.7242740272225
 31
0.0
  0
LINE
  5
64C
330
1F
100
AcDbEntity
  8
LAYER_1
  6
Continuous
 62
     7
100
AcDbLine
 10
261.239002004067
 20
364.1970976501498
 30
0.0
 11
261.2043568284689
 21
364.1970976501498
 31
0.0
  0
LINE
  5
64D
330
1F
100
AcDbEntity
  8
LAYER_1
  6
Continuous
 62
     7
100
AcDbLine
 10
261.5821107333646
 20
369.7242740272225
 30
0.0
 11
261.239002004067
 21
364.1970976501498
 31
0.0
  0
LINE
  5
64E
330
1F
100
AcDbEntity
  8
LAYER_1
  6
Continuous
 62
     7
100
AcDbLine
 10
262.8181952546593
 20
369.7242740272225
 30
0.0
 11
262.783550079061
 21
369.7242740272225
 31
0.0
  0
LINE
  5
64F
330
1F
100
AcDbEntity
  8
LAYER_1
  6
Continuous
 62
     7
100
AcDbLine
 10
262.0973326204659
 20
369.7242740272225
 30
0.0
 11
262.8181952546593
 21
369.7242740272225
 31
0.0
  0
LINE
  5
650
330
1F
100
AcDbEntity
  8
LAYER_1
  6
Continuous
 62
     7
100
AcDbLine
 10
262.0973326204659
 20
369.7242740272225
 30
0.0
 11
262.062687444868
 21
369.7242740272225
 31
0.0
  0
LINE
  5
651
330
1F
100
AcDbEntity
  8
LAYER_1
  6
Continuous
 62
     7
100
AcDbLine
 10
261.7536659090339
 20
364.1970976501498
 30
0.0
 11
262.0973326204659
 21
369.7242740272225
 31
0.0
  0
LINE
  5
652
330
1F
100
AcDbEntity
  8
LAYER_1
  6
Continuous
 62
     7
100
AcDbLine
 10
262.4404413497636
 20
364.1970976501498
 30
0.0
 11
262.4063541562997
 21
364.1970976501498
 31
0.0
  0
LINE
  5
653
330
1F
100
AcDbEntity
  8
LAYER_1
  6
Continuous
 62
     7
100
AcDbLine
 10
262.8181952546593
 20
369.7242740272225
 30
0.0
 11
262.4404413497636
 21
364.1970976501498
 31
0.0
  0
LINE
  5
654
330
1F
100
AcDbEntity
  8
LAYER_1
  6
Continuous
 62
     7
100
AcDbLine
 10
263.4015915286879
 20
369.6896272295833
 30
0.0
 11
263.367504335224
 21
369.6896272295833
 31
0.0
  0
LINE
  5
655
330
1F
100
AcDbEntity
  8
LAYER_1
  6
Continuous
 62
     7
100
AcDbLine
 10
263.0584844214314
 20
364.1618928703765
 30
0.0
 11
263.4015915286879
 21
369.6896272295833
 31
0.0
  0
LINE
  5
656
330
1F
100
AcDbEntity
  8
LAYER_1
  6
Continuous
 62
     7
100
AcDbLine
 10
263.7452598621608
 20
364.1618928703765
 30
0.0
 11
263.7106130645217
 21
364.1618928703765
 31
0.0
  0
LINE
  5
657
330
1F
100
AcDbEntity
  8
LAYER_1
  6
Continuous
 62
     7
100
AcDbLine
 10
264.1230137670564
 20
369.6896272295833
 30
0.0
 11
263.7452598621608
 21
364.1618928703765
 31
0.0
  0
LINE
  5
658
330
1F
100
AcDbEntity
  8
LAYER_1
  6
Continuous
 62
     7
100
AcDbLine
 10
256.9473521661546
 20
361.518168652118
 30
0.0
 11
256.9127069905566
 21
361.518168652118
 31
0.0
  0
LINE
  5
659
330
1F
100
AcDbEntity
  8
LAYER_1
  6
Continuous
 62
     7
100
AcDbLine
 10
256.6036854547226
 20
366.8402622642331
 30
0.0
 11
256.569598261259
 21
366.8402622642331
 31
0.0
  0
LINE
  5
65A
330
1F
100
AcDbEntity
  8
LAYER_1
  6
Continuous
 62
     7
100
AcDbLine
 10
266.4918036429447
 20
364.3680932216437
 30
0.0
 11
266.457716449481
 21
364.3680932216437
 31
0.0
  0
LINE
  5
65B
330
1F
100
AcDbEntity
  8
LAYER_1
  6
Continuous
 62
     7
100
AcDbLine
 10
267.1785790836742
 20
363.8187841410786
 30
0.0
 11
266.4918036429447
 21
364.3680932216437
 31
0.0
  0
LINE
  5
65C
330
1F
100
AcDbEntity
  8
LAYER_1
  6
Continuous
 62
     7
100
AcDbLine
 10
267.1785790836742
 20
363.8187841410786
 30
0.0
 11
267.1439339080762
 21
363.8187841410786
 31
0.0
  0
LINE
  5
65D
330
1F
100
AcDbEntity
  8
LAYER_1
  6
Continuous
 62
     7
100
AcDbLine
 10
267.1785790836742
 20
361.7243690033854
 30
0.0
 11
267.1785790836742
 21
363.8187841410786
 31
0.0
  0
LINE
  5
65E
330
1F
100
AcDbEntity
  8
LAYER_1
  6
Continuous
 62
     7
100
AcDbLine
 10
266.457716449481
 20
369.4834268783159
 30
0.0
 11
266.4230712738829
 21
369.4834268783159
 31
0.0
  0
LINE
  5
65F
330
1F
100
AcDbEntity
  8
LAYER_1
  6
Continuous
 62
     7
100
AcDbLine
 10
267.0070255300461
 20
369.7924484141497
 30
0.0
 11
266.457716449481
 21
369.4834268783159
 31
0.0
  0
LINE
  5
660
330
1F
100
AcDbEntity
  8
LAYER_1
  6
Continuous
 62
     7
100
AcDbLine
 10
267.0070255300461
 20
369.7924484141497
 30
0.0
 11
266.9723787324069
 21
369.7924484141497
 31
0.0
  0
LINE
  5
661
330
1F
100
AcDbEntity
  8
LAYER_1
  6
Continuous
 62
     7
100
AcDbLine
 10
267.0070255300461
 20
371.9215103494825
 30
0.0
 11
267.0070255300461
 21
369.7924484141497
 31
0.0
  0
LINE
  5
662
330
1F
100
AcDbEntity
  8
1
  6
Continuous
 62
     7
100
AcDbLine
 10
206.316143664084
 20
322.4641507476047
 30
0.0
 11
265.7493662873933
 21
322.4641507476047
 31
0.0
  0
LINE
  5
663
330
1F
100
AcDbEntity
  8
1
  6
Continuous
 62
     7
100
AcDbLine
 10
214.7619769797441
 20
315.2544019532393
 30
0.0
 11
256.1702696350051
 21
315.2544019532393
 31
0.0
  0
LINE
  5
664
330
1F
100
AcDbEntity
  8
1
  6
Continuous
 62
     7
100
AcDbLine
 10
206.316143664084
 20
308.1815599148628
 30
0.0
 11
265.7493662873933
 21
308.1815599148628
 31
0.0
  0
LINE
  5
665
330
1F
100
AcDbEntity
  8
1
  6
Continuous
 62
     7
100
AcDbLine
 10
206.316143664084
 20
293.8989690821209
 30
0.0
 11
265.7493662873933
 21
293.8989690821209
 31
0.0
  0
LINE
  5
666
330
1F
100
AcDbEntity
  8
1
  6
Continuous
 62
     7
100
AcDbLine
 10
206.316143664084
 20
279.616378249379
 30
0.0
 11
265.7493662873933
 21
279.616378249379
 31
0.0
  0
LINE
  5
667
330
1F
100
AcDbEntity
  8
1
  6
Continuous
 62
     7
100
AcDbLine
 10
206.316143664084
 20
265.3337874166371
 30
0.0
 11
265.7493662873933
 21
265.3337874166371
 31
0.0
  0
LINE
  5
668
330
1F
100
AcDbEntity
  8
1
  6
Continuous
 62
     7
100
AcDbLine
 10
206.316143664084
 20
251.051196583895
 30
0.0
 11
265.7493662873933
 21
251.051196583895
 31
0.0
  0
LINE
  5
669
330
1F
100
AcDbEntity
  8
1
  6
Continuous
 62
     7
100
AcDbLine
 10
206.316143664084
 20
236.7686057511531
 30
0.0
 11
265.7493662873933
 21
236.7686057511531
 31
0.0
  0
LINE
  5
66A
330
1F
100
AcDbEntity
  8
1
  6
Continuous
 62
     7
100
AcDbLine
 10
206.316143664084
 20
222.4860149184112
 30
0.0
 11
265.7493662873933
 21
222.4860149184112
 31
0.0
  0
LINE
  5
66B
330
1F
100
AcDbEntity
  8
1
  6
Continuous
 62
     7
100
AcDbLine
 10
214.7619769797441
 20
301.1151986378414
 30
0.0
 11
256.1702696350051
 21
301.1151986378414
 31
0.0
  0
LINE
  5
66C
330
1F
100
AcDbEntity
  8
1
  6
Continuous
 62
     7
100
AcDbLine
 10
214.7619769797441
 20
286.9759953224435
 30
0.0
 11
256.1702696350051
 21
286.9759953224435
 31
0.0
  0
LINE
  5
66D
330
1F
100
AcDbEntity
  8
1
  6
Continuous
 62
     7
100
AcDbLine
 10
214.7619769797441
 20
272.8367920070457
 30
0.0
 11
256.1702696350051
 21
272.8367920070457
 31
0.0
  0
LINE
  5
66E
330
1F
100
AcDbEntity
  8
1
  6
Continuous
 62
     7
100
AcDbLine
 10
214.7619769797441
 20
258.6975886916479
 30
0.0
 11
256.1702696350051
 21
258.6975886916479
 31
0.0
  0
LINE
  5
66F
330
1F
100
AcDbEntity
  8
1
  6
Continuous
 62
     7
100
AcDbLine
 10
214.7619769797441
 20
244.55838537625
 30
0.0
 11
256.1702696350051
 21
244.55838537625
 31
0.0
  0
LINE
  5
670
330
1F
100
AcDbEntity
  8
1
  6
Continuous
 62
     7
100
AcDbLine
 10
214.7619769797441
 20
230.4191820608521
 30
0.0
 11
256.1702696350051
 21
230.4191820608521
 31
0.0
  0
LWPOLYLINE
  5
671
330
1F
100
AcDbEntity
  8
LAYER_1
  6
Continuous
 62
     7
100
AcDbPolyline
 90
        7
 70
     1
 43
0.0
 10
267.7278881642392
 20
363.5784965963478
 10
271.6417840972561
 20
363.6125837898115
 10
273.5646456813212
 20
366.977170642263
 10
271.6076969037922
 20
370.3417574947148
 10
267.7278881642392
 20
370.3417574947148
 10
265.7709410087515
 20
366.9430834487994
 10
267.7278881642392
 20
363.5784965963478
  0
LWPOLYLINE
  5
672
330
1F
100
AcDbEntity
  8
LAYER_1
  6
Continuous
 62
     7
100
AcDbPolyline
 90
       82
 70
     1
 43
0.0
 10
269.8910372930357
 20
362.960455146721
 10
270.1313248377667
 20
362.9945423401846
 10
270.3369655848586
 20
363.0291875157828
 10
270.5772531295897
 20
363.0632747092465
 10
270.7834551028981
 20
363.0979215068857
 10
270.9896554541655
 20
363.1666554979884
 10
271.1952962012576
 20
363.2694750605139
 10
271.4014965525249
 20
363.338767033751
 10
271.6076969037922
 20
363.441030236183
 10
271.7792520794616
 20
363.5784965963478
 10
271.9848928265535
 20
363.6813177809144
 10
272.3285595379855
 20
363.9562521232845
 10
272.4660275201912
 20
364.1278056769127
 10
272.7744894518497
 20
364.4368272127465
 10
272.9119558120142
 20
364.6424679598387
 10
273.0153366007562
 20
364.8145811176421
 10
273.1522433567453
 20
365.0202234867755
 10
273.2556241454873
 20
365.1917770404037
 10
273.4612648925793
 20
365.8098201120716
 10
273.529998883682
 20
366.0501076568023
 10
273.5987328747848
 20
366.4625083593375
 10
273.6328200682486
 20
366.7027959040685
 10
273.6328200682486
 20
367.1492838000668
 10
273.5987328747848
 20
367.3549261691999
 10
273.5646456813212
 20
367.5952137139309
 10
273.529998883682
 20
367.8014140651983
 10
273.324356514549
 20
368.4194555148249
 10
273.1181561632815
 20
368.8312982352257
 10
273.0153366007562
 20
369.002851788854
 10
272.8778686185506
 20
369.2090521401213
 10
272.7744894518497
 20
369.3806073157905
 10
272.6029358982214
 20
369.5521608694187
 10
272.4660275201912
 20
369.7242740272225
 10
271.7792520794616
 20
370.2735831077876
 10
271.366849754886
 20
370.4792238548794
 10
271.1952962012576
 20
370.5479578459822
 10
270.9550086565265
 20
370.6507790305489
 10
270.7493662873933
 20
370.7195130216517
 10
270.5431659361259
 20
370.7541581972496
 10
270.3369655848586
 20
370.8228921883525
 10
270.0966780401275
 20
370.8228921883525
 10
269.8910372930357
 20
370.8569793818161
 10
269.4445493970371
 20
370.8569793818161
 10
269.2383490457696
 20
370.8228921883525
 10
268.9980615010387
 20
370.7882453907132
 10
268.5862187806382
 20
370.7195130216517
 10
268.3459312359071
 20
370.6507790305489
 10
268.1397308846397
 20
370.5479578459822
 10
267.9335305333724
 20
370.4792238548794
 10
267.761975357703
 20
370.3764042923538
 10
267.5563346106109
 20
370.2389363101484
 10
267.3842214528074
 20
370.136116747623
 10
267.0411127235097
 20
369.8611824052528
 10
266.5605376340476
 20
369.3806073157905
 10
266.457716449481
 20
369.1749649466574
 10
266.3202500893165
 20
369.002851788854
 10
266.2168693005746
 20
368.7972110417618
 10
266.1140497380491
 20
368.6250978839584
 10
266.0112285534826
 20
368.4194555148249
 10
265.8737621933182
 20
368.0076144164657
 10
265.8050282022153
 20
367.7667672675594
 10
265.7362942111123
 20
367.3549261691999
 10
265.7362942111123
 20
366.4625083593375
 10
265.7709410087515
 20
366.2563080080701
 10
265.8050282022153
 20
366.016020463339
 10
266.0112285534826
 20
365.3979773916711
 10
266.2168693005746
 20
364.9861362933116
 10
266.3202500893165
 20
364.8145811176421
 10
266.457716449481
 20
364.608380766375
 10
266.8695591698813
 20
364.0931588792737
 10
267.3842214528074
 20
363.6813177809144
 10
267.5904218040747
 20
363.5438497987086
 10
267.761975357703
 20
363.441030236183
 10
267.9681757089703
 20
363.338767033751
 10
268.1743760602377
 20
363.2694750605139
 10
268.3800184293708
 20
363.1666554979884
 10
268.5862187806382
 20
363.0979215068857
 10
268.7918595277301
 20
363.0632747092465
 10
269.0327066766366
 20
363.0291875157828
 10
269.4445493970371
 20
362.960455146721
 10
269.6848369417683
 20
362.960455146721
 10
269.8910372930357
 20
362.960455146721
  0
LWPOLYLINE
  5
673
330
1F
100
AcDbEntity
  8
LAYER_1
  6
Continuous
 62
     7
100
AcDbPolyline
 90
        3
 70
     0
 43
0.0
 10
273.1868901543845
 20
367.6298588895288
 10
266.1827821071109
 20
367.6298588895288
 10
266.1486949136471
 20
367.6298588895288
  0
LWPOLYLINE
  5
674
330
1F
100
AcDbEntity
  8
LAYER_1
  6
Continuous
 62
     7
100
AcDbPolyline
 90
        3
 70
     0
 43
0.0
 10
273.0494237942198
 20
366.0847528324006
 10
266.2856032916773
 20
366.0847528324006
 10
266.2515160982138
 20
366.0847528324006
  0
LWPOLYLINE
  5
675
330
1F
100
AcDbEntity
  8
LAYER_1
  6
Continuous
 62
     7
100
AcDbPolyline
 90
       28
 70
     0
 43
0.0
 10
256.3633979099915
 20
371.9215103494825
 10
256.1918427343223
 20
371.7840423672768
 10
256.0543763741578
 20
371.6812228047513
 10
255.916908391952
 20
371.5091096469478
 10
255.7800016359628
 20
371.3722012689173
 10
255.676620847221
 20
371.2000881111137
 10
255.5397140912318
 20
371.0285329354445
 10
255.4709801001289
 20
370.8569793818161
 10
255.3676009334282
 20
370.6854258281879
 10
255.2994249244595
 20
370.4792238548794
 10
255.2306925553978
 20
370.3076703012511
 10
255.161958564295
 20
369.8958292028918
 10
255.127311766656
 20
369.7242740272225
 10
255.127311766656
 20
369.1062325775957
 10
255.161958564295
 20
368.9000322263283
 10
255.2306925553978
 20
368.728477050659
 10
255.2647797488617
 20
368.5222766993916
 10
255.3335137399644
 20
368.3507231457634
 10
255.4363333024899
 20
368.144522794496
 10
255.5050672935927
 20
367.9729676188265
 10
255.6078884781593
 20
367.8014140651983
 10
255.7453548383238
 20
367.6298588895288
 10
255.8487340050245
 20
367.4923925293646
 10
255.9856423830547
 20
367.3208389757361
 10
256.1231103652606
 20
367.1833709935304
 10
256.2946639188887
 20
367.0805498089641
 10
256.466217472517
 20
366.9430834487994
 10
256.6036854547226
 20
366.8402622642331
  0
LWPOLYLINE
  5
676
330
1F
100
AcDbEntity
  8
LAYER_1
  6
Continuous
 62
     7
100
AcDbPolyline
 90
       25
 70
     0
 43
0.0
 10
256.6724178237843
 20
366.736883097532
 10
256.5008642701562
 20
366.6340619129658
 10
256.3633979099915
 20
366.4625083593375
 10
256.225929927786
 20
366.3250419991729
 10
256.0890215497557
 20
366.1534868235033
 10
255.9856423830547
 20
366.016020463339
 10
255.8487340050245
 20
365.8444652876696
 10
255.7800016359628
 20
365.6382649364022
 10
255.676620847221
 20
365.466711382774
 10
255.6078884781593
 20
365.2605110315066
 10
255.5397140912318
 20
365.088955855837
 10
255.4363333024899
 20
364.4709144062105
 10
255.4363333024899
 20
364.05907168581
 10
255.4709801001289
 20
363.8528713345426
 10
255.5397140912318
 20
363.441030236183
 10
255.5738012846955
 20
363.2694750605139
 10
255.6425336537573
 20
363.0632747092465
 10
255.7453548383238
 20
362.8917211556184
 10
255.8487340050245
 20
362.685520804351
 10
256.0543763741578
 20
362.3424120750531
 10
256.1918427343223
 20
362.2049457148887
 10
256.3293107165279
 20
362.0333905392193
 10
256.6036854547226
 20
361.758456196849
 10
256.7752390083509
 20
361.6215494408598
 10
256.9473521661546
 20
361.518168652118
  0
LWPOLYLINE
  5
677
330
1F
100
AcDbEntity
  8
LAYER_1
  6
Continuous
 62
     7
100
AcDbPolyline
 90
        3
 70
     0
 43
0.0
 10
263.7452598621608
 20
364.1618928703765
 10
263.0584844214314
 20
364.1618928703765
 10
263.0243956059265
 20
364.1618928703765
  0
LWPOLYLINE
  5
678
330
1F
100
AcDbEntity
  8
LAYER_1
  6
Continuous
 62
     7
100
AcDbPolyline
 90
        3
 70
     0
 43
0.0
 10
262.4404413497636
 20
364.1970976501498
 10
261.7536659090339
 20
364.1970976501498
 10
261.7195787155703
 20
364.1970976501498
  0
LWPOLYLINE
  5
679
330
1F
100
AcDbEntity
  8
LAYER_1
  6
Continuous
 62
     7
100
AcDbPolyline
 90
        3
 70
     0
 43
0.0
 10
261.239002004067
 20
364.1970976501498
 10
260.5175813877394
 20
364.1970976501498
 10
260.4834941942756
 20
364.1970976501498
  0
LWPOLYLINE
  5
67A
330
1F
100
AcDbEntity
  8
LAYER_1
  6
Continuous
 62
     7
100
AcDbPolyline
 90
        3
 70
     0
 43
0.0
 10
259.7626299380413
 20
364.1970976501498
 10
259.0758544973119
 20
364.1970976501498
 10
259.0412076996727
 20
364.1970976501498
  0
LWPOLYLINE
  5
67B
330
1F
100
AcDbEntity
  8
LAYER_1
  6
Continuous
 62
     7
100
AcDbPolyline
 90
        3
 70
     0
 43
0.0
 10
264.1230137670564
 20
369.7242740272225
 10
263.436238326327
 20
369.7242740272225
 10
263.4015915286879
 20
369.7242740272225
  0
LWPOLYLINE
  5
67C
330
1F
100
AcDbEntity
  8
LAYER_1
  6
Continuous
 62
     7
100
AcDbPolyline
 90
       18
 70
     0
 43
0.0
 10
264.8779652167547
 20
335.6654468180362
 10
265.0495187703829
 20
335.7341791870979
 10
265.2216319281864
 20
335.8370003716647
 10
265.3931854818147
 20
335.9744667318292
 10
265.5647406574841
 20
336.0772879163956
 10
265.7362942111123
 20
336.2147542765603
 10
265.8737621933182
 20
336.3863094522297
 10
266.0112285534826
 20
336.523775812394
 10
266.1140497380491
 20
336.6953309880637
 10
266.2515160982138
 20
336.8668845416917
 10
266.3202500893165
 20
337.0389976994956
 10
266.4230712738829
 20
337.2446400686283
 10
266.4918036429447
 20
337.4167532264321
 10
266.5605376340476
 20
337.6223939735239
 10
266.5946248275112
 20
337.8285943247917
 10
266.6292716251504
 20
338.0342366939248
 10
266.663358818614
 20
338.2404370451918
 10
266.663358818614
 20
338.4466373964592
  0
LWPOLYLINE
  5
67D
330
1F
100
AcDbEntity
  8
LAYER_1
  6
Continuous
 62
     7
100
AcDbPolyline
 90
       13
 70
     0
 43
0.0
 10
262.3376201651969
 20
334.5327414634426
 10
262.2001538050324
 20
334.4640074723399
 10
262.0285986293631
 20
334.395273481237
 10
261.8911322691985
 20
334.291894314536
 10
261.5480235399008
 20
333.9487855852385
 10
261.4446443732001
 20
333.811319225074
 10
261.3759103820972
 20
333.6397640494046
 10
261.3077359951698
 20
333.5022976892401
 10
261.239002004067
 20
333.3653893112096
 10
261.2043568284689
 20
333.1932761534062
 10
261.1702696350051
 20
333.021722599778
 10
261.1356228373661
 20
332.8501690461494
 10
261.1356228373661
 20
332.6786138704804
  0
LWPOLYLINE
  5
67E
330
1F
100
AcDbEntity
  8
LAYER_1
  6
Continuous
 62
     7
100
AcDbPolyline
 90
       11
 70
     0
 43
0.0
 10
261.1356228373661
 20
329.3827610091312
 10
261.1356228373661
 20
329.2106478513277
 10
261.1702696350051
 20
329.0390926756583
 10
261.2043568284689
 20
328.9016263154938
 10
261.239002004067
 20
328.7300727618654
 10
261.3759103820972
 20
328.4556964016297
 10
261.4446443732001
 20
328.2835832438259
 10
261.5480235399008
 20
328.1807636813003
 10
261.7536659090339
 20
327.9063889431058
 10
262.0285986293631
 20
327.7001885918384
 10
262.302974989599
 20
327.5627206096326
  0
LWPOLYLINE
  5
67F
330
1F
100
AcDbEntity
  8
LAYER_1
  6
Continuous
 62
     7
100
AcDbPolyline
 90
       23
 70
     0
 43
0.0
 10
269.5820157572017
 20
320.4904381754316
 10
269.7189241352319
 20
320.593259359998
 10
269.8563904953965
 20
320.6619933511009
 10
270.1313248377667
 20
320.8676340981929
 10
270.2341460223331
 20
321.0051020803985
 10
270.3369655848586
 20
321.1084812470995
 10
270.4403463736006
 20
321.2453896251299
 10
270.508520760528
 20
321.3828559852944
 10
270.5772531295897
 20
321.5544095389223
 10
270.6459871206926
 20
321.6918775211281
 10
270.6806339183315
 20
321.8634310747564
 10
270.7147211117953
 20
322.000899056962
 10
270.7493662873933
 20
322.1724526105902
 10
270.7493662873933
 20
322.4814741464242
 10
270.7147211117953
 20
322.6530277000525
 10
270.6806339183315
 20
322.825140857856
 10
270.6459871206926
 20
322.9620492358863
 10
270.5772531295897
 20
323.1336027895148
 10
270.4403463736006
 20
323.4085371318847
 10
270.2341460223331
 20
323.683471474255
 10
270.1313248377667
 20
323.7862926588216
 10
269.7189241352319
 20
324.0953125726144
 10
269.5820157572017
 20
324.1640465637172
  0
LWPOLYLINE
  5
680
330
1F
100
AcDbEntity
  8
LAYER_1
  6
Continuous
 62
     7
100
AcDbPolyline
 90
       24
 70
     0
 43
0.0
 10
262.3376201651969
 20
317.0912061473821
 10
262.1660666115686
 20
316.9883849628152
 10
262.0285986293631
 20
316.9196509717124
 10
261.9252194626623
 20
316.816831409187
 10
261.7883110846319
 20
316.7134506204452
 10
261.6849319179312
 20
316.5759842602807
 10
261.5821107333646
 20
316.4731630757142
 10
261.4792911708391
 20
316.3356967155494
 10
261.4105571797362
 20
316.1987883375191
 10
261.3418231886334
 20
316.0266751797157
 10
261.2730908195717
 20
315.8897668016854
 10
261.239002004067
 20
315.7176536438817
 10
261.2043568284689
 20
315.5807452658515
 10
261.1702696350051
 20
315.4086321080478
 10
261.1702696350051
 20
315.1001701763892
 10
261.2043568284689
 20
314.9280570185854
 10
261.239002004067
 20
314.7565034649574
 10
261.2730908195717
 20
314.6190354827517
 10
261.3418231886334
 20
314.4474819291235
 10
261.4792911708391
 20
314.1731071909285
 10
261.6849319179312
 20
313.8981728485585
 10
261.7883110846319
 20
313.7953516639919
 10
262.2001538050324
 20
313.4863317501992
 10
262.3376201651969
 20
313.4175977590963
  0
LWPOLYLINE
  5
681
330
1F
100
AcDbEntity
  8
LAYER_1
  6
Continuous
 62
     7
100
AcDbPolyline
 90
       19
 70
     0
 43
0.0
 10
269.6161029506652
 20
306.3794025183588
 10
269.8910372930357
 20
306.5168705005647
 10
270.1654120312303
 20
306.7225112476565
 10
270.4744335670642
 20
307.1343539680572
 10
270.6806339183315
 20
307.5467546705917
 10
270.7147211117953
 20
307.71830822422
 10
270.7493662873933
 20
307.8898617778482
 10
270.7834551028981
 20
308.0273297600542
 10
270.7834551028981
 20
308.3704384893515
 10
270.7493662873933
 20
308.5419920429797
 10
270.7147211117953
 20
308.6794584031443
 10
270.6806339183315
 20
308.8510135788137
 10
270.5431659361259
 20
309.1259479211839
 10
270.4744335670642
 20
309.2975014748122
 10
270.3716123824976
 20
309.4003226593787
 10
270.268233215797
 20
309.5377890195432
 10
270.0279456710658
 20
309.7780765642743
 10
269.8910372930357
 20
309.8814573530163
 10
269.6161029506652
 20
310.0183641090055
  0
LWPOLYLINE
  5
682
330
1F
100
AcDbEntity
  8
LAYER_1
  6
Continuous
 62
     7
100
AcDbPolyline
 90
       26
 70
     0
 43
0.0
 10
262.3717073586607
 20
302.9460832968455
 10
262.2001538050324
 20
302.8773493057425
 10
262.062687444868
 20
302.774528121176
 10
261.9598662603013
 20
302.6711489544753
 10
261.8223982780958
 20
302.5683277699089
 10
261.7195787155703
 20
302.4655065853423
 10
261.5133783643029
 20
302.1905738650133
 10
261.4446443732001
 20
302.0531058828074
 10
261.3759103820972
 20
301.9161975047771
 10
261.3074570041027
 20
301.7440843469736
 10
261.2730908195717
 20
301.6071775909843
 10
261.2387230129997
 20
301.4350644331809
 10
261.2043568284689
 20
301.2635092575115
 10
261.2043568284689
 20
300.9544877216775
 10
261.2387230129997
 20
300.7829341680493
 10
261.2730908195717
 20
300.6454678078848
 10
261.3074570041027
 20
300.4739126322152
 10
261.3759103820972
 20
300.3364462720508
 10
261.4446443732001
 20
300.1648910963814
 10
261.5133783643029
 20
300.0274247362169
 10
261.6161979268284
 20
299.8905163581867
 10
261.7195787155703
 20
299.7871371914858
 10
261.8223982780958
 20
299.6502288134556
 10
262.0973326204659
 20
299.4440284621882
 10
262.234240998496
 20
299.3752960931265
 10
262.3717073586607
 20
299.27247490856
  0
LWPOLYLINE
  5
683
330
1F
100
AcDbEntity
  8
LAYER_1
  6
Continuous
 62
     7
100
AcDbPolyline
 90
       23
 70
     0
 43
0.0
 10
269.6501901441291
 20
292.2337200636471
 10
269.7876581263346
 20
292.3024540547499
 10
270.1994992246941
 20
292.6114755905838
 10
270.3028783913948
 20
292.7148547572849
 10
270.508520760528
 20
292.9892294954794
 10
270.6459871206926
 20
293.2641638378498
 10
270.7147211117953
 20
293.4357190135191
 10
270.7493662873933
 20
293.5731853736836
 10
270.7834551028981
 20
293.7447389273118
 10
270.8175422963619
 20
293.9162941029812
 10
270.8175422963619
 20
294.0537604631459
 10
270.7834551028981
 20
294.2253156388152
 10
270.7834551028981
 20
294.3968691924434
 10
270.7493662873933
 20
294.5684227460719
 10
270.7147211117953
 20
294.7058907282774
 10
270.6459871206926
 20
294.8774442819056
 10
270.5772531295897
 20
295.0149106420702
 10
270.4744335670642
 20
295.1523786242758
 10
270.4056995759614
 20
295.2898449844403
 10
270.062590846664
 20
295.6329537137381
 10
269.9251244864992
 20
295.7357748983043
 10
269.7876581263346
 20
295.8045072673662
 10
269.6501901441291
 20
295.9078880561082
  0
LWPOLYLINE
  5
684
330
1F
100
AcDbEntity
  8
LAYER_1
  6
Continuous
 62
     7
100
AcDbPolyline
 90
       24
 70
     0
 43
0.0
 10
262.3717073586607
 20
288.8004008421339
 10
262.0973326204659
 20
288.6634924641036
 10
261.9598662603013
 20
288.5601132974028
 10
261.8570450757347
 20
288.4572921128361
 10
261.6508447244675
 20
288.1829173746412
 10
261.5480235399008
 20
288.0795365858994
 10
261.4446443732001
 20
287.907983032271
 10
261.3759103820972
 20
287.7705166721064
 10
261.3418231886334
 20
287.6336082940761
 10
261.2730908195717
 20
287.4614951362726
 10
261.2387230129997
 20
287.2899399606031
 10
261.2387230129997
 20
286.8093648711412
 10
261.2730908195717
 20
286.637811317513
 10
261.2730908195717
 20
286.5003449573482
 10
261.3418231886334
 20
286.3287897816788
 10
261.4105571797362
 20
286.1913234215148
 10
261.4792911708391
 20
286.0538554393086
 10
261.5480235399008
 20
285.8823018856804
 10
261.6508447244675
 20
285.779480701114
 10
261.8570450757347
 20
285.5045463587437
 10
261.9939534537651
 20
285.4017267962184
 10
262.0973326204659
 20
285.3329928051155
 10
262.234240998496
 20
285.230171620549
 10
262.4063541562997
 20
285.1614392514871
  0
LWPOLYLINE
  5
685
330
1F
100
AcDbEntity
  8
LAYER_1
  6
Continuous
 62
     7
100
AcDbPolyline
 90
       26
 70
     0
 43
0.0
 10
269.6848369417683
 20
278.0885972131107
 10
269.8223033019328
 20
278.1919780018525
 10
269.959211679963
 20
278.2601523887802
 10
270.0966780401275
 20
278.3635315554809
 10
270.4403463736006
 20
278.7066402847786
 10
270.508520760528
 20
278.8441066449431
 10
270.6118999272287
 20
278.9815746271486
 10
270.6806339183315
 20
279.153128180777
 10
270.7493662873933
 20
279.2905945409416
 10
270.7834551028981
 20
279.462149716611
 10
270.8175422963619
 20
279.5996160767755
 10
270.8175422963619
 20
279.7711712524449
 10
270.8521874719598
 20
279.9427248060734
 10
270.8175422963619
 20
280.0801911662377
 10
270.8175422963619
 20
280.2517463419071
 10
270.7834551028981
 20
280.4232998955353
 10
270.7493662873933
 20
280.5607678777408
 10
270.6806339183315
 20
280.732321431369
 10
270.6118999272287
 20
280.8697877915337
 10
270.508520760528
 20
281.0072557737392
 10
270.4403463736006
 20
281.1441625297285
 10
270.3369655848586
 20
281.2816305119343
 10
270.1994992246941
 20
281.3844516965008
 10
270.0966780401275
 20
281.4878308632016
 10
269.8223033019328
 20
281.6934716102935
 10
269.6848369417683
 20
281.7622056013964
  0
LWPOLYLINE
  5
686
330
1F
100
AcDbEntity
  8
LAYER_1
  6
Continuous
 62
     7
100
AcDbPolyline
 90
       22
 70
     0
 43
0.0
 10
262.4063541562997
 20
274.6899231671952
 10
262.2688877961352
 20
274.5865440004943
 10
262.1314198139296
 20
274.5178100093918
 10
261.9939534537651
 20
274.4149888248253
 10
261.6508447244675
 20
274.0718817175687
 10
261.5821107333646
 20
273.9344137353628
 10
261.4792911708391
 20
273.7969473751982
 10
261.4105571797362
 20
273.62539382157
 10
261.3759103820972
 20
273.4879258393646
 10
261.3074570041027
 20
273.3163722857362
 10
261.2730908195717
 20
273.1789043035307
 10
261.2730908195717
 20
272.5267756604401
 10
261.3074570041027
 20
272.3552204847706
 10
261.3759103820972
 20
272.2177541246064
 10
261.4105571797362
 20
272.0462005709779
 10
261.4792911708391
 20
271.9087325887722
 10
261.7883110846319
 20
271.4968914904129
 10
261.8911322691985
 20
271.3935107016711
 10
262.0285986293631
 20
271.2906911391456
 10
262.1314198139296
 20
271.1878699545789
 10
262.2688877961352
 20
271.0844907878782
 10
262.4404413497636
 20
271.0157567967755
  0
LWPOLYLINE
  5
687
330
1F
100
AcDbEntity
  8
LAYER_1
  6
Continuous
 62
     7
100
AcDbPolyline
 90
       21
 70
     0
 43
0.0
 10
269.7876581263346
 20
264.1837619073054
 10
269.9251244864992
 20
264.2524958984083
 10
270.1994992246941
 20
264.4581366455002
 10
270.4056995759614
 20
264.6643369967676
 10
270.7147211117953
 20
265.0761797171681
 10
270.7834551028981
 20
265.2136460773326
 10
270.8175422963619
 20
265.385201253002
 10
270.8862746654236
 20
265.5226676131665
 10
270.9209214630627
 20
265.6942211667947
 10
270.9209214630627
 20
266.3469110361016
 10
270.8862746654236
 20
266.51846458973
 10
270.8175422963619
 20
266.6553729677601
 10
270.7834551028981
 20
266.827486125564
 10
270.6806339183315
 20
266.9643945035942
 10
270.6118999272287
 20
267.1018608637585
 10
270.4056995759614
 20
267.3767952061287
 10
270.3028783913948
 20
267.4796147686543
 10
270.1654120312303
 20
267.5824359532209
 10
270.062590846664
 20
267.6858167419626
 10
269.9251244864992
 20
267.7545491110243
 10
269.75356931083
 20
267.8573702955911
  0
LWPOLYLINE
  5
688
330
1F
100
AcDbEntity
  8
LAYER_1
  6
Continuous
 62
     7
100
AcDbPolyline
 90
       24
 70
     0
 43
0.0
 10
262.5091753408664
 20
260.7504426857918
 10
262.234240998496
 20
260.6129747035863
 10
261.9598662603013
 20
260.406774352319
 10
261.7536659090339
 20
260.1323996141241
 10
261.6508447244675
 20
260.0295784295577
 10
261.5821107333646
 20
259.8574652717539
 10
261.4446443732001
 20
259.5830905335591
 10
261.4105571797362
 20
259.4115369799309
 10
261.3759103820972
 20
259.2394238221273
 10
261.3759103820972
 20
259.102515444097
 10
261.3418231886334
 20
258.9304022862935
 10
261.3759103820972
 20
258.7588471106241
 10
261.3759103820972
 20
258.6219403546348
 10
261.4105571797362
 20
258.4498271968312
 10
261.4446443732001
 20
258.2782720211617
 10
261.5821107333646
 20
258.0038972829669
 10
261.6849319179312
 20
257.8664309228024
 10
261.7536659090339
 20
257.7289629405966
 10
261.8570450757347
 20
257.5914965804324
 10
261.9939534537651
 20
257.4886753958656
 10
262.0973326204659
 20
257.351209035701
 10
262.234240998496
 20
257.2824750445982
 10
262.3717073586607
 20
257.1796538600319
 10
262.5091753408664
 20
257.11092149097
  0
LWPOLYLINE
  5
689
330
1F
100
AcDbEntity
  8
LAYER_1
  6
Continuous
 62
     7
100
AcDbPolyline
 90
       23
 70
     0
 43
0.0
 10
269.5132817660988
 20
250.0727262502328
 10
269.6501901441291
 20
250.1755474347993
 10
269.7876581263346
 20
250.2442798038608
 10
270.062590846664
 20
250.4504817771696
 10
270.1654120312303
 20
250.5533013396949
 10
270.3716123824976
 20
250.8282356820652
 10
270.4403463736006
 20
250.9651440600954
 10
270.508520760528
 20
251.1026104202599
 10
270.5772531295897
 20
251.2741655959292
 10
270.6118999272287
 20
251.4116319560939
 10
270.6459871206926
 20
251.5831855097221
 10
270.6806339183315
 20
251.7552986675255
 10
270.6806339183315
 20
252.0637622212253
 10
270.6118999272287
 20
252.4074289326574
 10
270.5772531295897
 20
252.5448952928219
 10
270.508520760528
 20
252.7164504684911
 10
270.4403463736006
 20
252.8539168286558
 10
270.3716123824976
 20
252.9908252066861
 10
270.1654120312303
 20
253.2657595490562
 10
270.0279456710658
 20
253.3685791115817
 10
269.9251244864992
 20
253.4719599003237
 10
269.6501901441291
 20
253.6776006474154
 10
269.5132817660988
 20
253.7463346385182
  0
LWPOLYLINE
  5
68A
330
1F
100
AcDbEntity
  8
LAYER_1
  6
Continuous
 62
     7
100
AcDbPolyline
 90
       23
 70
     0
 43
0.0
 10
262.2688877961352
 20
246.6394054066782
 10
262.0973326204659
 20
246.5706730376165
 10
261.9598662603013
 20
246.5019390465136
 10
261.8570450757347
 20
246.3991178619472
 10
261.7195787155703
 20
246.2962982994217
 10
261.6161979268284
 20
246.158830317216
 10
261.5133783643029
 20
246.0554511505152
 10
261.4105571797362
 20
245.9185427724849
 10
261.3418231886334
 20
245.7810764123204
 10
261.2730908195717
 20
245.609521236651
 10
261.2043568284689
 20
245.4720548764865
 10
261.1699890218969
 20
245.3005013228582
 10
261.1356228373661
 20
245.1630333406525
 10
261.1012566528352
 20
244.9914797870243
 10
261.1012566528352
 20
244.6478114535512
 10
261.1356228373661
 20
244.5109046975622
 10
261.1699890218969
 20
244.3387915397584
 10
261.2043568284689
 20
244.167236364089
 10
261.4105571797362
 20
243.7553952657297
 10
261.6161979268284
 20
243.4804609233595
 10
261.7195787155703
 20
243.3776397387932
 10
262.1314198139296
 20
243.0686182029592
 10
262.2688877961352
 20
242.9998858338976
  0
LWPOLYLINE
  5
68B
330
1F
100
AcDbEntity
  8
LAYER_1
  6
Continuous
 62
     7
100
AcDbPolyline
 90
       25
 70
     0
 43
0.0
 10
269.5473689595625
 20
235.9616905931601
 10
269.8223033019328
 20
236.0991569533246
 10
270.0966780401275
 20
236.3053573045918
 10
270.1994992246941
 20
236.4422656826223
 10
270.3028783913948
 20
236.5456448493231
 10
270.4056995759614
 20
236.6825532273533
 10
270.4744335670642
 20
236.8546663851569
 10
270.6118999272287
 20
237.1290411233518
 10
270.6459871206926
 20
237.300596299021
 10
270.6806339183315
 20
237.4380626591859
 10
270.7147211117953
 20
237.6096178348549
 10
270.7147211117953
 20
237.7811713884833
 10
270.6806339183315
 20
237.9532845462871
 10
270.6806339183315
 20
238.0901929243171
 10
270.6459871206926
 20
238.2623060821209
 10
270.6118999272287
 20
238.4338596357491
 10
270.4744335670642
 20
238.708234373944
 10
270.3716123824976
 20
238.8457023561496
 10
270.3028783913948
 20
238.9831687163142
 10
270.1994992246941
 20
239.1206350764785
 10
270.062590846664
 20
239.2234562610452
 10
269.959211679963
 20
239.3609242432508
 10
269.8223033019328
 20
239.4296566123126
 10
269.6848369417683
 20
239.532477796879
 10
269.5473689595625
 20
239.6012117879818
  0
LWPOLYLINE
  5
68C
330
1F
100
AcDbEntity
  8
LAYER_1
  6
Continuous
 62
     7
100
AcDbPolyline
 90
       21
 70
     0
 43
0.0
 10
262.2688877961352
 20
232.5283697496055
 10
262.1314198139296
 20
232.4596373805437
 10
261.8570450757347
 20
232.2539950114106
 10
261.6508447244675
 20
232.0477946601432
 10
261.3418231886334
 20
231.635953561784
 10
261.2730908195717
 20
231.4984855795781
 10
261.2387230129997
 20
231.3269320259501
 10
261.1699890218969
 20
231.1894640437445
 10
261.1356228373661
 20
231.0179104901161
 10
261.1356228373661
 20
230.537335400654
 10
261.1699890218969
 20
230.3652222428505
 10
261.1699890218969
 20
230.1942266713562
 10
261.2387230129997
 20
230.0562007070165
 10
261.3074570041027
 20
229.8852051355223
 10
261.4446443732001
 20
229.6102707931522
 10
261.6508447244675
 20
229.3358960549574
 10
261.7536659090339
 20
229.2330748703909
 10
261.8911322691985
 20
229.12969570369
 10
261.9939534537651
 20
229.0268745191236
 10
262.1314198139296
 20
228.9581421500618
 10
262.302974989599
 20
228.8547613613199
  0
LWPOLYLINE
  5
68D
330
1F
100
AcDbEntity
  8
LAYER_1
  6
Continuous
 62
     7
100
AcDbPolyline
 90
       14
 70
     0
 43
0.0
 10
262.302974989599
 20
218.3832468990692
 10
262.1660666115686
 20
218.3145129079665
 10
262.0285986293631
 20
218.2122513275749
 10
261.8911322691985
 20
218.1435173364721
 10
261.7883110846319
 20
218.0060509763077
 10
261.6508447244675
 20
217.9026718096069
 10
261.5480235399008
 20
217.7652038274013
 10
261.4792911708391
 20
217.6277374672368
 10
261.3759103820972
 20
217.4902711070722
 10
261.3074570041027
 20
217.3539207111763
 10
261.2730908195717
 20
217.2164543510118
 10
261.2043568284689
 20
217.044341193208
 10
261.1699890218969
 20
216.8722280354045
 10
261.1699890218969
 20
216.56432408588
  0
LWPOLYLINE
  5
68E
330
1F
100
AcDbEntity
  8
LAYER_1
  6
Continuous
 62
     7
100
AcDbPolyline
 90
       12
 70
     0
 43
0.0
 10
261.1699890218969
 20
213.2332664447578
 10
261.1699890218969
 20
213.0963580667277
 10
261.2043568284689
 20
212.9248045130993
 10
261.2387230129997
 20
212.7526913552956
 10
261.2730908195717
 20
212.580578197492
 10
261.3418231886334
 20
212.4436698194618
 10
261.4105571797362
 20
212.2726742479677
 10
261.5133783643029
 20
212.1352078878031
 10
261.5821107333646
 20
211.9977399055975
 10
261.8223982780958
 20
211.7568943787323
 10
262.0973326204659
 20
211.5506940274648
 10
262.3717073586607
 20
211.4143436315689
  0
LWPOLYLINE
  5
68F
330
1F
100
AcDbEntity
  8
LAYER_1
  6
Continuous
 62
     7
100
AcDbPolyline
 90
       13
 70
     0
 43
0.0
 10
266.7320911876757
 20
207.5339769098816
 10
266.7320911876757
 20
207.7401772611489
 10
266.663358818614
 20
208.1520199815495
 10
266.6292716251504
 20
208.3235735351778
 10
266.4918036429447
 20
208.7359742377124
 10
266.1827821071109
 20
209.2506381426793
 10
265.9078493867817
 20
209.5943048541114
 10
265.7709410087515
 20
209.7312132321416
 10
265.5993858330821
 20
209.868679592306
 10
265.4619194729177
 20
210.0055879703364
 10
265.2903659192892
 20
210.1089671370372
 10
265.0841655680219
 20
210.2123463037381
 10
264.9126103923525
 20
210.2810802948409
  0
LWPOLYLINE
  5
690
330
1F
100
AcDbEntity
  8
LAYER_1
  6
Continuous
 62
     7
100
AcDbPolyline
 90
       17
 70
     0
 43
0.0
 10
206.0196346003556
 20
210.4526354705101
 10
205.8480810467275
 20
210.3498142859438
 10
205.6424402996354
 20
210.2469931013771
 10
205.4703271418319
 20
210.1436139346764
 10
205.3334187638016
 20
210.0055879703364
 10
205.161305605998
 20
209.868679592306
 10
204.8869308678031
 20
209.5943048541114
 10
204.7494628855974
 20
209.4227496784419
 10
204.6466433230719
 20
209.2506381426793
 10
204.5438221385053
 20
209.07908296701
 10
204.4750881474026
 20
208.8728826157425
 10
204.3717089807018
 20
208.7018870442486
 10
204.337621787238
 20
208.4956866929812
 10
204.2688877961352
 20
208.2889283595796
 10
204.2348006026714
 20
208.0832859904467
 10
204.2348006026714
 20
207.8776452433545
 10
204.2001538050324
 20
207.6720028742215
  0
LWPOLYLINE
  5
691
330
1F
100
AcDbEntity
  8
LAYER_1
  6
Continuous
 62
     7
100
AcDbPolyline
 90
       13
 70
     0
 43
0.0
 10
208.5605376340476
 20
211.5506940274648
 10
208.6980056162532
 20
211.6540731941657
 10
208.8354719764178
 20
211.7222475810931
 10
209.1098467146127
 20
211.9290075365358
 10
209.2126678991791
 20
212.0664738967003
 10
209.31604706588
 20
212.169295081267
 10
209.521689435013
 20
212.4436698194618
 10
209.5904218040747
 20
212.6152233730899
 10
209.6591557951775
 20
212.7526913552956
 10
209.6938025928167
 20
212.9248045130993
 10
209.7278897862803
 20
213.0963580667277
 10
209.7619769797441
 20
213.2673536382216
 10
209.7619769797441
 20
213.4048199983861
  0
LWPOLYLINE
  5
692
330
1F
100
AcDbEntity
  8
LAYER_1
  6
Continuous
 62
     7
100
AcDbPolyline
 90
       15
 70
     0
 43
0.0
 10
209.7619769797441
 20
216.7353196573741
 10
209.7278897862803
 20
216.9068748330435
 10
209.7278897862803
 20
217.044341193208
 10
209.6938025928167
 20
217.2164543510118
 10
209.6250686017139
 20
217.388009526681
 10
209.5904218040747
 20
217.5249162826702
 10
209.521689435013
 20
217.6623842648758
 10
209.4188682504466
 20
217.799292642906
 10
209.3501342593436
 20
217.9373169852048
 10
209.2473146968183
 20
218.0747849674105
 10
209.1098467146127
 20
218.1776061519771
 10
209.0070271520872
 20
218.3145129079665
 10
208.8695591698815
 20
218.3832468990692
 10
208.732092809717
 20
218.4860680836355
 10
208.5946248275114
 20
218.5548004526973
  0
LWPOLYLINE
  5
693
330
1F
100
AcDbEntity
  8
LAYER_1
  6
Continuous
 62
     7
100
AcDbPolyline
 90
       22
 70
     0
 43
0.0
 10
201.2820564706202
 20
225.59355529761
 10
201.0071221282501
 20
225.4555293332701
 10
200.8696541460445
 20
225.3527081487036
 10
200.766834583519
 20
225.249886964137
 10
200.6640133989524
 20
225.1129802081479
 10
200.5606342322516
 20
225.0101590235812
 10
200.3549918631185
 20
224.7352246812111
 10
200.2862594940567
 20
224.5631115234076
 10
200.252170678552
 20
224.4256451632429
 10
200.1834383094903
 20
224.2546495917489
 10
200.1487915118511
 20
224.1171832315844
 10
200.1487915118511
 20
223.6019613444832
 10
200.1834383094903
 20
223.4644933622775
 10
200.1834383094903
 20
223.2934977907835
 10
200.252170678552
 20
223.1213862550209
 10
200.3203466875205
 20
222.9844778769907
 10
200.457813047685
 20
222.7089839304452
 10
200.6640133989524
 20
222.4351687964256
 10
200.9043009436835
 20
222.1943216475193
 10
201.0071221282501
 20
222.1261472605917
 10
201.1445884884146
 20
222.0222084897156
 10
201.316143664084
 20
221.9540341027883
  0
LWPOLYLINE
  5
694
330
1F
100
AcDbEntity
  8
LAYER_1
  6
Continuous
 62
     7
100
AcDbPolyline
 90
       24
 70
     0
 43
0.0
 10
208.5605376340476
 20
229.0268745191236
 10
208.6980056162532
 20
229.095050528092
 10
209.1098467146127
 20
229.4046300460603
 10
209.2126678991791
 20
229.5068916264515
 10
209.4188682504466
 20
229.7823839509559
 10
209.5563346106111
 20
230.0562007070165
 10
209.6250686017139
 20
230.22831386482
 10
209.6591557951775
 20
230.3652222428505
 10
209.6938025928167
 20
230.537335400654
 10
209.6938025928167
 20
230.7088889542822
 10
209.7278897862803
 20
230.8804441299517
 10
209.6938025928167
 20
231.0179104901161
 10
209.6938025928167
 20
231.1894640437445
 10
209.6591557951775
 20
231.3610192194138
 10
209.6250686017139
 20
231.4984855795781
 10
209.5563346106111
 20
231.6700407552476
 10
209.4876022415494
 20
231.8075071154122
 10
209.3847810569828
 20
231.9449734755768
 10
209.31604706588
 20
232.081881853607
 10
209.2126678991791
 20
232.2193482137716
 10
209.0757595211489
 20
232.3221693983381
 10
208.9723803544481
 20
232.4255501870802
 10
208.6980056162532
 20
232.6311909341721
 10
208.5605376340476
 20
232.6999249252749
  0
LWPOLYLINE
  5
695
330
1F
100
AcDbEntity
  8
LAYER_1
  6
Continuous
 62
     7
100
AcDbPolyline
 90
       23
 70
     0
 43
0.0
 10
201.2820564706202
 20
239.7386781481465
 10
201.1105012949508
 20
239.6699441570436
 10
200.8355669525807
 20
239.4637438057762
 10
200.6293666013133
 20
239.257543454509
 10
200.4237258542214
 20
238.9831687163142
 10
200.3549918631185
 20
238.8457023561496
 10
200.2862594940567
 20
238.708234373944
 10
200.2175255029539
 20
238.5366808203155
 10
200.1834383094903
 20
238.3992144601512
 10
200.1487915118511
 20
238.2276592844817
 10
200.1147043183875
 20
238.0901929243171
 10
200.1147043183875
 20
237.7470841950194
 10
200.1487915118511
 20
237.5755306413912
 10
200.1834383094903
 20
237.4380626591859
 10
200.2175255029539
 20
237.2665091055574
 10
200.2862594940567
 20
237.1290411233518
 10
200.3549918631185
 20
236.9574875697236
 10
200.4237258542214
 20
236.820021209559
 10
200.5265470387878
 20
236.6825532273533
 10
200.6293666013133
 20
236.5797320427867
 10
200.7327473900552
 20
236.4422656826223
 10
201.0071221282501
 20
236.2366249355301
 10
201.2820564706202
 20
236.0991569533246
  0
LWPOLYLINE
  5
696
330
1F
100
AcDbEntity
  8
LAYER_1
  6
Continuous
 62
     7
100
AcDbPolyline
 90
       22
 70
     0
 43
0.0
 10
208.5264504405838
 20
243.171998991701
 10
208.6633588186142
 20
243.2401733786285
 10
208.8008251787787
 20
243.3435525453292
 10
208.9382931609844
 20
243.4122865364321
 10
209.1785807057155
 20
243.6525740811633
 10
209.3847810569828
 20
243.9269488193579
 10
209.521689435013
 20
244.2018831617282
 10
209.5904218040747
 20
244.3734367153564
 10
209.6250686017139
 20
244.5109046975622
 10
209.6591557951775
 20
244.6824582511903
 10
209.6938025928167
 20
244.819924611355
 10
209.6938025928167
 20
245.1630333406525
 10
209.6591557951775
 20
245.3345885163219
 10
209.6250686017139
 20
245.4720548764865
 10
209.5904218040747
 20
245.6436084301147
 10
209.521689435013
 20
245.7810764123204
 10
209.4529554439102
 20
245.9526299659486
 10
209.3847810569828
 20
246.0900963261131
 10
209.2814018902819
 20
246.2275643083189
 10
208.9382931609844
 20
246.5706730376165
 10
208.8008251787787
 20
246.6734926001418
 10
208.5264504405838
 20
246.8109605823477
  0
LWPOLYLINE
  5
697
330
1F
100
AcDbEntity
  8
LAYER_1
  6
Continuous
 62
     7
100
AcDbPolyline
 90
       24
 70
     0
 43
0.0
 10
201.2474096729812
 20
253.883800998683
 10
201.0758544973118
 20
253.8150670075802
 10
200.9383881371473
 20
253.7122474450546
 10
200.8355669525807
 20
253.6088666563126
 10
200.6981005924162
 20
253.5060470937872
 10
200.5952794078496
 20
253.4032259092209
 10
200.3890790565822
 20
253.1282915668506
 10
200.3203466875205
 20
252.9908252066861
 10
200.252170678552
 20
252.8539168286558
 10
200.1834383094903
 20
252.6818036708521
 10
200.1487915118511
 20
252.5448952928219
 10
200.1147043183875
 20
252.3727821350183
 10
200.0800575207483
 20
252.20122858139
 10
200.0800575207483
 20
251.892207045556
 10
200.1147043183875
 20
251.7206534919276
 10
200.1487915118511
 20
251.5490983162584
 10
200.1834383094903
 20
251.4116319560939
 10
200.252170678552
 20
251.2400767804243
 10
200.3203466875205
 20
251.1026104202599
 10
200.3890790565822
 20
250.9651440600954
 10
200.5952794078496
 20
250.6907693219005
 10
200.6981005924162
 20
250.5879481373341
 10
201.1105012949508
 20
250.2789266015
 10
201.2474096729812
 20
250.2101926103973
  0
LWPOLYLINE
  5
698
330
1F
100
AcDbEntity
  8
LAYER_1
  6
Continuous
 62
     7
100
AcDbPolyline
 90
       21
 70
     0
 43
0.0
 10
208.4918052649859
 20
257.3171218422374
 10
208.766737985315
 20
257.454588202402
 10
209.0411143455509
 20
257.6602305715351
 10
209.1439339080763
 20
257.7976969316995
 10
209.2473146968183
 20
257.9005181162661
 10
209.3501342593436
 20
258.0379844764307
 10
209.4188682504466
 20
258.1754524586363
 10
209.4876022415494
 20
258.3470060122645
 10
209.5563346106111
 20
258.4844723724291
 10
209.5904218040747
 20
258.6560275480986
 10
209.6250686017139
 20
258.793493908263
 10
209.6591557951775
 20
258.9650474618915
 10
209.6591557951775
 20
259.3081561911891
 10
209.6250686017139
 20
259.4456241733947
 10
209.5904218040747
 20
259.6171777270229
 10
209.5563346106111
 20
259.7887329026922
 10
209.3501342593436
 20
260.2011336052269
 10
209.1439339080763
 20
260.4755083434218
 10
209.0411143455509
 20
260.5788875101225
 10
208.6292716251504
 20
260.8879090459566
 10
208.4918052649859
 20
260.9560834328839
  0
LWPOLYLINE
  5
699
330
1F
100
AcDbEntity
  8
LAYER_1
  6
Continuous
 62
     7
100
AcDbPolyline
 90
       19
 70
     0
 43
0.0
 10
201.4536100242485
 20
267.6511699443237
 10
201.1786756818784
 20
267.513703584159
 10
201.0758544973118
 20
267.4108823995927
 10
200.9383881371473
 20
267.3421484084898
 10
200.8355669525807
 20
267.2393272239232
 10
200.7327473900552
 20
267.1018608637585
 10
200.6293666013133
 20
266.9990396791922
 10
200.4237258542214
 20
266.5871985808329
 10
200.3890790565822
 20
266.4150854230292
 10
200.3203466875205
 20
266.1407106848344
 10
200.3203466875205
 20
265.8316891490005
 10
200.3549918631185
 20
265.6601339733311
 10
200.4237258542214
 20
265.385201253002
 10
200.4924598453242
 20
265.2136460773326
 10
200.5606342322516
 20
265.0761797171681
 10
200.6640133989524
 20
264.9733585326015
 10
200.766834583519
 20
264.835892172437
 10
201.0758544973118
 20
264.526870636603
 10
201.4876972177123
 20
264.321229889511
  0
LWPOLYLINE
  5
69A
330
1F
100
AcDbEntity
  8
LAYER_1
  6
Continuous
 62
     7
100
AcDbPolyline
 90
       21
 70
     0
 43
0.0
 10
201.3848760331457
 20
281.8996719615609
 10
201.2474096729812
 20
281.8309395924993
 10
200.9730349347863
 20
281.6252972233662
 10
200.766834583519
 20
281.4190968720988
 10
200.457813047685
 20
281.0072557737392
 10
200.3890790565822
 20
280.8697877915337
 10
200.3549918631185
 20
280.6982342379056
 10
200.2862594940567
 20
280.5607678777408
 10
200.252170678552
 20
280.3892127020716
 10
200.252170678552
 20
279.9086376126095
 10
200.2862594940567
 20
279.7365244548057
 10
200.2862594940567
 20
279.5649692791366
 10
200.3549918631185
 20
279.4275029189718
 10
200.4237258542214
 20
279.2559493653437
 10
200.5606342322516
 20
278.9815746271486
 10
200.766834583519
 20
278.7066402847786
 10
200.8696541460445
 20
278.603819100212
 10
201.0071221282501
 20
278.5004399335112
 10
201.1105012949508
 20
278.3976187489446
 10
201.2474096729812
 20
278.3288847578417
 10
201.4189632266095
 20
278.2260651953164
  0
LWPOLYLINE
  5
69B
330
1F
100
AcDbEntity
  8
LAYER_1
  6
Continuous
 62
     7
100
AcDbPolyline
 90
       24
 70
     0
 43
0.0
 10
208.6633588186142
 20
285.3329928051155
 10
208.9382931609844
 20
285.4704591652799
 10
209.2126678991791
 20
285.676101534413
 10
209.4188682504466
 20
285.9510358767832
 10
209.521689435013
 20
286.0538554393086
 10
209.5904218040747
 20
286.2254106149782
 10
209.7278897862803
 20
286.5003449573482
 10
209.7619769797441
 20
286.6718985109765
 10
209.7966237773833
 20
286.8434520646047
 10
209.7966237773833
 20
286.9809200468103
 10
209.8307109708469
 20
287.1524736004388
 10
209.7966237773833
 20
287.3245867582423
 10
209.7966237773833
 20
287.4614951362726
 10
209.7619769797441
 20
287.6336082940761
 10
209.7278897862803
 20
287.8051618477047
 10
209.5904218040747
 20
288.0795365858994
 10
209.4876022415494
 20
288.2510917615687
 10
209.4188682504466
 20
288.3544709282694
 10
209.31604706588
 20
288.4919389104751
 10
209.1785807057155
 20
288.5947584730008
 10
209.0757595211489
 20
288.7322264552063
 10
208.9382931609844
 20
288.8004008421339
 10
208.8008251787787
 20
288.9037800088345
 10
208.6633588186142
 20
288.9725139999376
  0
LWPOLYLINE
  5
69C
330
1F
100
AcDbEntity
  8
LAYER_1
  6
Continuous
 62
     7
100
AcDbPolyline
 90
       24
 70
     0
 43
0.0
 10
201.3848760331457
 20
296.0447964341385
 10
201.2133224795174
 20
295.9419752495719
 10
201.0758544973118
 20
295.873241258469
 10
200.9383881371473
 20
295.7704200739024
 10
200.8355669525807
 20
295.6670409072017
 10
200.7327473900552
 20
295.5301325291717
 10
200.6293666013133
 20
295.4267533624706
 10
200.5265470387878
 20
295.2898449844403
 10
200.457813047685
 20
295.1523786242758
 10
200.3890790565822
 20
294.9808234486064
 10
200.3203466875205
 20
294.8433570884419
 10
200.2862594940567
 20
294.6718035348137
 10
200.252170678552
 20
294.5343355526079
 10
200.2175255029539
 20
294.3627819989797
 10
200.2175255029539
 20
294.0191136655069
 10
200.252170678552
 20
293.8822069095176
 10
200.2862594940567
 20
293.7100937517139
 10
200.3203466875205
 20
293.5731853736836
 10
200.3890790565822
 20
293.4010722158799
 10
200.5265470387878
 20
293.1266974776852
 10
200.7327473900552
 20
292.851763135315
 10
200.8355669525807
 20
292.7489419507483
 10
201.2474096729812
 20
292.4399204149145
 10
201.3848760331457
 20
292.3711880458527
  0
LWPOLYLINE
  5
69D
330
1F
100
AcDbEntity
  8
LAYER_1
  6
Continuous
 62
     7
100
AcDbPolyline
 90
       24
 70
     0
 43
0.0
 10
208.6292716251504
 20
299.4440284621882
 10
208.766737985315
 20
299.5468496467545
 10
208.9036463633452
 20
299.6155836378573
 10
209.1785807057155
 20
299.821783989125
 10
209.2814018902819
 20
299.958690745114
 10
209.3847810569828
 20
300.0620715338557
 10
209.4876022415494
 20
300.1995378940203
 10
209.5563346106111
 20
300.3364462720508
 10
209.6250686017139
 20
300.5085594298544
 10
209.6938025928167
 20
300.6454678078848
 10
209.7278897862803
 20
300.817021361513
 10
209.7619769797441
 20
300.9544877216775
 10
209.7966237773833
 20
301.1260428973469
 10
209.7966237773833
 20
301.4350644331809
 10
209.7619769797441
 20
301.6071775909843
 10
209.7278897862803
 20
301.7787311446128
 10
209.6938025928167
 20
301.9161975047771
 10
209.6250686017139
 20
302.0877526804466
 10
209.4876022415494
 20
302.3621274186412
 10
209.2814018902819
 20
302.6370617610118
 10
209.1439339080763
 20
302.7398813235368
 10
209.0411143455509
 20
302.8427025081035
 10
208.766737985315
 20
303.048902859371
 10
208.6292716251504
 20
303.1176368504739
  0
LWPOLYLINE
  5
69E
330
1F
100
AcDbEntity
  8
LAYER_1
  6
Continuous
 62
     7
100
AcDbPolyline
 90
       21
 70
     0
 43
0.0
 10
201.3507888396819
 20
310.1558320912111
 10
201.1786756818784
 20
310.0870981001083
 10
201.041767303848
 20
309.9842769155416
 10
200.9383881371473
 20
309.9155445464801
 10
200.6981005924162
 20
309.675257001749
 10
200.4924598453242
 20
309.4003226593787
 10
200.2862594940567
 20
308.9884799389782
 10
200.2175255029539
 20
308.6453712096807
 10
200.1834383094903
 20
308.5079048495161
 10
200.1834383094903
 20
308.1647961202184
 10
200.2175255029539
 20
307.9926829624147
 10
200.252170678552
 20
307.8557745843846
 10
200.2862594940567
 20
307.683661426581
 10
200.3549918631185
 20
307.5467546705917
 10
200.4237258542214
 20
307.3751994949226
 10
200.4924598453242
 20
307.2377331347578
 10
200.5952794078496
 20
307.1002667745934
 10
200.6981005924162
 20
306.9974455900267
 10
200.8014797591171
 20
306.8599776078211
 10
201.0758544973118
 20
306.6537772565537
 10
201.3507888396819
 20
306.5168705005647
  0
LWPOLYLINE
  5
69F
330
1F
100
AcDbEntity
  8
LAYER_1
  6
Continuous
 62
     7
100
AcDbPolyline
 90
       22
 70
     0
 43
0.0
 10
208.5946248275114
 20
313.5891513127245
 10
208.732092809717
 20
313.6578853038275
 10
209.1439339080763
 20
313.9669068396613
 10
209.2473146968183
 20
314.0697280242279
 10
209.4529554439102
 20
314.3446607445569
 10
209.5904218040747
 20
314.6190354827517
 10
209.6591557951775
 20
314.7911486405554
 10
209.6938025928167
 20
314.9280570185854
 10
209.7278897862803
 20
315.1001701763892
 10
209.7619769797441
 20
315.2717253520588
 10
209.7619769797441
 20
315.5807452658515
 10
209.7278897862803
 20
315.7523004415207
 10
209.6938025928167
 20
315.8897668016854
 10
209.6591557951775
 20
316.0613219773545
 10
209.5904218040747
 20
316.1987883375191
 10
209.521689435013
 20
316.3703418911476
 10
209.4529554439102
 20
316.507809873353
 10
209.3501342593436
 20
316.6447182513836
 10
209.2473146968183
 20
316.7480974180842
 10
209.1439339080763
 20
316.8850057961146
 10
208.8695591698815
 20
317.0912061473821
 10
208.5946248275114
 20
317.2286725075466
  0
LWPOLYLINE
  5
6A0
330
1F
100
AcDbEntity
  8
LAYER_1
  6
Continuous
 62
     7
100
AcDbPolyline
 90
       23
 70
     0
 43
0.0
 10
201.316143664084
 20
324.3009549417475
 10
201.1786756818784
 20
324.2327805548204
 10
201.0071221282501
 20
324.1293997660783
 10
200.9043009436835
 20
324.0265802035526
 10
200.766834583519
 20
323.9237590189861
 10
200.6640133989524
 20
323.8203798522852
 10
200.457813047685
 20
323.5460051140905
 10
200.3203466875205
 20
323.2710707717204
 10
200.252170678552
 20
323.0995155960509
 10
200.2175255029539
 20
322.9620492358863
 10
200.1834383094903
 20
322.7904956822581
 10
200.1487915118511
 20
322.6189405065886
 10
200.1487915118511
 20
322.3099189707548
 10
200.1834383094903
 20
322.1383654171266
 10
200.2175255029539
 20
321.9668118634984
 10
200.252170678552
 20
321.8293438812929
 10
200.3203466875205
 20
321.6577903276644
 10
200.457813047685
 20
321.3828559852944
 10
200.6640133989524
 20
321.1084812470995
 10
200.766834583519
 20
321.0051020803985
 10
201.041767303848
 20
320.7994597112657
 10
201.1786756818784
 20
320.7307257201626
 10
201.316143664084
 20
320.627346553462
  0
LWPOLYLINE
  5
6A1
330
1F
100
AcDbEntity
  8
LAYER_1
  6
Continuous
 62
     7
100
AcDbPolyline
 90
       11
 70
     0
 43
0.0
 10
208.5605376340476
 20
327.7342757853019
 10
208.8354719764178
 20
327.8717421454666
 10
209.1098467146127
 20
328.077942496734
 10
209.31604706588
 20
328.3523172349291
 10
209.4188682504466
 20
328.4556964016297
 10
209.4876022415494
 20
328.6272515772987
 10
209.6250686017139
 20
328.9016263154938
 10
209.6591557951775
 20
329.0737394732975
 10
209.6938025928167
 20
329.2452930269258
 10
209.7278897862803
 20
329.3827610091312
 10
209.7278897862803
 20
329.5543145627594
  0
LWPOLYLINE
  5
6A2
330
1F
100
AcDbEntity
  8
LAYER_1
  6
Continuous
 62
     7
100
AcDbPolyline
 90
       13
 70
     0
 43
0.0
 10
209.7278897862803
 20
332.8501690461494
 10
209.7278897862803
 20
333.021722599778
 10
209.6938025928167
 20
333.1932761534062
 10
209.6591557951775
 20
333.3653893112096
 10
209.6250686017139
 20
333.5369444868791
 10
209.4876022415494
 20
333.811319225074
 10
209.3847810569828
 20
333.9834323828775
 10
209.2814018902819
 20
334.1203407609078
 10
209.1785807057155
 20
334.2237199276085
 10
209.0757595211489
 20
334.3606283056388
 10
208.8008251787787
 20
334.5668286569064
 10
208.6633588186142
 20
334.6355626480093
 10
208.4918052649859
 20
334.7042950170708
  0
LWPOLYLINE
  5
6A3
330
1F
100
AcDbEntity
  8
LAYER_1
  6
Continuous
 62
     7
100
AcDbPolyline
 90
       16
 70
     0
 43
0.0
 10
204.1660666115686
 20
338.5835441524486
 10
204.1660666115686
 20
338.171703054089
 10
204.2001538050324
 20
337.9660606849559
 10
204.2688877961352
 20
337.7598603336888
 10
204.337621787238
 20
337.5883067800606
 10
204.4063541562997
 20
337.3821064287932
 10
204.5091753408663
 20
337.2105528751647
 10
204.5779093319691
 20
337.0043509018565
 10
204.7153756921337
 20
336.8327973482282
 10
204.8181968767003
 20
336.6953309880637
 10
204.9556632368648
 20
336.523775812394
 10
205.1272184125342
 20
336.3863094522297
 10
205.2646847726987
 20
336.2494010741991
 10
205.4362399483681
 20
336.1119347140348
 10
205.7793470556245
 20
335.9057343627674
 10
205.985547406892
 20
335.8029131782007
  0
LWPOLYLINE
  5
6A4
330
1F
100
AcDbEntity
  8
LAYER_1
  6
Continuous
 62
     7
100
AcDbPolyline
 90
       13
 70
     0
 43
0.0
 10
266.8349123722425
 20
381.122853096975
 10
267.0070255300461
 20
381.122853096975
 10
267.4188682504464
 20
381.2256742815414
 10
267.5563346106109
 20
381.2944066506032
 10
267.6932429886413
 20
381.3972278351698
 10
267.796622155342
 20
381.4659618262728
 10
267.9335305333724
 20
381.5687813887981
 10
268.0022629024342
 20
381.6721621775398
 10
268.1056436911759
 20
381.8090705555704
 10
268.1743760602377
 20
381.9124497222711
 10
268.3112844382681
 20
382.1868244604657
 10
268.3459312359071
 20
382.3583780140941
 10
268.3459312359071
 20
382.6333123564644
  0
LWPOLYLINE
  5
6A5
330
1F
100
AcDbEntity
  8
LAYER_1
  6
Continuous
 62
     7
100
AcDbPolyline
 90
       16
 70
     0
 43
0.0
 10
202.449407000812
 20
382.7020463475672
 10
202.4147602031731
 20
382.5304911718977
 10
202.4147602031731
 20
382.0840032758993
 10
202.449407000812
 20
381.946536915735
 10
202.4834941942758
 20
381.7749833621065
 10
202.5181409919148
 20
381.637515379901
 10
202.6550477479039
 20
381.363140641706
 10
202.7584285366459
 20
381.2256742815414
 10
202.8271609057076
 20
381.122853096975
 10
203.0674500724798
 20
380.8825655522437
 10
203.204356828469
 20
380.8138315611409
 10
203.3077376172109
 20
380.7450975700381
 10
203.4792911708391
 20
380.6763652009763
 10
203.6167575310038
 20
380.6076312098736
 10
203.8911338912396
 20
380.5388972187709
 10
204.0626874448679
 20
380.5388972187709
  0
LWPOLYLINE
  5
6A6
330
1F
100
AcDbEntity
  8
LAYER_1
  6
Continuous
 62
     7
100
AcDbPolyline
 90
        3
 70
     0
 43
0.0
 10
265.2557191216503
 20
171.3466473695382
 10
205.0584844214313
 20
171.3466473695382
 10
205.0243972279676
 20
171.3466473695382
  0
LWPOLYLINE
  5
6A7
330
1F
100
AcDbEntity
  8
LAYER_1
  6
Continuous
 62
     7
100
AcDbPolyline
 90
       13
 70
     0
 43
0.0
 10
204.2348006026714
 20
164.6521188402328
 10
204.0626874448679
 20
164.6521188402328
 10
203.6508447244674
 20
164.5487396735319
 10
203.5133783643028
 20
164.4800056824292
 10
203.3764699862727
 20
164.3771861199036
 10
203.2730908195717
 20
164.3084521288009
 10
203.0674500724798
 20
164.1028113817089
 10
202.9640692837378
 20
163.964785417369
 10
202.8953369146761
 20
163.8278770393387
 10
202.8271609057076
 20
163.7244978726379
 10
202.7925157301097
 20
163.5529426969685
 10
202.7237817390069
 20
163.2791259409079
 10
202.7237817390069
 20
163.1416595807434
  0
LWPOLYLINE
  5
6A8
330
1F
100
AcDbEntity
  8
LAYER_1
  6
Continuous
 62
     7
100
AcDbPolyline
 90
       26
 70
     0
 43
0.0
 10
269.5473689595625
 20
221.8506549360873
 10
269.8223033019328
 20
221.9881212962519
 10
270.0966780401275
 20
222.1943216475193
 10
270.1994992246941
 20
222.3312300255496
 10
270.3028783913948
 20
222.4351687964256
 10
270.4056995759614
 20
222.5726351565902
 10
270.4744335670642
 20
222.7089839304452
 10
270.5431659361259
 20
222.8805391061145
 10
270.6118999272287
 20
223.0185650704545
 10
270.6459871206926
 20
223.1895606419485
 10
270.6806339183315
 20
223.3275866062882
 10
270.7147211117953
 20
223.4985805557413
 10
270.7147211117953
 20
223.6706937135448
 10
270.6806339183315
 20
223.8428068713486
 10
270.6806339183315
 20
223.9797152493788
 10
270.6459871206926
 20
224.1518284071825
 10
270.6118999272287
 20
224.3228239786764
 10
270.4744335670642
 20
224.5971987168712
 10
270.3716123824976
 20
224.7352246812111
 10
270.3028783913948
 20
224.8721330592413
 10
270.1994992246941
 20
225.0101590235812
 10
270.062590846664
 20
225.1129802081479
 10
269.959211679963
 20
225.249886964137
 10
269.8223033019328
 20
225.3186209552399
 10
269.6848369417683
 20
225.4214421398064
 10
269.5473689595625
 20
225.4907341130435
  0
LWPOLYLINE
  5
6A9
330
1F
100
AcDbEntity
  8
LAYER_1
  6
Continuous
 62
     7
100
AcDbPolyline
 90
       24
 70
     0
 43
0.0
 10
208.5946248275114
 20
271.1191359634761
 10
208.766737985315
 20
271.1878699545789
 10
208.9036463633452
 20
271.2566039456818
 10
209.0411143455509
 20
271.3594235082071
 10
209.1439339080763
 20
271.4622446927738
 10
209.2473146968183
 20
271.5997110529385
 10
209.3501342593436
 20
271.702532237505
 10
209.4529554439102
 20
271.8399985976694
 10
209.521689435013
 20
271.977466579875
 10
209.5904218040747
 20
272.1490201335035
 10
209.6591557951775
 20
272.2864881157091
 10
209.6938025928167
 20
272.4580416693373
 10
209.7278897862803
 20
272.595508029502
 10
209.7619769797441
 20
272.7670632051711
 10
209.7619769797441
 20
273.1101719344688
 10
209.7278897862803
 20
273.2476382946333
 10
209.6938025928167
 20
273.4191918482616
 10
209.6591557951775
 20
273.5913050060655
 10
209.4529554439102
 20
274.0031477264656
 10
209.2473146968183
 20
274.2775224646605
 10
209.0070271520872
 20
274.5178100093918
 10
208.8695591698815
 20
274.5865440004943
 10
208.732092809717
 20
274.6899231671952
 10
208.5946248275114
 20
274.7586571582979
  0
LWPOLYLINE
  5
6AA
330
1F
100
AcDbEntity
  8
LAYER_1
  6
Continuous
 62
     7
100
AcDbPolyline
 90
       13
 70
     0
 43
0.0
 10
267.9335305333724
 20
162.8661672562391
 10
267.9335305333724
 20
163.0382804140426
 10
267.8994433399087
 20
163.2103935718462
 10
267.8653561464448
 20
163.3813891433403
 10
267.8307093488058
 20
163.5529426969685
 10
267.761975357703
 20
163.7244978726379
 10
267.6591557951775
 20
163.8966110304415
 10
267.5904218040747
 20
164.0340773906061
 10
267.4876006195082
 20
164.1715437507706
 10
267.3501342593436
 20
164.3084521288009
 10
267.247313074777
 20
164.4459184889656
 10
266.9723787324069
 20
164.6521188402328
 10
266.8008251787786
 20
164.7549400247993
  0
LWPOLYLINE
  5
6AB
330
1F
100
AcDbEntity
  8
LAYER_1
  6
Continuous
 62
     7
100
AcDbPolyline
 90
        7
 70
     1
 43
0.0
 10
267.5904218040747
 20
175.3644804513901
 10
271.4702305436277
 20
175.3980096627195
 10
273.4271776991155
 20
178.7631561193464
 10
271.4702305436277
 20
182.1277429717982
 10
267.5563346106109
 20
182.1277429717982
 10
265.6334746485869
 20
178.7290673038418
 10
267.5904218040747
 20
175.3644804513901
  0
LWPOLYLINE
  5
6AC
330
1F
100
AcDbEntity
  8
LAYER_1
  6
Continuous
 62
     7
100
AcDbPolyline
 90
       89
 70
     1
 43
0.0
 10
269.75356931083
 20
174.7458793975879
 10
269.959211679963
 20
174.7799665910517
 10
270.1994992246941
 20
174.8140554065565
 10
270.4056995759614
 20
174.8487005821544
 10
271.2299429988966
 20
175.1230753203494
 10
271.4355837459888
 20
175.2270140912255
 10
271.6417840972561
 20
175.3644804513901
 10
271.8133392729254
 20
175.4667436538223
 10
272.1570059843572
 20
175.7411183920172
 10
272.3285595379855
 20
175.9132315498208
 10
272.8778686185506
 20
176.599449008416
 10
272.980689803117
 20
176.8062073418177
 10
273.0835109876837
 20
176.9777625174871
 10
273.1868901543845
 20
177.183403264579
 10
273.324356514549
 20
177.5958039671138
 10
273.3584453300537
 20
177.8360915118449
 10
273.4271776991155
 20
178.0417338809779
 10
273.4612648925793
 20
178.24737462807
 10
273.4612648925793
 20
178.9341500687996
 10
273.4271776991155
 20
179.1403504200669
 10
273.4271776991155
 20
179.3811975689733
 10
273.3584453300537
 20
179.5873979202406
 10
273.324356514549
 20
179.7924806851983
 10
273.2556241454873
 20
179.9986810364657
 10
273.1522433567453
 20
180.2048813877332
 10
273.0835109876837
 20
180.4110817390005
 10
272.980689803117
 20
180.6167241081335
 10
272.8432234429525
 20
180.8223648552257
 10
272.7404022583859
 20
180.9944780130291
 10
272.4660275201912
 20
181.3381463465022
 10
272.1570059843572
 20
181.6466082781607
 10
271.8133392729254
 20
181.9215426205309
 10
271.6076969037922
 20
182.0590089806954
 10
271.4355837459888
 20
182.1623881473964
 10
271.0237426476292
 20
182.3674709123541
 10
270.6118999272287
 20
182.5049372725186
 10
270.3716123824976
 20
182.5390260880234
 10
270.1654120312303
 20
182.607758457085
 10
269.959211679963
 20
182.6424052547242
 10
269.2729942213678
 20
182.6424052547242
 10
269.0667938701004
 20
182.607758457085
 10
268.860593518833
 20
182.607758457085
 10
268.6203059741021
 20
182.5390260880234
 10
268.4146652270099
 20
182.5049372725186
 10
268.2084648757425
 20
182.4362049034569
 10
268.0022629024342
 20
182.3333837188903
 10
267.796622155342
 20
182.2646497277876
 10
267.5904218040747
 20
182.1623881473964
 10
267.4188682504464
 20
182.0249217872318
 10
267.2126678991791
 20
181.9215426205309
 10
266.8695591698813
 20
181.6466082781607
 10
266.7320911876757
 20
181.4750531024914
 10
266.5605376340476
 20
181.3381463465022
 10
266.4230712738829
 20
181.1665911708329
 10
266.2856032916773
 20
180.9603908195656
 10
266.1486949136471
 20
180.7882776617618
 10
266.0453157469462
 20
180.6167241081335
 10
265.9424945623798
 20
180.4110817390005
 10
265.8737621933182
 20
180.2048813877332
 10
265.7709410087515
 20
179.9986810364657
 10
265.7022070176487
 20
179.7924806851983
 10
265.6675618420505
 20
179.5527527446427
 10
265.6334746485869
 20
179.3465523933754
 10
265.5993858330821
 20
179.1403504200669
 10
265.5647406574841
 20
178.9000628753358
 10
265.5647406574841
 20
178.4541345835126
 10
265.5993858330821
 20
178.24737462807
 10
265.6334746485869
 20
178.0417338809779
 10
265.6675618420505
 20
177.8020043183811
 10
265.7362942111123
 20
177.5958039671138
 10
265.8050282022153
 20
177.3890456337121
 10
265.9424945623798
 20
176.9777625174871
 10
266.0453157469462
 20
176.7715621662197
 10
266.1827821071109
 20
176.599449008416
 10
266.2856032916773
 20
176.393806639283
 10
266.5605376340476
 20
176.0506979099853
 10
266.7320911876757
 20
175.9132315498208
 10
266.9036463633452
 20
175.7411183920172
 10
267.4188682504464
 20
175.3298352757919
 10
267.6245089975386
 20
175.2270140912255
 10
267.796622155342
 20
175.1230753203494
 10
268.0022629024342
 20
175.0549009334218
 10
268.2084648757425
 20
174.9520797488552
 10
268.4146652270099
 20
174.8827877756183
 10
268.654952771741
 20
174.8487005821544
 10
269.0667938701004
 20
174.7799665910517
 10
269.3070814148315
 20
174.7458793975879
 10
269.5132817660988
 20
174.7458793975879
 10
269.75356931083
 20
174.7458793975879
  0
LWPOLYLINE
  5
6AD
330
1F
100
AcDbEntity
  8
LAYER_1
  6
Continuous
 62
     7
100
AcDbPolyline
 90
        3
 70
     0
 43
0.0
 10
273.0153366007562
 20
179.4147267803027
 10
266.0112285534826
 20
179.4147267803027
 10
265.9765817558434
 20
179.4147267803027
  0
LWPOLYLINE
  5
6AE
330
1F
100
AcDbEntity
  8
LAYER_1
  6
Continuous
 62
     7
100
AcDbPolyline
 90
        3
 70
     0
 43
0.0
 10
272.9119558120142
 20
177.8707383094839
 10
266.1140497380491
 20
177.8707383094839
 10
266.0799625445854
 20
177.8707383094839
  0
LWPOLYLINE
  5
6AF
330
1F
100
AcDbEntity
  8
LAYER_1
  6
Continuous
 62
     7
100
AcDbPolyline
 90
       27
 70
     0
 43
0.0
 10
256.1915637432551
 20
183.7063766182151
 10
256.0543763741578
 20
183.5694682401849
 10
255.8828211984883
 20
183.4660890734841
 10
255.7453548383238
 20
183.2945338978146
 10
255.6078884781593
 20
183.1570675376501
 10
255.2991459333923
 20
182.6424052547242
 10
255.2304135643307
 20
182.4708500790549
 10
255.127311766656
 20
182.2646497277876
 10
255.092945582125
 20
182.0936541562936
 10
255.0244922041305
 20
181.887453805026
 10
254.9901243975584
 20
181.6806954716246
 10
254.9901243975584
 20
181.5091402959552
 10
254.9557582130277
 20
181.3040575309973
 10
254.9557582130277
 20
181.0978571797301
 10
254.9901243975584
 20
180.8910988463284
 10
255.0244922041305
 20
180.6854564771953
 10
255.0585793975943
 20
180.5144609057012
 10
255.127311766656
 20
180.308260554434
 10
255.1960457577588
 20
180.1361490186715
 10
255.2647797488617
 20
179.9299470453629
 10
255.5738012846955
 20
179.4147267803027
 10
255.7109886537929
 20
179.2778184022725
 10
255.8484550139574
 20
179.1057052444688
 10
255.9856423830547
 20
178.9687968664386
 10
256.1231103652606
 20
178.8654176997379
 10
256.2946639188887
 20
178.7290673038418
 10
256.466217472517
 20
178.6256881371409
  0
LWPOLYLINE
  5
6B0
330
1F
100
AcDbEntity
  8
LAYER_1
  6
Continuous
 62
     7
100
AcDbPolyline
 90
       28
 70
     0
 43
0.0
 10
256.500585279089
 20
178.5228669525745
 10
256.3633979099915
 20
178.4194877858735
 10
256.1915637432551
 20
178.2820214257091
 10
256.0543763741578
 20
178.1104662500397
 10
255.916908391952
 20
177.9729998898751
 10
255.7109886537929
 20
177.6298911605774
 10
255.6078884781593
 20
177.4236908093101
 10
255.5394334781236
 20
177.2521372556818
 10
255.4363333024899
 20
177.0464948865487
 10
255.401967117959
 20
176.8749413329204
 10
255.3332331268562
 20
176.6687409816531
 10
255.2991459333923
 20
176.4625406303858
 10
255.2991459333923
 20
176.2563402791184
 10
255.2647797488617
 20
176.0506979099853
 10
255.2991459333923
 20
175.8444975587179
 10
255.2991459333923
 20
175.6382972074507
 10
255.3332331268562
 20
175.4320968561833
 10
255.3676009334282
 20
175.2270140912255
 10
255.4363333024899
 20
175.0549009334218
 10
255.5050672935927
 20
174.8487005821544
 10
255.5738012846955
 20
174.6771470285261
 10
255.676620847221
 20
174.4715046593931
 10
255.8828211984883
 20
174.1278379479612
 10
256.0200085675857
 20
173.9903699657555
 10
256.1574765497913
 20
173.8188164121274
 10
256.2946639188887
 20
173.6813500519627
 10
256.6380516392536
 20
173.4064157095925
 10
256.8096051928818
 20
173.3041541292014
  0
LWPOLYLINE
  5
6B1
330
1F
100
AcDbEntity
  8
LAYER_1
  6
Continuous
 62
     7
100
AcDbPolyline
 90
        3
 70
     0
 43
0.0
 10
263.6077918799551
 20
175.9478767254187
 10
262.886929245762
 20
175.9478767254187
 10
262.8522824481228
 20
175.9478767254187
  0
LWPOLYLINE
  5
6B2
330
1F
100
AcDbEntity
  8
LAYER_1
  6
Continuous
 62
     7
100
AcDbPolyline
 90
        3
 70
     0
 43
0.0
 10
262.302974989599
 20
175.9814059367481
 10
261.5821107333646
 20
175.9814059367481
 10
261.5480235399008
 20
175.9814059367481
  0
LWPOLYLINE
  5
6B3
330
1F
100
AcDbEntity
  8
LAYER_1
  6
Continuous
 62
     7
100
AcDbPolyline
 90
        3
 70
     0
 43
0.0
 10
261.0668888462633
 20
175.9814059367481
 10
260.34602621207
 20
175.9814059367481
 10
260.3116600275392
 20
175.9814059367481
  0
LWPOLYLINE
  5
6B4
330
1F
100
AcDbEntity
  8
LAYER_1
  6
Continuous
 62
     7
100
AcDbPolyline
 90
        3
 70
     0
 43
0.0
 10
259.6248845868096
 20
175.9814059367481
 10
258.9040203305752
 20
175.9814059367481
 10
258.8696541460445
 20
175.9814059367481
  0
LWPOLYLINE
  5
6B5
330
1F
100
AcDbEntity
  8
LAYER_1
  6
Continuous
 62
     7
100
AcDbPolyline
 90
        3
 70
     0
 43
0.0
 10
263.9855474068918
 20
181.5091402959552
 10
263.2646847726987
 20
181.5091402959552
 10
263.2300379750595
 20
181.5091402959552
  0
MTEXT
  5
6B7
330
1F
100
AcDbEntity
  8
1
 62
     7
100
AcDbMText
 10
295.7409808611739
 20
495.9287731427689
 30
0.0
 40
7.0
 41
0.0
 71
     5
 72
     1
  1
H6420-50X300
  7
CONVERTER_12
 73
     1
 44
0.7202881152461
  0
MTEXT
  5
6B8
330
1F
100
AcDbEntity
  8
1
 62
     7
100
AcDbMText
 10
295.7409808611739
 20
537.9287731427692
 30
0.0
 40
7.0
 41
0.0
 71
     5
 72
     1
  1
品番
  7
CONVERTER_11
 73
     1
 44
0.54545454545455
  0
MTEXT
  5
6B9
330
1F
100
AcDbEntity
  8
1
 62
     7
100
AcDbMText
 10
295.7409808611739
 20
509.928773142769
 30
0.0
 40
7.0
 41
0.0
 71
     5
 72
     1
  1
H6420-50X250
  7
CONVERTER_12
 73
     1
 44
0.7202881152461
  0
MTEXT
  5
6BA
330
1F
100
AcDbEntity
  8
1
 62
     7
100
AcDbMText
 10
295.7409808611739
 20
523.9287731427692
 30
0.0
 40
7.0
 41
0.0
 71
     5
 72
     1
  1
H6420-50X200
  7
CONVERTER_12
 73
     1
 44
0.7202881152461
  0
MTEXT
  5
6BB
330
1F
100
AcDbEntity
  8
1
 62
     7
100
AcDbMText
 10
353.7409808611742
 20
523.9287731427692
 30
0.0
 40
7.0
 41
0.0
 71
     5
 72
     1
  1
200
  7
CONVERTER_12
 73
     1
 44
0.7202881152461
  0
MTEXT
  5
6BC
330
1F
100
AcDbEntity
  8
1
 62
     7
100
AcDbMText
 10
353.7409808611742
 20
509.928773142769
 30
0.0
 40
7.0
 41
0.0
 71
     5
 72
     1
  1
250
  7
CONVERTER_12
 73
     1
 44
0.7202881152461
  0
MTEXT
  5
6BD
330
1F
100
AcDbEntity
  8
1
 62
     7
100
AcDbMText
 10
353.7409808611742
 20
537.9287731427692
 30
0.0
 40
7.0
 41
0.0
 71
     5
 72
     1
  1
L
  7
CONVERTER_12
 73
     1
 44
0.7202881152461
  0
MTEXT
  5
6BE
330
1F
100
AcDbEntity
  8
1
 62
     7
100
AcDbMText
 10
353.7409808611742
 20
495.9287731427689
 30
0.0
 40
7.0
 41
0.0
 71
     5
 72
     1
  1
300
  7
CONVERTER_12
 73
     1
 44
0.7202881152461
  0
MTEXT
  5
6BF
330
1F
100
AcDbEntity
  8
1
 62
     7
100
AcDbMText
 10
114.0
 20
45.50000000000002
 30
0.0
 40
7.0
 41
0.0
 71
     5
 72
     1
  1
パン排水フレキ
  7
CONVERTER_11
 73
     1
 44
0.54545454545455
  0
MTEXT
  5
6C0
330
1F
100
AcDbEntity
  8
1
 62
     7
100
AcDbMText
 10
114.0
 20
28.5
 30
0.0
 40
7.0
 41
0.0
 71
     5
 72
     1
  1
H6420-50Xサイズ
  7
CONVERTER_11
 73
     1
 44
0.54545454545455
  0
MTEXT
  5
6C1
330
1F
100
AcDbEntity
  8
1
 62
     7
100
AcDbMText
 10
170.5
 20
34.0
 30
0.0
 40
7.0
 41
0.0
 71
     5
 72
     1
  1
1
  7
CONVERTER_12
 73
     1
 44
0.7202881152461
  0
MTEXT
  5
6C2
330
1F
100
AcDbEntity
  8
1
 62
     7
100
AcDbMText
 10
187.5
 20
34.0
 30
0.0
 40
7.0
 41
0.0
 71
     5
 72
     1
  1
2
  7
CONVERTER_12
 73
     1
 44
0.7202881152461
  0
DIMENSION
  5
6CD
330
1F
100
AcDbEntity
  8
1
100
AcDbDimension
  2
*D2
 10
206.3286561361896
 20
402.6675653674034
 30
0.0
 11
235.3286561361896
 21
408.1675653674034
 31
0.0
 70
    32
  1
<>
 71
     5
 42
-1.0
 53
0.00013888888889
  3
ME10_DIM_10
100
AcDbAlignedDimension
 13
264.3286561361896
 23
382.6373529228926
 33
0.0
 14
206.3286561361896
 24
382.6977561202064
 34
0.0
100
AcDbRotatedDimension
  0
DIMENSION
  5
6D8
330
1F
100
AcDbEntity
  8
1
100
AcDbDimension
  2
*D3
 10
164.1487915118511
 20
382.7020463475671
 30
0.0
 11
158.6487915118511
 21
272.8013492873022
 31
0.0
 70
    32
  1
L
 71
     5
 42
-1.0
 53
90.0
  3
ME10_DIM_11
100
AcDbAlignedDimension
 13
202.6550477479039
 23
162.9695464229399
 33
0.0
 14
202.2091194560809
 24
382.7020463475672
 34
0.0
 50
90.0
100
AcDbRotatedDimension
  0
DIMENSION
  5
6E3
330
1F
100
AcDbEntity
  8
1
100
AcDbDimension
  2
*D4
 10
180.1487915118511
 20
207.6720028742214
 30
0.0
 11
174.6487915118511
 21
185.3035734636381
 31
0.0
 70
    32
  1
45
 71
     5
 42
-1.0
 53
90.0
  3
ME10_DIM_12
100
AcDbAlignedDimension
 13
202.6550477479039
 23
162.9695464229399
 33
0.0
 14
204.2001538050324
 24
207.6720028742215
 34
0.0
 50
90.0
100
AcDbRotatedDimension
  0
DIMENSION
  5
6EE
330
1F
100
AcDbEntity
  8
1
100
AcDbDimension
  2
*D5
 10
180.1487915118511
 20
338.5835441524485
 30
0.0
 11
174.6487915118511
 21
360.625549336999
 31
0.0
 70
    32
  1
45
 71
     5
 42
-1.0
 53
90.0
  3
ME10_DIM_13
100
AcDbAlignedDimension
 13
202.2091194560809
 23
382.7020463475672
 33
0.0
 14
204.1660666115686
 24
338.5835441524486
 34
0.0
 50
90.0
100
AcDbRotatedDimension
  0
ENDSEC
  0
SECTION
  2
OBJECTS
  0
DICTIONARY
  5
C
330
0
100
AcDbDictionary
281
     1
  3
ACAD_GROUP
350
D
  3
ACAD_LAYOUT
350
1A
  3
ACAD_MATERIAL
350
3B
  3
ACAD_MLEADERSTYLE
350
6F1
  3
ACAD_MLINESTYLE
350
17
  3
ACAD_PLOTSETTINGS
350
19
  3
ACAD_PLOTSTYLENAME
350
E
  3
ACAD_VISUALSTYLE
350
2A
  3
AcDbVariableDictionary
350
6EF
  0
DICTIONARY
  5
D
102
{ACAD_REACTORS
330
C
102
}
330
C
100
AcDbDictionary
281
     1
  0
DICTIONARY
  5
1A
102
{ACAD_REACTORS
330
C
102
}
330
C
100
AcDbDictionary
281
     1
  3
Layout1
350
1E
  3
Layout2
350
26
  3
Model
350
22
  0
DICTIONARY
  5
3B
102
{ACAD_REACTORS
330
C
102
}
330
C
100
AcDbDictionary
281
     1
  3
ByBlock
350
3D
  3
ByLayer
350
3C
  3
Global
350
3E
  0
DICTIONARY
  5
6F1
102
{ACAD_REACTORS
330
C
102
}
330
C
100
AcDbDictionary
281
     1
  0
DICTIONARY
  5
17
102
{ACAD_REACTORS
330
C
102
}
330
C
100
AcDbDictionary
281
     1
  3
Standard
350
18
  0
DICTIONARY
  5
19
102
{ACAD_REACTORS
330
C
102
}
330
C
100
AcDbDictionary
281
     1
  0
ACDBDICTIONARYWDFLT
  5
E
102
{ACAD_REACTORS
330
C
102
}
330
C
100
AcDbDictionary
281
     1
  3
Normal
350
F
100
AcDbDictionaryWithDefault
340
F
  0
DICTIONARY
  5
2A
102
{ACAD_REACTORS
330
C
102
}
330
C
100
AcDbDictionary
281
     1
  3
2dWireframe
350
2F
  3
3D Hidden
350
31
  3
3dWireframe
350
30
  3
Basic
350
32
  3
Brighten
350
36
  3
ColorChange
350
3A
  3
Conceptual
350
34
  3
Dim
350
35
  3
Facepattern
350
39
  3
Flat
350
2B
  3
FlatWithEdges
350
2C
  3
Gouraud
350
2D
  3
GouraudWithEdges
350
2E
  3
Linepattern
350
38
  3
Realistic
350
33
  3
Thicken
350
37
  0
DICTIONARY
  5
6EF
102
{ACAD_REACTORS
330
C
102
}
330
C
100
AcDbDictionary
281
     1
  3
DIMASSOC
350
6F2
  3
HIDETEXT
350
6F3
  0
LAYOUT
  5
1E
102
{ACAD_REACTORS
330
1A
102
}
330
1A
100
AcDbPlotSettings
  1

  2
none_device
  4

  6

 40
0.0
 41
0.0
 42
0.0
 43
0.0
 44
0.0
 45
0.0
 46
0.0
 47
0.0
 48
0.0
 49
0.0
140
0.0
141
0.0
142
1.0
143
1.0
 70
   688
 72
     0
 73
     0
 74
     5
  7

 75
    16
147
1.0
148
0.0
149
0.0
100
AcDbLayout
  1
Layout1
 70
     1
 71
     1
 10
0.0
 20
0.0
 11
12.0
 21
9.0
 12
0.0
 22
0.0
 32
0.0
 14
1.00000000000000E+20
 24
1.00000000000000E+20
 34
1.00000000000000E+20
 15
-1.00000000000000E+20
 25
-1.00000000000000E+20
 35
-1.00000000000000E+20
146
0.0
 13
0.0
 23
0.0
 33
0.0
 16
1.0
 26
0.0
 36
0.0
 17
0.0
 27
1.0
 37
0.0
 76
     0
330
1B
  0
LAYOUT
  5
26
102
{ACAD_REACTORS
330
1A
102
}
330
1A
100
AcDbPlotSettings
  1

  2
none_device
  4

  6

 40
0.0
 41
0.0
 42
0.0
 43
0.0
 44
0.0
 45
0.0
 46
0.0
 47
0.0
 48
0.0
 49
0.0
140
0.0
141
0.0
142
1.0
143
1.0
 70
   688
 72
     0
 73
     0
 74
     5
  7

 75
    16
147
1.0
148
0.0
149
0.0
100
AcDbLayout
  1
Layout2
 70
     1
 71
     2
 10
0.0
 20
0.0
 11
0.0
 21
0.0
 12
0.0
 22
0.0
 32
0.0
 14
0.0
 24
0.0
 34
0.0
 15
0.0
 25
0.0
 35
0.0
146
0.0
 13
0.0
 23
0.0
 33
0.0
 16
1.0
 26
0.0
 36
0.0
 17
0.0
 27
1.0
 37
0.0
 76
     0
330
23
  0
LAYOUT
  5
22
102
{ACAD_REACTORS
330
1A
102
}
330
1A
100
AcDbPlotSettings
  1

  2
none_device
  4

  6

 40
0.0
 41
0.0
 42
0.0
 43
0.0
 44
0.0
 45
0.0
 46
0.0
 47
0.0
 48
0.0
 49
0.0
140
0.0
141
0.0
142
1.0
143
1.0
 70
  1712
 72
     0
 73
     0
 74
     0
  7

 75
     0
147
1.0
148
0.0
149
0.0
100
AcDbLayout
  1
Model
 70
     1
 71
     0
 10
0.0
 20
0.0
 11
12.0
 21
9.0
 12
0.0
 22
0.0
 32
0.0
 14
0.0
 24
0.0
 34
0.0
 15
420.0
 25
594.0
 35
0.0
146
0.0
 13
0.0
 23
0.0
 33
0.0
 16
1.0
 26
0.0
 36
0.0
 17
0.0
 27
1.0
 37
0.0
 76
     0
330
1F
331
29
  0
MATERIAL
  5
3D
102
{ACAD_REACTORS
330
3B
102
}
102
{ACAD_XDICTIONARY
360
716
102
}
330
3B
100
AcDbMaterial
  1
ByBlock
  0
MATERIAL
  5
3C
102
{ACAD_REACTORS
330
3B
102
}
102
{ACAD_XDICTIONARY
360
714
102
}
330
3B
100
AcDbMaterial
  1
ByLayer
  0
MATERIAL
  5
3E
102
{ACAD_REACTORS
330
3B
102
}
102
{ACAD_XDICTIONARY
360
718
102
}
330
3B
100
AcDbMaterial
  1
Global
  0
MLINESTYLE
  5
18
102
{ACAD_REACTORS
330
17
102
}
330
17
100
AcDbMlineStyle
  2
Standard
 70
     0
  3

 62
   256
 51
90.0
 52
90.0
 71
     2
 49
0.5
 62
   256
  6
BYLAYER
 49
-0.5
 62
   256
  6
BYLAYER
  0
ACDBPLACEHOLDER
  5
F
102
{ACAD_REACTORS
330
E
102
}
330
E
  0
VISUALSTYLE
  5
2F
102
{ACAD_REACTORS
330
2A
102
}
102
{ACAD_XDICTIONARY
360
6FC
102
}
330
2A
100
AcDbVisualStyle
  2
2dWireframe
 70
     4
 71
     0
 72
     2
 73
     0
 90
        0
 40
-0.6
 41
-30.0
 62
     5
 63
     7
 74
     1
 91
        4
 64
     7
 65
   257
 75
     1
175
     1
 42
1.0
 92
        0
 66
   257
 43
1.0
 76
     1
 77
     6
 78
     2
 67
     7
 79
     5
170
     0
171
     0
290
     0
174
     0
 93
        1
 44
0.0
173
     0
291
     0
 45
0.0
1001
ACAD
1000
AcDbSavedByObjectVersion
1070
     0
  0
VISUALSTYLE
  5
31
102
{ACAD_REACTORS
330
2A
102
}
102
{ACAD_XDICTIONARY
360
700
102
}
330
2A
100
AcDbVisualStyle
  2
3D Hidden
 70
     6
 71
     1
 72
     2
 73
     2
 90
        0
 40
-0.6
 41
-30.0
 62
     5
 63
     7
 74
     2
 91
        2
 64
     7
 65
   257
 75
     2
175
     1
 42
40.0
 92
        0
 66
   257
 43
1.0
 76
     1
 77
     6
 78
     2
 67
     7
 79
     3
170
     0
171
     0
290
     0
174
     0
 93
        1
 44
0.0
173
     0
291
     0
 45
0.0
1001
ACAD
1000
AcDbSavedByObjectVersion
1070
     0
  0
VISUALSTYLE
  5
30
102
{ACAD_REACTORS
330
2A
102
}
102
{ACAD_XDICTIONARY
360
6FE
102
}
330
2A
100
AcDbVisualStyle
  2
3dWireframe
 70
     5
 71
     0
 72
     2
 73
     0
 90
        0
 40
-0.6
 41
-30.0
 62
     5
 63
     7
 74
     1
 91
        4
 64
     7
 65
   257
 75
     1
175
     1
 42
1.0
 92
        0
 66
   257
 43
1.0
 76
     1
 77
     6
 78
     2
 67
     7
 79
     5
170
     0
171
     0
290
     0
174
     0
 93
        1
 44
0.0
173
     0
291
     0
 45
0.0
1001
ACAD
1000
AcDbSavedByObjectVersion
1070
     0
  0
VISUALSTYLE
  5
32
102
{ACAD_REACTORS
330
2A
102
}
102
{ACAD_XDICTIONARY
360
702
102
}
330
2A
100
AcDbVisualStyle
  2
Basic
 70
     7
 71
     1
 72
     0
 73
     1
 90
        0
 40
-0.6
 41
-30.0
 62
     5
 63
     7
 74
     0
 91
        4
 64
     7
 65
   257
 75
     1
175
     1
 42
1.0
 92
        8
 66
     7
 43
1.0
 76
     1
 77
     6
 78
     2
 67
     7
 79
     5
170
     0
171
     0
290
     0
174
     0
 93
        1
 44
0.0
173
     0
291
     1
 45
0.0
1001
ACAD
1000
AcDbSavedByObjectVersion
1070
     0
  0
VISUALSTYLE
  5
36
102
{ACAD_REACTORS
330
2A
102
}
102
{ACAD_XDICTIONARY
360
70A
102
}
330
2A
100
AcDbVisualStyle
  2
Brighten
 70
    12
 71
     2
 72
     2
 73
     0
 90
        0
 40
-0.6
 41
-30.0
 62
     5
 63
     7
 74
     1
 91
        4
 64
     7
 65
   257
 75
     1
175
     1
 42
1.0
 92
        8
 66
     7
 43
1.0
 76
     1
 77
     6
 78
     2
 67
     7
 79
     5
170
     0
171
     0
290
     0
174
     0
 93
        1
 44
50.0
173
     0
291
     1
 45
0.0
1001
ACAD
1000
AcDbSavedByObjectVersion
1070
     0
  0
VISUALSTYLE
  5
3A
102
{ACAD_REACTORS
330
2A
102
}
102
{ACAD_XDICTIONARY
360
712
102
}
330
2A
100
AcDbVisualStyle
  2
ColorChange
 70
    16
 71
     2
 72
     2
 73
     3
 90
        0
 40
-0.6
 41
-30.0
 62
     5
 63
     8
 74
     1
 91
        4
 64
     7
 65
   257
 75
     1
175
     1
 42
1.0
 92
        8
 66
     8
 43
1.0
 76
     1
 77
     6
 78
     2
 67
     7
 79
     5
170
     0
171
     0
290
     0
174
     0
 93
        1
 44
0.0
173
     0
291
     1
 45
0.0
1001
ACAD
1000
AcDbSavedByObjectVersion
1070
     0
  0
VISUALSTYLE
  5
34
102
{ACAD_REACTORS
330
2A
102
}
102
{ACAD_XDICTIONARY
360
706
102
}
330
2A
100
AcDbVisualStyle
  2
Conceptual
 70
     9
 71
     3
 72
     2
 73
     0
 90
        0
 40
-0.6
 41
-30.0
 62
     5
 63
     7
 74
     2
 91
        2
 64
     7
 65
   257
 75
     1
175
     1
 42
40.0
 92
        8
 66
     7
 43
1.0
 76
     1
 77
     6
 78
     2
 67
     7
 79
     3
170
     0
171
     0
290
     0
174
     0
 93
        1
 44
0.0
173
     0
291
     0
 45
0.0
1001
ACAD
1000
AcDbSavedByObjectVersion
1070
     0
  0
VISUALSTYLE
  5
35
102
{ACAD_REACTORS
330
2A
102
}
102
{ACAD_XDICTIONARY
360
708
102
}
330
2A
100
AcDbVisualStyle
  2
Dim
 70
    11
 71
     2
 72
     2
 73
     0
 90
        0
 40
-0.6
 41
-30.0
 62
     5
 63
     7
 74
     1
 91
        4
 64
     7
 65
   257
 75
     1
175
     1
 42
1.0
 92
        8
 66
     7
 43
1.0
 76
     1
 77
     6
 78
     2
 67
     7
 79
     5
170
     0
171
     0
290
     0
174
     0
 93
        1
 44
-50.0
173
     0
291
     1
 45
0.0
1001
ACAD
1000
AcDbSavedByObjectVersion
1070
     0
  0
VISUALSTYLE
  5
39
102
{ACAD_REACTORS
330
2A
102
}
102
{ACAD_XDICTIONARY
360
710
102
}
330
2A
100
AcDbVisualStyle
  2
Facepattern
 70
    15
 71
     2
 72
     2
 73
     0
 90
        0
 40
-0.6
 41
-30.0
 62
     5
 63
     7
 74
     1
 91
        4
 64
     7
 65
   257
 75
     1
175
     1
 42
1.0
 92
        8
 66
     7
 43
1.0
 76
     1
 77
     6
 78
     2
 67
     7
 79
     5
170
     0
171
     0
290
     0
174
     0
 93
        1
 44
0.0
173
     0
291
     1
 45
0.0
1001
ACAD
1000
AcDbSavedByObjectVersion
1070
     0
  0
VISUALSTYLE
  5
2B
102
{ACAD_REACTORS
330
2A
102
}
102
{ACAD_XDICTIONARY
360
6F4
102
}
330
2A
100
AcDbVisualStyle
  2
Flat
 70
     0
 71
     2
 72
     1
 73
     1
 90
        2
 40
-0.6
 41
30.0
 62
     5
 63
     7
 74
     0
 91
        4
 64
     7
 65
   257
 75
     1
175
     1
 42
1.0
 92
        8
 66
     7
 43
1.0
 76
     1
 77
     6
 78
     2
 67
     7
 79
     5
170
     0
171
     0
290
     0
174
     0
 93
       13
 44
0.0
173
     0
291
     1
 45
0.0
1001
ACAD
1000
AcDbSavedByObjectVersion
1070
     0
  0
VISUALSTYLE
  5
2C
102
{ACAD_REACTORS
330
2A
102
}
102
{ACAD_XDICTIONARY
360
6F6
102
}
330
2A
100
AcDbVisualStyle
  2
FlatWithEdges
 70
     1
 71
     2
 72
     1
 73
     1
 90
        2
 40
-0.6
 41
30.0
 62
     5
 63
     7
 74
     1
 91
        4
 64
     7
 65
   257
 75
     1
175
     1
 42
1.0
 92
        0
 66
   257
 43
1.0
 76
     1
 77
     6
 78
     2
 67
     7
 79
     5
170
     0
171
     0
290
     0
174
     0
 93
       13
 44
0.0
173
     0
291
     1
 45
0.0
1001
ACAD
1000
AcDbSavedByObjectVersion
1070
     0
  0
VISUALSTYLE
  5
2D
102
{ACAD_REACTORS
330
2A
102
}
102
{ACAD_XDICTIONARY
360
6F8
102
}
330
2A
100
AcDbVisualStyle
  2
Gouraud
 70
     2
 71
     2
 72
     2
 73
     1
 90
        2
 40
-0.6
 41
30.0
 62
     5
 63
     7
 74
     0
 91
        4
 64
     7
 65
   257
 75
     1
175
     1
 42
1.0
 92
        0
 66
     7
 43
1.0
 76
     1
 77
     6
 78
     2
 67
     7
 79
     5
170
     0
171
     0
290
     0
174
     0
 93
       13
 44
0.0
173
     0
291
     1
 45
0.0
1001
ACAD
1000
AcDbSavedByObjectVersion
1070
     0
  0
VISUALSTYLE
  5
2E
102
{ACAD_REACTORS
330
2A
102
}
102
{ACAD_XDICTIONARY
360
6FA
102
}
330
2A
100
AcDbVisualStyle
  2
GouraudWithEdges
 70
     3
 71
     2
 72
     2
 73
     1
 90
        2
 40
-0.6
 41
30.0
 62
     5
 63
     7
 74
     1
 91
        4
 64
     7
 65
   257
 75
     1
175
     1
 42
1.0
 92
        0
 66
   257
 43
1.0
 76
     1
 77
     6
 78
     2
 67
     7
 79
     5
170
     0
171
     0
290
     0
174
     0
 93
       13
 44
0.0
173
     0
291
     1
 45
0.0
1001
ACAD
1000
AcDbSavedByObjectVersion
1070
     0
  0
VISUALSTYLE
  5
38
102
{ACAD_REACTORS
330
2A
102
}
102
{ACAD_XDICTIONARY
360
70E
102
}
330
2A
100
AcDbVisualStyle
  2
Linepattern
 70
    14
 71
     2
 72
     2
 73
     0
 90
        0
 40
-0.6
 41
-30.0
 62
     5
 63
     7
 74
     1
 91
        4
 64
     7
 65
   257
 75
     7
175
     7
 42
1.0
 92
        8
 66
     7
 43
1.0
 76
     1
 77
     6
 78
     2
 67
     7
 79
     5
170
     0
171
     0
290
     0
174
     0
 93
        1
 44
0.0
173
     0
291
     1
 45
0.0
1001
ACAD
1000
AcDbSavedByObjectVersion
1070
     0
  0
VISUALSTYLE
  5
33
102
{ACAD_REACTORS
330
2A
102
}
102
{ACAD_XDICTIONARY
360
704
102
}
330
2A
100
AcDbVisualStyle
  2
Realistic
 70
     8
 71
     2
 72
     2
 73
     0
 90
        0
 40
-0.6
 41
-30.0
 62
     5
 63
     7
 74
     1
 91
        0
 64
     7
 65
   257
 75
     1
175
     1
 42
1.0
 92
        8
 66
     8
 43
1.0
 76
     1
 77
     6
 78
     2
 67
     7
 79
     5
170
     0
171
     0
290
     0
174
     0
 93
       13
 44
0.0
173
     0
291
     0
 45
0.0
1001
ACAD
1000
AcDbSavedByObjectVersion
1070
     0
  0
VISUALSTYLE
  5
37
102
{ACAD_REACTORS
330
2A
102
}
102
{ACAD_XDICTIONARY
360
70C
102
}
330
2A
100
AcDbVisualStyle
  2
Thicken
 70
    13
 71
     2
 72
     2
 73
     0
 90
        0
 40
-0.6
 41
-30.0
 62
     5
 63
     7
 74
     1
 91
        4
 64
     7
 65
   257
 75
     1
175
     1
 42
1.0
 92
       12
 66
     7
 43
1.0
 76
     1
 77
     6
 78
     2
 67
     7
 79
     5
170
     0
171
     0
290
     0
174
     0
 93
        1
 44
0.0
173
     0
291
     1
 45
0.0
1001
ACAD
1000
AcDbSavedByObjectVersion
1070
     0
  0
DICTIONARYVAR
  5
6F2
102
{ACAD_REACTORS
330
6EF
102
}
330
6EF
100
DictionaryVariables
280
     0
  1
2
  0
DICTIONARYVAR
  5
6F3
102
{ACAD_REACTORS
330
6EF
102
}
330
6EF
100
DictionaryVariables
280
     0
  1
1
  0
DICTIONARY
  5
716
330
3D
100
AcDbDictionary
280
     1
281
     1
  3
ACAD_XREC_ROUNDTRIP
360
717
  0
DICTIONARY
  5
714
330
3C
100
AcDbDictionary
280
     1
281
     1
  3
ACAD_XREC_ROUNDTRIP
360
715
  0
DICTIONARY
  5
718
330
3E
100
AcDbDictionary
280
     1
281
     1
  3
ACAD_XREC_ROUNDTRIP
360
719
  0
DICTIONARY
  5
6FC
330
2F
100
AcDbDictionary
280
     1
281
     1
  3
ACAD_XREC_ROUNDTRIP
360
6FD
  0
DICTIONARY
  5
700
330
31
100
AcDbDictionary
280
     1
281
     1
  3
ACAD_XREC_ROUNDTRIP
360
701
  0
DICTIONARY
  5
6FE
330
30
100
AcDbDictionary
280
     1
281
     1
  3
ACAD_XREC_ROUNDTRIP
360
6FF
  0
DICTIONARY
  5
702
330
32
100
AcDbDictionary
280
     1
281
     1
  3
ACAD_XREC_ROUNDTRIP
360
703
  0
DICTIONARY
  5
70A
330
36
100
AcDbDictionary
280
     1
281
     1
  3
ACAD_XREC_ROUNDTRIP
360
70B
  0
DICTIONARY
  5
712
330
3A
100
AcDbDictionary
280
     1
281
     1
  3
ACAD_XREC_ROUNDTRIP
360
713
  0
DICTIONARY
  5
706
330
34
100
AcDbDictionary
280
     1
281
     1
  3
ACAD_XREC_ROUNDTRIP
360
707
  0
DICTIONARY
  5
708
330
35
100
AcDbDictionary
280
     1
281
     1
  3
ACAD_XREC_ROUNDTRIP
360
709
  0
DICTIONARY
  5
710
330
39
100
AcDbDictionary
280
     1
281
     1
  3
ACAD_XREC_ROUNDTRIP
360
711
  0
DICTIONARY
  5
6F4
330
2B
100
AcDbDictionary
280
     1
281
     1
  3
ACAD_XREC_ROUNDTRIP
360
6F5
  0
DICTIONARY
  5
6F6
330
2C
100
AcDbDictionary
280
     1
281
     1
  3
ACAD_XREC_ROUNDTRIP
360
6F7
  0
DICTIONARY
  5
6F8
330
2D
100
AcDbDictionary
280
     1
281
     1
  3
ACAD_XREC_ROUNDTRIP
360
6F9
  0
DICTIONARY
  5
6FA
330
2E
100
AcDbDictionary
280
     1
281
     1
  3
ACAD_XREC_ROUNDTRIP
360
6FB
  0
DICTIONARY
  5
70E
330
38
100
AcDbDictionary
280
     1
281
     1
  3
ACAD_XREC_ROUNDTRIP
360
70F
  0
DICTIONARY
  5
704
330
33
100
AcDbDictionary
280
     1
281
     1
  3
ACAD_XREC_ROUNDTRIP
360
705
  0
DICTIONARY
  5
70C
330
37
100
AcDbDictionary
280
     1
281
     1
  3
ACAD_XREC_ROUNDTRIP
360
70D
  0
XRECORD
  5
717
102
{ACAD_REACTORS
330
716
102
}
330
716
100
AcDbXrecord
280
     1
102
MATERIAL
148
0.0
149
0.0
149
0.0
 93
        0
 94
      127
282
     0
 72
     1
 77
     1
171
     1
175
     1
179
     1
273
     0
  0
XRECORD
  5
715
102
{ACAD_REACTORS
330
714
102
}
330
714
100
AcDbXrecord
280
     1
102
MATERIAL
148
0.0
149
0.0
149
0.0
 93
        0
 94
      127
282
     0
 72
     1
 77
     1
171
     1
175
     1
179
     1
273
     0
  0
XRECORD
  5
719
102
{ACAD_REACTORS
330
718
102
}
330
718
100
AcDbXrecord
280
     1
102
MATERIAL
148
0.0
149
0.0
149
0.0
 93
        0
 94
      127
282
     0
 72
     1
 77
     1
171
     1
175
     1
179
     1
273
     0
  0
XRECORD
  5
6FD
102
{ACAD_REACTORS
330
6FC
102
}
330
6FC
100
AcDbXrecord
280
     1
102
RTVSPropertyOp0
 70
     1
102
RTVSPropertyOp1
 70
     1
102
RTVSPropertyOp2
 70
     1
102
RTVSPropertyOp3
 70
     1
102
RTVSPropertyOp4
 70
     1
102
RTVSPropertyOp5
 70
     1
102
RTVSPropertyOp6
 70
     1
102
RTVSPropertyOp7
 70
     1
102
RTVSPropertyOp8
 70
     1
102
RTVSPropertyOp9
 70
     1
102
RTVSPropertyOp10
 70
     1
102
RTVSPropertyOp11
 70
     1
102
RTVSPropertyOp12
 70
     1
102
RTVSPropertyOp13
 70
     1
102
RTVSPropertyOp14
 70
     1
102
RTVSPropertyOp15
 70
     1
102
RTVSPropertyOp16
 70
     1
102
RTVSPropertyOp17
 70
     1
102
RTVSPropertyOp18
 70
     1
102
RTVSPropertyOp19
 70
     1
102
RTVSPropertyOp20
 70
     1
102
RTVSPropertyOp21
 70
     1
102
RTVSPropertyOp22
 70
     1
102
RTVSPropertyOp23
 70
     1
102
RTVSPropertyOp24
 70
     1
102
RTVSPropertyOp25
 70
     1
102
RTVSPropertyOp26
 70
     1
102
RTVSPropertyOp27
 70
     1
102
RTVSPropertyOp28
 70
     1
102
RTVSPropertyOp29
 70
     1
102
RTVSPropertyOp30
 70
     1
102
RTVSPropertyOp31
 70
     1
102
RTVSPropertyOp32
 70
     1
  0
XRECORD
  5
701
102
{ACAD_REACTORS
330
700
102
}
330
700
100
AcDbXrecord
280
     1
102
RTVSPropertyOp0
 70
     1
102
RTVSPropertyOp1
 70
     1
102
RTVSPropertyOp2
 70
     1
102
RTVSPropertyOp3
 70
     1
102
RTVSPropertyOp4
 70
     1
102
RTVSPropertyOp5
 70
     1
102
RTVSPropertyOp6
 70
     1
102
RTVSPropertyOp7
 70
     1
102
RTVSPropertyOp8
 70
     1
102
RTVSPropertyOp9
 70
     1
102
RTVSPropertyOp10
 70
     1
102
RTVSPropertyOp11
 70
     1
102
RTVSPropertyOp12
 70
     1
102
RTVSPropertyOp13
 70
     1
102
RTVSPropertyOp14
 70
     1
102
RTVSPropertyOp15
 70
     1
102
RTVSPropertyOp16
 70
     1
102
RTVSPropertyOp17
 70
     1
102
RTVSPropertyOp18
 70
     1
102
RTVSPropertyOp19
 70
     1
102
RTVSPropertyOp20
 70
     1
102
RTVSPropertyOp21
 70
     1
102
RTVSPropertyOp22
 70
     1
102
RTVSPropertyOp23
 70
     1
102
RTVSPropertyOp24
 70
     1
102
RTVSPropertyOp25
 70
     1
102
RTVSPropertyOp26
 70
     1
102
RTVSPropertyOp27
 70
     1
102
RTVSPropertyOp28
 70
     1
102
RTVSPropertyOp29
 70
     1
102
RTVSPropertyOp30
 70
     1
102
RTVSPropertyOp31
 70
     1
102
RTVSPropertyOp32
 70
     1
  0
XRECORD
  5
6FF
102
{ACAD_REACTORS
330
6FE
102
}
330
6FE
100
AcDbXrecord
280
     1
102
RTVSPropertyOp0
 70
     1
102
RTVSPropertyOp1
 70
     1
102
RTVSPropertyOp2
 70
     1
102
RTVSPropertyOp3
 70
     1
102
RTVSPropertyOp4
 70
     1
102
RTVSPropertyOp5
 70
     1
102
RTVSPropertyOp6
 70
     1
102
RTVSPropertyOp7
 70
     1
102
RTVSPropertyOp8
 70
     1
102
RTVSPropertyOp9
 70
     1
102
RTVSPropertyOp10
 70
     1
102
RTVSPropertyOp11
 70
     1
102
RTVSPropertyOp12
 70
     1
102
RTVSPropertyOp13
 70
     1
102
RTVSPropertyOp14
 70
     1
102
RTVSPropertyOp15
 70
     1
102
RTVSPropertyOp16
 70
     1
102
RTVSPropertyOp17
 70
     1
102
RTVSPropertyOp18
 70
     1
102
RTVSPropertyOp19
 70
     1
102
RTVSPropertyOp20
 70
     1
102
RTVSPropertyOp21
 70
     1
102
RTVSPropertyOp22
 70
     1
102
RTVSPropertyOp23
 70
     1
102
RTVSPropertyOp24
 70
     1
102
RTVSPropertyOp25
 70
     1
102
RTVSPropertyOp26
 70
     1
102
RTVSPropertyOp27
 70
     1
102
RTVSPropertyOp28
 70
     1
102
RTVSPropertyOp29
 70
     1
102
RTVSPropertyOp30
 70
     1
102
RTVSPropertyOp31
 70
     1
102
RTVSPropertyOp32
 70
     1
  0
XRECORD
  5
703
102
{ACAD_REACTORS
330
702
102
}
330
702
100
AcDbXrecord
280
     1
102
RTVSPropertyOp0
 70
     1
102
RTVSPropertyOp1
 70
     1
102
RTVSPropertyOp2
 70
     1
102
RTVSPropertyOp3
 70
     1
102
RTVSPropertyOp4
 70
     1
102
RTVSPropertyOp5
 70
     1
102
RTVSPropertyOp6
 70
     1
102
RTVSPropertyOp7
 70
     1
102
RTVSPropertyOp8
 70
     1
102
RTVSPropertyOp9
 70
     1
102
RTVSPropertyOp10
 70
     1
102
RTVSPropertyOp11
 70
     1
102
RTVSPropertyOp12
 70
     1
102
RTVSPropertyOp13
 70
     1
102
RTVSPropertyOp14
 70
     1
102
RTVSPropertyOp15
 70
     1
102
RTVSPropertyOp16
 70
     1
102
RTVSPropertyOp17
 70
     1
102
RTVSPropertyOp18
 70
     1
102
RTVSPropertyOp19
 70
     1
102
RTVSPropertyOp20
 70
     1
102
RTVSPropertyOp21
 70
     1
102
RTVSPropertyOp22
 70
     1
102
RTVSPropertyOp23
 70
     1
102
RTVSPropertyOp24
 70
     1
102
RTVSPropertyOp25
 70
     1
102
RTVSPropertyOp26
 70
     1
102
RTVSPropertyOp27
 70
     1
102
RTVSPropertyOp28
 70
     1
102
RTVSPropertyOp29
 70
     1
102
RTVSPropertyOp30
 70
     1
102
RTVSPropertyOp31
 70
     1
102
RTVSPropertyOp32
 70
     1
  0
XRECORD
  5
70B
102
{ACAD_REACTORS
330
70A
102
}
330
70A
100
AcDbXrecord
280
     1
102
RTVSPropertyOp0
 70
     1
102
RTVSPropertyOp1
 70
     1
102
RTVSPropertyOp2
 70
     1
102
RTVSPropertyOp3
 70
     1
102
RTVSPropertyOp4
 70
     1
102
RTVSPropertyOp5
 70
     1
102
RTVSPropertyOp6
 70
     1
102
RTVSPropertyOp7
 70
     1
102
RTVSPropertyOp8
 70
     1
102
RTVSPropertyOp9
 70
     1
102
RTVSPropertyOp10
 70
     1
102
RTVSPropertyOp11
 70
     1
102
RTVSPropertyOp12
 70
     1
102
RTVSPropertyOp13
 70
     1
102
RTVSPropertyOp14
 70
     1
102
RTVSPropertyOp15
 70
     1
102
RTVSPropertyOp16
 70
     1
102
RTVSPropertyOp17
 70
     1
102
RTVSPropertyOp18
 70
     1
102
RTVSPropertyOp19
 70
     1
102
RTVSPropertyOp20
 70
     1
102
RTVSPropertyOp21
 70
     1
102
RTVSPropertyOp22
 70
     1
102
RTVSPropertyOp23
 70
     1
102
RTVSPropertyOp24
 70
     1
102
RTVSPropertyOp25
 70
     1
102
RTVSPropertyOp26
 70
     1
102
RTVSPropertyOp27
 70
     1
102
RTVSPropertyOp28
 70
     1
102
RTVSPropertyOp29
 70
     1
102
RTVSPropertyOp30
 70
     1
102
RTVSPropertyOp31
 70
     1
102
RTVSPropertyOp32
 70
     1
  0
XRECORD
  5
713
102
{ACAD_REACTORS
330
712
102
}
330
712
100
AcDbXrecord
280
     1
102
RTVSPropertyOp0
 70
     1
102
RTVSPropertyOp1
 70
     1
102
RTVSPropertyOp2
 70
     1
102
RTVSPropertyOp3
 70
     1
102
RTVSPropertyOp4
 70
     1
102
RTVSPropertyOp5
 70
     1
102
RTVSPropertyOp6
 70
     1
102
RTVSPropertyOp7
 70
     1
102
RTVSPropertyOp8
 70
     1
102
RTVSPropertyOp9
 70
     1
102
RTVSPropertyOp10
 70
     1
102
RTVSPropertyOp11
 70
     1
102
RTVSPropertyOp12
 70
     1
102
RTVSPropertyOp13
 70
     1
102
RTVSPropertyOp14
 70
     1
102
RTVSPropertyOp15
 70
     1
102
RTVSPropertyOp16
 70
     1
102
RTVSPropertyOp17
 70
     1
102
RTVSPropertyOp18
 70
     1
102
RTVSPropertyOp19
 70
     1
102
RTVSPropertyOp20
 70
     1
102
RTVSPropertyOp21
 70
     1
102
RTVSPropertyOp22
 70
     1
102
RTVSPropertyOp23
 70
     1
102
RTVSPropertyOp24
 70
     1
102
RTVSPropertyOp25
 70
     1
102
RTVSPropertyOp26
 70
     1
102
RTVSPropertyOp27
 70
     1
102
RTVSPropertyOp28
 70
     1
102
RTVSPropertyOp29
 70
     1
102
RTVSPropertyOp30
 70
     1
102
RTVSPropertyOp31
 70
     1
102
RTVSPropertyOp32
 70
     1
  0
XRECORD
  5
707
102
{ACAD_REACTORS
330
706
102
}
330
706
100
AcDbXrecord
280
     1
102
RTVSPropertyOp0
 70
     1
102
RTVSPropertyOp1
 70
     1
102
RTVSPropertyOp2
 70
     1
102
RTVSPropertyOp3
 70
     1
102
RTVSPropertyOp4
 70
     1
102
RTVSPropertyOp5
 70
     1
102
RTVSPropertyOp6
 70
     1
102
RTVSPropertyOp7
 70
     1
102
RTVSPropertyOp8
 70
     1
102
RTVSPropertyOp9
 70
     1
102
RTVSPropertyOp10
 70
     1
102
RTVSPropertyOp11
 70
     1
102
RTVSPropertyOp12
 70
     1
102
RTVSPropertyOp13
 70
     1
102
RTVSPropertyOp14
 70
     1
102
RTVSPropertyOp15
 70
     1
102
RTVSPropertyOp16
 70
     1
102
RTVSPropertyOp17
 70
     1
102
RTVSPropertyOp18
 70
     1
102
RTVSPropertyOp19
 70
     1
102
RTVSPropertyOp20
 70
     1
102
RTVSPropertyOp21
 70
     1
102
RTVSPropertyOp22
 70
     1
102
RTVSPropertyOp23
 70
     1
102
RTVSPropertyOp24
 70
     1
102
RTVSPropertyOp25
 70
     1
102
RTVSPropertyOp26
 70
     1
102
RTVSPropertyOp27
 70
     1
102
RTVSPropertyOp28
 70
     1
102
RTVSPropertyOp29
 70
     1
102
RTVSPropertyOp30
 70
     1
102
RTVSPropertyOp31
 70
     1
102
RTVSPropertyOp32
 70
     1
  0
XRECORD
  5
709
102
{ACAD_REACTORS
330
708
102
}
330
708
100
AcDbXrecord
280
     1
102
RTVSPropertyOp0
 70
     1
102
RTVSPropertyOp1
 70
     1
102
RTVSPropertyOp2
 70
     1
102
RTVSPropertyOp3
 70
     1
102
RTVSPropertyOp4
 70
     1
102
RTVSPropertyOp5
 70
     1
102
RTVSPropertyOp6
 70
     1
102
RTVSPropertyOp7
 70
     1
102
RTVSPropertyOp8
 70
     1
102
RTVSPropertyOp9
 70
     1
102
RTVSPropertyOp10
 70
     1
102
RTVSPropertyOp11
 70
     1
102
RTVSPropertyOp12
 70
     1
102
RTVSPropertyOp13
 70
     1
102
RTVSPropertyOp14
 70
     1
102
RTVSPropertyOp15
 70
     1
102
RTVSPropertyOp16
 70
     1
102
RTVSPropertyOp17
 70
     1
102
RTVSPropertyOp18
 70
     1
102
RTVSPropertyOp19
 70
     1
102
RTVSPropertyOp20
 70
     1
102
RTVSPropertyOp21
 70
     1
102
RTVSPropertyOp22
 70
     1
102
RTVSPropertyOp23
 70
     1
102
RTVSPropertyOp24
 70
     1
102
RTVSPropertyOp25
 70
     1
102
RTVSPropertyOp26
 70
     1
102
RTVSPropertyOp27
 70
     1
102
RTVSPropertyOp28
 70
     1
102
RTVSPropertyOp29
 70
     1
102
RTVSPropertyOp30
 70
     1
102
RTVSPropertyOp31
 70
     1
102
RTVSPropertyOp32
 70
     1
  0
XRECORD
  5
711
102
{ACAD_REACTORS
330
710
102
}
330
710
100
AcDbXrecord
280
     1
102
RTVSPropertyOp0
 70
     1
102
RTVSPropertyOp1
 70
     1
102
RTVSPropertyOp2
 70
     1
102
RTVSPropertyOp3
 70
     1
102
RTVSPropertyOp4
 70
     1
102
RTVSPropertyOp5
 70
     1
102
RTVSPropertyOp6
 70
     1
102
RTVSPropertyOp7
 70
     1
102
RTVSPropertyOp8
 70
     1
102
RTVSPropertyOp9
 70
     1
102
RTVSPropertyOp10
 70
     1
102
RTVSPropertyOp11
 70
     1
102
RTVSPropertyOp12
 70
     1
102
RTVSPropertyOp13
 70
     1
102
RTVSPropertyOp14
 70
     1
102
RTVSPropertyOp15
 70
     1
102
RTVSPropertyOp16
 70
     1
102
RTVSPropertyOp17
 70
     1
102
RTVSPropertyOp18
 70
     1
102
RTVSPropertyOp19
 70
     1
102
RTVSPropertyOp20
 70
     1
102
RTVSPropertyOp21
 70
     1
102
RTVSPropertyOp22
 70
     1
102
RTVSPropertyOp23
 70
     1
102
RTVSPropertyOp24
 70
     1
102
RTVSPropertyOp25
 70
     1
102
RTVSPropertyOp26
 70
     1
102
RTVSPropertyOp27
 70
     1
102
RTVSPropertyOp28
 70
     1
102
RTVSPropertyOp29
 70
     1
102
RTVSPropertyOp30
 70
     1
102
RTVSPropertyOp31
 70
     1
102
RTVSPropertyOp32
 70
     1
  0
XRECORD
  5
6F5
102
{ACAD_REACTORS
330
6F4
102
}
330
6F4
100
AcDbXrecord
280
     1
102
RTVSPropertyOp0
 70
     1
102
RTVSPropertyOp1
 70
     1
102
RTVSPropertyOp2
 70
     1
102
RTVSPropertyOp3
 70
     1
102
RTVSPropertyOp4
 70
     1
102
RTVSPropertyOp5
 70
     1
102
RTVSPropertyOp6
 70
     1
102
RTVSPropertyOp7
 70
     1
102
RTVSPropertyOp8
 70
     1
102
RTVSPropertyOp9
 70
     1
102
RTVSPropertyOp10
 70
     1
102
RTVSPropertyOp11
 70
     1
102
RTVSPropertyOp12
 70
     1
102
RTVSPropertyOp13
 70
     1
102
RTVSPropertyOp14
 70
     1
102
RTVSPropertyOp15
 70
     1
102
RTVSPropertyOp16
 70
     1
102
RTVSPropertyOp17
 70
     1
102
RTVSPropertyOp18
 70
     1
102
RTVSPropertyOp19
 70
     1
102
RTVSPropertyOp20
 70
     1
102
RTVSPropertyOp21
 70
     1
102
RTVSPropertyOp22
 70
     1
102
RTVSPropertyOp23
 70
     1
102
RTVSPropertyOp24
 70
     1
102
RTVSPropertyOp25
 70
     1
102
RTVSPropertyOp26
 70
     1
102
RTVSPropertyOp27
 70
     1
102
RTVSPropertyOp28
 70
     1
102
RTVSPropertyOp29
 70
     1
102
RTVSPropertyOp30
 70
     1
102
RTVSPropertyOp31
 70
     1
102
RTVSPropertyOp32
 70
     1
  0
XRECORD
  5
6F7
102
{ACAD_REACTORS
330
6F6
102
}
330
6F6
100
AcDbXrecord
280
     1
102
RTVSPropertyOp0
 70
     1
102
RTVSPropertyOp1
 70
     1
102
RTVSPropertyOp2
 70
     1
102
RTVSPropertyOp3
 70
     1
102
RTVSPropertyOp4
 70
     1
102
RTVSPropertyOp5
 70
     1
102
RTVSPropertyOp6
 70
     1
102
RTVSPropertyOp7
 70
     1
102
RTVSPropertyOp8
 70
     1
102
RTVSPropertyOp9
 70
     1
102
RTVSPropertyOp10
 70
     1
102
RTVSPropertyOp11
 70
     1
102
RTVSPropertyOp12
 70
     1
102
RTVSPropertyOp13
 70
     1
102
RTVSPropertyOp14
 70
     1
102
RTVSPropertyOp15
 70
     1
102
RTVSPropertyOp16
 70
     1
102
RTVSPropertyOp17
 70
     1
102
RTVSPropertyOp18
 70
     1
102
RTVSPropertyOp19
 70
     1
102
RTVSPropertyOp20
 70
     1
102
RTVSPropertyOp21
 70
     1
102
RTVSPropertyOp22
 70
     1
102
RTVSPropertyOp23
 70
     1
102
RTVSPropertyOp24
 70
     1
102
RTVSPropertyOp25
 70
     1
102
RTVSPropertyOp26
 70
     1
102
RTVSPropertyOp27
 70
     1
102
RTVSPropertyOp28
 70
     1
102
RTVSPropertyOp29
 70
     1
102
RTVSPropertyOp30
 70
     1
102
RTVSPropertyOp31
 70
     1
102
RTVSPropertyOp32
 70
     1
  0
XRECORD
  5
6F9
102
{ACAD_REACTORS
330
6F8
102
}
330
6F8
100
AcDbXrecord
280
     1
102
RTVSPropertyOp0
 70
     1
102
RTVSPropertyOp1
 70
     1
102
RTVSPropertyOp2
 70
     1
102
RTVSPropertyOp3
 70
     1
102
RTVSPropertyOp4
 70
     1
102
RTVSPropertyOp5
 70
     1
102
RTVSPropertyOp6
 70
     1
102
RTVSPropertyOp7
 70
     1
102
RTVSPropertyOp8
 70
     1
102
RTVSPropertyOp9
 70
     1
102
RTVSPropertyOp10
 70
     1
102
RTVSPropertyOp11
 70
     1
102
RTVSPropertyOp12
 70
     1
102
RTVSPropertyOp13
 70
     1
102
RTVSPropertyOp14
 70
     1
102
RTVSPropertyOp15
 70
     1
102
RTVSPropertyOp16
 70
     1
102
RTVSPropertyOp17
 70
     1
102
RTVSPropertyOp18
 70
     1
102
RTVSPropertyOp19
 70
     1
102
RTVSPropertyOp20
 70
     1
102
RTVSPropertyOp21
 70
     1
102
RTVSPropertyOp22
 70
     1
102
RTVSPropertyOp23
 70
     1
102
RTVSPropertyOp24
 70
     1
102
RTVSPropertyOp25
 70
     1
102
RTVSPropertyOp26
 70
     1
102
RTVSPropertyOp27
 70
     1
102
RTVSPropertyOp28
 70
     1
102
RTVSPropertyOp29
 70
     1
102
RTVSPropertyOp30
 70
     1
102
RTVSPropertyOp31
 70
     1
102
RTVSPropertyOp32
 70
     1
  0
XRECORD
  5
6FB
102
{ACAD_REACTORS
330
6FA
102
}
330
6FA
100
AcDbXrecord
280
     1
102
RTVSPropertyOp0
 70
     1
102
RTVSPropertyOp1
 70
     1
102
RTVSPropertyOp2
 70
     1
102
RTVSPropertyOp3
 70
     1
102
RTVSPropertyOp4
 70
     1
102
RTVSPropertyOp5
 70
     1
102
RTVSPropertyOp6
 70
     1
102
RTVSPropertyOp7
 70
     1
102
RTVSPropertyOp8
 70
     1
102
RTVSPropertyOp9
 70
     1
102
RTVSPropertyOp10
 70
     1
102
RTVSPropertyOp11
 70
     1
102
RTVSPropertyOp12
 70
     1
102
RTVSPropertyOp13
 70
     1
102
RTVSPropertyOp14
 70
     1
102
RTVSPropertyOp15
 70
     1
102
RTVSPropertyOp16
 70
     1
102
RTVSPropertyOp17
 70
     1
102
RTVSPropertyOp18
 70
     1
102
RTVSPropertyOp19
 70
     1
102
RTVSPropertyOp20
 70
     1
102
RTVSPropertyOp21
 70
     1
102
RTVSPropertyOp22
 70
     1
102
RTVSPropertyOp23
 70
     1
102
RTVSPropertyOp24
 70
     1
102
RTVSPropertyOp25
 70
     1
102
RTVSPropertyOp26
 70
     1
102
RTVSPropertyOp27
 70
     1
102
RTVSPropertyOp28
 70
     1
102
RTVSPropertyOp29
 70
     1
102
RTVSPropertyOp30
 70
     1
102
RTVSPropertyOp31
 70
     1
102
RTVSPropertyOp32
 70
     1
  0
XRECORD
  5
70F
102
{ACAD_REACTORS
330
70E
102
}
330
70E
100
AcDbXrecord
280
     1
102
RTVSPropertyOp0
 70
     1
102
RTVSPropertyOp1
 70
     1
102
RTVSPropertyOp2
 70
     1
102
RTVSPropertyOp3
 70
     1
102
RTVSPropertyOp4
 70
     1
102
RTVSPropertyOp5
 70
     1
102
RTVSPropertyOp6
 70
     1
102
RTVSPropertyOp7
 70
     1
102
RTVSPropertyOp8
 70
     1
102
RTVSPropertyOp9
 70
     1
102
RTVSPropertyOp10
 70
     1
102
RTVSPropertyOp11
 70
     1
102
RTVSPropertyOp12
 70
     1
102
RTVSPropertyOp13
 70
     1
102
RTVSPropertyOp14
 70
     1
102
RTVSPropertyOp15
 70
     1
102
RTVSPropertyOp16
 70
     1
102
RTVSPropertyOp17
 70
     1
102
RTVSPropertyOp18
 70
     1
102
RTVSPropertyOp19
 70
     1
102
RTVSPropertyOp20
 70
     1
102
RTVSPropertyOp21
 70
     1
102
RTVSPropertyOp22
 70
     1
102
RTVSPropertyOp23
 70
     1
102
RTVSPropertyOp24
 70
     1
102
RTVSPropertyOp25
 70
     1
102
RTVSPropertyOp26
 70
     1
102
RTVSPropertyOp27
 70
     1
102
RTVSPropertyOp28
 70
     1
102
RTVSPropertyOp29
 70
     1
102
RTVSPropertyOp30
 70
     1
102
RTVSPropertyOp31
 70
     1
102
RTVSPropertyOp32
 70
     1
  0
XRECORD
  5
705
102
{ACAD_REACTORS
330
704
102
}
330
704
100
AcDbXrecord
280
     1
102
RTVSPropertyOp0
 70
     1
102
RTVSPropertyOp1
 70
     1
102
RTVSPropertyOp2
 70
     1
102
RTVSPropertyOp3
 70
     1
102
RTVSPropertyOp4
 70
     1
102
RTVSPropertyOp5
 70
     1
102
RTVSPropertyOp6
 70
     1
102
RTVSPropertyOp7
 70
     1
102
RTVSPropertyOp8
 70
     1
102
RTVSPropertyOp9
 70
     1
102
RTVSPropertyOp10
 70
     1
102
RTVSPropertyOp11
 70
     1
102
RTVSPropertyOp12
 70
     1
102
RTVSPropertyOp13
 70
     1
102
RTVSPropertyOp14
 70
     1
102
RTVSPropertyOp15
 70
     1
102
RTVSPropertyOp16
 70
     1
102
RTVSPropertyOp17
 70
     1
102
RTVSPropertyOp18
 70
     1
102
RTVSPropertyOp19
 70
     1
102
RTVSPropertyOp20
 70
     1
102
RTVSPropertyOp21
 70
     1
102
RTVSPropertyOp22
 70
     1
102
RTVSPropertyOp23
 70
     1
102
RTVSPropertyOp24
 70
     1
102
RTVSPropertyOp25
 70
     1
102
RTVSPropertyOp26
 70
     1
102
RTVSPropertyOp27
 70
     1
102
RTVSPropertyOp28
 70
     1
102
RTVSPropertyOp29
 70
     1
102
RTVSPropertyOp30
 70
     1
102
RTVSPropertyOp31
 70
     1
102
RTVSPropertyOp32
 70
     1
  0
XRECORD
  5
70D
102
{ACAD_REACTORS
330
70C
102
}
330
70C
100
AcDbXrecord
280
     1
102
RTVSPropertyOp0
 70
     1
102
RTVSPropertyOp1
 70
     1
102
RTVSPropertyOp2
 70
     1
102
RTVSPropertyOp3
 70
     1
102
RTVSPropertyOp4
 70
     1
102
RTVSPropertyOp5
 70
     1
102
RTVSPropertyOp6
 70
     1
102
RTVSPropertyOp7
 70
     1
102
RTVSPropertyOp8
 70
     1
102
RTVSPropertyOp9
 70
     1
102
RTVSPropertyOp10
 70
     1
102
RTVSPropertyOp11
 70
     1
102
RTVSPropertyOp12
 70
     1
102
RTVSPropertyOp13
 70
     1
102
RTVSPropertyOp14
 70
     1
102
RTVSPropertyOp15
 70
     1
102
RTVSPropertyOp16
 70
     1
102
RTVSPropertyOp17
 70
     1
102
RTVSPropertyOp18
 70
     1
102
RTVSPropertyOp19
 70
     1
102
RTVSPropertyOp20
 70
     1
102
RTVSPropertyOp21
 70
     1
102
RTVSPropertyOp22
 70
     1
102
RTVSPropertyOp23
 70
     1
102
RTVSPropertyOp24
 70
     1
102
RTVSPropertyOp25
 70
     1
102
RTVSPropertyOp26
 70
     1
102
RTVSPropertyOp27
 70
     1
102
RTVSPropertyOp28
 70
     1
102
RTVSPropertyOp29
 70
     1
102
RTVSPropertyOp30
 70
     1
102
RTVSPropertyOp31
 70
     1
102
RTVSPropertyOp32
 70
     1
  0
ENDSEC
  0
EOF
