  0
SECTION
  2
HEADER
  9
$ACADVER
  1
AC1015
  9
$ACADMAINTVER
 70
     6
  9
$DWGCODEPAGE
  3
ANSI_932
  9
$INSBASE
 10
0.0
 20
0.0
 30
0.0
  9
$EXTMIN
 10
0.0
 20
0.0
 30
0.0
  9
$EXTMAX
 10
420.0
 20
594.0
 30
0.0
  9
$LIMMIN
 10
0.0
 20
0.0
  9
$LIMMAX
 10
12.0
 20
9.0
  9
$ORTHOMODE
 70
     0
  9
$REGENMODE
 70
     1
  9
$FILLMODE
 70
     1
  9
$QTEXTMODE
 70
     0
  9
$MIRRTEXT
 70
     1
  9
$LTSCALE
 40
1.0
  9
$ATTMODE
 70
     1
  9
$TEXTSIZE
 40
0.2
  9
$TRACEWID
 40
0.05
  9
$TEXTSTYLE
  7
Standard
  9
$CLAYER
  8
0
  9
$CELTYPE
  6
ByLayer
  9
$CECOLOR
 62
   256
  9
$CELTSCALE
 40
1.0
  9
$DISPSILH
 70
     0
  9
$DIMSCALE
 40
1.0
  9
$DIMASZ
 40
0.18
  9
$DIMEXO
 40
0.0625
  9
$DIMDLI
 40
0.38
  9
$DIMRND
 40
0.0
  9
$DIMDLE
 40
0.0
  9
$DIMEXE
 40
0.18
  9
$DIMTP
 40
0.0
  9
$DIMTM
 40
0.0
  9
$DIMTXT
 40
0.18
  9
$DIMCEN
 40
0.09
  9
$DIMTSZ
 40
0.0
  9
$DIMTOL
 70
     0
  9
$DIMLIM
 70
     0
  9
$DIMTIH
 70
     1
  9
$DIMTOH
 70
     1
  9
$DIMSE1
 70
     0
  9
$DIMSE2
 70
     0
  9
$DIMTAD
 70
     0
  9
$DIMZIN
 70
     0
  9
$DIMBLK
  1

  9
$DIMASO
 70
     1
  9
$DIMSHO
 70
     1
  9
$DIMPOST
  1

  9
$DIMAPOST
  1

  9
$DIMALT
 70
     0
  9
$DIMALTD
 70
     2
  9
$DIMALTF
 40
25.4
  9
$DIMLFAC
 40
1.0
  9
$DIMTOFL
 70
     0
  9
$DIMTVP
 40
0.0
  9
$DIMTIX
 70
     0
  9
$DIMSOXD
 70
     0
  9
$DIMSAH
 70
     0
  9
$DIMBLK1
  1

  9
$DIMBLK2
  1

  9
$DIMSTYLE
  2
Standard
  9
$DIMCLRD
 70
     0
  9
$DIMCLRE
 70
     0
  9
$DIMCLRT
 70
     0
  9
$DIMTFAC
 40
1.0
  9
$DIMGAP
 40
0.09
  9
$DIMJUST
 70
     0
  9
$DIMSD1
 70
     0
  9
$DIMSD2
 70
     0
  9
$DIMTOLJ
 70
     1
  9
$DIMTZIN
 70
     0
  9
$DIMALTZ
 70
     0
  9
$DIMALTTZ
 70
     0
  9
$DIMUPT
 70
     0
  9
$DIMDEC
 70
     4
  9
$DIMTDEC
 70
     4
  9
$DIMALTU
 70
     2
  9
$DIMALTTD
 70
     2
  9
$DIMTXSTY
  7
Standard
  9
$DIMAUNIT
 70
     0
  9
$DIMADEC
 70
     0
  9
$DIMALTRND
 40
0.0
  9
$DIMAZIN
 70
     0
  9
$DIMDSEP
 70
    46
  9
$DIMATFIT
 70
     3
  9
$DIMFRAC
 70
     0
  9
$DIMLDRBLK
  1

  9
$DIMLUNIT
 70
     2
  9
$DIMLWD
 70
    -2
  9
$DIMLWE
 70
    -2
  9
$DIMTMOVE
 70
     0
  9
$LUNITS
 70
     2
  9
$LUPREC
 70
     4
  9
$SKETCHINC
 40
0.1
  9
$FILLETRAD
 40
0.5
  9
$AUNITS
 70
     0
  9
$AUPREC
 70
     0
  9
$MENU
  1
.
  9
$ELEVATION
 40
0.0
  9
$PELEVATION
 40
0.0
  9
$THICKNESS
 40
0.0
  9
$LIMCHECK
 70
     0
  9
$CHAMFERA
 40
0.5
  9
$CHAMFERB
 40
0.5
  9
$CHAMFERC
 40
1.0
  9
$CHAMFERD
 40
0.0
  9
$SKPOLY
 70
     0
  9
$TDCREATE
 40
2456498.407245197
  9
$TDUCREATE
 40
2456498.032245197
  9
$TDUPDATE
 40
2456498.407246285
  9
$TDUUPDATE
 40
2456498.032246285
  9
$TDINDWG
 40
0.0000000116
  9
$TDUSRTIMER
 40
0.0000000116
  9
$USRTIMER
 70
     1
  9
$ANGBASE
 50
0.0
  9
$ANGDIR
 70
     0
  9
$PDMODE
 70
     0
  9
$PDSIZE
 40
0.0
  9
$PLINEWID
 40
0.0
  9
$SPLFRAME
 70
     0
  9
$SPLINETYPE
 70
     6
  9
$SPLINESEGS
 70
     8
  9
$HANDSEED
  5
71F
  9
$SURFTAB1
 70
     6
  9
$SURFTAB2
 70
     6
  9
$SURFTYPE
 70
     6
  9
$SURFU
 70
     6
  9
$SURFV
 70
     6
  9
$UCSBASE
  2

  9
$UCSNAME
  2

  9
$UCSORG
 10
0.0
 20
0.0
 30
0.0
  9
$UCSXDIR
 10
1.0
 20
0.0
 30
0.0
  9
$UCSYDIR
 10
0.0
 20
1.0
 30
0.0
  9
$UCSORTHOREF
  2

  9
$UCSORTHOVIEW
 70
     0
  9
$UCSORGTOP
 10
0.0
 20
0.0
 30
0.0
  9
$UCSORGBOTTOM
 10
0.0
 20
0.0
 30
0.0
  9
$UCSORGLEFT
 10
0.0
 20
0.0
 30
0.0
  9
$UCSORGRIGHT
 10
0.0
 20
0.0
 30
0.0
  9
$UCSORGFRONT
 10
0.0
 20
0.0
 30
0.0
  9
$UCSORGBACK
 10
0.0
 20
0.0
 30
0.0
  9
$PUCSBASE
  2

  9
$PUCSNAME
  2

  9
$PUCSORG
 10
0.0
 20
0.0
 30
0.0
  9
$PUCSXDIR
 10
1.0
 20
0.0
 30
0.0
  9
$PUCSYDIR
 10
0.0
 20
1.0
 30
0.0
  9
$PUCSORTHOREF
  2

  9
$PUCSORTHOVIEW
 70
     0
  9
$PUCSORGTOP
 10
0.0
 20
0.0
 30
0.0
  9
$PUCSORGBOTTOM
 10
0.0
 20
0.0
 30
0.0
  9
$PUCSORGLEFT
 10
0.0
 20
0.0
 30
0.0
  9
$PUCSORGRIGHT
 10
0.0
 20
0.0
 30
0.0
  9
$PUCSORGFRONT
 10
0.0
 20
0.0
 30
0.0
  9
$PUCSORGBACK
 10
0.0
 20
0.0
 30
0.0
  9
$USERI1
 70
     0
  9
$USERI2
 70
     0
  9
$USERI3
 70
     0
  9
$USERI4
 70
     0
  9
$USERI5
 70
     0
  9
$USERR1
 40
18.1
  9
$USERR2
 40
0.0
  9
$USERR3
 40
0.0
  9
$USERR4
 40
0.0
  9
$USERR5
 40
0.0
  9
$WORLDVIEW
 70
     1
  9
$SHADEDGE
 70
     3
  9
$SHADEDIF
 70
    70
  9
$TILEMODE
 70
     1
  9
$MAXACTVP
 70
    64
  9
$PINSBASE
 10
0.0
 20
0.0
 30
0.0
  9
$PLIMCHECK
 70
     0
  9
$PEXTMIN
 10
1.00000000000000E+20
 20
1.00000000000000E+20
 30
1.00000000000000E+20
  9
$PEXTMAX
 10
-1.00000000000000E+20
 20
-1.00000000000000E+20
 30
-1.00000000000000E+20
  9
$PLIMMIN
 10
0.0
 20
0.0
  9
$PLIMMAX
 10
12.0
 20
9.0
  9
$UNITMODE
 70
     0
  9
$VISRETAIN
 70
     1
  9
$PLINEGEN
 70
     0
  9
$PSLTSCALE
 70
     1
  9
$TREEDEPTH
 70
  3020
  9
$CMLSTYLE
  2
Standard
  9
$CMLJUST
 70
     0
  9
$CMLSCALE
 40
1.0
  9
$PROXYGRAPHICS
 70
     1
  9
$MEASUREMENT
 70
     1
  9
$CELWEIGHT
370
    -1
  9
$ENDCAPS
280
     0
  9
$JOINSTYLE
280
     0
  9
$LWDISPLAY
290
     0
  9
$INSUNITS
 70
     4
  9
$HYPERLINKBASE
  1

  9
$STYLESHEET
  1

  9
$XEDIT
290
     1
  9
$CEPSNTYPE
380
     0
  9
$PSTYLEMODE
290
     1
  9
$FINGERPRINTGUID
  2
{D937DDE1-1631-4A64-BAF5-8E0234E6E558}
  9
$VERSIONGUID
  2
{FAEB1C32-E019-11D5-929B-00C0DF256EC4}
  9
$EXTNAMES
290
     1
  9
$PSVPSCALE
 40
0.0
  9
$OLESTARTUP
290
     0
  0
ENDSEC
  0
SECTION
  2
CLASSES
  0
CLASS
  1
ACDBDICTIONARYWDFLT
  2
AcDbDictionaryWithDefault
  3
ObjectDBX Classes
 90
        0
280
     0
281
     0
  0
CLASS
  1
VISUALSTYLE
  2
AcDbVisualStyle
  3
ObjectDBX Classes
 90
     4095
280
     0
281
     0
  0
CLASS
  1
MATERIAL
  2
AcDbMaterial
  3
ObjectDBX Classes
 90
     1153
280
     0
281
     0
  0
CLASS
  1
DICTIONARYVAR
  2
AcDbDictionaryVar
  3
ObjectDBX Classes
 90
        0
280
     0
281
     0
  0
CLASS
  1
ACDBPLACEHOLDER
  2
AcDbPlaceHolder
  3
ObjectDBX Classes
 90
        0
280
     0
281
     0
  0
CLASS
  1
LAYOUT
  2
AcDbLayout
  3
ObjectDBX Classes
 90
        0
280
     0
281
     0
  0
ENDSEC
  0
SECTION
  2
TABLES
  0
TABLE
  2
VPORT
  5
8
330
0
100
AcDbSymbolTable
 70
     1
  0
VPORT
  5
29
330
8
100
AcDbSymbolTableRecord
100
AcDbViewportTableRecord
  2
*Active
 70
     0
 10
0.0
 20
0.0
 11
1.0
 21
1.0
 12
210.0
 22
297.0
 13
0.0
 23
0.0
 14
0.5
 24
0.5
 15
0.5
 25
0.5
 16
0.0
 26
0.0
 36
1.0
 17
0.0
 27
0.0
 37
0.0
 40
653.4000000000001
 41
1.60267857142857
 42
50.0
 43
0.0
 44
0.0
 50
0.0
 51
0.0
 71
     0
 72
   100
 73
     1
 74
     3
 75
     0
 76
     0
 77
     0
 78
     0
281
     0
 65
     1
110
0.0
120
0.0
130
0.0
111
1.0
121
0.0
131
0.0
112
0.0
122
1.0
132
0.0
 79
     0
146
0.0
  0
ENDTAB
  0
TABLE
  2
LTYPE
  5
5
330
0
100
AcDbSymbolTable
 70
     8
  0
LTYPE
  5
14
330
5
100
AcDbSymbolTableRecord
100
AcDbLinetypeTableRecord
  2
ByBlock
 70
     0
  3

 72
    65
 73
     0
 40
0.0
  0
LTYPE
  5
15
330
5
100
AcDbSymbolTableRecord
100
AcDbLinetypeTableRecord
  2
ByLayer
 70
     0
  3

 72
    65
 73
     0
 40
0.0
  0
LTYPE
  5
16
330
5
100
AcDbSymbolTableRecord
100
AcDbLinetypeTableRecord
  2
Continuous
 70
     0
  3
Solid line
 72
    65
 73
     0
 40
0.0
  0
LTYPE
  5
3F
330
5
100
AcDbSymbolTableRecord
100
AcDbLinetypeTableRecord
  2
DASHED
 70
     0
  3
Dashed
 72
    65
 73
     2
 40
15.0
 49
7.0
 74
     0
 49
-8.0
 74
     0
  0
LTYPE
  5
40
330
5
100
AcDbSymbolTableRecord
100
AcDbLinetypeTableRecord
  2
DOTTED
 70
     0
  3
Dotted
 72
    65
 73
     2
 40
1.0
 49
0.0
 74
     0
 49
-1.0
 74
     0
  0
LTYPE
  5
41
330
5
100
AcDbSymbolTableRecord
100
AcDbLinetypeTableRecord
  2
DOT_CENTER
 70
     0
  3
Dot_Center
 72
    65
 73
     4
 40
14.0
 49
12.0
 74
     0
 49
-1.0
 74
     0
 49
0.0
 74
     0
 49
-1.0
 74
     0
  0
LTYPE
  5
42
330
5
100
AcDbSymbolTableRecord
100
AcDbLinetypeTableRecord
  2
LONG_DASHED
 70
     0
  3
Long_Dashed
 72
    65
 73
     2
 40
15.0
 49
10.0
 74
     0
 49
-5.0
 74
     0
  0
LTYPE
  5
43
330
5
100
AcDbSymbolTableRecord
100
AcDbLinetypeTableRecord
  2
DASH_CENTER
 70
     0
  3
Dash_Center
 72
    65
 73
     4
 40
14.0
 49
11.0
 74
     0
 49
-1.0
 74
     0
 49
1.0
 74
     0
 49
-1.0
 74
     0
  0
LTYPE
  5
44
330
5
100
AcDbSymbolTableRecord
100
AcDbLinetypeTableRecord
  2
PHANTOM
 70
     0
  3
Phantom
 72
    65
 73
     6
 40
13.0
 49
10.0
 74
     0
 49
-1.0
 74
     0
 49
0.0
 74
     0
 49
-1.0
 74
     0
 49
0.0
 74
     0
 49
-1.0
 74
     0
  0
LTYPE
  5
45
330
5
100
AcDbSymbolTableRecord
100
AcDbLinetypeTableRecord
  2
CENTER_DASH_DASH
 70
     0
  3
Center_Dash_Dash
 72
    65
 73
     6
 40
14.0
 49
9.0
 74
     0
 49
-1.0
 74
     0
 49
1.0
 74
     0
 49
-1.0
 74
     0
 49
1.0
 74
     0
 49
-1.0
 74
     0
  0
ENDTAB
  0
TABLE
  2
LAYER
  5
2
330
0
100
AcDbSymbolTable
 70
     3
  0
LAYER
  5
10
330
2
100
AcDbSymbolTableRecord
100
AcDbLayerTableRecord
  2
0
 70
     0
 62
     7
  6
Continuous
370
    -3
390
F
  0
LAYER
  5
46
330
2
100
AcDbSymbolTableRecord
100
AcDbLayerTableRecord
  2
1
 70
     0
 62
     7
  6
Continuous
370
    -3
390
F
  0
LAYER
  5
47
330
2
100
AcDbSymbolTableRecord
100
AcDbLayerTableRecord
  2
LAYER_1
 70
     0
 62
     7
  6
Continuous
370
    -3
390
F
  0
ENDTAB
  0
TABLE
  2
STYLE
  5
3
330
0
100
AcDbSymbolTable
 70
     3
  0
STYLE
  5
11
330
3
100
AcDbSymbolTableRecord
100
AcDbTextStyleTableRecord
  2
Standard
 70
     0
 40
0.0
 41
1.0
 50
0.0
 71
     0
 42
0.2
  3
txt
  4

  0
STYLE
  5
97
330
3
100
AcDbSymbolTableRecord
100
AcDbTextStyleTableRecord
  2
CONVERTER_11
 70
     0
 40
0.0
 41
0.89
 50
0.0
 71
     0
 42
0.2
  3
MS Mincho.ttf
  4

1001
ACAD
1000
MS Mincho
1071
    32785
  0
STYLE
  5
696
330
3
100
AcDbSymbolTableRecord
100
AcDbTextStyleTableRecord
  2
CONVERTER_12
 70
     0
 40
0.0
 41
0.9
 50
0.0
 71
     0
 42
0.2
  3
txt.shx
  4

  0
ENDTAB
  0
TABLE
  2
VIEW
  5
6
330
0
100
AcDbSymbolTable
 70
     0
  0
ENDTAB
  0
TABLE
  2
UCS
  5
7
330
0
100
AcDbSymbolTable
 70
     0
  0
ENDTAB
  0
TABLE
  2
APPID
  5
9
330
0
100
AcDbSymbolTable
 70
     1
  0
APPID
  5
12
330
9
100
AcDbSymbolTableRecord
100
AcDbRegAppTableRecord
  2
ACAD
 70
     0
  0
ENDTAB
  0
TABLE
  2
DIMSTYLE
  5
A
330
0
100
AcDbSymbolTable
 70
     8
100
AcDbDimStyleTable
  0
DIMSTYLE
105
27
330
A
100
AcDbSymbolTableRecord
100
AcDbDimStyleTableRecord
  2
Standard
 70
     0
178
     0
340
11
  0
DIMSTYLE
105
6B0
102
{ACAD_REACTORS
330
6B1
102
}
330
A
100
AcDbSymbolTableRecord
100
AcDbDimStyleTableRecord
  2
ME10_DIM_10
 70
     0
  3
{\Fgdt;n}<>
 41
7.0
 42
0.0
 44
2.0
 73
     0
 74
     0
 77
     1
 78
     8
140
7.0
147
2.0
172
     1
173
     1
174
     1
175
     1
176
     2
177
     2
271
     2
178
     7
271
     2
340
696
  0
DIMSTYLE
105
6BB
102
{ACAD_REACTORS
330
6BC
102
}
330
A
100
AcDbSymbolTableRecord
100
AcDbDimStyleTableRecord
  2
ME10_DIM_11
 70
     0
  3
{\Fgdt;n}<>
 41
7.0
 42
0.0
 44
2.0
 73
     0
 74
     0
 77
     1
 78
     8
140
7.0
147
2.0
172
     1
173
     1
174
     1
175
     1
176
     2
177
     2
271
     2
178
     7
271
     2
340
696
  0
DIMSTYLE
105
6C6
102
{ACAD_REACTORS
330
6C7
102
}
330
A
100
AcDbSymbolTableRecord
100
AcDbDimStyleTableRecord
  2
ME10_DIM_12
 70
     0
 41
7.0
 42
0.0
 44
2.0
 73
     0
 74
     0
 77
     1
 78
     8
140
7.0
147
2.0
172
     1
173
     1
174
     1
175
     1
176
     2
177
     2
271
     2
178
     7
271
     2
340
696
  0
DIMSTYLE
105
6D1
102
{ACAD_REACTORS
330
6D2
102
}
330
A
100
AcDbSymbolTableRecord
100
AcDbDimStyleTableRecord
  2
ME10_DIM_13
 70
     0
 41
7.0
 42
0.0
 44
2.0
 73
     0
 74
     0
 77
     1
 78
     8
140
7.0
147
2.0
172
     1
173
     1
174
     1
175
     1
176
     2
177
     2
271
     2
178
     7
271
     2
340
696
  0
DIMSTYLE
105
6DC
102
{ACAD_REACTORS
330
6DD
102
}
330
A
100
AcDbSymbolTableRecord
100
AcDbDimStyleTableRecord
  2
ME10_DIM_14
 70
     0
 41
7.0
 42
0.0
 44
2.0
 73
     0
 74
     0
 77
     1
 78
     8
140
7.0
147
2.0
172
     1
173
     1
174
     1
175
     1
176
     2
177
     2
271
     2
178
     7
271
     2
340
696
  0
DIMSTYLE
105
6E7
102
{ACAD_REACTORS
330
6E8
102
}
330
A
100
AcDbSymbolTableRecord
100
AcDbDimStyleTableRecord
  2
ME10_DIM_15
 70
     0
 41
7.0
 42
0.0
 44
2.0
 73
     0
 74
     0
 77
     1
 78
     8
140
7.0
147
2.0
172
     1
173
     1
174
     1
175
     1
176
     2
177
     2
271
     2
178
     7
271
     2
340
696
  0
DIMSTYLE
105
6F2
102
{ACAD_REACTORS
330
6F3
102
}
330
A
100
AcDbSymbolTableRecord
100
AcDbDimStyleTableRecord
  2
ME10_DIM_16
 70
     0
 41
7.0
 42
0.0
 44
2.0
 73
     0
 74
     0
 77
     1
 78
     8
140
7.0
147
2.0
172
     1
173
     1
174
     1
175
     1
176
     2
177
     2
271
     2
178
     7
271
     2
340
696
  0
ENDTAB
  0
TABLE
  2
BLOCK_RECORD
  5
1
330
0
100
AcDbSymbolTable
 70
     9
  0
BLOCK_RECORD
  5
1F
330
1
100
AcDbSymbolTableRecord
100
AcDbBlockTableRecord
  2
*Model_Space
340
22
  0
BLOCK_RECORD
  5
1B
330
1
100
AcDbSymbolTableRecord
100
AcDbBlockTableRecord
  2
*Paper_Space
340
1E
  0
BLOCK_RECORD
  5
23
330
1
100
AcDbSymbolTableRecord
100
AcDbBlockTableRecord
  2
*Paper_Space0
340
26
  0
BLOCK_RECORD
  5
48
330
1
100
AcDbSymbolTableRecord
100
AcDbBlockTableRecord
  2
開示A4
340
0
102
{BLKREFS
331
4B
102
}
  0
BLOCK_RECORD
  5
6A7
330
1
100
AcDbSymbolTableRecord
100
AcDbBlockTableRecord
  2
*D2
340
0
  0
BLOCK_RECORD
  5
6B2
330
1
100
AcDbSymbolTableRecord
100
AcDbBlockTableRecord
  2
*D3
340
0
  0
BLOCK_RECORD
  5
6BD
330
1
100
AcDbSymbolTableRecord
100
AcDbBlockTableRecord
  2
*D4
340
0
  0
BLOCK_RECORD
  5
6C8
330
1
100
AcDbSymbolTableRecord
100
AcDbBlockTableRecord
  2
*D5
340
0
  0
BLOCK_RECORD
  5
6D3
330
1
100
AcDbSymbolTableRecord
100
AcDbBlockTableRecord
  2
*D6
340
0
  0
BLOCK_RECORD
  5
6DE
330
1
100
AcDbSymbolTableRecord
100
AcDbBlockTableRecord
  2
*D7
340
0
  0
BLOCK_RECORD
  5
6E9
330
1
100
AcDbSymbolTableRecord
100
AcDbBlockTableRecord
  2
*D8
340
0
  0
ENDTAB
  0
ENDSEC
  0
SECTION
  2
BLOCKS
  0
BLOCK
  5
20
330
1F
100
AcDbEntity
  8
0
100
AcDbBlockBegin
  2
*Model_Space
 70
     0
 10
0.0
 20
0.0
 30
0.0
  3
*Model_Space
  1

  0
ENDBLK
  5
21
330
1F
100
AcDbEntity
  8
0
100
AcDbBlockEnd
  0
BLOCK
  5
1C
330
1B
100
AcDbEntity
 67
     1
  8
0
100
AcDbBlockBegin
  2
*Paper_Space
 70
     0
 10
0.0
 20
0.0
 30
0.0
  3
*Paper_Space
  1

  0
ENDBLK
  5
1D
330
1B
100
AcDbEntity
 67
     1
  8
0
100
AcDbBlockEnd
  0
BLOCK
  5
24
330
23
100
AcDbEntity
  8
0
100
AcDbBlockBegin
  2
*Paper_Space0
 70
     0
 10
0.0
 20
0.0
 30
0.0
  3
*Paper_Space0
  1

  0
ENDBLK
  5
25
330
23
100
AcDbEntity
  8
0
100
AcDbBlockEnd
  0
BLOCK
  5
49
330
48
100
AcDbEntity
  8
0
100
AcDbBlockBegin
  2
開示A4
 70
     0
 10
0.0
 20
0.0
 30
0.0
  3
開示A4
  1

  0
POINT
  5
4C
330
48
100
AcDbEntity
  8
1
 62
     4
100
AcDbPoint
 10
34.0
 20
34.00000000000001
 30
0.0
  0
POINT
  5
4D
330
48
100
AcDbEntity
  8
1
 62
     4
100
AcDbPoint
 10
57.0
 20
12.25
 30
0.0
  0
POINT
  5
4E
330
48
100
AcDbEntity
  8
1
 62
     4
100
AcDbPoint
 10
57.0
 20
20.75000000000001
 30
0.0
  0
POINT
  5
4F
330
48
100
AcDbEntity
  8
1
 62
     4
100
AcDbPoint
 10
57.0
 20
24.75000000000001
 30
0.0
  0
POINT
  5
50
330
48
100
AcDbEntity
  8
1
 62
     4
100
AcDbPoint
 10
57.0
 20
16.25
 30
0.0
  0
POINT
  5
51
330
48
100
AcDbEntity
  8
1
 62
     4
100
AcDbPoint
 10
157.5
 20
19.00000000000001
 30
0.0
  0
POINT
  5
52
330
48
100
AcDbEntity
  8
1
 62
     4
100
AcDbPoint
 10
47.5
 20
282.0000000000003
 30
0.0
  0
POINT
  5
53
330
48
100
AcDbEntity
  8
1
 62
     4
100
AcDbPoint
 10
57.0
 20
22.75000000000001
 30
0.0
  0
POINT
  5
54
330
48
100
AcDbEntity
  8
1
 62
     4
100
AcDbPoint
 10
57.0
 20
14.25
 30
0.0
  0
POINT
  5
55
330
48
100
AcDbEntity
  8
1
 62
     4
100
AcDbPoint
 10
157.5
 20
12.5
 30
0.0
  0
POINT
  5
56
330
48
100
AcDbEntity
  8
1
 62
     4
100
AcDbPoint
 10
163.25
 20
12.5
 30
0.0
  0
POINT
  5
57
330
48
100
AcDbEntity
  8
1
 62
     4
100
AcDbPoint
 10
151.75
 20
12.5
 30
0.0
  0
POINT
  5
58
330
48
100
AcDbEntity
  8
1
 62
     4
100
AcDbPoint
 10
134.75
 20
12.5
 30
0.0
  0
POINT
  5
59
330
48
100
AcDbEntity
  8
1
 62
     4
100
AcDbPoint
 10
146.25
 20
12.5
 30
0.0
  0
POINT
  5
5A
330
48
100
AcDbEntity
  8
1
 62
     4
100
AcDbPoint
 10
140.5
 20
12.5
 30
0.0
  0
POINT
  5
5B
330
48
100
AcDbEntity
  8
1
 62
     4
100
AcDbPoint
 10
140.5
 20
19.00000000000001
 30
0.0
  0
POINT
  5
5C
330
48
100
AcDbEntity
  8
1
 62
     4
100
AcDbPoint
 10
117.75
 20
12.5
 30
0.0
  0
POINT
  5
5D
330
48
100
AcDbEntity
  8
1
 62
     4
100
AcDbPoint
 10
129.25
 20
12.5
 30
0.0
  0
POINT
  5
5E
330
48
100
AcDbEntity
  8
1
 62
     4
100
AcDbPoint
 10
123.5
 20
12.5
 30
0.0
  0
POINT
  5
5F
330
48
100
AcDbEntity
  8
1
 62
     4
100
AcDbPoint
 10
123.5
 20
19.00000000000001
 30
0.0
  0
POINT
  5
60
330
48
100
AcDbEntity
  8
1
 62
     4
100
AcDbPoint
 10
100.75
 20
12.5
 30
0.0
  0
POINT
  5
61
330
48
100
AcDbEntity
  8
1
 62
     4
100
AcDbPoint
 10
112.25
 20
12.5
 30
0.0
  0
POINT
  5
62
330
48
100
AcDbEntity
  8
1
 62
     4
100
AcDbPoint
 10
106.5
 20
12.5
 30
0.0
  0
POINT
  5
63
330
48
100
AcDbEntity
  8
1
 62
     4
100
AcDbPoint
 10
106.5
 20
19.00000000000001
 30
0.0
  0
POINT
  5
64
330
48
100
AcDbEntity
  8
1
 62
     4
100
AcDbPoint
 10
85.25
 20
17.0
 30
0.0
  0
POINT
  5
65
330
48
100
AcDbEntity
  8
1
 62
     4
100
AcDbPoint
 10
93.75
 20
17.0
 30
0.0
  0
LINE
  5
66
330
48
100
AcDbEntity
  8
1
  6
Continuous
 62
     2
100
AcDbLine
 10
81.0
 20
27.00000000000001
 30
0.0
 11
81.0
 21
10.0
 31
0.0
  0
LINE
  5
67
330
48
100
AcDbEntity
  8
1
  6
DOT_CENTER
 62
     2
100
AcDbLine
 10
187.0
 20
26.50000000000001
 30
0.0
 11
187.0
 21
20.50000000000001
 31
0.0
  0
LINE
  5
68
330
48
100
AcDbEntity
  8
1
  6
DOT_CENTER
 62
     2
100
AcDbLine
 10
184.0
 20
23.50000000000001
 30
0.0
 11
197.0
 21
23.50000000000001
 31
0.0
  0
LINE
  5
69
330
48
100
AcDbEntity
  8
1
  6
Continuous
 62
     7
100
AcDbLine
 10
196.0
 20
21.50000000000001
 30
0.0
 11
191.0
 21
22.30000000000001
 31
0.0
  0
LINE
  5
6A
330
48
100
AcDbEntity
  8
1
  6
Continuous
 62
     7
100
AcDbLine
 10
196.0
 20
25.50000000000001
 30
0.0
 11
196.0
 21
21.50000000000001
 31
0.0
  0
LINE
  5
6B
330
48
100
AcDbEntity
  8
1
  6
Continuous
 62
     7
100
AcDbLine
 10
191.0
 20
24.70000000000001
 30
0.0
 11
196.0
 21
25.50000000000001
 31
0.0
  0
LINE
  5
6C
330
48
100
AcDbEntity
  8
1
  6
Continuous
 62
     7
100
AcDbLine
 10
191.0
 20
24.70000000000001
 30
0.0
 11
191.0
 21
22.30000000000001
 31
0.0
  0
LINE
  5
6D
330
48
100
AcDbEntity
  8
1
  6
Continuous
 62
     2
100
AcDbLine
 10
33.0
 20
27.0
 30
0.0
 11
33.0
 21
10.0
 31
0.0
  0
LINE
  5
6E
330
48
100
AcDbEntity
  8
1
  6
Continuous
 62
     2
100
AcDbLine
 10
25.0
 20
18.50000000000001
 30
0.0
 11
81.0
 21
18.50000000000001
 31
0.0
  0
LINE
  5
6F
330
48
100
AcDbEntity
  8
1
  6
Continuous
 62
     7
100
AcDbLine
 10
200.0
 20
287.0000000000003
 30
0.0
 11
105.0
 21
287.0000000000003
 31
0.0
  0
LINE
  5
70
330
48
100
AcDbEntity
  8
1
  6
Continuous
 62
     7
100
AcDbLine
 10
200.0
 20
10.0
 30
0.0
 11
200.0
 21
148.5
 31
0.0
  0
LINE
  5
71
330
48
100
AcDbEntity
  8
1
  6
Continuous
 62
     7
100
AcDbLine
 10
25.0
 20
10.0
 30
0.0
 11
105.0
 21
10.0
 31
0.0
  0
LINE
  5
72
330
48
100
AcDbEntity
  8
1
  6
PHANTOM
 62
     4
100
AcDbLine
 10
0.0
 20
297.0
 30
0.0
 11
0.0
 21
0.0
 31
0.0
  0
LINE
  5
73
330
48
100
AcDbEntity
  8
1
  6
PHANTOM
 62
     4
100
AcDbLine
 10
210.0
 20
297.0
 30
0.0
 11
0.0
 21
297.0
 31
0.0
  0
LINE
  5
74
330
48
100
AcDbEntity
  8
1
  6
PHANTOM
 62
     4
100
AcDbLine
 10
210.0
 20
0.0
 30
0.0
 11
210.0
 21
297.0
 31
0.0
  0
LINE
  5
75
330
48
100
AcDbEntity
  8
1
  6
PHANTOM
 62
     4
100
AcDbLine
 10
0.0
 20
0.0
 30
0.0
 11
210.0
 21
0.0
 31
0.0
  0
LINE
  5
76
330
48
100
AcDbEntity
  8
1
  6
Continuous
 62
     7
100
AcDbLine
 10
25.0
 20
41.0
 30
0.0
 11
200.0
 21
41.0
 31
0.0
  0
LINE
  5
77
330
48
100
AcDbEntity
  8
1
  6
Continuous
 62
     7
100
AcDbLine
 10
200.0
 20
27.00000000000001
 30
0.0
 11
25.0
 21
27.00000000000001
 31
0.0
  0
LINE
  5
78
330
48
100
AcDbEntity
  8
1
  6
Continuous
 62
     2
100
AcDbLine
 10
33.0
 20
41.00000000000001
 30
0.0
 11
33.0
 21
27.0
 31
0.0
  0
LINE
  5
79
330
48
100
AcDbEntity
  8
1
  6
Continuous
 62
     2
100
AcDbLine
 10
55.0
 20
287.0000000000003
 30
0.0
 11
55.0
 21
277.0000000000003
 31
0.0
  0
LINE
  5
7A
330
48
100
AcDbEntity
  8
1
  6
Continuous
 62
     2
100
AcDbLine
 10
40.0
 20
287.0000000000003
 30
0.0
 11
40.0
 21
277.0000000000003
 31
0.0
  0
LINE
  5
7B
330
48
100
AcDbEntity
  8
1
  6
Continuous
 62
     7
100
AcDbLine
 10
25.0
 20
10.0
 30
0.0
 11
25.0
 21
148.5
 31
0.0
  0
LINE
  5
7C
330
48
100
AcDbEntity
  8
1
  6
Continuous
 62
     2
100
AcDbLine
 10
55.0
 20
277.0000000000003
 30
0.0
 11
25.0
 21
277.0000000000003
 31
0.0
  0
LINE
  5
7D
330
48
100
AcDbEntity
  8
1
  6
Continuous
 62
     2
100
AcDbLine
 10
166.0
 20
27.00000000000001
 30
0.0
 11
166.0
 21
10.0
 31
0.0
  0
LINE
  5
7E
330
48
100
AcDbEntity
  8
1
  6
Continuous
 62
     2
100
AcDbLine
 10
132.0
 20
27.00000000000001
 30
0.0
 11
132.0
 21
9.99999999999999
 31
0.0
  0
LINE
  5
7F
330
48
100
AcDbEntity
  8
1
  6
Continuous
 62
     2
100
AcDbLine
 10
149.0
 20
27.00000000000001
 30
0.0
 11
149.0
 21
10.0
 31
0.0
  0
LINE
  5
80
330
48
100
AcDbEntity
  8
1
  6
Continuous
 62
     2
100
AcDbLine
 10
115.0
 20
27.00000000000001
 30
0.0
 11
115.0
 21
9.99999999999999
 31
0.0
  0
LINE
  5
81
330
48
100
AcDbEntity
  8
1
  6
Continuous
 62
     2
100
AcDbLine
 10
98.0
 20
27.00000000000001
 30
0.0
 11
98.0
 21
9.99999999999999
 31
0.0
  0
LINE
  5
82
330
48
100
AcDbEntity
  8
1
  6
Continuous
 62
     2
100
AcDbLine
 10
166.0
 20
20.00000000000001
 30
0.0
 11
200.0
 21
20.00000000000001
 31
0.0
  0
LINE
  5
83
330
48
100
AcDbEntity
  8
1
  6
Continuous
 62
     2
100
AcDbLine
 10
105.0
 20
287.0000000000003
 30
0.0
 11
105.0
 21
292.0000000000003
 31
0.0
  0
LINE
  5
84
330
48
100
AcDbEntity
  8
1
  6
Continuous
 62
     7
100
AcDbLine
 10
105.0
 20
287.0000000000003
 30
0.0
 11
25.0
 21
287.0000000000003
 31
0.0
  0
LINE
  5
85
330
48
100
AcDbEntity
  8
1
  6
Continuous
 62
     2
100
AcDbLine
 10
25.0
 20
148.5
 30
0.0
 11
20.0
 21
148.5
 31
0.0
  0
LINE
  5
86
330
48
100
AcDbEntity
  8
1
  6
Continuous
 62
     7
100
AcDbLine
 10
25.0
 20
148.5
 30
0.0
 11
25.0
 21
287.0000000000003
 31
0.0
  0
LINE
  5
87
330
48
100
AcDbEntity
  8
1
  6
Continuous
 62
     2
100
AcDbLine
 10
200.0
 20
148.5
 30
0.0
 11
205.0
 21
148.5
 31
0.0
  0
LINE
  5
88
330
48
100
AcDbEntity
  8
1
  6
Continuous
 62
     7
100
AcDbLine
 10
200.0
 20
148.5
 30
0.0
 11
200.0
 21
287.0000000000003
 31
0.0
  0
LINE
  5
89
330
48
100
AcDbEntity
  8
1
  6
Continuous
 62
     2
100
AcDbLine
 10
105.0
 20
10.0
 30
0.0
 11
105.0
 21
5.0
 31
0.0
  0
LINE
  5
8A
330
48
100
AcDbEntity
  8
1
  6
Continuous
 62
     7
100
AcDbLine
 10
105.0
 20
10.0
 30
0.0
 11
200.0
 21
10.0
 31
0.0
  0
CIRCLE
  5
8B
330
48
100
AcDbEntity
  8
1
  6
DOT_CENTER
 62
     7
100
AcDbCircle
 10
89.5
 20
18.0
 30
0.0
 40
0.1000000000000227
  0
CIRCLE
  5
8C
330
48
100
AcDbEntity
  8
1
  6
DOT_CENTER
 62
     7
100
AcDbCircle
 10
89.5
 20
16.0
 30
0.0
 40
0.1000000000000227
  0
CIRCLE
  5
8D
330
48
100
AcDbEntity
  8
1
  6
Continuous
 62
     7
100
AcDbCircle
 10
187.0
 20
23.50000000000001
 30
0.0
 40
2.0
  0
CIRCLE
  5
8E
330
48
100
AcDbEntity
  8
1
  6
Continuous
 62
     7
100
AcDbCircle
 10
187.0
 20
23.50000000000001
 30
0.0
 40
1.200000000000102
  0
CIRCLE
  5
8F
330
48
100
AcDbEntity
  8
1
  6
Continuous
 62
     7
100
AcDbCircle
 10
154.5
 20
12.5
 30
0.0
 40
0.3000000000000114
  0
CIRCLE
  5
90
330
48
100
AcDbEntity
  8
1
  6
Continuous
 62
     7
100
AcDbCircle
 10
160.5
 20
12.5
 30
0.0
 40
0.3000000000000114
  0
CIRCLE
  5
91
330
48
100
AcDbEntity
  8
1
  6
Continuous
 62
     7
100
AcDbCircle
 10
143.5
 20
12.5
 30
0.0
 40
0.3000000000000114
  0
CIRCLE
  5
92
330
48
100
AcDbEntity
  8
1
  6
Continuous
 62
     7
100
AcDbCircle
 10
137.5
 20
12.5
 30
0.0
 40
0.3000000000000114
  0
CIRCLE
  5
93
330
48
100
AcDbEntity
  8
1
  6
Continuous
 62
     7
100
AcDbCircle
 10
126.5
 20
12.5
 30
0.0
 40
0.2999999999999972
  0
CIRCLE
  5
94
330
48
100
AcDbEntity
  8
1
  6
Continuous
 62
     7
100
AcDbCircle
 10
120.5
 20
12.5
 30
0.0
 40
0.2999999999999972
  0
CIRCLE
  5
95
330
48
100
AcDbEntity
  8
1
  6
Continuous
 62
     7
100
AcDbCircle
 10
109.5
 20
12.5
 30
0.0
 40
0.2999999999999972
  0
CIRCLE
  5
96
330
48
100
AcDbEntity
  8
1
  6
Continuous
 62
     7
100
AcDbCircle
 10
103.5
 20
12.5
 30
0.0
 40
0.2999999999999972
  0
MTEXT
  5
98
330
48
100
AcDbEntity
  8
1
 62
   250
100
AcDbMText
 10
25.0
 20
5.0
 30
0.0
 40
3.5
 41
0.0
 71
     4
 72
     1
  1
備考欄の文字列 原点位置=4
  7
CONVERTER_11
 73
     1
 44
0.54545454545455
  0
MTEXT
  5
99
330
48
100
AcDbEntity
  8
1
 62
     2
100
AcDbMText
 10
89.5
 20
24.00000000000001
 30
0.0
 40
3.5
 41
0.0
 71
     5
 72
     1
  1
尺度
  7
CONVERTER_11
 73
     1
 44
0.54545454545455
  0
MTEXT
  5
9A
330
48
100
AcDbEntity
  8
1
 62
     2
100
AcDbMText
 10
135.5
 20
25.00000000000001
 30
0.0
 40
3.0
 41
0.0
 71
     5
 72
     1
  1
製図
  7
CONVERTER_11
 73
     1
 44
0.59090909090909
  0
MTEXT
  5
9B
330
48
100
AcDbEntity
  8
1
 62
     2
100
AcDbMText
 10
152.5
 20
25.00000000000001
 30
0.0
 40
3.0
 41
0.0
 71
     5
 72
     1
  1
担当
  7
CONVERTER_11
 73
     1
 44
0.59090909090909
  0
MTEXT
  5
9C
330
48
100
AcDbEntity
  8
1
 62
     2
100
AcDbMText
 10
118.5
 20
25.00000000000001
 30
0.0
 40
3.0
 41
0.0
 71
     5
 72
     1
  1
検図
  7
CONVERTER_11
 73
     1
 44
0.59090909090909
  0
MTEXT
  5
9D
330
48
100
AcDbEntity
  8
1
 62
     2
100
AcDbMText
 10
175.0
 20
23.50000000000001
 30
0.0
 40
3.5
 41
0.0
 71
     5
 72
     1
  1
第三角法
  7
CONVERTER_11
 73
     1
 44
0.54545454545455
  0
MTEXT
  5
9E
330
48
100
AcDbEntity
  8
1
 62
     2
100
AcDbMText
 10
101.5
 20
25.00000000000001
 30
0.0
 40
3.0
 41
0.0
 71
     5
 72
     1
  1
承認
  7
CONVERTER_11
 73
     1
 44
0.59090909090909
  0
MTEXT
  5
9F
330
48
100
AcDbEntity
  8
1
 62
     2
100
AcDbMText
 10
29.0
 20
14.25
 30
0.0
 40
3.5
 41
0.0
 71
     5
 72
     1
  1
品番
  7
CONVERTER_11
 73
     1
 44
0.72727272727273
  0
MTEXT
  5
A0
330
48
100
AcDbEntity
  8
1
 62
     2
100
AcDbMText
 10
29.0
 20
22.75
 30
0.0
 40
3.5
 41
0.0
 71
     5
 72
     1
  1
品名
  7
CONVERTER_11
 73
     1
 44
0.72727272727273
  0
MTEXT
  5
A1
330
48
100
AcDbEntity
  8
1
 62
     2
100
AcDbMText
 10
29.0
 20
34.00000000000001
 30
0.0
 40
3.5
 41
0.0
 71
     5
 72
     1
  1
備考
  7
CONVERTER_11
 73
     1
 44
0.45454545454545
  0
MTEXT
  5
A2
330
48
100
AcDbEntity
  8
1
 62
     2
100
AcDbMText
 10
32.5
 20
282.0000000000003
 30
0.0
 40
5.0
 41
0.0
 71
     5
 72
     1
  1
図番
  7
CONVERTER_11
 73
     1
 44
0.45454545454545
  0
MTEXT
  5
A3
330
48
100
AcDbEntity
  8
1
 62
     7
100
AcDbMText
 10
171.5
 20
15.0
 30
0.0
 40
2.5
 41
0.0
 71
     5
 72
     1
  1
株式会社
  7
CONVERTER_11
 73
     1
 44
1.0
  0
MTEXT
  5
A4
330
48
100
AcDbEntity
  8
1
 62
     7
100
AcDbMText
 10
188.5
 20
15.0
 30
0.0
 40
3.0
 41
0.0
 71
     5
 72
     1
  1
三栄水栓製作所
  7
CONVERTER_11
 73
     1
 44
1.0
  0
ENDBLK
  5
4A
330
48
100
AcDbEntity
  8
0
100
AcDbBlockEnd
  0
BLOCK
  5
6AE
330
6A7
100
AcDbEntity
  8
0
100
AcDbBlockBegin
  2
*D2
 70
     1
 10
0.0
 20
0.0
 30
0.0
  3
*D2
  1

  0
LINE
  5
6A8
330
6A7
100
AcDbEntity
  8
1
  6
Continuous
 62
     2
100
AcDbLine
 10
225.5183984134904
 20
507.1133346366431
 30
0.0
 11
283.5183984134904
 21
507.1133346366431
 31
0.0
  0
LINE
  5
6A9
330
6A7
100
AcDbEntity
  8
1
  6
Continuous
 62
     2
100
AcDbLine
 10
225.5183984134904
 20
487.1421717370368
 30
0.0
 11
225.5183984134904
 21
509.1133346366431
 31
0.0
  0
LINE
  5
6AA
330
6A7
100
AcDbEntity
  8
1
  6
Continuous
 62
     2
100
AcDbLine
 10
283.5183984134904
 20
487.0844975362495
 30
0.0
 11
283.5183984134904
 21
509.1133346366431
 31
0.0
  0
SOLID
  5
6AB
330
6A7
100
AcDbEntity
  8
1
 62
     2
100
AcDbTrace
 10
232.5183984134904
 20
508.0349021197549
 30
0.0
 11
232.5183984134904
 21
506.1917671535314
 31
0.0
 12
225.5183984134904
 22
507.1133346366431
 32
0.0
 13
225.5183984134904
 23
507.1133346366431
 33
0.0
  0
SOLID
  5
6AC
330
6A7
100
AcDbEntity
  8
1
 62
     2
100
AcDbTrace
 10
276.5183984134904
 20
506.1917671535314
 30
0.0
 11
276.5183984134904
 21
508.0349021197549
 31
0.0
 12
283.5183984134904
 22
507.1133346366431
 32
0.0
 13
283.5183984134904
 23
507.1133346366431
 33
0.0
  0
MTEXT
  5
6AD
330
6A7
100
AcDbEntity
  8
1
 62
     7
100
AcDbMText
 10
247.7283984135073
 20
509.1133207224905
 30
0.0
 40
7.0
 41
0.0
 71
     7
 72
     1
  1
\C7;{\Fgdt;n}\C7;58
  7
CONVERTER_12
 11
0.9999999999970619
 21
2.424068405545306E-6
 31
0.0
 73
     1
 44
0.60024009603842
  0
ENDBLK
  5
6AF
330
6A7
100
AcDbEntity
  8
0
100
AcDbBlockEnd
  0
BLOCK
  5
6B9
330
6B2
100
AcDbEntity
  8
0
100
AcDbBlockBegin
  2
*D3
 70
     1
 10
0.0
 20
0.0
 30
0.0
  3
*D3
  1

  0
LINE
  5
6B3
330
6B2
100
AcDbEntity
  8
1
  6
Continuous
 62
     2
100
AcDbLine
 10
224.435692162776
 20
225.8776226200104
 30
0.0
 11
284.2356921627759
 21
225.8776226200104
 31
0.0
  0
LINE
  5
6B4
330
6B2
100
AcDbEntity
  8
1
  6
Continuous
 62
     2
100
AcDbLine
 10
224.435692162776
 20
245.8287745735996
 30
0.0
 11
224.435692162776
 21
223.8776226200104
 31
0.0
  0
LINE
  5
6B5
330
6B2
100
AcDbEntity
  8
1
  6
Continuous
 62
     2
100
AcDbLine
 10
284.2356921627759
 20
245.9259297829942
 30
0.0
 11
284.2356921627759
 21
223.8776226200104
 31
0.0
  0
SOLID
  5
6B6
330
6B2
100
AcDbEntity
  8
1
 62
     2
100
AcDbTrace
 10
231.435692162776
 20
226.7991901031222
 30
0.0
 11
231.435692162776
 21
224.9560551368986
 31
0.0
 12
224.435692162776
 22
225.8776226200104
 32
0.0
 13
224.435692162776
 23
225.8776226200104
 33
0.0
  0
SOLID
  5
6B7
330
6B2
100
AcDbEntity
  8
1
 62
     2
100
AcDbTrace
 10
277.2356921627759
 20
224.9560551368986
 30
0.0
 11
277.2356921627759
 21
226.7991901031222
 31
0.0
 12
284.2356921627759
 22
225.8776226200104
 32
0.0
 13
284.2356921627759
 23
225.8776226200104
 33
0.0
  0
MTEXT
  5
6B8
330
6B2
100
AcDbEntity
  8
1
 62
     7
100
AcDbMText
 10
243.3533984135073
 20
228.5776087058578
 30
0.0
 40
7.0
 41
0.0
 71
     7
 72
     1
  1
\C7;{\Fgdt;n}\C7;59,8
  7
CONVERTER_12
 11
0.9999999999970619
 21
2.424068405545306E-6
 31
0.0
 73
     1
 44
0.60024009603842
  0
ENDBLK
  5
6BA
330
6B2
100
AcDbEntity
  8
0
100
AcDbBlockEnd
  0
BLOCK
  5
6C4
330
6BD
100
AcDbEntity
  8
0
100
AcDbBlockBegin
  2
*D4
 70
     1
 10
0.0
 20
0.0
 30
0.0
  3
*D4
  1

  0
LINE
  5
6BE
330
6BD
100
AcDbEntity
  8
1
  6
Continuous
 62
     2
100
AcDbLine
 10
200.7637058097868
 20
442.5994645596315
 30
0.0
 11
200.7637058097868
 21
487.1451606941926
 31
0.0
  0
LINE
  5
6BF
330
6BD
100
AcDbEntity
  8
1
  6
Continuous
 62
     2
100
AcDbLine
 10
223.7919686280572
 20
442.5994645596315
 30
0.0
 11
198.7637058097868
 21
442.5994645596315
 31
0.0
  0
LINE
  5
6C0
330
6BD
100
AcDbEntity
  8
1
  6
Continuous
 62
     2
100
AcDbLine
 10
222.5125567603699
 20
487.1451606941926
 30
0.0
 11
198.7637058097868
 21
487.1451606941926
 31
0.0
  0
SOLID
  5
6C1
330
6BD
100
AcDbEntity
  8
1
 62
     2
100
AcDbTrace
 10
199.842138326675
 20
449.5994645596315
 30
0.0
 11
201.6852732928986
 21
449.5994645596315
 31
0.0
 12
200.7637058097868
 22
442.5994645596315
 32
0.0
 13
200.7637058097868
 23
442.5994645596315
 33
0.0
  0
SOLID
  5
6C2
330
6BD
100
AcDbEntity
  8
1
 62
     2
100
AcDbTrace
 10
201.6852732928986
 20
480.1451606941926
 30
0.0
 11
199.842138326675
 21
480.1451606941926
 31
0.0
 12
200.7637058097868
 22
487.1451606941926
 32
0.0
 13
200.7637058097868
 23
487.1451606941926
 33
0.0
  0
MTEXT
  5
6C3
330
6BD
100
AcDbEntity
  8
1
 62
     7
100
AcDbMText
 10
198.7637058097868
 20
459.6063995981373
 30
0.0
 40
7.0
 41
0.0
 71
     7
 72
     1
  1
45
  7
CONVERTER_12
 11
0.0
 21
1.0
 31
0.0
 73
     1
 44
0.60024009603842
  0
ENDBLK
  5
6C5
330
6BD
100
AcDbEntity
  8
0
100
AcDbBlockEnd
  0
BLOCK
  5
6CF
330
6C8
100
AcDbEntity
  8
0
100
AcDbBlockBegin
  2
*D5
 70
     1
 10
0.0
 20
0.0
 30
0.0
  3
*D5
  1

  0
LINE
  5
6C9
330
6C8
100
AcDbEntity
  8
1
  6
Continuous
 62
     2
100
AcDbLine
 10
200.7637058097868
 20
333.1607347582495
 30
0.0
 11
200.7637058097868
 21
442.5994645596315
 31
0.0
  0
LINE
  5
6CA
330
6C8
100
AcDbEntity
  8
1
  6
Continuous
 62
     2
100
AcDbLine
 10
223.7919686280572
 20
442.5994645596315
 30
0.0
 11
198.7637058097868
 21
442.5994645596315
 31
0.0
  0
LINE
  5
6CB
330
6C8
100
AcDbEntity
  8
1
  6
Continuous
 62
     2
100
AcDbLine
 10
223.843806224074
 20
333.1607347582495
 30
0.0
 11
198.7637058097868
 21
333.1607347582495
 31
0.0
  0
SOLID
  5
6CC
330
6C8
100
AcDbEntity
  8
1
 62
     2
100
AcDbTrace
 10
199.842138326675
 20
340.1607347582495
 30
0.0
 11
201.6852732928986
 21
340.1607347582495
 31
0.0
 12
200.7637058097868
 22
333.1607347582495
 32
0.0
 13
200.7637058097868
 23
333.1607347582495
 33
0.0
  0
SOLID
  5
6CD
330
6C8
100
AcDbEntity
  8
1
 62
     2
100
AcDbTrace
 10
201.6852732928986
 20
435.5994645596315
 30
0.0
 11
199.842138326675
 21
435.5994645596315
 31
0.0
 12
200.7637058097868
 22
442.5994645596315
 32
0.0
 13
200.7637058097868
 23
442.5994645596315
 33
0.0
  0
MTEXT
  5
6CE
330
6C8
100
AcDbEntity
  8
1
 62
     7
100
AcDbMText
 10
198.7637058097868
 20
385.6050996589405
 30
0.0
 40
7.0
 41
0.0
 71
     7
 72
     1
  1
B
  7
CONVERTER_12
 11
0.0
 21
1.0
 31
0.0
 73
     1
 44
0.60024009603842
  0
ENDBLK
  5
6D0
330
6C8
100
AcDbEntity
  8
0
100
AcDbBlockEnd
  0
BLOCK
  5
6DA
330
6D3
100
AcDbEntity
  8
0
100
AcDbBlockBegin
  2
*D6
 70
     1
 10
0.0
 20
0.0
 30
0.0
  3
*D6
  1

  0
LINE
  5
6D4
330
6D3
100
AcDbEntity
  8
1
  6
Continuous
 62
     2
100
AcDbLine
 10
200.7637058097868
 20
333.1607347582494
 30
0.0
 11
200.7637058097868
 21
284.1990568299037
 31
0.0
  0
LINE
  5
6D5
330
6D3
100
AcDbEntity
  8
1
  6
Continuous
 62
     2
100
AcDbLine
 10
223.8435020452736
 20
333.1607347582494
 30
0.0
 11
198.7637058097868
 21
333.1607347582494
 31
0.0
  0
LINE
  5
6D6
330
6D3
100
AcDbEntity
  8
1
  6
Continuous
 62
     2
100
AcDbLine
 10
222.6693818874793
 20
284.1990568299037
 30
0.0
 11
198.7637058097868
 21
284.1990568299037
 31
0.0
  0
SOLID
  5
6D7
330
6D3
100
AcDbEntity
  8
1
 62
     2
100
AcDbTrace
 10
201.6852732928986
 20
326.1607347582494
 30
0.0
 11
199.842138326675
 21
326.1607347582494
 31
0.0
 12
200.7637058097868
 22
333.1607347582494
 32
0.0
 13
200.7637058097868
 23
333.1607347582494
 33
0.0
  0
SOLID
  5
6D8
330
6D3
100
AcDbEntity
  8
1
 62
     2
100
AcDbTrace
 10
199.842138326675
 20
291.1990568299037
 30
0.0
 11
201.6852732928986
 21
291.1990568299037
 31
0.0
 12
200.7637058097868
 22
284.1990568299037
 32
0.0
 13
200.7637058097868
 23
284.1990568299037
 33
0.0
  0
MTEXT
  5
6D9
330
6D3
100
AcDbEntity
  8
1
 62
     7
100
AcDbMText
 10
198.7637058097868
 20
303.4298957940766
 30
0.0
 40
7.0
 41
0.0
 71
     7
 72
     1
  1
45
  7
CONVERTER_12
 11
0.0
 21
1.0
 31
0.0
 73
     1
 44
0.60024009603842
  0
ENDBLK
  5
6DB
330
6D3
100
AcDbEntity
  8
0
100
AcDbBlockEnd
  0
BLOCK
  5
6E5
330
6DE
100
AcDbEntity
  8
0
100
AcDbBlockBegin
  2
*D7
 70
     1
 10
0.0
 20
0.0
 30
0.0
  3
*D7
  1

  0
LINE
  5
6DF
330
6DE
100
AcDbEntity
  8
1
  6
Continuous
 62
     2
100
AcDbLine
 10
184.7637058097868
 20
284.1990568299038
 30
0.0
 11
184.7637058097868
 21
245.8287745735996
 31
0.0
  0
LINE
  5
6E0
330
6DE
100
AcDbEntity
  8
1
  6
Continuous
 62
     2
100
AcDbLine
 10
222.6693818874793
 20
284.1990568299038
 30
0.0
 11
182.7637058097868
 21
284.1990568299038
 31
0.0
  0
LINE
  5
6E1
330
6DE
100
AcDbEntity
  8
1
  6
Continuous
 62
     2
100
AcDbLine
 10
224.435692162776
 20
245.8287745735996
 30
0.0
 11
182.7637058097868
 21
245.8287745735996
 31
0.0
  0
SOLID
  5
6E2
330
6DE
100
AcDbEntity
  8
1
 62
     2
100
AcDbTrace
 10
185.6852732928986
 20
277.1990568299038
 30
0.0
 11
183.842138326675
 21
277.1990568299038
 31
0.0
 12
184.7637058097868
 22
284.1990568299038
 32
0.0
 13
184.7637058097868
 23
284.1990568299038
 33
0.0
  0
SOLID
  5
6E3
330
6DE
100
AcDbEntity
  8
1
 62
     2
100
AcDbTrace
 10
183.842138326675
 20
252.8287745735996
 30
0.0
 11
185.6852732928986
 21
252.8287745735996
 31
0.0
 12
184.7637058097868
 22
245.8287745735996
 32
0.0
 13
184.7637058097868
 23
245.8287745735996
 33
0.0
  0
MTEXT
  5
6E4
330
6DE
100
AcDbEntity
  8
1
 62
     7
100
AcDbMText
 10
182.7637058097868
 20
259.7883529226961
 30
0.0
 40
7.0
 41
0.0
 71
     7
 72
     1
  1
40
  7
CONVERTER_12
 11
0.0
 21
1.0
 31
0.0
 73
     1
 44
0.60024009603842
  0
ENDBLK
  5
6E6
330
6DE
100
AcDbEntity
  8
0
100
AcDbBlockEnd
  0
BLOCK
  5
6F0
330
6E9
100
AcDbEntity
  8
0
100
AcDbBlockBegin
  2
*D8
 70
     1
 10
0.0
 20
0.0
 30
0.0
  3
*D8
  1

  0
LINE
  5
6EA
330
6E9
100
AcDbEntity
  8
1
  6
Continuous
 62
     2
100
AcDbLine
 10
184.7637058097868
 20
487.1453423379043
 30
0.0
 11
184.7637058097868
 21
284.1990568299038
 31
0.0
  0
LINE
  5
6EB
330
6E9
100
AcDbEntity
  8
1
  6
Continuous
 62
     2
100
AcDbLine
 10
222.6693818874793
 20
284.1990568299038
 30
0.0
 11
182.7637058097868
 21
284.1990568299038
 31
0.0
  0
LINE
  5
6EC
330
6E9
100
AcDbEntity
  8
1
  6
Continuous
 62
     2
100
AcDbLine
 10
222.5125938180994
 20
487.1453423379043
 30
0.0
 11
182.7637058097868
 21
487.1453423379043
 31
0.0
  0
SOLID
  5
6ED
330
6E9
100
AcDbEntity
  8
1
 62
     2
100
AcDbTrace
 10
185.6852732928986
 20
480.1453423379043
 30
0.0
 11
183.842138326675
 21
480.1453423379043
 31
0.0
 12
184.7637058097868
 22
487.1453423379043
 32
0.0
 13
184.7637058097868
 23
487.1453423379043
 33
0.0
  0
SOLID
  5
6EE
330
6E9
100
AcDbEntity
  8
1
 62
     2
100
AcDbTrace
 10
183.842138326675
 20
291.1990568299038
 30
0.0
 11
185.6852732928986
 21
291.1990568299038
 31
0.0
 12
184.7637058097868
 22
284.1990568299038
 32
0.0
 13
184.7637058097868
 23
284.1990568299038
 33
0.0
  0
MTEXT
  5
6EF
330
6E9
100
AcDbEntity
  8
1
 62
     7
100
AcDbMText
 10
182.7637058097868
 20
382.8561957332735
 30
0.0
 40
7.0
 41
0.0
 71
     7
 72
     1
  1
A
  7
CONVERTER_12
 11
0.0
 21
1.0
 31
0.0
 73
     1
 44
0.60024009603842
  0
ENDBLK
  5
6F1
330
6E9
100
AcDbEntity
  8
0
100
AcDbBlockEnd
  0
ENDSEC
  0
SECTION
  2
ENTITIES
  0
INSERT
  5
4B
330
1F
100
AcDbEntity
  8
1
100
AcDbBlockReference
  2
開示A4
 10
0.0
 20
0.0
 30
0.0
 41
2.0
 42
2.0
 43
2.0
  0
LINE
  5
A8
330
1F
100
AcDbEntity
  8
LAYER_1
  6
Continuous
 62
     7
100
AcDbLine
 10
285.1407287353453
 20
301.2465417215134
 30
0.0
 11
285.1407287353453
 21
299.9475766809855
 31
0.0
  0
LINE
  5
A9
330
1F
100
AcDbEntity
  8
LAYER_1
  6
Continuous
 62
     7
100
AcDbLine
 10
284.6967088301063
 20
299.712606712688
 30
0.0
 11
284.6967088301063
 21
301.7228089921987
 31
0.0
  0
LINE
  5
AA
330
1F
100
AcDbEntity
  8
LAYER_1
  6
Continuous
 62
     7
100
AcDbLine
 10
283.9917989252141
 20
301.7238240546907
 30
0.0
 11
224.1290109725362
 21
301.7744108256908
 31
0.0
  0
LINE
  5
AB
330
1F
100
AcDbEntity
  8
LAYER_1
  6
Continuous
 62
     7
100
AcDbLine
 10
283.9705623252398
 20
304.4889027558198
 30
0.0
 11
224.3116813962193
 21
304.5527003243798
 31
0.0
  0
LINE
  5
AD
330
1F
100
AcDbEntity
  8
LAYER_1
  6
Continuous
 62
     7
100
AcDbLine
 10
284.1510419341263
 20
467.2278496888432
 30
0.0
 11
283.31323455657
 21
467.2323173154022
 31
0.0
  0
LINE
  5
AE
330
1F
100
AcDbEntity
  8
LAYER_1
  6
Continuous
 62
     7
100
AcDbLine
 10
283.31323455657
 20
467.2323173154022
 30
0.0
 11
224.804079498409
 21
467.54431869196
 31
0.0
  0
LINE
  5
AF
330
1F
100
AcDbEntity
  8
LAYER_1
  6
Continuous
 62
     7
100
AcDbLine
 10
283.31323455657
 20
469.740605348779
 30
0.0
 11
224.804079498409
 21
469.7654971870678
 31
0.0
  0
LINE
  5
B1
330
1F
100
AcDbEntity
  8
LAYER_1
  6
Continuous
 62
     7
100
AcDbLine
 10
285.2452549371633
 20
475.9789703828572
 30
0.0
 11
285.2189106342628
 21
475.9789703828572
 31
0.0
  0
LINE
  5
B2
330
1F
100
AcDbEntity
  8
LAYER_1
  6
Continuous
 62
     7
100
AcDbLine
 10
284.8275781014779
 20
475.7440016479071
 30
0.0
 11
284.8012337985769
 21
475.7440016479071
 31
0.0
  0
LINE
  5
B3
330
1F
100
AcDbEntity
  8
LAYER_1
  6
Continuous
 62
     7
100
AcDbLine
 10
285.2452549371633
 20
477.277934005272
 30
0.0
 11
285.2452549371633
 21
475.9789703828572
 31
0.0
  0
LINE
  5
B4
330
1F
100
AcDbEntity
  8
LAYER_1
  6
Continuous
 62
     7
100
AcDbLine
 10
284.2297499771673
 20
477.7551050526071
 30
0.0
 11
224.6230235533048
 21
477.805498094773
 31
0.0
  0
LINE
  5
B5
330
1F
100
AcDbEntity
  8
LAYER_1
  6
Continuous
 62
     7
100
AcDbLine
 10
284.132071388077
 20
479.9147766442137
 30
0.0
 11
224.783483703285
 21
479.7893404363587
 31
0.0
  0
LINE
  5
B8
330
1F
100
AcDbEntity
  8
LAYER_1
  6
Continuous
 62
     7
100
AcDbLine
 10
224.783483703285
 20
479.7893404363587
 30
0.0
 11
224.6877167099475
 21
479.7891380280293
 31
0.0
  0
LINE
  5
B9
330
1F
100
AcDbEntity
  8
LAYER_1
  6
Continuous
 62
     7
100
AcDbLine
 10
224.6230235533048
 20
477.805498094773
 30
0.0
 11
223.4261293883883
 21
477.806509979534
 31
0.0
  0
LINE
  5
BA
330
1F
100
AcDbEntity
  8
LAYER_1
  6
Continuous
 62
     7
100
AcDbLine
 10
224.804079498409
 20
469.7654971870678
 30
0.0
 11
223.4261293883883
 21
469.7660834151764
 31
0.0
  0
LINE
  5
BB
330
1F
100
AcDbEntity
  8
LAYER_1
  6
Continuous
 62
     7
100
AcDbLine
 10
224.804079498409
 20
467.54431869196
 30
0.0
 11
224.804079498409
 21
467.4556988426342
 31
0.0
  0
LINE
  5
BC
330
1F
100
AcDbEntity
  8
LAYER_1
  6
Continuous
 62
     7
100
AcDbLine
 10
224.1290109725362
 20
301.7744108256908
 30
0.0
 11
223.3479474894708
 21
301.7750708597605
 31
0.0
  0
LINE
  5
BD
330
1F
100
AcDbEntity
  8
LAYER_1
  6
Continuous
 62
     7
100
AcDbLine
 10
224.2878261293129
 20
293.7334344560308
 30
0.0
 11
223.3220286914625
 21
293.7338387035196
 31
0.0
  0
LINE
  5
BE
330
1F
100
AcDbEntity
  8
LAYER_1
  6
Continuous
 62
     7
100
AcDbLine
 10
224.2878261293129
 20
291.9680654720262
 30
0.0
 11
224.2615326721441
 21
291.968079374029
 31
0.0
  0
LINE
  5
BF
330
1F
100
AcDbEntity
  8
LAYER_1
  6
Continuous
 62
     7
100
AcDbLine
 10
222.6693818874793
 20
284.1990568299038
 30
0.0
 11
222.6693818874793
 21
284.3579962689037
 31
0.0
  0
LINE
  5
C0
330
1F
100
AcDbEntity
  8
LAYER_1
  6
Continuous
 62
     7
100
AcDbLine
 10
283.5183984134904
 20
487.0844975362495
 30
0.0
 11
225.5183984134904
 21
487.1421717370368
 31
0.0
  0
LINE
  5
C1
330
1F
100
AcDbEntity
  8
LAYER_1
  6
Continuous
 62
     7
100
AcDbLine
 10
225.5183984134904
 20
487.1421717370368
 30
0.0
 11
222.5125567603699
 21
487.1451606941926
 31
0.0
  0
LINE
  5
C2
330
1F
100
AcDbEntity
  8
1
  6
DASH_CENTER
 62
     2
100
AcDbLine
 10
254.5183984134904
 20
240.0601143241349
 30
0.0
 11
254.5183984134904
 21
493.678856736839
 31
0.0
  0
LINE
  5
549
330
1F
100
AcDbEntity
  8
LAYER_1
  6
Continuous
 62
     7
100
AcDbLine
 10
224.804079498409
 20
469.7654971870678
 30
0.0
 11
224.804079498409
 21
467.54431869196
 31
0.0
  0
LINE
  5
54A
330
1F
100
AcDbEntity
  8
LAYER_1
  6
Continuous
 62
     7
100
AcDbLine
 10
284.8275781014779
 20
471.8022032593477
 30
0.0
 11
284.8275781014779
 21
469.739961094139
 31
0.0
  0
LINE
  5
54B
330
1F
100
AcDbEntity
  8
LAYER_1
  6
Continuous
 62
     7
100
AcDbLine
 10
284.8012337985769
 20
475.7440016479071
 30
0.0
 11
284.8012337985769
 21
477.7542026940704
 31
0.0
  0
LINE
  5
54C
330
1F
100
AcDbEntity
  8
LAYER_1
  6
Continuous
 62
     7
100
AcDbLine
 10
223.4261293883883
 20
477.806509979534
 30
0.0
 11
223.4261293883883
 21
469.7660834151764
 31
0.0
  0
LINE
  5
54D
330
1F
100
AcDbEntity
  8
LAYER_1
  6
Continuous
 62
     7
100
AcDbLine
 10
285.3756987036426
 20
469.7397279044889
 30
0.0
 11
283.31323455657
 21
469.740605348779
 31
0.0
  0
LINE
  5
54E
330
1F
100
AcDbEntity
  8
LAYER_1
  6
Continuous
 62
     7
100
AcDbLine
 10
285.2452549371633
 20
477.7542465188922
 30
0.0
 11
284.2297499771673
 21
477.7551050526071
 31
0.0
  0
LINE
  5
54F
330
1F
100
AcDbEntity
  8
LAYER_1
  6
Continuous
 62
     7
100
AcDbLine
 10
285.9760824067164
 20
471.0450314868944
 30
0.0
 11
285.3756987036426
 21
470.157415947961
 31
0.0
  0
LINE
  5
550
330
1F
100
AcDbEntity
  8
LAYER_1
  6
Continuous
 62
     7
100
AcDbLine
 10
285.8970293918007
 20
476.4695822810825
 30
0.0
 11
285.2452549371633
 21
477.277934005272
 31
0.0
  0
LINE
  5
551
330
1F
100
AcDbEntity
  8
LAYER_1
  6
Continuous
 62
     7
100
AcDbLine
 10
280.0240829719938
 20
475.9267085152954
 30
0.0
 11
279.9977399024407
 21
475.9267085152954
 31
0.0
  0
LINE
  5
552
330
1F
100
AcDbEntity
  8
LAYER_1
  6
Continuous
 62
     7
100
AcDbLine
 10
279.4755368649369
 20
475.9267085152954
 30
0.0
 11
280.0240829719938
 21
475.9267085152954
 31
0.0
  0
LINE
  5
553
330
1F
100
AcDbEntity
  8
LAYER_1
  6
Continuous
 62
     7
100
AcDbLine
 10
279.4755368649369
 20
475.9267085152954
 30
0.0
 11
279.4496180669284
 21
475.9267085152954
 31
0.0
  0
LINE
  5
554
330
1F
100
AcDbEntity
  8
LAYER_1
  6
Continuous
 62
     7
100
AcDbLine
 10
279.2146493319785
 20
471.7240225937779
 30
0.0
 11
279.4755368649369
 21
475.9267085152954
 31
0.0
  0
LINE
  5
555
330
1F
100
AcDbEntity
  8
LAYER_1
  6
Continuous
 62
     7
100
AcDbLine
 10
279.7368511361349
 20
471.7240225937779
 30
0.0
 11
279.7105068332342
 21
471.7240225937779
 31
0.0
  0
LINE
  5
556
330
1F
100
AcDbEntity
  8
LAYER_1
  6
Continuous
 62
     7
100
AcDbLine
 10
280.0240829719938
 20
475.9267085152954
 30
0.0
 11
279.7368511361349
 21
471.7240225937779
 31
0.0
  0
LINE
  5
557
330
1F
100
AcDbEntity
  8
LAYER_1
  6
Continuous
 62
     7
100
AcDbLine
 10
281.1203254096712
 20
475.9267085152954
 30
0.0
 11
281.0944066116627
 21
475.9267085152954
 31
0.0
  0
LINE
  5
558
330
1F
100
AcDbEntity
  8
LAYER_1
  6
Continuous
 62
     7
100
AcDbLine
 10
280.5722048075061
 20
475.9267085152954
 30
0.0
 11
281.1203254096712
 21
475.9267085152954
 31
0.0
  0
LINE
  5
559
330
1F
100
AcDbEntity
  8
LAYER_1
  6
Continuous
 62
     7
100
AcDbLine
 10
280.5722048075061
 20
475.9267085152954
 30
0.0
 11
280.5458605046055
 21
475.9267085152954
 31
0.0
  0
LINE
  5
55A
330
1F
100
AcDbEntity
  8
LAYER_1
  6
Continuous
 62
     7
100
AcDbLine
 10
280.3108905363081
 20
471.7240225937779
 30
0.0
 11
280.5722048075061
 21
475.9267085152954
 31
0.0
  0
LINE
  5
55B
330
1F
100
AcDbEntity
  8
LAYER_1
  6
Continuous
 62
     7
100
AcDbLine
 10
280.8594366433653
 20
471.7240225937779
 30
0.0
 11
280.8330935738121
 21
471.7240225937779
 31
0.0
  0
LINE
  5
55C
330
1F
100
AcDbEntity
  8
LAYER_1
  6
Continuous
 62
     7
100
AcDbLine
 10
281.1203254096712
 20
475.9267085152954
 30
0.0
 11
280.8594366433653
 21
471.7240225937779
 31
0.0
  0
LINE
  5
55D
330
1F
100
AcDbEntity
  8
LAYER_1
  6
Continuous
 62
     7
100
AcDbLine
 10
282.0602040495132
 20
475.9267085152954
 30
0.0
 11
282.0338597466123
 21
475.9267085152954
 31
0.0
  0
LINE
  5
55E
330
1F
100
AcDbEntity
  8
LAYER_1
  6
Continuous
 62
     7
100
AcDbLine
 10
281.5120834473482
 20
475.9267085152954
 30
0.0
 11
282.0602040495132
 21
475.9267085152954
 31
0.0
  0
LINE
  5
55F
330
1F
100
AcDbEntity
  8
LAYER_1
  6
Continuous
 62
     7
100
AcDbLine
 10
281.5120834473482
 20
475.9267085152954
 30
0.0
 11
281.4857391444476
 21
475.9267085152954
 31
0.0
  0
LINE
  5
560
330
1F
100
AcDbEntity
  8
LAYER_1
  6
Continuous
 62
     7
100
AcDbLine
 10
281.2507691761502
 20
471.7240225937779
 30
0.0
 11
281.5120834473482
 21
475.9267085152954
 31
0.0
  0
LINE
  5
561
330
1F
100
AcDbEntity
  8
LAYER_1
  6
Continuous
 62
     7
100
AcDbLine
 10
281.7729722136542
 20
471.7240225937779
 30
0.0
 11
281.7470534156457
 21
471.7240225937779
 31
0.0
  0
LINE
  5
562
330
1F
100
AcDbEntity
  8
LAYER_1
  6
Continuous
 62
     7
100
AcDbLine
 10
282.0602040495132
 20
475.9267085152954
 30
0.0
 11
281.7729722136542
 21
471.7240225937779
 31
0.0
  0
LINE
  5
563
330
1F
100
AcDbEntity
  8
LAYER_1
  6
Continuous
 62
     7
100
AcDbLine
 10
282.5037996832072
 20
475.900789717287
 30
0.0
 11
282.4778808851988
 21
475.900789717287
 31
0.0
  0
LINE
  5
564
330
1F
100
AcDbEntity
  8
LAYER_1
  6
Continuous
 62
     7
100
AcDbLine
 10
282.2429109169014
 20
471.6976782908771
 30
0.0
 11
282.5037996832072
 21
475.900789717287
 31
0.0
  0
LINE
  5
565
330
1F
100
AcDbEntity
  8
LAYER_1
  6
Continuous
 62
     7
100
AcDbLine
 10
282.7651127210579
 20
471.6976782908771
 30
0.0
 11
282.7387696515046
 21
471.6976782908771
 31
0.0
  0
LINE
  5
566
330
1F
100
AcDbEntity
  8
LAYER_1
  6
Continuous
 62
     7
100
AcDbLine
 10
283.0523457902644
 20
475.900789717287
 30
0.0
 11
282.7651127210579
 21
471.6976782908771
 31
0.0
  0
LINE
  5
567
330
1F
100
AcDbEntity
  8
LAYER_1
  6
Continuous
 62
     7
100
AcDbLine
 10
277.596205090145
 20
469.6874760113664
 30
0.0
 11
277.5698607872442
 21
469.6874760113664
 31
0.0
  0
LINE
  5
568
330
1F
100
AcDbEntity
  8
LAYER_1
  6
Continuous
 62
     7
100
AcDbLine
 10
277.3348908189467
 20
473.7337993683964
 30
0.0
 11
277.3089720209384
 21
473.7337993683964
 31
0.0
  0
LINE
  5
569
330
1F
100
AcDbEntity
  8
LAYER_1
  6
Continuous
 62
     7
100
AcDbLine
 10
284.8275781014779
 20
471.854466360257
 30
0.0
 11
284.8012337985769
 21
471.854466360257
 31
0.0
  0
LINE
  5
56A
330
1F
100
AcDbEntity
  8
LAYER_1
  6
Continuous
 62
     7
100
AcDbLine
 10
285.3756987036426
 20
471.4367895245712
 30
0.0
 11
284.8275781014779
 21
471.854466360257
 31
0.0
  0
LINE
  5
56B
330
1F
100
AcDbEntity
  8
LAYER_1
  6
Continuous
 62
     7
100
AcDbLine
 10
285.3756987036426
 20
471.4367895245712
 30
0.0
 11
285.3493544007419
 21
471.4367895245712
 31
0.0
  0
LINE
  5
56C
330
1F
100
AcDbEntity
  8
LAYER_1
  6
Continuous
 62
     7
100
AcDbLine
 10
285.3756987036426
 20
469.7397279044889
 30
0.0
 11
285.3756987036426
 21
471.4367895245712
 31
0.0
  0
LINE
  5
56D
330
1F
100
AcDbEntity
  8
LAYER_1
  6
Continuous
 62
     7
100
AcDbLine
 10
285.2452549371633
 20
475.9789703828572
 30
0.0
 11
284.8275781014779
 21
475.7440016479071
 31
0.0
  0
LINE
  5
56E
330
1F
100
AcDbEntity
  8
LAYER_1
  6
Continuous
 62
     7
100
AcDbLine
 10
285.2452549371633
 20
477.7542465188922
 30
0.0
 11
285.2452549371633
 21
477.277934005272
 31
0.0
  0
LINE
  5
56F
330
1F
100
AcDbEntity
  8
LAYER_1
  6
Continuous
 62
     7
100
AcDbLine
 10
224.2878261293129
 20
293.7334344560308
 30
0.0
 11
224.2878261293129
 21
291.9680654720262
 31
0.0
  0
LINE
  5
570
330
1F
100
AcDbEntity
  8
LAYER_1
  6
Continuous
 62
     7
100
AcDbLine
 10
283.7309113922557
 20
293.7085537543408
 30
0.0
 11
283.7309113922557
 21
291.9370431125664
 31
0.0
  0
LINE
  5
571
330
1F
100
AcDbEntity
  8
LAYER_1
  6
Continuous
 62
     7
100
AcDbLine
 10
284.7230518996595
 20
295.8226471534929
 30
0.0
 11
284.7230518996595
 21
293.7079199055116
 31
0.0
  0
LINE
  5
572
330
1F
100
AcDbEntity
  8
LAYER_1
  6
Continuous
 62
     7
100
AcDbLine
 10
223.3220286914625
 20
293.6820011075032
 30
0.0
 11
223.2956843885616
 21
293.6820011075032
 31
0.0
  0
LINE
  5
573
330
1F
100
AcDbEntity
  8
LAYER_1
  6
Continuous
 62
     7
100
AcDbLine
 10
223.3220286914625
 20
301.7750708597605
 30
0.0
 11
223.3220286914625
 21
293.6820011075032
 31
0.0
  0
LINE
  5
574
330
1F
100
AcDbEntity
  8
LAYER_1
  6
Continuous
 62
     7
100
AcDbLine
 10
223.3220286914625
 20
293.7338387035196
 30
0.0
 11
223.2956843885616
 21
293.7338387035196
 31
0.0
  0
LINE
  5
575
330
1F
100
AcDbEntity
  8
LAYER_1
  6
Continuous
 62
     7
100
AcDbLine
 10
285.2728746634073
 20
293.7079083449042
 30
0.0
 11
283.7309113922557
 21
293.7085537543408
 31
0.0
  0
LINE
  5
576
330
1F
100
AcDbEntity
  8
LAYER_1
  6
Continuous
 62
     7
100
AcDbLine
 10
223.3479474894708
 20
301.7750708597605
 30
0.0
 11
223.3220286914625
 21
301.7750708597605
 31
0.0
  0
LINE
  5
577
330
1F
100
AcDbEntity
  8
LAYER_1
  6
Continuous
 62
     7
100
AcDbLine
 10
285.1407287353453
 20
301.7228531568894
 30
0.0
 11
283.9917989252141
 21
301.7238240546907
 31
0.0
  0
LINE
  5
578
330
1F
100
AcDbEntity
  8
LAYER_1
  6
Continuous
 62
     7
100
AcDbLine
 10
285.8715574382458
 20
295.0132135134778
 30
0.0
 11
285.2711737351718
 21
294.1260222460892
 31
0.0
  0
LINE
  5
579
330
1F
100
AcDbEntity
  8
LAYER_1
  6
Continuous
 62
     7
100
AcDbLine
 10
285.7896990297903
 20
300.4416650599146
 30
0.0
 11
285.1407287353453
 21
301.2465417215134
 31
0.0
  0
LINE
  5
57A
330
1F
100
AcDbEntity
  8
LAYER_1
  6
Continuous
 62
     7
100
AcDbLine
 10
279.9193458677509
 20
299.8953135800763
 30
0.0
 11
279.8932137006224
 21
299.8953135800763
 31
0.0
  0
LINE
  5
57B
330
1F
100
AcDbEntity
  8
LAYER_1
  6
Continuous
 62
     7
100
AcDbLine
 10
279.3712240322384
 20
299.8953135800763
 30
0.0
 11
279.9193458677509
 21
299.8953135800763
 31
0.0
  0
LINE
  5
57C
330
1F
100
AcDbEntity
  8
LAYER_1
  6
Continuous
 62
     7
100
AcDbLine
 10
279.3712240322384
 20
299.8953135800763
 30
0.0
 11
279.3450930984577
 21
299.8953135800763
 31
0.0
  0
LINE
  5
57D
330
1F
100
AcDbEntity
  8
LAYER_1
  6
Continuous
 62
     7
100
AcDbLine
 10
279.0839921963794
 20
295.6917778821216
 30
0.0
 11
279.3712240322384
 21
299.8953135800763
 31
0.0
  0
LINE
  5
57E
330
1F
100
AcDbEntity
  8
LAYER_1
  6
Continuous
 62
     7
100
AcDbLine
 10
279.6321127985443
 20
295.6917778821216
 30
0.0
 11
279.6061940005358
 21
295.6917778821216
 31
0.0
  0
LINE
  5
57F
330
1F
100
AcDbEntity
  8
LAYER_1
  6
Continuous
 62
     7
100
AcDbLine
 10
279.9193458677509
 20
299.8953135800763
 30
0.0
 11
279.6321127985443
 21
295.6917778821216
 31
0.0
  0
LINE
  5
580
330
1F
100
AcDbEntity
  8
LAYER_1
  6
Continuous
 62
     7
100
AcDbLine
 10
281.0158004412003
 20
299.8953135800763
 30
0.0
 11
280.9898816431918
 21
299.8953135800763
 31
0.0
  0
LINE
  5
581
330
1F
100
AcDbEntity
  8
LAYER_1
  6
Continuous
 62
     7
100
AcDbLine
 10
280.4676786056879
 20
299.8953135800763
 30
0.0
 11
281.0158004412003
 21
299.8953135800763
 31
0.0
  0
LINE
  5
582
330
1F
100
AcDbEntity
  8
LAYER_1
  6
Continuous
 62
     7
100
AcDbLine
 10
280.4676786056879
 20
299.8953135800763
 30
0.0
 11
280.4417598076796
 21
299.8953135800763
 31
0.0
  0
LINE
  5
583
330
1F
100
AcDbEntity
  8
LAYER_1
  6
Continuous
 62
     7
100
AcDbLine
 10
280.2065777036098
 20
295.6917778821216
 30
0.0
 11
280.4676786056879
 21
299.8953135800763
 31
0.0
  0
LINE
  5
584
330
1F
100
AcDbEntity
  8
LAYER_1
  6
Continuous
 62
     7
100
AcDbLine
 10
280.7285673719938
 20
295.6917778821216
 30
0.0
 11
280.7026485739853
 21
295.6917778821216
 31
0.0
  0
LINE
  5
585
330
1F
100
AcDbEntity
  8
LAYER_1
  6
Continuous
 62
     7
100
AcDbLine
 10
281.0158004412003
 20
299.8953135800763
 30
0.0
 11
280.7285673719938
 21
295.6917778821216
 31
0.0
  0
LINE
  5
586
330
1F
100
AcDbEntity
  8
LAYER_1
  6
Continuous
 62
     7
100
AcDbLine
 10
281.9556790810422
 20
299.8953135800763
 30
0.0
 11
281.9297602830339
 21
299.8953135800763
 31
0.0
  0
LINE
  5
587
330
1F
100
AcDbEntity
  8
LAYER_1
  6
Continuous
 62
     7
100
AcDbLine
 10
281.4075572455301
 20
299.8953135800763
 30
0.0
 11
281.9556790810422
 21
299.8953135800763
 31
0.0
  0
LINE
  5
588
330
1F
100
AcDbEntity
  8
LAYER_1
  6
Continuous
 62
     7
100
AcDbLine
 10
281.4075572455301
 20
299.8953135800763
 30
0.0
 11
281.3812141759768
 21
299.8953135800763
 31
0.0
  0
LINE
  5
589
330
1F
100
AcDbEntity
  8
LAYER_1
  6
Continuous
 62
     7
100
AcDbLine
 10
281.1203254096712
 20
295.6917778821216
 30
0.0
 11
281.4075572455301
 21
299.8953135800763
 31
0.0
  0
LINE
  5
58A
330
1F
100
AcDbEntity
  8
LAYER_1
  6
Continuous
 62
     7
100
AcDbLine
 10
281.6684460118357
 20
295.6917778821216
 30
0.0
 11
281.6425272138274
 21
295.6917778821216
 31
0.0
  0
LINE
  5
58B
330
1F
100
AcDbEntity
  8
LAYER_1
  6
Continuous
 62
     7
100
AcDbLine
 10
281.9556790810422
 20
299.8953135800763
 30
0.0
 11
281.6684460118357
 21
295.6917778821216
 31
0.0
  0
LINE
  5
58C
330
1F
100
AcDbEntity
  8
LAYER_1
  6
Continuous
 62
     7
100
AcDbLine
 10
282.3996989862813
 20
299.8693947820678
 30
0.0
 11
282.3733559167279
 21
299.8693947820678
 31
0.0
  0
LINE
  5
58D
330
1F
100
AcDbEntity
  8
LAYER_1
  6
Continuous
 62
     7
100
AcDbLine
 10
282.1124671504222
 20
295.6658590841131
 30
0.0
 11
282.3996989862813
 21
299.8693947820678
 31
0.0
  0
LINE
  5
58E
330
1F
100
AcDbEntity
  8
LAYER_1
  6
Continuous
 62
     7
100
AcDbLine
 10
282.6605877525871
 20
295.6658590841131
 30
0.0
 11
282.6346689545786
 21
295.6658590841131
 31
0.0
  0
LINE
  5
58F
330
1F
100
AcDbEntity
  8
LAYER_1
  6
Continuous
 62
     7
100
AcDbLine
 10
282.9478208217936
 20
299.8693947820678
 30
0.0
 11
282.6605877525871
 21
295.6658590841131
 31
0.0
  0
LINE
  5
590
330
1F
100
AcDbEntity
  8
LAYER_1
  6
Continuous
 62
     7
100
AcDbLine
 10
277.4914667525542
 20
293.6556580379498
 30
0.0
 11
277.4653358187734
 21
293.6556580379498
 31
0.0
  0
LINE
  5
591
330
1F
100
AcDbEntity
  8
LAYER_1
  6
Continuous
 62
     7
100
AcDbLine
 10
277.2303658504762
 20
297.7019801616323
 30
0.0
 11
277.2044470524677
 21
297.7019801616323
 31
0.0
  0
LINE
  5
592
330
1F
100
AcDbEntity
  8
LAYER_1
  6
Continuous
 62
     7
100
AcDbLine
 10
285.2452549371633
 20
295.4053958226995
 30
0.0
 11
284.7230518996595
 21
295.8226471534929
 31
0.0
  0
LINE
  5
593
330
1F
100
AcDbEntity
  8
LAYER_1
  6
Continuous
 62
     7
100
AcDbLine
 10
285.2728746634073
 20
293.7079083449042
 30
0.0
 11
285.2452549371633
 21
295.4053958226995
 31
0.0
  0
LINE
  5
594
330
1F
100
AcDbEntity
  8
LAYER_1
  6
Continuous
 62
     7
100
AcDbLine
 10
285.1407287353453
 20
299.9475766809855
 30
0.0
 11
284.6967088301063
 21
299.712606712688
 31
0.0
  0
LINE
  5
595
330
1F
100
AcDbEntity
  8
LAYER_1
  6
Continuous
 62
     7
100
AcDbLine
 10
285.1407287353453
 20
301.7228531568894
 30
0.0
 11
285.1407287353453
 21
301.2465417215134
 31
0.0
  0
LINE
  5
596
330
1F
100
AcDbEntity
  8
LAYER_1
  6
Continuous
 62
     7
100
AcDbLine
 10
222.6693818874793
 20
280.5207240821623
 30
0.0
 11
222.6693818874793
 21
284.1990568299038
 31
0.0
  0
LINE
  5
597
330
1F
100
AcDbEntity
  8
LAYER_1
  6
Continuous
 62
     7
100
AcDbLine
 10
224.435692162776
 20
280.493107965985
 30
0.0
 11
222.6693818874793
 21
280.5207240821623
 31
0.0
  0
LINE
  5
598
330
1F
100
AcDbEntity
  8
LAYER_1
  6
Continuous
 62
     7
100
AcDbLine
 10
224.435692162776
 20
245.8287745735996
 30
0.0
 11
224.435692162776
 21
280.493107965985
 31
0.0
  0
LINE
  5
599
330
1F
100
AcDbEntity
  8
LAYER_1
  6
Continuous
 62
     7
100
AcDbLine
 10
284.2356921627759
 20
245.9259297829942
 30
0.0
 11
224.435692162776
 21
245.8287745735996
 31
0.0
  0
LINE
  5
59A
330
1F
100
AcDbEntity
  8
LAYER_1
  6
Continuous
 62
     7
100
AcDbLine
 10
284.2356921627759
 20
280.5207240821623
 30
0.0
 11
284.2356921627759
 21
245.9259297829942
 31
0.0
  0
LINE
  5
59B
330
1F
100
AcDbEntity
  8
LAYER_1
  6
Continuous
 62
     7
100
AcDbLine
 10
286.0283455076257
 20
280.5207240821623
 30
0.0
 11
284.2356921627759
 21
280.5207240821623
 31
0.0
  0
LINE
  5
59C
330
1F
100
AcDbEntity
  8
LAYER_1
  6
Continuous
 62
     7
100
AcDbLine
 10
286.0283455076257
 20
284.1357729471639
 30
0.0
 11
286.0283455076257
 21
280.5207240821623
 31
0.0
  0
LINE
  5
59D
330
1F
100
AcDbEntity
  8
LAYER_1
  6
Continuous
 62
     7
100
AcDbLine
 10
221.6508970771748
 20
392.7629440507639
 30
0.0
 11
221.6249782791665
 21
392.762944050764
 31
0.0
  0
LINE
  5
59E
330
1F
100
AcDbEntity
  8
LAYER_1
  6
Continuous
 62
     7
100
AcDbLine
 10
227.1856439477566
 20
389.4236544230454
 30
0.0
 11
221.6508970771748
 21
392.3278461814419
 31
0.0
  0
LINE
  5
59F
330
1F
100
AcDbEntity
  8
LAYER_1
  6
Continuous
 62
     7
100
AcDbLine
 10
227.1856439477566
 20
389.4236544230454
 30
0.0
 11
227.1593008782034
 21
389.4236544230454
 31
0.0
  0
LINE
  5
5A0
330
1F
100
AcDbEntity
  8
LAYER_1
  6
Continuous
 62
     7
100
AcDbLine
 10
221.6772413800757
 20
383.0913707825691
 30
0.0
 11
221.6508970771748
 21
383.0913707825691
 31
0.0
  0
LINE
  5
5A1
330
1F
100
AcDbEntity
  8
LAYER_1
  6
Continuous
 62
     7
100
AcDbLine
 10
227.1856439477566
 20
386.3146616098935
 30
0.0
 11
221.6772413800757
 21
383.381364083512
 31
0.0
  0
LINE
  5
5A2
330
1F
100
AcDbEntity
  8
LAYER_1
  6
Continuous
 62
     7
100
AcDbLine
 10
284.3001968112559
 20
479.9151319857029
 30
0.0
 11
284.132071388077
 21
479.9147766442137
 31
0.0
  0
LINE
  5
5A3
330
1F
100
AcDbEntity
  8
LAYER_1
  6
Continuous
 62
     7
100
AcDbLine
 10
223.843806224074
 20
285.9432979963385
 30
0.0
 11
223.8178874260656
 21
285.9432979963385
 31
0.0
  0
LINE
  5
5A4
330
1F
100
AcDbEntity
  8
LAYER_1
  6
Continuous
 62
     7
100
AcDbLine
 10
285.1153179906948
 20
285.8801484346675
 30
0.0
 11
223.843806224074
 21
285.9432979963385
 31
0.0
  0
LINE
  5
5A5
330
1F
100
AcDbEntity
  8
LAYER_1
  6
Continuous
 62
     7
100
AcDbLine
 10
283.9917989252141
 20
304.4888800459831
 30
0.0
 11
283.9705623252398
 21
304.4889027558198
 31
0.0
  0
LINE
  5
5A6
330
1F
100
AcDbEntity
  8
LAYER_1
  6
Continuous
 62
     7
100
AcDbLine
 10
287.2291129137736
 20
348.0806728376046
 30
0.0
 11
287.2031941157651
 21
348.0806728376046
 31
0.0
  0
LINE
  5
5A7
330
1F
100
AcDbEntity
  8
LAYER_1
  6
Continuous
 62
     7
100
AcDbLine
 10
223.8180519398673
 20
290.8577988890133
 30
0.0
 11
224.2615326721441
 21
291.968079374029
 31
0.0
  0
LINE
  5
5A8
330
1F
100
AcDbEntity
  8
LAYER_1
  6
Continuous
 62
     7
100
AcDbLine
 10
285.0376231043882
 20
291.1426894211679
 30
0.0
 11
283.7309113922557
 21
291.9370431125664
 31
0.0
  0
LINE
  5
5A9
330
1F
100
AcDbEntity
  8
LAYER_1
  6
Continuous
 62
     7
100
AcDbLine
 10
222.6953006854876
 20
284.3579962689037
 30
0.0
 11
222.6693818874793
 21
284.3579962689037
 31
0.0
  0
LINE
  5
5AA
330
1F
100
AcDbEntity
  8
LAYER_1
  6
Continuous
 62
     7
100
AcDbLine
 10
286.0283455076257
 20
284.1357729471639
 30
0.0
 11
286.0020012047249
 21
284.1357729471639
 31
0.0
  0
LINE
  5
5AB
330
1F
100
AcDbEntity
  8
LAYER_1
  6
Continuous
 62
     7
100
AcDbLine
 10
222.6693818874793
 20
284.1990568299038
 30
0.0
 11
286.0283455076257
 21
284.1357729471639
 31
0.0
  0
LINE
  5
5AC
330
1F
100
AcDbEntity
  8
LAYER_1
  6
Continuous
 62
     7
100
AcDbLine
 10
285.1153179906948
 20
285.8801484346675
 30
0.0
 11
285.0376231043882
 21
291.1426894211679
 31
0.0
  0
LINE
  5
5AD
330
1F
100
AcDbEntity
  8
LAYER_1
  6
Continuous
 62
     7
100
AcDbLine
 10
223.843806224074
 20
285.7529419076678
 30
0.0
 11
223.8178874260656
 21
285.7529419076678
 31
0.0
  0
LINE
  5
5AE
330
1F
100
AcDbEntity
  8
LAYER_1
  6
Continuous
 62
     7
100
AcDbLine
 10
223.8180519398673
 20
290.8577988890133
 30
0.0
 11
223.843806224074
 21
285.7529419076678
 31
0.0
  0
LINE
  5
5AF
330
1F
100
AcDbEntity
  8
LAYER_1
  6
Continuous
 62
     7
100
AcDbLine
 10
283.9917989252141
 20
301.7238240546907
 30
0.0
 11
283.9917989252141
 21
304.4888800459831
 31
0.0
  0
LINE
  5
5B0
330
1F
100
AcDbEntity
  8
LAYER_1
  6
Continuous
 62
     7
100
AcDbLine
 10
224.1290109725362
 20
301.7744108256908
 30
0.0
 11
224.3116813962193
 21
304.5527003243798
 31
0.0
  0
LINE
  5
5B1
330
1F
100
AcDbEntity
  8
LAYER_1
  6
Continuous
 62
     7
100
AcDbLine
 10
283.7309113922557
 20
291.9366364387362
 30
0.0
 11
224.2878261293129
 21
291.9680654720262
 31
0.0
  0
LINE
  5
5B2
330
1F
100
AcDbEntity
  8
LAYER_1
  6
Continuous
 62
     7
100
AcDbLine
 10
283.31323455657
 20
467.2323173154022
 30
0.0
 11
283.31323455657
 21
469.740605348779
 31
0.0
  0
LINE
  5
5B3
330
1F
100
AcDbEntity
  8
LAYER_1
  6
Continuous
 62
     7
100
AcDbLine
 10
223.739705527148
 20
485.1474624334064
 30
0.0
 11
223.7133612242473
 21
485.1474624334064
 31
0.0
  0
LINE
  5
5B4
330
1F
100
AcDbEntity
  8
LAYER_1
  6
Continuous
 62
     7
100
AcDbLine
 10
286.3414961414931
 20
487.0816902965046
 30
0.0
 11
283.5183984134904
 21
487.0844975362495
 31
0.0
  0
LINE
  5
5B5
330
1F
100
AcDbEntity
  8
LAYER_1
  6
Continuous
 62
     7
100
AcDbLine
 10
223.739705527148
 20
485.1474624334064
 30
0.0
 11
223.739705527148
 21
480.4457320406571
 31
0.0
  0
LINE
  5
5B6
330
1F
100
AcDbEntity
  8
LAYER_1
  6
Continuous
 62
     7
100
AcDbLine
 10
223.739705527148
 20
480.4457320406571
 30
0.0
 11
224.783483703285
 21
479.7893404363587
 31
0.0
  0
LINE
  5
5B7
330
1F
100
AcDbEntity
  8
LAYER_1
  6
Continuous
 62
     7
100
AcDbLine
 10
224.804079498409
 20
467.4556988426342
 30
0.0
 11
223.7656243251565
 21
466.8470199524548
 31
0.0
  0
LINE
  5
5B8
330
1F
100
AcDbEntity
  8
LAYER_1
  6
Continuous
 62
     7
100
AcDbLine
 10
285.0102177572582
 20
466.6885745166197
 30
0.0
 11
284.1510419341263
 21
467.2278496888432
 31
0.0
  0
LINE
  5
5B9
330
1F
100
AcDbEntity
  8
LAYER_1
  6
Continuous
 62
     7
100
AcDbLine
 10
224.6230235533048
 20
477.805498094773
 30
0.0
 11
224.6877167099475
 21
479.7891380280293
 31
0.0
  0
LINE
  5
5BA
330
1F
100
AcDbEntity
  8
LAYER_1
  6
Continuous
 62
     7
100
AcDbLine
 10
284.2297499771673
 20
477.7551050526071
 30
0.0
 11
284.3001968112559
 21
479.9151319857029
 31
0.0
  0
LINE
  5
5BB
330
1F
100
AcDbEntity
  8
LAYER_1
  6
Continuous
 62
     7
100
AcDbLine
 10
284.132071388077
 20
479.9147766442137
 30
0.0
 11
285.1929918362543
 21
480.5812744657594
 31
0.0
  0
LINE
  5
5BC
330
1F
100
AcDbEntity
  8
LAYER_1
  6
Continuous
 62
     7
100
AcDbLine
 10
285.1929918362543
 20
480.5812744657594
 30
0.0
 11
285.1929918362543
 21
485.6862354947623
 31
0.0
  0
LINE
  5
5BD
330
1F
100
AcDbEntity
  8
LAYER_1
  6
Continuous
 62
     7
100
AcDbLine
 10
280.8594366433653
 20
340.6062575984944
 30
0.0
 11
280.8330935738121
 21
340.6062575984944
 31
0.0
  0
LINE
  5
5BE
330
1F
100
AcDbEntity
  8
LAYER_1
  6
Continuous
 62
     7
100
AcDbLine
 10
280.8594366433653
 20
337.846957039357
 30
0.0
 11
280.8594366433653
 21
340.6062575984944
 31
0.0
  0
LINE
  5
5BF
330
1F
100
AcDbEntity
  8
LAYER_1
  6
Continuous
 62
     7
100
AcDbLine
 10
281.7988910116625
 20
336.294372321428
 30
0.0
 11
281.7729722136542
 21
336.294372321428
 31
0.0
  0
LINE
  5
5C0
330
1F
100
AcDbEntity
  8
LAYER_1
  6
Continuous
 62
     7
100
AcDbLine
 10
283.7309113922557
 20
335.3748883160786
 30
0.0
 11
281.7988910116625
 21
336.294372321428
 31
0.0
  0
LINE
  5
5C1
330
1F
100
AcDbEntity
  8
LAYER_1
  6
Continuous
 62
     7
100
AcDbLine
 10
281.7470534156457
 20
342.1307984606487
 30
0.0
 11
281.7207091127449
 21
342.1307984606487
 31
0.0
  0
LINE
  5
5C2
330
1F
100
AcDbEntity
  8
LAYER_1
  6
Continuous
 62
     7
100
AcDbLine
 10
287.2550317117821
 20
345.0043970339584
 30
0.0
 11
281.7470534156457
 21
342.1307984606487
 31
0.0
  0
LINE
  5
5C3
330
1F
100
AcDbEntity
  8
LAYER_1
  6
Continuous
 62
     7
100
AcDbLine
 10
285.1143856657919
 20
333.1909024384441
 30
0.0
 11
285.1668053059433
 21
306.0111000584099
 31
0.0
  0
LINE
  5
5C4
330
1F
100
AcDbEntity
  8
LAYER_1
  6
Continuous
 62
     7
100
AcDbLine
 10
285.0615486452639
 20
442.4807066793313
 30
0.0
 11
285.0102177572582
 21
466.6885745166197
 31
0.0
  0
LINE
  5
5C5
330
1F
100
AcDbEntity
  8
LAYER_1
  6
Continuous
 62
     7
100
AcDbLine
 10
281.7470534156457
 20
439.408465236921
 30
0.0
 11
281.7207091127449
 21
439.408465236921
 31
0.0
  0
LINE
  5
5C6
330
1F
100
AcDbEntity
  8
LAYER_1
  6
Continuous
 62
     7
100
AcDbLine
 10
283.6786482913466
 20
440.3283735138148
 30
0.0
 11
281.7470534156457
 21
439.408465236921
 31
0.0
  0
LINE
  5
5C7
330
1F
100
AcDbEntity
  8
LAYER_1
  6
Continuous
 62
     7
100
AcDbLine
 10
223.7656243251565
 20
466.8470199524548
 30
0.0
 11
223.7915274734094
 21
442.7715486048812
 31
0.0
  0
LINE
  5
5C8
330
1F
100
AcDbEntity
  8
LAYER_1
  6
Continuous
 62
     7
100
AcDbLine
 10
225.1754429015934
 20
440.4719906650918
 30
0.0
 11
225.1490985986926
 21
440.4719906650918
 31
0.0
  0
LINE
  5
5C9
330
1F
100
AcDbEntity
  8
LAYER_1
  6
Continuous
 62
     7
100
AcDbLine
 10
225.1754429015934
 20
440.4719906650918
 30
0.0
 11
225.1490985986926
 21
440.4719906650918
 31
0.0
  0
LINE
  5
5CA
330
1F
100
AcDbEntity
  8
LAYER_1
  6
Continuous
 62
     7
100
AcDbLine
 10
227.1070377772943
 20
439.5236130275305
 30
0.0
 11
225.1754429015934
 21
440.4719906650918
 31
0.0
  0
LINE
  5
5CB
330
1F
100
AcDbEntity
  8
LAYER_1
  6
Continuous
 62
     7
100
AcDbLine
 10
227.1070377772943
 20
439.5236130275305
 30
0.0
 11
227.081118979286
 21
439.5236130275305
 31
0.0
  0
LINE
  5
5CC
330
1F
100
AcDbEntity
  8
LAYER_1
  6
Continuous
 62
     7
100
AcDbLine
 10
228.020997619128
 20
437.999709806041
 30
0.0
 11
227.9946545495748
 21
437.999709806041
 31
0.0
  0
LINE
  5
5CD
330
1F
100
AcDbEntity
  8
LAYER_1
  6
Continuous
 62
     7
100
AcDbLine
 10
228.0469164171364
 20
435.2117277504637
 30
0.0
 11
228.020997619128
 21
437.999709806041
 31
0.0
  0
LINE
  5
5CE
330
1F
100
AcDbEntity
  8
LAYER_1
  6
Continuous
 62
     7
100
AcDbLine
 10
228.0469164171364
 20
435.2117277504637
 30
0.0
 11
228.020997619128
 21
435.2117277504637
 31
0.0
  0
LINE
  5
5CF
330
1F
100
AcDbEntity
  8
LAYER_1
  6
Continuous
 62
     7
100
AcDbLine
 10
221.6249782791665
 20
430.8129506743354
 30
0.0
 11
221.5990594811582
 21
430.8129506743354
 31
0.0
  0
LINE
  5
5D0
330
1F
100
AcDbEntity
  8
LAYER_1
  6
Continuous
 62
     7
100
AcDbLine
 10
227.1593008782034
 20
433.6876123932021
 30
0.0
 11
221.6249782791665
 21
430.8129506743354
 31
0.0
  0
LINE
  5
5D1
330
1F
100
AcDbEntity
  8
LAYER_1
  6
Continuous
 62
     7
100
AcDbLine
 10
221.6508970771748
 20
427.7662061435662
 30
0.0
 11
221.6249782791665
 21
427.7662061435662
 31
0.0
  0
LINE
  5
5D2
330
1F
100
AcDbEntity
  8
LAYER_1
  6
Continuous
 62
     7
100
AcDbLine
 10
221.6508970771748
 20
427.7662061435662
 30
0.0
 11
221.6249782791665
 21
427.7662061435662
 31
0.0
  0
LINE
  5
5D3
330
1F
100
AcDbEntity
  8
LAYER_1
  6
Continuous
 62
     7
100
AcDbLine
 10
227.1593008782034
 20
424.9200125520192
 30
0.0
 11
221.6508970771748
 21
427.7662061435662
 31
0.0
  0
LINE
  5
5D4
330
1F
100
AcDbEntity
  8
LAYER_1
  6
Continuous
 62
     7
100
AcDbLine
 10
227.1593008782034
 20
424.9200125520192
 30
0.0
 11
227.1333820801951
 21
424.9200125520192
 31
0.0
  0
LINE
  5
5D5
330
1F
100
AcDbEntity
  8
LAYER_1
  6
Continuous
 62
     7
100
AcDbLine
 10
221.6508970771748
 20
418.9697139035184
 30
0.0
 11
221.6249782791665
 21
418.9697139035184
 31
0.0
  0
LINE
  5
5D6
330
1F
100
AcDbEntity
  8
LAYER_1
  6
Continuous
 62
     7
100
AcDbLine
 10
227.1856439477566
 20
421.8443743890381
 30
0.0
 11
221.6508970771748
 21
418.9697139035184
 31
0.0
  0
LINE
  5
5D7
330
1F
100
AcDbEntity
  8
LAYER_1
  6
Continuous
 62
     7
100
AcDbLine
 10
221.6508970771748
 20
415.9223304987377
 30
0.0
 11
221.6249782791665
 21
415.9223304987377
 31
0.0
  0
LINE
  5
5D8
330
1F
100
AcDbEntity
  8
LAYER_1
  6
Continuous
 62
     7
100
AcDbLine
 10
221.6508970771748
 20
415.9223304987377
 30
0.0
 11
221.6249782791665
 21
415.9223304987377
 31
0.0
  0
LINE
  5
5D9
330
1F
100
AcDbEntity
  8
LAYER_1
  6
Continuous
 62
     7
100
AcDbLine
 10
227.1856439477566
 20
413.0767757812027
 30
0.0
 11
221.6508970771748
 21
415.9223304987377
 31
0.0
  0
LINE
  5
5DA
330
1F
100
AcDbEntity
  8
LAYER_1
  6
Continuous
 62
     7
100
AcDbLine
 10
227.1856439477566
 20
413.0767757812027
 30
0.0
 11
227.1593008782034
 21
413.0767757812027
 31
0.0
  0
LINE
  5
5DB
330
1F
100
AcDbEntity
  8
LAYER_1
  6
Continuous
 62
     7
100
AcDbLine
 10
221.6772413800757
 20
407.1549440266746
 30
0.0
 11
221.6508970771748
 21
407.1549440266746
 31
0.0
  0
LINE
  5
5DC
330
1F
100
AcDbEntity
  8
LAYER_1
  6
Continuous
 62
     7
100
AcDbLine
 10
227.211562745765
 20
410.0293923764214
 30
0.0
 11
221.6772413800757
 21
407.1549440266746
 31
0.0
  0
LINE
  5
5DD
330
1F
100
AcDbEntity
  8
LAYER_1
  6
Continuous
 62
     7
100
AcDbLine
 10
221.6772413800757
 20
404.0788803588008
 30
0.0
 11
221.6508970771748
 21
404.0788803588008
 31
0.0
  0
LINE
  5
5DE
330
1F
100
AcDbEntity
  8
LAYER_1
  6
Continuous
 62
     7
100
AcDbLine
 10
221.6772413800757
 20
404.0788803588008
 30
0.0
 11
221.6508970771748
 21
404.0788803588008
 31
0.0
  0
LINE
  5
5DF
330
1F
100
AcDbEntity
  8
LAYER_1
  6
Continuous
 62
     7
100
AcDbLine
 10
227.211562745765
 20
401.2326880006016
 30
0.0
 11
221.6772413800757
 21
404.0788803588008
 31
0.0
  0
LINE
  5
5E0
330
1F
100
AcDbEntity
  8
LAYER_1
  6
Continuous
 62
     7
100
AcDbLine
 10
227.211562745765
 20
401.2326880006016
 30
0.0
 11
227.1856439477566
 21
401.2326880006016
 31
0.0
  0
LINE
  5
5E1
330
1F
100
AcDbEntity
  8
LAYER_1
  6
Continuous
 62
     7
100
AcDbLine
 10
221.703160178084
 20
395.3112817509659
 30
0.0
 11
221.6772413800757
 21
395.3112817509659
 31
0.0
  0
LINE
  5
5E2
330
1F
100
AcDbEntity
  8
LAYER_1
  6
Continuous
 62
     7
100
AcDbLine
 10
227.2379070486658
 20
398.1859422364851
 30
0.0
 11
221.703160178084
 21
395.3112817509659
 31
0.0
  0
LINE
  5
5E3
330
1F
100
AcDbEntity
  8
LAYER_1
  6
Continuous
 62
     7
100
AcDbLine
 10
221.703160178084
 20
392.2641117153045
 30
0.0
 11
221.6772413800757
 21
392.2641117153045
 31
0.0
  0
LINE
  5
5E4
330
1F
100
AcDbEntity
  8
LAYER_1
  6
Continuous
 62
     7
100
AcDbLine
 10
221.7817663485463
 20
380.5931711255097
 30
0.0
 11
221.7554220456457
 21
380.5931711255097
 31
0.0
  0
LINE
  5
5E5
330
1F
100
AcDbEntity
  8
LAYER_1
  6
Continuous
 62
     7
100
AcDbLine
 10
221.5727151782574
 20
380.6216392528298
 30
0.0
 11
221.546796380249
 21
380.6216392528298
 31
0.0
  0
LINE
  5
5E6
330
1F
100
AcDbEntity
  8
LAYER_1
  6
Continuous
 62
     7
100
AcDbLine
 10
227.081118979286
 20
377.7754468946301
 30
0.0
 11
221.5727151782574
 21
380.6216392528298
 31
0.0
  0
LINE
  5
5E7
330
1F
100
AcDbEntity
  8
LAYER_1
  6
Continuous
 62
     7
100
AcDbLine
 10
227.081118979286
 20
377.7754468946301
 30
0.0
 11
227.0552001812775
 21
377.7754468946301
 31
0.0
  0
LINE
  5
5E8
330
1F
100
AcDbEntity
  8
LAYER_1
  6
Continuous
 62
     7
100
AcDbLine
 10
221.5727151782574
 20
371.8540406449944
 30
0.0
 11
221.546796380249
 21
371.8540406449944
 31
0.0
  0
LINE
  5
5E9
330
1F
100
AcDbEntity
  8
LAYER_1
  6
Continuous
 62
     7
100
AcDbLine
 10
227.1070377772943
 20
374.7287011305141
 30
0.0
 11
221.5727151782574
 21
371.8540406449944
 31
0.0
  0
LINE
  5
5EA
330
1F
100
AcDbEntity
  8
LAYER_1
  6
Continuous
 62
     7
100
AcDbLine
 10
221.5727151782574
 20
368.7781891128935
 30
0.0
 11
221.546796380249
 21
368.7781891128935
 31
0.0
  0
LINE
  5
5EB
330
1F
100
AcDbEntity
  8
LAYER_1
  6
Continuous
 62
     7
100
AcDbLine
 10
221.5727151782574
 20
368.7781891128935
 30
0.0
 11
221.546796380249
 21
368.7781891128935
 31
0.0
  0
LINE
  5
5EC
330
1F
100
AcDbEntity
  8
LAYER_1
  6
Continuous
 62
     7
100
AcDbLine
 10
227.1070377772943
 20
365.9604648820139
 30
0.0
 11
221.5727151782574
 21
368.7781891128935
 31
0.0
  0
LINE
  5
5ED
330
1F
100
AcDbEntity
  8
LAYER_1
  6
Continuous
 62
     7
100
AcDbLine
 10
227.1070377772943
 20
365.9604648820139
 30
0.0
 11
227.081118979286
 21
365.9604648820139
 31
0.0
  0
LINE
  5
5EE
330
1F
100
AcDbEntity
  8
LAYER_1
  6
Continuous
 62
     7
100
AcDbLine
 10
221.5990594811582
 20
360.0101650001657
 30
0.0
 11
221.5727151782574
 21
360.0101650001657
 31
0.0
  0
LINE
  5
5EF
330
1F
100
AcDbEntity
  8
LAYER_1
  6
Continuous
 62
     7
100
AcDbLine
 10
227.1333820801951
 20
362.8850388548049
 30
0.0
 11
221.5990594811582
 21
360.0101650001657
 31
0.0
  0
LINE
  5
5F0
330
1F
100
AcDbEntity
  8
LAYER_1
  6
Continuous
 62
     7
100
AcDbLine
 10
221.5990594811582
 20
356.963632605169
 30
0.0
 11
221.5727151782574
 21
356.963632605169
 31
0.0
  0
LINE
  5
5F1
330
1F
100
AcDbEntity
  8
LAYER_1
  6
Continuous
 62
     7
100
AcDbLine
 10
221.5990594811582
 20
356.963632605169
 30
0.0
 11
221.5727151782574
 21
356.963632605169
 31
0.0
  0
LINE
  5
5F2
330
1F
100
AcDbEntity
  8
LAYER_1
  6
Continuous
 62
     7
100
AcDbLine
 10
227.1333820801951
 20
354.11722687785
 30
0.0
 11
221.5990594811582
 21
356.963632605169
 31
0.0
  0
LINE
  5
5F3
330
1F
100
AcDbEntity
  8
LAYER_1
  6
Continuous
 62
     7
100
AcDbLine
 10
227.1333820801951
 20
354.11722687785
 30
0.0
 11
227.1070377772943
 21
354.11722687785
 31
0.0
  0
LINE
  5
5F4
330
1F
100
AcDbEntity
  8
LAYER_1
  6
Continuous
 62
     7
100
AcDbLine
 10
221.6249782791665
 20
348.1949708517769
 30
0.0
 11
221.5990594811582
 21
348.1949708517769
 31
0.0
  0
LINE
  5
5F5
330
1F
100
AcDbEntity
  8
LAYER_1
  6
Continuous
 62
     7
100
AcDbLine
 10
227.1593008782034
 20
351.0413765790961
 30
0.0
 11
221.6249782791665
 21
348.1949708517769
 31
0.0
  0
LINE
  5
5F6
330
1F
100
AcDbEntity
  8
LAYER_1
  6
Continuous
 62
     7
100
AcDbLine
 10
221.6249782791665
 20
345.119120553023
 30
0.0
 11
221.5990594811582
 21
345.119120553023
 31
0.0
  0
LINE
  5
5F7
330
1F
100
AcDbEntity
  8
LAYER_1
  6
Continuous
 62
     7
100
AcDbLine
 10
221.6249782791665
 20
345.119120553023
 30
0.0
 11
221.5990594811582
 21
345.119120553023
 31
0.0
  0
LINE
  5
5F8
330
1F
100
AcDbEntity
  8
LAYER_1
  6
Continuous
 62
     7
100
AcDbLine
 10
227.1593008782034
 20
342.2735646021407
 30
0.0
 11
221.6249782791665
 21
345.119120553023
 31
0.0
  0
LINE
  5
5F9
330
1F
100
AcDbEntity
  8
LAYER_1
  6
Continuous
 62
     7
100
AcDbLine
 10
227.1593008782034
 20
342.2735646021407
 30
0.0
 11
227.1333820801951
 21
342.2735646021407
 31
0.0
  0
LINE
  5
5FA
330
1F
100
AcDbEntity
  8
LAYER_1
  6
Continuous
 62
     7
100
AcDbLine
 10
228.0469164171365
 20
337.9905729572868
 30
0.0
 11
228.020997619128
 21
337.9905729572868
 31
0.0
  0
LINE
  5
5FB
330
1F
100
AcDbEntity
  8
LAYER_1
  6
Continuous
 62
     7
100
AcDbLine
 10
228.0469164171365
 20
340.7511475644062
 30
0.0
 11
228.0469164171365
 21
337.9905729572868
 31
0.0
  0
LINE
  5
5FC
330
1F
100
AcDbEntity
  8
LAYER_1
  6
Continuous
 62
     7
100
AcDbLine
 10
228.0469164171365
 20
337.9905729572868
 30
0.0
 11
228.020997619128
 21
337.9905729572868
 31
0.0
  0
LINE
  5
5FD
330
1F
100
AcDbEntity
  8
LAYER_1
  6
Continuous
 62
     7
100
AcDbLine
 10
225.2277047691549
 20
335.4896118351433
 30
0.0
 11
225.2013616996018
 21
335.4896118351433
 31
0.0
  0
LINE
  5
5FE
330
1F
100
AcDbEntity
  8
LAYER_1
  6
Continuous
 62
     7
100
AcDbLine
 10
227.1333820801951
 20
336.4388380157948
 30
0.0
 11
225.2277047691549
 21
335.4896118351433
 31
0.0
  0
LINE
  5
5FF
330
1F
100
AcDbEntity
  8
LAYER_1
  6
Continuous
 62
     7
100
AcDbLine
 10
223.8178279016871
 20
305.7250688162524
 30
0.0
 11
223.8435020452736
 21
333.1607347582495
 31
0.0
  0
LINE
  5
600
330
1F
100
AcDbEntity
  8
LAYER_1
  6
Continuous
 62
     7
100
AcDbLine
 10
224.3660080282304
 20
304.5526422289718
 30
0.0
 11
223.8178279016871
 21
305.7250688162524
 31
0.0
  0
LINE
  5
601
330
1F
100
AcDbEntity
  8
LAYER_1
  6
Continuous
 62
     7
100
AcDbLine
 10
285.1668053059433
 20
306.0111000584099
 30
0.0
 11
283.9705623252398
 21
304.4889027558198
 31
0.0
  0
LINE
  5
602
330
1F
100
AcDbEntity
  8
LAYER_1
  6
Continuous
 62
     7
100
AcDbLine
 10
283.7309113922557
 20
335.3748883160786
 30
0.0
 11
283.7049925942474
 21
335.3748883160786
 31
0.0
  0
LINE
  5
603
330
1F
100
AcDbEntity
  8
LAYER_1
  6
Continuous
 62
     7
100
AcDbLine
 10
281.7988910116625
 20
336.294372321428
 30
0.0
 11
281.7729722136542
 21
336.294372321428
 31
0.0
  0
LINE
  5
604
330
1F
100
AcDbEntity
  8
LAYER_1
  6
Continuous
 62
     7
100
AcDbLine
 10
280.8594366433653
 20
340.6062575984944
 30
0.0
 11
280.8330935738121
 21
340.6062575984944
 31
0.0
  0
LINE
  5
605
330
1F
100
AcDbEntity
  8
LAYER_1
  6
Continuous
 62
     7
100
AcDbLine
 10
281.7207091127449
 20
350.9262287884865
 30
0.0
 11
281.6947903147367
 21
350.9262287884865
 31
0.0
  0
LINE
  5
606
330
1F
100
AcDbEntity
  8
LAYER_1
  6
Continuous
 62
     7
100
AcDbLine
 10
287.2550317117821
 20
348.0806728376046
 30
0.0
 11
281.7207091127449
 21
350.9262287884865
 31
0.0
  0
LINE
  5
607
330
1F
100
AcDbEntity
  8
LAYER_1
  6
Continuous
 62
     7
100
AcDbLine
 10
281.7207091127449
 20
350.9262287884865
 30
0.0
 11
281.6947903147367
 21
350.9262287884865
 31
0.0
  0
LINE
  5
608
330
1F
100
AcDbEntity
  8
LAYER_1
  6
Continuous
 62
     7
100
AcDbLine
 10
281.7207091127449
 20
353.9740364648126
 30
0.0
 11
281.6947903147367
 21
353.9740364648126
 31
0.0
  0
LINE
  5
609
330
1F
100
AcDbEntity
  8
LAYER_1
  6
Continuous
 62
     7
100
AcDbLine
 10
287.2550317117821
 20
356.8484848145595
 30
0.0
 11
281.7207091127449
 21
353.9740364648126
 31
0.0
  0
LINE
  5
60A
330
1F
100
AcDbEntity
  8
LAYER_1
  6
Continuous
 62
     7
100
AcDbLine
 10
287.2291129137736
 20
359.8954427144485
 30
0.0
 11
287.2031941157651
 21
359.8954427144485
 31
0.0
  0
LINE
  5
60B
330
1F
100
AcDbEntity
  8
LAYER_1
  6
Continuous
 62
     7
100
AcDbLine
 10
281.6947903147367
 20
362.7414229368757
 30
0.0
 11
281.6684460118358
 21
362.7414229368757
 31
0.0
  0
LINE
  5
60C
330
1F
100
AcDbEntity
  8
LAYER_1
  6
Continuous
 62
     7
100
AcDbLine
 10
287.2291129137736
 20
359.8954427144485
 30
0.0
 11
281.6947903147367
 21
362.7414229368757
 31
0.0
  0
LINE
  5
60D
330
1F
100
AcDbEntity
  8
LAYER_1
  6
Continuous
 62
     7
100
AcDbLine
 10
281.6947903147367
 20
362.7414229368757
 30
0.0
 11
281.6684460118358
 21
362.7414229368757
 31
0.0
  0
LINE
  5
60E
330
1F
100
AcDbEntity
  8
LAYER_1
  6
Continuous
 62
     7
100
AcDbLine
 10
281.6947903147367
 20
365.8172732356292
 30
0.0
 11
281.6684460118358
 21
365.8172732356292
 31
0.0
  0
LINE
  5
60F
330
1F
100
AcDbEntity
  8
LAYER_1
  6
Continuous
 62
     7
100
AcDbLine
 10
287.2291129137736
 20
368.6917215853759
 30
0.0
 11
281.6947903147367
 21
365.8172732356292
 31
0.0
  0
LINE
  5
610
330
1F
100
AcDbEntity
  8
LAYER_1
  6
Continuous
 62
     7
100
AcDbLine
 10
287.2031941157651
 20
371.7388928543847
 30
0.0
 11
287.1768498128643
 21
371.7388928543847
 31
0.0
  0
LINE
  5
611
330
1F
100
AcDbEntity
  8
LAYER_1
  6
Continuous
 62
     7
100
AcDbLine
 10
281.9297602830339
 20
374.556191580372
 30
0.0
 11
281.9034159801332
 21
374.5561915803721
 31
0.0
  0
LINE
  5
612
330
1F
100
AcDbEntity
  8
LAYER_1
  6
Continuous
 62
     7
100
AcDbLine
 10
287.2031941157651
 20
371.7388928543847
 30
0.0
 11
281.9297602830339
 21
374.556191580372
 31
0.0
  0
LINE
  5
613
330
1F
100
AcDbEntity
  8
LAYER_1
  6
Continuous
 62
     7
100
AcDbLine
 10
281.9034159801332
 20
374.5561915803721
 30
0.0
 11
281.8774971821249
 21
374.5561915803721
 31
0.0
  0
LINE
  5
614
330
1F
100
AcDbEntity
  8
LAYER_1
  6
Continuous
 62
     7
100
AcDbLine
 10
281.9034159801332
 20
377.6318297433535
 30
0.0
 11
281.8774971821249
 21
377.6318297433536
 31
0.0
  0
LINE
  5
615
330
1F
100
AcDbEntity
  8
LAYER_1
  6
Continuous
 62
     7
100
AcDbLine
 10
287.4118197811618
 20
380.4780233349001
 30
0.0
 11
281.9034159801332
 21
377.6318297433535
 31
0.0
  0
LINE
  5
616
330
1F
100
AcDbEntity
  8
LAYER_1
  6
Continuous
 62
     7
100
AcDbLine
 10
287.4118197811618
 20
383.5538736336541
 30
0.0
 11
287.3859009831535
 21
383.5538736336541
 31
0.0
  0
LINE
  5
617
330
1F
100
AcDbEntity
  8
LAYER_1
  6
Continuous
 62
     7
100
AcDbLine
 10
281.8511528792241
 20
386.3133875619113
 30
0.0
 11
281.8252340812157
 21
386.3133875619113
 31
0.0
  0
LINE
  5
618
330
1F
100
AcDbEntity
  8
LAYER_1
  6
Continuous
 62
     7
100
AcDbLine
 10
287.4118197811618
 20
383.5538736336541
 30
0.0
 11
281.8511528792241
 21
386.3133875619113
 31
0.0
  0
LINE
  5
619
330
1F
100
AcDbEntity
  8
LAYER_1
  6
Continuous
 62
     7
100
AcDbLine
 10
281.8252340812157
 20
386.1982385379543
 30
0.0
 11
281.7988910116625
 21
386.1982385379544
 31
0.0
  0
LINE
  5
61A
330
1F
100
AcDbEntity
  8
LAYER_1
  6
Continuous
 62
     7
100
AcDbLine
 10
281.8252340812157
 20
389.2743022058281
 30
0.0
 11
281.7988910116625
 21
389.2743022058282
 31
0.0
  0
LINE
  5
61B
330
1F
100
AcDbEntity
  8
LAYER_1
  6
Continuous
 62
     7
100
AcDbLine
 10
287.3336378822443
 20
392.1489639246948
 30
0.0
 11
281.8252340812157
 21
389.2743022058281
 31
0.0
  0
LINE
  5
61C
330
1F
100
AcDbEntity
  8
LAYER_1
  6
Continuous
 62
     7
100
AcDbLine
 10
287.3336378822443
 20
395.1961339603562
 30
0.0
 11
287.3072935793435
 21
395.1961339603562
 31
0.0
  0
LINE
  5
61D
330
1F
100
AcDbEntity
  8
LAYER_1
  6
Continuous
 62
     7
100
AcDbLine
 10
281.7988910116625
 20
398.0423263185555
 30
0.0
 11
281.7729722136542
 21
398.0423263185555
 31
0.0
  0
LINE
  5
61E
330
1F
100
AcDbEntity
  8
LAYER_1
  6
Continuous
 62
     7
100
AcDbLine
 10
287.3336378822443
 20
395.1961339603562
 30
0.0
 11
281.7988910116625
 21
398.0423263185555
 31
0.0
  0
LINE
  5
61F
330
1F
100
AcDbEntity
  8
LAYER_1
  6
Continuous
 62
     7
100
AcDbLine
 10
281.7988910116625
 20
398.0423263185555
 30
0.0
 11
281.7729722136542
 21
398.0423263185555
 31
0.0
  0
LINE
  5
620
330
1F
100
AcDbEntity
  8
LAYER_1
  6
Continuous
 62
     7
100
AcDbLine
 10
281.7988910116625
 20
401.0890720826719
 30
0.0
 11
281.7729722136542
 21
401.0890720826719
 31
0.0
  0
LINE
  5
621
330
1F
100
AcDbEntity
  8
LAYER_1
  6
Continuous
 62
     7
100
AcDbLine
 10
287.3336378822443
 20
403.9637325681912
 30
0.0
 11
281.7988910116625
 21
401.0890720826719
 31
0.0
  0
LINE
  5
622
330
1F
100
AcDbEntity
  8
LAYER_1
  6
Continuous
 62
     7
100
AcDbLine
 10
287.3072935793435
 20
407.039796236065
 30
0.0
 11
287.2813747813352
 21
407.039796236065
 31
0.0
  0
LINE
  5
623
330
1F
100
AcDbEntity
  8
LAYER_1
  6
Continuous
 62
     7
100
AcDbLine
 10
281.7729722136542
 20
409.8857764584918
 30
0.0
 11
281.7470534156457
 21
409.8857764584918
 31
0.0
  0
LINE
  5
624
330
1F
100
AcDbEntity
  8
LAYER_1
  6
Continuous
 62
     7
100
AcDbLine
 10
287.3072935793435
 20
407.039796236065
 30
0.0
 11
281.7729722136542
 21
409.8857764584918
 31
0.0
  0
LINE
  5
625
330
1F
100
AcDbEntity
  8
LAYER_1
  6
Continuous
 62
     7
100
AcDbLine
 10
281.7729722136542
 20
409.8857764584918
 30
0.0
 11
281.7470534156457
 21
409.8857764584918
 31
0.0
  0
LINE
  5
626
330
1F
100
AcDbEntity
  8
LAYER_1
  6
Continuous
 62
     7
100
AcDbLine
 10
281.7729722136542
 20
412.9329464941532
 30
0.0
 11
281.7470534156457
 21
412.9329464941532
 31
0.0
  0
LINE
  5
627
330
1F
100
AcDbEntity
  8
LAYER_1
  6
Continuous
 62
     7
100
AcDbLine
 10
287.3072935793435
 20
415.8076082130204
 30
0.0
 11
281.7729722136542
 21
412.9329464941532
 31
0.0
  0
LINE
  5
628
330
1F
100
AcDbEntity
  8
LAYER_1
  6
Continuous
 62
     7
100
AcDbLine
 10
287.2813747813352
 20
418.8545661129089
 30
0.0
 11
287.2550317117821
 21
418.8545661129089
 31
0.0
  0
LINE
  5
629
330
1F
100
AcDbEntity
  8
LAYER_1
  6
Continuous
 62
     7
100
AcDbLine
 10
281.7470534156457
 20
421.700546335336
 30
0.0
 11
281.7207091127449
 21
421.700546335336
 31
0.0
  0
LINE
  5
62A
330
1F
100
AcDbEntity
  8
LAYER_1
  6
Continuous
 62
     7
100
AcDbLine
 10
287.2813747813352
 20
418.8545661129089
 30
0.0
 11
281.7470534156457
 21
421.700546335336
 31
0.0
  0
LINE
  5
62B
330
1F
100
AcDbEntity
  8
LAYER_1
  6
Continuous
 62
     7
100
AcDbLine
 10
281.7470534156457
 20
421.700546335336
 30
0.0
 11
281.7207091127449
 21
421.700546335336
 31
0.0
  0
LINE
  5
62C
330
1F
100
AcDbEntity
  8
LAYER_1
  6
Continuous
 62
     7
100
AcDbLine
 10
281.7470534156457
 20
424.7766087698619
 30
0.0
 11
281.7207091127449
 21
424.7766087698619
 31
0.0
  0
LINE
  5
62D
330
1F
100
AcDbEntity
  8
LAYER_1
  6
Continuous
 62
     7
100
AcDbLine
 10
287.2813747813352
 20
427.6512704887291
 30
0.0
 11
281.7470534156457
 21
424.7766087698619
 31
0.0
  0
LINE
  5
62E
330
1F
100
AcDbEntity
  8
LAYER_1
  6
Continuous
 62
     7
100
AcDbLine
 10
287.2550317117821
 20
430.6980150194977
 30
0.0
 11
287.2291129137736
 21
430.6980150194977
 31
0.0
  0
LINE
  5
62F
330
1F
100
AcDbEntity
  8
LAYER_1
  6
Continuous
 62
     7
100
AcDbLine
 10
281.7470534156457
 20
433.5442086110448
 30
0.0
 11
281.7207091127449
 21
433.5442086110448
 31
0.0
  0
LINE
  5
630
330
1F
100
AcDbEntity
  8
LAYER_1
  6
Continuous
 62
     7
100
AcDbLine
 10
287.2550317117821
 20
430.6980150194977
 30
0.0
 11
281.7470534156457
 21
433.5442086110448
 31
0.0
  0
LINE
  5
631
330
1F
100
AcDbEntity
  8
LAYER_1
  6
Continuous
 62
     7
100
AcDbLine
 10
281.7470534156457
 20
433.5442086110448
 30
0.0
 11
281.7207091127449
 21
433.5442086110448
 31
0.0
  0
LINE
  5
632
330
1F
100
AcDbEntity
  8
LAYER_1
  6
Continuous
 62
     7
100
AcDbLine
 10
280.8594366433653
 20
435.0674741918697
 30
0.0
 11
280.8330935738121
 21
435.0674741918697
 31
0.0
  0
LINE
  5
633
330
1F
100
AcDbEntity
  8
LAYER_1
  6
Continuous
 62
     7
100
AcDbLine
 10
280.8330935738121
 20
437.8563060238843
 30
0.0
 11
280.8594366433653
 21
435.0674741918697
 31
0.0
  0
LINE
  5
634
330
1F
100
AcDbEntity
  8
LAYER_1
  6
Continuous
 62
     7
100
AcDbLine
 10
280.8330935738121
 20
437.8563060238843
 30
0.0
 11
280.8071735424562
 21
437.8563060238843
 31
0.0
  0
LINE
  5
635
330
1F
100
AcDbEntity
  8
LAYER_1
  6
Continuous
 62
     7
100
AcDbLine
 10
283.7309113922557
 20
291.9370431125664
 30
0.0
 11
283.7309113922557
 21
291.9366364387362
 31
0.0
  0
LINE
  5
636
330
1F
100
AcDbEntity
  8
LAYER_1
  6
Continuous
 62
     7
100
AcDbLine
 10
283.7309113922557
 20
293.7085537543408
 30
0.0
 11
224.2878261293129
 21
293.7334344560308
 31
0.0
  0
LINE
  5
645
330
1F
100
AcDbEntity
  8
0
  6
Continuous
 62
     2
100
AcDbLine
 10
157.9968846223519
 20
125.6925041623589
 30
0.0
 11
312.996884622352
 21
125.6925041623589
 31
0.0
  0
LINE
  5
646
330
1F
100
AcDbEntity
  8
0
  6
Continuous
 62
     2
100
AcDbLine
 10
157.9968846223519
 20
139.6925041623589
 30
0.0
 11
312.996884622352
 21
139.6925041623589
 31
0.0
  0
LINE
  5
647
330
1F
100
AcDbEntity
  8
0
  6
Continuous
 62
     2
100
AcDbLine
 10
157.9968846223519
 20
153.6925041623589
 30
0.0
 11
312.996884622352
 21
153.6925041623589
 31
0.0
  0
LINE
  5
648
330
1F
100
AcDbEntity
  8
0
  6
Continuous
 62
     7
100
AcDbLine
 10
157.9968846223519
 20
173.6925041623589
 30
0.0
 11
312.996884622352
 21
173.6925041623589
 31
0.0
  0
LINE
  5
649
330
1F
100
AcDbEntity
  8
0
  6
Continuous
 62
     2
100
AcDbLine
 10
252.9968846223519
 20
173.6925041623589
 30
0.0
 11
252.9968846223518
 21
111.6925041623589
 31
0.0
  0
LINE
  5
64A
330
1F
100
AcDbEntity
  8
0
  6
Continuous
 62
     7
100
AcDbLine
 10
157.9968846223519
 20
173.6925041623589
 30
0.0
 11
157.9968846223519
 21
111.6925041623589
 31
0.0
  0
LINE
  5
64B
330
1F
100
AcDbEntity
  8
0
  6
Continuous
 62
     2
100
AcDbLine
 10
282.9968846223519
 20
173.6925041623589
 30
0.0
 11
282.9968846223519
 21
111.6925041623589
 31
0.0
  0
LINE
  5
64C
330
1F
100
AcDbEntity
  8
0
  6
Continuous
 62
     7
100
AcDbLine
 10
157.9968846223519
 20
111.6925041623589
 30
0.0
 11
312.996884622352
 21
111.6925041623589
 31
0.0
  0
LINE
  5
64D
330
1F
100
AcDbEntity
  8
0
  6
Continuous
 62
     7
100
AcDbLine
 10
312.996884622352
 20
173.6925041623589
 30
0.0
 11
312.996884622352
 21
153.6925041623589
 31
0.0
  0
LINE
  5
64E
330
1F
100
AcDbEntity
  8
0
  6
Continuous
 62
     7
100
AcDbLine
 10
312.996884622352
 20
125.6925041623589
 30
0.0
 11
312.996884622352
 21
111.6925041623589
 31
0.0
  0
LINE
  5
64F
330
1F
100
AcDbEntity
  8
0
  6
Continuous
 62
     7
100
AcDbLine
 10
312.996884622352
 20
139.6925041623589
 30
0.0
 11
312.996884622352
 21
125.6925041623589
 31
0.0
  0
LINE
  5
650
330
1F
100
AcDbEntity
  8
0
  6
Continuous
 62
     7
100
AcDbLine
 10
312.996884622352
 20
153.6925041623589
 30
0.0
 11
312.996884622352
 21
139.6925041623589
 31
0.0
  0
SPLINE
  5
651
330
1F
100
AcDbEntity
  8
1
  6
Continuous
 62
     7
100
AcDbSpline
210
0.0
220
0.0
230
1.0
 70
    24
 71
     3
 72
     9
 73
     5
 74
     3
 42
0.000000001
 43
0.0000000001
 44
0.00000001
 40
0.0
 40
0.0
 40
0.0
 40
0.0
 40
0.0302510584503672
 40
0.0605021169006862
 40
0.0605021169006862
 40
0.0605021169006862
 40
0.0605021169006862
 10
285.1666475333535
 20
285.8481205686769
 30
0.0
 10
285.158092609577
 20
285.853458546342
 30
0.0
 10
285.1409827620241
 20
285.8641345016722
 30
0.0
 10
285.1238729144712
 20
285.8748104570023
 30
0.0
 10
285.1153179906948
 20
285.8801484346675
 30
0.0
 11
285.1666475333535
 21
285.8481205686769
 31
0.0
 11
285.1409827620241
 21
285.8641345016722
 31
0.0
 11
285.1153179906948
 21
285.8801484346675
 31
0.0
  0
LWPOLYLINE
  5
652
330
1F
100
AcDbEntity
  8
LAYER_1
  6
Continuous
 62
     7
100
AcDbPolyline
 90
        3
 70
     0
 43
0.0
 10
289.8137788650024
 20
298.3023638647064
 10
284.4880831647097
 20
298.3023638647064
 10
284.4617388618089
 20
298.3023638647064
  0
LWPOLYLINE
  5
653
330
1F
100
AcDbEntity
  8
LAYER_1
  6
Continuous
 62
     7
100
AcDbPolyline
 90
        3
 70
     0
 43
0.0
 10
283.0523457902644
 20
475.9267085152954
 10
282.5301439861079
 20
475.9267085152954
 10
282.5037996832072
 20
475.9267085152954
  0
LWPOLYLINE
  5
654
330
1F
100
AcDbEntity
  8
LAYER_1
  6
Continuous
 62
     7
100
AcDbPolyline
 90
        3
 70
     0
 43
0.0
 10
279.7368511361349
 20
471.7240225937779
 10
279.2146493319785
 20
471.7240225937779
 10
279.1883050290777
 20
471.7240225937779
  0
LWPOLYLINE
  5
655
330
1F
100
AcDbEntity
  8
LAYER_1
  6
Continuous
 62
     7
100
AcDbPolyline
 90
        3
 70
     0
 43
0.0
 10
280.8594366433653
 20
471.7240225937779
 10
280.3108905363081
 20
471.7240225937779
 10
280.2849717382997
 20
471.7240225937779
  0
LWPOLYLINE
  5
656
330
1F
100
AcDbEntity
  8
LAYER_1
  6
Continuous
 62
     7
100
AcDbPolyline
 90
        3
 70
     0
 43
0.0
 10
281.7729722136542
 20
471.7240225937779
 10
281.2507691761502
 20
471.7240225937779
 10
281.2248503781418
 20
471.7240225937779
  0
LWPOLYLINE
  5
657
330
1F
100
AcDbEntity
  8
LAYER_1
  6
Continuous
 62
     7
100
AcDbPolyline
 90
        3
 70
     0
 43
0.0
 10
282.7651127210579
 20
471.6976782908771
 10
282.2429109169014
 20
471.6976782908771
 10
282.2169921188931
 20
471.6976782908771
  0
LWPOLYLINE
  5
658
330
1F
100
AcDbEntity
  8
LAYER_1
  6
Continuous
 62
     7
100
AcDbPolyline
 90
       27
 70
     0
 43
0.0
 10
277.3871539198559
 20
473.6819617723794
 10
277.2567101533768
 20
473.5774355705615
 10
277.1521839515585
 20
473.4729106020909
 10
277.0476589830878
 20
473.3424668356113
 10
276.9435582861619
 20
473.2379406337934
 10
276.8390333176911
 20
473.1074968673144
 10
276.7608514187737
 20
472.9770518674874
 10
276.7085883178645
 20
472.8466081010083
 10
276.6299821474022
 20
472.6898200316286
 10
276.577719046493
 20
472.5593750318016
 10
276.5258814504762
 20
472.4025869624218
 10
276.4472752800138
 20
471.9326482591746
 10
276.4472752800138
 20
471.6194963919599
 10
276.4736195829145
 20
471.4627083225796
 10
276.4736195829145
 20
471.3063457580922
 10
276.5258814504762
 20
471.1754764867209
 10
276.5518002484845
 20
471.0191126888859
 10
276.6040633493938
 20
470.862324619506
 10
276.6822452483113
 20
470.7318808530266
 10
276.7345071158728
 20
470.6014358532001
 10
276.8126890147905
 20
470.4446477838203
 10
276.9172152166087
 20
470.3142040173413
 10
277.0217401850793
 20
470.2096790488702
 10
277.1262651535502
 20
470.0792340490437
 10
277.3348908189467
 20
469.8701841121021
 10
277.4653358187734
 20
469.7920022131845
 10
277.596205090145
 20
469.6874760113664
  0
LWPOLYLINE
  5
659
330
1F
100
AcDbEntity
  8
LAYER_1
  6
Continuous
 62
     7
100
AcDbPolyline
 90
       22
 70
     0
 43
0.0
 10
277.1521839515585
 20
477.5978401295828
 10
277.0217401850793
 20
477.5192327257729
 10
276.8126890147905
 20
477.3106070603767
 10
276.6040633493938
 20
477.0492940225258
 10
276.4472752800138
 20
476.7884052562199
 10
276.3431745830881
 20
476.5275164899144
 10
276.2909114821788
 20
476.3707284205345
 10
276.2645684126256
 20
476.2139403511547
 10
276.2386496146172
 20
476.0834965846752
 10
276.2123053117165
 20
475.9267085152954
 10
276.2123053117165
 20
475.4571940835932
 10
276.2386496146172
 20
475.3263248122218
 10
276.2645684126256
 20
475.1699610143864
 10
276.3168315135348
 20
475.0131729450065
 10
276.3690933810963
 20
474.8827291785275
 10
276.4213564820053
 20
474.7259411091478
 10
276.6563264503029
 20
474.3346073430153
 10
276.8649521156995
 20
474.1255574060737
 10
276.9694770841703
 20
473.9951124062472
 10
277.099922083997
 20
473.9169305073295
 10
277.2044470524677
 20
473.812405538859
 10
277.3348908189467
 20
473.7337993683964
  0
LWPOLYLINE
  5
65A
330
1F
100
AcDbEntity
  8
LAYER_1
  6
Continuous
 62
     7
100
AcDbPolyline
 90
        3
 70
     0
 43
0.0
 10
289.8396976630107
 20
473.1597587348756
 10
284.6967088301063
 20
473.1597587348756
 10
284.6707900320978
 20
473.1597587348756
  0
LWPOLYLINE
  5
65B
330
1F
100
AcDbEntity
  8
LAYER_1
  6
Continuous
 62
     7
100
AcDbPolyline
 90
        3
 70
     0
 43
0.0
 10
289.944223864829
 20
474.3346073430153
 10
284.6185269311888
 20
474.3346073430153
 10
284.5926081331803
 20
474.3346073430153
  0
LWPOLYLINE
  5
65C
330
1F
100
AcDbEntity
  8
LAYER_1
  6
Continuous
 62
     7
100
AcDbPolyline
 90
       77
 70
     1
 43
0.0
 10
287.438162850715
 20
470.7841439539358
 10
287.6208709514508
 20
470.8100627519442
 10
287.9340215853182
 20
470.862324619506
 10
288.1167284527065
 20
470.9145877204148
 10
288.4298803199214
 20
471.0191126888859
 10
288.5866683893013
 20
471.0972945878031
 10
288.7171121557804
 20
471.1754764867209
 10
288.8739002251603
 20
471.2540826571834
 10
289.0043452249869
 20
471.358183354109
 10
289.1611332943668
 20
471.4367895245712
 10
289.2652327579452
 20
471.5672345243982
 10
289.3961020293168
 20
471.6717594928687
 10
289.5265470291434
 20
471.8022032593477
 10
289.73517269454
 20
472.0630920256538
 10
289.8137788650024
 20
472.1939612970251
 10
289.9701426628375
 20
472.5071131642403
 10
290.0487488332997
 20
472.6375569307193
 10
290.1005864293167
 20
472.7943450000991
 10
290.1528495302257
 20
472.9770518674874
 10
290.2051126311347
 20
473.1334156653222
 10
290.2314557006881
 20
473.2902037347021
 10
290.2573744986964
 20
473.4729106020909
 10
290.2832932967049
 20
473.6296986714706
 10
290.2832932967049
 20
473.9687693366939
 10
290.2573744986964
 20
474.1255574060737
 10
290.2314557006881
 20
474.308264273462
 10
290.2051126311347
 20
474.4650523428417
 10
290.1528495302257
 20
474.6214149073293
 10
290.1005864293167
 20
474.8045472796098
 10
290.0487488332997
 20
474.9609098440973
 10
289.9701426628375
 20
475.0913548439243
 10
289.8137788650024
 20
475.4049309826839
 10
289.3961020293168
 20
475.9267085152954
 10
288.8739002251603
 20
476.3443853509811
 10
288.403961521913
 20
476.5793540859312
 10
287.9340215853182
 20
476.7361421553111
 10
287.7772335159382
 20
476.7624864582119
 10
287.59452664855
 20
476.7884052562199
 10
286.9159610465586
 20
476.7884052562199
 10
286.7591729771787
 20
476.7624864582119
 10
286.6023849077989
 20
476.7102233573025
 10
286.4196780404106
 20
476.6838802877493
 10
286.1065274065432
 20
476.5793540859312
 10
285.9497381038158
 20
476.501173420361
 10
285.8970293918007
 20
476.4695822810825
 10
285.8192943373367
 20
476.4229915214432
 10
285.6629317728491
 20
476.3443853509811
 10
285.2711737351718
 20
476.0312334837664
 10
284.9057600003953
 20
475.6658197489899
 10
284.8275781014779
 20
475.5353747491629
 10
284.7230518996595
 20
475.378586679783
 10
284.6444457291971
 20
475.2481429133041
 10
284.4880831647097
 20
474.9349910460889
 10
284.3312950953297
 20
474.4650523428417
 10
284.3053762973214
 20
474.2823454754536
 10
284.2790319944206
 20
474.1255574060737
 10
284.2790319944206
 20
473.9428505386854
 10
284.2531131964124
 20
473.7860624693056
 10
284.2790319944206
 20
473.6296986714706
 10
284.2790319944206
 20
473.4469918040824
 10
284.3053762973214
 20
473.2902037347021
 10
284.3312950953297
 20
473.1074968673144
 10
284.4880831647097
 20
472.6375569307193
 10
284.6444457291971
 20
472.324406296852
 10
284.7230518996595
 20
472.1939612970251
 10
284.8275781014779
 20
472.0371732276452
 10
285.0362037668745
 20
471.7758601897949
 10
285.2711737351718
 20
471.5413157263897
 10
285.5320625014776
 20
471.3322645561006
 10
285.6888505708575
 20
471.2540826571834
 10
285.8192943373367
 20
471.1495576887123
 10
285.9760824067164
 20
471.0713757897947
 10
286.6023849077989
 20
470.862324619506
 10
286.7855172800796
 20
470.8364058214976
 10
287.098667913947
 20
470.7841439539358
 10
287.2813747813352
 20
470.7841439539358
 10
287.438162850715
 20
470.7841439539358
  0
LWPOLYLINE
  5
65D
330
1F
100
AcDbEntity
  8
LAYER_1
  6
Continuous
 62
     7
100
AcDbPolyline
 90
        7
 70
     1
 43
0.0
 10
285.7933755393282
 20
471.2800014551914
 10
288.7693752566896
 20
471.2800014551914
 10
290.2314557006881
 20
473.8383243368674
 10
288.7434564586811
 20
476.396647218543
 10
285.7933755393282
 20
476.396647218543
 10
284.3053762973214
 20
473.8383243368674
 10
285.7933755393282
 20
471.2800014551914
  0
LWPOLYLINE
  5
65E
330
1F
100
AcDbEntity
  8
LAYER_1
  6
Continuous
 62
     7
100
AcDbPolyline
 90
        3
 70
     0
 43
0.0
 10
282.9478208217936
 20
299.8953135800762
 10
282.3996989862813
 20
299.8953135800762
 10
282.3733559167279
 20
299.8953135800762
  0
LWPOLYLINE
  5
65F
330
1F
100
AcDbEntity
  8
LAYER_1
  6
Continuous
 62
     7
100
AcDbPolyline
 90
        3
 70
     0
 43
0.0
 10
279.6321127985443
 20
295.6917778821216
 10
279.0839921963794
 20
295.6917778821216
 10
279.0578612625986
 20
295.6917778821216
  0
LWPOLYLINE
  5
660
330
1F
100
AcDbEntity
  8
LAYER_1
  6
Continuous
 62
     7
100
AcDbPolyline
 90
        3
 70
     0
 43
0.0
 10
280.7285673719938
 20
295.6917778821216
 10
280.2065777036098
 20
295.6917778821216
 10
280.1804467698289
 20
295.6917778821216
  0
LWPOLYLINE
  5
661
330
1F
100
AcDbEntity
  8
LAYER_1
  6
Continuous
 62
     7
100
AcDbPolyline
 90
        3
 70
     0
 43
0.0
 10
281.6684460118357
 20
295.6917778821216
 10
281.1203254096712
 20
295.6917778821216
 10
281.0944066116627
 20
295.6917778821216
  0
LWPOLYLINE
  5
662
330
1F
100
AcDbEntity
  8
LAYER_1
  6
Continuous
 62
     7
100
AcDbPolyline
 90
        3
 70
     0
 43
0.0
 10
282.6605877525871
 20
295.6658590841131
 10
282.1124671504222
 20
295.6658590841131
 10
282.0861228475214
 20
295.6658590841131
  0
LWPOLYLINE
  5
663
330
1F
100
AcDbEntity
  8
LAYER_1
  6
Continuous
 62
     7
100
AcDbPolyline
 90
       25
 70
     0
 43
0.0
 10
277.256496784257
 20
297.6497170607231
 10
277.1521839515585
 20
297.5456163637974
 10
277.0215280493069
 20
297.4410913953264
 10
276.9172152166087
 20
297.3110719003922
 10
276.8388199485712
 20
297.2065469319217
 10
276.7345071158728
 20
297.0756776605498
 10
276.577719046493
 20
296.8143646226994
 10
276.5256693147038
 20
296.6584263297568
 10
276.4734062137947
 20
296.5275570583855
 10
276.3688812453239
 20
296.2139809196254
 10
276.3429624473156
 20
296.0580426266828
 10
276.3429624473156
 20
295.431314620708
 10
276.3688812453239
 20
295.2741010464358
 10
276.3950121791046
 20
295.1440815515017
 10
276.499538380923
 20
294.830505412742
 10
276.5518002484845
 20
294.7004871511549
 10
276.6299821474022
 20
294.5696178797835
 10
276.7083761820921
 20
294.4128298104037
 10
276.8126890147905
 20
294.2823848105772
 10
276.8910830494802
 20
294.1778598421062
 10
276.9956092512985
 20
294.047840347172
 10
277.099922083997
 20
293.9433141453536
 10
277.2303658504762
 20
293.838789176883
 10
277.3610229860752
 20
293.7601830064204
 10
277.4914667525542
 20
293.6556580379498
  0
LWPOLYLINE
  5
664
330
1F
100
AcDbEntity
  8
LAYER_1
  6
Continuous
 62
     7
100
AcDbPolyline
 90
       24
 70
     0
 43
0.0
 10
277.0215280493069
 20
301.5655954179265
 10
276.9172152166087
 20
301.4874147523568
 10
276.7867702167821
 20
301.3828885505383
 10
276.6822452483113
 20
301.279213358505
 10
276.6038512136213
 20
301.1483440871332
 10
276.499538380923
 20
301.0178990873067
 10
276.3429624473156
 20
300.7565860494563
 10
276.2384362454973
 20
300.4956972831503
 10
276.1861743779356
 20
300.3389092137705
 10
276.1341234127989
 20
300.1821211443907
 10
276.1079924790181
 20
300.0516773779112
 10
276.1079924790181
 20
299.8953135800762
 10
276.0818615452374
 20
299.7385255106965
 10
276.1079924790181
 20
299.5817374413166
 10
276.1079924790181
 20
299.4249493719368
 10
276.1341234127989
 20
299.2949298770022
 10
276.1600422108074
 20
299.1381418076224
 10
276.2123053117165
 20
298.9813537382426
 10
276.2645684126256
 20
298.8509099717636
 10
276.3168315135348
 20
298.6945461739286
 10
276.5518002484845
 20
298.3023638647064
 10
276.9694770841703
 20
297.885112533913
 10
277.099922083997
 20
297.780586332095
 10
277.2303658504762
 20
297.7019801616323
  0
LWPOLYLINE
  5
665
330
1F
100
AcDbEntity
  8
LAYER_1
  6
Continuous
 62
     7
100
AcDbPolyline
 90
        3
 70
     0
 43
0.0
 10
289.73517269454
 20
297.1279407614591
 10
284.5926081331803
 20
297.1279407614591
 10
284.5662638302798
 20
297.1279407614591
  0
LWPOLYLINE
  5
666
330
1F
100
AcDbEntity
  8
LAYER_1
  6
Continuous
 62
     7
100
AcDbPolyline
 90
       81
 70
     1
 43
0.0
 10
287.3336378822443
 20
294.7527490187167
 10
287.4900016800793
 20
294.7786678167251
 10
287.6727085474676
 20
294.8050121196259
 10
287.8294966168475
 20
294.830505412742
 10
287.9862846862274
 20
294.8827685136508
 10
288.1689915536157
 20
294.9350316145601
 10
288.3253541181031
 20
294.9872934821219
 10
288.4562233894746
 20
295.0654753810391
 10
288.7693752566896
 20
295.2222634504189
 10
288.8998190231688
 20
295.3267896522374
 10
289.0302640229954
 20
295.4053958226995
 10
289.1611332943668
 20
295.5354153176341
 10
289.2915770608458
 20
295.6399402861047
 10
289.7092538965316
 20
296.1617178187161
 10
289.8656164610192
 20
296.4752939574762
 10
289.944223864829
 20
296.6061632288476
 10
289.9964857323906
 20
296.7629512982274
 10
290.0487488332997
 20
296.9452326607234
 10
290.1005864293167
 20
297.1020207301032
 10
290.1269307322172
 20
297.2588100328309
 10
290.1528495302257
 20
297.4410913953263
 10
290.1528495302257
 20
298.0937381993097
 10
290.1269307322172
 20
298.2764450666979
 10
290.0746676313082
 20
298.4332331360778
 10
290.0487488332997
 20
298.5900212054576
 10
289.9964857323906
 20
298.7723038013009
 10
289.944223864829
 20
298.9290918706812
 10
289.8656164610192
 20
299.0599599087051
 10
289.7092538965316
 20
299.3735372808122
 10
289.2915770608458
 20
299.8953135800762
 10
288.8998190231688
 20
300.2084654472915
 10
288.7434564586811
 20
300.3125661442171
 10
288.6125871873097
 20
300.3911723146798
 10
288.2994353200948
 20
300.5479603840595
 10
287.8294966168475
 20
300.704322948547
 10
287.6467897494591
 20
300.7302429799029
 10
287.4900016800793
 20
300.7565860494563
 10
286.8114360780879
 20
300.7565860494563
 10
286.6546480087081
 20
300.7302429799029
 10
286.4719411413197
 20
300.6788296554309
 10
286.3155773434847
 20
300.6524853525301
 10
286.0020012047249
 20
300.5479603840595
 10
285.7896990297903
 20
300.4416650599146
 10
285.6888505708575
 20
300.3911723146798
 10
285.5584055710307
 20
300.3125661442171
 10
285.401617501651
 20
300.2084654472915
 10
285.1407287353453
 20
299.9998397818947
 10
285.0362037668745
 20
299.8693947820678
 10
284.9057600003953
 20
299.7648698135972
 10
284.6967088301063
 20
299.5035555423989
 10
284.6185269311888
 20
299.3471929779115
 10
284.5140019627179
 20
299.2167492114324
 10
284.4358200638005
 20
299.0599599087051
 10
284.3835569628914
 20
298.9031718393254
 10
284.2267688935114
 20
298.4332331360778
 10
284.2008500955031
 20
298.2505262686894
 10
284.1749312974946
 20
298.0937381993097
 10
284.1485882279415
 20
297.9114556034663
 10
284.1485882279415
 20
297.5978794647067
 10
284.1749312974946
 20
297.4155981022107
 10
284.2008500955031
 20
297.2588100328309
 10
284.2267688935114
 20
297.0756776605498
 10
284.3835569628914
 20
296.6061632288476
 10
284.5403450322713
 20
296.292587090088
 10
284.6185269311888
 20
296.1617178187161
 10
284.7230518996595
 20
296.0057795257735
 10
284.8012337985769
 20
295.8749102544022
 10
285.1666475333535
 20
295.5090710147333
 10
285.4279618045518
 20
295.3008708542289
 10
285.5584055710307
 20
295.2222634504189
 10
285.7147693688658
 20
295.1177384819483
 10
285.8715574382458
 20
295.0391323114862
 10
286.0020012047249
 20
294.9872934821219
 10
286.1587892741047
 20
294.9350316145601
 10
286.3414961414931
 20
294.8827685136508
 10
286.498284210873
 20
294.830505412742
 10
286.6546480087081
 20
294.8050121196259
 10
286.8373548760963
 20
294.7786678167251
 10
286.9941429454761
 20
294.7527490187167
 10
287.1768498128643
 20
294.7527490187167
 10
287.3336378822443
 20
294.7527490187167
  0
LWPOLYLINE
  5
667
330
1F
100
AcDbEntity
  8
LAYER_1
  6
Continuous
 62
     7
100
AcDbPolyline
 90
        7
 70
     1
 43
0.0
 10
285.6888505708575
 20
295.2486077533197
 10
288.6389302568629
 20
295.2486077533197
 10
290.1269307322172
 20
297.8069306349957
 10
288.6389302568629
 20
300.3652535166713
 10
285.6629317728491
 20
300.3652535166713
 10
284.2008500955031
 20
297.8069306349957
 10
285.6888505708575
 20
295.2486077533197
  0
LWPOLYLINE
  5
668
330
1F
100
AcDbEntity
  8
LAYER_1
  6
Continuous
 62
     7
100
AcDbPolyline
 90
       10
 70
     0
 43
0.0
 10
286.0283455076257
 20
284.1357729471639
 10
286.0020012047249
 20
284.2942605694182
 10
286.0020012047249
 20
284.4531736965648
 10
285.9760824067164
 20
284.611661318819
 10
285.9238193058073
 20
284.769723436181
 10
285.8715574382458
 20
284.896769330259
 10
285.8192943373367
 20
285.0552569525133
 10
285.5843243690392
 20
285.4363921680516
 10
285.4802236721134
 20
285.562587052345
 10
285.1666475333535
 20
285.8481205686769
  0
LWPOLYLINE
  5
669
330
1F
100
AcDbEntity
  8
LAYER_1
  6
Continuous
 62
     7
100
AcDbPolyline
 90
       22
 70
     0
 43
0.0
 10
227.1856439477566
 20
386.3146616098935
 10
227.2901701495748
 20
386.3732974174076
 10
227.3942708465009
 20
386.4612523620271
 10
227.4987958149716
 20
386.5203136744336
 10
227.68150268236
 20
386.725328098309
 10
227.8382907517398
 20
386.9596604259417
 10
227.9428157202105
 20
387.1944170251189
 10
227.9946545495748
 20
387.3119020092677
 10
228.020997619128
 20
387.4587048971737
 10
228.0469164171364
 20
387.604870144415
 10
228.073260720037
 20
387.7223551285633
 10
228.073260720037
 20
388.015748768603
 10
228.0469164171364
 20
388.1623395207362
 10
228.020997619128
 20
388.2798245048849
 10
227.9946545495748
 20
388.4262018878988
 10
227.9428157202104
 20
388.5436868720475
 10
227.8905538526488
 20
388.6902776241807
 10
227.8382907517398
 20
388.8077626083294
 10
227.7596845812773
 20
388.9252475924782
 10
227.4987958149716
 20
389.2184278633976
 10
227.3942708465009
 20
389.3068070795615
 10
227.1856439477566
 20
389.4236544230454
  0
LWPOLYLINE
  5
66A
330
1F
100
AcDbEntity
  8
LAYER_1
  6
Continuous
 62
     7
100
AcDbPolyline
 90
       25
 70
     0
 43
0.0
 10
287.2550317117821
 20
345.0337149377157
 10
287.3595566802526
 20
345.0906511923555
 10
287.4640828820708
 20
345.1773308556454
 10
287.5686078505417
 20
345.2342683436326
 10
287.6467897494591
 20
345.3494161342421
 10
287.7249704150293
 20
345.4356702926391
 10
287.9599403833265
 20
345.7811136644678
 10
288.0122034842357
 20
345.8954116786401
 10
288.0385465537889
 20
346.0105607025971
 10
288.090809654698
 20
346.1546008920717
 10
288.1167284527065
 20
346.297792538456
 10
288.1167284527065
 20
346.7010231747095
 10
288.090809654698
 20
346.8446390926391
 10
288.0644665851448
 20
346.9593613783564
 10
288.0385465537889
 20
347.1029785296329
 10
287.9862846862274
 20
347.2181263202425
 10
287.9340215853182
 20
347.3621665097171
 10
287.8817584844092
 20
347.4768900287817
 10
287.803577818839
 20
347.5916135478463
 10
287.7249704150293
 20
347.6782932111358
 10
287.6467897494591
 20
347.793015496853
 10
287.542263547641
 20
347.8792708885976
 10
287.4640828820708
 20
347.9655250469951
 10
287.3595566802526
 20
348.0228868065272
 10
287.2291129137736
 20
348.0806728376046
  0
LWPOLYLINE
  5
66B
330
1F
100
AcDbEntity
  8
LAYER_1
  6
Continuous
 62
     7
100
AcDbPolyline
 90
       16
 70
     0
 43
0.0
 10
223.843806224074
 20
285.7529419076678
 10
223.739705527148
 20
285.7529419076678
 10
223.6351805586773
 20
285.7215001794916
 10
223.5047355588507
 20
285.6896329464226
 10
223.4002105903798
 20
285.658189984899
 10
223.2956843885616
 20
285.5944542854136
 10
223.2175037229916
 20
285.5311440908209
 10
223.1129775211734
 20
285.4363921680516
 10
222.9561894517935
 20
285.2460373127289
 10
222.9043518557768
 20
285.1189914186508
 10
222.8257456853144
 20
285.0238139909891
 10
222.799826887306
 20
284.896769330259
 10
222.7475637863969
 20
284.769723436181
 10
222.7216449883885
 20
284.6439540567804
 10
222.7216449883885
 20
284.4841911531966
 10
222.6953006854876
 20
284.3579962689037
  0
LWPOLYLINE
  5
66C
330
1F
100
AcDbEntity
  8
LAYER_1
  6
Continuous
 62
     7
100
AcDbPolyline
 90
       16
 70
     0
 43
0.0
 10
222.5125938180994
 20
487.1453423379043
 10
222.5125567603699
 20
487.1451606941926
 10
222.4866750200911
 20
487.0182976771736
 10
222.4603319505379
 20
486.8600221906918
 10
222.4603319505379
 20
486.7329775299617
 10
222.4866750200911
 20
486.5744899077074
 10
222.4866750200911
 20
486.4476573827492
 10
222.5125938180994
 20
486.2891697604951
 10
222.7216449883885
 20
485.7818384273157
 10
222.8780087862236
 20
485.5912714362206
 10
222.9825337546943
 20
485.4963061443314
 10
223.0607156536118
 20
485.4009153475499
 10
223.3742917923715
 20
485.210985997119
 10
223.5047355588507
 20
485.1789053949306
 10
223.6088362557765
 20
485.1474624334064
 10
223.739705527148
 20
485.1474624334064
  0
LWPOLYLINE
  5
66D
330
1F
100
AcDbEntity
  8
LAYER_1
  6
Continuous
 62
     7
100
AcDbPolyline
 90
       13
 70
     0
 43
0.0
 10
285.1929918362543
 20
485.6862354947623
 10
285.2970925331803
 20
485.6862354947623
 10
285.4279618045518
 20
485.7183160969507
 10
285.5320625014776
 20
485.7497590584748
 10
285.7411124384192
 20
485.8768037192049
 10
285.8192943373367
 20
485.9401139137981
 10
285.9238193058073
 20
486.0036362441632
 10
286.0806073751874
 20
486.193566827941
 10
286.1587892741047
 20
486.3206114886717
 10
286.263315475923
 20
486.5744899077074
 10
286.3414961414931
 20
486.954987482581
 10
286.3414961414931
 20
487.0816902965046
 10
286.3414961414931
 20
487.0818200075387
  0
LWPOLYLINE
  5
66E
330
1F
100
AcDbEntity
  8
LAYER_1
  6
Continuous
 62
     7
100
AcDbPolyline
 90
       12
 70
     0
 43
0.0
 10
228.020997619128
 20
437.999709806041
 10
228.020997619128
 20
438.2584735145802
 10
227.9687357515665
 20
438.4023028016297
 10
227.9428157202104
 20
438.5461308553318
 10
227.8905538526488
 20
438.660854374396
 10
227.8382907517398
 20
438.8048945638705
 10
227.7860276508305
 20
438.9194059471628
 10
227.7078469852606
 20
439.0345537377722
 10
227.4465327140625
 20
439.3222110785239
 10
227.3420077455916
 20
439.408465236921
 10
227.211562745765
 20
439.4660391322256
 10
227.1070377772943
 20
439.5236130275305
  0
LWPOLYLINE
  5
66F
330
1F
100
AcDbEntity
  8
LAYER_1
  6
Continuous
 62
     7
100
AcDbPolyline
 90
       14
 70
     0
 43
0.0
 10
227.1593008782034
 20
433.6876123932021
 10
227.2638258466743
 20
433.7451862885066
 10
227.3683520484926
 20
433.8314404469041
 10
227.4728770169631
 20
433.8890143422087
 10
227.5510589158808
 20
434.0041621328183
 10
227.6555838843515
 20
434.0902041554429
 10
227.733765783269
 20
434.2051398102801
 10
227.7860276508305
 20
434.3202876008895
 10
227.8642095497482
 20
434.435435391499
 10
227.9687357515665
 20
434.6650945654008
 10
227.9946545495748
 20
434.8087104833305
 10
228.020997619128
 20
434.9527519061525
 10
228.020997619128
 20
435.0674741918697
 10
228.0469164171364
 20
435.2117277504637
  0
LWPOLYLINE
  5
670
330
1F
100
AcDbEntity
  8
LAYER_1
  6
Continuous
 62
     7
100
AcDbPolyline
 90
       24
 70
     0
 43
0.0
 10
221.6249782791665
 20
430.8129506743354
 10
221.5204533106958
 20
430.7555901481502
 10
221.3118264119515
 20
430.5832927337811
 10
221.2332202414893
 20
430.4968252062635
 10
221.1291195445633
 20
430.410783183639
 10
221.0505133741009
 20
430.2954232572569
 10
220.9982502731918
 20
430.1809118739647
 10
220.9200696076218
 20
430.0659774524751
 10
220.8678065067126
 20
429.9508284285181
 10
220.8418877087044
 20
429.8070003748165
 10
220.7896246077953
 20
429.6920647199794
 10
220.7637058097868
 20
429.5484488020497
 10
220.7637058097868
 20
429.0024520243043
 10
220.7896246077953
 20
428.8873042336947
 10
220.8418877087044
 20
428.743688315765
 10
220.8678065067126
 20
428.6287526609279
 10
220.9200696076218
 20
428.4849233738784
 10
221.0768576770018
 20
428.2548411617792
 10
221.1550383425717
 20
428.1685857700346
 10
221.2332202414893
 20
428.0534379794251
 10
221.3118264119515
 20
427.9676080925729
 10
221.4163526137699
 20
427.8807162935111
 10
221.5204533106958
 20
427.8233545339785
 10
221.6508970771748
 20
427.7662061435662
  0
LWPOLYLINE
  5
671
330
1F
100
AcDbEntity
  8
LAYER_1
  6
Continuous
 62
     7
100
AcDbPolyline
 90
       22
 70
     0
 43
0.0
 10
227.1856439477566
 20
421.8443743890381
 10
227.2901701495748
 20
421.9019482843427
 10
227.4987958149716
 20
422.0740323295925
 10
227.5769777138891
 20
422.1607119928819
 10
227.68150268236
 20
422.2465418797341
 10
227.7596845812773
 20
422.3616896703435
 10
227.811946448839
 20
422.4768374609532
 10
227.8905538526488
 20
422.5915609800179
 10
227.9428157202105
 20
422.7064966348549
 10
227.9687357515665
 20
422.8501125527845
 10
228.020997619128
 20
422.9654724791666
 10
228.0469164171365
 20
423.1088762613233
 10
228.0469164171365
 20
423.655510679734
 10
228.020997619128
 20
423.7991265976633
 10
227.9687357515665
 20
423.9140622525003
 10
227.9428157202105
 20
424.0578915395498
 10
227.8905538526488
 20
424.1730393301594
 10
227.6555838843515
 20
424.5176329255508
 10
227.4987958149716
 20
424.6903546114648
 10
227.3942708465009
 20
424.7766087698619
 10
227.2901701495748
 20
424.8339705293945
 10
227.1593008782034
 20
424.9200125520192
  0
LWPOLYLINE
  5
672
330
1F
100
AcDbEntity
  8
LAYER_1
  6
Continuous
 62
     7
100
AcDbPolyline
 90
       26
 70
     0
 43
0.0
 10
221.6508970771748
 20
418.9697139035184
 10
221.4422714117783
 20
418.8545661129089
 10
221.33774520996
 20
418.7683107211644
 10
221.0768576770018
 20
418.4806533804132
 10
221.0245945760925
 20
418.3661432304685
 10
220.946412677175
 20
418.2509954398589
 10
220.8941508096134
 20
418.1073795219292
 10
220.8678065067126
 20
417.9922304979722
 10
220.8155434058036
 20
417.8484024442702
 10
220.7896246077953
 20
417.7332546536606
 10
220.7896246077953
 20
417.5900630072763
 10
220.7637058097868
 20
417.4462349535742
 10
220.7896246077953
 20
417.3021935307522
 10
220.7896246077953
 20
417.1872578759151
 10
220.8155434058036
 20
417.0434298222135
 10
220.8678065067126
 20
416.8996005351639
 10
220.8941508096134
 20
416.7850903852192
 10
220.946412677175
 20
416.6701547303821
 10
221.0245945760925
 20
416.5550069397725
 10
221.0768576770018
 20
416.439859149163
 10
221.1550383425717
 20
416.3247113585534
 10
221.25956454439
 20
416.2386693359288
 10
221.33774520996
 20
416.1235203119719
 10
221.4422714117783
 20
416.0665840573316
 10
221.546796380249
 20
415.9799043940422
 10
221.6508970771748
 20
415.9223304987377
  0
LWPOLYLINE
  5
673
330
1F
100
AcDbEntity
  8
LAYER_1
  6
Continuous
 62
     7
100
AcDbPolyline
 90
       22
 70
     0
 43
0.0
 10
227.211562745765
 20
410.0293923764214
 10
227.4206139160541
 20
410.144540167031
 10
227.52471461298
 20
410.2303700538832
 10
227.7860276508305
 20
410.5182395304074
 10
227.8382907517398
 20
410.632963049472
 10
227.9164726506572
 20
410.7481108400815
 10
227.9687357515665
 20
410.8915146222382
 10
227.9946545495748
 20
411.0066624128477
 10
228.0469164171365
 20
411.1502783307774
 10
228.073260720037
 20
411.2654273547345
 10
228.073260720037
 20
411.8114228991324
 10
228.0469164171365
 20
411.9556764577268
 10
227.9946545495748
 20
412.099293609004
 10
227.9687357515665
 20
412.2144413996135
 10
227.8905538526488
 20
412.3289515495583
 10
227.8382907517398
 20
412.4440993401678
 10
227.68150268236
 20
412.674394921387
 10
227.6033207834423
 20
412.7604369440116
 10
227.4987958149716
 20
412.8464801999837
 10
227.4206139160541
 20
412.9329464941532
 10
227.3160889475833
 20
413.0192018858982
 10
227.1856439477566
 20
413.0767757812027
  0
LWPOLYLINE
  5
674
330
1F
100
AcDbEntity
  8
LAYER_1
  6
Continuous
 62
     7
100
AcDbPolyline
 90
       27
 70
     0
 43
0.0
 10
221.6772413800757
 20
407.1549440266746
 10
221.5727151782574
 20
407.0973701313695
 10
221.3640895128607
 20
406.924860581228
 10
221.2854833423983
 20
406.8383942870585
 10
221.1813826454724
 20
406.752138895314
 10
221.1027764750101
 20
406.6372032404764
 10
221.0505133741009
 20
406.5220554498673
 10
220.9723314751835
 20
406.4075452999225
 10
220.9200696076218
 20
406.292397509313
 10
220.8678065067126
 20
406.1485682222634
 10
220.8418877087044
 20
406.0336325674263
 10
220.8155434058036
 20
405.8900166494966
 10
220.8155434058036
 20
405.746400731567
 10
220.7896246077953
 20
405.6023593087455
 10
220.8155434058036
 20
405.4876370230282
 10
220.8155434058036
 20
405.3435956002063
 10
220.8418877087044
 20
405.1999796822767
 10
220.8678065067126
 20
405.0848318916671
 10
220.9200696076218
 20
404.9412147403905
 10
220.9723314751835
 20
404.826066949781
 10
221.0505133741009
 20
404.7113446640637
 10
221.1027764750101
 20
404.5964090092267
 10
221.1813826454724
 20
404.4810490828446
 10
221.2854833423983
 20
404.3952191959925
 10
221.3640895128607
 20
404.3089638042474
 10
221.5727151782574
 20
404.1364542541058
 10
221.6772413800757
 20
404.0788803588008
  0
LWPOLYLINE
  5
675
330
1F
100
AcDbEntity
  8
LAYER_1
  6
Continuous
 62
     7
100
AcDbPolyline
 90
       26
 70
     0
 43
0.0
 10
227.2379070486658
 20
398.1859422364851
 10
227.3420077455916
 20
398.2435161317896
 10
227.4465327140625
 20
398.3295593877622
 10
227.5510589158808
 20
398.3871332830667
 10
227.6292395814508
 20
398.5020677045564
 10
227.7078469852606
 20
398.5881109605284
 10
227.9428157202105
 20
398.9331288274648
 10
227.9946545495748
 20
399.0480644823019
 10
228.020997619128
 20
399.1916804002316
 10
228.073260720037
 20
399.3068294241886
 10
228.073260720037
 20
399.4506574778907
 10
228.0991795180455
 20
399.5655931327277
 10
228.0991795180455
 20
399.8528249685866
 10
228.073260720037
 20
399.997078527181
 10
228.0469164171365
 20
400.1115899104732
 10
228.020997619128
 20
400.2560556048401
 10
227.9687357515665
 20
400.3705657547844
 10
227.9164726506572
 20
400.5139695369416
 10
227.8642095497482
 20
400.6291173275511
 10
227.7860276508305
 20
400.7442651181607
 10
227.7078469852606
 20
400.8303083741332
 10
227.6292395814508
 20
400.9452427956224
 10
227.52471461298
 20
401.0317103231399
 10
227.4465327140625
 20
401.1181778506569
 10
227.3420077455916
 20
401.1757517459614
 10
227.211562745765
 20
401.2326880006016
  0
LWPOLYLINE
  5
676
330
1F
100
AcDbEntity
  8
LAYER_1
  6
Continuous
 62
     7
100
AcDbPolyline
 90
       22
 70
     0
 43
0.0
 10
221.703160178084
 20
395.3112817509659
 10
221.5990594811582
 20
395.2537078556608
 10
221.2854833423983
 20
394.9949441471221
 10
221.2073014434808
 20
394.9089008911495
 10
221.0505133741009
 20
394.6788186790503
 10
220.946412677175
 20
394.4489473693762
 10
220.8941508096134
 20
394.3049059465546
 10
220.8678065067126
 20
394.1901836608374
 10
220.8418877087044
 20
394.045930102243
 10
220.8155434058036
 20
393.9314187189508
 10
220.8155434058036
 20
393.7878028010211
 10
220.8418877087044
 20
393.6437613781997
 10
220.8418877087044
 20
393.4999333244975
 10
220.8678065067126
 20
393.384785533888
 10
220.8941508096134
 20
393.2415938875032
 10
220.946412677175
 20
393.1264460968936
 10
220.9982502731918
 20
392.9826168098441
 10
221.0768576770018
 20
392.8676823883549
 10
221.1291195445633
 20
392.7529588692903
 10
221.3900083108692
 20
392.4650893927662
 10
221.4945345126873
 20
392.3790473701416
 10
221.703160178084
 20
392.2641117153045
  0
LWPOLYLINE
  5
677
330
1F
100
AcDbEntity
  8
LAYER_1
  6
Continuous
 62
     7
100
AcDbPolyline
 90
       20
 70
     0
 43
0.0
 10
221.7554220456457
 20
383.3811519477396
 10
221.4422714117783
 20
383.2090679024903
 10
221.3640895128607
 20
383.1223882392009
 10
221.25956454439
 20
383.0365583523482
 10
221.1813826454724
 20
382.9214105617386
 10
221.1291195445633
 20
382.8351551699941
 10
221.0505133741009
 20
382.7202207485045
 10
220.9982502731918
 20
382.6050717245474
 10
220.9723314751835
 20
382.4905615746026
 10
220.9200696076218
 20
382.3754137839931
 10
220.8941508096134
 20
382.2315857302915
 10
220.8941508096134
 20
381.8576729977953
 10
220.9200696076218
 20
381.7140570798657
 10
220.946412677175
 20
381.5991214250286
 10
220.9723314751835
 20
381.483973634419
 10
221.1291195445633
 20
381.1391679032552
 10
221.2073014434808
 20
381.0240188792982
 10
221.3640895128607
 20
380.8519348340489
 10
221.4681902097866
 20
380.7654673065319
 10
221.7817663485463
 20
380.5931711255097
  0
LWPOLYLINE
  5
678
330
1F
100
AcDbEntity
  8
LAYER_1
  6
Continuous
 62
     7
100
AcDbPolyline
 90
       25
 70
     0
 43
0.0
 10
227.1070377772943
 20
374.7287011305141
 10
227.211562745765
 20
374.7856373851539
 10
227.3160889475833
 20
374.8725291842158
 10
227.4206139160541
 20
374.9301030795208
 10
227.4987958149716
 20
375.044614462813
 10
227.6033207834423
 20
375.1310807569826
 10
227.68150268236
 20
375.2462297809395
 10
227.733765783269
 20
375.3609520666568
 10
227.811946448839
 20
375.4760998572663
 10
227.8642095497482
 20
375.5910355121034
 10
227.8905538526488
 20
375.706183302713
 10
227.9428157202105
 20
375.8497992206426
 10
227.9687357515665
 20
375.9934163719191
 10
227.9687357515665
 20
376.5394119163172
 10
227.9428157202105
 20
376.6543475711544
 10
227.8905538526488
 20
376.7981768582038
 10
227.8642095497482
 20
376.9133246488134
 10
227.811946448839
 20
377.0282603036505
 10
227.733765783269
 20
377.1720883573526
 10
227.6555838843515
 20
377.2581303799773
 10
227.4987958149716
 20
377.4882138254238
 10
227.4206139160541
 20
377.5742558480486
 10
227.3160889475833
 20
377.6602991040206
 10
227.211562745765
 20
377.7178729993257
 10
227.081118979286
 20
377.7754468946301
  0
LWPOLYLINE
  5
679
330
1F
100
AcDbEntity
  8
LAYER_1
  6
Continuous
 62
     7
100
AcDbPolyline
 90
       26
 70
     0
 43
0.0
 10
221.5727151782574
 20
371.8540406449944
 10
221.4681902097865
 20
371.7966788854623
 10
221.25956454439
 20
371.6237438304279
 10
221.1813826454724
 20
371.5377018078032
 10
221.0768576770018
 20
371.4512355136337
 10
220.9982502731918
 20
371.3367241303415
 10
220.946412677175
 20
371.2215763397319
 10
220.8678065067126
 20
371.1064285491224
 10
220.8155434058036
 20
370.9912807585128
 10
220.7896246077953
 20
370.8476648405832
 10
220.7373615068861
 20
370.7325170499736
 10
220.7114427088776
 20
370.5886877629246
 10
220.7114427088776
 20
370.4454961165398
 10
220.6850996393244
 20
370.3303483259303
 10
220.7114427088776
 20
370.1865202722281
 10
220.7114427088776
 20
370.0429043542985
 10
220.7373615068861
 20
369.9277565636894
 10
220.7896246077953
 20
369.7841394124123
 10
220.8155434058036
 20
369.6689916218028
 10
220.8678065067126
 20
369.5255878396456
 10
220.946412677175
 20
369.410440049036
 10
220.9982502731918
 20
369.2952922584265
 10
221.25956454439
 20
369.0080604225676
 10
221.3640895128607
 20
368.9220171665951
 10
221.4681902097866
 20
368.8642311355181
 10
221.5727151782574
 20
368.7781891128935
  0
LWPOLYLINE
  5
67A
330
1F
100
AcDbEntity
  8
LAYER_1
  6
Continuous
 62
     7
100
AcDbPolyline
 90
       24
 70
     0
 43
0.0
 10
227.1333820801951
 20
362.8850388548049
 10
227.2379070486658
 20
362.9424006143374
 10
227.4465327140625
 20
363.1149089311317
 10
227.52471461298
 20
363.2011643228761
 10
227.6292395814508
 20
363.2869942097289
 10
227.7078469852606
 20
363.4021420003384
 10
227.7596845812773
 20
363.5172897909479
 10
227.8382907517398
 20
363.6324375815575
 10
227.8905538526488
 20
363.7471611006221
 10
227.9164726506572
 20
363.8907770185513
 10
227.9687357515665
 20
364.0054993042685
 10
227.9946545495748
 20
364.1499662319828
 10
227.9946545495748
 20
364.6963872812733
 10
227.9687357515665
 20
364.839578927658
 10
227.9164726506572
 20
364.9547267182675
 10
227.8905538526488
 20
365.0979183646523
 10
227.811946448839
 20
365.2130661552617
 10
227.7596845812773
 20
365.3286382174157
 10
227.6033207834423
 20
365.5585095270899
 10
227.52471461298
 20
365.6447636854875
 10
227.4206139160541
 20
365.7305935723397
 10
227.3420077455916
 20
365.8172732356292
 10
227.2379070486658
 20
365.8742094902694
 10
227.1070377772943
 20
365.9604648820139
  0
LWPOLYLINE
  5
67B
330
1F
100
AcDbEntity
  8
LAYER_1
  6
Continuous
 62
     7
100
AcDbPolyline
 90
       25
 70
     0
 43
0.0
 10
221.5990594811582
 20
360.0101650001657
 10
221.3900083108692
 20
359.8954427144485
 10
221.2854833423983
 20
359.8087630511591
 10
221.1027764750101
 20
359.6077853736973
 10
221.0245945760925
 20
359.4926375830878
 10
220.9723314751835
 20
359.406807696235
 10
220.8941508096134
 20
359.2627662734136
 10
220.8418877087044
 20
359.147618482804
 10
220.7896246077953
 20
359.0324706921945
 10
220.7637058097868
 20
358.8888535409174
 10
220.7373615068861
 20
358.7452376229877
 10
220.7373615068861
 20
358.6300898323782
 10
220.7114427088776
 20
358.4868981859939
 10
220.737361506886
 20
358.3432822680642
 10
220.7373615068861
 20
358.2281344774547
 10
220.7637058097868
 20
358.084518559525
 10
220.7896246077953
 20
357.9404771367035
 10
220.8941508096134
 20
357.7101815554844
 10
220.9723314751835
 20
357.5669899090997
 10
221.0245945760925
 20
357.4807357507026
 10
221.1027764750101
 20
357.365587960093
 10
221.2854833423983
 20
357.1641847777385
 10
221.3900083108692
 20
357.1068230182063
 10
221.4945345126873
 20
357.0209943647017
 10
221.5990594811582
 20
356.963632605169
  0
LWPOLYLINE
  5
67C
330
1F
100
AcDbEntity
  8
LAYER_1
  6
Continuous
 62
     7
100
AcDbPolyline
 90
       25
 70
     0
 43
0.0
 10
227.1593008782034
 20
351.0413765790961
 10
227.2638258466743
 20
351.1276307374931
 10
227.3683520484926
 20
351.1845669921334
 10
227.4728770169631
 20
351.2716721603151
 10
227.5510589158808
 20
351.3575020471674
 10
227.6292395814508
 20
351.4726498377769
 10
227.7078469852606
 20
351.558903996174
 10
227.8642095497482
 20
351.7883498009558
 10
227.9164726506572
 20
351.9323912237778
 10
227.9428157202105
 20
352.0471147428424
 10
227.9946545495748
 20
352.191154932317
 10
227.9946545495748
 20
352.306303956274
 10
228.020997619128
 20
352.4503441457481
 10
228.020997619128
 20
352.7375772149548
 10
227.9946545495748
 20
352.8522995006721
 10
227.9687357515665
 20
352.996340923494
 10
227.9428157202105
 20
353.1114887141036
 10
227.8905538526488
 20
353.2546803604878
 10
227.7860276508305
 20
353.484551670162
 10
227.6292395814508
 20
353.7148472513811
 10
227.5510589158808
 20
353.8011014097782
 10
227.4465327140625
 20
353.8873568015233
 10
227.3683520484926
 20
353.9740364648126
 10
227.2638258466743
 20
354.0594408467725
 10
227.1333820801951
 20
354.11722687785
  0
LWPOLYLINE
  5
67D
330
1F
100
AcDbEntity
  8
LAYER_1
  6
Continuous
 62
     7
100
AcDbPolyline
 90
       27
 70
     0
 43
0.0
 10
221.6249782791665
 20
348.1949708517769
 10
221.5204533106958
 20
348.1091409649243
 10
221.4163526137699
 20
348.0513549338473
 10
221.2073014434808
 20
347.8792708885976
 10
221.1291195445633
 20
347.7641218646406
 10
221.0505133741009
 20
347.6782932111358
 10
220.9723314751835
 20
347.5631441871789
 10
220.9200696076218
 20
347.4479963965693
 10
220.8678065067126
 20
347.3043804786402
 10
220.8155434058036
 20
347.1892326880305
 10
220.7896246077953
 20
347.0456167701009
 10
220.7637058097868
 20
346.9304689794914
 10
220.7373615068861
 20
346.7864275566694
 10
220.7373615068861
 20
346.6432359102846
 10
220.7637058097868
 20
346.5285136245678
 10
220.7637058097868
 20
346.3848964732907
 10
220.7896246077953
 20
346.2408562838162
 10
220.8155434058036
 20
346.1257084932067
 10
220.8678065067126
 20
345.9820913419295
 10
220.9200696076218
 20
345.8669435513201
 10
220.9982502731918
 20
345.7517957607105
 10
221.0505133741009
 20
345.6370734749938
 10
221.1291195445633
 20
345.5223499559286
 10
221.2332202414893
 20
345.4356702926392
 10
221.3118264119515
 20
345.3494161342421
 10
221.5204533106958
 20
345.1773308556454
 10
221.6249782791665
 20
345.119120553023
  0
LWPOLYLINE
  5
67E
330
1F
100
AcDbEntity
  8
LAYER_1
  6
Continuous
 62
     7
100
AcDbPolyline
 90
       13
 70
     0
 43
0.0
 10
228.0469164171365
 20
340.7511475644062
 10
228.0469164171365
 20
340.893914939246
 10
228.020997619128
 20
341.0379551287201
 10
227.9946545495748
 20
341.1526786477852
 10
227.9687357515665
 20
341.2967200706067
 10
227.9164726506572
 20
341.4118678612163
 10
227.8642095497482
 20
341.5550582742536
 10
227.811946448839
 20
341.6697817933182
 10
227.733765783269
 20
341.7849295839278
 10
227.6555838843515
 20
341.8716092472172
 10
227.5769777138891
 20
341.9859072613895
 10
227.3683520484926
 20
342.158842316424
 10
227.1593008782034
 20
342.2735646021407
  0
LWPOLYLINE
  5
67F
330
1F
100
AcDbEntity
  8
LAYER_1
  6
Continuous
 62
     7
100
AcDbPolyline
 90
       13
 70
     0
 43
0.0
 10
227.1333820801951
 20
336.4388380157948
 10
227.2638258466743
 20
336.4953499988897
 10
227.3683520484926
 20
336.5527117584222
 10
227.4728770169631
 20
336.6398156932566
 10
227.6555838843515
 20
336.8407933707183
 10
227.733765783269
 20
336.9550913848906
 10
227.811946448839
 20
337.0421965530724
 10
227.8642095497482
 20
337.1858124710021
 10
227.9164726506572
 20
337.3009602616116
 10
227.9687357515665
 20
337.4450016844336
 10
228.020997619128
 20
337.5592996986059
 10
228.0469164171365
 20
337.7033398880799
 10
228.0469164171365
 20
337.9905729572868
  0
LWPOLYLINE
  5
680
330
1F
100
AcDbEntity
  8
LAYER_1
  6
Continuous
 62
     7
100
AcDbPolyline
 90
       15
 70
     0
 43
0.0
 10
225.2277047691549
 20
335.4896118351433
 10
225.0709166997751
 20
335.4318245707184
 10
224.9404729332959
 20
335.3464201887585
 10
224.8100291668169
 20
335.2308468932566
 10
224.6795841669903
 20
335.1445927348595
 10
224.4446141986928
 20
334.8866788027576
 10
224.3660080282304
 20
334.7711055072556
 10
224.2614830597597
 20
334.6274895893264
 10
224.1051192619246
 20
334.3394067436826
 10
224.026937363007
 20
334.1677469699781
 10
223.9746754954455
 20
334.0237067805035
 10
223.9224123945364
 20
333.8511972303619
 10
223.8960680916355
 20
333.6786876802198
 10
223.843806224074
 20
333.3345183563732
 10
223.843806224074
 20
333.1607347582495
  0
LWPOLYLINE
  5
681
330
1F
100
AcDbEntity
  8
LAYER_1
  6
Continuous
 62
     7
100
AcDbPolyline
 90
       15
 70
     0
 43
0.0
 10
285.1143856657919
 20
333.0460112391849
 10
285.0884668677836
 20
333.2193705657637
 10
285.0884668677836
 20
333.3914546110135
 10
285.0621225648828
 20
333.5643896660475
 10
285.010284968866
 20
333.73562393486
 10
284.9580218679569
 20
333.8796653576815
 10
284.9057600003953
 20
334.0521749078236
 10
284.8534968994863
 20
334.1962163306456
 10
284.7753150005686
 20
334.3683003758949
 10
284.6707900320978
 20
334.5119162938246
 10
284.5926081331803
 20
334.6274895893264
 10
284.4880831647097
 20
334.7711055072556
 10
284.3835569628914
 20
334.8866788027576
 10
284.1226681965856
 20
335.115699102647
 10
283.7309113922557
 20
335.3748883160786
  0
LWPOLYLINE
  5
682
330
1F
100
AcDbEntity
  8
LAYER_1
  6
Continuous
 62
     7
100
AcDbPolyline
 90
       13
 70
     0
 43
0.0
 10
280.8594366433653
 20
337.846957039357
 10
280.8853554413736
 20
337.7033398880799
 10
280.8853554413736
 20
337.5592996986059
 10
280.9116997442744
 20
337.4152582757839
 10
280.9635373402912
 20
337.3009602616116
 10
280.9898816431918
 20
337.1573443436819
 10
281.0680623087618
 20
337.0421965530724
 10
281.1203254096712
 20
336.8981551302509
 10
281.1985073085886
 20
336.8118997385059
 10
281.3552953779683
 20
336.5820296621791
 10
281.5643453149099
 20
336.4095201120375
 10
281.6684460118358
 20
336.3521583525049
 10
281.7988910116625
 20
336.294372321428
  0
LWPOLYLINE
  5
683
330
1F
100
AcDbEntity
  8
LAYER_1
  6
Continuous
 62
     7
100
AcDbPolyline
 90
       13
 70
     0
 43
0.0
 10
281.7470534156457
 20
342.1307984606487
 10
281.5380022453567
 20
342.0152251651469
 10
281.32937657996
 20
341.8431411198971
 10
281.2507691761502
 20
341.7275678243952
 10
281.1725885105803
 20
341.6413136659981
 10
281.0944066116627
 20
341.5261658753885
 10
281.0421435107535
 20
341.4118678612163
 10
280.9898816431918
 20
341.2678264383943
 10
280.9376185422828
 20
341.1526786477852
 10
280.9116997442744
 20
341.0086372249632
 10
280.8853554413736
 20
340.893914939246
 10
280.8594366433653
 20
340.7511475644062
 10
280.8594366433653
 20
340.6062575984944
  0
LWPOLYLINE
  5
684
330
1F
100
AcDbEntity
  8
LAYER_1
  6
Continuous
 62
     7
100
AcDbPolyline
 90
       22
 70
     0
 43
0.0
 10
281.7207091127449
 20
353.9740364648126
 10
281.6161841442743
 20
353.9158249288434
 10
281.3030322770593
 20
353.6574854918491
 10
281.2248503781418
 20
353.5712301001041
 10
281.0680623087618
 20
353.3409345188854
 10
280.9635373402912
 20
353.1114887141036
 10
280.9116997442744
 20
352.9674472912816
 10
280.8853554413736
 20
352.8522995006721
 10
280.8594366433653
 20
352.7086835827424
 10
280.8330935738121
 20
352.5646421599209
 10
280.8330935738121
 20
352.4503441457481
 10
280.8594366433653
 20
352.306303956274
 10
280.8594366433653
 20
352.1622625334521
 10
280.8853554413736
 20
352.0471147428424
 10
280.9116997442744
 20
351.9034988249134
 10
280.9635373402912
 20
351.7883498009558
 10
281.0158004412003
 20
351.645159387919
 10
281.0944066116627
 20
351.5304358688543
 10
281.1462442076794
 20
351.4148638066999
 10
281.4075572455301
 20
351.1276307374931
 10
281.5120834473482
 20
351.0413765790961
 10
281.7207091127449
 20
350.9262287884865
  0
LWPOLYLINE
  5
685
330
1F
100
AcDbEntity
  8
LAYER_1
  6
Continuous
 62
     7
100
AcDbPolyline
 90
       25
 70
     0
 43
0.0
 10
287.2550317117821
 20
356.8484848145595
 10
287.3595566802526
 20
356.9058453407446
 10
287.4640828820708
 20
356.9921007324891
 10
287.5686078505417
 20
357.0490369871294
 10
287.6467897494591
 20
357.1641847777385
 10
287.7249704150293
 20
357.2504401694835
 10
287.9599403833265
 20
357.5954580364198
 10
288.0122034842357
 20
357.7101815554844
 10
288.0385465537889
 20
357.8253293460935
 10
288.090809654698
 20
357.9693707689155
 10
288.1167284527065
 20
358.1129866868452
 10
288.1167284527065
 20
358.5153675466609
 10
288.090809654698
 20
358.6594077361355
 10
288.0644665851448
 20
358.7737057503078
 10
288.0385465537889
 20
358.9181726780221
 10
287.9862846862274
 20
359.0324706921944
 10
287.9340215853182
 20
359.1769363865609
 10
287.8817584844092
 20
359.291659905626
 10
287.803577818839
 20
359.406807696235
 10
287.7249704150293
 20
359.4926375830877
 10
287.6467897494591
 20
359.6077853736973
 10
287.542263547641
 20
359.6936152605495
 10
287.4640828820708
 20
359.7802949238389
 10
287.3595566802526
 20
359.8380809549164
 10
287.2291129137736
 20
359.8954427144485
  0
LWPOLYLINE
  5
686
330
1F
100
AcDbEntity
  8
LAYER_1
  6
Continuous
 62
     7
100
AcDbPolyline
 90
       27
 70
     0
 43
0.0
 10
281.6947903147367
 20
365.8172732356292
 10
281.5902653462659
 20
365.7594872045522
 10
281.3812141759768
 20
365.5874031593024
 10
281.3030322770593
 20
365.500723496013
 10
281.1985073085886
 20
365.4144681042685
 10
281.1203254096712
 20
365.2997458185512
 10
281.0680623087618
 20
365.1850222994866
 10
280.9898816431918
 20
365.069874508877
 10
280.9376185422828
 20
364.9547267182675
 10
280.8853554413736
 20
364.8111108003378
 10
280.8594366433653
 20
364.6963872812733
 10
280.8330935738121
 20
364.5523458584513
 10
280.8330935738121
 20
364.408729940522
 10
280.8071735424562
 20
364.2646885177
 10
280.8330935738121
 20
364.1499662319828
 10
280.8330935738121
 20
364.0054993042685
 10
280.8594366433653
 20
363.8623088912316
 10
280.8853554413736
 20
363.7471611006221
 10
280.9376185422828
 20
363.603543949345
 10
280.9898816431918
 20
363.4892459351727
 10
281.0680623087618
 20
363.3740981445632
 10
281.1203254096712
 20
363.2585260824087
 10
281.1985073085886
 20
363.1433782917991
 10
281.3030322770593
 20
363.057548404947
 10
281.3812141759768
 20
362.9712930132025
 10
281.5902653462659
 20
362.7987834630604
 10
281.6947903147367
 20
362.7414229368757
  0
LWPOLYLINE
  5
687
330
1F
100
AcDbEntity
  8
LAYER_1
  6
Continuous
 62
     7
100
AcDbPolyline
 90
       22
 70
     0
 43
0.0
 10
287.2291129137736
 20
368.6917215853759
 10
287.438162850715
 20
368.8068693759855
 10
287.542263547641
 20
368.8929126319581
 10
287.803577818839
 20
369.1805699727092
 10
287.8558396864007
 20
369.2952922584265
 10
287.9340215853182
 20
369.410440049036
 10
287.9862846862274
 20
369.5540559669656
 10
288.0122034842357
 20
369.6689916218027
 10
288.0644665851448
 20
369.8126075397319
 10
288.090809654698
 20
369.9277565636894
 10
288.090809654698
 20
370.4739654772073
 10
288.0644665851448
 20
370.6180056666814
 10
288.0122034842357
 20
370.7616228179585
 10
287.9862846862274
 20
370.8767706085681
 10
287.9076772824174
 20
370.9912807585128
 10
287.8558396864007
 20
371.1064285491224
 10
287.6990516170209
 20
371.3367241303414
 10
287.6208709514508
 20
371.4225540171937
 10
287.5163447496325
 20
371.5090215447106
 10
287.438162850715
 20
371.5950635673357
 10
287.3336378822443
 20
371.6815310948527
 10
287.2031941157651
 20
371.7388928543847
  0
LWPOLYLINE
  5
688
330
1F
100
AcDbEntity
  8
LAYER_1
  6
Continuous
 62
     7
100
AcDbPolyline
 90
       25
 70
     0
 43
0.0
 10
281.9034159801332
 20
377.6318297433535
 10
281.7729722136542
 20
377.5457877207284
 10
281.6684460118358
 20
377.4882138254238
 10
281.5902653462659
 20
377.4021718027993
 10
281.4857391444476
 20
377.3157042752818
 10
281.4075572455301
 20
377.2003443488998
 10
281.32937657996
 20
377.1143023262752
 10
281.2507691761502
 20
376.999366671438
 10
281.1985073085886
 20
376.8846431523734
 10
281.1462442076794
 20
376.7406029628993
 10
281.0944066116627
 20
376.6258794438347
 10
281.0680623087618
 20
376.4818380210127
 10
281.0421435107535
 20
376.3673278710679
 10
281.0158004412003
 20
376.2230743124735
 10
281.0158004412003
 20
375.9358424766146
 10
281.0421435107535
 20
375.8206934526577
 10
281.0680623087618
 20
375.677077534728
 10
281.0944066116627
 20
375.5619297441185
 10
281.1462442076794
 20
375.4185259619613
 10
281.1985073085886
 20
375.3033781713517
 10
281.2507691761502
 20
375.1886558856345
 10
281.4075572455301
 20
374.958359071068
 10
281.4857391444476
 20
374.8725291842158
 10
281.7988910116625
 20
374.6135533399046
 10
281.9034159801332
 20
374.5561915803721
  0
LWPOLYLINE
  5
689
330
1F
100
AcDbEntity
  8
LAYER_1
  6
Continuous
 62
     7
100
AcDbPolyline
 90
       23
 70
     0
 43
0.0
 10
287.4118197811618
 20
380.4780233349001
 10
287.5163447496325
 20
380.5640653575248
 10
287.6208709514508
 20
380.6216392528298
 10
287.8294966168475
 20
380.7943609387438
 10
287.9076772824174
 20
380.9090844578085
 10
287.9862846862274
 20
380.9955507519786
 10
288.0644665851448
 20
381.1100621352708
 10
288.1167284527065
 20
381.2254220616528
 10
288.1689915536157
 20
381.3690379795819
 10
288.2212546545247
 20
381.4839736344189
 10
288.247173452533
 20
381.6275895523487
 10
288.2735165220864
 20
381.7427373429582
 10
288.2994353200948
 20
381.8863544942353
 10
288.2994353200948
 20
382.145118202774
 10
288.2735165220864
 20
382.289159625596
 10
288.247173452533
 20
382.4329876792981
 10
288.2212546545247
 20
382.5474978292429
 10
288.1689915536157
 20
382.691327116292
 10
288.0644665851448
 20
382.9214105617386
 10
287.9076772824174
 20
383.1514940071852
 10
287.8294966168475
 20
383.2375360298104
 10
287.5163447496325
 20
383.4962997383491
 10
287.4118197811618
 20
383.5538736336541
  0
LWPOLYLINE
  5
68A
330
1F
100
AcDbEntity
  8
LAYER_1
  6
Continuous
 62
     7
100
AcDbPolyline
 90
       21
 70
     0
 43
0.0
 10
281.8252340812157
 20
389.2743022058281
 10
281.7207091127449
 20
389.2173659511879
 10
281.4075572455301
 20
388.9583888735288
 10
281.32937657996
 20
388.8717104435868
 10
281.1725885105803
 20
388.6420512696851
 10
281.0680623087618
 20
388.4119678242385
 10
281.0158004412003
 20
388.2681397705368
 10
280.9898816431918
 20
388.1529919799273
 10
280.9635373402912
 20
388.0095881977701
 10
280.9376185422828
 20
387.865971046493
 10
280.9376185422828
 20
387.6069952021818
 10
280.9898816431918
 20
387.319975502095
 10
281.0158004412003
 20
387.2046143423655
 10
281.0680623087618
 20
387.0612105602083
 10
281.1725885105803
 20
386.8309149789893
 10
281.32937657996
 20
386.601044902663
 10
281.4334760435384
 20
386.5147895109179
 10
281.5120834473482
 20
386.4285353525209
 10
281.6161841442743
 20
386.3427054656686
 10
281.7207091127449
 20
386.2849182012437
 10
281.8252340812157
 20
386.1982385379543
  0
LWPOLYLINE
  5
68B
330
1F
100
AcDbEntity
  8
LAYER_1
  6
Continuous
 62
     7
100
AcDbPolyline
 90
       24
 70
     0
 43
0.0
 10
287.3336378822443
 20
392.1489639246948
 10
287.4640828820708
 20
392.2065378199994
 10
287.5686078505417
 20
392.2641117153044
 10
287.6467897494591
 20
392.3503658737014
 10
287.75131471793
 20
392.436621265446
 10
287.8294966168475
 20
392.5517690560556
 10
287.9076772824174
 20
392.6378110786807
 10
287.9862846862274
 20
392.7529588692902
 10
288.0385465537889
 20
392.896362651447
 10
288.090809654698
 20
393.0115104420565
 10
288.142647250715
 20
393.1264460968936
 10
288.1689915536157
 20
393.2702741505958
 10
288.194910351624
 20
393.3847855338879
 10
288.2212546545247
 20
393.5292512282549
 10
288.2212546545247
 20
393.8162709283412
 10
288.194910351624
 20
393.9314187189507
 10
288.1689915536157
 20
394.0752480060003
 10
288.142647250715
 20
394.2188639239295
 10
287.9862846862274
 20
394.5636696550934
 10
287.8294966168475
 20
394.79375310054
 10
287.6467897494591
 20
394.9949441471221
 10
287.542263547641
 20
395.0525180424266
 10
287.438162850715
 20
395.1387722008237
 10
287.3336378822443
 20
395.1961339603562
  0
LWPOLYLINE
  5
68C
330
1F
100
AcDbEntity
  8
LAYER_1
  6
Continuous
 62
     7
100
AcDbPolyline
 90
       25
 70
     0
 43
0.0
 10
281.7988910116625
 20
401.0890720826719
 10
281.5902653462659
 20
400.9745619327272
 10
281.3812141759768
 20
400.8018390134657
 10
281.3030322770593
 20
400.6866912228562
 10
281.2248503781418
 20
400.600649200231
 10
281.1462442076794
 20
400.4855014096215
 10
281.0944066116627
 20
400.3705657547844
 10
281.0421435107535
 20
400.2267377010828
 10
280.9898816431918
 20
400.1115899104732
 10
280.9635373402912
 20
399.9679727591961
 10
280.9376185422828
 20
399.8528249685866
 10
280.9116997442744
 20
399.7094211864294
 10
280.9116997442744
 20
399.5655931327277
 10
280.9376185422828
 20
399.421977214798
 10
280.9376185422828
 20
399.3068294241886
 10
280.9635373402912
 20
399.1634256420313
 10
280.9898816431918
 20
399.0195963549823
 10
281.0944066116627
 20
398.7895129095357
 10
281.1725885105803
 20
398.6743651189261
 10
281.2248503781418
 20
398.5596415998614
 10
281.3030322770593
 20
398.4447071783718
 10
281.4075572455301
 20
398.3580275150819
 10
281.4857391444476
 20
398.2719854924572
 10
281.6947903147367
 20
398.0999002138604
 10
281.7988910116625
 20
398.0423263185555
  0
LWPOLYLINE
  5
68D
330
1F
100
AcDbEntity
  8
LAYER_1
  6
Continuous
 62
     7
100
AcDbPolyline
 90
       22
 70
     0
 43
0.0
 10
287.3336378822443
 20
403.9637325681912
 10
287.438162850715
 20
404.0502000957087
 10
287.542263547641
 20
404.1075618552408
 10
287.6467897494591
 20
404.1940281494103
 10
287.803577818839
 20
404.3661134280075
 10
288.0385465537889
 20
404.7113446640637
 10
288.090809654698
 20
404.8260669497809
 10
288.1167284527065
 20
404.9701083726025
 10
288.1689915536157
 20
405.084831891667
 10
288.194910351624
 20
405.2288720811416
 10
288.194910351624
 20
405.6314650767299
 10
288.1689915536157
 20
405.7748688588872
 10
288.142647250715
 20
405.9184847768167
 10
288.1167284527065
 20
406.0336325674263
 10
288.0644665851448
 20
406.1774618544758
 10
287.9599403833265
 20
406.4075452999225
 10
287.803577818839
 20
406.6372032404763
 10
287.7249704150293
 20
406.7238829037663
 10
287.6208709514508
 20
406.8097127906184
 10
287.542263547641
 20
406.8959681823629
 10
287.438162850715
 20
406.9820102049881
 10
287.3072935793435
 20
407.039796236065
  0
LWPOLYLINE
  5
68E
330
1F
100
AcDbEntity
  8
LAYER_1
  6
Continuous
 62
     7
100
AcDbPolyline
 90
       25
 70
     0
 43
0.0
 10
281.7729722136542
 20
412.9329464941532
 10
281.6684460118358
 20
412.8753725988487
 10
281.5643453149099
 20
412.7889063046791
 10
281.4598203464392
 20
412.7313311760267
 10
281.3812141759768
 20
412.6168210260819
 10
281.277113479051
 20
412.530353498565
 10
281.1985073085886
 20
412.4154190770753
 10
281.1462442076794
 20
412.3004834222382
 10
281.0680623087618
 20
412.1853356316287
 10
280.9635373402912
 20
411.9556764577268
 10
280.9376185422828
 20
411.8114228991325
 10
280.9116997442744
 20
411.6678069812033
 10
280.9116997442744
 20
411.5528713263661
 10
280.8853554413736
 20
411.4092554084365
 10
280.9116997442744
 20
411.2654273547345
 10
280.9116997442744
 20
411.1220235725777
 10
280.9376185422828
 20
411.0066624128477
 10
280.9635373402912
 20
410.8632586306911
 10
281.0158004412003
 20
410.7481108400815
 10
281.0680623087618
 20
410.6042827863794
 10
281.1462442076794
 20
410.4893471315423
 10
281.1985073085886
 20
410.3741993409328
 10
281.4598203464392
 20
410.0869662717265
 10
281.5643453149099
 20
410.0007121133294
 10
281.7729722136542
 20
409.8857764584918
  0
LWPOLYLINE
  5
68F
330
1F
100
AcDbEntity
  8
LAYER_1
  6
Continuous
 62
     7
100
AcDbPolyline
 90
       25
 70
     0
 43
0.0
 10
287.3072935793435
 20
415.8076082130204
 10
287.4118197811618
 20
415.8647566034326
 10
287.6208709514508
 20
416.0374782893467
 10
287.6990516170209
 20
416.1235203119718
 10
287.803577818839
 20
416.2099878394888
 10
287.8817584844092
 20
416.3247113585534
 10
287.9340215853182
 20
416.4398591491629
 10
288.0122034842357
 20
416.5550069397725
 10
288.0644665851448
 20
416.6701547303821
 10
288.090809654698
 20
416.8135585125393
 10
288.142647250715
 20
416.9287063031488
 10
288.1689915536157
 20
417.072322221078
 10
288.1689915536157
 20
417.6183189988234
 10
288.142647250715
 20
417.7332546536605
 10
288.090809654698
 20
417.8770827073627
 10
288.0644665851448
 20
417.9922304979722
 10
287.9862846862274
 20
418.1360597850218
 10
287.9340215853182
 20
418.2509954398589
 10
287.8558396864007
 20
418.3661432304684
 10
287.7772335159382
 20
418.4521852530931
 10
287.6990516170209
 20
418.5673330437026
 10
287.59452664855
 20
418.6533750663272
 10
287.5163447496325
 20
418.7396304580718
 10
287.4118197811618
 20
418.7969922176043
 10
287.2813747813352
 20
418.8545661129089
  0
LWPOLYLINE
  5
690
330
1F
100
AcDbEntity
  8
LAYER_1
  6
Continuous
 62
     7
100
AcDbPolyline
 90
       25
 70
     0
 43
0.0
 10
281.7470534156457
 20
424.7766087698619
 10
281.6425272138274
 20
424.7190348745574
 10
281.4334760435384
 20
424.5463131886428
 10
281.3552953779683
 20
424.4600590302458
 10
281.2507691761502
 20
424.3740170076212
 10
281.1725885105803
 20
424.2590813527841
 10
281.1203254096712
 20
424.1439335621745
 10
281.0421435107535
 20
424.028785771565
 10
280.9898816431918
 20
423.9140622525003
 10
280.9635373402912
 20
423.7700208296783
 10
280.9116997442744
 20
423.655510679734
 10
280.8853554413736
 20
423.511469256912
 10
280.8853554413736
 20
422.9654724791666
 10
280.9116997442744
 20
422.8216444254644
 10
280.9635373402912
 20
422.7064966348549
 10
280.9898816431918
 20
422.5628807169252
 10
281.0421435107535
 20
422.4479450620882
 10
281.1203254096712
 20
422.3327972714786
 10
281.1725885105803
 20
422.2182858881864
 10
281.2507691761502
 20
422.1029259618044
 10
281.3552953779683
 20
422.0168839391797
 10
281.4334760435384
 20
421.9304164116628
 10
281.5380022453567
 20
421.8443743890381
 10
281.6425272138274
 20
421.7868004937332
 10
281.7470534156457
 20
421.700546335336
  0
LWPOLYLINE
  5
691
330
1F
100
AcDbEntity
  8
LAYER_1
  6
Continuous
 62
     7
100
AcDbPolyline
 90
       21
 70
     0
 43
0.0
 10
287.2813747813352
 20
427.6512704887291
 10
287.4900016800793
 20
427.7662061435662
 10
287.59452664855
 20
427.8522481661909
 10
287.8558396864007
 20
428.1396921378222
 10
287.9076772824174
 20
428.2548411617792
 10
287.9862846862274
 20
428.3697755832689
 10
288.0385465537889
 20
428.5136048703183
 10
288.0644665851448
 20
428.6287526609279
 10
288.1167284527065
 20
428.7719443073127
 10
288.142647250715
 20
428.8873042336947
 10
288.142647250715
 20
429.4333010114401
 10
288.1167284527065
 20
429.5769169293698
 10
288.0644665851448
 20
429.7209583521914
 10
288.0385465537889
 20
429.8356806379085
 10
287.9862846862274
 20
429.9508284285181
 10
287.75131471793
 20
430.2954232572569
 10
287.6727085474676
 20
430.3821029205464
 10
287.59452664855
 20
430.4968252062635
 10
287.4900016800793
 20
430.5543991015686
 10
287.3859009831535
 20
430.6408666290855
 10
287.2550317117821
 20
430.6980150194977
  0
LWPOLYLINE
  5
692
330
1F
100
AcDbEntity
  8
LAYER_1
  6
Continuous
 62
     7
100
AcDbPolyline
 90
       10
 70
     0
 43
0.0
 10
280.8594366433653
 20
435.0674741918697
 10
280.8594366433653
 20
434.8087104833305
 10
280.8853554413736
 20
434.6650945654008
 10
280.9376185422828
 20
434.5212652783513
 10
280.9635373402912
 20
434.4063308568621
 10
281.0158004412003
 20
434.2911818329046
 10
281.2507691761502
 20
433.9465882375138
 10
281.4075572455301
 20
433.7742920564915
 10
281.6161841442743
 20
433.60156913723
 10
281.7470534156457
 20
433.5442086110448
  0
LWPOLYLINE
  5
693
330
1F
100
AcDbEntity
  8
LAYER_1
  6
Continuous
 62
     7
100
AcDbPolyline
 90
       13
 70
     0
 43
0.0
 10
281.7470534156457
 20
439.408465236921
 10
281.6425272138274
 20
439.3222110785239
 10
281.5380022453567
 20
439.264637183219
 10
281.32937657996
 20
439.0921276330773
 10
281.2507691761502
 20
438.9769798424677
 10
281.1725885105803
 20
438.891149955615
 10
281.0158004412003
 20
438.660854374396
 10
280.9635373402912
 20
438.5172372231194
 10
280.9376185422828
 20
438.4023028016297
 10
280.8853554413736
 20
438.2584735145802
 10
280.8594366433653
 20
438.1148575966504
 10
280.8594366433653
 20
437.9712416787212
 10
280.8330935738121
 20
437.8563060238843
  0
LWPOLYLINE
  5
694
330
1F
100
AcDbEntity
  8
LAYER_1
  6
Continuous
 62
     7
100
AcDbPolyline
 90
       14
 70
     0
 43
0.0
 10
283.6786482913466
 20
440.3283735138148
 10
283.8354363607267
 20
440.4144167697873
 10
284.0963251270324
 20
440.5871384557014
 10
284.2267688935114
 20
440.7020741105385
 10
284.5403450322713
 20
441.0470919774747
 10
284.6444457291971
 20
441.1907091287519
 10
284.8012337985769
 20
441.4779409646107
 10
284.8794156974946
 20
441.6506626505253
 10
284.9316787984037
 20
441.794066432682
 10
284.9839406659653
 20
441.9667881185965
 10
285.010284968866
 20
442.1392976687382
 10
285.0615486452639
 20
442.4807066793313
 10
285.0621225648828
 20
442.4845289047943
 10
285.0621225648828
 20
442.6570384549365
  0
LWPOLYLINE
  5
695
330
1F
100
AcDbEntity
  8
LAYER_1
  6
Continuous
 62
     7
100
AcDbPolyline
 90
       15
 70
     0
 43
0.0
 10
223.7919686280572
 20
442.7715486048812
 10
223.7919686280572
 20
442.5994645596315
 10
223.843806224074
 20
442.2542333235753
 10
223.8960680916355
 20
442.1106174056461
 10
223.9224123945364
 20
441.9385321270489
 10
224.0005942934538
 20
441.7655983053624
 10
224.052857394363
 20
441.6219823874327
 10
224.2096454637429
 20
441.3343250466816
 10
224.4182711291395
 20
441.0470919774747
 10
224.5227960976104
 20
440.9319441868653
 10
224.6532398640894
 20
440.8170085320282
 10
224.7577660659077
 20
440.7020741105385
 10
224.9141286303951
 20
440.6156065830215
 10
225.0449979017666
 20
440.5295645603969
 10
225.1754429015934
 20
440.4719906650918
  0
MTEXT
  5
697
330
1F
100
AcDbEntity
  8
1
 62
     7
100
AcDbMText
 10
170.5
 20
34.0
 30
0.0
 40
7.0
 41
0.0
 71
     5
 72
     1
  1
1
  7
CONVERTER_12
 73
     1
 44
0.7202881152461
  0
MTEXT
  5
698
330
1F
100
AcDbEntity
  8
1
 62
     7
100
AcDbMText
 10
187.5
 20
34.0
 30
0.0
 40
7.0
 41
0.0
 71
     5
 72
     1
  1
2
  7
CONVERTER_12
 73
     1
 44
0.7202881152461
  0
MTEXT
  5
699
330
1F
100
AcDbEntity
  8
1
 62
     7
100
AcDbMText
 10
114.0
 20
28.5
 30
0.0
 40
7.0
 41
0.0
 71
     5
 72
     1
  1
H6420T-50X各種
  7
CONVERTER_11
 73
     1
 44
0.54545454545455
  0
MTEXT
  5
69A
330
1F
100
AcDbEntity
  8
1
 62
     7
100
AcDbMText
 10
114.0
 20
45.50000000000002
 30
0.0
 40
7.0
 41
0.0
 71
     5
 72
     1
  1
パン排水フレキ
  7
CONVERTER_11
 73
     1
 44
0.54545454545455
  0
MTEXT
  5
69B
330
1F
100
AcDbEntity
  8
0
 62
     7
100
AcDbMText
 10
297.9968846223521
 20
132.6925041623589
 30
0.0
 40
7.0
 41
0.0
 71
     5
 72
     1
  1
160
  7
CONVERTER_12
 73
     1
 44
1.32052821128451
  0
MTEXT
  5
69C
330
1F
100
AcDbEntity
  8
0
 62
     7
100
AcDbMText
 10
205.4968846223519
 20
132.6925041623589
 30
0.0
 40
7.0
 41
0.0
 71
     5
 72
     1
  1
H6420T-50X250
  7
CONVERTER_12
 73
     1
 44
1.32052821128451
  0
MTEXT
  5
69D
330
1F
100
AcDbEntity
  8
0
 62
     7
100
AcDbMText
 10
297.9968846223521
 20
146.6925041623589
 30
0.0
 40
7.0
 41
0.0
 71
     5
 72
     1
  1
110
  7
CONVERTER_12
 73
     1
 44
1.32052821128451
  0
MTEXT
  5
69E
330
1F
100
AcDbEntity
  8
0
 62
     7
100
AcDbMText
 10
267.9968846223519
 20
163.6925041623589
 30
0.0
 40
7.0
 41
0.0
 71
     5
 72
     1
  1
A
  7
CONVERTER_12
 73
     1
 44
1.32052821128451
  0
MTEXT
  5
69F
330
1F
100
AcDbEntity
  8
0
 62
     7
100
AcDbMText
 10
205.4968846223519
 20
146.6925041623589
 30
0.0
 40
7.0
 41
0.0
 71
     5
 72
     1
  1
H6420T-50X200
  7
CONVERTER_12
 73
     1
 44
1.32052821128451
  0
MTEXT
  5
6A0
330
1F
100
AcDbEntity
  8
0
 62
     7
100
AcDbMText
 10
205.4968846223519
 20
163.6925041623589
 30
0.0
 40
7.0
 41
0.0
 71
     5
 72
     1
  1
品番
  7
CONVERTER_11
 73
     1
 44
1.0
  0
MTEXT
  5
6A1
330
1F
100
AcDbEntity
  8
0
 62
     7
100
AcDbMText
 10
205.4968846223519
 20
118.6925041623589
 30
0.0
 40
7.0
 41
0.0
 71
     5
 72
     1
  1
H6420T-50X300
  7
CONVERTER_12
 73
     1
 44
1.32052821128451
  0
MTEXT
  5
6A2
330
1F
100
AcDbEntity
  8
0
 62
     7
100
AcDbMText
 10
297.9968846223521
 20
118.6925041623589
 30
0.0
 40
7.0
 41
0.0
 71
     5
 72
     1
  1
210
  7
CONVERTER_12
 73
     1
 44
1.32052821128451
  0
MTEXT
  5
6A3
330
1F
100
AcDbEntity
  8
0
 62
     7
100
AcDbMText
 10
267.9968846223519
 20
118.6925041623589
 30
0.0
 40
7.0
 41
0.0
 71
     5
 72
     1
  1
300
  7
CONVERTER_12
 73
     1
 44
1.32052821128451
  0
MTEXT
  5
6A4
330
1F
100
AcDbEntity
  8
0
 62
     7
100
AcDbMText
 10
297.9968846223519
 20
163.6925041623589
 30
0.0
 40
7.0
 41
0.0
 71
     5
 72
     1
  1
B
  7
CONVERTER_12
 73
     1
 44
1.32052821128451
  0
MTEXT
  5
6A5
330
1F
100
AcDbEntity
  8
0
 62
     7
100
AcDbMText
 10
267.9968846223519
 20
146.6925041623589
 30
0.0
 40
7.0
 41
0.0
 71
     5
 72
     1
  1
200
  7
CONVERTER_12
 73
     1
 44
1.32052821128451
  0
MTEXT
  5
6A6
330
1F
100
AcDbEntity
  8
0
 62
     7
100
AcDbMText
 10
267.9968846223519
 20
132.6925041623589
 30
0.0
 40
7.0
 41
0.0
 71
     5
 72
     1
  1
250
  7
CONVERTER_12
 73
     1
 44
1.32052821128451
  0
DIMENSION
  5
6B1
330
1F
100
AcDbEntity
  8
1
100
AcDbDimension
  2
*D2
 10
225.5183984134904
 20
507.1133346366431
 30
0.0
 11
254.5183984134904
 21
512.6133346366431
 31
0.0
 70
    32
  1
<>
 71
     5
 42
-1.0
 53
0.00013888888889
  3
ME10_DIM_10
100
AcDbAlignedDimension
 13
283.5183984134904
 23
487.0844975362495
 33
0.0
 14
225.5183984134904
 24
487.1421717370368
 34
0.0
100
AcDbRotatedDimension
  0
DIMENSION
  5
6BC
330
1F
100
AcDbEntity
  8
1
100
AcDbDimension
  2
*D3
 10
224.435692162776
 20
225.8776226200104
 30
0.0
 11
254.5183984134904
 21
231.7276226200104
 31
0.0
 70
    32
  1
<>
 71
     5
 42
-1.0
 53
0.00013888888889
  3
ME10_DIM_11
100
AcDbAlignedDimension
 13
284.2356921627759
 23
245.9259297829942
 33
0.0
 14
224.435692162776
 24
245.8287745735996
 34
0.0
100
AcDbRotatedDimension
  0
DIMENSION
  5
6C7
330
1F
100
AcDbEntity
  8
1
100
AcDbDimension
  2
*D4
 10
200.7637058097868
 20
442.5994645596315
 30
0.0
 11
195.2637058097868
 21
464.8563995981373
 31
0.0
 70
    32
  1
45
 71
     5
 42
-1.0
 53
90.0
  3
ME10_DIM_12
100
AcDbAlignedDimension
 13
222.5125567603699
 23
487.1451606941926
 33
0.0
 14
223.7919686280572
 24
442.5994645596315
 34
0.0
 50
90.0
100
AcDbRotatedDimension
  0
DIMENSION
  5
6D2
330
1F
100
AcDbEntity
  8
1
100
AcDbDimension
  2
*D5
 10
200.7637058097868
 20
333.1607347582495
 30
0.0
 11
195.2637058097868
 21
387.8800996589405
 31
0.0
 70
    32
  1
B
 71
     5
 42
-1.0
 53
90.0
  3
ME10_DIM_13
100
AcDbAlignedDimension
 13
223.7919686280572
 23
442.5994645596315
 33
0.0
 14
223.843806224074
 24
333.1607347582495
 34
0.0
 50
90.0
100
AcDbRotatedDimension
  0
DIMENSION
  5
6DD
330
1F
100
AcDbEntity
  8
1
100
AcDbDimension
  2
*D6
 10
200.7637058097868
 20
333.1607347582494
 30
0.0
 11
195.2637058097868
 21
308.6798957940766
 31
0.0
 70
    32
  1
45
 71
     5
 42
-1.0
 53
90.0
  3
ME10_DIM_14
100
AcDbAlignedDimension
 13
222.6693818874793
 23
284.1990568299038
 33
0.0
 14
223.8435020452736
 24
333.1607347582495
 34
0.0
 50
90.0
100
AcDbRotatedDimension
  0
DIMENSION
  5
6E8
330
1F
100
AcDbEntity
  8
1
100
AcDbDimension
  2
*D7
 10
184.7637058097868
 20
284.1990568299038
 30
0.0
 11
179.2637058097868
 21
265.0383529226961
 31
0.0
 70
    32
  1
40
 71
     5
 42
-1.0
 53
90.0
  3
ME10_DIM_15
100
AcDbAlignedDimension
 13
224.435692162776
 23
245.8287745735996
 33
0.0
 14
222.6693818874793
 24
284.1990568299038
 34
0.0
 50
90.0
100
AcDbRotatedDimension
  0
DIMENSION
  5
6F3
330
1F
100
AcDbEntity
  8
1
100
AcDbDimension
  2
*D8
 10
184.7637058097868
 20
487.1453423379043
 30
0.0
 11
179.2637058097868
 21
385.6561957332735
 31
0.0
 70
    32
  1
A
 71
     5
 42
-1.0
 53
90.0
  3
ME10_DIM_16
100
AcDbAlignedDimension
 13
222.6693818874793
 23
284.1990568299038
 33
0.0
 14
222.5125938180994
 24
487.1453423379043
 34
0.0
 50
90.0
100
AcDbRotatedDimension
  0
ENDSEC
  0
SECTION
  2
OBJECTS
  0
DICTIONARY
  5
C
330
0
100
AcDbDictionary
281
     1
  3
ACAD_GROUP
350
D
  3
ACAD_LAYOUT
350
1A
  3
ACAD_MATERIAL
350
3B
  3
ACAD_MLEADERSTYLE
350
6F6
  3
ACAD_MLINESTYLE
350
17
  3
ACAD_PLOTSETTINGS
350
19
  3
ACAD_PLOTSTYLENAME
350
E
  3
ACAD_VISUALSTYLE
350
2A
  3
AcDbVariableDictionary
350
6F4
  0
DICTIONARY
  5
D
102
{ACAD_REACTORS
330
C
102
}
330
C
100
AcDbDictionary
281
     1
  0
DICTIONARY
  5
1A
102
{ACAD_REACTORS
330
C
102
}
330
C
100
AcDbDictionary
281
     1
  3
Layout1
350
1E
  3
Layout2
350
26
  3
Model
350
22
  0
DICTIONARY
  5
3B
102
{ACAD_REACTORS
330
C
102
}
330
C
100
AcDbDictionary
281
     1
  3
ByBlock
350
3D
  3
ByLayer
350
3C
  3
Global
350
3E
  0
DICTIONARY
  5
6F6
102
{ACAD_REACTORS
330
C
102
}
330
C
100
AcDbDictionary
281
     1
  0
DICTIONARY
  5
17
102
{ACAD_REACTORS
330
C
102
}
330
C
100
AcDbDictionary
281
     1
  3
Standard
350
18
  0
DICTIONARY
  5
19
102
{ACAD_REACTORS
330
C
102
}
330
C
100
AcDbDictionary
281
     1
  0
ACDBDICTIONARYWDFLT
  5
E
102
{ACAD_REACTORS
330
C
102
}
330
C
100
AcDbDictionary
281
     1
  3
Normal
350
F
100
AcDbDictionaryWithDefault
340
F
  0
DICTIONARY
  5
2A
102
{ACAD_REACTORS
330
C
102
}
330
C
100
AcDbDictionary
281
     1
  3
2dWireframe
350
2F
  3
3D Hidden
350
31
  3
3dWireframe
350
30
  3
Basic
350
32
  3
Brighten
350
36
  3
ColorChange
350
3A
  3
Conceptual
350
34
  3
Dim
350
35
  3
Facepattern
350
39
  3
Flat
350
2B
  3
FlatWithEdges
350
2C
  3
Gouraud
350
2D
  3
GouraudWithEdges
350
2E
  3
Linepattern
350
38
  3
Realistic
350
33
  3
Thicken
350
37
  0
DICTIONARY
  5
6F4
102
{ACAD_REACTORS
330
C
102
}
330
C
100
AcDbDictionary
281
     1
  3
DIMASSOC
350
6F7
  3
HIDETEXT
350
6F8
  0
LAYOUT
  5
1E
102
{ACAD_REACTORS
330
1A
102
}
330
1A
100
AcDbPlotSettings
  1

  2
none_device
  4

  6

 40
0.0
 41
0.0
 42
0.0
 43
0.0
 44
0.0
 45
0.0
 46
0.0
 47
0.0
 48
0.0
 49
0.0
140
0.0
141
0.0
142
1.0
143
1.0
 70
   688
 72
     0
 73
     0
 74
     5
  7

 75
    16
147
1.0
148
0.0
149
0.0
100
AcDbLayout
  1
Layout1
 70
     1
 71
     1
 10
0.0
 20
0.0
 11
12.0
 21
9.0
 12
0.0
 22
0.0
 32
0.0
 14
1.00000000000000E+20
 24
1.00000000000000E+20
 34
1.00000000000000E+20
 15
-1.00000000000000E+20
 25
-1.00000000000000E+20
 35
-1.00000000000000E+20
146
0.0
 13
0.0
 23
0.0
 33
0.0
 16
1.0
 26
0.0
 36
0.0
 17
0.0
 27
1.0
 37
0.0
 76
     0
330
1B
  0
LAYOUT
  5
26
102
{ACAD_REACTORS
330
1A
102
}
330
1A
100
AcDbPlotSettings
  1

  2
none_device
  4

  6

 40
0.0
 41
0.0
 42
0.0
 43
0.0
 44
0.0
 45
0.0
 46
0.0
 47
0.0
 48
0.0
 49
0.0
140
0.0
141
0.0
142
1.0
143
1.0
 70
   688
 72
     0
 73
     0
 74
     5
  7

 75
    16
147
1.0
148
0.0
149
0.0
100
AcDbLayout
  1
Layout2
 70
     1
 71
     2
 10
0.0
 20
0.0
 11
0.0
 21
0.0
 12
0.0
 22
0.0
 32
0.0
 14
0.0
 24
0.0
 34
0.0
 15
0.0
 25
0.0
 35
0.0
146
0.0
 13
0.0
 23
0.0
 33
0.0
 16
1.0
 26
0.0
 36
0.0
 17
0.0
 27
1.0
 37
0.0
 76
     0
330
23
  0
LAYOUT
  5
22
102
{ACAD_REACTORS
330
1A
102
}
330
1A
100
AcDbPlotSettings
  1

  2
none_device
  4

  6

 40
0.0
 41
0.0
 42
0.0
 43
0.0
 44
0.0
 45
0.0
 46
0.0
 47
0.0
 48
0.0
 49
0.0
140
0.0
141
0.0
142
1.0
143
1.0
 70
  1712
 72
     0
 73
     0
 74
     0
  7

 75
     0
147
1.0
148
0.0
149
0.0
100
AcDbLayout
  1
Model
 70
     1
 71
     0
 10
0.0
 20
0.0
 11
12.0
 21
9.0
 12
0.0
 22
0.0
 32
0.0
 14
0.0
 24
0.0
 34
0.0
 15
420.0
 25
594.0
 35
0.0
146
0.0
 13
0.0
 23
0.0
 33
0.0
 16
1.0
 26
0.0
 36
0.0
 17
0.0
 27
1.0
 37
0.0
 76
     0
330
1F
331
29
  0
MATERIAL
  5
3D
102
{ACAD_REACTORS
330
3B
102
}
102
{ACAD_XDICTIONARY
360
71B
102
}
330
3B
100
AcDbMaterial
  1
ByBlock
  0
MATERIAL
  5
3C
102
{ACAD_REACTORS
330
3B
102
}
102
{ACAD_XDICTIONARY
360
719
102
}
330
3B
100
AcDbMaterial
  1
ByLayer
  0
MATERIAL
  5
3E
102
{ACAD_REACTORS
330
3B
102
}
102
{ACAD_XDICTIONARY
360
71D
102
}
330
3B
100
AcDbMaterial
  1
Global
  0
MLINESTYLE
  5
18
102
{ACAD_REACTORS
330
17
102
}
330
17
100
AcDbMlineStyle
  2
Standard
 70
     0
  3

 62
   256
 51
90.0
 52
90.0
 71
     2
 49
0.5
 62
   256
  6
BYLAYER
 49
-0.5
 62
   256
  6
BYLAYER
  0
ACDBPLACEHOLDER
  5
F
102
{ACAD_REACTORS
330
E
102
}
330
E
  0
VISUALSTYLE
  5
2F
102
{ACAD_REACTORS
330
2A
102
}
102
{ACAD_XDICTIONARY
360
701
102
}
330
2A
100
AcDbVisualStyle
  2
2dWireframe
 70
     4
 71
     0
 72
     2
 73
     0
 90
        0
 40
-0.6
 41
-30.0
 62
     5
 63
     7
 74
     1
 91
        4
 64
     7
 65
   257
 75
     1
175
     1
 42
1.0
 92
        0
 66
   257
 43
1.0
 76
     1
 77
     6
 78
     2
 67
     7
 79
     5
170
     0
171
     0
290
     0
174
     0
 93
        1
 44
0.0
173
     0
291
     0
 45
0.0
1001
ACAD
1000
AcDbSavedByObjectVersion
1070
     0
  0
VISUALSTYLE
  5
31
102
{ACAD_REACTORS
330
2A
102
}
102
{ACAD_XDICTIONARY
360
705
102
}
330
2A
100
AcDbVisualStyle
  2
3D Hidden
 70
     6
 71
     1
 72
     2
 73
     2
 90
        0
 40
-0.6
 41
-30.0
 62
     5
 63
     7
 74
     2
 91
        2
 64
     7
 65
   257
 75
     2
175
     1
 42
40.0
 92
        0
 66
   257
 43
1.0
 76
     1
 77
     6
 78
     2
 67
     7
 79
     3
170
     0
171
     0
290
     0
174
     0
 93
        1
 44
0.0
173
     0
291
     0
 45
0.0
1001
ACAD
1000
AcDbSavedByObjectVersion
1070
     0
  0
VISUALSTYLE
  5
30
102
{ACAD_REACTORS
330
2A
102
}
102
{ACAD_XDICTIONARY
360
703
102
}
330
2A
100
AcDbVisualStyle
  2
3dWireframe
 70
     5
 71
     0
 72
     2
 73
     0
 90
        0
 40
-0.6
 41
-30.0
 62
     5
 63
     7
 74
     1
 91
        4
 64
     7
 65
   257
 75
     1
175
     1
 42
1.0
 92
        0
 66
   257
 43
1.0
 76
     1
 77
     6
 78
     2
 67
     7
 79
     5
170
     0
171
     0
290
     0
174
     0
 93
        1
 44
0.0
173
     0
291
     0
 45
0.0
1001
ACAD
1000
AcDbSavedByObjectVersion
1070
     0
  0
VISUALSTYLE
  5
32
102
{ACAD_REACTORS
330
2A
102
}
102
{ACAD_XDICTIONARY
360
707
102
}
330
2A
100
AcDbVisualStyle
  2
Basic
 70
     7
 71
     1
 72
     0
 73
     1
 90
        0
 40
-0.6
 41
-30.0
 62
     5
 63
     7
 74
     0
 91
        4
 64
     7
 65
   257
 75
     1
175
     1
 42
1.0
 92
        8
 66
     7
 43
1.0
 76
     1
 77
     6
 78
     2
 67
     7
 79
     5
170
     0
171
     0
290
     0
174
     0
 93
        1
 44
0.0
173
     0
291
     1
 45
0.0
1001
ACAD
1000
AcDbSavedByObjectVersion
1070
     0
  0
VISUALSTYLE
  5
36
102
{ACAD_REACTORS
330
2A
102
}
102
{ACAD_XDICTIONARY
360
70F
102
}
330
2A
100
AcDbVisualStyle
  2
Brighten
 70
    12
 71
     2
 72
     2
 73
     0
 90
        0
 40
-0.6
 41
-30.0
 62
     5
 63
     7
 74
     1
 91
        4
 64
     7
 65
   257
 75
     1
175
     1
 42
1.0
 92
        8
 66
     7
 43
1.0
 76
     1
 77
     6
 78
     2
 67
     7
 79
     5
170
     0
171
     0
290
     0
174
     0
 93
        1
 44
50.0
173
     0
291
     1
 45
0.0
1001
ACAD
1000
AcDbSavedByObjectVersion
1070
     0
  0
VISUALSTYLE
  5
3A
102
{ACAD_REACTORS
330
2A
102
}
102
{ACAD_XDICTIONARY
360
717
102
}
330
2A
100
AcDbVisualStyle
  2
ColorChange
 70
    16
 71
     2
 72
     2
 73
     3
 90
        0
 40
-0.6
 41
-30.0
 62
     5
 63
     8
 74
     1
 91
        4
 64
     7
 65
   257
 75
     1
175
     1
 42
1.0
 92
        8
 66
     8
 43
1.0
 76
     1
 77
     6
 78
     2
 67
     7
 79
     5
170
     0
171
     0
290
     0
174
     0
 93
        1
 44
0.0
173
     0
291
     1
 45
0.0
1001
ACAD
1000
AcDbSavedByObjectVersion
1070
     0
  0
VISUALSTYLE
  5
34
102
{ACAD_REACTORS
330
2A
102
}
102
{ACAD_XDICTIONARY
360
70B
102
}
330
2A
100
AcDbVisualStyle
  2
Conceptual
 70
     9
 71
     3
 72
     2
 73
     0
 90
        0
 40
-0.6
 41
-30.0
 62
     5
 63
     7
 74
     2
 91
        2
 64
     7
 65
   257
 75
     1
175
     1
 42
40.0
 92
        8
 66
     7
 43
1.0
 76
     1
 77
     6
 78
     2
 67
     7
 79
     3
170
     0
171
     0
290
     0
174
     0
 93
        1
 44
0.0
173
     0
291
     0
 45
0.0
1001
ACAD
1000
AcDbSavedByObjectVersion
1070
     0
  0
VISUALSTYLE
  5
35
102
{ACAD_REACTORS
330
2A
102
}
102
{ACAD_XDICTIONARY
360
70D
102
}
330
2A
100
AcDbVisualStyle
  2
Dim
 70
    11
 71
     2
 72
     2
 73
     0
 90
        0
 40
-0.6
 41
-30.0
 62
     5
 63
     7
 74
     1
 91
        4
 64
     7
 65
   257
 75
     1
175
     1
 42
1.0
 92
        8
 66
     7
 43
1.0
 76
     1
 77
     6
 78
     2
 67
     7
 79
     5
170
     0
171
     0
290
     0
174
     0
 93
        1
 44
-50.0
173
     0
291
     1
 45
0.0
1001
ACAD
1000
AcDbSavedByObjectVersion
1070
     0
  0
VISUALSTYLE
  5
39
102
{ACAD_REACTORS
330
2A
102
}
102
{ACAD_XDICTIONARY
360
715
102
}
330
2A
100
AcDbVisualStyle
  2
Facepattern
 70
    15
 71
     2
 72
     2
 73
     0
 90
        0
 40
-0.6
 41
-30.0
 62
     5
 63
     7
 74
     1
 91
        4
 64
     7
 65
   257
 75
     1
175
     1
 42
1.0
 92
        8
 66
     7
 43
1.0
 76
     1
 77
     6
 78
     2
 67
     7
 79
     5
170
     0
171
     0
290
     0
174
     0
 93
        1
 44
0.0
173
     0
291
     1
 45
0.0
1001
ACAD
1000
AcDbSavedByObjectVersion
1070
     0
  0
VISUALSTYLE
  5
2B
102
{ACAD_REACTORS
330
2A
102
}
102
{ACAD_XDICTIONARY
360
6F9
102
}
330
2A
100
AcDbVisualStyle
  2
Flat
 70
     0
 71
     2
 72
     1
 73
     1
 90
        2
 40
-0.6
 41
30.0
 62
     5
 63
     7
 74
     0
 91
        4
 64
     7
 65
   257
 75
     1
175
     1
 42
1.0
 92
        8
 66
     7
 43
1.0
 76
     1
 77
     6
 78
     2
 67
     7
 79
     5
170
     0
171
     0
290
     0
174
     0
 93
       13
 44
0.0
173
     0
291
     1
 45
0.0
1001
ACAD
1000
AcDbSavedByObjectVersion
1070
     0
  0
VISUALSTYLE
  5
2C
102
{ACAD_REACTORS
330
2A
102
}
102
{ACAD_XDICTIONARY
360
6FB
102
}
330
2A
100
AcDbVisualStyle
  2
FlatWithEdges
 70
     1
 71
     2
 72
     1
 73
     1
 90
        2
 40
-0.6
 41
30.0
 62
     5
 63
     7
 74
     1
 91
        4
 64
     7
 65
   257
 75
     1
175
     1
 42
1.0
 92
        0
 66
   257
 43
1.0
 76
     1
 77
     6
 78
     2
 67
     7
 79
     5
170
     0
171
     0
290
     0
174
     0
 93
       13
 44
0.0
173
     0
291
     1
 45
0.0
1001
ACAD
1000
AcDbSavedByObjectVersion
1070
     0
  0
VISUALSTYLE
  5
2D
102
{ACAD_REACTORS
330
2A
102
}
102
{ACAD_XDICTIONARY
360
6FD
102
}
330
2A
100
AcDbVisualStyle
  2
Gouraud
 70
     2
 71
     2
 72
     2
 73
     1
 90
        2
 40
-0.6
 41
30.0
 62
     5
 63
     7
 74
     0
 91
        4
 64
     7
 65
   257
 75
     1
175
     1
 42
1.0
 92
        0
 66
     7
 43
1.0
 76
     1
 77
     6
 78
     2
 67
     7
 79
     5
170
     0
171
     0
290
     0
174
     0
 93
       13
 44
0.0
173
     0
291
     1
 45
0.0
1001
ACAD
1000
AcDbSavedByObjectVersion
1070
     0
  0
VISUALSTYLE
  5
2E
102
{ACAD_REACTORS
330
2A
102
}
102
{ACAD_XDICTIONARY
360
6FF
102
}
330
2A
100
AcDbVisualStyle
  2
GouraudWithEdges
 70
     3
 71
     2
 72
     2
 73
     1
 90
        2
 40
-0.6
 41
30.0
 62
     5
 63
     7
 74
     1
 91
        4
 64
     7
 65
   257
 75
     1
175
     1
 42
1.0
 92
        0
 66
   257
 43
1.0
 76
     1
 77
     6
 78
     2
 67
     7
 79
     5
170
     0
171
     0
290
     0
174
     0
 93
       13
 44
0.0
173
     0
291
     1
 45
0.0
1001
ACAD
1000
AcDbSavedByObjectVersion
1070
     0
  0
VISUALSTYLE
  5
38
102
{ACAD_REACTORS
330
2A
102
}
102
{ACAD_XDICTIONARY
360
713
102
}
330
2A
100
AcDbVisualStyle
  2
Linepattern
 70
    14
 71
     2
 72
     2
 73
     0
 90
        0
 40
-0.6
 41
-30.0
 62
     5
 63
     7
 74
     1
 91
        4
 64
     7
 65
   257
 75
     7
175
     7
 42
1.0
 92
        8
 66
     7
 43
1.0
 76
     1
 77
     6
 78
     2
 67
     7
 79
     5
170
     0
171
     0
290
     0
174
     0
 93
        1
 44
0.0
173
     0
291
     1
 45
0.0
1001
ACAD
1000
AcDbSavedByObjectVersion
1070
     0
  0
VISUALSTYLE
  5
33
102
{ACAD_REACTORS
330
2A
102
}
102
{ACAD_XDICTIONARY
360
709
102
}
330
2A
100
AcDbVisualStyle
  2
Realistic
 70
     8
 71
     2
 72
     2
 73
     0
 90
        0
 40
-0.6
 41
-30.0
 62
     5
 63
     7
 74
     1
 91
        0
 64
     7
 65
   257
 75
     1
175
     1
 42
1.0
 92
        8
 66
     8
 43
1.0
 76
     1
 77
     6
 78
     2
 67
     7
 79
     5
170
     0
171
     0
290
     0
174
     0
 93
       13
 44
0.0
173
     0
291
     0
 45
0.0
1001
ACAD
1000
AcDbSavedByObjectVersion
1070
     0
  0
VISUALSTYLE
  5
37
102
{ACAD_REACTORS
330
2A
102
}
102
{ACAD_XDICTIONARY
360
711
102
}
330
2A
100
AcDbVisualStyle
  2
Thicken
 70
    13
 71
     2
 72
     2
 73
     0
 90
        0
 40
-0.6
 41
-30.0
 62
     5
 63
     7
 74
     1
 91
        4
 64
     7
 65
   257
 75
     1
175
     1
 42
1.0
 92
       12
 66
     7
 43
1.0
 76
     1
 77
     6
 78
     2
 67
     7
 79
     5
170
     0
171
     0
290
     0
174
     0
 93
        1
 44
0.0
173
     0
291
     1
 45
0.0
1001
ACAD
1000
AcDbSavedByObjectVersion
1070
     0
  0
DICTIONARYVAR
  5
6F7
102
{ACAD_REACTORS
330
6F4
102
}
330
6F4
100
DictionaryVariables
280
     0
  1
2
  0
DICTIONARYVAR
  5
6F8
102
{ACAD_REACTORS
330
6F4
102
}
330
6F4
100
DictionaryVariables
280
     0
  1
1
  0
DICTIONARY
  5
71B
330
3D
100
AcDbDictionary
280
     1
281
     1
  3
ACAD_XREC_ROUNDTRIP
360
71C
  0
DICTIONARY
  5
719
330
3C
100
AcDbDictionary
280
     1
281
     1
  3
ACAD_XREC_ROUNDTRIP
360
71A
  0
DICTIONARY
  5
71D
330
3E
100
AcDbDictionary
280
     1
281
     1
  3
ACAD_XREC_ROUNDTRIP
360
71E
  0
DICTIONARY
  5
701
330
2F
100
AcDbDictionary
280
     1
281
     1
  3
ACAD_XREC_ROUNDTRIP
360
702
  0
DICTIONARY
  5
705
330
31
100
AcDbDictionary
280
     1
281
     1
  3
ACAD_XREC_ROUNDTRIP
360
706
  0
DICTIONARY
  5
703
330
30
100
AcDbDictionary
280
     1
281
     1
  3
ACAD_XREC_ROUNDTRIP
360
704
  0
DICTIONARY
  5
707
330
32
100
AcDbDictionary
280
     1
281
     1
  3
ACAD_XREC_ROUNDTRIP
360
708
  0
DICTIONARY
  5
70F
330
36
100
AcDbDictionary
280
     1
281
     1
  3
ACAD_XREC_ROUNDTRIP
360
710
  0
DICTIONARY
  5
717
330
3A
100
AcDbDictionary
280
     1
281
     1
  3
ACAD_XREC_ROUNDTRIP
360
718
  0
DICTIONARY
  5
70B
330
34
100
AcDbDictionary
280
     1
281
     1
  3
ACAD_XREC_ROUNDTRIP
360
70C
  0
DICTIONARY
  5
70D
330
35
100
AcDbDictionary
280
     1
281
     1
  3
ACAD_XREC_ROUNDTRIP
360
70E
  0
DICTIONARY
  5
715
330
39
100
AcDbDictionary
280
     1
281
     1
  3
ACAD_XREC_ROUNDTRIP
360
716
  0
DICTIONARY
  5
6F9
330
2B
100
AcDbDictionary
280
     1
281
     1
  3
ACAD_XREC_ROUNDTRIP
360
6FA
  0
DICTIONARY
  5
6FB
330
2C
100
AcDbDictionary
280
     1
281
     1
  3
ACAD_XREC_ROUNDTRIP
360
6FC
  0
DICTIONARY
  5
6FD
330
2D
100
AcDbDictionary
280
     1
281
     1
  3
ACAD_XREC_ROUNDTRIP
360
6FE
  0
DICTIONARY
  5
6FF
330
2E
100
AcDbDictionary
280
     1
281
     1
  3
ACAD_XREC_ROUNDTRIP
360
700
  0
DICTIONARY
  5
713
330
38
100
AcDbDictionary
280
     1
281
     1
  3
ACAD_XREC_ROUNDTRIP
360
714
  0
DICTIONARY
  5
709
330
33
100
AcDbDictionary
280
     1
281
     1
  3
ACAD_XREC_ROUNDTRIP
360
70A
  0
DICTIONARY
  5
711
330
37
100
AcDbDictionary
280
     1
281
     1
  3
ACAD_XREC_ROUNDTRIP
360
712
  0
XRECORD
  5
71C
102
{ACAD_REACTORS
330
71B
102
}
330
71B
100
AcDbXrecord
280
     1
102
MATERIAL
148
0.0
149
0.0
149
0.0
 93
        0
 94
      127
282
     0
 72
     1
 77
     1
171
     1
175
     1
179
     1
273
     0
  0
XRECORD
  5
71A
102
{ACAD_REACTORS
330
719
102
}
330
719
100
AcDbXrecord
280
     1
102
MATERIAL
148
0.0
149
0.0
149
0.0
 93
        0
 94
      127
282
     0
 72
     1
 77
     1
171
     1
175
     1
179
     1
273
     0
  0
XRECORD
  5
71E
102
{ACAD_REACTORS
330
71D
102
}
330
71D
100
AcDbXrecord
280
     1
102
MATERIAL
148
0.0
149
0.0
149
0.0
 93
        0
 94
      127
282
     0
 72
     1
 77
     1
171
     1
175
     1
179
     1
273
     0
  0
XRECORD
  5
702
102
{ACAD_REACTORS
330
701
102
}
330
701
100
AcDbXrecord
280
     1
102
RTVSPropertyOp0
 70
     1
102
RTVSPropertyOp1
 70
     1
102
RTVSPropertyOp2
 70
     1
102
RTVSPropertyOp3
 70
     1
102
RTVSPropertyOp4
 70
     1
102
RTVSPropertyOp5
 70
     1
102
RTVSPropertyOp6
 70
     1
102
RTVSPropertyOp7
 70
     1
102
RTVSPropertyOp8
 70
     1
102
RTVSPropertyOp9
 70
     1
102
RTVSPropertyOp10
 70
     1
102
RTVSPropertyOp11
 70
     1
102
RTVSPropertyOp12
 70
     1
102
RTVSPropertyOp13
 70
     1
102
RTVSPropertyOp14
 70
     1
102
RTVSPropertyOp15
 70
     1
102
RTVSPropertyOp16
 70
     1
102
RTVSPropertyOp17
 70
     1
102
RTVSPropertyOp18
 70
     1
102
RTVSPropertyOp19
 70
     1
102
RTVSPropertyOp20
 70
     1
102
RTVSPropertyOp21
 70
     1
102
RTVSPropertyOp22
 70
     1
102
RTVSPropertyOp23
 70
     1
102
RTVSPropertyOp24
 70
     1
102
RTVSPropertyOp25
 70
     1
102
RTVSPropertyOp26
 70
     1
102
RTVSPropertyOp27
 70
     1
102
RTVSPropertyOp28
 70
     1
102
RTVSPropertyOp29
 70
     1
102
RTVSPropertyOp30
 70
     1
102
RTVSPropertyOp31
 70
     1
102
RTVSPropertyOp32
 70
     1
  0
XRECORD
  5
706
102
{ACAD_REACTORS
330
705
102
}
330
705
100
AcDbXrecord
280
     1
102
RTVSPropertyOp0
 70
     1
102
RTVSPropertyOp1
 70
     1
102
RTVSPropertyOp2
 70
     1
102
RTVSPropertyOp3
 70
     1
102
RTVSPropertyOp4
 70
     1
102
RTVSPropertyOp5
 70
     1
102
RTVSPropertyOp6
 70
     1
102
RTVSPropertyOp7
 70
     1
102
RTVSPropertyOp8
 70
     1
102
RTVSPropertyOp9
 70
     1
102
RTVSPropertyOp10
 70
     1
102
RTVSPropertyOp11
 70
     1
102
RTVSPropertyOp12
 70
     1
102
RTVSPropertyOp13
 70
     1
102
RTVSPropertyOp14
 70
     1
102
RTVSPropertyOp15
 70
     1
102
RTVSPropertyOp16
 70
     1
102
RTVSPropertyOp17
 70
     1
102
RTVSPropertyOp18
 70
     1
102
RTVSPropertyOp19
 70
     1
102
RTVSPropertyOp20
 70
     1
102
RTVSPropertyOp21
 70
     1
102
RTVSPropertyOp22
 70
     1
102
RTVSPropertyOp23
 70
     1
102
RTVSPropertyOp24
 70
     1
102
RTVSPropertyOp25
 70
     1
102
RTVSPropertyOp26
 70
     1
102
RTVSPropertyOp27
 70
     1
102
RTVSPropertyOp28
 70
     1
102
RTVSPropertyOp29
 70
     1
102
RTVSPropertyOp30
 70
     1
102
RTVSPropertyOp31
 70
     1
102
RTVSPropertyOp32
 70
     1
  0
XRECORD
  5
704
102
{ACAD_REACTORS
330
703
102
}
330
703
100
AcDbXrecord
280
     1
102
RTVSPropertyOp0
 70
     1
102
RTVSPropertyOp1
 70
     1
102
RTVSPropertyOp2
 70
     1
102
RTVSPropertyOp3
 70
     1
102
RTVSPropertyOp4
 70
     1
102
RTVSPropertyOp5
 70
     1
102
RTVSPropertyOp6
 70
     1
102
RTVSPropertyOp7
 70
     1
102
RTVSPropertyOp8
 70
     1
102
RTVSPropertyOp9
 70
     1
102
RTVSPropertyOp10
 70
     1
102
RTVSPropertyOp11
 70
     1
102
RTVSPropertyOp12
 70
     1
102
RTVSPropertyOp13
 70
     1
102
RTVSPropertyOp14
 70
     1
102
RTVSPropertyOp15
 70
     1
102
RTVSPropertyOp16
 70
     1
102
RTVSPropertyOp17
 70
     1
102
RTVSPropertyOp18
 70
     1
102
RTVSPropertyOp19
 70
     1
102
RTVSPropertyOp20
 70
     1
102
RTVSPropertyOp21
 70
     1
102
RTVSPropertyOp22
 70
     1
102
RTVSPropertyOp23
 70
     1
102
RTVSPropertyOp24
 70
     1
102
RTVSPropertyOp25
 70
     1
102
RTVSPropertyOp26
 70
     1
102
RTVSPropertyOp27
 70
     1
102
RTVSPropertyOp28
 70
     1
102
RTVSPropertyOp29
 70
     1
102
RTVSPropertyOp30
 70
     1
102
RTVSPropertyOp31
 70
     1
102
RTVSPropertyOp32
 70
     1
  0
XRECORD
  5
708
102
{ACAD_REACTORS
330
707
102
}
330
707
100
AcDbXrecord
280
     1
102
RTVSPropertyOp0
 70
     1
102
RTVSPropertyOp1
 70
     1
102
RTVSPropertyOp2
 70
     1
102
RTVSPropertyOp3
 70
     1
102
RTVSPropertyOp4
 70
     1
102
RTVSPropertyOp5
 70
     1
102
RTVSPropertyOp6
 70
     1
102
RTVSPropertyOp7
 70
     1
102
RTVSPropertyOp8
 70
     1
102
RTVSPropertyOp9
 70
     1
102
RTVSPropertyOp10
 70
     1
102
RTVSPropertyOp11
 70
     1
102
RTVSPropertyOp12
 70
     1
102
RTVSPropertyOp13
 70
     1
102
RTVSPropertyOp14
 70
     1
102
RTVSPropertyOp15
 70
     1
102
RTVSPropertyOp16
 70
     1
102
RTVSPropertyOp17
 70
     1
102
RTVSPropertyOp18
 70
     1
102
RTVSPropertyOp19
 70
     1
102
RTVSPropertyOp20
 70
     1
102
RTVSPropertyOp21
 70
     1
102
RTVSPropertyOp22
 70
     1
102
RTVSPropertyOp23
 70
     1
102
RTVSPropertyOp24
 70
     1
102
RTVSPropertyOp25
 70
     1
102
RTVSPropertyOp26
 70
     1
102
RTVSPropertyOp27
 70
     1
102
RTVSPropertyOp28
 70
     1
102
RTVSPropertyOp29
 70
     1
102
RTVSPropertyOp30
 70
     1
102
RTVSPropertyOp31
 70
     1
102
RTVSPropertyOp32
 70
     1
  0
XRECORD
  5
710
102
{ACAD_REACTORS
330
70F
102
}
330
70F
100
AcDbXrecord
280
     1
102
RTVSPropertyOp0
 70
     1
102
RTVSPropertyOp1
 70
     1
102
RTVSPropertyOp2
 70
     1
102
RTVSPropertyOp3
 70
     1
102
RTVSPropertyOp4
 70
     1
102
RTVSPropertyOp5
 70
     1
102
RTVSPropertyOp6
 70
     1
102
RTVSPropertyOp7
 70
     1
102
RTVSPropertyOp8
 70
     1
102
RTVSPropertyOp9
 70
     1
102
RTVSPropertyOp10
 70
     1
102
RTVSPropertyOp11
 70
     1
102
RTVSPropertyOp12
 70
     1
102
RTVSPropertyOp13
 70
     1
102
RTVSPropertyOp14
 70
     1
102
RTVSPropertyOp15
 70
     1
102
RTVSPropertyOp16
 70
     1
102
RTVSPropertyOp17
 70
     1
102
RTVSPropertyOp18
 70
     1
102
RTVSPropertyOp19
 70
     1
102
RTVSPropertyOp20
 70
     1
102
RTVSPropertyOp21
 70
     1
102
RTVSPropertyOp22
 70
     1
102
RTVSPropertyOp23
 70
     1
102
RTVSPropertyOp24
 70
     1
102
RTVSPropertyOp25
 70
     1
102
RTVSPropertyOp26
 70
     1
102
RTVSPropertyOp27
 70
     1
102
RTVSPropertyOp28
 70
     1
102
RTVSPropertyOp29
 70
     1
102
RTVSPropertyOp30
 70
     1
102
RTVSPropertyOp31
 70
     1
102
RTVSPropertyOp32
 70
     1
  0
XRECORD
  5
718
102
{ACAD_REACTORS
330
717
102
}
330
717
100
AcDbXrecord
280
     1
102
RTVSPropertyOp0
 70
     1
102
RTVSPropertyOp1
 70
     1
102
RTVSPropertyOp2
 70
     1
102
RTVSPropertyOp3
 70
     1
102
RTVSPropertyOp4
 70
     1
102
RTVSPropertyOp5
 70
     1
102
RTVSPropertyOp6
 70
     1
102
RTVSPropertyOp7
 70
     1
102
RTVSPropertyOp8
 70
     1
102
RTVSPropertyOp9
 70
     1
102
RTVSPropertyOp10
 70
     1
102
RTVSPropertyOp11
 70
     1
102
RTVSPropertyOp12
 70
     1
102
RTVSPropertyOp13
 70
     1
102
RTVSPropertyOp14
 70
     1
102
RTVSPropertyOp15
 70
     1
102
RTVSPropertyOp16
 70
     1
102
RTVSPropertyOp17
 70
     1
102
RTVSPropertyOp18
 70
     1
102
RTVSPropertyOp19
 70
     1
102
RTVSPropertyOp20
 70
     1
102
RTVSPropertyOp21
 70
     1
102
RTVSPropertyOp22
 70
     1
102
RTVSPropertyOp23
 70
     1
102
RTVSPropertyOp24
 70
     1
102
RTVSPropertyOp25
 70
     1
102
RTVSPropertyOp26
 70
     1
102
RTVSPropertyOp27
 70
     1
102
RTVSPropertyOp28
 70
     1
102
RTVSPropertyOp29
 70
     1
102
RTVSPropertyOp30
 70
     1
102
RTVSPropertyOp31
 70
     1
102
RTVSPropertyOp32
 70
     1
  0
XRECORD
  5
70C
102
{ACAD_REACTORS
330
70B
102
}
330
70B
100
AcDbXrecord
280
     1
102
RTVSPropertyOp0
 70
     1
102
RTVSPropertyOp1
 70
     1
102
RTVSPropertyOp2
 70
     1
102
RTVSPropertyOp3
 70
     1
102
RTVSPropertyOp4
 70
     1
102
RTVSPropertyOp5
 70
     1
102
RTVSPropertyOp6
 70
     1
102
RTVSPropertyOp7
 70
     1
102
RTVSPropertyOp8
 70
     1
102
RTVSPropertyOp9
 70
     1
102
RTVSPropertyOp10
 70
     1
102
RTVSPropertyOp11
 70
     1
102
RTVSPropertyOp12
 70
     1
102
RTVSPropertyOp13
 70
     1
102
RTVSPropertyOp14
 70
     1
102
RTVSPropertyOp15
 70
     1
102
RTVSPropertyOp16
 70
     1
102
RTVSPropertyOp17
 70
     1
102
RTVSPropertyOp18
 70
     1
102
RTVSPropertyOp19
 70
     1
102
RTVSPropertyOp20
 70
     1
102
RTVSPropertyOp21
 70
     1
102
RTVSPropertyOp22
 70
     1
102
RTVSPropertyOp23
 70
     1
102
RTVSPropertyOp24
 70
     1
102
RTVSPropertyOp25
 70
     1
102
RTVSPropertyOp26
 70
     1
102
RTVSPropertyOp27
 70
     1
102
RTVSPropertyOp28
 70
     1
102
RTVSPropertyOp29
 70
     1
102
RTVSPropertyOp30
 70
     1
102
RTVSPropertyOp31
 70
     1
102
RTVSPropertyOp32
 70
     1
  0
XRECORD
  5
70E
102
{ACAD_REACTORS
330
70D
102
}
330
70D
100
AcDbXrecord
280
     1
102
RTVSPropertyOp0
 70
     1
102
RTVSPropertyOp1
 70
     1
102
RTVSPropertyOp2
 70
     1
102
RTVSPropertyOp3
 70
     1
102
RTVSPropertyOp4
 70
     1
102
RTVSPropertyOp5
 70
     1
102
RTVSPropertyOp6
 70
     1
102
RTVSPropertyOp7
 70
     1
102
RTVSPropertyOp8
 70
     1
102
RTVSPropertyOp9
 70
     1
102
RTVSPropertyOp10
 70
     1
102
RTVSPropertyOp11
 70
     1
102
RTVSPropertyOp12
 70
     1
102
RTVSPropertyOp13
 70
     1
102
RTVSPropertyOp14
 70
     1
102
RTVSPropertyOp15
 70
     1
102
RTVSPropertyOp16
 70
     1
102
RTVSPropertyOp17
 70
     1
102
RTVSPropertyOp18
 70
     1
102
RTVSPropertyOp19
 70
     1
102
RTVSPropertyOp20
 70
     1
102
RTVSPropertyOp21
 70
     1
102
RTVSPropertyOp22
 70
     1
102
RTVSPropertyOp23
 70
     1
102
RTVSPropertyOp24
 70
     1
102
RTVSPropertyOp25
 70
     1
102
RTVSPropertyOp26
 70
     1
102
RTVSPropertyOp27
 70
     1
102
RTVSPropertyOp28
 70
     1
102
RTVSPropertyOp29
 70
     1
102
RTVSPropertyOp30
 70
     1
102
RTVSPropertyOp31
 70
     1
102
RTVSPropertyOp32
 70
     1
  0
XRECORD
  5
716
102
{ACAD_REACTORS
330
715
102
}
330
715
100
AcDbXrecord
280
     1
102
RTVSPropertyOp0
 70
     1
102
RTVSPropertyOp1
 70
     1
102
RTVSPropertyOp2
 70
     1
102
RTVSPropertyOp3
 70
     1
102
RTVSPropertyOp4
 70
     1
102
RTVSPropertyOp5
 70
     1
102
RTVSPropertyOp6
 70
     1
102
RTVSPropertyOp7
 70
     1
102
RTVSPropertyOp8
 70
     1
102
RTVSPropertyOp9
 70
     1
102
RTVSPropertyOp10
 70
     1
102
RTVSPropertyOp11
 70
     1
102
RTVSPropertyOp12
 70
     1
102
RTVSPropertyOp13
 70
     1
102
RTVSPropertyOp14
 70
     1
102
RTVSPropertyOp15
 70
     1
102
RTVSPropertyOp16
 70
     1
102
RTVSPropertyOp17
 70
     1
102
RTVSPropertyOp18
 70
     1
102
RTVSPropertyOp19
 70
     1
102
RTVSPropertyOp20
 70
     1
102
RTVSPropertyOp21
 70
     1
102
RTVSPropertyOp22
 70
     1
102
RTVSPropertyOp23
 70
     1
102
RTVSPropertyOp24
 70
     1
102
RTVSPropertyOp25
 70
     1
102
RTVSPropertyOp26
 70
     1
102
RTVSPropertyOp27
 70
     1
102
RTVSPropertyOp28
 70
     1
102
RTVSPropertyOp29
 70
     1
102
RTVSPropertyOp30
 70
     1
102
RTVSPropertyOp31
 70
     1
102
RTVSPropertyOp32
 70
     1
  0
XRECORD
  5
6FA
102
{ACAD_REACTORS
330
6F9
102
}
330
6F9
100
AcDbXrecord
280
     1
102
RTVSPropertyOp0
 70
     1
102
RTVSPropertyOp1
 70
     1
102
RTVSPropertyOp2
 70
     1
102
RTVSPropertyOp3
 70
     1
102
RTVSPropertyOp4
 70
     1
102
RTVSPropertyOp5
 70
     1
102
RTVSPropertyOp6
 70
     1
102
RTVSPropertyOp7
 70
     1
102
RTVSPropertyOp8
 70
     1
102
RTVSPropertyOp9
 70
     1
102
RTVSPropertyOp10
 70
     1
102
RTVSPropertyOp11
 70
     1
102
RTVSPropertyOp12
 70
     1
102
RTVSPropertyOp13
 70
     1
102
RTVSPropertyOp14
 70
     1
102
RTVSPropertyOp15
 70
     1
102
RTVSPropertyOp16
 70
     1
102
RTVSPropertyOp17
 70
     1
102
RTVSPropertyOp18
 70
     1
102
RTVSPropertyOp19
 70
     1
102
RTVSPropertyOp20
 70
     1
102
RTVSPropertyOp21
 70
     1
102
RTVSPropertyOp22
 70
     1
102
RTVSPropertyOp23
 70
     1
102
RTVSPropertyOp24
 70
     1
102
RTVSPropertyOp25
 70
     1
102
RTVSPropertyOp26
 70
     1
102
RTVSPropertyOp27
 70
     1
102
RTVSPropertyOp28
 70
     1
102
RTVSPropertyOp29
 70
     1
102
RTVSPropertyOp30
 70
     1
102
RTVSPropertyOp31
 70
     1
102
RTVSPropertyOp32
 70
     1
  0
XRECORD
  5
6FC
102
{ACAD_REACTORS
330
6FB
102
}
330
6FB
100
AcDbXrecord
280
     1
102
RTVSPropertyOp0
 70
     1
102
RTVSPropertyOp1
 70
     1
102
RTVSPropertyOp2
 70
     1
102
RTVSPropertyOp3
 70
     1
102
RTVSPropertyOp4
 70
     1
102
RTVSPropertyOp5
 70
     1
102
RTVSPropertyOp6
 70
     1
102
RTVSPropertyOp7
 70
     1
102
RTVSPropertyOp8
 70
     1
102
RTVSPropertyOp9
 70
     1
102
RTVSPropertyOp10
 70
     1
102
RTVSPropertyOp11
 70
     1
102
RTVSPropertyOp12
 70
     1
102
RTVSPropertyOp13
 70
     1
102
RTVSPropertyOp14
 70
     1
102
RTVSPropertyOp15
 70
     1
102
RTVSPropertyOp16
 70
     1
102
RTVSPropertyOp17
 70
     1
102
RTVSPropertyOp18
 70
     1
102
RTVSPropertyOp19
 70
     1
102
RTVSPropertyOp20
 70
     1
102
RTVSPropertyOp21
 70
     1
102
RTVSPropertyOp22
 70
     1
102
RTVSPropertyOp23
 70
     1
102
RTVSPropertyOp24
 70
     1
102
RTVSPropertyOp25
 70
     1
102
RTVSPropertyOp26
 70
     1
102
RTVSPropertyOp27
 70
     1
102
RTVSPropertyOp28
 70
     1
102
RTVSPropertyOp29
 70
     1
102
RTVSPropertyOp30
 70
     1
102
RTVSPropertyOp31
 70
     1
102
RTVSPropertyOp32
 70
     1
  0
XRECORD
  5
6FE
102
{ACAD_REACTORS
330
6FD
102
}
330
6FD
100
AcDbXrecord
280
     1
102
RTVSPropertyOp0
 70
     1
102
RTVSPropertyOp1
 70
     1
102
RTVSPropertyOp2
 70
     1
102
RTVSPropertyOp3
 70
     1
102
RTVSPropertyOp4
 70
     1
102
RTVSPropertyOp5
 70
     1
102
RTVSPropertyOp6
 70
     1
102
RTVSPropertyOp7
 70
     1
102
RTVSPropertyOp8
 70
     1
102
RTVSPropertyOp9
 70
     1
102
RTVSPropertyOp10
 70
     1
102
RTVSPropertyOp11
 70
     1
102
RTVSPropertyOp12
 70
     1
102
RTVSPropertyOp13
 70
     1
102
RTVSPropertyOp14
 70
     1
102
RTVSPropertyOp15
 70
     1
102
RTVSPropertyOp16
 70
     1
102
RTVSPropertyOp17
 70
     1
102
RTVSPropertyOp18
 70
     1
102
RTVSPropertyOp19
 70
     1
102
RTVSPropertyOp20
 70
     1
102
RTVSPropertyOp21
 70
     1
102
RTVSPropertyOp22
 70
     1
102
RTVSPropertyOp23
 70
     1
102
RTVSPropertyOp24
 70
     1
102
RTVSPropertyOp25
 70
     1
102
RTVSPropertyOp26
 70
     1
102
RTVSPropertyOp27
 70
     1
102
RTVSPropertyOp28
 70
     1
102
RTVSPropertyOp29
 70
     1
102
RTVSPropertyOp30
 70
     1
102
RTVSPropertyOp31
 70
     1
102
RTVSPropertyOp32
 70
     1
  0
XRECORD
  5
700
102
{ACAD_REACTORS
330
6FF
102
}
330
6FF
100
AcDbXrecord
280
     1
102
RTVSPropertyOp0
 70
     1
102
RTVSPropertyOp1
 70
     1
102
RTVSPropertyOp2
 70
     1
102
RTVSPropertyOp3
 70
     1
102
RTVSPropertyOp4
 70
     1
102
RTVSPropertyOp5
 70
     1
102
RTVSPropertyOp6
 70
     1
102
RTVSPropertyOp7
 70
     1
102
RTVSPropertyOp8
 70
     1
102
RTVSPropertyOp9
 70
     1
102
RTVSPropertyOp10
 70
     1
102
RTVSPropertyOp11
 70
     1
102
RTVSPropertyOp12
 70
     1
102
RTVSPropertyOp13
 70
     1
102
RTVSPropertyOp14
 70
     1
102
RTVSPropertyOp15
 70
     1
102
RTVSPropertyOp16
 70
     1
102
RTVSPropertyOp17
 70
     1
102
RTVSPropertyOp18
 70
     1
102
RTVSPropertyOp19
 70
     1
102
RTVSPropertyOp20
 70
     1
102
RTVSPropertyOp21
 70
     1
102
RTVSPropertyOp22
 70
     1
102
RTVSPropertyOp23
 70
     1
102
RTVSPropertyOp24
 70
     1
102
RTVSPropertyOp25
 70
     1
102
RTVSPropertyOp26
 70
     1
102
RTVSPropertyOp27
 70
     1
102
RTVSPropertyOp28
 70
     1
102
RTVSPropertyOp29
 70
     1
102
RTVSPropertyOp30
 70
     1
102
RTVSPropertyOp31
 70
     1
102
RTVSPropertyOp32
 70
     1
  0
XRECORD
  5
714
102
{ACAD_REACTORS
330
713
102
}
330
713
100
AcDbXrecord
280
     1
102
RTVSPropertyOp0
 70
     1
102
RTVSPropertyOp1
 70
     1
102
RTVSPropertyOp2
 70
     1
102
RTVSPropertyOp3
 70
     1
102
RTVSPropertyOp4
 70
     1
102
RTVSPropertyOp5
 70
     1
102
RTVSPropertyOp6
 70
     1
102
RTVSPropertyOp7
 70
     1
102
RTVSPropertyOp8
 70
     1
102
RTVSPropertyOp9
 70
     1
102
RTVSPropertyOp10
 70
     1
102
RTVSPropertyOp11
 70
     1
102
RTVSPropertyOp12
 70
     1
102
RTVSPropertyOp13
 70
     1
102
RTVSPropertyOp14
 70
     1
102
RTVSPropertyOp15
 70
     1
102
RTVSPropertyOp16
 70
     1
102
RTVSPropertyOp17
 70
     1
102
RTVSPropertyOp18
 70
     1
102
RTVSPropertyOp19
 70
     1
102
RTVSPropertyOp20
 70
     1
102
RTVSPropertyOp21
 70
     1
102
RTVSPropertyOp22
 70
     1
102
RTVSPropertyOp23
 70
     1
102
RTVSPropertyOp24
 70
     1
102
RTVSPropertyOp25
 70
     1
102
RTVSPropertyOp26
 70
     1
102
RTVSPropertyOp27
 70
     1
102
RTVSPropertyOp28
 70
     1
102
RTVSPropertyOp29
 70
     1
102
RTVSPropertyOp30
 70
     1
102
RTVSPropertyOp31
 70
     1
102
RTVSPropertyOp32
 70
     1
  0
XRECORD
  5
70A
102
{ACAD_REACTORS
330
709
102
}
330
709
100
AcDbXrecord
280
     1
102
RTVSPropertyOp0
 70
     1
102
RTVSPropertyOp1
 70
     1
102
RTVSPropertyOp2
 70
     1
102
RTVSPropertyOp3
 70
     1
102
RTVSPropertyOp4
 70
     1
102
RTVSPropertyOp5
 70
     1
102
RTVSPropertyOp6
 70
     1
102
RTVSPropertyOp7
 70
     1
102
RTVSPropertyOp8
 70
     1
102
RTVSPropertyOp9
 70
     1
102
RTVSPropertyOp10
 70
     1
102
RTVSPropertyOp11
 70
     1
102
RTVSPropertyOp12
 70
     1
102
RTVSPropertyOp13
 70
     1
102
RTVSPropertyOp14
 70
     1
102
RTVSPropertyOp15
 70
     1
102
RTVSPropertyOp16
 70
     1
102
RTVSPropertyOp17
 70
     1
102
RTVSPropertyOp18
 70
     1
102
RTVSPropertyOp19
 70
     1
102
RTVSPropertyOp20
 70
     1
102
RTVSPropertyOp21
 70
     1
102
RTVSPropertyOp22
 70
     1
102
RTVSPropertyOp23
 70
     1
102
RTVSPropertyOp24
 70
     1
102
RTVSPropertyOp25
 70
     1
102
RTVSPropertyOp26
 70
     1
102
RTVSPropertyOp27
 70
     1
102
RTVSPropertyOp28
 70
     1
102
RTVSPropertyOp29
 70
     1
102
RTVSPropertyOp30
 70
     1
102
RTVSPropertyOp31
 70
     1
102
RTVSPropertyOp32
 70
     1
  0
XRECORD
  5
712
102
{ACAD_REACTORS
330
711
102
}
330
711
100
AcDbXrecord
280
     1
102
RTVSPropertyOp0
 70
     1
102
RTVSPropertyOp1
 70
     1
102
RTVSPropertyOp2
 70
     1
102
RTVSPropertyOp3
 70
     1
102
RTVSPropertyOp4
 70
     1
102
RTVSPropertyOp5
 70
     1
102
RTVSPropertyOp6
 70
     1
102
RTVSPropertyOp7
 70
     1
102
RTVSPropertyOp8
 70
     1
102
RTVSPropertyOp9
 70
     1
102
RTVSPropertyOp10
 70
     1
102
RTVSPropertyOp11
 70
     1
102
RTVSPropertyOp12
 70
     1
102
RTVSPropertyOp13
 70
     1
102
RTVSPropertyOp14
 70
     1
102
RTVSPropertyOp15
 70
     1
102
RTVSPropertyOp16
 70
     1
102
RTVSPropertyOp17
 70
     1
102
RTVSPropertyOp18
 70
     1
102
RTVSPropertyOp19
 70
     1
102
RTVSPropertyOp20
 70
     1
102
RTVSPropertyOp21
 70
     1
102
RTVSPropertyOp22
 70
     1
102
RTVSPropertyOp23
 70
     1
102
RTVSPropertyOp24
 70
     1
102
RTVSPropertyOp25
 70
     1
102
RTVSPropertyOp26
 70
     1
102
RTVSPropertyOp27
 70
     1
102
RTVSPropertyOp28
 70
     1
102
RTVSPropertyOp29
 70
     1
102
RTVSPropertyOp30
 70
     1
102
RTVSPropertyOp31
 70
     1
102
RTVSPropertyOp32
 70
     1
  0
ENDSEC
  0
EOF
