  0
SECTION
  2
HEADER
  9
$ACADVER
  1
AC1015
  9
$ACADMAINTVER
 70
     6
  9
$DWGCODEPAGE
  3
ANSI_932
  9
$INSBASE
 10
0.0
 20
0.0
 30
0.0
  9
$EXTMIN
 10
0.0
 20
0.0
 30
0.0
  9
$EXTMAX
 10
840.0
 20
1188.0
 30
0.0
  9
$LIMMIN
 10
0.0
 20
0.0
  9
$LIMMAX
 10
12.0
 20
9.0
  9
$ORTHOMODE
 70
     0
  9
$REGENMODE
 70
     1
  9
$FILLMODE
 70
     1
  9
$QTEXTMODE
 70
     0
  9
$MIRRTEXT
 70
     1
  9
$LTSCALE
 40
1.0
  9
$ATTMODE
 70
     1
  9
$TEXTSIZE
 40
0.2
  9
$TRACEWID
 40
0.05
  9
$TEXTSTYLE
  7
Standard
  9
$CLAYER
  8
0
  9
$CELTYPE
  6
ByLayer
  9
$CECOLOR
 62
   256
  9
$CELTSCALE
 40
1.0
  9
$DISPSILH
 70
     0
  9
$DIMSCALE
 40
1.0
  9
$DIMASZ
 40
0.18
  9
$DIMEXO
 40
0.0625
  9
$DIMDLI
 40
0.38
  9
$DIMRND
 40
0.0
  9
$DIMDLE
 40
0.0
  9
$DIMEXE
 40
0.18
  9
$DIMTP
 40
0.0
  9
$DIMTM
 40
0.0
  9
$DIMTXT
 40
0.18
  9
$DIMCEN
 40
0.09
  9
$DIMTSZ
 40
0.0
  9
$DIMTOL
 70
     0
  9
$DIMLIM
 70
     0
  9
$DIMTIH
 70
     1
  9
$DIMTOH
 70
     1
  9
$DIMSE1
 70
     0
  9
$DIMSE2
 70
     0
  9
$DIMTAD
 70
     0
  9
$DIMZIN
 70
     0
  9
$DIMBLK
  1

  9
$DIMASO
 70
     1
  9
$DIMSHO
 70
     1
  9
$DIMPOST
  1

  9
$DIMAPOST
  1

  9
$DIMALT
 70
     0
  9
$DIMALTD
 70
     2
  9
$DIMALTF
 40
25.4
  9
$DIMLFAC
 40
1.0
  9
$DIMTOFL
 70
     0
  9
$DIMTVP
 40
0.0
  9
$DIMTIX
 70
     0
  9
$DIMSOXD
 70
     0
  9
$DIMSAH
 70
     0
  9
$DIMBLK1
  1

  9
$DIMBLK2
  1

  9
$DIMSTYLE
  2
Standard
  9
$DIMCLRD
 70
     0
  9
$DIMCLRE
 70
     0
  9
$DIMCLRT
 70
     0
  9
$DIMTFAC
 40
1.0
  9
$DIMGAP
 40
0.09
  9
$DIMJUST
 70
     0
  9
$DIMSD1
 70
     0
  9
$DIMSD2
 70
     0
  9
$DIMTOLJ
 70
     1
  9
$DIMTZIN
 70
     0
  9
$DIMALTZ
 70
     0
  9
$DIMALTTZ
 70
     0
  9
$DIMUPT
 70
     0
  9
$DIMDEC
 70
     4
  9
$DIMTDEC
 70
     4
  9
$DIMALTU
 70
     2
  9
$DIMALTTD
 70
     2
  9
$DIMTXSTY
  7
Standard
  9
$DIMAUNIT
 70
     0
  9
$DIMADEC
 70
     0
  9
$DIMALTRND
 40
0.0
  9
$DIMAZIN
 70
     0
  9
$DIMDSEP
 70
    46
  9
$DIMATFIT
 70
     3
  9
$DIMFRAC
 70
     0
  9
$DIMLDRBLK
  1

  9
$DIMLUNIT
 70
     2
  9
$DIMLWD
 70
    -2
  9
$DIMLWE
 70
    -2
  9
$DIMTMOVE
 70
     0
  9
$LUNITS
 70
     2
  9
$LUPREC
 70
     4
  9
$SKETCHINC
 40
0.1
  9
$FILLETRAD
 40
0.5
  9
$AUNITS
 70
     0
  9
$AUPREC
 70
     0
  9
$MENU
  1
.
  9
$ELEVATION
 40
0.0
  9
$PELEVATION
 40
0.0
  9
$THICKNESS
 40
0.0
  9
$LIMCHECK
 70
     0
  9
$CHAMFERA
 40
0.5
  9
$CHAMFERB
 40
0.5
  9
$CHAMFERC
 40
1.0
  9
$CHAMFERD
 40
0.0
  9
$SKPOLY
 70
     0
  9
$TDCREATE
 40
2456498.411191447
  9
$TDUCREATE
 40
2456498.036191447
  9
$TDUPDATE
 40
2456498.411192708
  9
$TDUUPDATE
 40
2456498.036192708
  9
$TDINDWG
 40
0.0000000116
  9
$TDUSRTIMER
 40
0.0000000116
  9
$USRTIMER
 70
     1
  9
$ANGBASE
 50
0.0
  9
$ANGDIR
 70
     0
  9
$PDMODE
 70
     0
  9
$PDSIZE
 40
0.0
  9
$PLINEWID
 40
0.0
  9
$SPLFRAME
 70
     0
  9
$SPLINETYPE
 70
     6
  9
$SPLINESEGS
 70
     8
  9
$HANDSEED
  5
569
  9
$SURFTAB1
 70
     6
  9
$SURFTAB2
 70
     6
  9
$SURFTYPE
 70
     6
  9
$SURFU
 70
     6
  9
$SURFV
 70
     6
  9
$UCSBASE
  2

  9
$UCSNAME
  2

  9
$UCSORG
 10
0.0
 20
0.0
 30
0.0
  9
$UCSXDIR
 10
1.0
 20
0.0
 30
0.0
  9
$UCSYDIR
 10
0.0
 20
1.0
 30
0.0
  9
$UCSORTHOREF
  2

  9
$UCSORTHOVIEW
 70
     0
  9
$UCSORGTOP
 10
0.0
 20
0.0
 30
0.0
  9
$UCSORGBOTTOM
 10
0.0
 20
0.0
 30
0.0
  9
$UCSORGLEFT
 10
0.0
 20
0.0
 30
0.0
  9
$UCSORGRIGHT
 10
0.0
 20
0.0
 30
0.0
  9
$UCSORGFRONT
 10
0.0
 20
0.0
 30
0.0
  9
$UCSORGBACK
 10
0.0
 20
0.0
 30
0.0
  9
$PUCSBASE
  2

  9
$PUCSNAME
  2

  9
$PUCSORG
 10
0.0
 20
0.0
 30
0.0
  9
$PUCSXDIR
 10
1.0
 20
0.0
 30
0.0
  9
$PUCSYDIR
 10
0.0
 20
1.0
 30
0.0
  9
$PUCSORTHOREF
  2

  9
$PUCSORTHOVIEW
 70
     0
  9
$PUCSORGTOP
 10
0.0
 20
0.0
 30
0.0
  9
$PUCSORGBOTTOM
 10
0.0
 20
0.0
 30
0.0
  9
$PUCSORGLEFT
 10
0.0
 20
0.0
 30
0.0
  9
$PUCSORGRIGHT
 10
0.0
 20
0.0
 30
0.0
  9
$PUCSORGFRONT
 10
0.0
 20
0.0
 30
0.0
  9
$PUCSORGBACK
 10
0.0
 20
0.0
 30
0.0
  9
$USERI1
 70
     0
  9
$USERI2
 70
     0
  9
$USERI3
 70
     0
  9
$USERI4
 70
     0
  9
$USERI5
 70
     0
  9
$USERR1
 40
18.1
  9
$USERR2
 40
0.0
  9
$USERR3
 40
0.0
  9
$USERR4
 40
0.0
  9
$USERR5
 40
0.0
  9
$WORLDVIEW
 70
     1
  9
$SHADEDGE
 70
     3
  9
$SHADEDIF
 70
    70
  9
$TILEMODE
 70
     1
  9
$MAXACTVP
 70
    64
  9
$PINSBASE
 10
0.0
 20
0.0
 30
0.0
  9
$PLIMCHECK
 70
     0
  9
$PEXTMIN
 10
1.00000000000000E+20
 20
1.00000000000000E+20
 30
1.00000000000000E+20
  9
$PEXTMAX
 10
-1.00000000000000E+20
 20
-1.00000000000000E+20
 30
-1.00000000000000E+20
  9
$PLIMMIN
 10
0.0
 20
0.0
  9
$PLIMMAX
 10
12.0
 20
9.0
  9
$UNITMODE
 70
     0
  9
$VISRETAIN
 70
     1
  9
$PLINEGEN
 70
     0
  9
$PSLTSCALE
 70
     1
  9
$TREEDEPTH
 70
  3020
  9
$CMLSTYLE
  2
Standard
  9
$CMLJUST
 70
     0
  9
$CMLSCALE
 40
1.0
  9
$PROXYGRAPHICS
 70
     1
  9
$MEASUREMENT
 70
     1
  9
$CELWEIGHT
370
    -1
  9
$ENDCAPS
280
     0
  9
$JOINSTYLE
280
     0
  9
$LWDISPLAY
290
     0
  9
$INSUNITS
 70
     4
  9
$HYPERLINKBASE
  1

  9
$STYLESHEET
  1

  9
$XEDIT
290
     1
  9
$CEPSNTYPE
380
     0
  9
$PSTYLEMODE
290
     1
  9
$FINGERPRINTGUID
  2
{CDEA9D5E-2D09-4C4A-BC61-B8899A1EA370}
  9
$VERSIONGUID
  2
{FAEB1C32-E019-11D5-929B-00C0DF256EC4}
  9
$EXTNAMES
290
     1
  9
$PSVPSCALE
 40
0.0
  9
$OLESTARTUP
290
     0
  0
ENDSEC
  0
SECTION
  2
CLASSES
  0
CLASS
  1
ACDBDICTIONARYWDFLT
  2
AcDbDictionaryWithDefault
  3
ObjectDBX Classes
 90
        0
280
     0
281
     0
  0
CLASS
  1
VISUALSTYLE
  2
AcDbVisualStyle
  3
ObjectDBX Classes
 90
     4095
280
     0
281
     0
  0
CLASS
  1
MATERIAL
  2
AcDbMaterial
  3
ObjectDBX Classes
 90
     1153
280
     0
281
     0
  0
CLASS
  1
DICTIONARYVAR
  2
AcDbDictionaryVar
  3
ObjectDBX Classes
 90
        0
280
     0
281
     0
  0
CLASS
  1
ACDBPLACEHOLDER
  2
AcDbPlaceHolder
  3
ObjectDBX Classes
 90
        0
280
     0
281
     0
  0
CLASS
  1
LAYOUT
  2
AcDbLayout
  3
ObjectDBX Classes
 90
        0
280
     0
281
     0
  0
ENDSEC
  0
SECTION
  2
TABLES
  0
TABLE
  2
VPORT
  5
8
330
0
100
AcDbSymbolTable
 70
     1
  0
VPORT
  5
29
330
8
100
AcDbSymbolTableRecord
100
AcDbViewportTableRecord
  2
*Active
 70
     0
 10
0.0
 20
0.0
 11
1.0
 21
1.0
 12
420.0
 22
594.0
 13
0.0
 23
0.0
 14
0.5
 24
0.5
 15
0.5
 25
0.5
 16
0.0
 26
0.0
 36
1.0
 17
0.0
 27
0.0
 37
0.0
 40
1306.8
 41
1.60267857142857
 42
50.0
 43
0.0
 44
0.0
 50
0.0
 51
0.0
 71
     0
 72
   100
 73
     1
 74
     3
 75
     0
 76
     0
 77
     0
 78
     0
281
     0
 65
     1
110
0.0
120
0.0
130
0.0
111
1.0
121
0.0
131
0.0
112
0.0
122
1.0
132
0.0
 79
     0
146
0.0
  0
ENDTAB
  0
TABLE
  2
LTYPE
  5
5
330
0
100
AcDbSymbolTable
 70
     8
  0
LTYPE
  5
14
330
5
100
AcDbSymbolTableRecord
100
AcDbLinetypeTableRecord
  2
ByBlock
 70
     0
  3

 72
    65
 73
     0
 40
0.0
  0
LTYPE
  5
15
330
5
100
AcDbSymbolTableRecord
100
AcDbLinetypeTableRecord
  2
ByLayer
 70
     0
  3

 72
    65
 73
     0
 40
0.0
  0
LTYPE
  5
16
330
5
100
AcDbSymbolTableRecord
100
AcDbLinetypeTableRecord
  2
Continuous
 70
     0
  3
Solid line
 72
    65
 73
     0
 40
0.0
  0
LTYPE
  5
3F
330
5
100
AcDbSymbolTableRecord
100
AcDbLinetypeTableRecord
  2
DASHED
 70
     0
  3
Dashed
 72
    65
 73
     2
 40
15.0
 49
7.0
 74
     0
 49
-8.0
 74
     0
  0
LTYPE
  5
40
330
5
100
AcDbSymbolTableRecord
100
AcDbLinetypeTableRecord
  2
DOTTED
 70
     0
  3
Dotted
 72
    65
 73
     2
 40
1.0
 49
0.0
 74
     0
 49
-1.0
 74
     0
  0
LTYPE
  5
41
330
5
100
AcDbSymbolTableRecord
100
AcDbLinetypeTableRecord
  2
DOT_CENTER
 70
     0
  3
Dot_Center
 72
    65
 73
     4
 40
14.0
 49
12.0
 74
     0
 49
-1.0
 74
     0
 49
0.0
 74
     0
 49
-1.0
 74
     0
  0
LTYPE
  5
42
330
5
100
AcDbSymbolTableRecord
100
AcDbLinetypeTableRecord
  2
LONG_DASHED
 70
     0
  3
Long_Dashed
 72
    65
 73
     2
 40
15.0
 49
10.0
 74
     0
 49
-5.0
 74
     0
  0
LTYPE
  5
43
330
5
100
AcDbSymbolTableRecord
100
AcDbLinetypeTableRecord
  2
DASH_CENTER
 70
     0
  3
Dash_Center
 72
    65
 73
     4
 40
14.0
 49
11.0
 74
     0
 49
-1.0
 74
     0
 49
1.0
 74
     0
 49
-1.0
 74
     0
  0
LTYPE
  5
44
330
5
100
AcDbSymbolTableRecord
100
AcDbLinetypeTableRecord
  2
PHANTOM
 70
     0
  3
Phantom
 72
    65
 73
     6
 40
13.0
 49
10.0
 74
     0
 49
-1.0
 74
     0
 49
0.0
 74
     0
 49
-1.0
 74
     0
 49
0.0
 74
     0
 49
-1.0
 74
     0
  0
LTYPE
  5
45
330
5
100
AcDbSymbolTableRecord
100
AcDbLinetypeTableRecord
  2
CENTER_DASH_DASH
 70
     0
  3
Center_Dash_Dash
 72
    65
 73
     6
 40
14.0
 49
9.0
 74
     0
 49
-1.0
 74
     0
 49
1.0
 74
     0
 49
-1.0
 74
     0
 49
1.0
 74
     0
 49
-1.0
 74
     0
  0
ENDTAB
  0
TABLE
  2
LAYER
  5
2
330
0
100
AcDbSymbolTable
 70
     4
  0
LAYER
  5
10
330
2
100
AcDbSymbolTableRecord
100
AcDbLayerTableRecord
  2
0
 70
     0
 62
     7
  6
Continuous
370
    -3
390
F
  0
LAYER
  5
46
330
2
100
AcDbSymbolTableRecord
100
AcDbLayerTableRecord
  2
1
 70
     0
 62
     7
  6
Continuous
370
    -3
390
F
  0
LAYER
  5
47
330
2
100
AcDbSymbolTableRecord
100
AcDbLayerTableRecord
  2
5
 70
     0
 62
     7
  6
Continuous
370
    -3
390
F
  0
LAYER
  5
48
330
2
100
AcDbSymbolTableRecord
100
AcDbLayerTableRecord
  2
6
 70
     0
 62
     7
  6
Continuous
370
    -3
390
F
  0
ENDTAB
  0
TABLE
  2
STYLE
  5
3
330
0
100
AcDbSymbolTable
 70
     3
  0
STYLE
  5
11
330
3
100
AcDbSymbolTableRecord
100
AcDbTextStyleTableRecord
  2
Standard
 70
     0
 40
0.0
 41
1.0
 50
0.0
 71
     0
 42
0.2
  3
txt
  4

  0
STYLE
  5
AC
330
3
100
AcDbSymbolTableRecord
100
AcDbTextStyleTableRecord
  2
CONVERTER_11
 70
     0
 40
0.0
 41
0.89
 50
0.0
 71
     0
 42
0.2
  3
MS Mincho.ttf
  4

1001
ACAD
1000
MS Mincho
1071
    32785
  0
STYLE
  5
50A
330
3
100
AcDbSymbolTableRecord
100
AcDbTextStyleTableRecord
  2
CONVERTER_12
 70
     0
 40
0.0
 41
0.9
 50
0.0
 71
     0
 42
0.2
  3
txt.shx
  4

  0
ENDTAB
  0
TABLE
  2
VIEW
  5
6
330
0
100
AcDbSymbolTable
 70
     0
  0
ENDTAB
  0
TABLE
  2
UCS
  5
7
330
0
100
AcDbSymbolTable
 70
     0
  0
ENDTAB
  0
TABLE
  2
APPID
  5
9
330
0
100
AcDbSymbolTable
 70
     1
  0
APPID
  5
12
330
9
100
AcDbSymbolTableRecord
100
AcDbRegAppTableRecord
  2
ACAD
 70
     0
  0
ENDTAB
  0
TABLE
  2
DIMSTYLE
  5
A
330
0
100
AcDbSymbolTable
 70
     5
100
AcDbDimStyleTable
  0
DIMSTYLE
105
27
330
A
100
AcDbSymbolTableRecord
100
AcDbDimStyleTableRecord
  2
Standard
 70
     0
178
     0
340
11
  0
DIMSTYLE
105
519
102
{ACAD_REACTORS
330
51A
102
}
330
A
100
AcDbSymbolTableRecord
100
AcDbDimStyleTableRecord
  2
ME10_DIM_10
 70
     0
 41
14.0
 42
0.0
 44
4.0
 73
     0
 74
     0
 77
     1
 78
     8
140
14.0
147
4.0
172
     1
173
     1
174
     1
175
     1
176
     2
177
     2
271
     2
178
     7
271
     2
340
50A
  0
DIMSTYLE
105
524
102
{ACAD_REACTORS
330
525
102
}
330
A
100
AcDbSymbolTableRecord
100
AcDbDimStyleTableRecord
  2
ME10_DIM_11
 70
     0
  3
{\Fgdt;n}<>
 41
14.0
 42
0.0
 44
4.0
 73
     0
 74
     0
 77
     1
 78
     8
140
14.0
147
4.0
172
     1
173
     1
174
     1
175
     1
176
     2
177
     2
271
     2
178
     7
271
     2
340
50A
  0
DIMSTYLE
105
52F
102
{ACAD_REACTORS
330
530
102
}
330
A
100
AcDbSymbolTableRecord
100
AcDbDimStyleTableRecord
  2
ME10_DIM_12
 70
     0
 41
14.0
 42
0.0
 44
4.0
 73
     0
 74
     0
 77
     1
 78
     8
140
14.0
147
4.0
172
     1
173
     1
174
     1
175
     1
176
     2
177
     2
271
     2
178
     7
271
     2
340
50A
  0
DIMSTYLE
105
53C
102
{ACAD_REACTORS
330
53D
102
}
330
A
100
AcDbSymbolTableRecord
100
AcDbDimStyleTableRecord
  2
ME10_DIM_13
 70
     0
  3
{\Fgdt;n}<>
 41
14.0
 42
0.0
 44
4.0
 73
     0
 74
     0
 77
     1
 78
     8
140
14.0
147
4.0
172
     1
173
     1
174
     1
175
     1
176
     2
177
     2
271
     2
178
     7
271
     2
340
50A
  0
ENDTAB
  0
TABLE
  2
BLOCK_RECORD
  5
1
330
0
100
AcDbSymbolTable
 70
    11
  0
BLOCK_RECORD
  5
1F
330
1
100
AcDbSymbolTableRecord
100
AcDbBlockTableRecord
  2
*Model_Space
340
22
  0
BLOCK_RECORD
  5
1B
330
1
100
AcDbSymbolTableRecord
100
AcDbBlockTableRecord
  2
*Paper_Space
340
1E
  0
BLOCK_RECORD
  5
23
330
1
100
AcDbSymbolTableRecord
100
AcDbBlockTableRecord
  2
*Paper_Space0
340
26
  0
BLOCK_RECORD
  5
49
330
1
100
AcDbSymbolTableRecord
100
AcDbBlockTableRecord
  2
開示A4
340
0
102
{BLKREFS
331
5B
102
}
  0
BLOCK_RECORD
  5
4C
330
1
100
AcDbSymbolTableRecord
100
AcDbBlockTableRecord
  2
HOSE
340
0
102
{BLKREFS
331
5C
102
}
  0
BLOCK_RECORD
  5
4F
330
1
100
AcDbSymbolTableRecord
100
AcDbBlockTableRecord
  2
PACKING
340
0
102
{BLKREFS
331
5D
102
}
  0
BLOCK_RECORD
  5
52
330
1
100
AcDbSymbolTableRecord
100
AcDbBlockTableRecord
  2
INNER
340
0
102
{BLKREFS
331
5E
102
}
  0
BLOCK_RECORD
  5
55
330
1
100
AcDbSymbolTableRecord
100
AcDbBlockTableRecord
  2
NUT
340
0
102
{BLKREFS
331
5F
102
}
  0
BLOCK_RECORD
  5
58
330
1
100
AcDbSymbolTableRecord
100
AcDbBlockTableRecord
  2
CAP
340
0
102
{BLKREFS
331
60
102
}
  0
BLOCK_RECORD
  5
510
330
1
100
AcDbSymbolTableRecord
100
AcDbBlockTableRecord
  2
*D7
340
0
  0
BLOCK_RECORD
  5
51B
330
1
100
AcDbSymbolTableRecord
100
AcDbBlockTableRecord
  2
*D8
340
0
  0
BLOCK_RECORD
  5
526
330
1
100
AcDbSymbolTableRecord
100
AcDbBlockTableRecord
  2
*D9
340
0
  0
BLOCK_RECORD
  5
531
330
1
100
AcDbSymbolTableRecord
100
AcDbBlockTableRecord
  2
*D10
340
0
  0
ENDTAB
  0
ENDSEC
  0
SECTION
  2
BLOCKS
  0
BLOCK
  5
20
330
1F
100
AcDbEntity
  8
0
100
AcDbBlockBegin
  2
*Model_Space
 70
     0
 10
0.0
 20
0.0
 30
0.0
  3
*Model_Space
  1

  0
ENDBLK
  5
21
330
1F
100
AcDbEntity
  8
0
100
AcDbBlockEnd
  0
BLOCK
  5
1C
330
1B
100
AcDbEntity
 67
     1
  8
0
100
AcDbBlockBegin
  2
*Paper_Space
 70
     0
 10
0.0
 20
0.0
 30
0.0
  3
*Paper_Space
  1

  0
ENDBLK
  5
1D
330
1B
100
AcDbEntity
 67
     1
  8
0
100
AcDbBlockEnd
  0
BLOCK
  5
24
330
23
100
AcDbEntity
  8
0
100
AcDbBlockBegin
  2
*Paper_Space0
 70
     0
 10
0.0
 20
0.0
 30
0.0
  3
*Paper_Space0
  1

  0
ENDBLK
  5
25
330
23
100
AcDbEntity
  8
0
100
AcDbBlockEnd
  0
BLOCK
  5
4A
330
49
100
AcDbEntity
  8
0
100
AcDbBlockBegin
  2
開示A4
 70
     0
 10
0.0
 20
0.0
 30
0.0
  3
開示A4
  1

  0
POINT
  5
61
330
49
100
AcDbEntity
  8
1
 62
     4
100
AcDbPoint
 10
34.0
 20
34.00000000000001
 30
0.0
  0
POINT
  5
62
330
49
100
AcDbEntity
  8
1
 62
     4
100
AcDbPoint
 10
57.0
 20
12.25
 30
0.0
  0
POINT
  5
63
330
49
100
AcDbEntity
  8
1
 62
     4
100
AcDbPoint
 10
57.0
 20
20.75000000000001
 30
0.0
  0
POINT
  5
64
330
49
100
AcDbEntity
  8
1
 62
     4
100
AcDbPoint
 10
57.0
 20
24.75000000000001
 30
0.0
  0
POINT
  5
65
330
49
100
AcDbEntity
  8
1
 62
     4
100
AcDbPoint
 10
57.0
 20
16.25
 30
0.0
  0
POINT
  5
66
330
49
100
AcDbEntity
  8
1
 62
     4
100
AcDbPoint
 10
157.5
 20
19.00000000000001
 30
0.0
  0
POINT
  5
67
330
49
100
AcDbEntity
  8
1
 62
     4
100
AcDbPoint
 10
47.5
 20
282.0000000000003
 30
0.0
  0
POINT
  5
68
330
49
100
AcDbEntity
  8
1
 62
     4
100
AcDbPoint
 10
57.0
 20
22.75000000000001
 30
0.0
  0
POINT
  5
69
330
49
100
AcDbEntity
  8
1
 62
     4
100
AcDbPoint
 10
57.0
 20
14.25
 30
0.0
  0
POINT
  5
6A
330
49
100
AcDbEntity
  8
1
 62
     4
100
AcDbPoint
 10
157.5
 20
12.5
 30
0.0
  0
POINT
  5
6B
330
49
100
AcDbEntity
  8
1
 62
     4
100
AcDbPoint
 10
163.25
 20
12.5
 30
0.0
  0
POINT
  5
6C
330
49
100
AcDbEntity
  8
1
 62
     4
100
AcDbPoint
 10
151.75
 20
12.5
 30
0.0
  0
POINT
  5
6D
330
49
100
AcDbEntity
  8
1
 62
     4
100
AcDbPoint
 10
134.75
 20
12.5
 30
0.0
  0
POINT
  5
6E
330
49
100
AcDbEntity
  8
1
 62
     4
100
AcDbPoint
 10
146.25
 20
12.5
 30
0.0
  0
POINT
  5
6F
330
49
100
AcDbEntity
  8
1
 62
     4
100
AcDbPoint
 10
140.5
 20
12.5
 30
0.0
  0
POINT
  5
70
330
49
100
AcDbEntity
  8
1
 62
     4
100
AcDbPoint
 10
140.5
 20
19.00000000000001
 30
0.0
  0
POINT
  5
71
330
49
100
AcDbEntity
  8
1
 62
     4
100
AcDbPoint
 10
117.75
 20
12.5
 30
0.0
  0
POINT
  5
72
330
49
100
AcDbEntity
  8
1
 62
     4
100
AcDbPoint
 10
129.25
 20
12.5
 30
0.0
  0
POINT
  5
73
330
49
100
AcDbEntity
  8
1
 62
     4
100
AcDbPoint
 10
123.5
 20
12.5
 30
0.0
  0
POINT
  5
74
330
49
100
AcDbEntity
  8
1
 62
     4
100
AcDbPoint
 10
123.5
 20
19.00000000000001
 30
0.0
  0
POINT
  5
75
330
49
100
AcDbEntity
  8
1
 62
     4
100
AcDbPoint
 10
100.75
 20
12.5
 30
0.0
  0
POINT
  5
76
330
49
100
AcDbEntity
  8
1
 62
     4
100
AcDbPoint
 10
112.25
 20
12.5
 30
0.0
  0
POINT
  5
77
330
49
100
AcDbEntity
  8
1
 62
     4
100
AcDbPoint
 10
106.5
 20
12.5
 30
0.0
  0
POINT
  5
78
330
49
100
AcDbEntity
  8
1
 62
     4
100
AcDbPoint
 10
106.5
 20
19.00000000000001
 30
0.0
  0
POINT
  5
79
330
49
100
AcDbEntity
  8
1
 62
     4
100
AcDbPoint
 10
85.25
 20
17.0
 30
0.0
  0
POINT
  5
7A
330
49
100
AcDbEntity
  8
1
 62
     4
100
AcDbPoint
 10
93.75
 20
17.0
 30
0.0
  0
LINE
  5
7B
330
49
100
AcDbEntity
  8
1
  6
Continuous
 62
     2
100
AcDbLine
 10
81.0
 20
27.00000000000001
 30
0.0
 11
81.0
 21
10.0
 31
0.0
  0
LINE
  5
7C
330
49
100
AcDbEntity
  8
1
  6
DOT_CENTER
 62
     2
100
AcDbLine
 10
187.0
 20
26.50000000000001
 30
0.0
 11
187.0
 21
20.50000000000001
 31
0.0
  0
LINE
  5
7D
330
49
100
AcDbEntity
  8
1
  6
DOT_CENTER
 62
     2
100
AcDbLine
 10
184.0
 20
23.50000000000001
 30
0.0
 11
197.0
 21
23.50000000000001
 31
0.0
  0
LINE
  5
7E
330
49
100
AcDbEntity
  8
1
  6
Continuous
 62
     7
100
AcDbLine
 10
196.0
 20
21.50000000000001
 30
0.0
 11
191.0
 21
22.30000000000001
 31
0.0
  0
LINE
  5
7F
330
49
100
AcDbEntity
  8
1
  6
Continuous
 62
     7
100
AcDbLine
 10
196.0
 20
25.50000000000001
 30
0.0
 11
196.0
 21
21.50000000000001
 31
0.0
  0
LINE
  5
80
330
49
100
AcDbEntity
  8
1
  6
Continuous
 62
     7
100
AcDbLine
 10
191.0
 20
24.70000000000001
 30
0.0
 11
196.0
 21
25.50000000000001
 31
0.0
  0
LINE
  5
81
330
49
100
AcDbEntity
  8
1
  6
Continuous
 62
     7
100
AcDbLine
 10
191.0
 20
24.70000000000001
 30
0.0
 11
191.0
 21
22.30000000000001
 31
0.0
  0
LINE
  5
82
330
49
100
AcDbEntity
  8
1
  6
Continuous
 62
     2
100
AcDbLine
 10
33.0
 20
27.0
 30
0.0
 11
33.0
 21
10.0
 31
0.0
  0
LINE
  5
83
330
49
100
AcDbEntity
  8
1
  6
Continuous
 62
     2
100
AcDbLine
 10
25.0
 20
18.50000000000001
 30
0.0
 11
81.0
 21
18.50000000000001
 31
0.0
  0
LINE
  5
84
330
49
100
AcDbEntity
  8
1
  6
Continuous
 62
     7
100
AcDbLine
 10
200.0
 20
287.0000000000003
 30
0.0
 11
105.0
 21
287.0000000000003
 31
0.0
  0
LINE
  5
85
330
49
100
AcDbEntity
  8
1
  6
Continuous
 62
     7
100
AcDbLine
 10
200.0
 20
10.0
 30
0.0
 11
200.0
 21
148.5
 31
0.0
  0
LINE
  5
86
330
49
100
AcDbEntity
  8
1
  6
Continuous
 62
     7
100
AcDbLine
 10
25.0
 20
10.0
 30
0.0
 11
105.0
 21
10.0
 31
0.0
  0
LINE
  5
87
330
49
100
AcDbEntity
  8
1
  6
PHANTOM
 62
     4
100
AcDbLine
 10
0.0
 20
297.0
 30
0.0
 11
0.0
 21
0.0
 31
0.0
  0
LINE
  5
88
330
49
100
AcDbEntity
  8
1
  6
PHANTOM
 62
     4
100
AcDbLine
 10
210.0
 20
297.0
 30
0.0
 11
0.0
 21
297.0
 31
0.0
  0
LINE
  5
89
330
49
100
AcDbEntity
  8
1
  6
PHANTOM
 62
     4
100
AcDbLine
 10
210.0
 20
0.0
 30
0.0
 11
210.0
 21
297.0
 31
0.0
  0
LINE
  5
8A
330
49
100
AcDbEntity
  8
1
  6
PHANTOM
 62
     4
100
AcDbLine
 10
0.0
 20
0.0
 30
0.0
 11
210.0
 21
0.0
 31
0.0
  0
LINE
  5
8B
330
49
100
AcDbEntity
  8
1
  6
Continuous
 62
     7
100
AcDbLine
 10
25.0
 20
41.0
 30
0.0
 11
200.0
 21
41.0
 31
0.0
  0
LINE
  5
8C
330
49
100
AcDbEntity
  8
1
  6
Continuous
 62
     7
100
AcDbLine
 10
200.0
 20
27.00000000000001
 30
0.0
 11
25.0
 21
27.00000000000001
 31
0.0
  0
LINE
  5
8D
330
49
100
AcDbEntity
  8
1
  6
Continuous
 62
     2
100
AcDbLine
 10
33.0
 20
41.00000000000001
 30
0.0
 11
33.0
 21
27.0
 31
0.0
  0
LINE
  5
8E
330
49
100
AcDbEntity
  8
1
  6
Continuous
 62
     2
100
AcDbLine
 10
55.0
 20
287.0000000000003
 30
0.0
 11
55.0
 21
277.0000000000003
 31
0.0
  0
LINE
  5
8F
330
49
100
AcDbEntity
  8
1
  6
Continuous
 62
     2
100
AcDbLine
 10
40.0
 20
287.0000000000003
 30
0.0
 11
40.0
 21
277.0000000000003
 31
0.0
  0
LINE
  5
90
330
49
100
AcDbEntity
  8
1
  6
Continuous
 62
     7
100
AcDbLine
 10
25.0
 20
10.0
 30
0.0
 11
25.0
 21
148.5
 31
0.0
  0
LINE
  5
91
330
49
100
AcDbEntity
  8
1
  6
Continuous
 62
     2
100
AcDbLine
 10
55.0
 20
277.0000000000003
 30
0.0
 11
25.0
 21
277.0000000000003
 31
0.0
  0
LINE
  5
92
330
49
100
AcDbEntity
  8
1
  6
Continuous
 62
     2
100
AcDbLine
 10
166.0
 20
27.00000000000001
 30
0.0
 11
166.0
 21
10.0
 31
0.0
  0
LINE
  5
93
330
49
100
AcDbEntity
  8
1
  6
Continuous
 62
     2
100
AcDbLine
 10
132.0
 20
27.00000000000001
 30
0.0
 11
132.0
 21
9.99999999999999
 31
0.0
  0
LINE
  5
94
330
49
100
AcDbEntity
  8
1
  6
Continuous
 62
     2
100
AcDbLine
 10
149.0
 20
27.00000000000001
 30
0.0
 11
149.0
 21
10.0
 31
0.0
  0
LINE
  5
95
330
49
100
AcDbEntity
  8
1
  6
Continuous
 62
     2
100
AcDbLine
 10
115.0
 20
27.00000000000001
 30
0.0
 11
115.0
 21
9.99999999999999
 31
0.0
  0
LINE
  5
96
330
49
100
AcDbEntity
  8
1
  6
Continuous
 62
     2
100
AcDbLine
 10
98.0
 20
27.00000000000001
 30
0.0
 11
98.0
 21
9.99999999999999
 31
0.0
  0
LINE
  5
97
330
49
100
AcDbEntity
  8
1
  6
Continuous
 62
     2
100
AcDbLine
 10
166.0
 20
20.00000000000001
 30
0.0
 11
200.0
 21
20.00000000000001
 31
0.0
  0
LINE
  5
98
330
49
100
AcDbEntity
  8
1
  6
Continuous
 62
     2
100
AcDbLine
 10
105.0
 20
287.0000000000003
 30
0.0
 11
105.0
 21
292.0000000000003
 31
0.0
  0
LINE
  5
99
330
49
100
AcDbEntity
  8
1
  6
Continuous
 62
     7
100
AcDbLine
 10
105.0
 20
287.0000000000003
 30
0.0
 11
25.0
 21
287.0000000000003
 31
0.0
  0
LINE
  5
9A
330
49
100
AcDbEntity
  8
1
  6
Continuous
 62
     2
100
AcDbLine
 10
25.0
 20
148.5
 30
0.0
 11
20.0
 21
148.5
 31
0.0
  0
LINE
  5
9B
330
49
100
AcDbEntity
  8
1
  6
Continuous
 62
     7
100
AcDbLine
 10
25.0
 20
148.5
 30
0.0
 11
25.0
 21
287.0000000000003
 31
0.0
  0
LINE
  5
9C
330
49
100
AcDbEntity
  8
1
  6
Continuous
 62
     2
100
AcDbLine
 10
200.0
 20
148.5
 30
0.0
 11
205.0
 21
148.5
 31
0.0
  0
LINE
  5
9D
330
49
100
AcDbEntity
  8
1
  6
Continuous
 62
     7
100
AcDbLine
 10
200.0
 20
148.5
 30
0.0
 11
200.0
 21
287.0000000000003
 31
0.0
  0
LINE
  5
9E
330
49
100
AcDbEntity
  8
1
  6
Continuous
 62
     2
100
AcDbLine
 10
105.0
 20
10.0
 30
0.0
 11
105.0
 21
5.0
 31
0.0
  0
LINE
  5
9F
330
49
100
AcDbEntity
  8
1
  6
Continuous
 62
     7
100
AcDbLine
 10
105.0
 20
10.0
 30
0.0
 11
200.0
 21
10.0
 31
0.0
  0
CIRCLE
  5
A0
330
49
100
AcDbEntity
  8
1
  6
DOT_CENTER
 62
     7
100
AcDbCircle
 10
89.5
 20
18.0
 30
0.0
 40
0.1000000000000227
  0
CIRCLE
  5
A1
330
49
100
AcDbEntity
  8
1
  6
DOT_CENTER
 62
     7
100
AcDbCircle
 10
89.5
 20
16.0
 30
0.0
 40
0.1000000000000227
  0
CIRCLE
  5
A2
330
49
100
AcDbEntity
  8
1
  6
Continuous
 62
     7
100
AcDbCircle
 10
187.0
 20
23.50000000000001
 30
0.0
 40
2.0
  0
CIRCLE
  5
A3
330
49
100
AcDbEntity
  8
1
  6
Continuous
 62
     7
100
AcDbCircle
 10
187.0
 20
23.50000000000001
 30
0.0
 40
1.200000000000102
  0
CIRCLE
  5
A4
330
49
100
AcDbEntity
  8
1
  6
Continuous
 62
     7
100
AcDbCircle
 10
154.5
 20
12.5
 30
0.0
 40
0.3000000000000114
  0
CIRCLE
  5
A5
330
49
100
AcDbEntity
  8
1
  6
Continuous
 62
     7
100
AcDbCircle
 10
160.5
 20
12.5
 30
0.0
 40
0.3000000000000114
  0
CIRCLE
  5
A6
330
49
100
AcDbEntity
  8
1
  6
Continuous
 62
     7
100
AcDbCircle
 10
143.5
 20
12.5
 30
0.0
 40
0.3000000000000114
  0
CIRCLE
  5
A7
330
49
100
AcDbEntity
  8
1
  6
Continuous
 62
     7
100
AcDbCircle
 10
137.5
 20
12.5
 30
0.0
 40
0.3000000000000114
  0
CIRCLE
  5
A8
330
49
100
AcDbEntity
  8
1
  6
Continuous
 62
     7
100
AcDbCircle
 10
126.5
 20
12.5
 30
0.0
 40
0.2999999999999972
  0
CIRCLE
  5
A9
330
49
100
AcDbEntity
  8
1
  6
Continuous
 62
     7
100
AcDbCircle
 10
120.5
 20
12.5
 30
0.0
 40
0.2999999999999972
  0
CIRCLE
  5
AA
330
49
100
AcDbEntity
  8
1
  6
Continuous
 62
     7
100
AcDbCircle
 10
109.5
 20
12.5
 30
0.0
 40
0.2999999999999972
  0
CIRCLE
  5
AB
330
49
100
AcDbEntity
  8
1
  6
Continuous
 62
     7
100
AcDbCircle
 10
103.5
 20
12.5
 30
0.0
 40
0.2999999999999972
  0
MTEXT
  5
AD
330
49
100
AcDbEntity
  8
1
 62
   250
100
AcDbMText
 10
25.0
 20
5.0
 30
0.0
 40
3.5
 41
0.0
 71
     4
 72
     1
  1
備考欄の文字列 原点位置=4
  7
CONVERTER_11
 73
     1
 44
0.54545454545455
  0
MTEXT
  5
AE
330
49
100
AcDbEntity
  8
1
 62
     2
100
AcDbMText
 10
89.5
 20
24.00000000000001
 30
0.0
 40
3.5
 41
0.0
 71
     5
 72
     1
  1
尺度
  7
CONVERTER_11
 73
     1
 44
0.54545454545455
  0
MTEXT
  5
AF
330
49
100
AcDbEntity
  8
1
 62
     2
100
AcDbMText
 10
135.5
 20
25.00000000000001
 30
0.0
 40
3.0
 41
0.0
 71
     5
 72
     1
  1
製図
  7
CONVERTER_11
 73
     1
 44
0.59090909090909
  0
MTEXT
  5
B0
330
49
100
AcDbEntity
  8
1
 62
     2
100
AcDbMText
 10
152.5
 20
25.00000000000001
 30
0.0
 40
3.0
 41
0.0
 71
     5
 72
     1
  1
担当
  7
CONVERTER_11
 73
     1
 44
0.59090909090909
  0
MTEXT
  5
B1
330
49
100
AcDbEntity
  8
1
 62
     2
100
AcDbMText
 10
118.5
 20
25.00000000000001
 30
0.0
 40
3.0
 41
0.0
 71
     5
 72
     1
  1
検図
  7
CONVERTER_11
 73
     1
 44
0.59090909090909
  0
MTEXT
  5
B2
330
49
100
AcDbEntity
  8
1
 62
     2
100
AcDbMText
 10
175.0
 20
23.50000000000001
 30
0.0
 40
3.5
 41
0.0
 71
     5
 72
     1
  1
第三角法
  7
CONVERTER_11
 73
     1
 44
0.54545454545455
  0
MTEXT
  5
B3
330
49
100
AcDbEntity
  8
1
 62
     2
100
AcDbMText
 10
101.5
 20
25.00000000000001
 30
0.0
 40
3.0
 41
0.0
 71
     5
 72
     1
  1
承認
  7
CONVERTER_11
 73
     1
 44
0.59090909090909
  0
MTEXT
  5
B4
330
49
100
AcDbEntity
  8
1
 62
     2
100
AcDbMText
 10
29.0
 20
14.25
 30
0.0
 40
3.5
 41
0.0
 71
     5
 72
     1
  1
品番
  7
CONVERTER_11
 73
     1
 44
0.72727272727273
  0
MTEXT
  5
B5
330
49
100
AcDbEntity
  8
1
 62
     2
100
AcDbMText
 10
29.0
 20
22.75
 30
0.0
 40
3.5
 41
0.0
 71
     5
 72
     1
  1
品名
  7
CONVERTER_11
 73
     1
 44
0.72727272727273
  0
MTEXT
  5
B6
330
49
100
AcDbEntity
  8
1
 62
     2
100
AcDbMText
 10
29.0
 20
34.00000000000001
 30
0.0
 40
3.5
 41
0.0
 71
     5
 72
     1
  1
備考
  7
CONVERTER_11
 73
     1
 44
0.45454545454545
  0
MTEXT
  5
B7
330
49
100
AcDbEntity
  8
1
 62
     2
100
AcDbMText
 10
32.5
 20
282.0000000000003
 30
0.0
 40
5.0
 41
0.0
 71
     5
 72
     1
  1
図番
  7
CONVERTER_11
 73
     1
 44
0.45454545454545
  0
MTEXT
  5
B8
330
49
100
AcDbEntity
  8
1
 62
     7
100
AcDbMText
 10
171.5
 20
15.0
 30
0.0
 40
2.5
 41
0.0
 71
     5
 72
     1
  1
株式会社
  7
CONVERTER_11
 73
     1
 44
1.0
  0
MTEXT
  5
B9
330
49
100
AcDbEntity
  8
1
 62
     7
100
AcDbMText
 10
188.5
 20
15.0
 30
0.0
 40
3.0
 41
0.0
 71
     5
 72
     1
  1
三栄水栓製作所
  7
CONVERTER_11
 73
     1
 44
1.0
  0
ENDBLK
  5
4B
330
49
100
AcDbEntity
  8
0
100
AcDbBlockEnd
  0
BLOCK
  5
4D
330
4C
100
AcDbEntity
  8
0
100
AcDbBlockBegin
  2
HOSE
 70
     0
 10
416.2513612461253
 20
1052.952663558938
 30
0.0
  3
HOSE
  1

  0
LINE
  5
BA
330
4C
100
AcDbEntity
  8
1
  6
Continuous
 62
     7
100
AcDbLine
 10
416.2513612461253
 20
441.3664658441673
 30
0.0
 11
416.2513612461253
 21
440.3665284301957
 31
0.0
  0
LINE
  5
BB
330
4C
100
AcDbEntity
  8
1
  6
Continuous
 62
     7
100
AcDbLine
 10
416.2513612461253
 20
441.3664658441673
 30
0.0
 11
416.2513612461253
 21
440.3665284301957
 31
0.0
  0
LINE
  5
BC
330
4C
100
AcDbEntity
  8
1
  6
Continuous
 62
     7
100
AcDbLine
 10
418.4512235568627
 20
446.0141749443052
 30
0.0
 11
418.4512235568627
 21
443.5663281549038
 31
0.0
  0
LINE
  5
BD
330
4C
100
AcDbEntity
  8
1
  6
Continuous
 62
     7
100
AcDbLine
 10
418.4512235568627
 20
445.7981884628868
 30
0.0
 11
418.4512235568627
 21
443.5663281549038
 31
0.0
  0
LINE
  5
BE
330
4C
100
AcDbEntity
  8
1
  6
Continuous
 62
     7
100
AcDbLine
 10
418.4512235568627
 20
445.7981884628868
 30
0.0
 11
418.4512235568627
 21
443.5663281549038
 31
0.0
  0
LINE
  5
BF
330
4C
100
AcDbEntity
  8
1
  6
Continuous
 62
     7
100
AcDbLine
 10
418.1512423326703
 20
446.3661529140233
 30
0.0
 11
418.4512235568627
 21
446.0141749443052
 31
0.0
  0
LINE
  5
C0
330
4C
100
AcDbEntity
  8
1
  6
Continuous
 62
     7
100
AcDbLine
 10
457.5487764431346
 20
440.4285245498619
 30
0.0
 11
457.5487764431346
 21
438.9620445068603
 31
0.0
  0
LINE
  5
C1
330
4C
100
AcDbEntity
  8
1
  6
Continuous
 62
     7
100
AcDbLine
 10
457.8487576673269
 20
440.7805025195809
 30
0.0
 11
457.5487764431346
 21
440.4275246124477
 31
0.0
  0
LINE
  5
C2
330
4C
100
AcDbEntity
  8
1
  6
Continuous
 62
     7
100
AcDbLine
 10
457.8487576673269
 20
440.7805025195809
 30
0.0
 11
457.5487764431346
 21
440.4285245498619
 31
0.0
  0
LINE
  5
C3
330
4C
100
AcDbEntity
  8
1
  6
Continuous
 62
     7
100
AcDbLine
 10
457.8487576673269
 20
443.88030850289
 30
0.0
 11
457.8487576673269
 21
440.7805025195809
 31
0.0
  0
LINE
  5
C4
330
4C
100
AcDbEntity
  8
1
  6
Continuous
 62
     7
100
AcDbLine
 10
459.7486387538711
 20
446.7801270034067
 30
0.0
 11
459.7486387538711
 21
445.7801895894342
 31
0.0
  0
LINE
  5
C5
330
4C
100
AcDbEntity
  8
1
  6
Continuous
 62
     7
100
AcDbLine
 10
458.1122857771006
 20
444.3770648569268
 30
0.0
 11
417.6212755032657
 21
439.0625124484838
 31
0.0
  0
LINE
  5
C6
330
4C
100
AcDbEntity
  8
1
  6
Continuous
 62
     7
100
AcDbLine
 10
458.448720115709
 20
448.0800456415697
 30
0.0
 11
417.6212755032657
 21
442.6691107116955
 31
0.0
  0
LINE
  5
C7
330
4C
100
AcDbEntity
  8
1
  6
Continuous
 62
     7
100
AcDbLine
 10
458.448720115709
 20
998.242782093425
 30
0.0
 11
454.8980257514968
 21
997.772202160173
 31
0.0
  0
LINE
  5
C8
330
4C
100
AcDbEntity
  8
1
  6
Continuous
 62
     7
100
AcDbLine
 10
418.1512423326703
 20
449.4954323783522
 30
0.0
 11
418.1512423326703
 21
446.3956263950441
 31
0.0
  0
LINE
  5
C9
330
4C
100
AcDbEntity
  8
1
  6
Continuous
 62
     7
100
AcDbLine
 10
458.448720115709
 20
459.1088306762732
 30
0.0
 11
417.6212755032657
 21
453.697895746399
 31
0.0
  0
LINE
  5
CA
330
4C
100
AcDbEntity
  8
1
  6
Continuous
 62
     7
100
AcDbLine
 10
458.1122857771006
 20
455.4058498916303
 30
0.0
 11
417.6212755032657
 21
450.0912974831873
 31
0.0
  0
LINE
  5
CB
330
4C
100
AcDbEntity
  8
1
  6
Continuous
 62
     7
100
AcDbLine
 10
418.4512235568627
 20
456.8269734975903
 30
0.0
 11
418.4512235568627
 21
454.5951131896073
 31
0.0
  0
LINE
  5
CC
330
4C
100
AcDbEntity
  8
1
  6
Continuous
 62
     7
100
AcDbLine
 10
416.2513612461253
 20
452.3952508788707
 30
0.0
 11
416.2513612461253
 21
451.3953134648992
 31
0.0
  0
LINE
  5
CD
330
4C
100
AcDbEntity
  8
1
  6
Continuous
 62
     7
100
AcDbLine
 10
457.5487764431346
 20
451.4573095845653
 30
0.0
 11
457.5487764431346
 21
449.009462795164
 31
0.0
  0
LINE
  5
CE
330
4C
100
AcDbEntity
  8
1
  6
Continuous
 62
     7
100
AcDbLine
 10
457.8487576673269
 20
451.8092875542844
 30
0.0
 11
457.5487764431346
 21
451.4573095845653
 31
0.0
  0
LINE
  5
CF
330
4C
100
AcDbEntity
  8
1
  6
Continuous
 62
     7
100
AcDbLine
 10
457.8487576673269
 20
454.9090935375934
 30
0.0
 11
457.8487576673269
 21
451.8092875542844
 31
0.0
  0
LINE
  5
D0
330
4C
100
AcDbEntity
  8
1
  6
Continuous
 62
     7
100
AcDbLine
 10
458.448720115709
 20
521.5107075593387
 30
0.0
 11
417.6212755032657
 21
516.0871668052861
 31
0.0
  0
LINE
  5
D1
330
4C
100
AcDbEntity
  8
1
  6
Continuous
 62
     7
100
AcDbLine
 10
458.448720115709
 20
514.1053884446874
 30
0.0
 11
417.6212755032657
 21
508.6944535148124
 31
0.0
  0
LINE
  5
D2
330
4C
100
AcDbEntity
  8
1
  6
Continuous
 62
     7
100
AcDbLine
 10
458.448720115709
 20
510.5056137543926
 30
0.0
 11
417.6212755032657
 21
505.0878552516024
 31
0.0
  0
LINE
  5
D3
330
4C
100
AcDbEntity
  8
1
  6
Continuous
 62
     7
100
AcDbLine
 10
458.448720115709
 20
503.1060768910047
 30
0.0
 11
417.6212755032657
 21
497.6951419611296
 31
0.0
  0
LINE
  5
D4
330
4C
100
AcDbEntity
  8
1
  6
Continuous
 62
     7
100
AcDbLine
 10
458.448720115709
 20
499.5063022007089
 30
0.0
 11
417.6212755032657
 21
494.0885436979206
 31
0.0
  0
LINE
  5
D5
330
4C
100
AcDbEntity
  8
1
  6
Continuous
 62
     7
100
AcDbLine
 10
458.448720115709
 20
492.1067653373202
 30
0.0
 11
417.6212755032657
 21
486.695830407447
 31
0.0
  0
LINE
  5
D6
330
4C
100
AcDbEntity
  8
1
  6
Continuous
 62
     7
100
AcDbLine
 10
458.448720115709
 20
488.5069906470253
 30
0.0
 11
417.6212755032657
 21
483.0892321442379
 31
0.0
  0
LINE
  5
D7
330
4C
100
AcDbEntity
  8
1
  6
Continuous
 62
     7
100
AcDbLine
 10
458.448720115709
 20
481.1074537836395
 30
0.0
 11
417.6212755032657
 21
475.6965188537643
 31
0.0
  0
LINE
  5
D8
330
4C
100
AcDbEntity
  8
1
  6
Continuous
 62
     7
100
AcDbLine
 10
458.448720115709
 20
477.5076790933446
 30
0.0
 11
417.6212755032657
 21
472.0899205905545
 31
0.0
  0
LINE
  5
D9
330
4C
100
AcDbEntity
  8
1
  6
Continuous
 62
     7
100
AcDbLine
 10
458.448720115709
 20
470.1081422299567
 30
0.0
 11
417.6212755032657
 21
464.6972073000808
 31
0.0
  0
LINE
  5
DA
330
4C
100
AcDbEntity
  8
1
  6
Continuous
 62
     7
100
AcDbLine
 10
458.448720115709
 20
466.508367539661
 30
0.0
 11
417.6212755032657
 21
461.0906090368727
 31
0.0
  0
LINE
  5
DB
330
4C
100
AcDbEntity
  8
1
  6
Continuous
 62
     7
100
AcDbLine
 10
458.448720115709
 20
459.1088306762732
 30
0.0
 11
417.6212755032657
 21
453.697895746399
 31
0.0
  0
LINE
  5
DC
330
4C
100
AcDbEntity
  8
1
  6
Continuous
 62
     7
100
AcDbLine
 10
458.1122857771006
 20
455.4058498916303
 30
0.0
 11
417.6212755032657
 21
450.0912974831873
 31
0.0
  0
LINE
  5
DD
330
4C
100
AcDbEntity
  8
1
  6
Continuous
 62
     7
100
AcDbLine
 10
418.4512235568627
 20
457.0429599790087
 30
0.0
 11
418.4512235568627
 21
454.5951131896073
 31
0.0
  0
LINE
  5
DE
330
4C
100
AcDbEntity
  8
1
  6
Continuous
 62
     7
100
AcDbLine
 10
418.1512423326703
 20
457.3949379487268
 30
0.0
 11
418.4512235568627
 21
457.0429599790087
 31
0.0
  0
LINE
  5
DF
330
4C
100
AcDbEntity
  8
1
  6
Continuous
 62
     7
100
AcDbLine
 10
416.2513612461253
 20
452.3952508788707
 30
0.0
 11
416.2513612461253
 21
451.3953134648992
 31
0.0
  0
LINE
  5
E0
330
4C
100
AcDbEntity
  8
1
  6
Continuous
 62
     7
100
AcDbLine
 10
418.1512423326703
 20
460.4947439320359
 30
0.0
 11
418.1512423326703
 21
457.3949379487268
 31
0.0
  0
LINE
  5
E1
330
4C
100
AcDbEntity
  8
1
  6
Continuous
 62
     7
100
AcDbLine
 10
418.4512235568627
 20
468.0412715952763
 30
0.0
 11
418.4512235568627
 21
465.59442474329
 31
0.0
  0
LINE
  5
E2
330
4C
100
AcDbEntity
  8
1
  6
Continuous
 62
     7
100
AcDbLine
 10
418.1512423326703
 20
468.3942495024104
 30
0.0
 11
418.4512235568627
 21
468.0412715952763
 31
0.0
  0
LINE
  5
E3
330
4C
100
AcDbEntity
  8
1
  6
Continuous
 62
     7
100
AcDbLine
 10
416.2513612461253
 20
463.3945624325535
 30
0.0
 11
416.2513612461253
 21
462.3946250185809
 31
0.0
  0
LINE
  5
E4
330
4C
100
AcDbEntity
  8
1
  6
Continuous
 62
     7
100
AcDbLine
 10
418.1512423326703
 20
471.4950554231336
 30
0.0
 11
418.1512423326703
 21
468.3942495024104
 31
0.0
  0
LINE
  5
E5
330
4C
100
AcDbEntity
  8
1
  6
Continuous
 62
     7
100
AcDbLine
 10
418.4512235568627
 20
479.041583086374
 30
0.0
 11
418.4512235568627
 21
476.5937362969736
 31
0.0
  0
LINE
  5
E6
330
4C
100
AcDbEntity
  8
1
  6
Continuous
 62
     7
100
AcDbLine
 10
418.1512423326703
 20
479.3935610560903
 30
0.0
 11
418.4512235568627
 21
479.041583086374
 31
0.0
  0
LINE
  5
E7
330
4C
100
AcDbEntity
  8
1
  6
Continuous
 62
     7
100
AcDbLine
 10
416.2513612461253
 20
474.3938739862343
 30
0.0
 11
416.2513612461253
 21
473.3939365722646
 31
0.0
  0
LINE
  5
E8
330
4C
100
AcDbEntity
  8
1
  6
Continuous
 62
     7
100
AcDbLine
 10
418.1512423326703
 20
482.4933670394013
 30
0.0
 11
418.1512423326703
 21
479.3935610560903
 31
0.0
  0
LINE
  5
E9
330
4C
100
AcDbEntity
  8
1
  6
Continuous
 62
     7
100
AcDbLine
 10
418.4512235568627
 20
490.0398947026424
 30
0.0
 11
418.4512235568627
 21
487.5930478506562
 31
0.0
  0
LINE
  5
EA
330
4C
100
AcDbEntity
  8
1
  6
Continuous
 62
     7
100
AcDbLine
 10
418.1512423326703
 20
490.3928726097756
 30
0.0
 11
418.4512235568627
 21
490.0398947026424
 31
0.0
  0
LINE
  5
EB
330
4C
100
AcDbEntity
  8
1
  6
Continuous
 62
     7
100
AcDbLine
 10
416.2513612461253
 20
485.3931855399188
 30
0.0
 11
416.2513612461253
 21
484.3932481259463
 31
0.0
  0
LINE
  5
EC
330
4C
100
AcDbEntity
  8
1
  6
Continuous
 62
     7
100
AcDbLine
 10
418.1512423326703
 20
493.493678530499
 30
0.0
 11
418.1512423326703
 21
490.3928726097756
 31
0.0
  0
LINE
  5
ED
330
4C
100
AcDbEntity
  8
1
  6
Continuous
 62
     7
100
AcDbLine
 10
418.4512235568627
 20
501.0402061937393
 30
0.0
 11
418.4512235568627
 21
498.5923594043379
 31
0.0
  0
LINE
  5
EE
330
4C
100
AcDbEntity
  8
1
  6
Continuous
 62
     7
100
AcDbLine
 10
418.1512423326703
 20
501.3921841634583
 30
0.0
 11
418.4512235568627
 21
501.0402061937393
 31
0.0
  0
LINE
  5
EF
330
4C
100
AcDbEntity
  8
1
  6
Continuous
 62
     7
100
AcDbLine
 10
416.2513612461253
 20
496.3924970936014
 30
0.0
 11
416.2513612461253
 21
495.3925596796289
 31
0.0
  0
LINE
  5
F0
330
4C
100
AcDbEntity
  8
1
  6
Continuous
 62
     7
100
AcDbLine
 10
418.1512423326703
 20
504.4919901467683
 30
0.0
 11
418.1512423326703
 21
501.3921841634583
 31
0.0
  0
LINE
  5
F1
330
4C
100
AcDbEntity
  8
1
  6
Continuous
 62
     7
100
AcDbLine
 10
418.4512235568627
 20
512.0385178100079
 30
0.0
 11
418.4512235568627
 21
509.5916709580224
 31
0.0
  0
LINE
  5
F2
330
4C
100
AcDbEntity
  8
1
  6
Continuous
 62
     7
100
AcDbLine
 10
418.1512423326703
 20
512.3914957171411
 30
0.0
 11
418.4512235568627
 21
512.0385178100079
 31
0.0
  0
LINE
  5
F3
330
4C
100
AcDbEntity
  8
1
  6
Continuous
 62
     7
100
AcDbLine
 10
416.2513612461253
 20
507.3918086472822
 30
0.0
 11
416.2513612461253
 21
506.3918712333134
 31
0.0
  0
LINE
  5
F4
330
4C
100
AcDbEntity
  8
1
  6
Continuous
 62
     7
100
AcDbLine
 10
418.1512423326703
 20
515.4923016378643
 30
0.0
 11
418.1512423326703
 21
512.3914957171411
 31
0.0
  0
LINE
  5
F5
330
4C
100
AcDbEntity
  8
1
  6
Continuous
 62
     7
100
AcDbLine
 10
416.2513612461253
 20
518.3911202009667
 30
0.0
 11
416.2513612461253
 21
517.3911827869944
 31
0.0
  0
LINE
  5
F6
330
4C
100
AcDbEntity
  8
1
  6
Continuous
 62
     7
100
AcDbLine
 10
457.5487764431346
 20
451.4563096471512
 30
0.0
 11
457.5487764431346
 21
449.009462795164
 31
0.0
  0
LINE
  5
F7
330
4C
100
AcDbEntity
  8
1
  6
Continuous
 62
     7
100
AcDbLine
 10
457.8487576673269
 20
451.8092875542844
 30
0.0
 11
457.5487764431346
 21
451.4563096471512
 31
0.0
  0
LINE
  5
F8
330
4C
100
AcDbEntity
  8
1
  6
Continuous
 62
     7
100
AcDbLine
 10
457.8487576673269
 20
454.9100934750078
 30
0.0
 11
457.8487576673269
 21
451.8092875542844
 31
0.0
  0
LINE
  5
F9
330
4C
100
AcDbEntity
  8
1
  6
Continuous
 62
     7
100
AcDbLine
 10
457.5487764431346
 20
462.4566211382463
 30
0.0
 11
457.5487764431346
 21
460.0087743488467
 31
0.0
  0
LINE
  5
FA
330
4C
100
AcDbEntity
  8
1
  6
Continuous
 62
     7
100
AcDbLine
 10
457.8487576673269
 20
462.8085991079653
 30
0.0
 11
457.5487764431346
 21
462.4566211382463
 31
0.0
  0
LINE
  5
FB
330
4C
100
AcDbEntity
  8
1
  6
Continuous
 62
     7
100
AcDbLine
 10
459.7486387538711
 20
457.8089120381102
 30
0.0
 11
459.7486387538711
 21
456.8089746241377
 31
0.0
  0
LINE
  5
FC
330
4C
100
AcDbEntity
  8
1
  6
Continuous
 62
     7
100
AcDbLine
 10
457.8487576673269
 20
465.9084050912762
 30
0.0
 11
457.8487576673269
 21
462.8085991079653
 31
0.0
  0
LINE
  5
FD
330
4C
100
AcDbEntity
  8
1
  6
Continuous
 62
     7
100
AcDbLine
 10
457.5487764431346
 20
473.4549327545165
 30
0.0
 11
457.5487764431346
 21
471.0080859025302
 31
0.0
  0
LINE
  5
FE
330
4C
100
AcDbEntity
  8
1
  6
Continuous
 62
     7
100
AcDbLine
 10
457.8487576673269
 20
473.8079106616498
 30
0.0
 11
457.5487764431346
 21
473.4549327545165
 31
0.0
  0
LINE
  5
FF
330
4C
100
AcDbEntity
  8
1
  6
Continuous
 62
     7
100
AcDbLine
 10
459.7486387538711
 20
468.8082235917919
 30
0.0
 11
459.7486387538711
 21
467.8082861778221
 31
0.0
  0
LINE
  5
100
330
4C
100
AcDbEntity
  8
1
  6
Continuous
 62
     7
100
AcDbLine
 10
457.8487576673269
 20
476.9087165823731
 30
0.0
 11
457.8487576673269
 21
473.8079106616498
 31
0.0
  0
LINE
  5
101
330
4C
100
AcDbEntity
  8
1
  6
Continuous
 62
     7
100
AcDbLine
 10
457.5487764431346
 20
484.4552442456135
 30
0.0
 11
457.5487764431346
 21
482.007397456213
 31
0.0
  0
LINE
  5
102
330
4C
100
AcDbEntity
  8
1
  6
Continuous
 62
     7
100
AcDbLine
 10
457.8487576673269
 20
484.8072222153324
 30
0.0
 11
457.5487764431346
 21
484.4552442456135
 31
0.0
  0
LINE
  5
103
330
4C
100
AcDbEntity
  8
1
  6
Continuous
 62
     7
100
AcDbLine
 10
459.7486387538711
 20
479.8075351454764
 30
0.0
 11
459.7486387538711
 21
478.8075977315039
 31
0.0
  0
LINE
  5
104
330
4C
100
AcDbEntity
  8
1
  6
Continuous
 62
     7
100
AcDbLine
 10
457.8487576673269
 20
487.9070281986425
 30
0.0
 11
457.8487576673269
 21
484.8072222153324
 31
0.0
  0
LINE
  5
105
330
4C
100
AcDbEntity
  8
1
  6
Continuous
 62
     7
100
AcDbLine
 10
457.5487764431346
 20
495.4535558618827
 30
0.0
 11
457.5487764431346
 21
493.0067090098964
 31
0.0
  0
LINE
  5
106
330
4C
100
AcDbEntity
  8
1
  6
Continuous
 62
     7
100
AcDbLine
 10
457.8487576673269
 20
495.8065337690132
 30
0.0
 11
457.5487764431346
 21
495.4535558618827
 31
0.0
  0
LINE
  5
107
330
4C
100
AcDbEntity
  8
1
  6
Continuous
 62
     7
100
AcDbLine
 10
459.7486387538711
 20
490.8068466991572
 30
0.0
 11
459.7486387538711
 21
489.8069092851874
 31
0.0
  0
LINE
  5
108
330
4C
100
AcDbEntity
  8
1
  6
Continuous
 62
     7
100
AcDbLine
 10
457.8487576673269
 20
498.9073396897385
 30
0.0
 11
457.8487576673269
 21
495.8065337690132
 31
0.0
  0
LINE
  5
109
330
4C
100
AcDbEntity
  8
1
  6
Continuous
 62
     7
100
AcDbLine
 10
457.5487764431346
 20
506.4538673529796
 30
0.0
 11
457.5487764431346
 21
504.0060205635782
 31
0.0
  0
LINE
  5
10A
330
4C
100
AcDbEntity
  8
1
  6
Continuous
 62
     7
100
AcDbLine
 10
457.8487576673269
 20
506.8058453226977
 30
0.0
 11
457.5487764431346
 21
506.4538673529796
 31
0.0
  0
LINE
  5
10B
330
4C
100
AcDbEntity
  8
1
  6
Continuous
 62
     7
100
AcDbLine
 10
459.7486387538711
 20
501.8061582528418
 30
0.0
 11
459.7486387538711
 21
500.8062208388701
 31
0.0
  0
LINE
  5
10C
330
4C
100
AcDbEntity
  8
1
  6
Continuous
 62
     7
100
AcDbLine
 10
457.5487764431346
 20
517.4521789692482
 30
0.0
 11
457.5487764431346
 21
515.0053321172609
 31
0.0
  0
LINE
  5
10D
330
4C
100
AcDbEntity
  8
1
  6
Continuous
 62
     7
100
AcDbLine
 10
457.8487576673269
 20
517.8051568763805
 30
0.0
 11
457.5487764431346
 21
517.4521789692482
 31
0.0
  0
LINE
  5
10E
330
4C
100
AcDbEntity
  8
1
  6
Continuous
 62
     7
100
AcDbLine
 10
459.7486387538711
 20
512.8054698065243
 30
0.0
 11
459.7486387538711
 21
511.8055323925528
 31
0.0
  0
LINE
  5
10F
330
4C
100
AcDbEntity
  8
1
  6
Continuous
 62
     7
100
AcDbLine
 10
457.8487576673269
 20
520.9059627971037
 30
0.0
 11
457.8487576673269
 21
517.8051568763805
 31
0.0
  0
LINE
  5
110
330
4C
100
AcDbEntity
  8
1
  6
Continuous
 62
     7
100
AcDbLine
 10
459.7486387538711
 20
523.8047813602052
 30
0.0
 11
459.7486387538711
 21
522.8048439462356
 31
0.0
  0
LINE
  5
111
330
4C
100
AcDbEntity
  8
1
  6
Continuous
 62
     7
100
AcDbLine
 10
418.2245337453651
 20
897.4548730163959
 30
0.0
 11
418.4512235568627
 21
897.1888896642794
 31
0.0
  0
LINE
  5
112
330
4C
100
AcDbEntity
  8
1
  6
Continuous
 62
     7
100
AcDbLine
 10
418.1512423326703
 20
897.5408676339974
 30
0.0
 11
418.2245337453651
 21
897.4548730163959
 31
0.0
  0
LINE
  5
113
330
4C
100
AcDbEntity
  8
1
  6
Continuous
 62
     7
100
AcDbLine
 10
459.7486387538711
 20
897.4548730163959
 30
0.0
 11
459.7486387538711
 21
896.9549043094092
 31
0.0
  0
LINE
  5
114
330
4C
100
AcDbEntity
  8
1
  6
Continuous
 62
     7
100
AcDbLine
 10
459.7486387538711
 20
897.9548417233808
 30
0.0
 11
459.7486387538711
 21
897.4548730163959
 31
0.0
  0
LINE
  5
115
330
4C
100
AcDbEntity
  8
1
  6
Continuous
 62
     7
100
AcDbLine
 10
418.4512235568627
 20
907.7778349027675
 30
0.0
 11
418.4512235568627
 21
905.7403544285615
 31
0.0
  0
LINE
  5
116
330
4C
100
AcDbEntity
  8
1
  6
Continuous
 62
     7
100
AcDbLine
 10
418.1512423326703
 20
999.635477537868
 30
0.0
 11
418.1512423326703
 21
997.772202160173
 31
0.0
  0
LINE
  5
117
330
4C
100
AcDbEntity
  8
1
  6
Continuous
 62
     7
100
AcDbLine
 10
458.448720115709
 20
525.1104822496354
 30
0.0
 11
417.6212755032657
 21
519.6995473197603
 31
0.0
  0
LINE
  5
118
330
4C
100
AcDbEntity
  8
1
  6
Continuous
 62
     7
100
AcDbLine
 10
459.7486387538711
 20
523.8105636114715
 30
0.0
 11
459.7486387538711
 21
522.8106261975008
 31
0.0
  0
LINE
  5
119
330
4C
100
AcDbEntity
  8
1
  6
Continuous
 62
     7
100
AcDbLine
 10
459.7486387538711
 20
1018.447300106907
 30
0.0
 11
459.7486387538711
 21
1017.947331399922
 31
0.0
  0
LINE
  5
11A
330
4C
100
AcDbEntity
  8
1
  6
Continuous
 62
     7
100
AcDbLine
 10
459.7486387538711
 20
1018.947268813893
 30
0.0
 11
459.7486387538711
 21
1018.447300106907
 31
0.0
  0
LINE
  5
11B
330
4C
100
AcDbEntity
  8
1
  6
Continuous
 62
     7
100
AcDbLine
 10
418.2245337453651
 20
1018.447300106907
 30
0.0
 11
418.4512235568627
 21
1018.181316754792
 31
0.0
  0
LINE
  5
11C
330
4C
100
AcDbEntity
  8
1
  6
Continuous
 62
     7
100
AcDbLine
 10
418.1512423326703
 20
1018.53329472451
 30
0.0
 11
418.2245337453651
 21
1018.447300106907
 31
0.0
  0
LINE
  5
11D
330
4C
100
AcDbEntity
  8
1
  6
Continuous
 62
     7
100
AcDbLine
 10
437.9999999999991
 20
907.5497483786902
 30
0.0
 11
417.6212755032657
 21
904.8431369853514
 31
0.0
  0
LINE
  5
11E
330
4C
100
AcDbEntity
  8
1
  6
Continuous
 62
     7
100
AcDbLine
 10
458.448720115709
 20
906.6542972249316
 30
0.0
 11
417.6212755032657
 21
901.2365387221424
 31
0.0
  0
LINE
  5
11F
330
4C
100
AcDbEntity
  8
1
  6
Continuous
 62
     7
100
AcDbLine
 10
458.3808151628819
 20
899.2573258913079
 30
0.0
 11
417.6212755032657
 21
893.8438254316687
 31
0.0
  0
LINE
  5
120
330
4C
100
AcDbEntity
  8
1
  6
Continuous
 62
     7
100
AcDbLine
 10
458.448720115709
 20
895.6549856712471
 30
0.0
 11
417.6212755032657
 21
890.2372271684598
 31
0.0
  0
LINE
  5
121
330
4C
100
AcDbEntity
  8
1
  6
Continuous
 62
     7
100
AcDbLine
 10
458.448720115709
 20
888.2554488078612
 30
0.0
 11
417.6212755032657
 21
882.8445138779861
 31
0.0
  0
LINE
  5
122
330
4C
100
AcDbEntity
  8
1
  6
Continuous
 62
     7
100
AcDbLine
 10
458.3483760389408
 20
884.6472232968989
 30
0.0
 11
417.6212755032657
 21
879.2379156147762
 31
0.0
  0
LINE
  5
123
330
4C
100
AcDbEntity
  8
1
  6
Continuous
 62
     7
100
AcDbLine
 10
458.448720115709
 20
877.2561372541776
 30
0.0
 11
417.6212755032657
 21
871.8452023243034
 31
0.0
  0
LINE
  5
124
330
4C
100
AcDbEntity
  8
1
  6
Continuous
 62
     7
100
AcDbLine
 10
458.448720115709
 20
873.6563625638809
 30
0.0
 11
417.6212755032657
 21
868.2386040610944
 31
0.0
  0
LINE
  5
125
330
4C
100
AcDbEntity
  8
1
  6
Continuous
 62
     7
100
AcDbLine
 10
458.3808151628809
 20
866.2593912302626
 30
0.0
 11
417.6212755032657
 21
860.8458907706216
 31
0.0
  0
LINE
  5
126
330
4C
100
AcDbEntity
  8
1
  6
Continuous
 62
     7
100
AcDbLine
 10
458.3489703553987
 20
862.6487007023142
 30
0.0
 11
417.6212755032657
 21
857.2392925074117
 31
0.0
  0
LINE
  5
127
330
4C
100
AcDbEntity
  8
1
  6
Continuous
 62
     7
100
AcDbLine
 10
458.448720115709
 20
855.2575141468122
 30
0.0
 11
417.6212755032657
 21
849.8465792169371
 31
0.0
  0
LINE
  5
128
330
4C
100
AcDbEntity
  8
1
  6
Continuous
 62
     7
100
AcDbLine
 10
458.3479765789698
 20
851.6492207326536
 30
0.0
 11
417.6212755032657
 21
846.2399809537281
 31
0.0
  0
LINE
  5
129
330
4C
100
AcDbEntity
  8
1
  6
Continuous
 62
     7
100
AcDbLine
 10
418.4512235568627
 20
853.191643449546
 30
0.0
 11
418.4512235568627
 21
850.7437966601454
 31
0.0
  0
LINE
  5
12A
330
4C
100
AcDbEntity
  8
1
  6
Continuous
 62
     7
100
AcDbLine
 10
418.1512423326703
 20
853.5436214192649
 30
0.0
 11
418.4512235568627
 21
853.191643449546
 31
0.0
  0
LINE
  5
12B
330
4C
100
AcDbEntity
  8
1
  6
Continuous
 62
     7
100
AcDbLine
 10
416.2513612461253
 20
848.5439343494098
 30
0.0
 11
416.2513612461253
 21
847.5439969354383
 31
0.0
  0
LINE
  5
12C
330
4C
100
AcDbEntity
  8
1
  6
Continuous
 62
     7
100
AcDbLine
 10
418.1512423326703
 20
856.6434274025759
 30
0.0
 11
418.1512423326703
 21
853.5436214192649
 31
0.0
  0
LINE
  5
12D
330
4C
100
AcDbEntity
  8
1
  6
Continuous
 62
     7
100
AcDbLine
 10
418.4512235568627
 20
864.1899550658162
 30
0.0
 11
418.4512235568627
 21
861.7431082138299
 31
0.0
  0
LINE
  5
12E
330
4C
100
AcDbEntity
  8
1
  6
Continuous
 62
     7
100
AcDbLine
 10
418.1512423326703
 20
864.5429329729485
 30
0.0
 11
418.4512235568627
 21
864.1899550658162
 31
0.0
  0
LINE
  5
12F
330
4C
100
AcDbEntity
  8
1
  6
Continuous
 62
     7
100
AcDbLine
 10
416.2513612461253
 20
859.5432459030916
 30
0.0
 11
416.2513612461253
 21
858.5433084891209
 31
0.0
  0
LINE
  5
130
330
4C
100
AcDbEntity
  8
1
  6
Continuous
 62
     7
100
AcDbLine
 10
418.1512423326703
 20
867.6437388936728
 30
0.0
 11
418.1512423326703
 21
864.5429329729485
 31
0.0
  0
LINE
  5
131
330
4C
100
AcDbEntity
  8
1
  6
Continuous
 62
     7
100
AcDbLine
 10
418.4512235568627
 20
875.1902665569131
 30
0.0
 11
418.4512235568627
 21
872.7424197675126
 31
0.0
  0
LINE
  5
132
330
4C
100
AcDbEntity
  8
1
  6
Continuous
 62
     7
100
AcDbLine
 10
418.1512423326703
 20
875.5422445266312
 30
0.0
 11
418.4512235568627
 21
875.1902665569131
 31
0.0
  0
LINE
  5
133
330
4C
100
AcDbEntity
  8
1
  6
Continuous
 62
     7
100
AcDbLine
 10
416.2513612461253
 20
870.5425574567752
 30
0.0
 11
416.2513612461253
 21
869.5426200428036
 31
0.0
  0
LINE
  5
134
330
4C
100
AcDbEntity
  8
1
  6
Continuous
 62
     7
100
AcDbLine
 10
418.1512423326703
 20
878.6420505099412
 30
0.0
 11
418.1512423326703
 21
875.5422445266312
 31
0.0
  0
LINE
  5
135
330
4C
100
AcDbEntity
  8
1
  6
Continuous
 62
     7
100
AcDbLine
 10
418.4512235568627
 20
886.1885781731825
 30
0.0
 11
418.4512235568627
 21
883.7417313211944
 31
0.0
  0
LINE
  5
136
330
4C
100
AcDbEntity
  8
1
  6
Continuous
 62
     7
100
AcDbLine
 10
418.1512423326703
 20
886.5415560803139
 30
0.0
 11
418.4512235568627
 21
886.1885781731825
 31
0.0
  0
LINE
  5
137
330
4C
100
AcDbEntity
  8
1
  6
Continuous
 62
     7
100
AcDbLine
 10
416.2513612461253
 20
881.5418690104578
 30
0.0
 11
416.2513612461253
 21
880.5419315964863
 31
0.0
  0
LINE
  5
138
330
4C
100
AcDbEntity
  8
1
  6
Continuous
 62
     7
100
AcDbLine
 10
418.1512423326703
 20
889.6423620010381
 30
0.0
 11
418.1512423326703
 21
886.5415560803139
 31
0.0
  0
LINE
  5
139
330
4C
100
AcDbEntity
  8
1
  6
Continuous
 62
     7
100
AcDbLine
 10
418.4512235568627
 20
897.1888896642794
 30
0.0
 11
418.4512235568627
 21
894.7410428748789
 31
0.0
  0
LINE
  5
13A
330
4C
100
AcDbEntity
  8
1
  6
Continuous
 62
     7
100
AcDbLine
 10
416.2513612461253
 20
892.5411805641405
 30
0.0
 11
416.2513612461253
 21
891.5412431501699
 31
0.0
  0
LINE
  5
13B
330
4C
100
AcDbEntity
  8
1
  6
Continuous
 62
     7
100
AcDbLine
 10
418.1512423326703
 20
900.6406736173075
 30
0.0
 11
418.1512423326703
 21
897.5408676339974
 31
0.0
  0
LINE
  5
13C
330
4C
100
AcDbEntity
  8
1
  6
Continuous
 62
     7
100
AcDbLine
 10
416.2513612461253
 20
903.5404921178241
 30
0.0
 11
416.2513612461253
 21
902.5405547038525
 31
0.0
  0
LINE
  5
13D
330
4C
100
AcDbEntity
  8
1
  6
Continuous
 62
     7
100
AcDbLine
 10
457.5487764431346
 20
858.6053046087872
 30
0.0
 11
457.5487764431346
 21
856.1574578193857
 31
0.0
  0
LINE
  5
13E
330
4C
100
AcDbEntity
  8
1
  6
Continuous
 62
     7
100
AcDbLine
 10
457.8487576673269
 20
858.9572825785052
 30
0.0
 11
457.5487764431346
 21
858.6053046087872
 31
0.0
  0
LINE
  5
13F
330
4C
100
AcDbEntity
  8
1
  6
Continuous
 62
     7
100
AcDbLine
 10
459.7486387538711
 20
853.9575955086492
 30
0.0
 11
459.7486387538711
 21
852.9576580946785
 31
0.0
  0
LINE
  5
140
330
4C
100
AcDbEntity
  8
1
  6
Continuous
 62
     7
100
AcDbLine
 10
457.8487576673269
 20
862.0570885618152
 30
0.0
 11
457.8487576673269
 21
858.9572825785052
 31
0.0
  0
LINE
  5
141
330
4C
100
AcDbEntity
  8
1
  6
Continuous
 62
     7
100
AcDbLine
 10
457.5487764431346
 20
869.6036162250565
 30
0.0
 11
457.5487764431346
 21
867.1567693730684
 31
0.0
  0
LINE
  5
142
330
4C
100
AcDbEntity
  8
1
  6
Continuous
 62
     7
100
AcDbLine
 10
457.8487576673269
 20
869.9565941321879
 30
0.0
 11
457.5487764431346
 21
869.6036162250565
 31
0.0
  0
LINE
  5
143
330
4C
100
AcDbEntity
  8
1
  6
Continuous
 62
     7
100
AcDbLine
 10
459.7486387538711
 20
864.9569070623319
 30
0.0
 11
459.7486387538711
 21
863.9569696483603
 31
0.0
  0
LINE
  5
144
330
4C
100
AcDbEntity
  8
1
  6
Continuous
 62
     7
100
AcDbLine
 10
457.8487576673269
 20
873.0574000529122
 30
0.0
 11
457.8487576673269
 21
869.9565941321879
 31
0.0
  0
LINE
  5
145
330
4C
100
AcDbEntity
  8
1
  6
Continuous
 62
     7
100
AcDbLine
 10
457.5487764431346
 20
880.6039277161534
 30
0.0
 11
457.5487764431346
 21
878.1560809267511
 31
0.0
  0
LINE
  5
146
330
4C
100
AcDbEntity
  8
1
  6
Continuous
 62
     7
100
AcDbLine
 10
457.8487576673269
 20
880.9559056858715
 30
0.0
 11
457.5487764431346
 21
880.6039277161534
 31
0.0
  0
LINE
  5
147
330
4C
100
AcDbEntity
  8
1
  6
Continuous
 62
     7
100
AcDbLine
 10
459.7486387538711
 20
875.9562186160146
 30
0.0
 11
459.7486387538711
 21
874.9562812020439
 31
0.0
  0
LINE
  5
148
330
4C
100
AcDbEntity
  8
1
  6
Continuous
 62
     7
100
AcDbLine
 10
457.8487576673269
 20
884.0557116691815
 30
0.0
 11
457.8487576673269
 21
880.9559056858715
 31
0.0
  0
LINE
  5
149
330
4C
100
AcDbEntity
  8
1
  6
Continuous
 62
     7
100
AcDbLine
 10
457.5487764431346
 20
891.6022393324218
 30
0.0
 11
457.5487764431346
 21
889.1553924804356
 31
0.0
  0
LINE
  5
14A
330
4C
100
AcDbEntity
  8
1
  6
Continuous
 62
     7
100
AcDbLine
 10
457.8487576673269
 20
891.9552172395541
 30
0.0
 11
457.5487764431346
 21
891.6022393324218
 31
0.0
  0
LINE
  5
14B
330
4C
100
AcDbEntity
  8
1
  6
Continuous
 62
     7
100
AcDbLine
 10
459.7486387538711
 20
886.9555301696981
 30
0.0
 11
459.7486387538711
 21
885.9555927557266
 31
0.0
  0
LINE
  5
14C
330
4C
100
AcDbEntity
  8
1
  6
Continuous
 62
     7
100
AcDbLine
 10
457.8487576673269
 20
895.0560231602784
 30
0.0
 11
457.8487576673269
 21
891.9552172395541
 31
0.0
  0
LINE
  5
14D
330
4C
100
AcDbEntity
  8
1
  6
Continuous
 62
     7
100
AcDbLine
 10
457.5487764431346
 20
902.6025508235188
 30
0.0
 11
457.5487764431346
 21
900.1547040341173
 31
0.0
  0
LINE
  5
14E
330
4C
100
AcDbEntity
  8
1
  6
Continuous
 62
     7
100
AcDbLine
 10
457.8487576673269
 20
902.9545287932368
 30
0.0
 11
457.5487764431346
 21
902.6025508235188
 31
0.0
  0
LINE
  5
14F
330
4C
100
AcDbEntity
  8
1
  6
Continuous
 62
     7
100
AcDbLine
 10
457.8487576673269
 20
906.0543347765478
 30
0.0
 11
457.8487576673269
 21
902.9545287932368
 31
0.0
  0
LINE
  5
150
330
4C
100
AcDbEntity
  8
1
  6
Continuous
 62
     7
100
AcDbLine
 10
440.8564636082483
 20
1028.964641827056
 30
0.0
 11
417.6212755032657
 21
1025.835564075864
 31
0.0
  0
LINE
  5
151
330
4C
100
AcDbEntity
  8
1
  6
Continuous
 62
     7
100
AcDbLine
 10
458.3908093841865
 20
1027.643922889433
 30
0.0
 11
417.6212755032657
 21
1022.228965812655
 31
0.0
  0
LINE
  5
152
330
4C
100
AcDbEntity
  8
1
  6
Continuous
 62
     7
100
AcDbLine
 10
458.3808151628855
 20
1020.249752981822
 30
0.0
 11
417.6212755032657
 21
1014.836252522181
 31
0.0
  0
LINE
  5
153
330
4C
100
AcDbEntity
  8
1
  6
Continuous
 62
     7
100
AcDbLine
 10
458.448720115709
 20
1016.647412761759
 30
0.0
 11
417.6212755032657
 21
1011.229654258972
 31
0.0
  0
LINE
  5
154
330
4C
100
AcDbEntity
  8
1
  6
Continuous
 62
     7
100
AcDbLine
 10
458.448720115709
 20
1009.247875898373
 30
0.0
 11
417.6212755032657
 21
1003.836940968498
 31
0.0
  0
LINE
  5
155
330
4C
100
AcDbEntity
  8
1
  6
Continuous
 62
     7
100
AcDbLine
 10
458.448720115709
 20
1005.648101208077
 30
0.0
 11
417.6212755032657
 21
1000.230342705288
 31
0.0
  0
LINE
  5
156
330
4C
100
AcDbEntity
  8
1
  6
Continuous
 62
     7
100
AcDbLine
 10
459.7486387538711
 20
1028.964641827056
 30
0.0
 11
459.4486575296796
 21
1028.964641827056
 31
0.0
  0
LINE
  5
157
330
4C
100
AcDbEntity
  8
1
  6
Continuous
 62
     7
100
AcDbLine
 10
418.4512235568627
 20
1028.964641827056
 30
0.0
 11
418.4512235568627
 21
1026.732781519072
 31
0.0
  0
LINE
  5
158
330
4C
100
AcDbEntity
  8
1
  6
Continuous
 62
     7
100
AcDbLine
 10
416.2513612461253
 20
1024.532919208336
 30
0.0
 11
416.2513612461253
 21
1023.532981794366
 31
0.0
  0
LINE
  5
159
330
4C
100
AcDbEntity
  8
1
  6
Continuous
 62
     7
100
AcDbLine
 10
418.4512235568627
 20
1018.181316754792
 30
0.0
 11
418.4512235568627
 21
1015.73346996539
 31
0.0
  0
LINE
  5
15A
330
4C
100
AcDbEntity
  8
1
  6
Continuous
 62
     7
100
AcDbLine
 10
418.1512423326703
 20
1021.63310070782
 30
0.0
 11
418.1512423326703
 21
1018.53329472451
 31
0.0
  0
LINE
  5
15B
330
4C
100
AcDbEntity
  8
1
  6
Continuous
 62
     7
100
AcDbLine
 10
418.4512235568627
 20
1007.182005201108
 30
0.0
 11
418.4512235568627
 21
1004.734158411707
 31
0.0
  0
LINE
  5
15C
330
4C
100
AcDbEntity
  8
1
  6
Continuous
 62
     7
100
AcDbLine
 10
418.1512423326703
 20
1007.533983170825
 30
0.0
 11
418.4512235568627
 21
1007.182005201108
 31
0.0
  0
LINE
  5
15D
330
4C
100
AcDbEntity
  8
1
  6
Continuous
 62
     7
100
AcDbLine
 10
416.2513612461253
 20
1002.534296100971
 30
0.0
 11
416.2513612461253
 21
1001.534358686999
 31
0.0
  0
LINE
  5
15E
330
4C
100
AcDbEntity
  8
1
  6
Continuous
 62
     7
100
AcDbLine
 10
418.1512423326703
 20
1010.633789154137
 30
0.0
 11
418.1512423326703
 21
1007.533983170825
 31
0.0
  0
LINE
  5
15F
330
4C
100
AcDbEntity
  8
1
  6
Continuous
 62
     7
100
AcDbLine
 10
416.2513612461253
 20
1013.533607654654
 30
0.0
 11
416.2513612461253
 21
1012.533670240683
 31
0.0
  0
LINE
  5
160
330
4C
100
AcDbEntity
  8
1
  6
Continuous
 62
     7
100
AcDbLine
 10
457.5487764431346
 20
1023.594977914031
 30
0.0
 11
457.5487764431346
 21
1021.14713112463
 31
0.0
  0
LINE
  5
161
330
4C
100
AcDbEntity
  8
1
  6
Continuous
 62
     7
100
AcDbLine
 10
457.8487576673269
 20
1023.946955883748
 30
0.0
 11
457.5487764431346
 21
1023.594977914031
 31
0.0
  0
LINE
  5
162
330
4C
100
AcDbEntity
  8
1
  6
Continuous
 62
     7
100
AcDbLine
 10
457.8487576673269
 20
1027.04676186706
 30
0.0
 11
457.8487576673269
 21
1023.946955883748
 31
0.0
  0
LINE
  5
163
330
4C
100
AcDbEntity
  8
1
  6
Continuous
 62
     7
100
AcDbLine
 10
457.5487764431346
 20
1001.595354869251
 30
0.0
 11
457.5487764431346
 21
999.148508017263
 31
0.0
  0
LINE
  5
164
330
4C
100
AcDbEntity
  8
1
  6
Continuous
 62
     7
100
AcDbLine
 10
457.8487576673269
 20
1001.948332776384
 30
0.0
 11
457.5487764431346
 21
1001.595354869251
 31
0.0
  0
LINE
  5
165
330
4C
100
AcDbEntity
  8
1
  6
Continuous
 62
     7
100
AcDbLine
 10
457.8487576673269
 20
1005.049138697108
 30
0.0
 11
457.8487576673269
 21
1001.948332776384
 31
0.0
  0
LINE
  5
166
330
4C
100
AcDbEntity
  8
1
  6
Continuous
 62
     7
100
AcDbLine
 10
457.5487764431346
 20
1012.595666360348
 30
0.0
 11
457.5487764431346
 21
1010.147819570947
 31
0.0
  0
LINE
  5
167
330
4C
100
AcDbEntity
  8
1
  6
Continuous
 62
     7
100
AcDbLine
 10
457.8487576673269
 20
1012.947644330066
 30
0.0
 11
457.5487764431346
 21
1012.595666360348
 31
0.0
  0
LINE
  5
168
330
4C
100
AcDbEntity
  8
1
  6
Continuous
 62
     7
100
AcDbLine
 10
459.7486387538711
 20
1007.94795726021
 30
0.0
 11
459.7486387538711
 21
1006.94801984624
 31
0.0
  0
LINE
  5
169
330
4C
100
AcDbEntity
  8
1
  6
Continuous
 62
     7
100
AcDbLine
 10
457.8487576673269
 20
1016.047450313376
 30
0.0
 11
457.8487576673269
 21
1012.947644330066
 31
0.0
  0
LINE
  5
16A
330
4C
100
AcDbEntity
  8
1
  6
Continuous
 62
     7
100
AcDbLine
 10
459.4486575296796
 20
1028.946642953606
 30
0.0
 11
459.4486575296796
 21
1028.964641827056
 31
0.0
  0
LINE
  5
16B
330
4C
100
AcDbEntity
  8
1
  6
Continuous
 62
     7
100
AcDbLine
 10
459.4486575296796
 20
1028.964641827056
 30
0.0
 11
456.9999999999991
 21
1028.964641827056
 31
0.0
  0
LINE
  5
16C
330
4C
100
AcDbEntity
  8
1
  6
Continuous
 62
     7
100
AcDbLine
 10
459.7486387538711
 20
1028.946642953606
 30
0.0
 11
459.7486387538711
 21
1028.964641827056
 31
0.0
  0
LINE
  5
16D
330
4C
100
AcDbEntity
  8
1
  6
Continuous
 62
     7
100
AcDbLine
 10
457.8487576673269
 20
509.9056513060077
 30
0.0
 11
457.8487576673269
 21
506.8058453226977
 31
0.0
  0
LINE
  5
16E
330
4C
100
AcDbEntity
  8
1
  6
Continuous
 62
     7
100
AcDbLine
 10
418.1512423326703
 20
446.3956263950441
 30
0.0
 11
418.2737589171611
 21
446.251873602576
 31
0.0
  0
LINE
  5
16F
330
4C
100
AcDbEntity
  8
1
  6
Continuous
 62
     7
100
AcDbLine
 10
418.9999999999991
 20
1028.964641827056
 30
0.0
 11
418.4512235568627
 21
1028.964641827056
 31
0.0
  0
LINE
  5
170
330
4C
100
AcDbEntity
  8
1
  6
Continuous
 62
     7
100
AcDbLine
 10
456.9999999999991
 20
1028.964641827056
 30
0.0
 11
418.9999999999991
 21
1028.964641827056
 31
0.0
  0
LINE
  5
171
330
4C
100
AcDbEntity
  8
1
  6
Continuous
 62
     7
100
AcDbLine
 10
457.5487764431346
 20
528.4572727741963
 30
0.0
 11
457.5487764431346
 21
526.010425922209
 31
0.0
  0
LINE
  5
172
330
4C
100
AcDbEntity
  8
1
  6
Continuous
 62
     7
100
AcDbLine
 10
457.8487576673269
 20
528.8102506813286
 30
0.0
 11
457.5487764431346
 21
528.4572727741963
 31
0.0
  0
LINE
  5
173
330
4C
100
AcDbEntity
  8
1
  6
Continuous
 62
     7
100
AcDbLine
 10
457.8487576673269
 20
531.9110566020519
 30
0.0
 11
457.8487576673269
 21
528.8102506813286
 31
0.0
  0
LINE
  5
174
330
4C
100
AcDbEntity
  8
1
  6
Continuous
 62
     7
100
AcDbLine
 10
418.4512235568627
 20
523.043611614956
 30
0.0
 11
418.4512235568627
 21
520.5967647629706
 31
0.0
  0
LINE
  5
175
330
4C
100
AcDbEntity
  8
1
  6
Continuous
 62
     7
100
AcDbLine
 10
418.1512423326703
 20
523.3965895220892
 30
0.0
 11
418.4512235568627
 21
523.043611614956
 31
0.0
  0
LINE
  5
176
330
4C
100
AcDbEntity
  8
1
  6
Continuous
 62
     7
100
AcDbLine
 10
418.1512423326703
 20
526.4973954428124
 30
0.0
 11
418.1512423326703
 21
523.3965895220892
 31
0.0
  0
LINE
  5
177
330
4C
100
AcDbEntity
  8
1
  6
Continuous
 62
     7
100
AcDbLine
 10
458.448720115709
 20
532.5158013642869
 30
0.0
 11
417.6212755032657
 21
527.0922606102342
 31
0.0
  0
LINE
  5
178
330
4C
100
AcDbEntity
  8
1
  6
Continuous
 62
     7
100
AcDbLine
 10
458.448720115709
 20
536.1155760545836
 30
0.0
 11
417.6212755032657
 21
530.7046411247085
 31
0.0
  0
LINE
  5
179
330
4C
100
AcDbEntity
  8
1
  6
Continuous
 62
     7
100
AcDbLine
 10
459.7486387538711
 20
534.8156574164196
 30
0.0
 11
459.7486387538711
 21
533.815720002449
 31
0.0
  0
LINE
  5
17A
330
4C
100
AcDbEntity
  8
1
  6
Continuous
 62
     7
100
AcDbLine
 10
416.2513612461253
 20
529.3962140059149
 30
0.0
 11
416.2513612461253
 21
528.3962765919425
 31
0.0
  0
LINE
  5
17B
330
4C
100
AcDbEntity
  8
1
  6
Continuous
 62
     7
100
AcDbLine
 10
416.2513612461253
 20
540.401307810863
 30
0.0
 11
416.2513612461253
 21
539.4013703968906
 31
0.0
  0
LINE
  5
17C
330
4C
100
AcDbEntity
  8
1
  6
Continuous
 62
     7
100
AcDbLine
 10
459.7486387538711
 20
545.8207512213678
 30
0.0
 11
459.7486387538711
 21
544.8208138073971
 31
0.0
  0
LINE
  5
17D
330
4C
100
AcDbEntity
  8
1
  6
Continuous
 62
     7
100
AcDbLine
 10
458.448720115709
 20
547.1206698595317
 30
0.0
 11
417.6212755032657
 21
541.7097349296566
 31
0.0
  0
LINE
  5
17E
330
4C
100
AcDbEntity
  8
1
  6
Continuous
 62
     7
100
AcDbLine
 10
458.448720115709
 20
543.520895169235
 30
0.0
 11
417.6212755032657
 21
538.0973544151822
 31
0.0
  0
LINE
  5
17F
330
4C
100
AcDbEntity
  8
1
  6
Continuous
 62
     7
100
AcDbLine
 10
457.8487576673269
 20
542.916150407
 30
0.0
 11
457.8487576673269
 21
539.8153444862766
 31
0.0
  0
LINE
  5
180
330
4C
100
AcDbEntity
  8
1
  6
Continuous
 62
     7
100
AcDbLine
 10
457.8487576673269
 20
539.8153444862766
 30
0.0
 11
457.5487764431346
 21
539.4623665791443
 31
0.0
  0
LINE
  5
181
330
4C
100
AcDbEntity
  8
1
  6
Continuous
 62
     7
100
AcDbLine
 10
457.5487764431346
 20
539.4623665791443
 30
0.0
 11
457.5487764431346
 21
537.0155197271572
 31
0.0
  0
LINE
  5
182
330
4C
100
AcDbEntity
  8
1
  6
Continuous
 62
     7
100
AcDbLine
 10
457.5487764431346
 20
539.4623665791443
 30
0.0
 11
457.5487764431346
 21
537.0155197271572
 31
0.0
  0
LINE
  5
183
330
4C
100
AcDbEntity
  8
1
  6
Continuous
 62
     7
100
AcDbLine
 10
418.4512235568627
 20
534.048705419904
 30
0.0
 11
418.4512235568627
 21
531.6018585679187
 31
0.0
  0
LINE
  5
184
330
4C
100
AcDbEntity
  8
1
  6
Continuous
 62
     7
100
AcDbLine
 10
418.4512235568627
 20
534.048705419904
 30
0.0
 11
418.4512235568627
 21
531.6018585679187
 31
0.0
  0
LINE
  5
185
330
4C
100
AcDbEntity
  8
1
  6
Continuous
 62
     7
100
AcDbLine
 10
418.1512423326703
 20
534.4016833270373
 30
0.0
 11
418.4512235568627
 21
534.048705419904
 31
0.0
  0
LINE
  5
186
330
4C
100
AcDbEntity
  8
1
  6
Continuous
 62
     7
100
AcDbLine
 10
418.1512423326703
 20
537.5024892477606
 30
0.0
 11
418.1512423326703
 21
534.4016833270373
 31
0.0
  0
LINE
  5
187
330
4C
100
AcDbEntity
  8
1
  6
Continuous
 62
     7
100
AcDbLine
 10
418.1512423326703
 20
548.5075830527087
 30
0.0
 11
418.1512423326703
 21
545.4067771319853
 31
0.0
  0
LINE
  5
188
330
4C
100
AcDbEntity
  8
1
  6
Continuous
 62
     7
100
AcDbLine
 10
418.1512423326703
 20
545.4067771319853
 30
0.0
 11
418.4512235568627
 21
545.0537992248521
 31
0.0
  0
LINE
  5
189
330
4C
100
AcDbEntity
  8
1
  6
Continuous
 62
     7
100
AcDbLine
 10
418.4512235568627
 20
545.0537992248521
 30
0.0
 11
418.4512235568627
 21
542.6069523728668
 31
0.0
  0
LINE
  5
18A
330
4C
100
AcDbEntity
  8
1
  6
Continuous
 62
     7
100
AcDbLine
 10
418.4512235568627
 20
545.0537992248521
 30
0.0
 11
418.4512235568627
 21
542.6069523728668
 31
0.0
  0
LINE
  5
18B
330
4C
100
AcDbEntity
  8
1
  6
Continuous
 62
     7
100
AcDbLine
 10
457.5487764431346
 20
550.4674603840924
 30
0.0
 11
457.5487764431346
 21
548.0206135321052
 31
0.0
  0
LINE
  5
18C
330
4C
100
AcDbEntity
  8
1
  6
Continuous
 62
     7
100
AcDbLine
 10
457.5487764431346
 20
550.4674603840924
 30
0.0
 11
457.5487764431346
 21
548.0206135321052
 31
0.0
  0
LINE
  5
18D
330
4C
100
AcDbEntity
  8
1
  6
Continuous
 62
     7
100
AcDbLine
 10
457.8487576673269
 20
550.8204382912247
 30
0.0
 11
457.5487764431346
 21
550.4674603840924
 31
0.0
  0
LINE
  5
18E
330
4C
100
AcDbEntity
  8
1
  6
Continuous
 62
     7
100
AcDbLine
 10
457.8487576673269
 20
553.9212442119481
 30
0.0
 11
457.8487576673269
 21
550.8204382912247
 31
0.0
  0
LINE
  5
18F
330
4C
100
AcDbEntity
  8
1
  6
Continuous
 62
     7
100
AcDbLine
 10
458.448720115709
 20
554.5259889741831
 30
0.0
 11
417.6212755032657
 21
549.1024482201303
 31
0.0
  0
LINE
  5
190
330
4C
100
AcDbEntity
  8
1
  6
Continuous
 62
     7
100
AcDbLine
 10
458.448720115709
 20
558.1257636644798
 30
0.0
 11
417.6212755032657
 21
552.7148287346047
 31
0.0
  0
LINE
  5
191
330
4C
100
AcDbEntity
  8
1
  6
Continuous
 62
     7
100
AcDbLine
 10
459.7486387538711
 20
556.8258450263158
 30
0.0
 11
459.7486387538711
 21
555.8259076123452
 31
0.0
  0
LINE
  5
192
330
4C
100
AcDbEntity
  8
1
  6
Continuous
 62
     7
100
AcDbLine
 10
416.2513612461253
 20
551.4064016158111
 30
0.0
 11
416.2513612461253
 21
550.4064642018386
 31
0.0
  0
LINE
  5
193
330
4C
100
AcDbEntity
  8
1
  6
Continuous
 62
     7
100
AcDbLine
 10
418.1512423326703
 20
559.5126768576567
 30
0.0
 11
418.1512423326703
 21
556.4118709369335
 31
0.0
  0
LINE
  5
194
330
4C
100
AcDbEntity
  8
1
  6
Continuous
 62
     7
100
AcDbLine
 10
418.1512423326703
 20
556.4118709369335
 30
0.0
 11
418.4512235568627
 21
556.0588930298002
 31
0.0
  0
LINE
  5
195
330
4C
100
AcDbEntity
  8
1
  6
Continuous
 62
     7
100
AcDbLine
 10
418.4512235568627
 20
556.0588930298002
 30
0.0
 11
418.4512235568627
 21
553.6120461778148
 31
0.0
  0
LINE
  5
196
330
4C
100
AcDbEntity
  8
1
  6
Continuous
 62
     7
100
AcDbLine
 10
418.4512235568627
 20
556.0588930298002
 30
0.0
 11
418.4512235568627
 21
553.6120461778148
 31
0.0
  0
LINE
  5
197
330
4C
100
AcDbEntity
  8
1
  6
Continuous
 62
     7
100
AcDbLine
 10
457.5487764431346
 20
561.4725541890405
 30
0.0
 11
457.5487764431346
 21
559.0257073370534
 31
0.0
  0
LINE
  5
198
330
4C
100
AcDbEntity
  8
1
  6
Continuous
 62
     7
100
AcDbLine
 10
457.5487764431346
 20
561.4725541890405
 30
0.0
 11
457.5487764431346
 21
559.0257073370534
 31
0.0
  0
LINE
  5
199
330
4C
100
AcDbEntity
  8
1
  6
Continuous
 62
     7
100
AcDbLine
 10
457.8487576673269
 20
561.8255320961728
 30
0.0
 11
457.5487764431346
 21
561.4725541890405
 31
0.0
  0
LINE
  5
19A
330
4C
100
AcDbEntity
  8
1
  6
Continuous
 62
     7
100
AcDbLine
 10
457.8487576673269
 20
564.9263380168961
 30
0.0
 11
457.8487576673269
 21
561.8255320961728
 31
0.0
  0
LINE
  5
19B
330
4C
100
AcDbEntity
  8
1
  6
Continuous
 62
     7
100
AcDbLine
 10
458.448720115709
 20
565.5310827791311
 30
0.0
 11
417.6212755032657
 21
560.1075420250784
 31
0.0
  0
LINE
  5
19C
330
4C
100
AcDbEntity
  8
1
  6
Continuous
 62
     7
100
AcDbLine
 10
458.448720115709
 20
569.1308574694278
 30
0.0
 11
417.6212755032657
 21
563.7199225395527
 31
0.0
  0
LINE
  5
19D
330
4C
100
AcDbEntity
  8
1
  6
Continuous
 62
     7
100
AcDbLine
 10
459.7486387538711
 20
567.830938831264
 30
0.0
 11
459.7486387538711
 21
566.8310014172932
 31
0.0
  0
LINE
  5
19E
330
4C
100
AcDbEntity
  8
1
  6
Continuous
 62
     7
100
AcDbLine
 10
416.2513612461253
 20
562.4114954207591
 30
0.0
 11
416.2513612461253
 21
561.4115580067867
 31
0.0
  0
LINE
  5
19F
330
4C
100
AcDbEntity
  8
1
  6
Continuous
 62
     7
100
AcDbLine
 10
418.1512423326703
 20
570.5177706626049
 30
0.0
 11
418.1512423326703
 21
567.4169647418817
 31
0.0
  0
LINE
  5
1A0
330
4C
100
AcDbEntity
  8
1
  6
Continuous
 62
     7
100
AcDbLine
 10
418.1512423326703
 20
567.4169647418817
 30
0.0
 11
418.4512235568627
 21
567.0639868347484
 31
0.0
  0
LINE
  5
1A1
330
4C
100
AcDbEntity
  8
1
  6
Continuous
 62
     7
100
AcDbLine
 10
418.4512235568627
 20
567.0639868347484
 30
0.0
 11
418.4512235568627
 21
564.617139982763
 31
0.0
  0
LINE
  5
1A2
330
4C
100
AcDbEntity
  8
1
  6
Continuous
 62
     7
100
AcDbLine
 10
418.4512235568627
 20
567.0639868347484
 30
0.0
 11
418.4512235568627
 21
564.617139982763
 31
0.0
  0
LINE
  5
1A3
330
4C
100
AcDbEntity
  8
1
  6
Continuous
 62
     7
100
AcDbLine
 10
457.5487764431346
 20
572.4776479939885
 30
0.0
 11
457.5487764431346
 21
570.0308011420016
 31
0.0
  0
LINE
  5
1A4
330
4C
100
AcDbEntity
  8
1
  6
Continuous
 62
     7
100
AcDbLine
 10
457.5487764431346
 20
572.4776479939885
 30
0.0
 11
457.5487764431346
 21
570.0308011420016
 31
0.0
  0
LINE
  5
1A5
330
4C
100
AcDbEntity
  8
1
  6
Continuous
 62
     7
100
AcDbLine
 10
457.8487576673269
 20
572.8306259011208
 30
0.0
 11
457.5487764431346
 21
572.4776479939885
 31
0.0
  0
LINE
  5
1A6
330
4C
100
AcDbEntity
  8
1
  6
Continuous
 62
     7
100
AcDbLine
 10
457.8487576673269
 20
575.9314318218443
 30
0.0
 11
457.8487576673269
 21
572.8306259011208
 31
0.0
  0
LINE
  5
1A7
330
4C
100
AcDbEntity
  8
1
  6
Continuous
 62
     7
100
AcDbLine
 10
458.448720115709
 20
576.5361765840793
 30
0.0
 11
417.6212755032657
 21
571.1126358300266
 31
0.0
  0
LINE
  5
1A8
330
4C
100
AcDbEntity
  8
1
  6
Continuous
 62
     7
100
AcDbLine
 10
458.448720115709
 20
580.135951274376
 30
0.0
 11
417.6212755032657
 21
574.7250163445009
 31
0.0
  0
LINE
  5
1A9
330
4C
100
AcDbEntity
  8
1
  6
Continuous
 62
     7
100
AcDbLine
 10
459.7486387538711
 20
578.836032636212
 30
0.0
 11
459.7486387538711
 21
577.8360952222414
 31
0.0
  0
LINE
  5
1AA
330
4C
100
AcDbEntity
  8
1
  6
Continuous
 62
     7
100
AcDbLine
 10
416.2513612461253
 20
573.4165892257073
 30
0.0
 11
416.2513612461253
 21
572.4166518117347
 31
0.0
  0
LINE
  5
1AB
330
4C
100
AcDbEntity
  8
1
  6
Continuous
 62
     7
100
AcDbLine
 10
418.1512423326703
 20
581.522864467553
 30
0.0
 11
418.1512423326703
 21
578.4220585468296
 31
0.0
  0
LINE
  5
1AC
330
4C
100
AcDbEntity
  8
1
  6
Continuous
 62
     7
100
AcDbLine
 10
418.1512423326703
 20
578.4220585468296
 30
0.0
 11
418.4512235568627
 21
578.0690806396964
 31
0.0
  0
LINE
  5
1AD
330
4C
100
AcDbEntity
  8
1
  6
Continuous
 62
     7
100
AcDbLine
 10
418.4512235568627
 20
578.0690806396964
 30
0.0
 11
418.4512235568627
 21
575.622233787711
 31
0.0
  0
LINE
  5
1AE
330
4C
100
AcDbEntity
  8
1
  6
Continuous
 62
     7
100
AcDbLine
 10
418.4512235568627
 20
578.0690806396964
 30
0.0
 11
418.4512235568627
 21
575.622233787711
 31
0.0
  0
LINE
  5
1AF
330
4C
100
AcDbEntity
  8
1
  6
Continuous
 62
     7
100
AcDbLine
 10
457.5487764431346
 20
583.4827417989367
 30
0.0
 11
457.5487764431346
 21
581.0358949469495
 31
0.0
  0
LINE
  5
1B0
330
4C
100
AcDbEntity
  8
1
  6
Continuous
 62
     7
100
AcDbLine
 10
457.5487764431346
 20
583.4827417989367
 30
0.0
 11
457.5487764431346
 21
581.0358949469495
 31
0.0
  0
LINE
  5
1B1
330
4C
100
AcDbEntity
  8
1
  6
Continuous
 62
     7
100
AcDbLine
 10
457.8487576673269
 20
583.835719706069
 30
0.0
 11
457.5487764431346
 21
583.4827417989367
 31
0.0
  0
LINE
  5
1B2
330
4C
100
AcDbEntity
  8
1
  6
Continuous
 62
     7
100
AcDbLine
 10
457.8487576673269
 20
586.9365256267923
 30
0.0
 11
457.8487576673269
 21
583.835719706069
 31
0.0
  0
LINE
  5
1B3
330
4C
100
AcDbEntity
  8
1
  6
Continuous
 62
     7
100
AcDbLine
 10
458.448720115709
 20
587.5412703890273
 30
0.0
 11
417.6212755032657
 21
582.1177296349746
 31
0.0
  0
LINE
  5
1B4
330
4C
100
AcDbEntity
  8
1
  6
Continuous
 62
     7
100
AcDbLine
 10
458.448720115709
 20
591.141045079324
 30
0.0
 11
417.6212755032657
 21
585.7301101494489
 31
0.0
  0
LINE
  5
1B5
330
4C
100
AcDbEntity
  8
1
  6
Continuous
 62
     7
100
AcDbLine
 10
459.7486387538711
 20
589.8411264411601
 30
0.0
 11
459.7486387538711
 21
588.8411890271894
 31
0.0
  0
LINE
  5
1B6
330
4C
100
AcDbEntity
  8
1
  6
Continuous
 62
     7
100
AcDbLine
 10
416.2513612461253
 20
584.4216830306553
 30
0.0
 11
416.2513612461253
 21
583.4217456166829
 31
0.0
  0
LINE
  5
1B7
330
4C
100
AcDbEntity
  8
1
  6
Continuous
 62
     7
100
AcDbLine
 10
418.1512423326703
 20
592.5279582725011
 30
0.0
 11
418.1512423326703
 21
589.4271523517777
 31
0.0
  0
LINE
  5
1B8
330
4C
100
AcDbEntity
  8
1
  6
Continuous
 62
     7
100
AcDbLine
 10
418.1512423326703
 20
589.4271523517777
 30
0.0
 11
418.4512235568627
 21
589.0741744446445
 31
0.0
  0
LINE
  5
1B9
330
4C
100
AcDbEntity
  8
1
  6
Continuous
 62
     7
100
AcDbLine
 10
418.4512235568627
 20
589.0741744446445
 30
0.0
 11
418.4512235568627
 21
586.6273275926592
 31
0.0
  0
LINE
  5
1BA
330
4C
100
AcDbEntity
  8
1
  6
Continuous
 62
     7
100
AcDbLine
 10
418.4512235568627
 20
589.0741744446445
 30
0.0
 11
418.4512235568627
 21
586.6273275926592
 31
0.0
  0
LINE
  5
1BB
330
4C
100
AcDbEntity
  8
1
  6
Continuous
 62
     7
100
AcDbLine
 10
457.5487764431346
 20
594.4878356038848
 30
0.0
 11
457.5487764431346
 21
592.0409887518977
 31
0.0
  0
LINE
  5
1BC
330
4C
100
AcDbEntity
  8
1
  6
Continuous
 62
     7
100
AcDbLine
 10
457.5487764431346
 20
594.4878356038848
 30
0.0
 11
457.5487764431346
 21
592.0409887518977
 31
0.0
  0
LINE
  5
1BD
330
4C
100
AcDbEntity
  8
1
  6
Continuous
 62
     7
100
AcDbLine
 10
457.8487576673269
 20
594.8408135110171
 30
0.0
 11
457.5487764431346
 21
594.4878356038848
 31
0.0
  0
LINE
  5
1BE
330
4C
100
AcDbEntity
  8
1
  6
Continuous
 62
     7
100
AcDbLine
 10
457.8487576673269
 20
597.9416194317405
 30
0.0
 11
457.8487576673269
 21
594.8408135110171
 31
0.0
  0
LINE
  5
1BF
330
4C
100
AcDbEntity
  8
1
  6
Continuous
 62
     7
100
AcDbLine
 10
458.448720115709
 20
598.5463641939755
 30
0.0
 11
417.6212755032657
 21
593.1228234399227
 31
0.0
  0
LINE
  5
1C0
330
4C
100
AcDbEntity
  8
1
  6
Continuous
 62
     7
100
AcDbLine
 10
458.448720115709
 20
602.1461388842722
 30
0.0
 11
417.6212755032657
 21
596.7352039543971
 31
0.0
  0
LINE
  5
1C1
330
4C
100
AcDbEntity
  8
1
  6
Continuous
 62
     7
100
AcDbLine
 10
459.7486387538711
 20
600.8462202461083
 30
0.0
 11
459.7486387538711
 21
599.8462828321376
 31
0.0
  0
LINE
  5
1C2
330
4C
100
AcDbEntity
  8
1
  6
Continuous
 62
     7
100
AcDbLine
 10
416.2513612461253
 20
595.4267768356035
 30
0.0
 11
416.2513612461253
 21
594.426839421631
 31
0.0
  0
LINE
  5
1C3
330
4C
100
AcDbEntity
  8
1
  6
Continuous
 62
     7
100
AcDbLine
 10
418.1512423326703
 20
603.5330520774493
 30
0.0
 11
418.1512423326703
 21
600.4322461567259
 31
0.0
  0
LINE
  5
1C4
330
4C
100
AcDbEntity
  8
1
  6
Continuous
 62
     7
100
AcDbLine
 10
418.1512423326703
 20
600.4322461567259
 30
0.0
 11
418.4512235568627
 21
600.0792682495927
 31
0.0
  0
LINE
  5
1C5
330
4C
100
AcDbEntity
  8
1
  6
Continuous
 62
     7
100
AcDbLine
 10
418.4512235568627
 20
600.0792682495927
 30
0.0
 11
418.4512235568627
 21
597.6324213976073
 31
0.0
  0
LINE
  5
1C6
330
4C
100
AcDbEntity
  8
1
  6
Continuous
 62
     7
100
AcDbLine
 10
418.4512235568627
 20
600.0792682495927
 30
0.0
 11
418.4512235568627
 21
597.6324213976073
 31
0.0
  0
LINE
  5
1C7
330
4C
100
AcDbEntity
  8
1
  6
Continuous
 62
     7
100
AcDbLine
 10
457.5487764431346
 20
605.492929408833
 30
0.0
 11
457.5487764431346
 21
603.0460825568458
 31
0.0
  0
LINE
  5
1C8
330
4C
100
AcDbEntity
  8
1
  6
Continuous
 62
     7
100
AcDbLine
 10
457.5487764431346
 20
605.492929408833
 30
0.0
 11
457.5487764431346
 21
603.0460825568458
 31
0.0
  0
LINE
  5
1C9
330
4C
100
AcDbEntity
  8
1
  6
Continuous
 62
     7
100
AcDbLine
 10
457.8487576673269
 20
605.8459073159653
 30
0.0
 11
457.5487764431346
 21
605.492929408833
 31
0.0
  0
LINE
  5
1CA
330
4C
100
AcDbEntity
  8
1
  6
Continuous
 62
     7
100
AcDbLine
 10
457.8487576673269
 20
608.9467132366887
 30
0.0
 11
457.8487576673269
 21
605.8459073159653
 31
0.0
  0
LINE
  5
1CB
330
4C
100
AcDbEntity
  8
1
  6
Continuous
 62
     7
100
AcDbLine
 10
458.448720115709
 20
609.5514579989236
 30
0.0
 11
417.6212755032657
 21
604.1279172448709
 31
0.0
  0
LINE
  5
1CC
330
4C
100
AcDbEntity
  8
1
  6
Continuous
 62
     7
100
AcDbLine
 10
458.448720115709
 20
613.1512326892204
 30
0.0
 11
417.6212755032657
 21
607.7402977593453
 31
0.0
  0
LINE
  5
1CD
330
4C
100
AcDbEntity
  8
1
  6
Continuous
 62
     7
100
AcDbLine
 10
459.7486387538711
 20
611.8513140510564
 30
0.0
 11
459.7486387538711
 21
610.8513766370858
 31
0.0
  0
LINE
  5
1CE
330
4C
100
AcDbEntity
  8
1
  6
Continuous
 62
     7
100
AcDbLine
 10
416.2513612461253
 20
606.4318706405517
 30
0.0
 11
416.2513612461253
 21
605.4319332265792
 31
0.0
  0
LINE
  5
1CF
330
4C
100
AcDbEntity
  8
1
  6
Continuous
 62
     7
100
AcDbLine
 10
418.1512423326703
 20
614.5381458823973
 30
0.0
 11
418.1512423326703
 21
611.437339961674
 31
0.0
  0
LINE
  5
1D0
330
4C
100
AcDbEntity
  8
1
  6
Continuous
 62
     7
100
AcDbLine
 10
418.1512423326703
 20
611.437339961674
 30
0.0
 11
418.4512235568627
 21
611.0843620545407
 31
0.0
  0
LINE
  5
1D1
330
4C
100
AcDbEntity
  8
1
  6
Continuous
 62
     7
100
AcDbLine
 10
418.4512235568627
 20
611.0843620545407
 30
0.0
 11
418.4512235568627
 21
608.6375152025554
 31
0.0
  0
LINE
  5
1D2
330
4C
100
AcDbEntity
  8
1
  6
Continuous
 62
     7
100
AcDbLine
 10
418.4512235568627
 20
611.0843620545407
 30
0.0
 11
418.4512235568627
 21
608.6375152025554
 31
0.0
  0
LINE
  5
1D3
330
4C
100
AcDbEntity
  8
1
  6
Continuous
 62
     7
100
AcDbLine
 10
457.5487764431346
 20
616.498023213781
 30
0.0
 11
457.5487764431346
 21
614.0511763617939
 31
0.0
  0
LINE
  5
1D4
330
4C
100
AcDbEntity
  8
1
  6
Continuous
 62
     7
100
AcDbLine
 10
457.5487764431346
 20
616.498023213781
 30
0.0
 11
457.5487764431346
 21
614.0511763617939
 31
0.0
  0
LINE
  5
1D5
330
4C
100
AcDbEntity
  8
1
  6
Continuous
 62
     7
100
AcDbLine
 10
457.8487576673269
 20
616.8510011209133
 30
0.0
 11
457.5487764431346
 21
616.498023213781
 31
0.0
  0
LINE
  5
1D6
330
4C
100
AcDbEntity
  8
1
  6
Continuous
 62
     7
100
AcDbLine
 10
457.8487576673269
 20
619.9518070416367
 30
0.0
 11
457.8487576673269
 21
616.8510011209133
 31
0.0
  0
LINE
  5
1D7
330
4C
100
AcDbEntity
  8
1
  6
Continuous
 62
     7
100
AcDbLine
 10
458.448720115709
 20
620.5565518038717
 30
0.0
 11
417.6212755032657
 21
615.133011049819
 31
0.0
  0
LINE
  5
1D8
330
4C
100
AcDbEntity
  8
1
  6
Continuous
 62
     7
100
AcDbLine
 10
458.448720115709
 20
624.1563264941684
 30
0.0
 11
417.6212755032657
 21
618.7453915642933
 31
0.0
  0
LINE
  5
1D9
330
4C
100
AcDbEntity
  8
1
  6
Continuous
 62
     7
100
AcDbLine
 10
459.7486387538711
 20
622.8564078560045
 30
0.0
 11
459.7486387538711
 21
621.8564704420338
 31
0.0
  0
LINE
  5
1DA
330
4C
100
AcDbEntity
  8
1
  6
Continuous
 62
     7
100
AcDbLine
 10
416.2513612461253
 20
617.4369644454997
 30
0.0
 11
416.2513612461253
 21
616.4370270315272
 31
0.0
  0
LINE
  5
1DB
330
4C
100
AcDbEntity
  8
1
  6
Continuous
 62
     7
100
AcDbLine
 10
418.1512423326703
 20
625.5432396873454
 30
0.0
 11
418.1512423326703
 21
622.442433766622
 31
0.0
  0
LINE
  5
1DC
330
4C
100
AcDbEntity
  8
1
  6
Continuous
 62
     7
100
AcDbLine
 10
418.1512423326703
 20
622.442433766622
 30
0.0
 11
418.4512235568627
 21
622.0894558594888
 31
0.0
  0
LINE
  5
1DD
330
4C
100
AcDbEntity
  8
1
  6
Continuous
 62
     7
100
AcDbLine
 10
418.4512235568627
 20
622.0894558594888
 30
0.0
 11
418.4512235568627
 21
619.6426090075034
 31
0.0
  0
LINE
  5
1DE
330
4C
100
AcDbEntity
  8
1
  6
Continuous
 62
     7
100
AcDbLine
 10
418.4512235568627
 20
622.0894558594888
 30
0.0
 11
418.4512235568627
 21
619.6426090075034
 31
0.0
  0
LINE
  5
1DF
330
4C
100
AcDbEntity
  8
1
  6
Continuous
 62
     7
100
AcDbLine
 10
457.5487764431346
 20
627.5031170187291
 30
0.0
 11
457.5487764431346
 21
625.0562701667419
 31
0.0
  0
LINE
  5
1E0
330
4C
100
AcDbEntity
  8
1
  6
Continuous
 62
     7
100
AcDbLine
 10
457.5487764431346
 20
627.5031170187291
 30
0.0
 11
457.5487764431346
 21
625.0562701667419
 31
0.0
  0
LINE
  5
1E1
330
4C
100
AcDbEntity
  8
1
  6
Continuous
 62
     7
100
AcDbLine
 10
457.8487576673269
 20
627.8560949258614
 30
0.0
 11
457.5487764431346
 21
627.5031170187291
 31
0.0
  0
LINE
  5
1E2
330
4C
100
AcDbEntity
  8
1
  6
Continuous
 62
     7
100
AcDbLine
 10
457.8487576673269
 20
630.9569008465847
 30
0.0
 11
457.8487576673269
 21
627.8560949258614
 31
0.0
  0
LINE
  5
1E3
330
4C
100
AcDbEntity
  8
1
  6
Continuous
 62
     7
100
AcDbLine
 10
458.448720115709
 20
631.5616456088197
 30
0.0
 11
417.6212755032657
 21
626.138104854767
 31
0.0
  0
LINE
  5
1E4
330
4C
100
AcDbEntity
  8
1
  6
Continuous
 62
     7
100
AcDbLine
 10
458.448720115709
 20
635.1614202991165
 30
0.0
 11
417.6212755032657
 21
629.7504853692413
 31
0.0
  0
LINE
  5
1E5
330
4C
100
AcDbEntity
  8
1
  6
Continuous
 62
     7
100
AcDbLine
 10
459.7486387538711
 20
633.8615016609525
 30
0.0
 11
459.7486387538711
 21
632.8615642469819
 31
0.0
  0
LINE
  5
1E6
330
4C
100
AcDbEntity
  8
1
  6
Continuous
 62
     7
100
AcDbLine
 10
416.2513612461253
 20
628.4420582504478
 30
0.0
 11
416.2513612461253
 21
627.4421208364753
 31
0.0
  0
LINE
  5
1E7
330
4C
100
AcDbEntity
  8
1
  6
Continuous
 62
     7
100
AcDbLine
 10
418.1512423326703
 20
636.5483334922935
 30
0.0
 11
418.1512423326703
 21
633.4475275715702
 31
0.0
  0
LINE
  5
1E8
330
4C
100
AcDbEntity
  8
1
  6
Continuous
 62
     7
100
AcDbLine
 10
418.1512423326703
 20
633.4475275715702
 30
0.0
 11
418.4512235568627
 21
633.094549664437
 31
0.0
  0
LINE
  5
1E9
330
4C
100
AcDbEntity
  8
1
  6
Continuous
 62
     7
100
AcDbLine
 10
418.4512235568627
 20
633.094549664437
 30
0.0
 11
418.4512235568627
 21
630.6477028124516
 31
0.0
  0
LINE
  5
1EA
330
4C
100
AcDbEntity
  8
1
  6
Continuous
 62
     7
100
AcDbLine
 10
418.4512235568627
 20
633.094549664437
 30
0.0
 11
418.4512235568627
 21
630.6477028124516
 31
0.0
  0
LINE
  5
1EB
330
4C
100
AcDbEntity
  8
1
  6
Continuous
 62
     7
100
AcDbLine
 10
457.5487764431346
 20
638.5082108236772
 30
0.0
 11
457.5487764431346
 21
636.0613639716901
 31
0.0
  0
LINE
  5
1EC
330
4C
100
AcDbEntity
  8
1
  6
Continuous
 62
     7
100
AcDbLine
 10
457.5487764431346
 20
638.5082108236772
 30
0.0
 11
457.5487764431346
 21
636.0613639716901
 31
0.0
  0
LINE
  5
1ED
330
4C
100
AcDbEntity
  8
1
  6
Continuous
 62
     7
100
AcDbLine
 10
457.8487576673269
 20
638.8611887308095
 30
0.0
 11
457.5487764431346
 21
638.5082108236772
 31
0.0
  0
LINE
  5
1EE
330
4C
100
AcDbEntity
  8
1
  6
Continuous
 62
     7
100
AcDbLine
 10
457.8487576673269
 20
641.9619946515329
 30
0.0
 11
457.8487576673269
 21
638.8611887308095
 31
0.0
  0
LINE
  5
1EF
330
4C
100
AcDbEntity
  8
1
  6
Continuous
 62
     7
100
AcDbLine
 10
458.448720115709
 20
642.5667394137679
 30
0.0
 11
417.6212755032657
 21
637.1431986597152
 31
0.0
  0
LINE
  5
1F0
330
4C
100
AcDbEntity
  8
1
  6
Continuous
 62
     7
100
AcDbLine
 10
458.448720115709
 20
646.1665141040646
 30
0.0
 11
417.6212755032657
 21
640.7555791741895
 31
0.0
  0
LINE
  5
1F1
330
4C
100
AcDbEntity
  8
1
  6
Continuous
 62
     7
100
AcDbLine
 10
459.7486387538711
 20
644.8665954659007
 30
0.0
 11
459.7486387538711
 21
643.86665805193
 31
0.0
  0
LINE
  5
1F2
330
4C
100
AcDbEntity
  8
1
  6
Continuous
 62
     7
100
AcDbLine
 10
416.2513612461253
 20
639.4471520553959
 30
0.0
 11
416.2513612461253
 21
638.4472146414234
 31
0.0
  0
LINE
  5
1F3
330
4C
100
AcDbEntity
  8
1
  6
Continuous
 62
     7
100
AcDbLine
 10
418.1512423326703
 20
647.5534272972417
 30
0.0
 11
418.1512423326703
 21
644.4526213765183
 31
0.0
  0
LINE
  5
1F4
330
4C
100
AcDbEntity
  8
1
  6
Continuous
 62
     7
100
AcDbLine
 10
418.1512423326703
 20
644.4526213765183
 30
0.0
 11
418.4512235568627
 21
644.0996434693851
 31
0.0
  0
LINE
  5
1F5
330
4C
100
AcDbEntity
  8
1
  6
Continuous
 62
     7
100
AcDbLine
 10
418.4512235568627
 20
644.0996434693851
 30
0.0
 11
418.4512235568627
 21
641.6527966173998
 31
0.0
  0
LINE
  5
1F6
330
4C
100
AcDbEntity
  8
1
  6
Continuous
 62
     7
100
AcDbLine
 10
418.4512235568627
 20
644.0996434693851
 30
0.0
 11
418.4512235568627
 21
641.6527966173998
 31
0.0
  0
LINE
  5
1F7
330
4C
100
AcDbEntity
  8
1
  6
Continuous
 62
     7
100
AcDbLine
 10
457.5487764431346
 20
649.5133046286254
 30
0.0
 11
457.5487764431346
 21
647.0664577766382
 31
0.0
  0
LINE
  5
1F8
330
4C
100
AcDbEntity
  8
1
  6
Continuous
 62
     7
100
AcDbLine
 10
457.5487764431346
 20
649.5133046286254
 30
0.0
 11
457.5487764431346
 21
647.0664577766382
 31
0.0
  0
LINE
  5
1F9
330
4C
100
AcDbEntity
  8
1
  6
Continuous
 62
     7
100
AcDbLine
 10
457.8487576673269
 20
649.8662825357577
 30
0.0
 11
457.5487764431346
 21
649.5133046286254
 31
0.0
  0
LINE
  5
1FA
330
4C
100
AcDbEntity
  8
1
  6
Continuous
 62
     7
100
AcDbLine
 10
457.8487576673269
 20
652.9670884564811
 30
0.0
 11
457.8487576673269
 21
649.8662825357577
 31
0.0
  0
LINE
  5
1FB
330
4C
100
AcDbEntity
  8
1
  6
Continuous
 62
     7
100
AcDbLine
 10
458.448720115709
 20
653.571833218716
 30
0.0
 11
417.6212755032657
 21
648.1482924646633
 31
0.0
  0
LINE
  5
1FC
330
4C
100
AcDbEntity
  8
1
  6
Continuous
 62
     7
100
AcDbLine
 10
458.448720115709
 20
657.1716079090128
 30
0.0
 11
417.6212755032657
 21
651.7606729791377
 31
0.0
  0
LINE
  5
1FD
330
4C
100
AcDbEntity
  8
1
  6
Continuous
 62
     7
100
AcDbLine
 10
459.7486387538711
 20
655.8716892708488
 30
0.0
 11
459.7486387538711
 21
654.8717518568782
 31
0.0
  0
LINE
  5
1FE
330
4C
100
AcDbEntity
  8
1
  6
Continuous
 62
     7
100
AcDbLine
 10
416.2513612461253
 20
650.4522458603441
 30
0.0
 11
416.2513612461253
 21
649.4523084463716
 31
0.0
  0
LINE
  5
1FF
330
4C
100
AcDbEntity
  8
1
  6
Continuous
 62
     7
100
AcDbLine
 10
418.1512423326703
 20
658.5585211021897
 30
0.0
 11
418.1512423326703
 21
655.4577151814664
 31
0.0
  0
LINE
  5
200
330
4C
100
AcDbEntity
  8
1
  6
Continuous
 62
     7
100
AcDbLine
 10
418.1512423326703
 20
655.4577151814664
 30
0.0
 11
418.4512235568627
 21
655.1047372743332
 31
0.0
  0
LINE
  5
201
330
4C
100
AcDbEntity
  8
1
  6
Continuous
 62
     7
100
AcDbLine
 10
418.4512235568627
 20
655.1047372743332
 30
0.0
 11
418.4512235568627
 21
652.6578904223478
 31
0.0
  0
LINE
  5
202
330
4C
100
AcDbEntity
  8
1
  6
Continuous
 62
     7
100
AcDbLine
 10
418.4512235568627
 20
655.1047372743332
 30
0.0
 11
418.4512235568627
 21
652.6578904223478
 31
0.0
  0
LINE
  5
203
330
4C
100
AcDbEntity
  8
1
  6
Continuous
 62
     7
100
AcDbLine
 10
457.5487764431346
 20
660.5183984335735
 30
0.0
 11
457.5487764431346
 21
658.0715515815863
 31
0.0
  0
LINE
  5
204
330
4C
100
AcDbEntity
  8
1
  6
Continuous
 62
     7
100
AcDbLine
 10
457.5487764431346
 20
660.5183984335735
 30
0.0
 11
457.5487764431346
 21
658.0715515815863
 31
0.0
  0
LINE
  5
205
330
4C
100
AcDbEntity
  8
1
  6
Continuous
 62
     7
100
AcDbLine
 10
457.8487576673269
 20
660.8713763407058
 30
0.0
 11
457.5487764431346
 21
660.5183984335735
 31
0.0
  0
LINE
  5
206
330
4C
100
AcDbEntity
  8
1
  6
Continuous
 62
     7
100
AcDbLine
 10
457.8487576673269
 20
663.9721822614291
 30
0.0
 11
457.8487576673269
 21
660.8713763407058
 31
0.0
  0
LINE
  5
207
330
4C
100
AcDbEntity
  8
1
  6
Continuous
 62
     7
100
AcDbLine
 10
458.448720115709
 20
664.5769270236641
 30
0.0
 11
417.6212755032657
 21
659.1533862696114
 31
0.0
  0
LINE
  5
208
330
4C
100
AcDbEntity
  8
1
  6
Continuous
 62
     7
100
AcDbLine
 10
458.448720115709
 20
668.1767017139608
 30
0.0
 11
417.6212755032657
 21
662.7657667840857
 31
0.0
  0
LINE
  5
209
330
4C
100
AcDbEntity
  8
1
  6
Continuous
 62
     7
100
AcDbLine
 10
459.7486387538711
 20
666.8767830757969
 30
0.0
 11
459.7486387538711
 21
665.8768456618262
 31
0.0
  0
LINE
  5
20A
330
4C
100
AcDbEntity
  8
1
  6
Continuous
 62
     7
100
AcDbLine
 10
416.2513612461253
 20
661.4573396652921
 30
0.0
 11
416.2513612461253
 21
660.4574022513196
 31
0.0
  0
LINE
  5
20B
330
4C
100
AcDbEntity
  8
1
  6
Continuous
 62
     7
100
AcDbLine
 10
418.1512423326703
 20
669.5636149071378
 30
0.0
 11
418.1512423326703
 21
666.4628089864144
 31
0.0
  0
LINE
  5
20C
330
4C
100
AcDbEntity
  8
1
  6
Continuous
 62
     7
100
AcDbLine
 10
418.1512423326703
 20
666.4628089864144
 30
0.0
 11
418.4512235568627
 21
666.1098310792812
 31
0.0
  0
LINE
  5
20D
330
4C
100
AcDbEntity
  8
1
  6
Continuous
 62
     7
100
AcDbLine
 10
418.4512235568627
 20
666.1098310792812
 30
0.0
 11
418.4512235568627
 21
663.6629842272959
 31
0.0
  0
LINE
  5
20E
330
4C
100
AcDbEntity
  8
1
  6
Continuous
 62
     7
100
AcDbLine
 10
418.4512235568627
 20
666.1098310792812
 30
0.0
 11
418.4512235568627
 21
663.6629842272959
 31
0.0
  0
LINE
  5
20F
330
4C
100
AcDbEntity
  8
1
  6
Continuous
 62
     7
100
AcDbLine
 10
457.5487764431346
 20
671.5234922385215
 30
0.0
 11
457.5487764431346
 21
669.0766453865343
 31
0.0
  0
LINE
  5
210
330
4C
100
AcDbEntity
  8
1
  6
Continuous
 62
     7
100
AcDbLine
 10
457.5487764431346
 20
671.5234922385215
 30
0.0
 11
457.5487764431346
 21
669.0766453865343
 31
0.0
  0
LINE
  5
211
330
4C
100
AcDbEntity
  8
1
  6
Continuous
 62
     7
100
AcDbLine
 10
457.8487576673269
 20
671.8764701456538
 30
0.0
 11
457.5487764431346
 21
671.5234922385215
 31
0.0
  0
LINE
  5
212
330
4C
100
AcDbEntity
  8
1
  6
Continuous
 62
     7
100
AcDbLine
 10
457.8487576673269
 20
674.9772760663772
 30
0.0
 11
457.8487576673269
 21
671.8764701456538
 31
0.0
  0
LINE
  5
213
330
4C
100
AcDbEntity
  8
1
  6
Continuous
 62
     7
100
AcDbLine
 10
458.448720115709
 20
675.5820208286121
 30
0.0
 11
417.6212755032657
 21
670.1584800745594
 31
0.0
  0
LINE
  5
214
330
4C
100
AcDbEntity
  8
1
  6
Continuous
 62
     7
100
AcDbLine
 10
458.448720115709
 20
679.1817955189089
 30
0.0
 11
417.6212755032657
 21
673.7708605890338
 31
0.0
  0
LINE
  5
215
330
4C
100
AcDbEntity
  8
1
  6
Continuous
 62
     7
100
AcDbLine
 10
459.7486387538711
 20
677.8818768807449
 30
0.0
 11
459.7486387538711
 21
676.8819394667743
 31
0.0
  0
LINE
  5
216
330
4C
100
AcDbEntity
  8
1
  6
Continuous
 62
     7
100
AcDbLine
 10
416.2513612461253
 20
672.4624334702402
 30
0.0
 11
416.2513612461253
 21
671.4624960562677
 31
0.0
  0
LINE
  5
217
330
4C
100
AcDbEntity
  8
1
  6
Continuous
 62
     7
100
AcDbLine
 10
418.1512423326703
 20
680.5687087120859
 30
0.0
 11
418.1512423326703
 21
677.4679027913626
 31
0.0
  0
LINE
  5
218
330
4C
100
AcDbEntity
  8
1
  6
Continuous
 62
     7
100
AcDbLine
 10
418.1512423326703
 20
677.4679027913626
 30
0.0
 11
418.4512235568627
 21
677.1149248842294
 31
0.0
  0
LINE
  5
219
330
4C
100
AcDbEntity
  8
1
  6
Continuous
 62
     7
100
AcDbLine
 10
418.4512235568627
 20
677.1149248842294
 30
0.0
 11
418.4512235568627
 21
674.668078032244
 31
0.0
  0
LINE
  5
21A
330
4C
100
AcDbEntity
  8
1
  6
Continuous
 62
     7
100
AcDbLine
 10
418.4512235568627
 20
677.1149248842294
 30
0.0
 11
418.4512235568627
 21
674.668078032244
 31
0.0
  0
LINE
  5
21B
330
4C
100
AcDbEntity
  8
1
  6
Continuous
 62
     7
100
AcDbLine
 10
457.5487764431346
 20
682.5285860434697
 30
0.0
 11
457.5487764431346
 21
680.0817391914825
 31
0.0
  0
LINE
  5
21C
330
4C
100
AcDbEntity
  8
1
  6
Continuous
 62
     7
100
AcDbLine
 10
457.5487764431346
 20
682.5285860434697
 30
0.0
 11
457.5487764431346
 21
680.0817391914825
 31
0.0
  0
LINE
  5
21D
330
4C
100
AcDbEntity
  8
1
  6
Continuous
 62
     7
100
AcDbLine
 10
457.8487576673269
 20
682.881563950602
 30
0.0
 11
457.5487764431346
 21
682.5285860434697
 31
0.0
  0
LINE
  5
21E
330
4C
100
AcDbEntity
  8
1
  6
Continuous
 62
     7
100
AcDbLine
 10
457.8487576673269
 20
685.9823698713253
 30
0.0
 11
457.8487576673269
 21
682.881563950602
 31
0.0
  0
LINE
  5
21F
330
4C
100
AcDbEntity
  8
1
  6
Continuous
 62
     7
100
AcDbLine
 10
458.448720115709
 20
686.5871146335603
 30
0.0
 11
417.6212755032657
 21
681.1635738795076
 31
0.0
  0
LINE
  5
220
330
4C
100
AcDbEntity
  8
1
  6
Continuous
 62
     7
100
AcDbLine
 10
458.448720115709
 20
690.186889323857
 30
0.0
 11
417.6212755032657
 21
684.7759543939819
 31
0.0
  0
LINE
  5
221
330
4C
100
AcDbEntity
  8
1
  6
Continuous
 62
     7
100
AcDbLine
 10
459.7486387538711
 20
688.8869706856931
 30
0.0
 11
459.7486387538711
 21
687.8870332717224
 31
0.0
  0
LINE
  5
222
330
4C
100
AcDbEntity
  8
1
  6
Continuous
 62
     7
100
AcDbLine
 10
416.2513612461253
 20
683.4675272751883
 30
0.0
 11
416.2513612461253
 21
682.4675898612159
 31
0.0
  0
LINE
  5
223
330
4C
100
AcDbEntity
  8
1
  6
Continuous
 62
     7
100
AcDbLine
 10
418.1512423326703
 20
691.5738025170341
 30
0.0
 11
418.1512423326703
 21
688.4729965963107
 31
0.0
  0
LINE
  5
224
330
4C
100
AcDbEntity
  8
1
  6
Continuous
 62
     7
100
AcDbLine
 10
418.1512423326703
 20
688.4729965963107
 30
0.0
 11
418.4512235568627
 21
688.1200186891775
 31
0.0
  0
LINE
  5
225
330
4C
100
AcDbEntity
  8
1
  6
Continuous
 62
     7
100
AcDbLine
 10
418.4512235568627
 20
688.1200186891775
 30
0.0
 11
418.4512235568627
 21
685.6731718371922
 31
0.0
  0
LINE
  5
226
330
4C
100
AcDbEntity
  8
1
  6
Continuous
 62
     7
100
AcDbLine
 10
418.4512235568627
 20
688.1200186891775
 30
0.0
 11
418.4512235568627
 21
685.6731718371922
 31
0.0
  0
LINE
  5
227
330
4C
100
AcDbEntity
  8
1
  6
Continuous
 62
     7
100
AcDbLine
 10
457.5487764431346
 20
693.5336798484178
 30
0.0
 11
457.5487764431346
 21
691.0868329964306
 31
0.0
  0
LINE
  5
228
330
4C
100
AcDbEntity
  8
1
  6
Continuous
 62
     7
100
AcDbLine
 10
457.5487764431346
 20
693.5336798484178
 30
0.0
 11
457.5487764431346
 21
691.0868329964306
 31
0.0
  0
LINE
  5
229
330
4C
100
AcDbEntity
  8
1
  6
Continuous
 62
     7
100
AcDbLine
 10
457.8487576673269
 20
693.8866577555501
 30
0.0
 11
457.5487764431346
 21
693.5336798484178
 31
0.0
  0
LINE
  5
22A
330
4C
100
AcDbEntity
  8
1
  6
Continuous
 62
     7
100
AcDbLine
 10
457.8487576673269
 20
696.9874636762735
 30
0.0
 11
457.8487576673269
 21
693.8866577555501
 31
0.0
  0
LINE
  5
22B
330
4C
100
AcDbEntity
  8
1
  6
Continuous
 62
     7
100
AcDbLine
 10
458.448720115709
 20
697.5922084385085
 30
0.0
 11
417.6212755032657
 21
692.1686676844557
 31
0.0
  0
LINE
  5
22C
330
4C
100
AcDbEntity
  8
1
  6
Continuous
 62
     7
100
AcDbLine
 10
458.448720115709
 20
701.1919831288052
 30
0.0
 11
417.6212755032657
 21
695.7810481989301
 31
0.0
  0
LINE
  5
22D
330
4C
100
AcDbEntity
  8
1
  6
Continuous
 62
     7
100
AcDbLine
 10
459.7486387538711
 20
699.8920644906412
 30
0.0
 11
459.7486387538711
 21
698.8921270766706
 31
0.0
  0
LINE
  5
22E
330
4C
100
AcDbEntity
  8
1
  6
Continuous
 62
     7
100
AcDbLine
 10
416.2513612461253
 20
694.4726210801365
 30
0.0
 11
416.2513612461253
 21
693.472683666164
 31
0.0
  0
LINE
  5
22F
330
4C
100
AcDbEntity
  8
1
  6
Continuous
 62
     7
100
AcDbLine
 10
418.1512423326703
 20
702.5788963219821
 30
0.0
 11
418.1512423326703
 21
699.4780904012588
 31
0.0
  0
LINE
  5
230
330
4C
100
AcDbEntity
  8
1
  6
Continuous
 62
     7
100
AcDbLine
 10
418.1512423326703
 20
699.4780904012588
 30
0.0
 11
418.4512235568627
 21
699.1251124941256
 31
0.0
  0
LINE
  5
231
330
4C
100
AcDbEntity
  8
1
  6
Continuous
 62
     7
100
AcDbLine
 10
418.4512235568627
 20
699.1251124941256
 30
0.0
 11
418.4512235568627
 21
696.6782656421402
 31
0.0
  0
LINE
  5
232
330
4C
100
AcDbEntity
  8
1
  6
Continuous
 62
     7
100
AcDbLine
 10
418.4512235568627
 20
699.1251124941256
 30
0.0
 11
418.4512235568627
 21
696.6782656421402
 31
0.0
  0
LINE
  5
233
330
4C
100
AcDbEntity
  8
1
  6
Continuous
 62
     7
100
AcDbLine
 10
457.5487764431346
 20
704.5387736533659
 30
0.0
 11
457.5487764431346
 21
702.0919268013787
 31
0.0
  0
LINE
  5
234
330
4C
100
AcDbEntity
  8
1
  6
Continuous
 62
     7
100
AcDbLine
 10
457.5487764431346
 20
704.5387736533659
 30
0.0
 11
457.5487764431346
 21
702.0919268013787
 31
0.0
  0
LINE
  5
235
330
4C
100
AcDbEntity
  8
1
  6
Continuous
 62
     7
100
AcDbLine
 10
457.8487576673269
 20
704.8917515604982
 30
0.0
 11
457.5487764431346
 21
704.5387736533659
 31
0.0
  0
LINE
  5
236
330
4C
100
AcDbEntity
  8
1
  6
Continuous
 62
     7
100
AcDbLine
 10
457.8487576673269
 20
707.9925574812215
 30
0.0
 11
457.8487576673269
 21
704.8917515604982
 31
0.0
  0
LINE
  5
237
330
4C
100
AcDbEntity
  8
1
  6
Continuous
 62
     7
100
AcDbLine
 10
458.448720115709
 20
708.5973022434565
 30
0.0
 11
417.6212755032657
 21
703.1737614894038
 31
0.0
  0
LINE
  5
238
330
4C
100
AcDbEntity
  8
1
  6
Continuous
 62
     7
100
AcDbLine
 10
458.448720115709
 20
712.1970769337532
 30
0.0
 11
417.6212755032657
 21
706.7861420038781
 31
0.0
  0
LINE
  5
239
330
4C
100
AcDbEntity
  8
1
  6
Continuous
 62
     7
100
AcDbLine
 10
459.7486387538711
 20
710.8971582955893
 30
0.0
 11
459.7486387538711
 21
709.8972208816186
 31
0.0
  0
LINE
  5
23A
330
4C
100
AcDbEntity
  8
1
  6
Continuous
 62
     7
100
AcDbLine
 10
416.2513612461253
 20
705.4777148850845
 30
0.0
 11
416.2513612461253
 21
704.4777774711121
 31
0.0
  0
LINE
  5
23B
330
4C
100
AcDbEntity
  8
1
  6
Continuous
 62
     7
100
AcDbLine
 10
418.1512423326703
 20
713.5839901269302
 30
0.0
 11
418.1512423326703
 21
710.4831842062068
 31
0.0
  0
LINE
  5
23C
330
4C
100
AcDbEntity
  8
1
  6
Continuous
 62
     7
100
AcDbLine
 10
418.1512423326703
 20
710.4831842062068
 30
0.0
 11
418.4512235568627
 21
710.1302062990736
 31
0.0
  0
LINE
  5
23D
330
4C
100
AcDbEntity
  8
1
  6
Continuous
 62
     7
100
AcDbLine
 10
418.4512235568627
 20
710.1302062990736
 30
0.0
 11
418.4512235568627
 21
707.6833594470883
 31
0.0
  0
LINE
  5
23E
330
4C
100
AcDbEntity
  8
1
  6
Continuous
 62
     7
100
AcDbLine
 10
418.4512235568627
 20
710.1302062990736
 30
0.0
 11
418.4512235568627
 21
707.6833594470883
 31
0.0
  0
LINE
  5
23F
330
4C
100
AcDbEntity
  8
1
  6
Continuous
 62
     7
100
AcDbLine
 10
457.5487764431346
 20
715.5438674583139
 30
0.0
 11
457.5487764431346
 21
713.0970206063267
 31
0.0
  0
LINE
  5
240
330
4C
100
AcDbEntity
  8
1
  6
Continuous
 62
     7
100
AcDbLine
 10
457.5487764431346
 20
715.5438674583139
 30
0.0
 11
457.5487764431346
 21
713.0970206063267
 31
0.0
  0
LINE
  5
241
330
4C
100
AcDbEntity
  8
1
  6
Continuous
 62
     7
100
AcDbLine
 10
457.8487576673269
 20
715.8968453654462
 30
0.0
 11
457.5487764431346
 21
715.5438674583139
 31
0.0
  0
LINE
  5
242
330
4C
100
AcDbEntity
  8
1
  6
Continuous
 62
     7
100
AcDbLine
 10
457.8487576673269
 20
718.9976512861696
 30
0.0
 11
457.8487576673269
 21
715.8968453654462
 31
0.0
  0
LINE
  5
243
330
4C
100
AcDbEntity
  8
1
  6
Continuous
 62
     7
100
AcDbLine
 10
458.448720115709
 20
719.6023960484046
 30
0.0
 11
417.6212755032657
 21
714.1788552943518
 31
0.0
  0
LINE
  5
244
330
4C
100
AcDbEntity
  8
1
  6
Continuous
 62
     7
100
AcDbLine
 10
458.448720115709
 20
723.2021707387013
 30
0.0
 11
417.6212755032657
 21
717.7912358088262
 31
0.0
  0
LINE
  5
245
330
4C
100
AcDbEntity
  8
1
  6
Continuous
 62
     7
100
AcDbLine
 10
459.7486387538711
 20
721.9022521005373
 30
0.0
 11
459.7486387538711
 21
720.9023146865667
 31
0.0
  0
LINE
  5
246
330
4C
100
AcDbEntity
  8
1
  6
Continuous
 62
     7
100
AcDbLine
 10
416.2513612461253
 20
716.4828086900326
 30
0.0
 11
416.2513612461253
 21
715.4828712760601
 31
0.0
  0
LINE
  5
247
330
4C
100
AcDbEntity
  8
1
  6
Continuous
 62
     7
100
AcDbLine
 10
418.1512423326703
 20
724.5890839318783
 30
0.0
 11
418.1512423326703
 21
721.488278011155
 31
0.0
  0
LINE
  5
248
330
4C
100
AcDbEntity
  8
1
  6
Continuous
 62
     7
100
AcDbLine
 10
418.1512423326703
 20
721.488278011155
 30
0.0
 11
418.4512235568627
 21
721.1353001040218
 31
0.0
  0
LINE
  5
249
330
4C
100
AcDbEntity
  8
1
  6
Continuous
 62
     7
100
AcDbLine
 10
418.4512235568627
 20
721.1353001040218
 30
0.0
 11
418.4512235568627
 21
718.6884532520364
 31
0.0
  0
LINE
  5
24A
330
4C
100
AcDbEntity
  8
1
  6
Continuous
 62
     7
100
AcDbLine
 10
418.4512235568627
 20
721.1353001040218
 30
0.0
 11
418.4512235568627
 21
718.6884532520364
 31
0.0
  0
LINE
  5
24B
330
4C
100
AcDbEntity
  8
1
  6
Continuous
 62
     7
100
AcDbLine
 10
457.5487764431346
 20
726.5489612632621
 30
0.0
 11
457.5487764431346
 21
724.1021144112749
 31
0.0
  0
LINE
  5
24C
330
4C
100
AcDbEntity
  8
1
  6
Continuous
 62
     7
100
AcDbLine
 10
457.5487764431346
 20
726.5489612632621
 30
0.0
 11
457.5487764431346
 21
724.1021144112749
 31
0.0
  0
LINE
  5
24D
330
4C
100
AcDbEntity
  8
1
  6
Continuous
 62
     7
100
AcDbLine
 10
457.8487576673269
 20
726.9019391703944
 30
0.0
 11
457.5487764431346
 21
726.5489612632621
 31
0.0
  0
LINE
  5
24E
330
4C
100
AcDbEntity
  8
1
  6
Continuous
 62
     7
100
AcDbLine
 10
457.8487576673269
 20
730.0027450911177
 30
0.0
 11
457.8487576673269
 21
726.9019391703944
 31
0.0
  0
LINE
  5
24F
330
4C
100
AcDbEntity
  8
1
  6
Continuous
 62
     7
100
AcDbLine
 10
458.448720115709
 20
730.6074898533527
 30
0.0
 11
417.6212755032657
 21
725.1839490993
 31
0.0
  0
LINE
  5
250
330
4C
100
AcDbEntity
  8
1
  6
Continuous
 62
     7
100
AcDbLine
 10
458.448720115709
 20
734.2072645436494
 30
0.0
 11
417.6212755032657
 21
728.7963296137743
 31
0.0
  0
LINE
  5
251
330
4C
100
AcDbEntity
  8
1
  6
Continuous
 62
     7
100
AcDbLine
 10
459.7486387538711
 20
732.9073459054855
 30
0.0
 11
459.7486387538711
 21
731.9074084915148
 31
0.0
  0
LINE
  5
252
330
4C
100
AcDbEntity
  8
1
  6
Continuous
 62
     7
100
AcDbLine
 10
416.2513612461253
 20
727.4879024949807
 30
0.0
 11
416.2513612461253
 21
726.4879650810083
 31
0.0
  0
LINE
  5
253
330
4C
100
AcDbEntity
  8
1
  6
Continuous
 62
     7
100
AcDbLine
 10
418.1512423326703
 20
735.5941777368265
 30
0.0
 11
418.1512423326703
 21
732.4933718161031
 31
0.0
  0
LINE
  5
254
330
4C
100
AcDbEntity
  8
1
  6
Continuous
 62
     7
100
AcDbLine
 10
418.1512423326703
 20
732.4933718161031
 30
0.0
 11
418.4512235568627
 21
732.1403939089699
 31
0.0
  0
LINE
  5
255
330
4C
100
AcDbEntity
  8
1
  6
Continuous
 62
     7
100
AcDbLine
 10
418.4512235568627
 20
732.1403939089699
 30
0.0
 11
418.4512235568627
 21
729.6935470569846
 31
0.0
  0
LINE
  5
256
330
4C
100
AcDbEntity
  8
1
  6
Continuous
 62
     7
100
AcDbLine
 10
418.4512235568627
 20
732.1403939089699
 30
0.0
 11
418.4512235568627
 21
729.6935470569846
 31
0.0
  0
LINE
  5
257
330
4C
100
AcDbEntity
  8
1
  6
Continuous
 62
     7
100
AcDbLine
 10
457.5487764431346
 20
737.5540550682102
 30
0.0
 11
457.5487764431346
 21
735.1072082162231
 31
0.0
  0
LINE
  5
258
330
4C
100
AcDbEntity
  8
1
  6
Continuous
 62
     7
100
AcDbLine
 10
457.5487764431346
 20
737.5540550682102
 30
0.0
 11
457.5487764431346
 21
735.1072082162231
 31
0.0
  0
LINE
  5
259
330
4C
100
AcDbEntity
  8
1
  6
Continuous
 62
     7
100
AcDbLine
 10
457.8487576673269
 20
737.9070329753425
 30
0.0
 11
457.5487764431346
 21
737.5540550682102
 31
0.0
  0
LINE
  5
25A
330
4C
100
AcDbEntity
  8
1
  6
Continuous
 62
     7
100
AcDbLine
 10
457.8487576673269
 20
741.0078388960659
 30
0.0
 11
457.8487576673269
 21
737.9070329753425
 31
0.0
  0
LINE
  5
25B
330
4C
100
AcDbEntity
  8
1
  6
Continuous
 62
     7
100
AcDbLine
 10
458.448720115709
 20
741.6125836583009
 30
0.0
 11
417.6212755032657
 21
736.1890429042481
 31
0.0
  0
LINE
  5
25C
330
4C
100
AcDbEntity
  8
1
  6
Continuous
 62
     7
100
AcDbLine
 10
458.448720115709
 20
745.2123583485976
 30
0.0
 11
417.6212755032657
 21
739.8014234187225
 31
0.0
  0
LINE
  5
25D
330
4C
100
AcDbEntity
  8
1
  6
Continuous
 62
     7
100
AcDbLine
 10
459.7486387538711
 20
743.9124397104337
 30
0.0
 11
459.7486387538711
 21
742.912502296463
 31
0.0
  0
LINE
  5
25E
330
4C
100
AcDbEntity
  8
1
  6
Continuous
 62
     7
100
AcDbLine
 10
416.2513612461253
 20
738.4929962999289
 30
0.0
 11
416.2513612461253
 21
737.4930588859564
 31
0.0
  0
LINE
  5
25F
330
4C
100
AcDbEntity
  8
1
  6
Continuous
 62
     7
100
AcDbLine
 10
418.1512423326703
 20
746.5992715417746
 30
0.0
 11
418.1512423326703
 21
743.4984656210512
 31
0.0
  0
LINE
  5
260
330
4C
100
AcDbEntity
  8
1
  6
Continuous
 62
     7
100
AcDbLine
 10
418.1512423326703
 20
743.4984656210512
 30
0.0
 11
418.4512235568627
 21
743.145487713918
 31
0.0
  0
LINE
  5
261
330
4C
100
AcDbEntity
  8
1
  6
Continuous
 62
     7
100
AcDbLine
 10
418.4512235568627
 20
743.145487713918
 30
0.0
 11
418.4512235568627
 21
740.6986408619326
 31
0.0
  0
LINE
  5
262
330
4C
100
AcDbEntity
  8
1
  6
Continuous
 62
     7
100
AcDbLine
 10
418.4512235568627
 20
743.145487713918
 30
0.0
 11
418.4512235568627
 21
740.6986408619326
 31
0.0
  0
LINE
  5
263
330
4C
100
AcDbEntity
  8
1
  6
Continuous
 62
     7
100
AcDbLine
 10
457.5487764431346
 20
748.5591488731583
 30
0.0
 11
457.5487764431346
 21
746.1123020211711
 31
0.0
  0
LINE
  5
264
330
4C
100
AcDbEntity
  8
1
  6
Continuous
 62
     7
100
AcDbLine
 10
457.5487764431346
 20
748.5591488731583
 30
0.0
 11
457.5487764431346
 21
746.1123020211711
 31
0.0
  0
LINE
  5
265
330
4C
100
AcDbEntity
  8
1
  6
Continuous
 62
     7
100
AcDbLine
 10
457.8487576673269
 20
748.9121267802906
 30
0.0
 11
457.5487764431346
 21
748.5591488731583
 31
0.0
  0
LINE
  5
266
330
4C
100
AcDbEntity
  8
1
  6
Continuous
 62
     7
100
AcDbLine
 10
457.8487576673269
 20
752.0129327010139
 30
0.0
 11
457.8487576673269
 21
748.9121267802906
 31
0.0
  0
LINE
  5
267
330
4C
100
AcDbEntity
  8
1
  6
Continuous
 62
     7
100
AcDbLine
 10
458.448720115709
 20
752.6176774632489
 30
0.0
 11
417.6212755032657
 21
747.1941367091962
 31
0.0
  0
LINE
  5
268
330
4C
100
AcDbEntity
  8
1
  6
Continuous
 62
     7
100
AcDbLine
 10
458.448720115709
 20
756.2174521535457
 30
0.0
 11
417.6212755032657
 21
750.8065172236705
 31
0.0
  0
LINE
  5
269
330
4C
100
AcDbEntity
  8
1
  6
Continuous
 62
     7
100
AcDbLine
 10
459.7486387538711
 20
754.9175335153817
 30
0.0
 11
459.7486387538711
 21
753.917596101411
 31
0.0
  0
LINE
  5
26A
330
4C
100
AcDbEntity
  8
1
  6
Continuous
 62
     7
100
AcDbLine
 10
416.2513612461253
 20
749.498090104877
 30
0.0
 11
416.2513612461253
 21
748.4981526909045
 31
0.0
  0
LINE
  5
26B
330
4C
100
AcDbEntity
  8
1
  6
Continuous
 62
     7
100
AcDbLine
 10
418.1512423326703
 20
757.6043653467226
 30
0.0
 11
418.1512423326703
 21
754.5035594259992
 31
0.0
  0
LINE
  5
26C
330
4C
100
AcDbEntity
  8
1
  6
Continuous
 62
     7
100
AcDbLine
 10
418.1512423326703
 20
754.5035594259992
 30
0.0
 11
418.4512235568627
 21
754.150581518866
 31
0.0
  0
LINE
  5
26D
330
4C
100
AcDbEntity
  8
1
  6
Continuous
 62
     7
100
AcDbLine
 10
418.4512235568627
 20
754.150581518866
 30
0.0
 11
418.4512235568627
 21
751.7037346668807
 31
0.0
  0
LINE
  5
26E
330
4C
100
AcDbEntity
  8
1
  6
Continuous
 62
     7
100
AcDbLine
 10
418.4512235568627
 20
754.150581518866
 30
0.0
 11
418.4512235568627
 21
751.7037346668807
 31
0.0
  0
LINE
  5
26F
330
4C
100
AcDbEntity
  8
1
  6
Continuous
 62
     7
100
AcDbLine
 10
457.5487764431346
 20
759.5642426781063
 30
0.0
 11
457.5487764431346
 21
757.1173958261192
 31
0.0
  0
LINE
  5
270
330
4C
100
AcDbEntity
  8
1
  6
Continuous
 62
     7
100
AcDbLine
 10
457.5487764431346
 20
759.5642426781063
 30
0.0
 11
457.5487764431346
 21
757.1173958261192
 31
0.0
  0
LINE
  5
271
330
4C
100
AcDbEntity
  8
1
  6
Continuous
 62
     7
100
AcDbLine
 10
457.8487576673269
 20
759.9172205852386
 30
0.0
 11
457.5487764431346
 21
759.5642426781063
 31
0.0
  0
LINE
  5
272
330
4C
100
AcDbEntity
  8
1
  6
Continuous
 62
     7
100
AcDbLine
 10
457.8487576673269
 20
763.018026505962
 30
0.0
 11
457.8487576673269
 21
759.9172205852386
 31
0.0
  0
LINE
  5
273
330
4C
100
AcDbEntity
  8
1
  6
Continuous
 62
     7
100
AcDbLine
 10
458.448720115709
 20
763.622771268197
 30
0.0
 11
417.6212755032657
 21
758.1992305141442
 31
0.0
  0
LINE
  5
274
330
4C
100
AcDbEntity
  8
1
  6
Continuous
 62
     7
100
AcDbLine
 10
458.448720115709
 20
767.2225459584937
 30
0.0
 11
417.6212755032657
 21
761.8116110286186
 31
0.0
  0
LINE
  5
275
330
4C
100
AcDbEntity
  8
1
  6
Continuous
 62
     7
100
AcDbLine
 10
459.7486387538711
 20
765.9226273203298
 30
0.0
 11
459.7486387538711
 21
764.9226899063591
 31
0.0
  0
LINE
  5
276
330
4C
100
AcDbEntity
  8
1
  6
Continuous
 62
     7
100
AcDbLine
 10
416.2513612461253
 20
760.503183909825
 30
0.0
 11
416.2513612461253
 21
759.5032464958525
 31
0.0
  0
LINE
  5
277
330
4C
100
AcDbEntity
  8
1
  6
Continuous
 62
     7
100
AcDbLine
 10
418.1512423326703
 20
768.6094591516708
 30
0.0
 11
418.1512423326703
 21
765.5086532309474
 31
0.0
  0
LINE
  5
278
330
4C
100
AcDbEntity
  8
1
  6
Continuous
 62
     7
100
AcDbLine
 10
418.1512423326703
 20
765.5086532309474
 30
0.0
 11
418.4512235568627
 21
765.1556753238142
 31
0.0
  0
LINE
  5
279
330
4C
100
AcDbEntity
  8
1
  6
Continuous
 62
     7
100
AcDbLine
 10
418.4512235568627
 20
765.1556753238142
 30
0.0
 11
418.4512235568627
 21
762.7088284718288
 31
0.0
  0
LINE
  5
27A
330
4C
100
AcDbEntity
  8
1
  6
Continuous
 62
     7
100
AcDbLine
 10
418.4512235568627
 20
765.1556753238142
 30
0.0
 11
418.4512235568627
 21
762.7088284718288
 31
0.0
  0
LINE
  5
27B
330
4C
100
AcDbEntity
  8
1
  6
Continuous
 62
     7
100
AcDbLine
 10
457.5487764431346
 20
770.5693364830545
 30
0.0
 11
457.5487764431346
 21
768.1224896310673
 31
0.0
  0
LINE
  5
27C
330
4C
100
AcDbEntity
  8
1
  6
Continuous
 62
     7
100
AcDbLine
 10
457.5487764431346
 20
770.5693364830545
 30
0.0
 11
457.5487764431346
 21
768.1224896310673
 31
0.0
  0
LINE
  5
27D
330
4C
100
AcDbEntity
  8
1
  6
Continuous
 62
     7
100
AcDbLine
 10
457.8487576673269
 20
770.9223143901868
 30
0.0
 11
457.5487764431346
 21
770.5693364830545
 31
0.0
  0
LINE
  5
27E
330
4C
100
AcDbEntity
  8
1
  6
Continuous
 62
     7
100
AcDbLine
 10
457.8487576673269
 20
774.0231203109101
 30
0.0
 11
457.8487576673269
 21
770.9223143901868
 31
0.0
  0
LINE
  5
27F
330
4C
100
AcDbEntity
  8
1
  6
Continuous
 62
     7
100
AcDbLine
 10
458.448720115709
 20
774.6278650731451
 30
0.0
 11
417.6212755032657
 21
769.2043243190924
 31
0.0
  0
LINE
  5
280
330
4C
100
AcDbEntity
  8
1
  6
Continuous
 62
     7
100
AcDbLine
 10
458.448720115709
 20
778.2276397634419
 30
0.0
 11
417.6212755032657
 21
772.8167048335667
 31
0.0
  0
LINE
  5
281
330
4C
100
AcDbEntity
  8
1
  6
Continuous
 62
     7
100
AcDbLine
 10
459.7486387538711
 20
776.9277211252779
 30
0.0
 11
459.7486387538711
 21
775.9277837113073
 31
0.0
  0
LINE
  5
282
330
4C
100
AcDbEntity
  8
1
  6
Continuous
 62
     7
100
AcDbLine
 10
416.2513612461253
 20
771.5082777147732
 30
0.0
 11
416.2513612461253
 21
770.5083403008007
 31
0.0
  0
LINE
  5
283
330
4C
100
AcDbEntity
  8
1
  6
Continuous
 62
     7
100
AcDbLine
 10
418.1512423326703
 20
779.6145529566189
 30
0.0
 11
418.1512423326703
 21
776.5137470358956
 31
0.0
  0
LINE
  5
284
330
4C
100
AcDbEntity
  8
1
  6
Continuous
 62
     7
100
AcDbLine
 10
418.1512423326703
 20
776.5137470358956
 30
0.0
 11
418.4512235568627
 21
776.1607691287624
 31
0.0
  0
LINE
  5
285
330
4C
100
AcDbEntity
  8
1
  6
Continuous
 62
     7
100
AcDbLine
 10
418.4512235568627
 20
776.1607691287624
 30
0.0
 11
418.4512235568627
 21
773.713922276777
 31
0.0
  0
LINE
  5
286
330
4C
100
AcDbEntity
  8
1
  6
Continuous
 62
     7
100
AcDbLine
 10
418.4512235568627
 20
776.1607691287624
 30
0.0
 11
418.4512235568627
 21
773.713922276777
 31
0.0
  0
LINE
  5
287
330
4C
100
AcDbEntity
  8
1
  6
Continuous
 62
     7
100
AcDbLine
 10
457.5487764431346
 20
781.5744302880026
 30
0.0
 11
457.5487764431346
 21
779.1275834360155
 31
0.0
  0
LINE
  5
288
330
4C
100
AcDbEntity
  8
1
  6
Continuous
 62
     7
100
AcDbLine
 10
457.5487764431346
 20
781.5744302880026
 30
0.0
 11
457.5487764431346
 21
779.1275834360155
 31
0.0
  0
LINE
  5
289
330
4C
100
AcDbEntity
  8
1
  6
Continuous
 62
     7
100
AcDbLine
 10
457.8487576673269
 20
781.927408195135
 30
0.0
 11
457.5487764431346
 21
781.5744302880026
 31
0.0
  0
LINE
  5
28A
330
4C
100
AcDbEntity
  8
1
  6
Continuous
 62
     7
100
AcDbLine
 10
457.8487576673269
 20
785.0282141158583
 30
0.0
 11
457.8487576673269
 21
781.927408195135
 31
0.0
  0
LINE
  5
28B
330
4C
100
AcDbEntity
  8
1
  6
Continuous
 62
     7
100
AcDbLine
 10
458.448720115709
 20
785.6329588780933
 30
0.0
 11
417.6212755032657
 21
780.2094181240406
 31
0.0
  0
LINE
  5
28C
330
4C
100
AcDbEntity
  8
1
  6
Continuous
 62
     7
100
AcDbLine
 10
458.448720115709
 20
789.23273356839
 30
0.0
 11
417.6212755032657
 21
783.8217986385149
 31
0.0
  0
LINE
  5
28D
330
4C
100
AcDbEntity
  8
1
  6
Continuous
 62
     7
100
AcDbLine
 10
459.7486387538711
 20
787.9328149302261
 30
0.0
 11
459.7486387538711
 21
786.9328775162554
 31
0.0
  0
LINE
  5
28E
330
4C
100
AcDbEntity
  8
1
  6
Continuous
 62
     7
100
AcDbLine
 10
416.2513612461253
 20
782.5133715197213
 30
0.0
 11
416.2513612461253
 21
781.5134341057488
 31
0.0
  0
LINE
  5
28F
330
4C
100
AcDbEntity
  8
1
  6
Continuous
 62
     7
100
AcDbLine
 10
418.1512423326703
 20
790.619646761567
 30
0.0
 11
418.1512423326703
 21
787.5188408408436
 31
0.0
  0
LINE
  5
290
330
4C
100
AcDbEntity
  8
1
  6
Continuous
 62
     7
100
AcDbLine
 10
418.1512423326703
 20
787.5188408408436
 30
0.0
 11
418.4512235568627
 21
787.1658629337104
 31
0.0
  0
LINE
  5
291
330
4C
100
AcDbEntity
  8
1
  6
Continuous
 62
     7
100
AcDbLine
 10
418.4512235568627
 20
787.1658629337104
 30
0.0
 11
418.4512235568627
 21
784.719016081725
 31
0.0
  0
LINE
  5
292
330
4C
100
AcDbEntity
  8
1
  6
Continuous
 62
     7
100
AcDbLine
 10
418.4512235568627
 20
787.1658629337104
 30
0.0
 11
418.4512235568627
 21
784.719016081725
 31
0.0
  0
LINE
  5
293
330
4C
100
AcDbEntity
  8
1
  6
Continuous
 62
     7
100
AcDbLine
 10
457.5487764431346
 20
792.5795240929507
 30
0.0
 11
457.5487764431346
 21
790.1326772409635
 31
0.0
  0
LINE
  5
294
330
4C
100
AcDbEntity
  8
1
  6
Continuous
 62
     7
100
AcDbLine
 10
457.5487764431346
 20
792.5795240929507
 30
0.0
 11
457.5487764431346
 21
790.1326772409635
 31
0.0
  0
LINE
  5
295
330
4C
100
AcDbEntity
  8
1
  6
Continuous
 62
     7
100
AcDbLine
 10
457.8487576673269
 20
792.932502000083
 30
0.0
 11
457.5487764431346
 21
792.5795240929507
 31
0.0
  0
LINE
  5
296
330
4C
100
AcDbEntity
  8
1
  6
Continuous
 62
     7
100
AcDbLine
 10
457.8487576673269
 20
796.0333079208064
 30
0.0
 11
457.8487576673269
 21
792.932502000083
 31
0.0
  0
LINE
  5
297
330
4C
100
AcDbEntity
  8
1
  6
Continuous
 62
     7
100
AcDbLine
 10
458.448720115709
 20
796.6380526830413
 30
0.0
 11
417.6212755032657
 21
791.2145119289886
 31
0.0
  0
LINE
  5
298
330
4C
100
AcDbEntity
  8
1
  6
Continuous
 62
     7
100
AcDbLine
 10
458.448720115709
 20
800.2378273733381
 30
0.0
 11
417.6212755032657
 21
794.826892443463
 31
0.0
  0
LINE
  5
299
330
4C
100
AcDbEntity
  8
1
  6
Continuous
 62
     7
100
AcDbLine
 10
459.7486387538711
 20
798.9379087351741
 30
0.0
 11
459.7486387538711
 21
797.9379713212035
 31
0.0
  0
LINE
  5
29A
330
4C
100
AcDbEntity
  8
1
  6
Continuous
 62
     7
100
AcDbLine
 10
416.2513612461253
 20
793.5184653246694
 30
0.0
 11
416.2513612461253
 21
792.5185279106969
 31
0.0
  0
LINE
  5
29B
330
4C
100
AcDbEntity
  8
1
  6
Continuous
 62
     7
100
AcDbLine
 10
418.1512423326703
 20
801.624740566515
 30
0.0
 11
418.1512423326703
 21
798.5239346457917
 31
0.0
  0
LINE
  5
29C
330
4C
100
AcDbEntity
  8
1
  6
Continuous
 62
     7
100
AcDbLine
 10
418.1512423326703
 20
798.5239346457917
 30
0.0
 11
418.4512235568627
 21
798.1709567386584
 31
0.0
  0
LINE
  5
29D
330
4C
100
AcDbEntity
  8
1
  6
Continuous
 62
     7
100
AcDbLine
 10
418.4512235568627
 20
798.1709567386584
 30
0.0
 11
418.4512235568627
 21
795.7241098866731
 31
0.0
  0
LINE
  5
29E
330
4C
100
AcDbEntity
  8
1
  6
Continuous
 62
     7
100
AcDbLine
 10
418.4512235568627
 20
798.1709567386584
 30
0.0
 11
418.4512235568627
 21
795.7241098866731
 31
0.0
  0
LINE
  5
29F
330
4C
100
AcDbEntity
  8
1
  6
Continuous
 62
     7
100
AcDbLine
 10
457.5487764431346
 20
803.5846178978987
 30
0.0
 11
457.5487764431346
 21
801.1377710459116
 31
0.0
  0
LINE
  5
2A0
330
4C
100
AcDbEntity
  8
1
  6
Continuous
 62
     7
100
AcDbLine
 10
457.5487764431346
 20
803.5846178978987
 30
0.0
 11
457.5487764431346
 21
801.1377710459116
 31
0.0
  0
LINE
  5
2A1
330
4C
100
AcDbEntity
  8
1
  6
Continuous
 62
     7
100
AcDbLine
 10
457.8487576673269
 20
803.937595805031
 30
0.0
 11
457.5487764431346
 21
803.5846178978987
 31
0.0
  0
LINE
  5
2A2
330
4C
100
AcDbEntity
  8
1
  6
Continuous
 62
     7
100
AcDbLine
 10
457.8487576673269
 20
807.0384017257544
 30
0.0
 11
457.8487576673269
 21
803.937595805031
 31
0.0
  0
LINE
  5
2A3
330
4C
100
AcDbEntity
  8
1
  6
Continuous
 62
     7
100
AcDbLine
 10
458.448720115709
 20
807.6431464879894
 30
0.0
 11
417.6212755032657
 21
802.2196057339366
 31
0.0
  0
LINE
  5
2A4
330
4C
100
AcDbEntity
  8
1
  6
Continuous
 62
     7
100
AcDbLine
 10
458.448720115709
 20
811.2429211782861
 30
0.0
 11
417.6212755032657
 21
805.831986248411
 31
0.0
  0
LINE
  5
2A5
330
4C
100
AcDbEntity
  8
1
  6
Continuous
 62
     7
100
AcDbLine
 10
459.7486387538711
 20
809.9430025401222
 30
0.0
 11
459.7486387538711
 21
808.9430651261515
 31
0.0
  0
LINE
  5
2A6
330
4C
100
AcDbEntity
  8
1
  6
Continuous
 62
     7
100
AcDbLine
 10
416.2513612461253
 20
804.5235591296174
 30
0.0
 11
416.2513612461253
 21
803.5236217156449
 31
0.0
  0
LINE
  5
2A7
330
4C
100
AcDbEntity
  8
1
  6
Continuous
 62
     7
100
AcDbLine
 10
418.1512423326703
 20
812.6298343714632
 30
0.0
 11
418.1512423326703
 21
809.5290284507398
 31
0.0
  0
LINE
  5
2A8
330
4C
100
AcDbEntity
  8
1
  6
Continuous
 62
     7
100
AcDbLine
 10
418.1512423326703
 20
809.5290284507398
 30
0.0
 11
418.4512235568627
 21
809.1760505436066
 31
0.0
  0
LINE
  5
2A9
330
4C
100
AcDbEntity
  8
1
  6
Continuous
 62
     7
100
AcDbLine
 10
418.4512235568627
 20
809.1760505436066
 30
0.0
 11
418.4512235568627
 21
806.7292036916213
 31
0.0
  0
LINE
  5
2AA
330
4C
100
AcDbEntity
  8
1
  6
Continuous
 62
     7
100
AcDbLine
 10
418.4512235568627
 20
809.1760505436066
 30
0.0
 11
418.4512235568627
 21
806.7292036916213
 31
0.0
  0
LINE
  5
2AB
330
4C
100
AcDbEntity
  8
1
  6
Continuous
 62
     7
100
AcDbLine
 10
457.5487764431346
 20
814.5897117028469
 30
0.0
 11
457.5487764431346
 21
812.1428648508597
 31
0.0
  0
LINE
  5
2AC
330
4C
100
AcDbEntity
  8
1
  6
Continuous
 62
     7
100
AcDbLine
 10
457.5487764431346
 20
814.5897117028469
 30
0.0
 11
457.5487764431346
 21
812.1428648508597
 31
0.0
  0
LINE
  5
2AD
330
4C
100
AcDbEntity
  8
1
  6
Continuous
 62
     7
100
AcDbLine
 10
457.8487576673269
 20
814.9426896099792
 30
0.0
 11
457.5487764431346
 21
814.5897117028469
 31
0.0
  0
LINE
  5
2AE
330
4C
100
AcDbEntity
  8
1
  6
Continuous
 62
     7
100
AcDbLine
 10
457.8487576673269
 20
818.0434955307026
 30
0.0
 11
457.8487576673269
 21
814.9426896099792
 31
0.0
  0
LINE
  5
2AF
330
4C
100
AcDbEntity
  8
1
  6
Continuous
 62
     7
100
AcDbLine
 10
458.448720115709
 20
818.6482402929375
 30
0.0
 11
417.6212755032657
 21
813.2246995388848
 31
0.0
  0
LINE
  5
2B0
330
4C
100
AcDbEntity
  8
1
  6
Continuous
 62
     7
100
AcDbLine
 10
458.448720115709
 20
822.2480149832343
 30
0.0
 11
417.6212755032657
 21
816.8370800533592
 31
0.0
  0
LINE
  5
2B1
330
4C
100
AcDbEntity
  8
1
  6
Continuous
 62
     7
100
AcDbLine
 10
459.7486387538711
 20
820.9480963450703
 30
0.0
 11
459.7486387538711
 21
819.9481589310997
 31
0.0
  0
LINE
  5
2B2
330
4C
100
AcDbEntity
  8
1
  6
Continuous
 62
     7
100
AcDbLine
 10
416.2513612461253
 20
815.5286529345656
 30
0.0
 11
416.2513612461253
 21
814.5287155205931
 31
0.0
  0
LINE
  5
2B3
330
4C
100
AcDbEntity
  8
1
  6
Continuous
 62
     7
100
AcDbLine
 10
418.1512423326703
 20
823.6349281764113
 30
0.0
 11
418.1512423326703
 21
820.534122255688
 31
0.0
  0
LINE
  5
2B4
330
4C
100
AcDbEntity
  8
1
  6
Continuous
 62
     7
100
AcDbLine
 10
418.1512423326703
 20
820.534122255688
 30
0.0
 11
418.4512235568627
 21
820.1811443485548
 31
0.0
  0
LINE
  5
2B5
330
4C
100
AcDbEntity
  8
1
  6
Continuous
 62
     7
100
AcDbLine
 10
418.4512235568627
 20
820.1811443485548
 30
0.0
 11
418.4512235568627
 21
817.7342974965694
 31
0.0
  0
LINE
  5
2B6
330
4C
100
AcDbEntity
  8
1
  6
Continuous
 62
     7
100
AcDbLine
 10
418.4512235568627
 20
820.1811443485548
 30
0.0
 11
418.4512235568627
 21
817.7342974965694
 31
0.0
  0
LINE
  5
2B7
330
4C
100
AcDbEntity
  8
1
  6
Continuous
 62
     7
100
AcDbLine
 10
457.5487764431346
 20
825.5948055077951
 30
0.0
 11
457.5487764431346
 21
823.1479586558079
 31
0.0
  0
LINE
  5
2B8
330
4C
100
AcDbEntity
  8
1
  6
Continuous
 62
     7
100
AcDbLine
 10
457.5487764431346
 20
825.5948055077951
 30
0.0
 11
457.5487764431346
 21
823.1479586558079
 31
0.0
  0
LINE
  5
2B9
330
4C
100
AcDbEntity
  8
1
  6
Continuous
 62
     7
100
AcDbLine
 10
457.8487576673269
 20
825.9477834149274
 30
0.0
 11
457.5487764431346
 21
825.5948055077951
 31
0.0
  0
LINE
  5
2BA
330
4C
100
AcDbEntity
  8
1
  6
Continuous
 62
     7
100
AcDbLine
 10
457.8487576673269
 20
829.0485893356507
 30
0.0
 11
457.8487576673269
 21
825.9477834149274
 31
0.0
  0
LINE
  5
2BB
330
4C
100
AcDbEntity
  8
1
  6
Continuous
 62
     7
100
AcDbLine
 10
458.448720115709
 20
829.6533340978857
 30
0.0
 11
417.6212755032657
 21
824.229793343833
 31
0.0
  0
LINE
  5
2BC
330
4C
100
AcDbEntity
  8
1
  6
Continuous
 62
     7
100
AcDbLine
 10
458.448720115709
 20
833.2531087881824
 30
0.0
 11
417.6212755032657
 21
827.8421738583073
 31
0.0
  0
LINE
  5
2BD
330
4C
100
AcDbEntity
  8
1
  6
Continuous
 62
     7
100
AcDbLine
 10
459.7486387538711
 20
831.9531901500185
 30
0.0
 11
459.7486387538711
 21
830.9532527360478
 31
0.0
  0
LINE
  5
2BE
330
4C
100
AcDbEntity
  8
1
  6
Continuous
 62
     7
100
AcDbLine
 10
416.2513612461253
 20
826.5337467395137
 30
0.0
 11
416.2513612461253
 21
825.5338093255413
 31
0.0
  0
LINE
  5
2BF
330
4C
100
AcDbEntity
  8
1
  6
Continuous
 62
     7
100
AcDbLine
 10
418.1512423326703
 20
834.6400219813594
 30
0.0
 11
418.1512423326703
 21
831.539216060636
 31
0.0
  0
LINE
  5
2C0
330
4C
100
AcDbEntity
  8
1
  6
Continuous
 62
     7
100
AcDbLine
 10
418.1512423326703
 20
831.539216060636
 30
0.0
 11
418.4512235568627
 21
831.1862381535028
 31
0.0
  0
LINE
  5
2C1
330
4C
100
AcDbEntity
  8
1
  6
Continuous
 62
     7
100
AcDbLine
 10
418.4512235568627
 20
831.1862381535028
 30
0.0
 11
418.4512235568627
 21
828.7393913015175
 31
0.0
  0
LINE
  5
2C2
330
4C
100
AcDbEntity
  8
1
  6
Continuous
 62
     7
100
AcDbLine
 10
418.4512235568627
 20
831.1862381535028
 30
0.0
 11
418.4512235568627
 21
828.7393913015175
 31
0.0
  0
LINE
  5
2C3
330
4C
100
AcDbEntity
  8
1
  6
Continuous
 62
     7
100
AcDbLine
 10
457.5487764431346
 20
836.5998993127431
 30
0.0
 11
457.5487764431346
 21
834.1530524607559
 31
0.0
  0
LINE
  5
2C4
330
4C
100
AcDbEntity
  8
1
  6
Continuous
 62
     7
100
AcDbLine
 10
457.5487764431346
 20
836.5998993127431
 30
0.0
 11
457.5487764431346
 21
834.1530524607559
 31
0.0
  0
LINE
  5
2C5
330
4C
100
AcDbEntity
  8
1
  6
Continuous
 62
     7
100
AcDbLine
 10
457.8487576673269
 20
836.9528772198754
 30
0.0
 11
457.5487764431346
 21
836.5998993127431
 31
0.0
  0
LINE
  5
2C6
330
4C
100
AcDbEntity
  8
1
  6
Continuous
 62
     7
100
AcDbLine
 10
457.8487576673269
 20
840.0536831405988
 30
0.0
 11
457.8487576673269
 21
836.9528772198754
 31
0.0
  0
LINE
  5
2C7
330
4C
100
AcDbEntity
  8
1
  6
Continuous
 62
     7
100
AcDbLine
 10
458.448720115709
 20
840.6584279028338
 30
0.0
 11
417.6212755032657
 21
835.234887148781
 31
0.0
  0
LINE
  5
2C8
330
4C
100
AcDbEntity
  8
1
  6
Continuous
 62
     7
100
AcDbLine
 10
458.448720115709
 20
844.2582025931305
 30
0.0
 11
417.6212755032657
 21
838.8472676632554
 31
0.0
  0
LINE
  5
2C9
330
4C
100
AcDbEntity
  8
1
  6
Continuous
 62
     7
100
AcDbLine
 10
459.7486387538711
 20
842.9582839549665
 30
0.0
 11
459.7486387538711
 21
841.9583465409959
 31
0.0
  0
LINE
  5
2CA
330
4C
100
AcDbEntity
  8
1
  6
Continuous
 62
     7
100
AcDbLine
 10
416.2513612461253
 20
837.5388405444618
 30
0.0
 11
416.2513612461253
 21
836.5389031304893
 31
0.0
  0
LINE
  5
2CB
330
4C
100
AcDbEntity
  8
1
  6
Continuous
 62
     7
100
AcDbLine
 10
418.1512423326703
 20
845.6451157863074
 30
0.0
 11
418.1512423326703
 21
842.5443098655841
 31
0.0
  0
LINE
  5
2CC
330
4C
100
AcDbEntity
  8
1
  6
Continuous
 62
     7
100
AcDbLine
 10
418.1512423326703
 20
842.5443098655841
 30
0.0
 11
418.4512235568627
 21
842.1913319584509
 31
0.0
  0
LINE
  5
2CD
330
4C
100
AcDbEntity
  8
1
  6
Continuous
 62
     7
100
AcDbLine
 10
418.4512235568627
 20
842.1913319584509
 30
0.0
 11
418.4512235568627
 21
839.7444851064655
 31
0.0
  0
LINE
  5
2CE
330
4C
100
AcDbEntity
  8
1
  6
Continuous
 62
     7
100
AcDbLine
 10
418.4512235568627
 20
842.1913319584509
 30
0.0
 11
418.4512235568627
 21
839.7444851064655
 31
0.0
  0
LINE
  5
2CF
330
4C
100
AcDbEntity
  8
1
  6
Continuous
 62
     7
100
AcDbLine
 10
457.5487764431346
 20
847.6049931176912
 30
0.0
 11
457.5487764431346
 21
845.158146265704
 31
0.0
  0
LINE
  5
2D0
330
4C
100
AcDbEntity
  8
1
  6
Continuous
 62
     7
100
AcDbLine
 10
457.5487764431346
 20
847.6049931176912
 30
0.0
 11
457.5487764431346
 21
845.158146265704
 31
0.0
  0
LINE
  5
2D1
330
4C
100
AcDbEntity
  8
1
  6
Continuous
 62
     7
100
AcDbLine
 10
457.8487576673269
 20
847.9579710248235
 30
0.0
 11
457.5487764431346
 21
847.6049931176912
 31
0.0
  0
LINE
  5
2D2
330
4C
100
AcDbEntity
  8
1
  6
Continuous
 62
     7
100
AcDbLine
 10
457.8487576673269
 20
851.0587769455468
 30
0.0
 11
457.8487576673269
 21
847.9579710248235
 31
0.0
  0
ARC
  5
2D3
330
4C
100
AcDbEntity
  8
1
  6
Continuous
 62
     7
100
AcDbCircle
 10
417.5512798842874
 20
438.4666473436497
 30
0.0
 40
0.5999624483821446
100
AcDbArc
 50
55.6609079435615
 51
90.0
  0
ARC
  5
2D4
330
4C
100
AcDbEntity
  8
1
  6
Continuous
 62
     7
100
AcDbCircle
 10
417.5512798842874
 20
440.3665284301948
 30
0.0
 40
1.299918638162069
100
AcDbArc
 50
179.9999999999624
 51
270.0
  0
ARC
  5
2D5
330
4C
100
AcDbEntity
  8
1
  6
Continuous
 62
     7
100
AcDbCircle
 10
417.5512798842874
 20
441.3664658441673
 30
0.0
 40
1.299918638162126
100
AcDbArc
 50
90.0
 51
180.0
  0
ARC
  5
2D6
330
4C
100
AcDbEntity
  8
1
  6
Continuous
 62
     7
100
AcDbCircle
 10
417.5512798842874
 20
441.3664658441673
 30
0.0
 40
1.299918638162126
100
AcDbArc
 50
90.0
 51
180.0
  0
ARC
  5
2D7
330
4C
100
AcDbEntity
  8
1
  6
Continuous
 62
     7
100
AcDbCircle
 10
417.5512798842874
 20
443.5663281549029
 30
0.0
 40
0.8999436725734995
100
AcDbArc
 50
270.0
 51
0.00000000005428
  0
ARC
  5
2D8
330
4C
100
AcDbEntity
  8
1
  6
Continuous
 62
     7
100
AcDbCircle
 10
417.5512798842874
 20
443.5663281549029
 30
0.0
 40
0.8999436725734995
100
AcDbArc
 50
270.0
 51
0.00000000005428
  0
ARC
  5
2D9
330
4C
100
AcDbEntity
  8
1
  6
Continuous
 62
     7
100
AcDbCircle
 10
458.448720115709
 20
443.8803085028909
 30
0.0
 40
0.5999624483829962
100
AcDbArc
 50
90.0
 51
180.0000000000869
  0
ARC
  5
2DA
330
4C
100
AcDbEntity
  8
1
  6
Continuous
 62
     7
100
AcDbCircle
 10
458.448720115709
 20
443.8803085028909
 30
0.0
 40
0.5999624483829962
100
AcDbArc
 50
90.0
 51
180.0000000000869
  0
ARC
  5
2DB
330
4C
100
AcDbEntity
  8
1
  6
Continuous
 62
     7
100
AcDbCircle
 10
458.448720115709
 20
445.7801895894342
 30
0.0
 40
1.299918638160307
100
AcDbArc
 50
270.0
 51
0.0
  0
ARC
  5
2DC
330
4C
100
AcDbEntity
  8
1
  6
Continuous
 62
     7
100
AcDbCircle
 10
458.448720115709
 20
446.7801270034058
 30
0.0
 40
1.299918638162069
100
AcDbArc
 50
0.00000000003758
 51
90.0
  0
ARC
  5
2DD
330
4C
100
AcDbEntity
  8
1
  6
Continuous
 62
     7
100
AcDbCircle
 10
458.448720115709
 20
907.9542158630928
 30
0.0
 40
1.299918638161216
100
AcDbArc
 50
270.0
 51
352.2017012981842
  0
ARC
  5
2DE
330
4C
100
AcDbEntity
  8
1
  6
Continuous
 62
     7
100
AcDbCircle
 10
417.5512798842874
 20
449.4954323783531
 30
0.0
 40
0.5999624483828825
100
AcDbArc
 50
359.9999999999131
 51
90.0
  0
ARC
  5
2DF
330
4C
100
AcDbEntity
  8
1
  6
Continuous
 62
     7
100
AcDbCircle
 10
417.5512798842874
 20
451.3953134648983
 30
0.0
 40
1.299918638162069
100
AcDbArc
 50
179.9999999999624
 51
270.0
  0
ARC
  5
2E0
330
4C
100
AcDbEntity
  8
1
  6
Continuous
 62
     7
100
AcDbCircle
 10
417.5512798842874
 20
454.5951131896064
 30
0.0
 40
0.8999436725734995
100
AcDbArc
 50
270.0
 51
0.00000000005428
  0
ARC
  5
2E1
330
4C
100
AcDbEntity
  8
1
  6
Continuous
 62
     7
100
AcDbCircle
 10
417.5512798842874
 20
452.3952508788707
 30
0.0
 40
1.299918638162239
100
AcDbArc
 50
90.0
 51
180.0
  0
ARC
  5
2E2
330
4C
100
AcDbEntity
  8
1
  6
Continuous
 62
     7
100
AcDbCircle
 10
458.448720115709
 20
454.9090935375943
 30
0.0
 40
0.5999624483829962
100
AcDbArc
 50
90.0
 51
180.0000000000869
  0
ARC
  5
2E3
330
4C
100
AcDbEntity
  8
1
  6
Continuous
 62
     7
100
AcDbCircle
 10
458.448720115709
 20
456.8089746241377
 30
0.0
 40
1.29991863816042
100
AcDbArc
 50
270.0
 51
0.0
  0
ARC
  5
2E4
330
4C
100
AcDbEntity
  8
1
  6
Continuous
 62
     7
100
AcDbCircle
 10
458.448720115709
 20
449.0094627951648
 30
0.0
 40
0.899943672574409
100
AcDbArc
 50
180.0000000000507
 51
270.0
  0
ARC
  5
2E5
330
4C
100
AcDbEntity
  8
1
  6
Continuous
 62
     7
100
AcDbCircle
 10
417.5512798842874
 20
449.4954323783531
 30
0.0
 40
0.5999624483828825
100
AcDbArc
 50
359.9999999999131
 51
90.0
  0
ARC
  5
2E6
330
4C
100
AcDbEntity
  8
1
  6
Continuous
 62
     7
100
AcDbCircle
 10
417.5512798842874
 20
451.3953134648983
 30
0.0
 40
1.299918638162069
100
AcDbArc
 50
179.9999999999624
 51
270.0
  0
ARC
  5
2E7
330
4C
100
AcDbEntity
  8
1
  6
Continuous
 62
     7
100
AcDbCircle
 10
417.5512798842874
 20
452.3952508788707
 30
0.0
 40
1.299918638162239
100
AcDbArc
 50
90.0
 51
180.0
  0
ARC
  5
2E8
330
4C
100
AcDbEntity
  8
1
  6
Continuous
 62
     7
100
AcDbCircle
 10
417.5512798842874
 20
454.5951131896064
 30
0.0
 40
0.8999436725734995
100
AcDbArc
 50
270.0
 51
0.00000000005428
  0
ARC
  5
2E9
330
4C
100
AcDbEntity
  8
1
  6
Continuous
 62
     7
100
AcDbCircle
 10
417.5512798842874
 20
460.4947439320359
 30
0.0
 40
0.5999624483828825
100
AcDbArc
 50
0.0
 51
90.0
  0
ARC
  5
2EA
330
4C
100
AcDbEntity
  8
1
  6
Continuous
 62
     7
100
AcDbCircle
 10
417.5512798842874
 20
462.3946250185819
 30
0.0
 40
1.299918638162069
100
AcDbArc
 50
180.0000000000451
 51
270.0
  0
ARC
  5
2EB
330
4C
100
AcDbEntity
  8
1
  6
Continuous
 62
     7
100
AcDbCircle
 10
417.5512798842874
 20
465.5944247432909
 30
0.0
 40
0.899943672574409
100
AcDbArc
 50
270.0
 51
359.9999999999421
  0
ARC
  5
2EC
330
4C
100
AcDbEntity
  8
1
  6
Continuous
 62
     7
100
AcDbCircle
 10
417.5512798842874
 20
463.3945624325544
 30
0.0
 40
1.299918638162126
100
AcDbArc
 50
90.0
 51
180.0000000000376
  0
ARC
  5
2ED
330
4C
100
AcDbEntity
  8
1
  6
Continuous
 62
     7
100
AcDbCircle
 10
417.5512798842874
 20
471.4940554857204
 30
0.0
 40
0.5999624483828825
100
AcDbArc
 50
359.9999999999131
 51
90.0
  0
ARC
  5
2EE
330
4C
100
AcDbEntity
  8
1
  6
Continuous
 62
     7
100
AcDbCircle
 10
417.5512798842874
 20
473.3939365722646
 30
0.0
 40
1.299918638162069
100
AcDbArc
 50
180.0
 51
270.0
  0
ARC
  5
2EF
330
4C
100
AcDbEntity
  8
1
  6
Continuous
 62
     7
100
AcDbCircle
 10
417.5512798842874
 20
474.3938739862343
 30
0.0
 40
1.299918638164854
100
AcDbArc
 50
90.0
 51
180.0
  0
ARC
  5
2F0
330
4C
100
AcDbEntity
  8
1
  6
Continuous
 62
     7
100
AcDbCircle
 10
417.5512798842874
 20
476.5937362969718
 30
0.0
 40
0.8999436725726468
100
AcDbArc
 50
270.0
 51
0.00000000011219
  0
ARC
  5
2F1
330
4C
100
AcDbEntity
  8
1
  6
Continuous
 62
     7
100
AcDbCircle
 10
417.5512798842874
 20
482.4933670394013
 30
0.0
 40
0.5999624483828825
100
AcDbArc
 50
0.0
 51
90.0
  0
ARC
  5
2F2
330
4C
100
AcDbEntity
  8
1
  6
Continuous
 62
     7
100
AcDbCircle
 10
417.5512798842874
 20
484.3932481259471
 30
0.0
 40
1.299918638162069
100
AcDbArc
 50
180.000000000035
 51
270.0
  0
ARC
  5
2F3
330
4C
100
AcDbEntity
  8
1
  6
Continuous
 62
     7
100
AcDbCircle
 10
417.5512798842874
 20
487.5930478506572
 30
0.0
 40
0.8999436725762848
100
AcDbArc
 50
270.0
 51
359.9999999999385
  0
ARC
  5
2F4
330
4C
100
AcDbEntity
  8
1
  6
Continuous
 62
     7
100
AcDbCircle
 10
417.5512798842874
 20
485.3931855399197
 30
0.0
 40
1.299918638161159
100
AcDbArc
 50
90.0
 51
180.0000000000401
  0
ARC
  5
2F5
330
4C
100
AcDbEntity
  8
1
  6
Continuous
 62
     7
100
AcDbCircle
 10
417.5512798842874
 20
493.4926785930838
 30
0.0
 40
0.5999624483828825
100
AcDbArc
 50
0.0
 51
90.0
  0
ARC
  5
2F6
330
4C
100
AcDbEntity
  8
1
  6
Continuous
 62
     7
100
AcDbCircle
 10
417.5512798842874
 20
495.3925596796298
 30
0.0
 40
1.299918638162069
100
AcDbArc
 50
180.0000000000401
 51
270.0
  0
ARC
  5
2F7
330
4C
100
AcDbEntity
  8
1
  6
Continuous
 62
     7
100
AcDbCircle
 10
417.5512798842874
 20
496.3924970936023
 30
0.0
 40
1.299918638162126
100
AcDbArc
 50
90.0
 51
180.0000000000401
  0
ARC
  5
2F8
330
4C
100
AcDbEntity
  8
1
  6
Continuous
 62
     7
100
AcDbCircle
 10
417.5512798842874
 20
498.5923594043388
 30
0.0
 40
0.899943672574409
100
AcDbArc
 50
270.0
 51
359.9999999999421
  0
ARC
  5
2F9
330
4C
100
AcDbEntity
  8
1
  6
Continuous
 62
     7
100
AcDbCircle
 10
417.5512798842874
 20
504.4919901467692
 30
0.0
 40
0.5999624483828825
100
AcDbArc
 50
359.9999999999131
 51
90.0
  0
ARC
  5
2FA
330
4C
100
AcDbEntity
  8
1
  6
Continuous
 62
     7
100
AcDbCircle
 10
417.5512798842874
 20
506.3918712333143
 30
0.0
 40
1.299918638162069
100
AcDbArc
 50
180.0000000000401
 51
270.0
  0
ARC
  5
2FB
330
4C
100
AcDbEntity
  8
1
  6
Continuous
 62
     7
100
AcDbCircle
 10
417.5512798842874
 20
509.5916709580224
 30
0.0
 40
0.8999436725753185
100
AcDbArc
 50
270.0
 51
0.0
  0
ARC
  5
2FC
330
4C
100
AcDbEntity
  8
1
  6
Continuous
 62
     7
100
AcDbCircle
 10
417.5512798842874
 20
507.3918086472822
 30
0.0
 40
1.299918638164911
100
AcDbArc
 50
90.0
 51
180.0
  0
ARC
  5
2FD
330
4C
100
AcDbEntity
  8
1
  6
Continuous
 62
     7
100
AcDbCircle
 10
417.5512798842874
 20
515.4913017004492
 30
0.0
 40
0.5999624483828825
100
AcDbArc
 50
0.0
 51
90.0
  0
ARC
  5
2FE
330
4C
100
AcDbEntity
  8
1
  6
Continuous
 62
     7
100
AcDbCircle
 10
417.5512798842874
 20
517.3911827869953
 30
0.0
 40
1.299918638162069
100
AcDbArc
 50
180.0000000000401
 51
270.0
  0
ARC
  5
2FF
330
4C
100
AcDbEntity
  8
1
  6
Continuous
 62
     7
100
AcDbCircle
 10
458.448720115709
 20
449.0094627951648
 30
0.0
 40
0.899943672574409
100
AcDbArc
 50
180.0000000000507
 51
270.0
  0
ARC
  5
300
330
4C
100
AcDbEntity
  8
1
  6
Continuous
 62
     7
100
AcDbCircle
 10
458.448720115709
 20
454.9090935375943
 30
0.0
 40
0.5999624483829962
100
AcDbArc
 50
90.0
 51
180.0000000000869
  0
ARC
  5
301
330
4C
100
AcDbEntity
  8
1
  6
Continuous
 62
     7
100
AcDbCircle
 10
458.448720115709
 20
456.8089746241377
 30
0.0
 40
1.29991863816042
100
AcDbArc
 50
270.0
 51
0.0
  0
ARC
  5
302
330
4C
100
AcDbEntity
  8
1
  6
Continuous
 62
     7
100
AcDbCircle
 10
458.448720115709
 20
457.8089120381093
 30
0.0
 40
1.299918638162069
100
AcDbArc
 50
0.00000000003758
 51
90.0
  0
ARC
  5
303
330
4C
100
AcDbEntity
  8
1
  6
Continuous
 62
     7
100
AcDbCircle
 10
458.448720115709
 20
460.0087743488485
 30
0.0
 40
0.899943672574409
100
AcDbArc
 50
180.0000000001122
 51
270.0
  0
ARC
  5
304
330
4C
100
AcDbEntity
  8
1
  6
Continuous
 62
     7
100
AcDbCircle
 10
458.448720115709
 20
465.9084050912753
 30
0.0
 40
0.5999624483856678
100
AcDbArc
 50
90.0
 51
179.9999999999131
  0
ARC
  5
305
330
4C
100
AcDbEntity
  8
1
  6
Continuous
 62
     7
100
AcDbCircle
 10
458.448720115709
 20
467.8082861778213
 30
0.0
 40
1.299918638160307
100
AcDbArc
 50
270.0
 51
0.00000000003508
  0
ARC
  5
306
330
4C
100
AcDbEntity
  8
1
  6
Continuous
 62
     7
100
AcDbCircle
 10
458.448720115709
 20
471.0080859025312
 30
0.0
 40
0.899943672574409
100
AcDbArc
 50
180.0000000000651
 51
270.0
  0
ARC
  5
307
330
4C
100
AcDbEntity
  8
1
  6
Continuous
 62
     7
100
AcDbCircle
 10
458.448720115709
 20
468.8082235917919
 30
0.0
 40
1.299918638162069
100
AcDbArc
 50
0.0
 51
90.0
  0
ARC
  5
308
330
4C
100
AcDbEntity
  8
1
  6
Continuous
 62
     7
100
AcDbCircle
 10
458.448720115709
 20
476.9077166449598
 30
0.0
 40
0.5999624483848152
100
AcDbArc
 50
90.0
 51
180.0000000001737
  0
ARC
  5
309
330
4C
100
AcDbEntity
  8
1
  6
Continuous
 62
     7
100
AcDbCircle
 10
458.448720115709
 20
478.8075977315039
 30
0.0
 40
1.299918638159284
100
AcDbArc
 50
270.0
 51
0.0
  0
ARC
  5
30A
330
4C
100
AcDbEntity
  8
1
  6
Continuous
 62
     7
100
AcDbCircle
 10
458.448720115709
 20
479.8075351454773
 30
0.0
 40
1.299918638162069
100
AcDbArc
 50
359.9999999999599
 51
90.0
  0
ARC
  5
30B
330
4C
100
AcDbEntity
  8
1
  6
Continuous
 62
     7
100
AcDbCircle
 10
458.448720115709
 20
482.007397456213
 30
0.0
 40
0.899943672574409
100
AcDbArc
 50
180.0
 51
270.0
  0
ARC
  5
30C
330
4C
100
AcDbEntity
  8
1
  6
Continuous
 62
     7
100
AcDbCircle
 10
458.448720115709
 20
487.9070281986425
 30
0.0
 40
0.5999624483828256
100
AcDbArc
 50
90.0
 51
180.0
  0
ARC
  5
30D
330
4C
100
AcDbEntity
  8
1
  6
Continuous
 62
     7
100
AcDbCircle
 10
458.448720115709
 20
489.8069092851883
 30
0.0
 40
1.299918638162978
100
AcDbArc
 50
270.0
 51
359.9999999999599
  0
ARC
  5
30E
330
4C
100
AcDbEntity
  8
1
  6
Continuous
 62
     7
100
AcDbCircle
 10
458.448720115709
 20
493.0067090098964
 30
0.0
 40
0.899943672574409
100
AcDbArc
 50
180.0
 51
270.0
  0
ARC
  5
30F
330
4C
100
AcDbEntity
  8
1
  6
Continuous
 62
     7
100
AcDbCircle
 10
458.448720115709
 20
490.8068466991572
 30
0.0
 40
1.299918638162069
100
AcDbArc
 50
0.0
 51
90.0
  0
ARC
  5
310
330
4C
100
AcDbEntity
  8
1
  6
Continuous
 62
     7
100
AcDbCircle
 10
458.448720115709
 20
498.9063397523232
 30
0.0
 40
0.5999624483856678
100
AcDbArc
 50
90.0
 51
180.0
  0
ARC
  5
311
330
4C
100
AcDbEntity
  8
1
  6
Continuous
 62
     7
100
AcDbCircle
 10
458.448720115709
 20
500.8062208388692
 30
0.0
 40
1.299918638160307
100
AcDbArc
 50
270.0
 51
0.00000000004009
  0
ARC
  5
312
330
4C
100
AcDbEntity
  8
1
  6
Continuous
 62
     7
100
AcDbCircle
 10
458.448720115709
 20
501.8061582528426
 30
0.0
 40
1.299918638162069
100
AcDbArc
 50
359.9999999999649
 51
90.0
  0
ARC
  5
313
330
4C
100
AcDbEntity
  8
1
  6
Continuous
 62
     7
100
AcDbCircle
 10
458.448720115709
 20
504.0060205635791
 30
0.0
 40
0.899943672574409
100
AcDbArc
 50
180.0000000000579
 51
270.0
  0
ARC
  5
314
330
4C
100
AcDbEntity
  8
1
  6
Continuous
 62
     7
100
AcDbCircle
 10
458.448720115709
 20
511.8055323925537
 30
0.0
 40
1.299918638161103
100
AcDbArc
 50
270.0
 51
359.9999999999599
  0
ARC
  5
315
330
4C
100
AcDbEntity
  8
1
  6
Continuous
 62
     7
100
AcDbCircle
 10
458.448720115709
 20
515.0053321172618
 30
0.0
 40
0.899943672574409
100
AcDbArc
 50
180.0000000000579
 51
270.0
  0
ARC
  5
316
330
4C
100
AcDbEntity
  8
1
  6
Continuous
 62
     7
100
AcDbCircle
 10
458.448720115709
 20
512.8054698065254
 30
0.0
 40
1.299918638162069
100
AcDbArc
 50
359.9999999999549
 51
90.0
  0
ARC
  5
317
330
4C
100
AcDbEntity
  8
1
  6
Continuous
 62
     7
100
AcDbCircle
 10
458.448720115709
 20
520.9049628596904
 30
0.0
 40
0.5999624483829393
100
AcDbArc
 50
90.0
 51
180.0
  0
ARC
  5
318
330
4C
100
AcDbEntity
  8
1
  6
Continuous
 62
     7
100
AcDbCircle
 10
458.448720115709
 20
523.8047813602052
 30
0.0
 40
1.299918638162069
100
AcDbArc
 50
0.0
 51
90.0
  0
ARC
  5
319
330
4C
100
AcDbEntity
  8
1
  6
Continuous
 62
     7
100
AcDbCircle
 10
458.448720115709
 20
522.8106261975008
 30
0.0
 40
1.299918638162126
100
AcDbArc
 50
270.0
 51
0.0
  0
ARC
  5
31A
330
4C
100
AcDbEntity
  8
1
  6
Continuous
 62
     7
100
AcDbCircle
 10
458.448720115709
 20
523.8105636114715
 30
0.0
 40
1.299918638162069
100
AcDbArc
 50
0.0
 51
90.0
  0
ARC
  5
31B
330
4C
100
AcDbEntity
  8
1
  6
Continuous
 62
     7
100
AcDbCircle
 10
417.5512798842874
 20
847.5439969354383
 30
0.0
 40
1.299918638162069
100
AcDbArc
 50
180.0
 51
270.0
  0
ARC
  5
31C
330
4C
100
AcDbEntity
  8
1
  6
Continuous
 62
     7
100
AcDbCircle
 10
417.5512798842874
 20
848.5439343494098
 30
0.0
 40
1.299918638162126
100
AcDbArc
 50
90.0
 51
180.0
  0
ARC
  5
31D
330
4C
100
AcDbEntity
  8
1
  6
Continuous
 62
     7
100
AcDbCircle
 10
417.5512798842874
 20
850.7437966601454
 30
0.0
 40
0.8999436725734995
100
AcDbArc
 50
270.0
 51
0.0
  0
ARC
  5
31E
330
4C
100
AcDbEntity
  8
1
  6
Continuous
 62
     7
100
AcDbCircle
 10
417.5512798842874
 20
856.6434274025759
 30
0.0
 40
0.5999624483828825
100
AcDbArc
 50
0.0
 51
90.0
  0
ARC
  5
31F
330
4C
100
AcDbEntity
  8
1
  6
Continuous
 62
     7
100
AcDbCircle
 10
417.5512798842874
 20
858.5433084891209
 30
0.0
 40
1.299918638162069
100
AcDbArc
 50
180.0
 51
270.0
  0
ARC
  5
320
330
4C
100
AcDbEntity
  8
1
  6
Continuous
 62
     7
100
AcDbCircle
 10
417.5512798842874
 20
861.7431082138299
 30
0.0
 40
0.899943672574409
100
AcDbArc
 50
270.0
 51
0.0
  0
ARC
  5
321
330
4C
100
AcDbEntity
  8
1
  6
Continuous
 62
     7
100
AcDbCircle
 10
417.5512798842874
 20
859.5432459030916
 30
0.0
 40
1.299918638163945
100
AcDbArc
 50
90.0
 51
180.0
  0
ARC
  5
322
330
4C
100
AcDbEntity
  8
1
  6
Continuous
 62
     7
100
AcDbCircle
 10
417.5512798842874
 20
867.6427389562585
 30
0.0
 40
0.5999624483828825
100
AcDbArc
 50
0.0
 51
90.0
  0
ARC
  5
323
330
4C
100
AcDbEntity
  8
1
  6
Continuous
 62
     7
100
AcDbCircle
 10
417.5512798842874
 20
869.5426200428036
 30
0.0
 40
1.299918638162069
100
AcDbArc
 50
180.0
 51
270.0
  0
ARC
  5
324
330
4C
100
AcDbEntity
  8
1
  6
Continuous
 62
     7
100
AcDbCircle
 10
417.5512798842874
 20
870.5425574567752
 30
0.0
 40
1.299918638163035
100
AcDbArc
 50
90.0
 51
180.0
  0
ARC
  5
325
330
4C
100
AcDbEntity
  8
1
  6
Continuous
 62
     7
100
AcDbCircle
 10
417.5512798842874
 20
872.7424197675126
 30
0.0
 40
0.899943672574409
100
AcDbArc
 50
270.0
 51
0.0
  0
ARC
  5
326
330
4C
100
AcDbEntity
  8
1
  6
Continuous
 62
     7
100
AcDbCircle
 10
417.5512798842874
 20
878.6420505099412
 30
0.0
 40
0.5999624483828825
100
AcDbArc
 50
0.0
 51
90.0
  0
ARC
  5
327
330
4C
100
AcDbEntity
  8
1
  6
Continuous
 62
     7
100
AcDbCircle
 10
417.5512798842874
 20
880.5419315964863
 30
0.0
 40
1.299918638162069
100
AcDbArc
 50
180.0
 51
270.0
  0
ARC
  5
328
330
4C
100
AcDbEntity
  8
1
  6
Continuous
 62
     7
100
AcDbCircle
 10
417.5512798842874
 20
883.7417313211944
 30
0.0
 40
0.8999436725734995
100
AcDbArc
 50
270.0
 51
0.0
  0
ARC
  5
329
330
4C
100
AcDbEntity
  8
1
  6
Continuous
 62
     7
100
AcDbCircle
 10
417.5512798842874
 20
881.5418690104578
 30
0.0
 40
1.299918638163035
100
AcDbArc
 50
90.0
 51
180.0
  0
ARC
  5
32A
330
4C
100
AcDbEntity
  8
1
  6
Continuous
 62
     7
100
AcDbCircle
 10
417.5512798842874
 20
889.6413620636248
 30
0.0
 40
0.5999624483828825
100
AcDbArc
 50
0.0
 51
90.0
  0
ARC
  5
32B
330
4C
100
AcDbEntity
  8
1
  6
Continuous
 62
     7
100
AcDbCircle
 10
417.5512798842874
 20
891.5412431501699
 30
0.0
 40
1.299918638162069
100
AcDbArc
 50
180.0
 51
270.0
  0
ARC
  5
32C
330
4C
100
AcDbEntity
  8
1
  6
Continuous
 62
     7
100
AcDbCircle
 10
417.5512798842874
 20
892.5411805641405
 30
0.0
 40
1.299918638163035
100
AcDbArc
 50
90.0
 51
180.0
  0
ARC
  5
32D
330
4C
100
AcDbEntity
  8
1
  6
Continuous
 62
     7
100
AcDbCircle
 10
417.5512798842874
 20
894.7410428748789
 30
0.0
 40
0.8999436725753185
100
AcDbArc
 50
270.0
 51
0.0
  0
ARC
  5
32E
330
4C
100
AcDbEntity
  8
1
  6
Continuous
 62
     7
100
AcDbCircle
 10
417.5512798842874
 20
900.6406736173075
 30
0.0
 40
0.5999624483828825
100
AcDbArc
 50
0.0
 51
90.0
  0
ARC
  5
32F
330
4C
100
AcDbEntity
  8
1
  6
Continuous
 62
     7
100
AcDbCircle
 10
417.5512798842874
 20
902.5405547038525
 30
0.0
 40
1.299918638162069
100
AcDbArc
 50
180.0
 51
270.0
  0
ARC
  5
330
330
4C
100
AcDbEntity
  8
1
  6
Continuous
 62
     7
100
AcDbCircle
 10
417.5512798842874
 20
905.7403544285615
 30
0.0
 40
0.8999436725753185
100
AcDbArc
 50
270.0
 51
0.0
  0
ARC
  5
331
330
4C
100
AcDbEntity
  8
1
  6
Continuous
 62
     7
100
AcDbCircle
 10
417.5512798842874
 20
903.5404921178241
 30
0.0
 40
1.299918638162126
100
AcDbArc
 50
90.0
 51
180.0
  0
ARC
  5
332
330
4C
100
AcDbEntity
  8
1
  6
Continuous
 62
     7
100
AcDbCircle
 10
458.448720115709
 20
852.9576580946785
 30
0.0
 40
1.299918638163035
100
AcDbArc
 50
270.0
 51
0.0
  0
ARC
  5
333
330
4C
100
AcDbEntity
  8
1
  6
Continuous
 62
     7
100
AcDbCircle
 10
458.448720115709
 20
853.9575955086492
 30
0.0
 40
1.299918638162069
100
AcDbArc
 50
0.0
 51
90.0
  0
ARC
  5
334
330
4C
100
AcDbEntity
  8
1
  6
Continuous
 62
     7
100
AcDbCircle
 10
458.448720115709
 20
856.1574578193857
 30
0.0
 40
0.899943672574409
100
AcDbArc
 50
180.0
 51
270.0
  0
ARC
  5
335
330
4C
100
AcDbEntity
  8
1
  6
Continuous
 62
     7
100
AcDbCircle
 10
458.448720115709
 20
862.0570885618152
 30
0.0
 40
0.5999624483829393
100
AcDbArc
 50
90.0
 51
180.0
  0
ARC
  5
336
330
4C
100
AcDbEntity
  8
1
  6
Continuous
 62
     7
100
AcDbCircle
 10
458.448720115709
 20
863.9569696483603
 30
0.0
 40
1.299918638162126
100
AcDbArc
 50
270.0
 51
0.0
  0
ARC
  5
337
330
4C
100
AcDbEntity
  8
1
  6
Continuous
 62
     7
100
AcDbCircle
 10
458.448720115709
 20
867.1567693730684
 30
0.0
 40
0.899943672574409
100
AcDbArc
 50
180.0
 51
270.0
  0
ARC
  5
338
330
4C
100
AcDbEntity
  8
1
  6
Continuous
 62
     7
100
AcDbCircle
 10
458.448720115709
 20
864.9569070623319
 30
0.0
 40
1.299918638162069
100
AcDbArc
 50
0.0
 51
90.0
  0
ARC
  5
339
330
4C
100
AcDbEntity
  8
1
  6
Continuous
 62
     7
100
AcDbCircle
 10
458.448720115709
 20
873.0564001154988
 30
0.0
 40
0.5999624483820298
100
AcDbArc
 50
90.0
 51
180.0
  0
ARC
  5
33A
330
4C
100
AcDbEntity
  8
1
  6
Continuous
 62
     7
100
AcDbCircle
 10
458.448720115709
 20
874.9562812020439
 30
0.0
 40
1.299918638163035
100
AcDbArc
 50
270.0
 51
0.0
  0
ARC
  5
33B
330
4C
100
AcDbEntity
  8
1
  6
Continuous
 62
     7
100
AcDbCircle
 10
458.448720115709
 20
875.9562186160146
 30
0.0
 40
1.299918638162069
100
AcDbArc
 50
0.0
 51
90.0
  0
ARC
  5
33C
330
4C
100
AcDbEntity
  8
1
  6
Continuous
 62
     7
100
AcDbCircle
 10
458.448720115709
 20
878.1560809267511
 30
0.0
 40
0.899943672574409
100
AcDbArc
 50
180.0
 51
270.0
  0
ARC
  5
33D
330
4C
100
AcDbEntity
  8
1
  6
Continuous
 62
     7
100
AcDbCircle
 10
458.448720115709
 20
884.0557116691815
 30
0.0
 40
0.5999624483829393
100
AcDbArc
 50
90.0
 51
180.0
  0
ARC
  5
33E
330
4C
100
AcDbEntity
  8
1
  6
Continuous
 62
     7
100
AcDbCircle
 10
458.448720115709
 20
885.9555927557266
 30
0.0
 40
1.299918638162126
100
AcDbArc
 50
270.0
 51
0.0
  0
ARC
  5
33F
330
4C
100
AcDbEntity
  8
1
  6
Continuous
 62
     7
100
AcDbCircle
 10
458.448720115709
 20
889.1553924804356
 30
0.0
 40
0.899943672574409
100
AcDbArc
 50
180.0
 51
270.0
  0
ARC
  5
340
330
4C
100
AcDbEntity
  8
1
  6
Continuous
 62
     7
100
AcDbCircle
 10
458.448720115709
 20
886.9555301696981
 30
0.0
 40
1.299918638162069
100
AcDbArc
 50
0.0
 51
90.0
  0
ARC
  5
341
330
4C
100
AcDbEntity
  8
1
  6
Continuous
 62
     7
100
AcDbCircle
 10
458.448720115709
 20
895.0550232228642
 30
0.0
 40
0.5999624483829393
100
AcDbArc
 50
90.0
 51
180.0
  0
ARC
  5
342
330
4C
100
AcDbEntity
  8
1
  6
Continuous
 62
     7
100
AcDbCircle
 10
458.448720115709
 20
896.9549043094092
 30
0.0
 40
1.299918638162126
100
AcDbArc
 50
270.0
 51
0.0
  0
ARC
  5
343
330
4C
100
AcDbEntity
  8
1
  6
Continuous
 62
     7
100
AcDbCircle
 10
458.448720115709
 20
897.9548417233808
 30
0.0
 40
1.299918638162069
100
AcDbArc
 50
0.0
 51
90.0
  0
ARC
  5
344
330
4C
100
AcDbEntity
  8
1
  6
Continuous
 62
     7
100
AcDbCircle
 10
458.448720115709
 20
900.1547040341173
 30
0.0
 40
0.899943672574409
100
AcDbArc
 50
180.0
 51
270.0
  0
ARC
  5
345
330
4C
100
AcDbEntity
  8
1
  6
Continuous
 62
     7
100
AcDbCircle
 10
458.448720115709
 20
906.0543347765478
 30
0.0
 40
0.5999624483838488
100
AcDbArc
 50
90.0
 51
180.0
  0
ARC
  5
346
330
4C
100
AcDbEntity
  8
1
  6
Continuous
 62
     7
100
AcDbCircle
 10
417.5512798842874
 20
1021.63310070782
 30
0.0
 40
0.5999624483828825
100
AcDbArc
 50
0.0
 51
90.0
  0
ARC
  5
347
330
4C
100
AcDbEntity
  8
1
  6
Continuous
 62
     7
100
AcDbCircle
 10
417.5512798842874
 20
1023.532981794366
 30
0.0
 40
1.299918638162069
100
AcDbArc
 50
180.0
 51
270.0
  0
ARC
  5
348
330
4C
100
AcDbEntity
  8
1
  6
Continuous
 62
     7
100
AcDbCircle
 10
417.5512798842874
 20
1026.732781519072
 30
0.0
 40
0.8999436725730448
100
AcDbArc
 50
270.0
 51
0.0
  0
ARC
  5
349
330
4C
100
AcDbEntity
  8
1
  6
Continuous
 62
     7
100
AcDbCircle
 10
417.5512798842874
 20
1024.532919208336
 30
0.0
 40
1.299918638163035
100
AcDbArc
 50
90.0
 51
180.0
  0
ARC
  5
34A
330
4C
100
AcDbEntity
  8
1
  6
Continuous
 62
     7
100
AcDbCircle
 10
417.5512798842874
 20
999.634477600453
 30
0.0
 40
0.5999624483828825
100
AcDbArc
 50
0.0
 51
90.0
  0
ARC
  5
34B
330
4C
100
AcDbEntity
  8
1
  6
Continuous
 62
     7
100
AcDbCircle
 10
417.5512798842874
 20
1001.534358686999
 30
0.0
 40
1.299918638162069
100
AcDbArc
 50
180.0
 51
270.0
  0
ARC
  5
34C
330
4C
100
AcDbEntity
  8
1
  6
Continuous
 62
     7
100
AcDbCircle
 10
417.5512798842874
 20
1002.534296100971
 30
0.0
 40
1.299918638160989
100
AcDbArc
 50
90.0
 51
180.0
  0
ARC
  5
34D
330
4C
100
AcDbEntity
  8
1
  6
Continuous
 62
     7
100
AcDbCircle
 10
417.5512798842874
 20
1004.734158411707
 30
0.0
 40
0.8999436725749774
100
AcDbArc
 50
270.0
 51
0.0
  0
ARC
  5
34E
330
4C
100
AcDbEntity
  8
1
  6
Continuous
 62
     7
100
AcDbCircle
 10
417.5512798842874
 20
1010.633789154137
 30
0.0
 40
0.5999624483828825
100
AcDbArc
 50
0.0
 51
90.0
  0
ARC
  5
34F
330
4C
100
AcDbEntity
  8
1
  6
Continuous
 62
     7
100
AcDbCircle
 10
417.5512798842874
 20
1012.533670240683
 30
0.0
 40
1.299918638162069
100
AcDbArc
 50
180.0
 51
270.0
  0
ARC
  5
350
330
4C
100
AcDbEntity
  8
1
  6
Continuous
 62
     7
100
AcDbCircle
 10
417.5512798842874
 20
1015.73346996539
 30
0.0
 40
0.8999436725749774
100
AcDbArc
 50
270.0
 51
0.0
  0
ARC
  5
351
330
4C
100
AcDbEntity
  8
1
  6
Continuous
 62
     7
100
AcDbCircle
 10
417.5512798842874
 20
1013.533607654654
 30
0.0
 40
1.299918638160989
100
AcDbArc
 50
90.0
 51
180.0
  0
ARC
  5
352
330
4C
100
AcDbEntity
  8
1
  6
Continuous
 62
     7
100
AcDbCircle
 10
458.448720115709
 20
1027.04676186706
 30
0.0
 40
0.5999624483820298
100
AcDbArc
 50
90.0
 51
180.0
  0
ARC
  5
353
330
4C
100
AcDbEntity
  8
1
  6
Continuous
 62
     7
100
AcDbCircle
 10
458.448720115709
 20
1028.946642953606
 30
0.0
 40
1.299918638163945
100
AcDbArc
 50
270.0
 51
0.0
  0
ARC
  5
354
330
4C
100
AcDbEntity
  8
1
  6
Continuous
 62
     7
100
AcDbCircle
 10
458.448720115709
 20
999.148508017263
 30
0.0
 40
0.899943672574409
100
AcDbArc
 50
180.0
 51
270.0
  0
ARC
  5
355
330
4C
100
AcDbEntity
  8
1
  6
Continuous
 62
     7
100
AcDbCircle
 10
458.448720115709
 20
996.948645706528
 30
0.0
 40
1.299918638162066
100
AcDbArc
 50
39.3121247014373
 51
90.0
  0
ARC
  5
356
330
4C
100
AcDbEntity
  8
1
  6
Continuous
 62
     7
100
AcDbCircle
 10
458.448720115709
 20
1005.048138759695
 30
0.0
 40
0.5999624483820298
100
AcDbArc
 50
90.0
 51
180.0
  0
ARC
  5
357
330
4C
100
AcDbEntity
  8
1
  6
Continuous
 62
     7
100
AcDbCircle
 10
458.448720115709
 20
1006.94801984624
 30
0.0
 40
1.299918638162922
100
AcDbArc
 50
270.0
 51
0.0
  0
ARC
  5
358
330
4C
100
AcDbEntity
  8
1
  6
Continuous
 62
     7
100
AcDbCircle
 10
458.448720115709
 20
1007.94795726021
 30
0.0
 40
1.299918638162069
100
AcDbArc
 50
0.0
 51
90.0
  0
ARC
  5
359
330
4C
100
AcDbEntity
  8
1
  6
Continuous
 62
     7
100
AcDbCircle
 10
458.448720115709
 20
1010.147819570947
 30
0.0
 40
0.899943672574409
100
AcDbArc
 50
180.0
 51
270.0
  0
ARC
  5
35A
330
4C
100
AcDbEntity
  8
1
  6
Continuous
 62
     7
100
AcDbCircle
 10
458.448720115709
 20
1016.047450313376
 30
0.0
 40
0.599962448383053
100
AcDbArc
 50
90.0
 51
180.0
  0
ARC
  5
35B
330
4C
100
AcDbEntity
  8
1
  6
Continuous
 62
     7
100
AcDbCircle
 10
458.448720115709
 20
1017.947331399922
 30
0.0
 40
1.299918638162922
100
AcDbArc
 50
270.0
 51
0.0
  0
ARC
  5
35C
330
4C
100
AcDbEntity
  8
1
  6
Continuous
 62
     7
100
AcDbCircle
 10
458.448720115709
 20
1021.14713112463
 30
0.0
 40
0.899943672574409
100
AcDbArc
 50
180.0
 51
270.0
  0
ARC
  5
35D
330
4C
100
AcDbEntity
  8
1
  6
Continuous
 62
     7
100
AcDbCircle
 10
458.448720115709
 20
1018.947268813893
 30
0.0
 40
1.299918638162069
100
AcDbArc
 50
0.0
 51
90.0
  0
ARC
  5
35E
330
4C
100
AcDbEntity
  8
1
  6
Continuous
 62
     7
100
AcDbCircle
 10
417.5512798842874
 20
518.3911202009667
 30
0.0
 40
1.299918638162239
100
AcDbArc
 50
90.0
 51
180.0
  0
ARC
  5
35F
330
4C
100
AcDbEntity
  8
1
  6
Continuous
 62
     7
100
AcDbCircle
 10
458.448720115709
 20
509.9056513060086
 30
0.0
 40
0.5999624483839625
100
AcDbArc
 50
90.0
 51
180.0000000000869
  0
ARC
  5
360
330
4C
100
AcDbEntity
  8
1
  6
Continuous
 62
     7
100
AcDbCircle
 10
458.448720115709
 20
526.01042592221
 30
0.0
 40
0.899943672574409
100
AcDbArc
 50
180.0000000000579
 51
270.0
  0
ARC
  5
361
330
4C
100
AcDbEntity
  8
1
  6
Continuous
 62
     7
100
AcDbCircle
 10
458.448720115709
 20
531.9100566646385
 30
0.0
 40
0.5999624483829393
100
AcDbArc
 50
90.0
 51
180.0
  0
ARC
  5
362
330
4C
100
AcDbEntity
  8
1
  6
Continuous
 62
     7
100
AcDbCircle
 10
417.5512798842874
 20
520.5967647629706
 30
0.0
 40
0.8999436725753185
100
AcDbArc
 50
270.0
 51
0.0
  0
ARC
  5
363
330
4C
100
AcDbEntity
  8
1
  6
Continuous
 62
     7
100
AcDbCircle
 10
417.5512798842874
 20
526.4963955053973
 30
0.0
 40
0.5999624483828825
100
AcDbArc
 50
0.0
 51
90.0
  0
ARC
  5
364
330
4C
100
AcDbEntity
  8
1
  6
Continuous
 62
     7
100
AcDbCircle
 10
458.448720115709
 20
533.815720002449
 30
0.0
 40
1.299918638162126
100
AcDbArc
 50
270.0
 51
0.0
  0
ARC
  5
365
330
4C
100
AcDbEntity
  8
1
  6
Continuous
 62
     7
100
AcDbCircle
 10
458.448720115709
 20
534.8156574164196
 30
0.0
 40
1.299918638162069
100
AcDbArc
 50
0.0
 51
90.0
  0
ARC
  5
366
330
4C
100
AcDbEntity
  8
1
  6
Continuous
 62
     7
100
AcDbCircle
 10
417.5512798842874
 20
528.3962765919434
 30
0.0
 40
1.299918638162069
100
AcDbArc
 50
180.0000000000401
 51
270.0
  0
ARC
  5
367
330
4C
100
AcDbEntity
  8
1
  6
Continuous
 62
     7
100
AcDbCircle
 10
417.5512798842874
 20
526.4963955053973
 30
0.0
 40
0.5999624483828825
100
AcDbArc
 50
0.0
 51
90.0
  0
ARC
  5
368
330
4C
100
AcDbEntity
  8
1
  6
Continuous
 62
     7
100
AcDbCircle
 10
417.5512798842874
 20
529.3962140059149
 30
0.0
 40
1.299918638162239
100
AcDbArc
 50
90.0
 51
180.0
  0
ARC
  5
369
330
4C
100
AcDbEntity
  8
1
  6
Continuous
 62
     7
100
AcDbCircle
 10
417.5512798842874
 20
540.401307810863
 30
0.0
 40
1.299918638162126
100
AcDbArc
 50
90.0
 51
180.0
  0
ARC
  5
36A
330
4C
100
AcDbEntity
  8
1
  6
Continuous
 62
     7
100
AcDbCircle
 10
417.5512798842874
 20
537.5014893103455
 30
0.0
 40
0.5999624483828825
100
AcDbArc
 50
0.0
 51
90.0
  0
ARC
  5
36B
330
4C
100
AcDbEntity
  8
1
  6
Continuous
 62
     7
100
AcDbCircle
 10
417.5512798842874
 20
539.4013703968914
 30
0.0
 40
1.299918638162069
100
AcDbArc
 50
180.000000000035
 51
270.0
  0
ARC
  5
36C
330
4C
100
AcDbEntity
  8
1
  6
Continuous
 62
     7
100
AcDbCircle
 10
458.448720115709
 20
545.8207512213678
 30
0.0
 40
1.299918638162069
100
AcDbArc
 50
0.0
 51
90.0
  0
ARC
  5
36D
330
4C
100
AcDbEntity
  8
1
  6
Continuous
 62
     7
100
AcDbCircle
 10
458.448720115709
 20
544.8208138073971
 30
0.0
 40
1.299918638162126
100
AcDbArc
 50
270.0
 51
0.0
  0
ARC
  5
36E
330
4C
100
AcDbEntity
  8
1
  6
Continuous
 62
     7
100
AcDbCircle
 10
417.5512798842874
 20
537.5014893103455
 30
0.0
 40
0.5999624483828825
100
AcDbArc
 50
0.0
 51
90.0
  0
ARC
  5
36F
330
4C
100
AcDbEntity
  8
1
  6
Continuous
 62
     7
100
AcDbCircle
 10
458.448720115709
 20
542.9151504695867
 30
0.0
 40
0.5999624483829393
100
AcDbArc
 50
90.0
 51
180.0
  0
ARC
  5
370
330
4C
100
AcDbEntity
  8
1
  6
Continuous
 62
     7
100
AcDbCircle
 10
458.448720115709
 20
537.0155197271581
 30
0.0
 40
0.899943672574409
100
AcDbArc
 50
180.0000000000579
 51
270.0
  0
ARC
  5
371
330
4C
100
AcDbEntity
  8
1
  6
Continuous
 62
     7
100
AcDbCircle
 10
417.5512798842874
 20
531.6018585679187
 30
0.0
 40
0.8999436725753185
100
AcDbArc
 50
270.0
 51
0.0
  0
ARC
  5
372
330
4C
100
AcDbEntity
  8
1
  6
Continuous
 62
     7
100
AcDbCircle
 10
417.5512798842874
 20
542.6069523728668
 30
0.0
 40
0.8999436725753185
100
AcDbArc
 50
270.0
 51
0.0
  0
ARC
  5
373
330
4C
100
AcDbEntity
  8
1
  6
Continuous
 62
     7
100
AcDbCircle
 10
458.448720115709
 20
548.0206135321062
 30
0.0
 40
0.899943672574409
100
AcDbArc
 50
180.0000000000579
 51
270.0
  0
ARC
  5
374
330
4C
100
AcDbEntity
  8
1
  6
Continuous
 62
     7
100
AcDbCircle
 10
458.448720115709
 20
553.9202442745348
 30
0.0
 40
0.5999624483829393
100
AcDbArc
 50
90.0
 51
180.0
  0
ARC
  5
375
330
4C
100
AcDbEntity
  8
1
  6
Continuous
 62
     7
100
AcDbCircle
 10
417.5512798842874
 20
548.5065831152936
 30
0.0
 40
0.5999624483828825
100
AcDbArc
 50
0.0
 51
90.0
  0
ARC
  5
376
330
4C
100
AcDbEntity
  8
1
  6
Continuous
 62
     7
100
AcDbCircle
 10
458.448720115709
 20
555.8259076123452
 30
0.0
 40
1.299918638162126
100
AcDbArc
 50
270.0
 51
0.0
  0
ARC
  5
377
330
4C
100
AcDbEntity
  8
1
  6
Continuous
 62
     7
100
AcDbCircle
 10
458.448720115709
 20
556.8258450263158
 30
0.0
 40
1.299918638162069
100
AcDbArc
 50
0.0
 51
90.0
  0
ARC
  5
378
330
4C
100
AcDbEntity
  8
1
  6
Continuous
 62
     7
100
AcDbCircle
 10
417.5512798842874
 20
550.4064642018395
 30
0.0
 40
1.299918638162069
100
AcDbArc
 50
180.0000000000401
 51
270.0
  0
ARC
  5
379
330
4C
100
AcDbEntity
  8
1
  6
Continuous
 62
     7
100
AcDbCircle
 10
417.5512798842874
 20
548.5065831152936
 30
0.0
 40
0.5999624483828825
100
AcDbArc
 50
0.0
 51
90.0
  0
ARC
  5
37A
330
4C
100
AcDbEntity
  8
1
  6
Continuous
 62
     7
100
AcDbCircle
 10
417.5512798842874
 20
551.4064016158111
 30
0.0
 40
1.299918638162126
100
AcDbArc
 50
90.0
 51
180.0
  0
ARC
  5
37B
330
4C
100
AcDbEntity
  8
1
  6
Continuous
 62
     7
100
AcDbCircle
 10
417.5512798842874
 20
553.6120461778148
 30
0.0
 40
0.8999436725752048
100
AcDbArc
 50
270.0
 51
0.0
  0
ARC
  5
37C
330
4C
100
AcDbEntity
  8
1
  6
Continuous
 62
     7
100
AcDbCircle
 10
458.448720115709
 20
559.0257073370543
 30
0.0
 40
0.899943672574409
100
AcDbArc
 50
180.0000000000579
 51
270.0
  0
ARC
  5
37D
330
4C
100
AcDbEntity
  8
1
  6
Continuous
 62
     7
100
AcDbCircle
 10
458.448720115709
 20
564.9253380794829
 30
0.0
 40
0.5999624483828256
100
AcDbArc
 50
90.0
 51
180.0
  0
ARC
  5
37E
330
4C
100
AcDbEntity
  8
1
  6
Continuous
 62
     7
100
AcDbCircle
 10
417.5512798842874
 20
559.5116769202417
 30
0.0
 40
0.5999624483828825
100
AcDbArc
 50
0.0
 51
90.0
  0
ARC
  5
37F
330
4C
100
AcDbEntity
  8
1
  6
Continuous
 62
     7
100
AcDbCircle
 10
458.448720115709
 20
566.8310014172932
 30
0.0
 40
1.299918638162126
100
AcDbArc
 50
270.0
 51
0.0
  0
ARC
  5
380
330
4C
100
AcDbEntity
  8
1
  6
Continuous
 62
     7
100
AcDbCircle
 10
458.448720115709
 20
567.830938831264
 30
0.0
 40
1.299918638162069
100
AcDbArc
 50
0.0
 51
90.0
  0
ARC
  5
381
330
4C
100
AcDbEntity
  8
1
  6
Continuous
 62
     7
100
AcDbCircle
 10
417.5512798842874
 20
561.4115580067876
 30
0.0
 40
1.299918638162069
100
AcDbArc
 50
180.0000000000401
 51
270.0
  0
ARC
  5
382
330
4C
100
AcDbEntity
  8
1
  6
Continuous
 62
     7
100
AcDbCircle
 10
417.5512798842874
 20
559.5116769202417
 30
0.0
 40
0.5999624483828825
100
AcDbArc
 50
0.0
 51
90.0
  0
ARC
  5
383
330
4C
100
AcDbEntity
  8
1
  6
Continuous
 62
     7
100
AcDbCircle
 10
417.5512798842874
 20
562.4114954207591
 30
0.0
 40
1.299918638162126
100
AcDbArc
 50
90.0
 51
180.0
  0
ARC
  5
384
330
4C
100
AcDbEntity
  8
1
  6
Continuous
 62
     7
100
AcDbCircle
 10
417.5512798842874
 20
564.617139982763
 30
0.0
 40
0.8999436725753185
100
AcDbArc
 50
270.0
 51
0.0
  0
ARC
  5
385
330
4C
100
AcDbEntity
  8
1
  6
Continuous
 62
     7
100
AcDbCircle
 10
458.448720115709
 20
570.0308011420024
 30
0.0
 40
0.899943672574409
100
AcDbArc
 50
180.0000000000507
 51
270.0
  0
ARC
  5
386
330
4C
100
AcDbEntity
  8
1
  6
Continuous
 62
     7
100
AcDbCircle
 10
458.448720115709
 20
575.930431884431
 30
0.0
 40
0.5999624483829393
100
AcDbArc
 50
90.0
 51
180.0
  0
ARC
  5
387
330
4C
100
AcDbEntity
  8
1
  6
Continuous
 62
     7
100
AcDbCircle
 10
417.5512798842874
 20
570.5167707251898
 30
0.0
 40
0.5999624483828825
100
AcDbArc
 50
0.0
 51
90.0
  0
ARC
  5
388
330
4C
100
AcDbEntity
  8
1
  6
Continuous
 62
     7
100
AcDbCircle
 10
458.448720115709
 20
577.8360952222414
 30
0.0
 40
1.299918638162126
100
AcDbArc
 50
270.0
 51
0.0
  0
ARC
  5
389
330
4C
100
AcDbEntity
  8
1
  6
Continuous
 62
     7
100
AcDbCircle
 10
458.448720115709
 20
578.836032636212
 30
0.0
 40
1.299918638162069
100
AcDbArc
 50
0.0
 51
90.0
  0
ARC
  5
38A
330
4C
100
AcDbEntity
  8
1
  6
Continuous
 62
     7
100
AcDbCircle
 10
417.5512798842874
 20
572.4166518117358
 30
0.0
 40
1.299918638162069
100
AcDbArc
 50
180.0000000000501
 51
270.0
  0
ARC
  5
38B
330
4C
100
AcDbEntity
  8
1
  6
Continuous
 62
     7
100
AcDbCircle
 10
417.5512798842874
 20
570.5167707251898
 30
0.0
 40
0.5999624483828825
100
AcDbArc
 50
0.0
 51
90.0
  0
ARC
  5
38C
330
4C
100
AcDbEntity
  8
1
  6
Continuous
 62
     7
100
AcDbCircle
 10
417.5512798842874
 20
573.4165892257073
 30
0.0
 40
1.299918638162126
100
AcDbArc
 50
90.0
 51
180.0
  0
ARC
  5
38D
330
4C
100
AcDbEntity
  8
1
  6
Continuous
 62
     7
100
AcDbCircle
 10
417.5512798842874
 20
575.622233787711
 30
0.0
 40
0.8999436725753185
100
AcDbArc
 50
270.0
 51
0.0
  0
ARC
  5
38E
330
4C
100
AcDbEntity
  8
1
  6
Continuous
 62
     7
100
AcDbCircle
 10
458.448720115709
 20
581.0358949469504
 30
0.0
 40
0.899943672574409
100
AcDbArc
 50
180.0000000000579
 51
270.0
  0
ARC
  5
38F
330
4C
100
AcDbEntity
  8
1
  6
Continuous
 62
     7
100
AcDbCircle
 10
458.448720115709
 20
586.935525689379
 30
0.0
 40
0.5999624483829393
100
AcDbArc
 50
90.0
 51
180.0
  0
ARC
  5
390
330
4C
100
AcDbEntity
  8
1
  6
Continuous
 62
     7
100
AcDbCircle
 10
417.5512798842874
 20
581.5218645301378
 30
0.0
 40
0.5999624483828825
100
AcDbArc
 50
0.0
 51
90.0
  0
ARC
  5
391
330
4C
100
AcDbEntity
  8
1
  6
Continuous
 62
     7
100
AcDbCircle
 10
458.448720115709
 20
588.8411890271894
 30
0.0
 40
1.299918638162126
100
AcDbArc
 50
270.0
 51
0.0
  0
ARC
  5
392
330
4C
100
AcDbEntity
  8
1
  6
Continuous
 62
     7
100
AcDbCircle
 10
458.448720115709
 20
589.8411264411601
 30
0.0
 40
1.299918638162069
100
AcDbArc
 50
0.0
 51
90.0
  0
ARC
  5
393
330
4C
100
AcDbEntity
  8
1
  6
Continuous
 62
     7
100
AcDbCircle
 10
417.5512798842874
 20
583.4217456166838
 30
0.0
 40
1.299918638162069
100
AcDbArc
 50
180.0000000000401
 51
270.0
  0
ARC
  5
394
330
4C
100
AcDbEntity
  8
1
  6
Continuous
 62
     7
100
AcDbCircle
 10
417.5512798842874
 20
581.5218645301378
 30
0.0
 40
0.5999624483828825
100
AcDbArc
 50
0.0
 51
90.0
  0
ARC
  5
395
330
4C
100
AcDbEntity
  8
1
  6
Continuous
 62
     7
100
AcDbCircle
 10
417.5512798842874
 20
584.4216830306553
 30
0.0
 40
1.299918638162126
100
AcDbArc
 50
90.0
 51
180.0
  0
ARC
  5
396
330
4C
100
AcDbEntity
  8
1
  6
Continuous
 62
     7
100
AcDbCircle
 10
417.5512798842874
 20
586.6273275926592
 30
0.0
 40
0.8999436725753185
100
AcDbArc
 50
270.0
 51
0.0
  0
ARC
  5
397
330
4C
100
AcDbEntity
  8
1
  6
Continuous
 62
     7
100
AcDbCircle
 10
458.448720115709
 20
592.0409887518986
 30
0.0
 40
0.899943672574409
100
AcDbArc
 50
180.0000000000579
 51
270.0
  0
ARC
  5
398
330
4C
100
AcDbEntity
  8
1
  6
Continuous
 62
     7
100
AcDbCircle
 10
458.448720115709
 20
597.9406194943272
 30
0.0
 40
0.5999624483829393
100
AcDbArc
 50
90.0
 51
180.0
  0
ARC
  5
399
330
4C
100
AcDbEntity
  8
1
  6
Continuous
 62
     7
100
AcDbCircle
 10
417.5512798842874
 20
592.526958335086
 30
0.0
 40
0.5999624483828825
100
AcDbArc
 50
0.0
 51
90.0
  0
ARC
  5
39A
330
4C
100
AcDbEntity
  8
1
  6
Continuous
 62
     7
100
AcDbCircle
 10
458.448720115709
 20
599.8462828321376
 30
0.0
 40
1.299918638162126
100
AcDbArc
 50
270.0
 51
0.0
  0
ARC
  5
39B
330
4C
100
AcDbEntity
  8
1
  6
Continuous
 62
     7
100
AcDbCircle
 10
458.448720115709
 20
600.8462202461083
 30
0.0
 40
1.299918638162069
100
AcDbArc
 50
0.0
 51
90.0
  0
ARC
  5
39C
330
4C
100
AcDbEntity
  8
1
  6
Continuous
 62
     7
100
AcDbCircle
 10
417.5512798842874
 20
594.4268394216319
 30
0.0
 40
1.299918638162069
100
AcDbArc
 50
180.0000000000401
 51
270.0
  0
ARC
  5
39D
330
4C
100
AcDbEntity
  8
1
  6
Continuous
 62
     7
100
AcDbCircle
 10
417.5512798842874
 20
592.526958335086
 30
0.0
 40
0.5999624483828825
100
AcDbArc
 50
0.0
 51
90.0
  0
ARC
  5
39E
330
4C
100
AcDbEntity
  8
1
  6
Continuous
 62
     7
100
AcDbCircle
 10
417.5512798842874
 20
595.4267768356035
 30
0.0
 40
1.299918638162126
100
AcDbArc
 50
90.0
 51
180.0
  0
ARC
  5
39F
330
4C
100
AcDbEntity
  8
1
  6
Continuous
 62
     7
100
AcDbCircle
 10
417.5512798842874
 20
597.6324213976073
 30
0.0
 40
0.8999436725753185
100
AcDbArc
 50
270.0
 51
0.0
  0
ARC
  5
3A0
330
4C
100
AcDbEntity
  8
1
  6
Continuous
 62
     7
100
AcDbCircle
 10
458.448720115709
 20
603.0460825568467
 30
0.0
 40
0.899943672574409
100
AcDbArc
 50
180.0000000000579
 51
270.0
  0
ARC
  5
3A1
330
4C
100
AcDbEntity
  8
1
  6
Continuous
 62
     7
100
AcDbCircle
 10
458.448720115709
 20
608.9457132992753
 30
0.0
 40
0.5999624483829393
100
AcDbArc
 50
90.0
 51
180.0
  0
ARC
  5
3A2
330
4C
100
AcDbEntity
  8
1
  6
Continuous
 62
     7
100
AcDbCircle
 10
417.5512798842874
 20
603.5320521400341
 30
0.0
 40
0.5999624483828825
100
AcDbArc
 50
0.0
 51
90.0
  0
ARC
  5
3A3
330
4C
100
AcDbEntity
  8
1
  6
Continuous
 62
     7
100
AcDbCircle
 10
458.448720115709
 20
610.8513766370858
 30
0.0
 40
1.299918638162126
100
AcDbArc
 50
270.0
 51
0.0
  0
ARC
  5
3A4
330
4C
100
AcDbEntity
  8
1
  6
Continuous
 62
     7
100
AcDbCircle
 10
458.448720115709
 20
611.8513140510564
 30
0.0
 40
1.299918638162069
100
AcDbArc
 50
0.0
 51
90.0
  0
ARC
  5
3A5
330
4C
100
AcDbEntity
  8
1
  6
Continuous
 62
     7
100
AcDbCircle
 10
417.5512798842874
 20
605.4319332265801
 30
0.0
 40
1.299918638162069
100
AcDbArc
 50
180.0000000000401
 51
270.0
  0
ARC
  5
3A6
330
4C
100
AcDbEntity
  8
1
  6
Continuous
 62
     7
100
AcDbCircle
 10
417.5512798842874
 20
603.5320521400341
 30
0.0
 40
0.5999624483828825
100
AcDbArc
 50
0.0
 51
90.0
  0
ARC
  5
3A7
330
4C
100
AcDbEntity
  8
1
  6
Continuous
 62
     7
100
AcDbCircle
 10
417.5512798842874
 20
606.4318706405517
 30
0.0
 40
1.299918638162126
100
AcDbArc
 50
90.0
 51
180.0
  0
ARC
  5
3A8
330
4C
100
AcDbEntity
  8
1
  6
Continuous
 62
     7
100
AcDbCircle
 10
417.5512798842874
 20
608.6375152025554
 30
0.0
 40
0.8999436725753185
100
AcDbArc
 50
270.0
 51
0.0
  0
ARC
  5
3A9
330
4C
100
AcDbEntity
  8
1
  6
Continuous
 62
     7
100
AcDbCircle
 10
458.448720115709
 20
614.0511763617948
 30
0.0
 40
0.899943672574409
100
AcDbArc
 50
180.0000000000579
 51
270.0
  0
ARC
  5
3AA
330
4C
100
AcDbEntity
  8
1
  6
Continuous
 62
     7
100
AcDbCircle
 10
458.448720115709
 20
619.9508071042234
 30
0.0
 40
0.5999624483829393
100
AcDbArc
 50
90.0
 51
180.0
  0
ARC
  5
3AB
330
4C
100
AcDbEntity
  8
1
  6
Continuous
 62
     7
100
AcDbCircle
 10
417.5512798842874
 20
614.5371459449822
 30
0.0
 40
0.5999624483828825
100
AcDbArc
 50
0.0
 51
90.0
  0
ARC
  5
3AC
330
4C
100
AcDbEntity
  8
1
  6
Continuous
 62
     7
100
AcDbCircle
 10
458.448720115709
 20
621.8564704420338
 30
0.0
 40
1.299918638162126
100
AcDbArc
 50
270.0
 51
0.0
  0
ARC
  5
3AD
330
4C
100
AcDbEntity
  8
1
  6
Continuous
 62
     7
100
AcDbCircle
 10
458.448720115709
 20
622.8564078560045
 30
0.0
 40
1.299918638162069
100
AcDbArc
 50
0.0
 51
90.0
  0
ARC
  5
3AE
330
4C
100
AcDbEntity
  8
1
  6
Continuous
 62
     7
100
AcDbCircle
 10
417.5512798842874
 20
616.4370270315281
 30
0.0
 40
1.299918638162069
100
AcDbArc
 50
180.0000000000401
 51
270.0
  0
ARC
  5
3AF
330
4C
100
AcDbEntity
  8
1
  6
Continuous
 62
     7
100
AcDbCircle
 10
417.5512798842874
 20
614.5371459449822
 30
0.0
 40
0.5999624483828825
100
AcDbArc
 50
0.0
 51
90.0
  0
ARC
  5
3B0
330
4C
100
AcDbEntity
  8
1
  6
Continuous
 62
     7
100
AcDbCircle
 10
417.5512798842874
 20
617.4369644454997
 30
0.0
 40
1.299918638162126
100
AcDbArc
 50
90.0
 51
180.0
  0
ARC
  5
3B1
330
4C
100
AcDbEntity
  8
1
  6
Continuous
 62
     7
100
AcDbCircle
 10
417.5512798842874
 20
619.6426090075034
 30
0.0
 40
0.8999436725753185
100
AcDbArc
 50
270.0
 51
0.0
  0
ARC
  5
3B2
330
4C
100
AcDbEntity
  8
1
  6
Continuous
 62
     7
100
AcDbCircle
 10
458.448720115709
 20
625.0562701667428
 30
0.0
 40
0.899943672574409
100
AcDbArc
 50
180.0000000000579
 51
270.0
  0
ARC
  5
3B3
330
4C
100
AcDbEntity
  8
1
  6
Continuous
 62
     7
100
AcDbCircle
 10
458.448720115709
 20
630.9559009091714
 30
0.0
 40
0.5999624483829393
100
AcDbArc
 50
90.0
 51
180.0
  0
ARC
  5
3B4
330
4C
100
AcDbEntity
  8
1
  6
Continuous
 62
     7
100
AcDbCircle
 10
417.5512798842874
 20
625.5422397499302
 30
0.0
 40
0.5999624483828825
100
AcDbArc
 50
0.0
 51
90.0
  0
ARC
  5
3B5
330
4C
100
AcDbEntity
  8
1
  6
Continuous
 62
     7
100
AcDbCircle
 10
458.448720115709
 20
632.8615642469819
 30
0.0
 40
1.299918638162126
100
AcDbArc
 50
270.0
 51
0.0
  0
ARC
  5
3B6
330
4C
100
AcDbEntity
  8
1
  6
Continuous
 62
     7
100
AcDbCircle
 10
458.448720115709
 20
633.8615016609525
 30
0.0
 40
1.299918638162069
100
AcDbArc
 50
0.0
 51
90.0
  0
ARC
  5
3B7
330
4C
100
AcDbEntity
  8
1
  6
Continuous
 62
     7
100
AcDbCircle
 10
417.5512798842874
 20
627.4421208364762
 30
0.0
 40
1.299918638162069
100
AcDbArc
 50
180.0000000000401
 51
270.0
  0
ARC
  5
3B8
330
4C
100
AcDbEntity
  8
1
  6
Continuous
 62
     7
100
AcDbCircle
 10
417.5512798842874
 20
625.5422397499302
 30
0.0
 40
0.5999624483828825
100
AcDbArc
 50
0.0
 51
90.0
  0
ARC
  5
3B9
330
4C
100
AcDbEntity
  8
1
  6
Continuous
 62
     7
100
AcDbCircle
 10
417.5512798842874
 20
628.4420582504478
 30
0.0
 40
1.299918638162126
100
AcDbArc
 50
90.0
 51
180.0
  0
ARC
  5
3BA
330
4C
100
AcDbEntity
  8
1
  6
Continuous
 62
     7
100
AcDbCircle
 10
417.5512798842874
 20
630.6477028124516
 30
0.0
 40
0.8999436725753185
100
AcDbArc
 50
270.0
 51
0.0
  0
ARC
  5
3BB
330
4C
100
AcDbEntity
  8
1
  6
Continuous
 62
     7
100
AcDbCircle
 10
458.448720115709
 20
636.061363971691
 30
0.0
 40
0.899943672574409
100
AcDbArc
 50
180.0000000000579
 51
270.0
  0
ARC
  5
3BC
330
4C
100
AcDbEntity
  8
1
  6
Continuous
 62
     7
100
AcDbCircle
 10
458.448720115709
 20
641.9609947141196
 30
0.0
 40
0.5999624483829393
100
AcDbArc
 50
90.0
 51
180.0
  0
ARC
  5
3BD
330
4C
100
AcDbEntity
  8
1
  6
Continuous
 62
     7
100
AcDbCircle
 10
417.5512798842874
 20
636.5473335548784
 30
0.0
 40
0.5999624483828825
100
AcDbArc
 50
0.0
 51
90.0
  0
ARC
  5
3BE
330
4C
100
AcDbEntity
  8
1
  6
Continuous
 62
     7
100
AcDbCircle
 10
458.448720115709
 20
643.86665805193
 30
0.0
 40
1.299918638162126
100
AcDbArc
 50
270.0
 51
0.0
  0
ARC
  5
3BF
330
4C
100
AcDbEntity
  8
1
  6
Continuous
 62
     7
100
AcDbCircle
 10
458.448720115709
 20
644.8665954659007
 30
0.0
 40
1.299918638162069
100
AcDbArc
 50
0.0
 51
90.0
  0
ARC
  5
3C0
330
4C
100
AcDbEntity
  8
1
  6
Continuous
 62
     7
100
AcDbCircle
 10
417.5512798842874
 20
638.4472146414244
 30
0.0
 40
1.299918638162069
100
AcDbArc
 50
180.0000000000401
 51
270.0
  0
ARC
  5
3C1
330
4C
100
AcDbEntity
  8
1
  6
Continuous
 62
     7
100
AcDbCircle
 10
417.5512798842874
 20
636.5473335548784
 30
0.0
 40
0.5999624483828825
100
AcDbArc
 50
0.0
 51
90.0
  0
ARC
  5
3C2
330
4C
100
AcDbEntity
  8
1
  6
Continuous
 62
     7
100
AcDbCircle
 10
417.5512798842874
 20
639.4471520553959
 30
0.0
 40
1.299918638162126
100
AcDbArc
 50
90.0
 51
180.0
  0
ARC
  5
3C3
330
4C
100
AcDbEntity
  8
1
  6
Continuous
 62
     7
100
AcDbCircle
 10
417.5512798842874
 20
641.6527966173998
 30
0.0
 40
0.8999436725753185
100
AcDbArc
 50
270.0
 51
0.0
  0
ARC
  5
3C4
330
4C
100
AcDbEntity
  8
1
  6
Continuous
 62
     7
100
AcDbCircle
 10
458.448720115709
 20
647.0664577766391
 30
0.0
 40
0.899943672574409
100
AcDbArc
 50
180.0000000000579
 51
270.0
  0
ARC
  5
3C5
330
4C
100
AcDbEntity
  8
1
  6
Continuous
 62
     7
100
AcDbCircle
 10
458.448720115709
 20
652.9660885190677
 30
0.0
 40
0.5999624483829393
100
AcDbArc
 50
90.0
 51
180.0
  0
ARC
  5
3C6
330
4C
100
AcDbEntity
  8
1
  6
Continuous
 62
     7
100
AcDbCircle
 10
417.5512798842874
 20
647.5524273598265
 30
0.0
 40
0.5999624483828825
100
AcDbArc
 50
0.0
 51
90.0
  0
ARC
  5
3C7
330
4C
100
AcDbEntity
  8
1
  6
Continuous
 62
     7
100
AcDbCircle
 10
458.448720115709
 20
654.8717518568782
 30
0.0
 40
1.299918638162126
100
AcDbArc
 50
270.0
 51
0.0
  0
ARC
  5
3C8
330
4C
100
AcDbEntity
  8
1
  6
Continuous
 62
     7
100
AcDbCircle
 10
458.448720115709
 20
655.8716892708488
 30
0.0
 40
1.299918638162069
100
AcDbArc
 50
0.0
 51
90.0
  0
ARC
  5
3C9
330
4C
100
AcDbEntity
  8
1
  6
Continuous
 62
     7
100
AcDbCircle
 10
417.5512798842874
 20
649.4523084463725
 30
0.0
 40
1.299918638162069
100
AcDbArc
 50
180.0000000000401
 51
270.0
  0
ARC
  5
3CA
330
4C
100
AcDbEntity
  8
1
  6
Continuous
 62
     7
100
AcDbCircle
 10
417.5512798842874
 20
647.5524273598265
 30
0.0
 40
0.5999624483828825
100
AcDbArc
 50
0.0
 51
90.0
  0
ARC
  5
3CB
330
4C
100
AcDbEntity
  8
1
  6
Continuous
 62
     7
100
AcDbCircle
 10
417.5512798842874
 20
650.4522458603441
 30
0.0
 40
1.299918638162126
100
AcDbArc
 50
90.0
 51
180.0
  0
ARC
  5
3CC
330
4C
100
AcDbEntity
  8
1
  6
Continuous
 62
     7
100
AcDbCircle
 10
417.5512798842874
 20
652.6578904223478
 30
0.0
 40
0.8999436725753185
100
AcDbArc
 50
270.0
 51
0.0
  0
ARC
  5
3CD
330
4C
100
AcDbEntity
  8
1
  6
Continuous
 62
     7
100
AcDbCircle
 10
458.448720115709
 20
658.0715515815872
 30
0.0
 40
0.899943672574409
100
AcDbArc
 50
180.0000000000579
 51
270.0
  0
ARC
  5
3CE
330
4C
100
AcDbEntity
  8
1
  6
Continuous
 62
     7
100
AcDbCircle
 10
458.448720115709
 20
663.9711823240158
 30
0.0
 40
0.5999624483829393
100
AcDbArc
 50
90.0
 51
180.0
  0
ARC
  5
3CF
330
4C
100
AcDbEntity
  8
1
  6
Continuous
 62
     7
100
AcDbCircle
 10
417.5512798842874
 20
658.5575211647746
 30
0.0
 40
0.5999624483828825
100
AcDbArc
 50
0.0
 51
90.0
  0
ARC
  5
3D0
330
4C
100
AcDbEntity
  8
1
  6
Continuous
 62
     7
100
AcDbCircle
 10
458.448720115709
 20
665.8768456618262
 30
0.0
 40
1.299918638162126
100
AcDbArc
 50
270.0
 51
0.0
  0
ARC
  5
3D1
330
4C
100
AcDbEntity
  8
1
  6
Continuous
 62
     7
100
AcDbCircle
 10
458.448720115709
 20
666.8767830757969
 30
0.0
 40
1.299918638162069
100
AcDbArc
 50
0.0
 51
90.0
  0
ARC
  5
3D2
330
4C
100
AcDbEntity
  8
1
  6
Continuous
 62
     7
100
AcDbCircle
 10
417.5512798842874
 20
660.4574022513206
 30
0.0
 40
1.299918638162069
100
AcDbArc
 50
180.0000000000401
 51
270.0
  0
ARC
  5
3D3
330
4C
100
AcDbEntity
  8
1
  6
Continuous
 62
     7
100
AcDbCircle
 10
417.5512798842874
 20
658.5575211647746
 30
0.0
 40
0.5999624483828825
100
AcDbArc
 50
0.0
 51
90.0
  0
ARC
  5
3D4
330
4C
100
AcDbEntity
  8
1
  6
Continuous
 62
     7
100
AcDbCircle
 10
417.5512798842874
 20
661.4573396652921
 30
0.0
 40
1.299918638162126
100
AcDbArc
 50
90.0
 51
180.0
  0
ARC
  5
3D5
330
4C
100
AcDbEntity
  8
1
  6
Continuous
 62
     7
100
AcDbCircle
 10
417.5512798842874
 20
663.6629842272959
 30
0.0
 40
0.8999436725753185
100
AcDbArc
 50
270.0
 51
0.0
  0
ARC
  5
3D6
330
4C
100
AcDbEntity
  8
1
  6
Continuous
 62
     7
100
AcDbCircle
 10
458.448720115709
 20
669.0766453865352
 30
0.0
 40
0.899943672574409
100
AcDbArc
 50
180.0000000000579
 51
270.0
  0
ARC
  5
3D7
330
4C
100
AcDbEntity
  8
1
  6
Continuous
 62
     7
100
AcDbCircle
 10
458.448720115709
 20
674.9762761289638
 30
0.0
 40
0.5999624483829393
100
AcDbArc
 50
90.0
 51
180.0
  0
ARC
  5
3D8
330
4C
100
AcDbEntity
  8
1
  6
Continuous
 62
     7
100
AcDbCircle
 10
417.5512798842874
 20
669.5626149697226
 30
0.0
 40
0.5999624483828825
100
AcDbArc
 50
0.0
 51
90.0
  0
ARC
  5
3D9
330
4C
100
AcDbEntity
  8
1
  6
Continuous
 62
     7
100
AcDbCircle
 10
458.448720115709
 20
676.8819394667743
 30
0.0
 40
1.299918638162126
100
AcDbArc
 50
270.0
 51
0.0
  0
ARC
  5
3DA
330
4C
100
AcDbEntity
  8
1
  6
Continuous
 62
     7
100
AcDbCircle
 10
458.448720115709
 20
677.8818768807449
 30
0.0
 40
1.299918638162069
100
AcDbArc
 50
0.0
 51
90.0
  0
ARC
  5
3DB
330
4C
100
AcDbEntity
  8
1
  6
Continuous
 62
     7
100
AcDbCircle
 10
417.5512798842874
 20
671.4624960562686
 30
0.0
 40
1.299918638162069
100
AcDbArc
 50
180.0000000000401
 51
270.0
  0
ARC
  5
3DC
330
4C
100
AcDbEntity
  8
1
  6
Continuous
 62
     7
100
AcDbCircle
 10
417.5512798842874
 20
669.5626149697226
 30
0.0
 40
0.5999624483828825
100
AcDbArc
 50
0.0
 51
90.0
  0
ARC
  5
3DD
330
4C
100
AcDbEntity
  8
1
  6
Continuous
 62
     7
100
AcDbCircle
 10
417.5512798842874
 20
672.4624334702402
 30
0.0
 40
1.299918638162126
100
AcDbArc
 50
90.0
 51
180.0
  0
ARC
  5
3DE
330
4C
100
AcDbEntity
  8
1
  6
Continuous
 62
     7
100
AcDbCircle
 10
417.5512798842874
 20
674.668078032244
 30
0.0
 40
0.8999436725753185
100
AcDbArc
 50
270.0
 51
0.0
  0
ARC
  5
3DF
330
4C
100
AcDbEntity
  8
1
  6
Continuous
 62
     7
100
AcDbCircle
 10
458.448720115709
 20
680.0817391914834
 30
0.0
 40
0.899943672574409
100
AcDbArc
 50
180.0000000000579
 51
270.0
  0
ARC
  5
3E0
330
4C
100
AcDbEntity
  8
1
  6
Continuous
 62
     7
100
AcDbCircle
 10
458.448720115709
 20
685.981369933912
 30
0.0
 40
0.5999624483829393
100
AcDbArc
 50
90.0
 51
180.0
  0
ARC
  5
3E1
330
4C
100
AcDbEntity
  8
1
  6
Continuous
 62
     7
100
AcDbCircle
 10
417.5512798842874
 20
680.5677087746708
 30
0.0
 40
0.5999624483828825
100
AcDbArc
 50
0.0
 51
90.0
  0
ARC
  5
3E2
330
4C
100
AcDbEntity
  8
1
  6
Continuous
 62
     7
100
AcDbCircle
 10
458.448720115709
 20
687.8870332717224
 30
0.0
 40
1.299918638162126
100
AcDbArc
 50
270.0
 51
0.0
  0
ARC
  5
3E3
330
4C
100
AcDbEntity
  8
1
  6
Continuous
 62
     7
100
AcDbCircle
 10
458.448720115709
 20
688.8869706856931
 30
0.0
 40
1.299918638162069
100
AcDbArc
 50
0.0
 51
90.0
  0
ARC
  5
3E4
330
4C
100
AcDbEntity
  8
1
  6
Continuous
 62
     7
100
AcDbCircle
 10
417.5512798842874
 20
682.4675898612168
 30
0.0
 40
1.299918638162069
100
AcDbArc
 50
180.0000000000401
 51
270.0
  0
ARC
  5
3E5
330
4C
100
AcDbEntity
  8
1
  6
Continuous
 62
     7
100
AcDbCircle
 10
417.5512798842874
 20
680.5677087746708
 30
0.0
 40
0.5999624483828825
100
AcDbArc
 50
0.0
 51
90.0
  0
ARC
  5
3E6
330
4C
100
AcDbEntity
  8
1
  6
Continuous
 62
     7
100
AcDbCircle
 10
417.5512798842874
 20
683.4675272751883
 30
0.0
 40
1.299918638162126
100
AcDbArc
 50
90.0
 51
180.0
  0
ARC
  5
3E7
330
4C
100
AcDbEntity
  8
1
  6
Continuous
 62
     7
100
AcDbCircle
 10
417.5512798842874
 20
685.6731718371922
 30
0.0
 40
0.8999436725753185
100
AcDbArc
 50
270.0
 51
0.0
  0
ARC
  5
3E8
330
4C
100
AcDbEntity
  8
1
  6
Continuous
 62
     7
100
AcDbCircle
 10
458.448720115709
 20
691.0868329964316
 30
0.0
 40
0.899943672574409
100
AcDbArc
 50
180.0000000000579
 51
270.0
  0
ARC
  5
3E9
330
4C
100
AcDbEntity
  8
1
  6
Continuous
 62
     7
100
AcDbCircle
 10
458.448720115709
 20
696.9864637388602
 30
0.0
 40
0.5999624483829393
100
AcDbArc
 50
90.0
 51
180.0
  0
ARC
  5
3EA
330
4C
100
AcDbEntity
  8
1
  6
Continuous
 62
     7
100
AcDbCircle
 10
417.5512798842874
 20
691.572802579619
 30
0.0
 40
0.5999624483828825
100
AcDbArc
 50
0.0
 51
90.0
  0
ARC
  5
3EB
330
4C
100
AcDbEntity
  8
1
  6
Continuous
 62
     7
100
AcDbCircle
 10
458.448720115709
 20
698.8921270766706
 30
0.0
 40
1.299918638162126
100
AcDbArc
 50
270.0
 51
0.0
  0
ARC
  5
3EC
330
4C
100
AcDbEntity
  8
1
  6
Continuous
 62
     7
100
AcDbCircle
 10
458.448720115709
 20
699.8920644906412
 30
0.0
 40
1.299918638162069
100
AcDbArc
 50
0.0
 51
90.0
  0
ARC
  5
3ED
330
4C
100
AcDbEntity
  8
1
  6
Continuous
 62
     7
100
AcDbCircle
 10
417.5512798842874
 20
693.4726836661649
 30
0.0
 40
1.299918638162069
100
AcDbArc
 50
180.0000000000401
 51
270.0
  0
ARC
  5
3EE
330
4C
100
AcDbEntity
  8
1
  6
Continuous
 62
     7
100
AcDbCircle
 10
417.5512798842874
 20
691.572802579619
 30
0.0
 40
0.5999624483828825
100
AcDbArc
 50
0.0
 51
90.0
  0
ARC
  5
3EF
330
4C
100
AcDbEntity
  8
1
  6
Continuous
 62
     7
100
AcDbCircle
 10
417.5512798842874
 20
694.4726210801365
 30
0.0
 40
1.299918638162126
100
AcDbArc
 50
90.0
 51
180.0
  0
ARC
  5
3F0
330
4C
100
AcDbEntity
  8
1
  6
Continuous
 62
     7
100
AcDbCircle
 10
417.5512798842874
 20
696.6782656421402
 30
0.0
 40
0.8999436725753185
100
AcDbArc
 50
270.0
 51
0.0
  0
ARC
  5
3F1
330
4C
100
AcDbEntity
  8
1
  6
Continuous
 62
     7
100
AcDbCircle
 10
458.448720115709
 20
702.0919268013796
 30
0.0
 40
0.899943672574409
100
AcDbArc
 50
180.0000000000579
 51
270.0
  0
ARC
  5
3F2
330
4C
100
AcDbEntity
  8
1
  6
Continuous
 62
     7
100
AcDbCircle
 10
458.448720115709
 20
707.9915575438082
 30
0.0
 40
0.5999624483829393
100
AcDbArc
 50
90.0
 51
180.0
  0
ARC
  5
3F3
330
4C
100
AcDbEntity
  8
1
  6
Continuous
 62
     7
100
AcDbCircle
 10
417.5512798842874
 20
702.577896384567
 30
0.0
 40
0.5999624483828825
100
AcDbArc
 50
0.0
 51
90.0
  0
ARC
  5
3F4
330
4C
100
AcDbEntity
  8
1
  6
Continuous
 62
     7
100
AcDbCircle
 10
458.448720115709
 20
709.8972208816186
 30
0.0
 40
1.299918638162126
100
AcDbArc
 50
270.0
 51
0.0
  0
ARC
  5
3F5
330
4C
100
AcDbEntity
  8
1
  6
Continuous
 62
     7
100
AcDbCircle
 10
458.448720115709
 20
710.8971582955893
 30
0.0
 40
1.299918638162069
100
AcDbArc
 50
0.0
 51
90.0
  0
ARC
  5
3F6
330
4C
100
AcDbEntity
  8
1
  6
Continuous
 62
     7
100
AcDbCircle
 10
417.5512798842874
 20
704.477777471113
 30
0.0
 40
1.299918638162069
100
AcDbArc
 50
180.0000000000401
 51
270.0
  0
ARC
  5
3F7
330
4C
100
AcDbEntity
  8
1
  6
Continuous
 62
     7
100
AcDbCircle
 10
417.5512798842874
 20
702.577896384567
 30
0.0
 40
0.5999624483828825
100
AcDbArc
 50
0.0
 51
90.0
  0
ARC
  5
3F8
330
4C
100
AcDbEntity
  8
1
  6
Continuous
 62
     7
100
AcDbCircle
 10
417.5512798842874
 20
705.4777148850845
 30
0.0
 40
1.299918638162126
100
AcDbArc
 50
90.0
 51
180.0
  0
ARC
  5
3F9
330
4C
100
AcDbEntity
  8
1
  6
Continuous
 62
     7
100
AcDbCircle
 10
417.5512798842874
 20
707.6833594470883
 30
0.0
 40
0.8999436725753185
100
AcDbArc
 50
270.0
 51
0.0
  0
ARC
  5
3FA
330
4C
100
AcDbEntity
  8
1
  6
Continuous
 62
     7
100
AcDbCircle
 10
458.448720115709
 20
713.0970206063276
 30
0.0
 40
0.899943672574409
100
AcDbArc
 50
180.0000000000579
 51
270.0
  0
ARC
  5
3FB
330
4C
100
AcDbEntity
  8
1
  6
Continuous
 62
     7
100
AcDbCircle
 10
458.448720115709
 20
718.9966513487562
 30
0.0
 40
0.5999624483829393
100
AcDbArc
 50
90.0
 51
180.0
  0
ARC
  5
3FC
330
4C
100
AcDbEntity
  8
1
  6
Continuous
 62
     7
100
AcDbCircle
 10
417.5512798842874
 20
713.582990189515
 30
0.0
 40
0.5999624483828825
100
AcDbArc
 50
0.0
 51
90.0
  0
ARC
  5
3FD
330
4C
100
AcDbEntity
  8
1
  6
Continuous
 62
     7
100
AcDbCircle
 10
458.448720115709
 20
720.9023146865667
 30
0.0
 40
1.299918638162126
100
AcDbArc
 50
270.0
 51
0.0
  0
ARC
  5
3FE
330
4C
100
AcDbEntity
  8
1
  6
Continuous
 62
     7
100
AcDbCircle
 10
458.448720115709
 20
721.9022521005373
 30
0.0
 40
1.299918638162069
100
AcDbArc
 50
0.0
 51
90.0
  0
ARC
  5
3FF
330
4C
100
AcDbEntity
  8
1
  6
Continuous
 62
     7
100
AcDbCircle
 10
417.5512798842874
 20
715.482871276061
 30
0.0
 40
1.299918638162069
100
AcDbArc
 50
180.0000000000401
 51
270.0
  0
ARC
  5
400
330
4C
100
AcDbEntity
  8
1
  6
Continuous
 62
     7
100
AcDbCircle
 10
417.5512798842874
 20
713.582990189515
 30
0.0
 40
0.5999624483828825
100
AcDbArc
 50
0.0
 51
90.0
  0
ARC
  5
401
330
4C
100
AcDbEntity
  8
1
  6
Continuous
 62
     7
100
AcDbCircle
 10
417.5512798842874
 20
716.4828086900326
 30
0.0
 40
1.299918638162126
100
AcDbArc
 50
90.0
 51
180.0
  0
ARC
  5
402
330
4C
100
AcDbEntity
  8
1
  6
Continuous
 62
     7
100
AcDbCircle
 10
417.5512798842874
 20
718.6884532520364
 30
0.0
 40
0.8999436725753185
100
AcDbArc
 50
270.0
 51
0.0
  0
ARC
  5
403
330
4C
100
AcDbEntity
  8
1
  6
Continuous
 62
     7
100
AcDbCircle
 10
458.448720115709
 20
724.1021144112758
 30
0.0
 40
0.899943672574409
100
AcDbArc
 50
180.0000000000579
 51
270.0
  0
ARC
  5
404
330
4C
100
AcDbEntity
  8
1
  6
Continuous
 62
     7
100
AcDbCircle
 10
458.448720115709
 20
730.0017451537044
 30
0.0
 40
0.5999624483829393
100
AcDbArc
 50
90.0
 51
180.0
  0
ARC
  5
405
330
4C
100
AcDbEntity
  8
1
  6
Continuous
 62
     7
100
AcDbCircle
 10
417.5512798842874
 20
724.5880839944632
 30
0.0
 40
0.5999624483828825
100
AcDbArc
 50
0.0
 51
90.0
  0
ARC
  5
406
330
4C
100
AcDbEntity
  8
1
  6
Continuous
 62
     7
100
AcDbCircle
 10
458.448720115709
 20
731.9074084915148
 30
0.0
 40
1.299918638162126
100
AcDbArc
 50
270.0
 51
0.0
  0
ARC
  5
407
330
4C
100
AcDbEntity
  8
1
  6
Continuous
 62
     7
100
AcDbCircle
 10
458.448720115709
 20
732.9073459054855
 30
0.0
 40
1.299918638162069
100
AcDbArc
 50
0.0
 51
90.0
  0
ARC
  5
408
330
4C
100
AcDbEntity
  8
1
  6
Continuous
 62
     7
100
AcDbCircle
 10
417.5512798842874
 20
726.4879650810092
 30
0.0
 40
1.299918638162069
100
AcDbArc
 50
180.0000000000401
 51
270.0
  0
ARC
  5
409
330
4C
100
AcDbEntity
  8
1
  6
Continuous
 62
     7
100
AcDbCircle
 10
417.5512798842874
 20
724.5880839944632
 30
0.0
 40
0.5999624483828825
100
AcDbArc
 50
0.0
 51
90.0
  0
ARC
  5
40A
330
4C
100
AcDbEntity
  8
1
  6
Continuous
 62
     7
100
AcDbCircle
 10
417.5512798842874
 20
727.4879024949807
 30
0.0
 40
1.299918638162126
100
AcDbArc
 50
90.0
 51
180.0
  0
ARC
  5
40B
330
4C
100
AcDbEntity
  8
1
  6
Continuous
 62
     7
100
AcDbCircle
 10
417.5512798842874
 20
729.6935470569846
 30
0.0
 40
0.8999436725753185
100
AcDbArc
 50
270.0
 51
0.0
  0
ARC
  5
40C
330
4C
100
AcDbEntity
  8
1
  6
Continuous
 62
     7
100
AcDbCircle
 10
458.448720115709
 20
735.107208216224
 30
0.0
 40
0.899943672574409
100
AcDbArc
 50
180.0000000000579
 51
270.0
  0
ARC
  5
40D
330
4C
100
AcDbEntity
  8
1
  6
Continuous
 62
     7
100
AcDbCircle
 10
458.448720115709
 20
741.0068389586526
 30
0.0
 40
0.5999624483829393
100
AcDbArc
 50
90.0
 51
180.0
  0
ARC
  5
40E
330
4C
100
AcDbEntity
  8
1
  6
Continuous
 62
     7
100
AcDbCircle
 10
417.5512798842874
 20
735.5931777994114
 30
0.0
 40
0.5999624483828825
100
AcDbArc
 50
0.0
 51
90.0
  0
ARC
  5
40F
330
4C
100
AcDbEntity
  8
1
  6
Continuous
 62
     7
100
AcDbCircle
 10
458.448720115709
 20
742.912502296463
 30
0.0
 40
1.299918638162126
100
AcDbArc
 50
270.0
 51
0.0
  0
ARC
  5
410
330
4C
100
AcDbEntity
  8
1
  6
Continuous
 62
     7
100
AcDbCircle
 10
458.448720115709
 20
743.9124397104337
 30
0.0
 40
1.299918638162069
100
AcDbArc
 50
0.0
 51
90.0
  0
ARC
  5
411
330
4C
100
AcDbEntity
  8
1
  6
Continuous
 62
     7
100
AcDbCircle
 10
417.5512798842874
 20
737.4930588859573
 30
0.0
 40
1.299918638162069
100
AcDbArc
 50
180.0000000000401
 51
270.0
  0
ARC
  5
412
330
4C
100
AcDbEntity
  8
1
  6
Continuous
 62
     7
100
AcDbCircle
 10
417.5512798842874
 20
735.5931777994114
 30
0.0
 40
0.5999624483828825
100
AcDbArc
 50
0.0
 51
90.0
  0
ARC
  5
413
330
4C
100
AcDbEntity
  8
1
  6
Continuous
 62
     7
100
AcDbCircle
 10
417.5512798842874
 20
738.4929962999289
 30
0.0
 40
1.299918638162126
100
AcDbArc
 50
90.0
 51
180.0
  0
ARC
  5
414
330
4C
100
AcDbEntity
  8
1
  6
Continuous
 62
     7
100
AcDbCircle
 10
417.5512798842874
 20
740.6986408619326
 30
0.0
 40
0.8999436725753185
100
AcDbArc
 50
270.0
 51
0.0
  0
ARC
  5
415
330
4C
100
AcDbEntity
  8
1
  6
Continuous
 62
     7
100
AcDbCircle
 10
458.448720115709
 20
746.112302021172
 30
0.0
 40
0.899943672574409
100
AcDbArc
 50
180.0000000000579
 51
270.0
  0
ARC
  5
416
330
4C
100
AcDbEntity
  8
1
  6
Continuous
 62
     7
100
AcDbCircle
 10
458.448720115709
 20
752.0119327636006
 30
0.0
 40
0.5999624483829393
100
AcDbArc
 50
90.0
 51
180.0
  0
ARC
  5
417
330
4C
100
AcDbEntity
  8
1
  6
Continuous
 62
     7
100
AcDbCircle
 10
417.5512798842874
 20
746.5982716043594
 30
0.0
 40
0.5999624483828825
100
AcDbArc
 50
0.0
 51
90.0
  0
ARC
  5
418
330
4C
100
AcDbEntity
  8
1
  6
Continuous
 62
     7
100
AcDbCircle
 10
458.448720115709
 20
753.917596101411
 30
0.0
 40
1.299918638162126
100
AcDbArc
 50
270.0
 51
0.0
  0
ARC
  5
419
330
4C
100
AcDbEntity
  8
1
  6
Continuous
 62
     7
100
AcDbCircle
 10
458.448720115709
 20
754.9175335153817
 30
0.0
 40
1.299918638162069
100
AcDbArc
 50
0.0
 51
90.0
  0
ARC
  5
41A
330
4C
100
AcDbEntity
  8
1
  6
Continuous
 62
     7
100
AcDbCircle
 10
417.5512798842874
 20
748.4981526909054
 30
0.0
 40
1.299918638162069
100
AcDbArc
 50
180.0000000000401
 51
270.0
  0
ARC
  5
41B
330
4C
100
AcDbEntity
  8
1
  6
Continuous
 62
     7
100
AcDbCircle
 10
417.5512798842874
 20
746.5982716043594
 30
0.0
 40
0.5999624483828825
100
AcDbArc
 50
0.0
 51
90.0
  0
ARC
  5
41C
330
4C
100
AcDbEntity
  8
1
  6
Continuous
 62
     7
100
AcDbCircle
 10
417.5512798842874
 20
749.498090104877
 30
0.0
 40
1.299918638162126
100
AcDbArc
 50
90.0
 51
180.0
  0
ARC
  5
41D
330
4C
100
AcDbEntity
  8
1
  6
Continuous
 62
     7
100
AcDbCircle
 10
417.5512798842874
 20
751.7037346668807
 30
0.0
 40
0.8999436725753185
100
AcDbArc
 50
270.0
 51
0.0
  0
ARC
  5
41E
330
4C
100
AcDbEntity
  8
1
  6
Continuous
 62
     7
100
AcDbCircle
 10
458.448720115709
 20
757.1173958261201
 30
0.0
 40
0.899943672574409
100
AcDbArc
 50
180.0000000000579
 51
270.0
  0
ARC
  5
41F
330
4C
100
AcDbEntity
  8
1
  6
Continuous
 62
     7
100
AcDbCircle
 10
458.448720115709
 20
763.0170265685487
 30
0.0
 40
0.5999624483829393
100
AcDbArc
 50
90.0
 51
180.0
  0
ARC
  5
420
330
4C
100
AcDbEntity
  8
1
  6
Continuous
 62
     7
100
AcDbCircle
 10
417.5512798842874
 20
757.6033654093075
 30
0.0
 40
0.5999624483828825
100
AcDbArc
 50
0.0
 51
90.0
  0
ARC
  5
421
330
4C
100
AcDbEntity
  8
1
  6
Continuous
 62
     7
100
AcDbCircle
 10
458.448720115709
 20
764.9226899063591
 30
0.0
 40
1.299918638162126
100
AcDbArc
 50
270.0
 51
0.0
  0
ARC
  5
422
330
4C
100
AcDbEntity
  8
1
  6
Continuous
 62
     7
100
AcDbCircle
 10
458.448720115709
 20
765.9226273203298
 30
0.0
 40
1.299918638162069
100
AcDbArc
 50
0.0
 51
90.0
  0
ARC
  5
423
330
4C
100
AcDbEntity
  8
1
  6
Continuous
 62
     7
100
AcDbCircle
 10
417.5512798842874
 20
759.5032464958534
 30
0.0
 40
1.299918638162069
100
AcDbArc
 50
180.0000000000401
 51
270.0
  0
ARC
  5
424
330
4C
100
AcDbEntity
  8
1
  6
Continuous
 62
     7
100
AcDbCircle
 10
417.5512798842874
 20
757.6033654093075
 30
0.0
 40
0.5999624483828825
100
AcDbArc
 50
0.0
 51
90.0
  0
ARC
  5
425
330
4C
100
AcDbEntity
  8
1
  6
Continuous
 62
     7
100
AcDbCircle
 10
417.5512798842874
 20
760.503183909825
 30
0.0
 40
1.299918638162126
100
AcDbArc
 50
90.0
 51
180.0
  0
ARC
  5
426
330
4C
100
AcDbEntity
  8
1
  6
Continuous
 62
     7
100
AcDbCircle
 10
417.5512798842874
 20
762.7088284718288
 30
0.0
 40
0.8999436725753185
100
AcDbArc
 50
270.0
 51
0.0
  0
ARC
  5
427
330
4C
100
AcDbEntity
  8
1
  6
Continuous
 62
     7
100
AcDbCircle
 10
458.448720115709
 20
768.1224896310682
 30
0.0
 40
0.899943672574409
100
AcDbArc
 50
180.0000000000579
 51
270.0
  0
ARC
  5
428
330
4C
100
AcDbEntity
  8
1
  6
Continuous
 62
     7
100
AcDbCircle
 10
458.448720115709
 20
774.0221203734968
 30
0.0
 40
0.5999624483829393
100
AcDbArc
 50
90.0
 51
180.0
  0
ARC
  5
429
330
4C
100
AcDbEntity
  8
1
  6
Continuous
 62
     7
100
AcDbCircle
 10
417.5512798842874
 20
768.6084592142556
 30
0.0
 40
0.5999624483828825
100
AcDbArc
 50
0.0
 51
90.0
  0
ARC
  5
42A
330
4C
100
AcDbEntity
  8
1
  6
Continuous
 62
     7
100
AcDbCircle
 10
458.448720115709
 20
775.9277837113073
 30
0.0
 40
1.299918638162126
100
AcDbArc
 50
270.0
 51
0.0
  0
ARC
  5
42B
330
4C
100
AcDbEntity
  8
1
  6
Continuous
 62
     7
100
AcDbCircle
 10
458.448720115709
 20
776.9277211252779
 30
0.0
 40
1.299918638162069
100
AcDbArc
 50
0.0
 51
90.0
  0
ARC
  5
42C
330
4C
100
AcDbEntity
  8
1
  6
Continuous
 62
     7
100
AcDbCircle
 10
417.5512798842874
 20
770.5083403008016
 30
0.0
 40
1.299918638162069
100
AcDbArc
 50
180.0000000000401
 51
270.0
  0
ARC
  5
42D
330
4C
100
AcDbEntity
  8
1
  6
Continuous
 62
     7
100
AcDbCircle
 10
417.5512798842874
 20
768.6084592142556
 30
0.0
 40
0.5999624483828825
100
AcDbArc
 50
0.0
 51
90.0
  0
ARC
  5
42E
330
4C
100
AcDbEntity
  8
1
  6
Continuous
 62
     7
100
AcDbCircle
 10
417.5512798842874
 20
771.5082777147732
 30
0.0
 40
1.299918638162126
100
AcDbArc
 50
90.0
 51
180.0
  0
ARC
  5
42F
330
4C
100
AcDbEntity
  8
1
  6
Continuous
 62
     7
100
AcDbCircle
 10
417.5512798842874
 20
773.713922276777
 30
0.0
 40
0.8999436725753185
100
AcDbArc
 50
270.0
 51
0.0
  0
ARC
  5
430
330
4C
100
AcDbEntity
  8
1
  6
Continuous
 62
     7
100
AcDbCircle
 10
458.448720115709
 20
779.1275834360164
 30
0.0
 40
0.899943672574409
100
AcDbArc
 50
180.0000000000579
 51
270.0
  0
ARC
  5
431
330
4C
100
AcDbEntity
  8
1
  6
Continuous
 62
     7
100
AcDbCircle
 10
458.448720115709
 20
785.027214178445
 30
0.0
 40
0.5999624483829393
100
AcDbArc
 50
90.0
 51
180.0
  0
ARC
  5
432
330
4C
100
AcDbEntity
  8
1
  6
Continuous
 62
     7
100
AcDbCircle
 10
417.5512798842874
 20
779.6135530192038
 30
0.0
 40
0.5999624483828825
100
AcDbArc
 50
0.0
 51
90.0
  0
ARC
  5
433
330
4C
100
AcDbEntity
  8
1
  6
Continuous
 62
     7
100
AcDbCircle
 10
458.448720115709
 20
786.9328775162554
 30
0.0
 40
1.299918638162126
100
AcDbArc
 50
270.0
 51
0.0
  0
ARC
  5
434
330
4C
100
AcDbEntity
  8
1
  6
Continuous
 62
     7
100
AcDbCircle
 10
458.448720115709
 20
787.9328149302261
 30
0.0
 40
1.299918638162069
100
AcDbArc
 50
0.0
 51
90.0
  0
ARC
  5
435
330
4C
100
AcDbEntity
  8
1
  6
Continuous
 62
     7
100
AcDbCircle
 10
417.5512798842874
 20
781.5134341057498
 30
0.0
 40
1.299918638162069
100
AcDbArc
 50
180.0000000000401
 51
270.0
  0
ARC
  5
436
330
4C
100
AcDbEntity
  8
1
  6
Continuous
 62
     7
100
AcDbCircle
 10
417.5512798842874
 20
779.6135530192038
 30
0.0
 40
0.5999624483828825
100
AcDbArc
 50
0.0
 51
90.0
  0
ARC
  5
437
330
4C
100
AcDbEntity
  8
1
  6
Continuous
 62
     7
100
AcDbCircle
 10
417.5512798842874
 20
782.5133715197213
 30
0.0
 40
1.299918638162126
100
AcDbArc
 50
90.0
 51
180.0
  0
ARC
  5
438
330
4C
100
AcDbEntity
  8
1
  6
Continuous
 62
     7
100
AcDbCircle
 10
417.5512798842874
 20
784.719016081725
 30
0.0
 40
0.8999436725753185
100
AcDbArc
 50
270.0
 51
0.0
  0
ARC
  5
439
330
4C
100
AcDbEntity
  8
1
  6
Continuous
 62
     7
100
AcDbCircle
 10
458.448720115709
 20
790.1326772409644
 30
0.0
 40
0.899943672574409
100
AcDbArc
 50
180.0000000000579
 51
270.0
  0
ARC
  5
43A
330
4C
100
AcDbEntity
  8
1
  6
Continuous
 62
     7
100
AcDbCircle
 10
458.448720115709
 20
796.032307983393
 30
0.0
 40
0.5999624483829393
100
AcDbArc
 50
90.0
 51
180.0
  0
ARC
  5
43B
330
4C
100
AcDbEntity
  8
1
  6
Continuous
 62
     7
100
AcDbCircle
 10
417.5512798842874
 20
790.6186468241518
 30
0.0
 40
0.5999624483828825
100
AcDbArc
 50
0.0
 51
90.0
  0
ARC
  5
43C
330
4C
100
AcDbEntity
  8
1
  6
Continuous
 62
     7
100
AcDbCircle
 10
458.448720115709
 20
797.9379713212035
 30
0.0
 40
1.299918638162126
100
AcDbArc
 50
270.0
 51
0.0
  0
ARC
  5
43D
330
4C
100
AcDbEntity
  8
1
  6
Continuous
 62
     7
100
AcDbCircle
 10
458.448720115709
 20
798.9379087351741
 30
0.0
 40
1.299918638162069
100
AcDbArc
 50
0.0
 51
90.0
  0
ARC
  5
43E
330
4C
100
AcDbEntity
  8
1
  6
Continuous
 62
     7
100
AcDbCircle
 10
417.5512798842874
 20
792.5185279106978
 30
0.0
 40
1.299918638162069
100
AcDbArc
 50
180.0000000000401
 51
270.0
  0
ARC
  5
43F
330
4C
100
AcDbEntity
  8
1
  6
Continuous
 62
     7
100
AcDbCircle
 10
417.5512798842874
 20
790.6186468241518
 30
0.0
 40
0.5999624483828825
100
AcDbArc
 50
0.0
 51
90.0
  0
ARC
  5
440
330
4C
100
AcDbEntity
  8
1
  6
Continuous
 62
     7
100
AcDbCircle
 10
417.5512798842874
 20
793.5184653246694
 30
0.0
 40
1.299918638162126
100
AcDbArc
 50
90.0
 51
180.0
  0
ARC
  5
441
330
4C
100
AcDbEntity
  8
1
  6
Continuous
 62
     7
100
AcDbCircle
 10
417.5512798842874
 20
795.7241098866731
 30
0.0
 40
0.8999436725753185
100
AcDbArc
 50
270.0
 51
0.0
  0
ARC
  5
442
330
4C
100
AcDbEntity
  8
1
  6
Continuous
 62
     7
100
AcDbCircle
 10
458.448720115709
 20
801.1377710459125
 30
0.0
 40
0.899943672574409
100
AcDbArc
 50
180.0000000000579
 51
270.0
  0
ARC
  5
443
330
4C
100
AcDbEntity
  8
1
  6
Continuous
 62
     7
100
AcDbCircle
 10
458.448720115709
 20
807.0374017883411
 30
0.0
 40
0.5999624483829393
100
AcDbArc
 50
90.0
 51
180.0
  0
ARC
  5
444
330
4C
100
AcDbEntity
  8
1
  6
Continuous
 62
     7
100
AcDbCircle
 10
417.5512798842874
 20
801.6237406290999
 30
0.0
 40
0.5999624483828825
100
AcDbArc
 50
0.0
 51
90.0
  0
ARC
  5
445
330
4C
100
AcDbEntity
  8
1
  6
Continuous
 62
     7
100
AcDbCircle
 10
458.448720115709
 20
808.9430651261515
 30
0.0
 40
1.299918638162126
100
AcDbArc
 50
270.0
 51
0.0
  0
ARC
  5
446
330
4C
100
AcDbEntity
  8
1
  6
Continuous
 62
     7
100
AcDbCircle
 10
458.448720115709
 20
809.9430025401222
 30
0.0
 40
1.299918638162069
100
AcDbArc
 50
0.0
 51
90.0
  0
ARC
  5
447
330
4C
100
AcDbEntity
  8
1
  6
Continuous
 62
     7
100
AcDbCircle
 10
417.5512798842874
 20
803.5236217156458
 30
0.0
 40
1.299918638162069
100
AcDbArc
 50
180.0000000000401
 51
270.0
  0
ARC
  5
448
330
4C
100
AcDbEntity
  8
1
  6
Continuous
 62
     7
100
AcDbCircle
 10
417.5512798842874
 20
801.6237406290999
 30
0.0
 40
0.5999624483828825
100
AcDbArc
 50
0.0
 51
90.0
  0
ARC
  5
449
330
4C
100
AcDbEntity
  8
1
  6
Continuous
 62
     7
100
AcDbCircle
 10
417.5512798842874
 20
804.5235591296174
 30
0.0
 40
1.299918638162126
100
AcDbArc
 50
90.0
 51
180.0
  0
ARC
  5
44A
330
4C
100
AcDbEntity
  8
1
  6
Continuous
 62
     7
100
AcDbCircle
 10
417.5512798842874
 20
806.7292036916213
 30
0.0
 40
0.8999436725753185
100
AcDbArc
 50
270.0
 51
0.0
  0
ARC
  5
44B
330
4C
100
AcDbEntity
  8
1
  6
Continuous
 62
     7
100
AcDbCircle
 10
458.448720115709
 20
812.1428648508606
 30
0.0
 40
0.899943672574409
100
AcDbArc
 50
180.0000000000579
 51
270.0
  0
ARC
  5
44C
330
4C
100
AcDbEntity
  8
1
  6
Continuous
 62
     7
100
AcDbCircle
 10
458.448720115709
 20
818.0424955932892
 30
0.0
 40
0.5999624483829393
100
AcDbArc
 50
90.0
 51
180.0
  0
ARC
  5
44D
330
4C
100
AcDbEntity
  8
1
  6
Continuous
 62
     7
100
AcDbCircle
 10
417.5512798842874
 20
812.628834434048
 30
0.0
 40
0.5999624483828825
100
AcDbArc
 50
0.0
 51
90.0
  0
ARC
  5
44E
330
4C
100
AcDbEntity
  8
1
  6
Continuous
 62
     7
100
AcDbCircle
 10
458.448720115709
 20
819.9481589310997
 30
0.0
 40
1.299918638162126
100
AcDbArc
 50
270.0
 51
0.0
  0
ARC
  5
44F
330
4C
100
AcDbEntity
  8
1
  6
Continuous
 62
     7
100
AcDbCircle
 10
458.448720115709
 20
820.9480963450703
 30
0.0
 40
1.299918638162069
100
AcDbArc
 50
0.0
 51
90.0
  0
ARC
  5
450
330
4C
100
AcDbEntity
  8
1
  6
Continuous
 62
     7
100
AcDbCircle
 10
417.5512798842874
 20
814.528715520594
 30
0.0
 40
1.299918638162069
100
AcDbArc
 50
180.0000000000401
 51
270.0
  0
ARC
  5
451
330
4C
100
AcDbEntity
  8
1
  6
Continuous
 62
     7
100
AcDbCircle
 10
417.5512798842874
 20
812.628834434048
 30
0.0
 40
0.5999624483828825
100
AcDbArc
 50
0.0
 51
90.0
  0
ARC
  5
452
330
4C
100
AcDbEntity
  8
1
  6
Continuous
 62
     7
100
AcDbCircle
 10
417.5512798842874
 20
815.5286529345656
 30
0.0
 40
1.299918638162126
100
AcDbArc
 50
90.0
 51
180.0
  0
ARC
  5
453
330
4C
100
AcDbEntity
  8
1
  6
Continuous
 62
     7
100
AcDbCircle
 10
417.5512798842874
 20
817.7342974965694
 30
0.0
 40
0.8999436725753185
100
AcDbArc
 50
270.0
 51
0.0
  0
ARC
  5
454
330
4C
100
AcDbEntity
  8
1
  6
Continuous
 62
     7
100
AcDbCircle
 10
458.448720115709
 20
823.1479586558088
 30
0.0
 40
0.899943672574409
100
AcDbArc
 50
180.0000000000579
 51
270.0
  0
ARC
  5
455
330
4C
100
AcDbEntity
  8
1
  6
Continuous
 62
     7
100
AcDbCircle
 10
458.448720115709
 20
829.0475893982374
 30
0.0
 40
0.5999624483829393
100
AcDbArc
 50
90.0
 51
180.0
  0
ARC
  5
456
330
4C
100
AcDbEntity
  8
1
  6
Continuous
 62
     7
100
AcDbCircle
 10
417.5512798842874
 20
823.6339282389962
 30
0.0
 40
0.5999624483828825
100
AcDbArc
 50
0.0
 51
90.0
  0
ARC
  5
457
330
4C
100
AcDbEntity
  8
1
  6
Continuous
 62
     7
100
AcDbCircle
 10
458.448720115709
 20
830.9532527360478
 30
0.0
 40
1.299918638162126
100
AcDbArc
 50
270.0
 51
0.0
  0
ARC
  5
458
330
4C
100
AcDbEntity
  8
1
  6
Continuous
 62
     7
100
AcDbCircle
 10
458.448720115709
 20
831.9531901500185
 30
0.0
 40
1.299918638162069
100
AcDbArc
 50
0.0
 51
90.0
  0
ARC
  5
459
330
4C
100
AcDbEntity
  8
1
  6
Continuous
 62
     7
100
AcDbCircle
 10
417.5512798842874
 20
825.5338093255422
 30
0.0
 40
1.299918638162069
100
AcDbArc
 50
180.0000000000401
 51
270.0
  0
ARC
  5
45A
330
4C
100
AcDbEntity
  8
1
  6
Continuous
 62
     7
100
AcDbCircle
 10
417.5512798842874
 20
823.6339282389962
 30
0.0
 40
0.5999624483828825
100
AcDbArc
 50
0.0
 51
90.0
  0
ARC
  5
45B
330
4C
100
AcDbEntity
  8
1
  6
Continuous
 62
     7
100
AcDbCircle
 10
417.5512798842874
 20
826.5337467395137
 30
0.0
 40
1.299918638162126
100
AcDbArc
 50
90.0
 51
180.0
  0
ARC
  5
45C
330
4C
100
AcDbEntity
  8
1
  6
Continuous
 62
     7
100
AcDbCircle
 10
417.5512798842874
 20
828.7393913015175
 30
0.0
 40
0.8999436725753185
100
AcDbArc
 50
270.0
 51
0.0
  0
ARC
  5
45D
330
4C
100
AcDbEntity
  8
1
  6
Continuous
 62
     7
100
AcDbCircle
 10
458.448720115709
 20
834.1530524607568
 30
0.0
 40
0.899943672574409
100
AcDbArc
 50
180.0000000000579
 51
270.0
  0
ARC
  5
45E
330
4C
100
AcDbEntity
  8
1
  6
Continuous
 62
     7
100
AcDbCircle
 10
458.448720115709
 20
840.0526832031854
 30
0.0
 40
0.5999624483829393
100
AcDbArc
 50
90.0
 51
180.0
  0
ARC
  5
45F
330
4C
100
AcDbEntity
  8
1
  6
Continuous
 62
     7
100
AcDbCircle
 10
417.5512798842874
 20
834.6390220439442
 30
0.0
 40
0.5999624483828825
100
AcDbArc
 50
0.0
 51
90.0
  0
ARC
  5
460
330
4C
100
AcDbEntity
  8
1
  6
Continuous
 62
     7
100
AcDbCircle
 10
458.448720115709
 20
841.9583465409959
 30
0.0
 40
1.299918638162126
100
AcDbArc
 50
270.0
 51
0.0
  0
ARC
  5
461
330
4C
100
AcDbEntity
  8
1
  6
Continuous
 62
     7
100
AcDbCircle
 10
458.448720115709
 20
842.9582839549665
 30
0.0
 40
1.299918638162069
100
AcDbArc
 50
0.0
 51
90.0
  0
ARC
  5
462
330
4C
100
AcDbEntity
  8
1
  6
Continuous
 62
     7
100
AcDbCircle
 10
417.5512798842874
 20
836.5389031304902
 30
0.0
 40
1.299918638162069
100
AcDbArc
 50
180.0000000000401
 51
270.0
  0
ARC
  5
463
330
4C
100
AcDbEntity
  8
1
  6
Continuous
 62
     7
100
AcDbCircle
 10
417.5512798842874
 20
834.6390220439442
 30
0.0
 40
0.5999624483828825
100
AcDbArc
 50
0.0
 51
90.0
  0
ARC
  5
464
330
4C
100
AcDbEntity
  8
1
  6
Continuous
 62
     7
100
AcDbCircle
 10
417.5512798842874
 20
837.5388405444618
 30
0.0
 40
1.299918638162126
100
AcDbArc
 50
90.0
 51
180.0
  0
ARC
  5
465
330
4C
100
AcDbEntity
  8
1
  6
Continuous
 62
     7
100
AcDbCircle
 10
417.5512798842874
 20
839.7444851064655
 30
0.0
 40
0.8999436725753185
100
AcDbArc
 50
270.0
 51
0.0
  0
ARC
  5
466
330
4C
100
AcDbEntity
  8
1
  6
Continuous
 62
     7
100
AcDbCircle
 10
458.448720115709
 20
845.1581462657049
 30
0.0
 40
0.899943672574409
100
AcDbArc
 50
180.0000000000579
 51
270.0
  0
ARC
  5
467
330
4C
100
AcDbEntity
  8
1
  6
Continuous
 62
     7
100
AcDbCircle
 10
458.448720115709
 20
851.0577770081335
 30
0.0
 40
0.5999624483820298
100
AcDbArc
 50
90.0
 51
180.0
  0
ARC
  5
468
330
4C
100
AcDbEntity
  8
1
  6
Continuous
 62
     7
100
AcDbCircle
 10
417.5512798842874
 20
845.6441158488923
 30
0.0
 40
0.5999624483828825
100
AcDbArc
 50
0.0
 51
90.0
  0
ARC
  5
469
330
4C
100
AcDbEntity
  8
1
  6
Continuous
 62
     7
100
AcDbCircle
 10
417.5512798842874
 20
845.6441158488923
 30
0.0
 40
0.5999624483828825
100
AcDbArc
 50
0.0
 51
90.0
  0
ENDBLK
  5
4E
330
4C
100
AcDbEntity
  8
0
100
AcDbBlockEnd
  0
BLOCK
  5
50
330
4F
100
AcDbEntity
  8
0
100
AcDbBlockBegin
  2
PACKING
 70
     0
 10
466.8981912637655
 20
636.4049763445508
 30
0.0
  3
PACKING
  1

  0
CIRCLE
  5
46A
330
4F
100
AcDbEntity
  8
1
  6
Continuous
 62
     7
100
AcDbCircle
 10
437.9999999999991
 20
287.6776944118482
 30
0.0
 40
29.89812867773799
  0
CIRCLE
  5
46B
330
4F
100
AcDbEntity
  8
1
  6
Continuous
 62
     7
100
AcDbCircle
 10
437.9999999999991
 20
287.6776944118482
 30
0.0
 40
32.89794091965092
  0
ENDBLK
  5
51
330
4F
100
AcDbEntity
  8
0
100
AcDbBlockEnd
  0
BLOCK
  5
53
330
52
100
AcDbEntity
  8
0
100
AcDbBlockBegin
  2
INNER
 70
     0
 10
413.5015333577048
 20
677.4024103173678
 30
0.0
  3
INNER
  1

  0
LINE
  5
46C
330
52
100
AcDbEntity
  8
5
  6
Continuous
 62
     7
100
AcDbLine
 10
413.5015333577048
 20
427.4627642461918
 30
0.0
 11
413.5015333577048
 21
438.2120914463811
 31
0.0
  0
LINE
  5
46D
330
52
100
AcDbEntity
  8
5
  6
Continuous
 62
     7
100
AcDbLine
 10
462.4984666422924
 20
427.4627642461918
 30
0.0
 11
462.4984666422924
 21
438.2120914463811
 31
0.0
  0
LINE
  5
46E
330
52
100
AcDbEntity
  8
5
  6
Continuous
 62
     7
100
AcDbLine
 10
414.5220134859101
 20
438.9620445068603
 30
0.0
 11
414.2514864181831
 21
438.9620445068603
 31
0.0
  0
LINE
  5
46F
330
52
100
AcDbEntity
  8
5
  6
Continuous
 62
     7
100
AcDbLine
 10
418.8012016517523
 20
438.9620445068603
 30
0.0
 11
414.5220134859101
 21
438.9620445068603
 31
0.0
  0
LINE
  5
470
330
52
100
AcDbEntity
  8
5
  6
Continuous
 62
     7
100
AcDbLine
 10
418.8012016517523
 20
438.9620445068603
 30
0.0
 11
461.7485135818151
 21
438.9620445068603
 31
0.0
  0
ARC
  5
471
330
52
100
AcDbEntity
  8
5
  6
Continuous
 62
     7
100
AcDbCircle
 10
461.7485135818151
 20
438.2120914463811
 30
0.0
 40
0.7499530604773099
100
AcDbArc
 50
0.0
 51
90.0
  0
ARC
  5
472
330
52
100
AcDbEntity
  8
5
  6
Continuous
 62
     7
100
AcDbCircle
 10
414.2514864181831
 20
438.2120914463811
 30
0.0
 40
0.7499530604791858
100
AcDbArc
 50
90.0
 51
180.0
  0
CIRCLE
  5
473
330
52
100
AcDbEntity
  8
1
  6
Continuous
 62
     7
100
AcDbCircle
 10
437.9999999999991
 20
287.6776944118482
 30
0.0
 40
16.59896107192071
  0
CIRCLE
  5
474
330
52
100
AcDbEntity
  8
1
  6
Continuous
 62
     7
100
AcDbCircle
 10
437.9999999999991
 20
287.6776944118482
 30
0.0
 40
21.24867004688804
  0
CIRCLE
  5
475
330
52
100
AcDbEntity
  8
1
  6
Continuous
 62
     7
100
AcDbCircle
 10
437.9999999999991
 20
287.6776944118482
 30
0.0
 40
26.8983164358242
  0
CIRCLE
  5
476
330
52
100
AcDbEntity
  8
1
  6
Continuous
 62
     7
100
AcDbCircle
 10
437.9999999999991
 20
287.6776944118482
 30
0.0
 40
28.89819126376642
  0
CIRCLE
  5
477
330
52
100
AcDbEntity
  8
1
  6
Continuous
 62
     7
100
AcDbCircle
 10
437.9999999999991
 20
287.6776944118482
 30
0.0
 40
32.89794091965092
  0
ENDBLK
  5
54
330
52
100
AcDbEntity
  8
0
100
AcDbBlockEnd
  0
BLOCK
  5
56
330
55
100
AcDbEntity
  8
0
100
AcDbBlockBegin
  2
NUT
 70
     0
 10
399.0024408551226
 20
645.0730322114003
 30
0.0
  3
NUT
  1

  0
LINE
  5
478
330
55
100
AcDbEntity
  8
6
  6
Continuous
 62
     7
100
AcDbLine
 10
437.9999999999991
 20
422.4630771763358
 30
0.0
 11
437.9999999999991
 21
397.4646418270558
 31
0.0
  0
LINE
  5
479
330
55
100
AcDbEntity
  8
6
  6
Continuous
 62
     7
100
AcDbLine
 10
462.1018162686196
 20
422.4630771763358
 30
0.0
 11
462.1018162686196
 21
397.4646418270558
 31
0.0
  0
LINE
  5
47A
330
55
100
AcDbEntity
  8
6
  6
Continuous
 62
     7
100
AcDbLine
 10
399.0024408551226
 20
397.4646418270558
 30
0.0
 11
437.9999999999991
 21
397.4646418270558
 31
0.0
  0
LINE
  5
47B
330
55
100
AcDbEntity
  8
6
  6
Continuous
 62
     7
100
AcDbLine
 10
476.9975591448738
 20
397.4646418270558
 30
0.0
 11
437.9999999999991
 21
397.4646418270558
 31
0.0
  0
LINE
  5
47C
330
55
100
AcDbEntity
  8
6
  6
Continuous
 62
     7
100
AcDbLine
 10
476.9975591448738
 20
397.4646418270558
 30
0.0
 11
476.9975591448738
 21
422.4630771763358
 31
0.0
  0
LINE
  5
47D
330
55
100
AcDbEntity
  8
6
  6
Continuous
 62
     7
100
AcDbLine
 10
399.0024408551226
 20
397.4646418270558
 30
0.0
 11
399.0024408551226
 21
408.9646418270558
 31
0.0
  0
LINE
  5
47E
330
55
100
AcDbEntity
  8
6
  6
Continuous
 62
     7
100
AcDbLine
 10
404.0021279249786
 20
427.4627642461918
 30
0.0
 11
471.9978720750178
 21
427.4627642461918
 31
0.0
  0
LINE
  5
47F
330
55
100
AcDbEntity
  8
6
  6
Continuous
 62
     7
100
AcDbLine
 10
413.8981837313786
 20
397.4646418270558
 30
0.0
 11
413.8981837313786
 21
422.4630771763358
 31
0.0
  0
LINE
  5
480
330
55
100
AcDbEntity
  8
1
  6
Continuous
 62
     7
100
AcDbLine
 10
476.9975591448738
 20
300.3487694830254
 30
0.0
 11
476.9975591448738
 21
275.0066193406709
 31
0.0
  0
LINE
  5
481
330
55
100
AcDbEntity
  8
1
  6
Continuous
 62
     7
100
AcDbLine
 10
399.0024408551226
 20
300.3487694830263
 30
0.0
 11
399.0024408551226
 21
275.0066193406709
 31
0.0
  0
LINE
  5
482
330
55
100
AcDbEntity
  8
1
  6
Continuous
 62
     7
100
AcDbLine
 10
462.1018170298021
 20
320.8509996222027
 30
0.0
 11
476.9975591448683
 21
300.3487694830427
 31
0.0
  0
LINE
  5
483
330
55
100
AcDbEntity
  8
1
  6
Continuous
 62
     7
100
AcDbLine
 10
437.9999999999645
 20
328.6821546901819
 30
0.0
 11
462.1018170297875
 21
320.8509996222127
 31
0.0
  0
LINE
  5
484
330
55
100
AcDbEntity
  8
1
  6
Continuous
 62
     7
100
AcDbLine
 10
413.8981829701415
 20
320.8509996221627
 30
0.0
 11
437.9999999999463
 21
328.6821546901819
 31
0.0
  0
LINE
  5
485
330
55
100
AcDbEntity
  8
1
  6
Continuous
 62
     7
100
AcDbLine
 10
399.0024408551044
 20
300.3487694829609
 30
0.0
 11
413.8981829701261
 21
320.8509996221518
 31
0.0
  0
LINE
  5
486
330
55
100
AcDbEntity
  8
1
  6
Continuous
 62
     7
100
AcDbLine
 10
399.002440855128
 20
275.0066193406536
 30
0.0
 11
413.8981829701961
 21
254.5043892014918
 31
0.0
  0
LINE
  5
487
330
55
100
AcDbEntity
  8
1
  6
Continuous
 62
     7
100
AcDbLine
 10
413.8981829702107
 20
254.5043892014827
 30
0.0
 11
438.0000000000355
 21
246.6732341335127
 31
0.0
  0
LINE
  5
488
330
55
100
AcDbEntity
  8
1
  6
Continuous
 62
     7
100
AcDbLine
 10
438.0000000000518
 20
246.6732341335145
 30
0.0
 11
462.1018170298603
 21
254.5043892015336
 31
0.0
  0
LINE
  5
489
330
55
100
AcDbEntity
  8
1
  6
Continuous
 62
     7
100
AcDbLine
 10
462.101817029873
 20
254.5043892015446
 30
0.0
 11
476.9975591448974
 21
275.0066193407373
 31
0.0
  0
LINE
  5
48A
330
55
100
AcDbEntity
  8
6
  6
Continuous
 62
     7
100
AcDbLine
 10
399.0024408551226
 20
408.9646418270558
 30
0.0
 11
399.0024408551226
 21
422.4630771763358
 31
0.0
  0
ARC
  5
48B
330
55
100
AcDbEntity
  8
6
  6
Continuous
 62
     7
100
AcDbCircle
 10
469.5496877067471
 20
419.4219715189746
 30
0.0
 40
8.044818075271369
100
AcDbArc
 50
22.21111800000143
 51
157.7888819999983
  0
ARC
  5
48C
330
55
100
AcDbEntity
  8
6
  6
Continuous
 62
     7
100
AcDbCircle
 10
450.0509081343098
 20
410.9976123991581
 30
0.0
 40
16.63373969512898
100
AcDbArc
 50
43.57390699999845
 51
136.426093000004
  0
ARC
  5
48D
330
55
100
AcDbEntity
  8
6
  6
Continuous
 62
     7
100
AcDbCircle
 10
471.9978720750178
 20
422.4630771763358
 30
0.0
 40
4.999687069855952
100
AcDbArc
 50
0.0
 51
90.0
  0
ARC
  5
48E
330
55
100
AcDbEntity
  8
6
  6
Continuous
 62
     7
100
AcDbCircle
 10
404.0021279249786
 20
422.4630771763358
 30
0.0
 40
4.999687069856009
100
AcDbArc
 50
90.0
 51
180.0
  0
ARC
  5
48F
330
55
100
AcDbEntity
  8
6
  6
Continuous
 62
     7
100
AcDbCircle
 10
425.9490918656884
 20
410.9976123991581
 30
0.0
 40
16.63373969512964
100
AcDbArc
 50
43.57390699999629
 51
136.4260930000016
  0
ARC
  5
490
330
55
100
AcDbEntity
  8
6
  6
Continuous
 62
     7
100
AcDbCircle
 10
406.4503122932511
 20
419.4219715189746
 30
0.0
 40
8.044818075271264
100
AcDbArc
 50
22.21111800000173
 51
157.7888819999986
  0
CIRCLE
  5
491
330
55
100
AcDbEntity
  8
1
  6
Continuous
 62
     7
100
AcDbCircle
 10
437.9999999999991
 20
287.6776944118482
 30
0.0
 40
33.44790649733483
  0
CIRCLE
  5
492
330
55
100
AcDbEntity
  8
1
  6
Continuous
 62
     2
100
AcDbCircle
 10
437.9999999999991
 20
287.6776944118482
 30
0.0
 40
34.99780948899019
  0
ENDBLK
  5
57
330
55
100
AcDbEntity
  8
0
100
AcDbBlockEnd
  0
BLOCK
  5
59
330
58
100
AcDbEntity
  8
0
100
AcDbBlockBegin
  2
CAP
 70
     0
 10
393.5027850782817
 20
1021.760223892055
 30
0.0
  3
CAP
  1

  0
LINE
  5
493
330
58
100
AcDbEntity
  8
5
  6
Continuous
 62
     7
100
AcDbLine
 10
465.498278884209
 20
953.2749872384555
 30
0.0
 11
465.498278884209
 21
942.7756443917596
 31
0.0
  0
LINE
  5
494
330
58
100
AcDbEntity
  8
5
  6
Continuous
 62
     7
100
AcDbLine
 10
472.9978094889921
 20
929.2764893031471
 30
0.0
 11
438.0000000000009
 21
929.2764893031471
 31
0.0
  0
LINE
  5
495
330
58
100
AcDbEntity
  8
5
  6
Continuous
 62
     7
100
AcDbLine
 10
472.9978094889921
 20
928.2765518891764
 30
0.0
 11
438.0000000000009
 21
928.2765518891764
 31
0.0
  0
LINE
  5
496
330
58
100
AcDbEntity
  8
5
  6
Continuous
 62
     7
100
AcDbLine
 10
475.9976217309059
 20
919.2771151634369
 30
0.0
 11
438.0000000000009
 21
919.2771151634369
 31
0.0
  0
LINE
  5
497
330
58
100
AcDbEntity
  8
5
  6
Continuous
 62
     7
100
AcDbLine
 10
475.9976217309059
 20
918.2771777494644
 30
0.0
 11
438.0000000000009
 21
918.2771777494644
 31
0.0
  0
LINE
  5
498
330
58
100
AcDbEntity
  8
5
  6
Continuous
 62
     7
100
AcDbLine
 10
470.9979346610508
 20
939.2758634428591
 30
0.0
 11
438.0000000000009
 21
939.2758634428591
 31
0.0
  0
LINE
  5
499
330
58
100
AcDbEntity
  8
5
  6
Continuous
 62
     7
100
AcDbLine
 10
470.9979346610508
 20
938.2759260288875
 30
0.0
 11
438.0000000000009
 21
938.2759260288875
 31
0.0
  0
LINE
  5
49A
330
58
100
AcDbEntity
  8
5
  6
Continuous
 62
     7
100
AcDbLine
 10
438.0000000000009
 20
942.7756443917596
 30
0.0
 11
465.498278884209
 21
942.7756443917596
 31
0.0
  0
LINE
  5
49B
330
58
100
AcDbEntity
  8
5
  6
Continuous
 62
     7
100
AcDbLine
 10
438.0000000000009
 20
932.7762702520475
 30
0.0
 11
470.9979346610508
 21
932.7762702520475
 31
0.0
  0
LINE
  5
49C
330
58
100
AcDbEntity
  8
5
  6
Continuous
 62
     7
100
AcDbLine
 10
438.0000000000009
 20
922.7768961123355
 30
0.0
 11
472.9978094889921
 21
922.7768961123355
 31
0.0
  0
LINE
  5
49D
330
58
100
AcDbEntity
  8
5
  6
Continuous
 62
     7
100
AcDbLine
 10
438.0000000000009
 20
911.7775845586519
 30
0.0
 11
475.9976217309059
 21
911.7775845586519
 31
0.0
  0
LINE
  5
49E
330
58
100
AcDbEntity
  8
5
  6
Continuous
 62
     7
100
AcDbLine
 10
438.0000000000009
 20
907.7778349027675
 30
0.0
 11
474.9976843169343
 21
907.7778349027675
 31
0.0
  0
LINE
  5
49F
330
58
100
AcDbEntity
  8
5
  6
Continuous
 62
     7
100
AcDbLine
 10
474.9976843169343
 20
907.7778349027675
 30
0.0
 11
480.4973400937761
 21
907.7778349027675
 31
0.0
  0
LINE
  5
4A0
330
58
100
AcDbEntity
  8
5
  6
Continuous
 62
     7
100
AcDbLine
 10
480.4973400937761
 20
911.7775845586519
 30
0.0
 11
475.9976217309059
 21
911.7775845586519
 31
0.0
  0
LINE
  5
4A1
330
58
100
AcDbEntity
  8
5
  6
Continuous
 62
     7
100
AcDbLine
 10
472.9978094889921
 20
922.7768961123355
 30
0.0
 11
473.9977469029636
 21
922.7768961123355
 31
0.0
  0
LINE
  5
4A2
330
58
100
AcDbEntity
  8
5
  6
Continuous
 62
     7
100
AcDbLine
 10
475.9976217309059
 20
920.7770212843933
 30
0.0
 11
475.9976217309059
 21
919.2771151634369
 31
0.0
  0
LINE
  5
4A3
330
58
100
AcDbEntity
  8
5
  6
Continuous
 62
     7
100
AcDbLine
 10
472.9978094889921
 20
930.7763954241044
 30
0.0
 11
472.9978094889921
 21
929.2764893031471
 31
0.0
  0
LINE
  5
4A4
330
58
100
AcDbEntity
  8
5
  6
Continuous
 62
     7
100
AcDbLine
 10
465.498278884209
 20
942.7756443917596
 30
0.0
 11
468.9980598331076
 21
942.7756443917596
 31
0.0
  0
LINE
  5
4A5
330
58
100
AcDbEntity
  8
5
  6
Continuous
 62
     7
100
AcDbLine
 10
470.9979346610508
 20
940.7757695638164
 30
0.0
 11
470.9979346610508
 21
939.2758634428591
 31
0.0
  0
LINE
  5
4A6
330
58
100
AcDbEntity
  8
5
  6
Continuous
 62
     7
100
AcDbLine
 10
470.9979346610508
 20
939.2758634428591
 30
0.0
 11
471.37348875514
 21
939.0254935134998
 31
0.0
  0
LINE
  5
4A7
330
58
100
AcDbEntity
  8
5
  6
Continuous
 62
     7
100
AcDbLine
 10
471.37348875514
 20
938.5262943583474
 30
0.0
 11
470.9979346610508
 21
938.2759260288875
 31
0.0
  0
LINE
  5
4A8
330
58
100
AcDbEntity
  8
5
  6
Continuous
 62
     7
100
AcDbLine
 10
470.9979346610508
 20
938.2759260288875
 30
0.0
 11
470.9979346610508
 21
932.7762702520475
 31
0.0
  0
LINE
  5
4A9
330
58
100
AcDbEntity
  8
5
  6
Continuous
 62
     7
100
AcDbLine
 10
472.9978094889921
 20
929.2764893031471
 30
0.0
 11
473.3733635830831
 21
929.0261193737896
 31
0.0
  0
LINE
  5
4AA
330
58
100
AcDbEntity
  8
5
  6
Continuous
 62
     7
100
AcDbLine
 10
473.3733635830831
 20
928.5269202186363
 30
0.0
 11
472.9978094889921
 21
928.2765518891764
 31
0.0
  0
LINE
  5
4AB
330
58
100
AcDbEntity
  8
5
  6
Continuous
 62
     7
100
AcDbLine
 10
472.9978094889921
 20
928.2765518891764
 30
0.0
 11
472.9978094889921
 21
922.7768961123355
 31
0.0
  0
LINE
  5
4AC
330
58
100
AcDbEntity
  8
5
  6
Continuous
 62
     7
100
AcDbLine
 10
475.9976217309059
 20
919.2771151634369
 30
0.0
 11
476.373175824996
 21
919.0267452340776
 31
0.0
  0
LINE
  5
4AD
330
58
100
AcDbEntity
  8
5
  6
Continuous
 62
     7
100
AcDbLine
 10
476.373175824996
 20
918.5275460789243
 30
0.0
 11
475.9976217309059
 21
918.2771777494644
 31
0.0
  0
LINE
  5
4AE
330
58
100
AcDbEntity
  8
5
  6
Continuous
 62
     7
100
AcDbLine
 10
475.9976217309059
 20
918.2771777494644
 30
0.0
 11
475.9976217309059
 21
911.7775845586519
 31
0.0
  0
LINE
  5
4AF
330
58
100
AcDbEntity
  8
5
  6
Continuous
 62
     7
100
AcDbLine
 10
462.998435349281
 20
968.2740484480236
 30
0.0
 11
462.998435349281
 21
957.7747056013258
 31
0.0
  0
LINE
  5
4B0
330
58
100
AcDbEntity
  8
5
  6
Continuous
 62
     7
100
AcDbLine
 10
465.498278884209
 20
954.2749246524271
 30
0.0
 11
438.0000000000009
 21
954.2749246524271
 31
0.0
  0
LINE
  5
4B1
330
58
100
AcDbEntity
  8
5
  6
Continuous
 62
     7
100
AcDbLine
 10
438.0000000000009
 20
953.2749872384555
 30
0.0
 11
465.498278884209
 21
953.2749872384555
 31
0.0
  0
LINE
  5
4B2
330
58
100
AcDbEntity
  8
5
  6
Continuous
 62
     7
100
AcDbLine
 10
438.0000000000009
 20
957.7747056013258
 30
0.0
 11
462.998435349281
 21
957.7747056013258
 31
0.0
  0
LINE
  5
4B3
330
58
100
AcDbEntity
  8
5
  6
Continuous
 62
     7
100
AcDbLine
 10
462.998435349281
 20
957.7747056013258
 30
0.0
 11
463.4984040562667
 21
957.7747056013258
 31
0.0
  0
LINE
  5
4B4
330
58
100
AcDbEntity
  8
5
  6
Continuous
 62
     7
100
AcDbLine
 10
465.498278884209
 20
955.7748307733835
 30
0.0
 11
465.498278884209
 21
954.2749246524271
 31
0.0
  0
LINE
  5
4B5
330
58
100
AcDbEntity
  8
5
  6
Continuous
 62
     7
100
AcDbLine
 10
465.498278884209
 20
954.2749246524271
 30
0.0
 11
465.8738329782991
 21
954.0245547230669
 31
0.0
  0
LINE
  5
4B6
330
58
100
AcDbEntity
  8
5
  6
Continuous
 62
     7
100
AcDbLine
 10
465.8738329782991
 20
953.5253555679154
 30
0.0
 11
465.498278884209
 21
953.2749872384555
 31
0.0
  0
LINE
  5
4B7
330
58
100
AcDbEntity
  8
5
  6
Continuous
 62
     7
100
AcDbLine
 10
461.9984979353103
 20
972.7737668108929
 30
0.0
 11
461.9984979353103
 21
996.772264746201
 31
0.0
  0
LINE
  5
4B8
330
58
100
AcDbEntity
  8
5
  6
Continuous
 62
     7
100
AcDbLine
 10
462.998435349281
 20
971.0418240131002
 30
0.0
 11
462.998435349281
 21
969.2739858619942
 31
0.0
  0
LINE
  5
4B9
330
58
100
AcDbEntity
  8
5
  6
Continuous
 62
     7
100
AcDbLine
 10
438.0000000000009
 20
972.7737668108929
 30
0.0
 11
461.9984979353103
 21
972.7737668108929
 31
0.0
  0
LINE
  5
4BA
330
58
100
AcDbEntity
  8
5
  6
Continuous
 62
     7
100
AcDbLine
 10
462.998435349281
 20
969.2739858619942
 30
0.0
 11
438.0000000000009
 21
969.2739858619942
 31
0.0
  0
LINE
  5
4BB
330
58
100
AcDbEntity
  8
5
  6
Continuous
 62
     7
100
AcDbLine
 10
438.0000000000009
 20
968.2740484480236
 30
0.0
 11
462.998435349281
 21
968.2740484480236
 31
0.0
  0
LINE
  5
4BC
330
58
100
AcDbEntity
  8
5
  6
Continuous
 62
     7
100
AcDbLine
 10
438.0000000000009
 20
997.772202160173
 30
0.0
 11
460.9988133055167
 21
997.772202160173
 31
0.0
  0
LINE
  5
4BD
330
58
100
AcDbEntity
  8
5
  6
Continuous
 62
     7
100
AcDbLine
 10
462.998435349281
 20
969.2739858619942
 30
0.0
 11
463.3739894433711
 21
969.0236159326349
 31
0.0
  0
LINE
  5
4BE
330
58
100
AcDbEntity
  8
5
  6
Continuous
 62
     7
100
AcDbLine
 10
463.3739894433711
 20
968.5244167774835
 30
0.0
 11
462.998435349281
 21
968.2740484480236
 31
0.0
  0
LINE
  5
4BF
330
58
100
AcDbEntity
  8
5
  6
Continuous
 62
     7
100
AcDbLine
 10
413.0015646507191
 20
968.2740484480236
 30
0.0
 11
412.6260105566298
 21
968.5244167774835
 31
0.0
  0
LINE
  5
4C0
330
58
100
AcDbEntity
  8
5
  6
Continuous
 62
     7
100
AcDbLine
 10
412.6260105566298
 20
969.0236159326349
 30
0.0
 11
413.0015646507191
 21
969.2739858619942
 31
0.0
  0
LINE
  5
4C1
330
58
100
AcDbEntity
  8
5
  6
Continuous
 62
     7
100
AcDbLine
 10
415.0011866944833
 20
997.772202160173
 30
0.0
 11
437.9999999999991
 21
997.772202160173
 31
0.0
  0
LINE
  5
4C2
330
58
100
AcDbEntity
  8
5
  6
Continuous
 62
     7
100
AcDbLine
 10
413.0015646507191
 20
968.2740484480236
 30
0.0
 11
437.9999999999991
 21
968.2740484480236
 31
0.0
  0
LINE
  5
4C3
330
58
100
AcDbEntity
  8
5
  6
Continuous
 62
     7
100
AcDbLine
 10
437.9999999999991
 20
969.2739858619942
 30
0.0
 11
413.0015646507191
 21
969.2739858619942
 31
0.0
  0
LINE
  5
4C4
330
58
100
AcDbEntity
  8
5
  6
Continuous
 62
     7
100
AcDbLine
 10
414.0015020646897
 20
972.7737668108929
 30
0.0
 11
437.9999999999991
 21
972.7737668108929
 31
0.0
  0
LINE
  5
4C5
330
58
100
AcDbEntity
  8
5
  6
Continuous
 62
     7
100
AcDbLine
 10
413.0015646507191
 20
969.2739858619942
 30
0.0
 11
413.0015646507191
 21
971.0418240131002
 31
0.0
  0
LINE
  5
4C6
330
58
100
AcDbEntity
  8
5
  6
Continuous
 62
     7
100
AcDbLine
 10
414.0015020646897
 20
996.772264746201
 30
0.0
 11
414.0015020646897
 21
972.7737668108929
 31
0.0
  0
LINE
  5
4C7
330
58
100
AcDbEntity
  8
5
  6
Continuous
 62
     7
100
AcDbLine
 10
410.501721115791
 20
953.2749872384555
 30
0.0
 11
410.1261670217018
 21
953.5253555679154
 31
0.0
  0
LINE
  5
4C8
330
58
100
AcDbEntity
  8
5
  6
Continuous
 62
     7
100
AcDbLine
 10
410.1261670217018
 20
954.0245547230669
 30
0.0
 11
410.501721115791
 21
954.2749246524271
 31
0.0
  0
LINE
  5
4C9
330
58
100
AcDbEntity
  8
5
  6
Continuous
 62
     7
100
AcDbLine
 10
410.501721115791
 20
954.2749246524271
 30
0.0
 11
410.501721115791
 21
955.7748307733835
 31
0.0
  0
LINE
  5
4CA
330
58
100
AcDbEntity
  8
5
  6
Continuous
 62
     7
100
AcDbLine
 10
412.5015959437333
 20
957.7747056013258
 30
0.0
 11
413.0015646507191
 21
957.7747056013258
 31
0.0
  0
LINE
  5
4CB
330
58
100
AcDbEntity
  8
5
  6
Continuous
 62
     7
100
AcDbLine
 10
413.0015646507191
 20
957.7747056013258
 30
0.0
 11
437.9999999999991
 21
957.7747056013258
 31
0.0
  0
LINE
  5
4CC
330
58
100
AcDbEntity
  8
5
  6
Continuous
 62
     7
100
AcDbLine
 10
410.501721115791
 20
953.2749872384555
 30
0.0
 11
437.9999999999991
 21
953.2749872384555
 31
0.0
  0
LINE
  5
4CD
330
58
100
AcDbEntity
  8
5
  6
Continuous
 62
     7
100
AcDbLine
 10
437.9999999999991
 20
954.2749246524271
 30
0.0
 11
410.501721115791
 21
954.2749246524271
 31
0.0
  0
LINE
  5
4CE
330
58
100
AcDbEntity
  8
5
  6
Continuous
 62
     7
100
AcDbLine
 10
413.0015646507191
 20
957.7747056013258
 30
0.0
 11
413.0015646507191
 21
968.2740484480236
 31
0.0
  0
LINE
  5
4CF
330
58
100
AcDbEntity
  8
5
  6
Continuous
 62
     7
100
AcDbLine
 10
400.0023782690942
 20
911.7775845586519
 30
0.0
 11
400.0023782690942
 21
918.2771777494644
 31
0.0
  0
LINE
  5
4D0
330
58
100
AcDbEntity
  8
5
  6
Continuous
 62
     7
100
AcDbLine
 10
400.0023782690942
 20
918.2771777494644
 30
0.0
 11
399.626824175004
 21
918.5275460789243
 31
0.0
  0
LINE
  5
4D1
330
58
100
AcDbEntity
  8
5
  6
Continuous
 62
     7
100
AcDbLine
 10
399.626824175004
 20
919.0267452340776
 30
0.0
 11
400.0023782690942
 21
919.2771151634369
 31
0.0
  0
LINE
  5
4D2
330
58
100
AcDbEntity
  8
5
  6
Continuous
 62
     7
100
AcDbLine
 10
403.0021905110079
 20
922.7768961123355
 30
0.0
 11
403.0021905110079
 21
928.2765518891764
 31
0.0
  0
LINE
  5
4D3
330
58
100
AcDbEntity
  8
5
  6
Continuous
 62
     7
100
AcDbLine
 10
403.0021905110079
 20
928.2765518891764
 30
0.0
 11
402.6266364169178
 21
928.5269202186363
 31
0.0
  0
LINE
  5
4D4
330
58
100
AcDbEntity
  8
5
  6
Continuous
 62
     7
100
AcDbLine
 10
402.6266364169178
 20
929.0261193737896
 30
0.0
 11
403.0021905110079
 21
929.2764893031471
 31
0.0
  0
LINE
  5
4D5
330
58
100
AcDbEntity
  8
5
  6
Continuous
 62
     7
100
AcDbLine
 10
405.0020653389511
 20
932.7762702520475
 30
0.0
 11
405.0020653389511
 21
938.2759260288875
 31
0.0
  0
LINE
  5
4D6
330
58
100
AcDbEntity
  8
5
  6
Continuous
 62
     7
100
AcDbLine
 10
405.0020653389511
 20
938.2759260288875
 30
0.0
 11
404.62651124486
 21
938.5262943583474
 31
0.0
  0
LINE
  5
4D7
330
58
100
AcDbEntity
  8
5
  6
Continuous
 62
     7
100
AcDbLine
 10
404.62651124486
 20
939.0254935134998
 30
0.0
 11
405.0020653389511
 21
939.2758634428591
 31
0.0
  0
LINE
  5
4D8
330
58
100
AcDbEntity
  8
5
  6
Continuous
 62
     7
100
AcDbLine
 10
405.0020653389511
 20
939.2758634428591
 30
0.0
 11
405.0020653389511
 21
940.7757695638164
 31
0.0
  0
LINE
  5
4D9
330
58
100
AcDbEntity
  8
5
  6
Continuous
 62
     7
100
AcDbLine
 10
407.0019401668924
 20
942.7756443917596
 30
0.0
 11
410.501721115791
 21
942.7756443917596
 31
0.0
  0
LINE
  5
4DA
330
58
100
AcDbEntity
  8
5
  6
Continuous
 62
     7
100
AcDbLine
 10
403.0021905110079
 20
929.2764893031471
 30
0.0
 11
403.0021905110079
 21
930.7763954241044
 31
0.0
  0
LINE
  5
4DB
330
58
100
AcDbEntity
  8
5
  6
Continuous
 62
     7
100
AcDbLine
 10
400.0023782690942
 20
919.2771151634369
 30
0.0
 11
400.0023782690942
 21
920.7770212843933
 31
0.0
  0
LINE
  5
4DC
330
58
100
AcDbEntity
  8
5
  6
Continuous
 62
     7
100
AcDbLine
 10
402.0022530970364
 20
922.7768961123355
 30
0.0
 11
403.0021905110079
 21
922.7768961123355
 31
0.0
  0
LINE
  5
4DD
330
58
100
AcDbEntity
  8
5
  6
Continuous
 62
     7
100
AcDbLine
 10
400.0023782690942
 20
911.7775845586519
 30
0.0
 11
395.5026599062239
 21
911.7775845586519
 31
0.0
  0
LINE
  5
4DE
330
58
100
AcDbEntity
  8
5
  6
Continuous
 62
     7
100
AcDbLine
 10
395.5026599062239
 20
907.7778349027675
 30
0.0
 11
401.0023156830657
 21
907.7778349027675
 31
0.0
  0
LINE
  5
4DF
330
58
100
AcDbEntity
  8
5
  6
Continuous
 62
     7
100
AcDbLine
 10
401.0023156830657
 20
907.7778349027675
 30
0.0
 11
437.9999999999991
 21
907.7778349027675
 31
0.0
  0
LINE
  5
4E0
330
58
100
AcDbEntity
  8
5
  6
Continuous
 62
     7
100
AcDbLine
 10
400.0023782690942
 20
911.7775845586519
 30
0.0
 11
437.9999999999991
 21
911.7775845586519
 31
0.0
  0
LINE
  5
4E1
330
58
100
AcDbEntity
  8
5
  6
Continuous
 62
     7
100
AcDbLine
 10
403.0021905110079
 20
922.7768961123355
 30
0.0
 11
437.9999999999991
 21
922.7768961123355
 31
0.0
  0
LINE
  5
4E2
330
58
100
AcDbEntity
  8
5
  6
Continuous
 62
     7
100
AcDbLine
 10
405.0020653389511
 20
932.7762702520475
 30
0.0
 11
437.9999999999991
 21
932.7762702520475
 31
0.0
  0
LINE
  5
4E3
330
58
100
AcDbEntity
  8
5
  6
Continuous
 62
     7
100
AcDbLine
 10
410.501721115791
 20
942.7756443917596
 30
0.0
 11
437.9999999999991
 21
942.7756443917596
 31
0.0
  0
LINE
  5
4E4
330
58
100
AcDbEntity
  8
5
  6
Continuous
 62
     7
100
AcDbLine
 10
437.9999999999991
 20
938.2759260288875
 30
0.0
 11
405.0020653389511
 21
938.2759260288875
 31
0.0
  0
LINE
  5
4E5
330
58
100
AcDbEntity
  8
5
  6
Continuous
 62
     7
100
AcDbLine
 10
437.9999999999991
 20
939.2758634428591
 30
0.0
 11
405.0020653389511
 21
939.2758634428591
 31
0.0
  0
LINE
  5
4E6
330
58
100
AcDbEntity
  8
5
  6
Continuous
 62
     7
100
AcDbLine
 10
437.9999999999991
 20
918.2771777494644
 30
0.0
 11
400.0023782690942
 21
918.2771777494644
 31
0.0
  0
LINE
  5
4E7
330
58
100
AcDbEntity
  8
5
  6
Continuous
 62
     7
100
AcDbLine
 10
437.9999999999991
 20
919.2771151634369
 30
0.0
 11
400.0023782690942
 21
919.2771151634369
 31
0.0
  0
LINE
  5
4E8
330
58
100
AcDbEntity
  8
5
  6
Continuous
 62
     7
100
AcDbLine
 10
437.9999999999991
 20
928.2765518891764
 30
0.0
 11
403.0021905110079
 21
928.2765518891764
 31
0.0
  0
LINE
  5
4E9
330
58
100
AcDbEntity
  8
5
  6
Continuous
 62
     7
100
AcDbLine
 10
437.9999999999991
 20
929.2764893031471
 30
0.0
 11
403.0021905110079
 21
929.2764893031471
 31
0.0
  0
LINE
  5
4EA
330
58
100
AcDbEntity
  8
5
  6
Continuous
 62
     7
100
AcDbLine
 10
410.501721115791
 20
942.7756443917596
 30
0.0
 11
410.501721115791
 21
953.2749872384555
 31
0.0
  0
ARC
  5
4EB
330
58
100
AcDbEntity
  8
5
  6
Continuous
 62
     7
100
AcDbCircle
 10
480.4973400937761
 20
909.7777097307106
 30
0.0
 40
1.999874827943131
100
AcDbArc
 50
270.0
 51
0.0
  0
ARC
  5
4EC
330
58
100
AcDbEntity
  8
5
  6
Continuous
 62
     7
100
AcDbCircle
 10
480.4973400937761
 20
909.7777097307106
 30
0.0
 40
1.999874827942222
100
AcDbArc
 50
0.0
 51
90.0
  0
ARC
  5
4ED
330
58
100
AcDbEntity
  8
5
  6
Continuous
 62
     7
100
AcDbCircle
 10
473.9977469029636
 20
920.7770212843933
 30
0.0
 40
1.999874827942278
100
AcDbArc
 50
0.0
 51
90.0
  0
ARC
  5
4EE
330
58
100
AcDbEntity
  8
5
  6
Continuous
 62
     7
100
AcDbCircle
 10
470.9979346610508
 20
930.7763954241044
 30
0.0
 40
1.999874827941312
100
AcDbArc
 50
0.0
 51
90.0
  0
ARC
  5
4EF
330
58
100
AcDbEntity
  8
5
  6
Continuous
 62
     7
100
AcDbCircle
 10
468.9980598331076
 20
940.7757695638164
 30
0.0
 40
1.999874827943188
100
AcDbArc
 50
0.0
 51
90.0
  0
ARC
  5
4F0
330
58
100
AcDbEntity
  8
5
  6
Continuous
 62
     7
100
AcDbCircle
 10
471.207087970156
 20
938.7758947358742
 30
0.0
 40
0.2999812241913014
100
AcDbArc
 50
303.6900679999068
 51
56.30993200018957
  0
ARC
  5
4F1
330
58
100
AcDbEntity
  8
5
  6
Continuous
 62
     7
100
AcDbCircle
 10
473.2069627980991
 20
928.7765205961622
 30
0.0
 40
0.2999812241913329
100
AcDbArc
 50
303.6900679999158
 51
56.30993200018054
  0
ARC
  5
4F2
330
58
100
AcDbEntity
  8
5
  6
Continuous
 62
     7
100
AcDbCircle
 10
476.206775040012
 20
918.7771464564502
 30
0.0
 40
0.2999812241918058
100
AcDbArc
 50
303.6900680000513
 51
56.30993200004504
  0
ARC
  5
4F3
330
58
100
AcDbEntity
  8
5
  6
Continuous
 62
     7
100
AcDbCircle
 10
463.4984040562667
 20
955.7748307733835
 30
0.0
 40
1.999874827942335
100
AcDbArc
 50
0.0
 51
90.0
  0
ARC
  5
4F4
330
58
100
AcDbEntity
  8
5
  6
Continuous
 62
     7
100
AcDbCircle
 10
465.7074321933151
 20
953.7749559454413
 30
0.0
 40
0.2999812241905446
100
AcDbArc
 50
303.6900680000032
 51
56.30993200009322
  0
ARC
  5
4F5
330
58
100
AcDbEntity
  8
5
  6
Continuous
 62
     7
100
AcDbCircle
 10
460.9985605213387
 20
971.0418240131002
 30
0.0
 40
1.999874827942335
100
AcDbArc
 50
0.0
 51
59.99999999999594
  0
ARC
  5
4F6
330
58
100
AcDbEntity
  8
5
  6
Continuous
 62
     7
100
AcDbCircle
 10
460.9985605213387
 20
996.772264746201
 30
0.0
 40
0.9999374139716224
100
AcDbArc
 50
0.0
 51
89.99999799998601
  0
ARC
  5
4F7
330
58
100
AcDbEntity
  8
5
  6
Continuous
 62
     7
100
AcDbCircle
 10
463.2075886583871
 20
968.7740171550093
 30
0.0
 40
0.2999812241913014
100
AcDbArc
 50
303.6900679999068
 51
56.30993200009322
  0
ARC
  5
4F8
330
58
100
AcDbEntity
  8
5
  6
Continuous
 62
     7
100
AcDbCircle
 10
412.7924113416129
 20
968.7740171550093
 30
0.0
 40
0.2999812241913014
100
AcDbArc
 50
123.6900679999068
 51
236.3099320000932
  0
ARC
  5
4F9
330
58
100
AcDbEntity
  8
5
  6
Continuous
 62
     7
100
AcDbCircle
 10
415.0014394786613
 20
996.772264746201
 30
0.0
 40
0.999937413972021
100
AcDbArc
 50
90.00000200001399
 51
180.0
  0
ARC
  5
4FA
330
58
100
AcDbEntity
  8
5
  6
Continuous
 62
     7
100
AcDbCircle
 10
415.0014394786613
 20
971.0418240131002
 30
0.0
 40
1.999874827942999
100
AcDbArc
 50
120.0000000000041
 51
180.0
  0
ARC
  5
4FB
330
58
100
AcDbEntity
  8
5
  6
Continuous
 62
     7
100
AcDbCircle
 10
410.2925678066858
 20
953.7749559454413
 30
0.0
 40
0.2999812241918058
100
AcDbArc
 50
123.6900680000513
 51
236.3099319998523
  0
ARC
  5
4FC
330
58
100
AcDbEntity
  8
5
  6
Continuous
 62
     7
100
AcDbCircle
 10
412.5015959437333
 20
955.7748307733835
 30
0.0
 40
1.999874827942222
100
AcDbArc
 50
90.0
 51
180.0
  0
ARC
  5
4FD
330
58
100
AcDbEntity
  8
5
  6
Continuous
 62
     7
100
AcDbCircle
 10
399.793224959988
 20
918.7771464564502
 30
0.0
 40
0.2999812241925626
100
AcDbArc
 50
123.690067999955
 51
236.3099319999486
  0
ARC
  5
4FE
330
58
100
AcDbEntity
  8
5
  6
Continuous
 62
     7
100
AcDbCircle
 10
402.7930372019018
 20
928.7765205961622
 30
0.0
 40
0.2999812241925942
100
AcDbArc
 50
123.690067999964
 51
236.3099319999397
  0
ARC
  5
4FF
330
58
100
AcDbEntity
  8
5
  6
Continuous
 62
     7
100
AcDbCircle
 10
404.7929120298441
 20
938.7758947358742
 30
0.0
 40
0.2999812241921211
100
AcDbArc
 50
123.6900679998285
 51
236.3099320000752
  0
ARC
  5
500
330
58
100
AcDbEntity
  8
5
  6
Continuous
 62
     7
100
AcDbCircle
 10
407.0019401668924
 20
940.7757695638164
 30
0.0
 40
1.999874827943131
100
AcDbArc
 50
90.0
 51
180.0
  0
ARC
  5
501
330
58
100
AcDbEntity
  8
5
  6
Continuous
 62
     7
100
AcDbCircle
 10
405.0020653389511
 20
930.7763954241044
 30
0.0
 40
1.999874827943131
100
AcDbArc
 50
90.0
 51
180.0
  0
ARC
  5
502
330
58
100
AcDbEntity
  8
5
  6
Continuous
 62
     7
100
AcDbCircle
 10
402.0022530970364
 20
920.7770212843933
 30
0.0
 40
1.999874827942222
100
AcDbArc
 50
90.0
 51
180.0
  0
ARC
  5
503
330
58
100
AcDbEntity
  8
5
  6
Continuous
 62
     7
100
AcDbCircle
 10
395.5026599062239
 20
909.7777097307106
 30
0.0
 40
1.999874827941312
100
AcDbArc
 50
90.0
 51
180.0
  0
ARC
  5
504
330
58
100
AcDbEntity
  8
5
  6
Continuous
 62
     7
100
AcDbCircle
 10
395.5026599062239
 20
909.7777097307106
 30
0.0
 40
1.999874827942222
100
AcDbArc
 50
180.0
 51
270.0
  0
ENDBLK
  5
5A
330
58
100
AcDbEntity
  8
0
100
AcDbBlockEnd
  0
BLOCK
  5
517
330
510
100
AcDbEntity
  8
0
100
AcDbBlockBegin
  2
*D7
 70
     1
 10
0.0
 20
0.0
 30
0.0
  3
*D7
  1

  0
LINE
  5
511
330
510
100
AcDbEntity
  8
1
  6
Continuous
 62
     2
100
AcDbLine
 10
399.0024408551226
 20
206.6732341335246
 30
0.0
 11
476.9975591448738
 21
206.6732341335246
 31
0.0
  0
LINE
  5
512
330
510
100
AcDbEntity
  8
1
  6
Continuous
 62
     2
100
AcDbLine
 10
476.9975591448738
 20
275.006619340671
 30
0.0
 11
476.9975591448738
 21
202.6732341335246
 31
0.0
  0
LINE
  5
513
330
510
100
AcDbEntity
  8
1
  6
Continuous
 62
     2
100
AcDbLine
 10
399.0024408551226
 20
275.006619340671
 30
0.0
 11
399.0024408551226
 21
202.6732341335246
 31
0.0
  0
SOLID
  5
514
330
510
100
AcDbEntity
  8
1
 62
     2
100
AcDbTrace
 10
413.0024408551226
 20
208.5163690997481
 30
0.0
 11
413.0024408551226
 21
204.8300991673011
 31
0.0
 12
399.0024408551226
 22
206.6732341335246
 32
0.0
 13
399.0024408551226
 23
206.6732341335246
 33
0.0
  0
SOLID
  5
515
330
510
100
AcDbEntity
  8
1
 62
     2
100
AcDbTrace
 10
462.9975591448738
 20
204.8300991673011
 30
0.0
 11
462.9975591448738
 21
208.5163690997481
 31
0.0
 12
476.9975591448738
 22
206.6732341335246
 32
0.0
 13
476.9975591448738
 23
206.6732341335246
 33
0.0
  0
MTEXT
  5
516
330
510
100
AcDbEntity
  8
1
 62
     7
100
AcDbMText
 10
427.4999999999991
 20
210.6732341335246
 30
0.0
 40
14.0
 41
0.0
 71
     7
 72
     1
  1
78
  7
CONVERTER_12
 11
0.9999999999970619
 21
2.424068405545306E-6
 31
0.0
 73
     1
 44
0.60024009603842
  0
ENDBLK
  5
518
330
510
100
AcDbEntity
  8
0
100
AcDbBlockEnd
  0
BLOCK
  5
522
330
51B
100
AcDbEntity
  8
0
100
AcDbBlockBegin
  2
*D8
 70
     1
 10
0.0
 20
0.0
 30
0.0
  3
*D8
  1

  0
LINE
  5
51C
330
51B
100
AcDbEntity
  8
1
  6
Continuous
 62
     2
100
AcDbLine
 10
416.2513612461253
 20
1100.964641827056
 30
0.0
 11
459.7486387538711
 21
1100.964641827056
 31
0.0
  0
LINE
  5
51D
330
51B
100
AcDbEntity
  8
1
  6
Continuous
 62
     2
100
AcDbLine
 10
459.7486387538711
 20
1028.964641827056
 30
0.0
 11
459.7486387538711
 21
1104.964641827056
 31
0.0
  0
LINE
  5
51E
330
51B
100
AcDbEntity
  8
1
  6
Continuous
 62
     2
100
AcDbLine
 10
416.2513612461253
 20
1024.532919208337
 30
0.0
 11
416.2513612461253
 21
1104.964641827056
 31
0.0
  0
SOLID
  5
51F
330
51B
100
AcDbEntity
  8
1
 62
     2
100
AcDbTrace
 10
430.2513612461253
 20
1102.80777679328
 30
0.0
 11
430.2513612461253
 21
1099.121506860833
 31
0.0
 12
416.2513612461253
 22
1100.964641827056
 32
0.0
 13
416.2513612461253
 23
1100.964641827056
 33
0.0
  0
SOLID
  5
520
330
51B
100
AcDbEntity
  8
1
 62
     2
100
AcDbTrace
 10
445.7486387538711
 20
1099.121506860833
 30
0.0
 11
445.7486387538711
 21
1102.80777679328
 31
0.0
 12
459.7486387538711
 22
1100.964641827056
 32
0.0
 13
459.7486387538711
 23
1100.964641827056
 33
0.0
  0
MTEXT
  5
521
330
51B
100
AcDbEntity
  8
1
 62
     7
100
AcDbMText
 10
424.4200000000328
 20
1104.964613998751
 30
0.0
 40
14.0
 41
0.0
 71
     7
 72
     1
  1
\C7;{\Fgdt;n}\C7;44
  7
CONVERTER_12
 11
0.9999999999970619
 21
2.424068405545306E-6
 31
0.0
 73
     1
 44
0.60024009603842
  0
ENDBLK
  5
523
330
51B
100
AcDbEntity
  8
0
100
AcDbBlockEnd
  0
BLOCK
  5
52D
330
526
100
AcDbEntity
  8
0
100
AcDbBlockBegin
  2
*D9
 70
     1
 10
0.0
 20
0.0
 30
0.0
  3
*D9
  1

  0
LINE
  5
527
330
526
100
AcDbEntity
  8
1
  6
Continuous
 62
     2
100
AcDbLine
 10
353.5027850782808
 20
408.9646418270557
 30
0.0
 11
353.5027850782808
 21
1028.964641827056
 31
0.0
  0
LINE
  5
528
330
526
100
AcDbEntity
  8
1
  6
Continuous
 62
     2
100
AcDbLine
 10
418.4512235568627
 20
1028.964641827056
 30
0.0
 11
349.5027850782808
 21
1028.964641827056
 31
0.0
  0
LINE
  5
529
330
526
100
AcDbEntity
  8
1
  6
Continuous
 62
     2
100
AcDbLine
 10
399.0024408551226
 20
408.9646418270557
 30
0.0
 11
349.5027850782808
 21
408.9646418270557
 31
0.0
  0
SOLID
  5
52A
330
526
100
AcDbEntity
  8
1
 62
     2
100
AcDbTrace
 10
351.6596501120572
 20
422.9646418270557
 30
0.0
 11
355.3459200445043
 21
422.9646418270557
 31
0.0
 12
353.5027850782808
 22
408.9646418270557
 32
0.0
 13
353.5027850782808
 23
408.9646418270557
 33
0.0
  0
SOLID
  5
52B
330
526
100
AcDbEntity
  8
1
 62
     2
100
AcDbTrace
 10
355.3459200445043
 20
1014.964641827056
 30
0.0
 11
351.6596501120572
 21
1014.964641827056
 31
0.0
 12
353.5027850782808
 22
1028.964641827056
 32
0.0
 13
353.5027850782808
 23
1028.964641827056
 33
0.0
  0
MTEXT
  5
52C
330
526
100
AcDbEntity
  8
1
 62
     7
100
AcDbMText
 10
349.5027850782808
 20
702.1646418270559
 30
0.0
 40
14.0
 41
0.0
 71
     7
 72
     1
  1
620
  7
CONVERTER_12
 11
0.0
 21
1.0
 31
0.0
 73
     1
 44
0.60024009603842
  0
ENDBLK
  5
52E
330
526
100
AcDbEntity
  8
0
100
AcDbBlockEnd
  0
BLOCK
  5
53A
330
531
100
AcDbEntity
  8
0
100
AcDbBlockBegin
  2
*D10
 70
     1
 10
0.0
 20
0.0
 30
0.0
  3
*D10
  1

  0
LINE
  5
532
330
531
100
AcDbEntity
  8
1
  6
Continuous
 62
     2
100
AcDbLine
 10
456.9999999999991
 20
1068.964641827056
 30
0.0
 11
484.9999999999991
 21
1068.964641827056
 31
0.0
  0
LINE
  5
533
330
531
100
AcDbEntity
  8
1
  6
Continuous
 62
     2
100
AcDbLine
 10
418.9999999999991
 20
1068.964641827056
 30
0.0
 11
456.9999999999991
 21
1068.964641827056
 31
0.0
  0
LINE
  5
534
330
531
100
AcDbEntity
  8
1
  6
Continuous
 62
     2
100
AcDbLine
 10
390.9999999999991
 20
1068.964641827056
 30
0.0
 11
418.9999999999991
 21
1068.964641827056
 31
0.0
  0
LINE
  5
535
330
531
100
AcDbEntity
  8
1
  6
Continuous
 62
     2
100
AcDbLine
 10
456.9999999999991
 20
1028.964641827056
 30
0.0
 11
456.9999999999991
 21
1072.964641827056
 31
0.0
  0
LINE
  5
536
330
531
100
AcDbEntity
  8
1
  6
Continuous
 62
     2
100
AcDbLine
 10
418.9999999999991
 20
1028.964641827056
 30
0.0
 11
418.9999999999991
 21
1072.964641827056
 31
0.0
  0
SOLID
  5
537
330
531
100
AcDbEntity
  8
1
 62
     2
100
AcDbTrace
 10
404.9999999999991
 20
1067.121506860833
 30
0.0
 11
404.9999999999991
 21
1070.80777679328
 31
0.0
 12
418.9999999999991
 22
1068.964641827056
 32
0.0
 13
418.9999999999991
 23
1068.964641827056
 33
0.0
  0
SOLID
  5
538
330
531
100
AcDbEntity
  8
1
 62
     2
100
AcDbTrace
 10
470.9999999999991
 20
1070.80777679328
 30
0.0
 11
470.9999999999991
 21
1067.121506860833
 31
0.0
 12
456.9999999999991
 22
1068.964641827056
 32
0.0
 13
456.9999999999991
 23
1068.964641827056
 33
0.0
  0
MTEXT
  5
539
330
531
100
AcDbEntity
  8
1
 62
     7
100
AcDbMText
 10
424.4200000000328
 20
1072.964613998751
 30
0.0
 40
14.0
 41
0.0
 71
     7
 72
     1
  1
\C7;{\Fgdt;n}\C7;38
  7
CONVERTER_12
 11
0.9999999999970619
 21
2.424068405545306E-6
 31
0.0
 73
     1
 44
0.60024009603842
  0
ENDBLK
  5
53B
330
531
100
AcDbEntity
  8
0
100
AcDbBlockEnd
  0
ENDSEC
  0
SECTION
  2
ENTITIES
  0
INSERT
  5
5B
330
1F
100
AcDbEntity
  8
1
100
AcDbBlockReference
  2
開示A4
 10
0.0
 20
0.0
 30
0.0
 41
4.0
 42
4.0
 43
4.0
  0
INSERT
  5
5C
330
1F
100
AcDbEntity
  8
1
100
AcDbBlockReference
  2
HOSE
 10
416.2513612461253
 20
1052.952663558938
 30
0.0
  0
INSERT
  5
5D
330
1F
100
AcDbEntity
  8
1
100
AcDbBlockReference
  2
PACKING
 10
466.8981912637655
 20
636.4049763445508
 30
0.0
  0
INSERT
  5
5E
330
1F
100
AcDbEntity
  8
1
100
AcDbBlockReference
  2
INNER
 10
413.5015333577048
 20
677.4024103173678
 30
0.0
  0
INSERT
  5
5F
330
1F
100
AcDbEntity
  8
1
100
AcDbBlockReference
  2
NUT
 10
399.0024408551226
 20
645.0730322114003
 30
0.0
  0
INSERT
  5
60
330
1F
100
AcDbEntity
  8
1
100
AcDbBlockReference
  2
CAP
 10
393.5027850782817
 20
1021.760223892055
 30
0.0
  0
LINE
  5
505
330
1F
100
AcDbEntity
  8
1
  6
DASH_CENTER
 62
     2
100
AcDbLine
 10
437.9999999999991
 20
1034.964641827056
 30
0.0
 11
437.9999999999991
 21
385.4646418270558
 31
0.0
  0
LINE
  5
506
330
1F
100
AcDbEntity
  8
1
  6
DASH_CENTER
 62
     2
100
AcDbLine
 10
437.9999999999991
 20
334.6821546901706
 30
0.0
 11
437.9999999999991
 21
240.6732341335245
 31
0.0
  0
LINE
  5
507
330
1F
100
AcDbEntity
  8
1
  6
DASH_CENTER
 62
     2
100
AcDbLine
 10
482.9975591448738
 20
287.6776944118482
 30
0.0
 11
393.0024408551226
 21
287.6776944118482
 31
0.0
  0
SOLID
  5
508
330
1F
100
AcDbEntity
  8
1
 62
     2
100
AcDbTrace
 10
482.3918731855215
 20
386.2618536571855
 30
0.0
 11
479.1994697788156
 21
384.418718690962
 31
0.0
 12
473.7956714821685
 22
397.4646418270558
 32
0.0
 13
473.7956714821685
 23
397.4646418270558
 33
0.0
  0
LEADER
  5
509
330
1F
100
AcDbEntity
  8
1
  6
Continuous
 62
     2
100
AcDbLeader
  3
Standard
 71
     0
 76
     3
 10
473.7956714821685
 20
397.4646418270558
 30
0.0
 10
496.8896822497538
 20
357.4646418270558
 30
0.0
 10
659.5329651405839
 20
357.4646418270558
 30
0.0
  0
MTEXT
  5
50B
330
1F
100
AcDbEntity
  8
1
 62
     7
100
AcDbMText
 10
228.0
 20
57.0
 30
0.0
 40
14.0
 41
0.0
 71
     5
 72
     1
  1
H645-600
  7
CONVERTER_12
 73
     1
 44
0.7202881152461
  0
MTEXT
  5
50C
330
1F
100
AcDbEntity
  8
1
 62
     7
100
AcDbMText
 10
228.0
 20
91.00000000000004
 30
0.0
 40
14.0
 41
0.0
 71
     5
 72
     1
  1
パン排水トラップホース
  7
CONVERTER_11
 73
     1
 44
0.54545454545455
  0
MTEXT
  5
50D
330
1F
100
AcDbEntity
  8
1
 62
     7
100
AcDbMText
 10
579.6555879904438
 20
369.4646418270558
 30
0.0
 40
14.0
 41
0.0
 71
     5
 72
     1
  1
H5552-50取付ねじ
  7
CONVERTER_11
 73
     1
 44
0.54545454545455
  0
MTEXT
  5
50E
330
1F
100
AcDbEntity
  8
1
 62
     7
100
AcDbMText
 10
341.0
 20
68.0
 30
0.0
 40
14.0
 41
0.0
 71
     5
 72
     1
  1
1
  7
CONVERTER_12
 73
     1
 44
0.7202881152461
  0
MTEXT
  5
50F
330
1F
100
AcDbEntity
  8
1
 62
     7
100
AcDbMText
 10
375.0
 20
68.0
 30
0.0
 40
14.0
 41
0.0
 71
     5
 72
     1
  1
4
  7
CONVERTER_12
 73
     1
 44
0.7202881152461
  0
DIMENSION
  5
51A
330
1F
100
AcDbEntity
  8
1
100
AcDbDimension
  2
*D7
 10
399.0024408551226
 20
206.6732341335246
 30
0.0
 11
437.9999999999991
 21
217.6732341335246
 31
0.0
 70
    33
  1
<>
 71
     5
 42
-1.0
 53
0.00013888888889
  3
ME10_DIM_10
100
AcDbAlignedDimension
 13
476.9975591448738
 23
275.0066193406709
 33
0.0
 14
399.0024408551226
 24
275.0066193406709
 34
0.0
  0
DIMENSION
  5
525
330
1F
100
AcDbEntity
  8
1
100
AcDbDimension
  2
*D8
 10
416.2513612461253
 20
1100.964641827056
 30
0.0
 11
437.9999999999991
 21
1111.964641827056
 31
0.0
 70
    32
  1
{\Fgdt;n}44
 71
     5
 42
-1.0
 53
0.00013888888889
  3
ME10_DIM_11
100
AcDbAlignedDimension
 13
459.7486387538711
 23
1028.964641827056
 33
0.0
 14
416.2513612461253
 24
1024.532919208336
 34
0.0
100
AcDbRotatedDimension
  0
DIMENSION
  5
530
330
1F
100
AcDbEntity
  8
1
100
AcDbDimension
  2
*D9
 10
353.5027850782808
 20
408.9646418270557
 30
0.0
 11
342.5027850782808
 21
718.9646418270559
 31
0.0
 70
    32
  1
620
 71
     5
 42
-1.0
 53
90.0
  3
ME10_DIM_12
100
AcDbAlignedDimension
 13
418.4512235568627
 23
1028.964641827056
 33
0.0
 14
399.0024408551226
 24
408.9646418270558
 34
0.0
 50
90.0
100
AcDbRotatedDimension
  0
DIMENSION
  5
53D
330
1F
100
AcDbEntity
  8
1
100
AcDbDimension
  2
*D10
 10
418.9999999999991
 20
1068.964641827056
 30
0.0
 11
437.9999999999991
 21
1079.964641827056
 31
0.0
 70
    33
  1
<>
 71
     5
 42
-1.0
 53
0.00013888888889
  3
ME10_DIM_13
100
AcDbAlignedDimension
 13
456.9999999999991
 23
1028.964641827056
 33
0.0
 14
418.9999999999991
 24
1028.964641827056
 34
0.0
  0
ENDSEC
  0
SECTION
  2
OBJECTS
  0
DICTIONARY
  5
C
330
0
100
AcDbDictionary
281
     1
  3
ACAD_GROUP
350
D
  3
ACAD_LAYOUT
350
1A
  3
ACAD_MATERIAL
350
3B
  3
ACAD_MLEADERSTYLE
350
540
  3
ACAD_MLINESTYLE
350
17
  3
ACAD_PLOTSETTINGS
350
19
  3
ACAD_PLOTSTYLENAME
350
E
  3
ACAD_VISUALSTYLE
350
2A
  3
AcDbVariableDictionary
350
53E
  0
DICTIONARY
  5
D
102
{ACAD_REACTORS
330
C
102
}
330
C
100
AcDbDictionary
281
     1
  0
DICTIONARY
  5
1A
102
{ACAD_REACTORS
330
C
102
}
330
C
100
AcDbDictionary
281
     1
  3
Layout1
350
1E
  3
Layout2
350
26
  3
Model
350
22
  0
DICTIONARY
  5
3B
102
{ACAD_REACTORS
330
C
102
}
330
C
100
AcDbDictionary
281
     1
  3
ByBlock
350
3D
  3
ByLayer
350
3C
  3
Global
350
3E
  0
DICTIONARY
  5
540
102
{ACAD_REACTORS
330
C
102
}
330
C
100
AcDbDictionary
281
     1
  0
DICTIONARY
  5
17
102
{ACAD_REACTORS
330
C
102
}
330
C
100
AcDbDictionary
281
     1
  3
Standard
350
18
  0
DICTIONARY
  5
19
102
{ACAD_REACTORS
330
C
102
}
330
C
100
AcDbDictionary
281
     1
  0
ACDBDICTIONARYWDFLT
  5
E
102
{ACAD_REACTORS
330
C
102
}
330
C
100
AcDbDictionary
281
     1
  3
Normal
350
F
100
AcDbDictionaryWithDefault
340
F
  0
DICTIONARY
  5
2A
102
{ACAD_REACTORS
330
C
102
}
330
C
100
AcDbDictionary
281
     1
  3
2dWireframe
350
2F
  3
3D Hidden
350
31
  3
3dWireframe
350
30
  3
Basic
350
32
  3
Brighten
350
36
  3
ColorChange
350
3A
  3
Conceptual
350
34
  3
Dim
350
35
  3
Facepattern
350
39
  3
Flat
350
2B
  3
FlatWithEdges
350
2C
  3
Gouraud
350
2D
  3
GouraudWithEdges
350
2E
  3
Linepattern
350
38
  3
Realistic
350
33
  3
Thicken
350
37
  0
DICTIONARY
  5
53E
102
{ACAD_REACTORS
330
C
102
}
330
C
100
AcDbDictionary
281
     1
  3
DIMASSOC
350
541
  3
HIDETEXT
350
542
  0
LAYOUT
  5
1E
102
{ACAD_REACTORS
330
1A
102
}
330
1A
100
AcDbPlotSettings
  1

  2
none_device
  4

  6

 40
0.0
 41
0.0
 42
0.0
 43
0.0
 44
0.0
 45
0.0
 46
0.0
 47
0.0
 48
0.0
 49
0.0
140
0.0
141
0.0
142
1.0
143
1.0
 70
   688
 72
     0
 73
     0
 74
     5
  7

 75
    16
147
1.0
148
0.0
149
0.0
100
AcDbLayout
  1
Layout1
 70
     1
 71
     1
 10
0.0
 20
0.0
 11
12.0
 21
9.0
 12
0.0
 22
0.0
 32
0.0
 14
1.00000000000000E+20
 24
1.00000000000000E+20
 34
1.00000000000000E+20
 15
-1.00000000000000E+20
 25
-1.00000000000000E+20
 35
-1.00000000000000E+20
146
0.0
 13
0.0
 23
0.0
 33
0.0
 16
1.0
 26
0.0
 36
0.0
 17
0.0
 27
1.0
 37
0.0
 76
     0
330
1B
  0
LAYOUT
  5
26
102
{ACAD_REACTORS
330
1A
102
}
330
1A
100
AcDbPlotSettings
  1

  2
none_device
  4

  6

 40
0.0
 41
0.0
 42
0.0
 43
0.0
 44
0.0
 45
0.0
 46
0.0
 47
0.0
 48
0.0
 49
0.0
140
0.0
141
0.0
142
1.0
143
1.0
 70
   688
 72
     0
 73
     0
 74
     5
  7

 75
    16
147
1.0
148
0.0
149
0.0
100
AcDbLayout
  1
Layout2
 70
     1
 71
     2
 10
0.0
 20
0.0
 11
0.0
 21
0.0
 12
0.0
 22
0.0
 32
0.0
 14
0.0
 24
0.0
 34
0.0
 15
0.0
 25
0.0
 35
0.0
146
0.0
 13
0.0
 23
0.0
 33
0.0
 16
1.0
 26
0.0
 36
0.0
 17
0.0
 27
1.0
 37
0.0
 76
     0
330
23
  0
LAYOUT
  5
22
102
{ACAD_REACTORS
330
1A
102
}
330
1A
100
AcDbPlotSettings
  1

  2
none_device
  4

  6

 40
0.0
 41
0.0
 42
0.0
 43
0.0
 44
0.0
 45
0.0
 46
0.0
 47
0.0
 48
0.0
 49
0.0
140
0.0
141
0.0
142
1.0
143
1.0
 70
  1712
 72
     0
 73
     0
 74
     0
  7

 75
     0
147
1.0
148
0.0
149
0.0
100
AcDbLayout
  1
Model
 70
     1
 71
     0
 10
0.0
 20
0.0
 11
12.0
 21
9.0
 12
0.0
 22
0.0
 32
0.0
 14
0.0
 24
0.0
 34
0.0
 15
840.0
 25
1188.0
 35
0.0
146
0.0
 13
0.0
 23
0.0
 33
0.0
 16
1.0
 26
0.0
 36
0.0
 17
0.0
 27
1.0
 37
0.0
 76
     0
330
1F
331
29
  0
MATERIAL
  5
3D
102
{ACAD_REACTORS
330
3B
102
}
102
{ACAD_XDICTIONARY
360
565
102
}
330
3B
100
AcDbMaterial
  1
ByBlock
  0
MATERIAL
  5
3C
102
{ACAD_REACTORS
330
3B
102
}
102
{ACAD_XDICTIONARY
360
563
102
}
330
3B
100
AcDbMaterial
  1
ByLayer
  0
MATERIAL
  5
3E
102
{ACAD_REACTORS
330
3B
102
}
102
{ACAD_XDICTIONARY
360
567
102
}
330
3B
100
AcDbMaterial
  1
Global
  0
MLINESTYLE
  5
18
102
{ACAD_REACTORS
330
17
102
}
330
17
100
AcDbMlineStyle
  2
Standard
 70
     0
  3

 62
   256
 51
90.0
 52
90.0
 71
     2
 49
0.5
 62
   256
  6
BYLAYER
 49
-0.5
 62
   256
  6
BYLAYER
  0
ACDBPLACEHOLDER
  5
F
102
{ACAD_REACTORS
330
E
102
}
330
E
  0
VISUALSTYLE
  5
2F
102
{ACAD_REACTORS
330
2A
102
}
102
{ACAD_XDICTIONARY
360
54B
102
}
330
2A
100
AcDbVisualStyle
  2
2dWireframe
 70
     4
 71
     0
 72
     2
 73
     0
 90
        0
 40
-0.6
 41
-30.0
 62
     5
 63
     7
 74
     1
 91
        4
 64
     7
 65
   257
 75
     1
175
     1
 42
1.0
 92
        0
 66
   257
 43
1.0
 76
     1
 77
     6
 78
     2
 67
     7
 79
     5
170
     0
171
     0
290
     0
174
     0
 93
        1
 44
0.0
173
     0
291
     0
 45
0.0
1001
ACAD
1000
AcDbSavedByObjectVersion
1070
     0
  0
VISUALSTYLE
  5
31
102
{ACAD_REACTORS
330
2A
102
}
102
{ACAD_XDICTIONARY
360
54F
102
}
330
2A
100
AcDbVisualStyle
  2
3D Hidden
 70
     6
 71
     1
 72
     2
 73
     2
 90
        0
 40
-0.6
 41
-30.0
 62
     5
 63
     7
 74
     2
 91
        2
 64
     7
 65
   257
 75
     2
175
     1
 42
40.0
 92
        0
 66
   257
 43
1.0
 76
     1
 77
     6
 78
     2
 67
     7
 79
     3
170
     0
171
     0
290
     0
174
     0
 93
        1
 44
0.0
173
     0
291
     0
 45
0.0
1001
ACAD
1000
AcDbSavedByObjectVersion
1070
     0
  0
VISUALSTYLE
  5
30
102
{ACAD_REACTORS
330
2A
102
}
102
{ACAD_XDICTIONARY
360
54D
102
}
330
2A
100
AcDbVisualStyle
  2
3dWireframe
 70
     5
 71
     0
 72
     2
 73
     0
 90
        0
 40
-0.6
 41
-30.0
 62
     5
 63
     7
 74
     1
 91
        4
 64
     7
 65
   257
 75
     1
175
     1
 42
1.0
 92
        0
 66
   257
 43
1.0
 76
     1
 77
     6
 78
     2
 67
     7
 79
     5
170
     0
171
     0
290
     0
174
     0
 93
        1
 44
0.0
173
     0
291
     0
 45
0.0
1001
ACAD
1000
AcDbSavedByObjectVersion
1070
     0
  0
VISUALSTYLE
  5
32
102
{ACAD_REACTORS
330
2A
102
}
102
{ACAD_XDICTIONARY
360
551
102
}
330
2A
100
AcDbVisualStyle
  2
Basic
 70
     7
 71
     1
 72
     0
 73
     1
 90
        0
 40
-0.6
 41
-30.0
 62
     5
 63
     7
 74
     0
 91
        4
 64
     7
 65
   257
 75
     1
175
     1
 42
1.0
 92
        8
 66
     7
 43
1.0
 76
     1
 77
     6
 78
     2
 67
     7
 79
     5
170
     0
171
     0
290
     0
174
     0
 93
        1
 44
0.0
173
     0
291
     1
 45
0.0
1001
ACAD
1000
AcDbSavedByObjectVersion
1070
     0
  0
VISUALSTYLE
  5
36
102
{ACAD_REACTORS
330
2A
102
}
102
{ACAD_XDICTIONARY
360
559
102
}
330
2A
100
AcDbVisualStyle
  2
Brighten
 70
    12
 71
     2
 72
     2
 73
     0
 90
        0
 40
-0.6
 41
-30.0
 62
     5
 63
     7
 74
     1
 91
        4
 64
     7
 65
   257
 75
     1
175
     1
 42
1.0
 92
        8
 66
     7
 43
1.0
 76
     1
 77
     6
 78
     2
 67
     7
 79
     5
170
     0
171
     0
290
     0
174
     0
 93
        1
 44
50.0
173
     0
291
     1
 45
0.0
1001
ACAD
1000
AcDbSavedByObjectVersion
1070
     0
  0
VISUALSTYLE
  5
3A
102
{ACAD_REACTORS
330
2A
102
}
102
{ACAD_XDICTIONARY
360
561
102
}
330
2A
100
AcDbVisualStyle
  2
ColorChange
 70
    16
 71
     2
 72
     2
 73
     3
 90
        0
 40
-0.6
 41
-30.0
 62
     5
 63
     8
 74
     1
 91
        4
 64
     7
 65
   257
 75
     1
175
     1
 42
1.0
 92
        8
 66
     8
 43
1.0
 76
     1
 77
     6
 78
     2
 67
     7
 79
     5
170
     0
171
     0
290
     0
174
     0
 93
        1
 44
0.0
173
     0
291
     1
 45
0.0
1001
ACAD
1000
AcDbSavedByObjectVersion
1070
     0
  0
VISUALSTYLE
  5
34
102
{ACAD_REACTORS
330
2A
102
}
102
{ACAD_XDICTIONARY
360
555
102
}
330
2A
100
AcDbVisualStyle
  2
Conceptual
 70
     9
 71
     3
 72
     2
 73
     0
 90
        0
 40
-0.6
 41
-30.0
 62
     5
 63
     7
 74
     2
 91
        2
 64
     7
 65
   257
 75
     1
175
     1
 42
40.0
 92
        8
 66
     7
 43
1.0
 76
     1
 77
     6
 78
     2
 67
     7
 79
     3
170
     0
171
     0
290
     0
174
     0
 93
        1
 44
0.0
173
     0
291
     0
 45
0.0
1001
ACAD
1000
AcDbSavedByObjectVersion
1070
     0
  0
VISUALSTYLE
  5
35
102
{ACAD_REACTORS
330
2A
102
}
102
{ACAD_XDICTIONARY
360
557
102
}
330
2A
100
AcDbVisualStyle
  2
Dim
 70
    11
 71
     2
 72
     2
 73
     0
 90
        0
 40
-0.6
 41
-30.0
 62
     5
 63
     7
 74
     1
 91
        4
 64
     7
 65
   257
 75
     1
175
     1
 42
1.0
 92
        8
 66
     7
 43
1.0
 76
     1
 77
     6
 78
     2
 67
     7
 79
     5
170
     0
171
     0
290
     0
174
     0
 93
        1
 44
-50.0
173
     0
291
     1
 45
0.0
1001
ACAD
1000
AcDbSavedByObjectVersion
1070
     0
  0
VISUALSTYLE
  5
39
102
{ACAD_REACTORS
330
2A
102
}
102
{ACAD_XDICTIONARY
360
55F
102
}
330
2A
100
AcDbVisualStyle
  2
Facepattern
 70
    15
 71
     2
 72
     2
 73
     0
 90
        0
 40
-0.6
 41
-30.0
 62
     5
 63
     7
 74
     1
 91
        4
 64
     7
 65
   257
 75
     1
175
     1
 42
1.0
 92
        8
 66
     7
 43
1.0
 76
     1
 77
     6
 78
     2
 67
     7
 79
     5
170
     0
171
     0
290
     0
174
     0
 93
        1
 44
0.0
173
     0
291
     1
 45
0.0
1001
ACAD
1000
AcDbSavedByObjectVersion
1070
     0
  0
VISUALSTYLE
  5
2B
102
{ACAD_REACTORS
330
2A
102
}
102
{ACAD_XDICTIONARY
360
543
102
}
330
2A
100
AcDbVisualStyle
  2
Flat
 70
     0
 71
     2
 72
     1
 73
     1
 90
        2
 40
-0.6
 41
30.0
 62
     5
 63
     7
 74
     0
 91
        4
 64
     7
 65
   257
 75
     1
175
     1
 42
1.0
 92
        8
 66
     7
 43
1.0
 76
     1
 77
     6
 78
     2
 67
     7
 79
     5
170
     0
171
     0
290
     0
174
     0
 93
       13
 44
0.0
173
     0
291
     1
 45
0.0
1001
ACAD
1000
AcDbSavedByObjectVersion
1070
     0
  0
VISUALSTYLE
  5
2C
102
{ACAD_REACTORS
330
2A
102
}
102
{ACAD_XDICTIONARY
360
545
102
}
330
2A
100
AcDbVisualStyle
  2
FlatWithEdges
 70
     1
 71
     2
 72
     1
 73
     1
 90
        2
 40
-0.6
 41
30.0
 62
     5
 63
     7
 74
     1
 91
        4
 64
     7
 65
   257
 75
     1
175
     1
 42
1.0
 92
        0
 66
   257
 43
1.0
 76
     1
 77
     6
 78
     2
 67
     7
 79
     5
170
     0
171
     0
290
     0
174
     0
 93
       13
 44
0.0
173
     0
291
     1
 45
0.0
1001
ACAD
1000
AcDbSavedByObjectVersion
1070
     0
  0
VISUALSTYLE
  5
2D
102
{ACAD_REACTORS
330
2A
102
}
102
{ACAD_XDICTIONARY
360
547
102
}
330
2A
100
AcDbVisualStyle
  2
Gouraud
 70
     2
 71
     2
 72
     2
 73
     1
 90
        2
 40
-0.6
 41
30.0
 62
     5
 63
     7
 74
     0
 91
        4
 64
     7
 65
   257
 75
     1
175
     1
 42
1.0
 92
        0
 66
     7
 43
1.0
 76
     1
 77
     6
 78
     2
 67
     7
 79
     5
170
     0
171
     0
290
     0
174
     0
 93
       13
 44
0.0
173
     0
291
     1
 45
0.0
1001
ACAD
1000
AcDbSavedByObjectVersion
1070
     0
  0
VISUALSTYLE
  5
2E
102
{ACAD_REACTORS
330
2A
102
}
102
{ACAD_XDICTIONARY
360
549
102
}
330
2A
100
AcDbVisualStyle
  2
GouraudWithEdges
 70
     3
 71
     2
 72
     2
 73
     1
 90
        2
 40
-0.6
 41
30.0
 62
     5
 63
     7
 74
     1
 91
        4
 64
     7
 65
   257
 75
     1
175
     1
 42
1.0
 92
        0
 66
   257
 43
1.0
 76
     1
 77
     6
 78
     2
 67
     7
 79
     5
170
     0
171
     0
290
     0
174
     0
 93
       13
 44
0.0
173
     0
291
     1
 45
0.0
1001
ACAD
1000
AcDbSavedByObjectVersion
1070
     0
  0
VISUALSTYLE
  5
38
102
{ACAD_REACTORS
330
2A
102
}
102
{ACAD_XDICTIONARY
360
55D
102
}
330
2A
100
AcDbVisualStyle
  2
Linepattern
 70
    14
 71
     2
 72
     2
 73
     0
 90
        0
 40
-0.6
 41
-30.0
 62
     5
 63
     7
 74
     1
 91
        4
 64
     7
 65
   257
 75
     7
175
     7
 42
1.0
 92
        8
 66
     7
 43
1.0
 76
     1
 77
     6
 78
     2
 67
     7
 79
     5
170
     0
171
     0
290
     0
174
     0
 93
        1
 44
0.0
173
     0
291
     1
 45
0.0
1001
ACAD
1000
AcDbSavedByObjectVersion
1070
     0
  0
VISUALSTYLE
  5
33
102
{ACAD_REACTORS
330
2A
102
}
102
{ACAD_XDICTIONARY
360
553
102
}
330
2A
100
AcDbVisualStyle
  2
Realistic
 70
     8
 71
     2
 72
     2
 73
     0
 90
        0
 40
-0.6
 41
-30.0
 62
     5
 63
     7
 74
     1
 91
        0
 64
     7
 65
   257
 75
     1
175
     1
 42
1.0
 92
        8
 66
     8
 43
1.0
 76
     1
 77
     6
 78
     2
 67
     7
 79
     5
170
     0
171
     0
290
     0
174
     0
 93
       13
 44
0.0
173
     0
291
     0
 45
0.0
1001
ACAD
1000
AcDbSavedByObjectVersion
1070
     0
  0
VISUALSTYLE
  5
37
102
{ACAD_REACTORS
330
2A
102
}
102
{ACAD_XDICTIONARY
360
55B
102
}
330
2A
100
AcDbVisualStyle
  2
Thicken
 70
    13
 71
     2
 72
     2
 73
     0
 90
        0
 40
-0.6
 41
-30.0
 62
     5
 63
     7
 74
     1
 91
        4
 64
     7
 65
   257
 75
     1
175
     1
 42
1.0
 92
       12
 66
     7
 43
1.0
 76
     1
 77
     6
 78
     2
 67
     7
 79
     5
170
     0
171
     0
290
     0
174
     0
 93
        1
 44
0.0
173
     0
291
     1
 45
0.0
1001
ACAD
1000
AcDbSavedByObjectVersion
1070
     0
  0
DICTIONARYVAR
  5
541
102
{ACAD_REACTORS
330
53E
102
}
330
53E
100
DictionaryVariables
280
     0
  1
2
  0
DICTIONARYVAR
  5
542
102
{ACAD_REACTORS
330
53E
102
}
330
53E
100
DictionaryVariables
280
     0
  1
1
  0
DICTIONARY
  5
565
330
3D
100
AcDbDictionary
280
     1
281
     1
  3
ACAD_XREC_ROUNDTRIP
360
566
  0
DICTIONARY
  5
563
330
3C
100
AcDbDictionary
280
     1
281
     1
  3
ACAD_XREC_ROUNDTRIP
360
564
  0
DICTIONARY
  5
567
330
3E
100
AcDbDictionary
280
     1
281
     1
  3
ACAD_XREC_ROUNDTRIP
360
568
  0
DICTIONARY
  5
54B
330
2F
100
AcDbDictionary
280
     1
281
     1
  3
ACAD_XREC_ROUNDTRIP
360
54C
  0
DICTIONARY
  5
54F
330
31
100
AcDbDictionary
280
     1
281
     1
  3
ACAD_XREC_ROUNDTRIP
360
550
  0
DICTIONARY
  5
54D
330
30
100
AcDbDictionary
280
     1
281
     1
  3
ACAD_XREC_ROUNDTRIP
360
54E
  0
DICTIONARY
  5
551
330
32
100
AcDbDictionary
280
     1
281
     1
  3
ACAD_XREC_ROUNDTRIP
360
552
  0
DICTIONARY
  5
559
330
36
100
AcDbDictionary
280
     1
281
     1
  3
ACAD_XREC_ROUNDTRIP
360
55A
  0
DICTIONARY
  5
561
330
3A
100
AcDbDictionary
280
     1
281
     1
  3
ACAD_XREC_ROUNDTRIP
360
562
  0
DICTIONARY
  5
555
330
34
100
AcDbDictionary
280
     1
281
     1
  3
ACAD_XREC_ROUNDTRIP
360
556
  0
DICTIONARY
  5
557
330
35
100
AcDbDictionary
280
     1
281
     1
  3
ACAD_XREC_ROUNDTRIP
360
558
  0
DICTIONARY
  5
55F
330
39
100
AcDbDictionary
280
     1
281
     1
  3
ACAD_XREC_ROUNDTRIP
360
560
  0
DICTIONARY
  5
543
330
2B
100
AcDbDictionary
280
     1
281
     1
  3
ACAD_XREC_ROUNDTRIP
360
544
  0
DICTIONARY
  5
545
330
2C
100
AcDbDictionary
280
     1
281
     1
  3
ACAD_XREC_ROUNDTRIP
360
546
  0
DICTIONARY
  5
547
330
2D
100
AcDbDictionary
280
     1
281
     1
  3
ACAD_XREC_ROUNDTRIP
360
548
  0
DICTIONARY
  5
549
330
2E
100
AcDbDictionary
280
     1
281
     1
  3
ACAD_XREC_ROUNDTRIP
360
54A
  0
DICTIONARY
  5
55D
330
38
100
AcDbDictionary
280
     1
281
     1
  3
ACAD_XREC_ROUNDTRIP
360
55E
  0
DICTIONARY
  5
553
330
33
100
AcDbDictionary
280
     1
281
     1
  3
ACAD_XREC_ROUNDTRIP
360
554
  0
DICTIONARY
  5
55B
330
37
100
AcDbDictionary
280
     1
281
     1
  3
ACAD_XREC_ROUNDTRIP
360
55C
  0
XRECORD
  5
566
102
{ACAD_REACTORS
330
565
102
}
330
565
100
AcDbXrecord
280
     1
102
MATERIAL
148
0.0
149
0.0
149
0.0
 93
        0
 94
      127
282
     0
 72
     1
 77
     1
171
     1
175
     1
179
     1
273
     0
  0
XRECORD
  5
564
102
{ACAD_REACTORS
330
563
102
}
330
563
100
AcDbXrecord
280
     1
102
MATERIAL
148
0.0
149
0.0
149
0.0
 93
        0
 94
      127
282
     0
 72
     1
 77
     1
171
     1
175
     1
179
     1
273
     0
  0
XRECORD
  5
568
102
{ACAD_REACTORS
330
567
102
}
330
567
100
AcDbXrecord
280
     1
102
MATERIAL
148
0.0
149
0.0
149
0.0
 93
        0
 94
      127
282
     0
 72
     1
 77
     1
171
     1
175
     1
179
     1
273
     0
  0
XRECORD
  5
54C
102
{ACAD_REACTORS
330
54B
102
}
330
54B
100
AcDbXrecord
280
     1
102
RTVSPropertyOp0
 70
     1
102
RTVSPropertyOp1
 70
     1
102
RTVSPropertyOp2
 70
     1
102
RTVSPropertyOp3
 70
     1
102
RTVSPropertyOp4
 70
     1
102
RTVSPropertyOp5
 70
     1
102
RTVSPropertyOp6
 70
     1
102
RTVSPropertyOp7
 70
     1
102
RTVSPropertyOp8
 70
     1
102
RTVSPropertyOp9
 70
     1
102
RTVSPropertyOp10
 70
     1
102
RTVSPropertyOp11
 70
     1
102
RTVSPropertyOp12
 70
     1
102
RTVSPropertyOp13
 70
     1
102
RTVSPropertyOp14
 70
     1
102
RTVSPropertyOp15
 70
     1
102
RTVSPropertyOp16
 70
     1
102
RTVSPropertyOp17
 70
     1
102
RTVSPropertyOp18
 70
     1
102
RTVSPropertyOp19
 70
     1
102
RTVSPropertyOp20
 70
     1
102
RTVSPropertyOp21
 70
     1
102
RTVSPropertyOp22
 70
     1
102
RTVSPropertyOp23
 70
     1
102
RTVSPropertyOp24
 70
     1
102
RTVSPropertyOp25
 70
     1
102
RTVSPropertyOp26
 70
     1
102
RTVSPropertyOp27
 70
     1
102
RTVSPropertyOp28
 70
     1
102
RTVSPropertyOp29
 70
     1
102
RTVSPropertyOp30
 70
     1
102
RTVSPropertyOp31
 70
     1
102
RTVSPropertyOp32
 70
     1
  0
XRECORD
  5
550
102
{ACAD_REACTORS
330
54F
102
}
330
54F
100
AcDbXrecord
280
     1
102
RTVSPropertyOp0
 70
     1
102
RTVSPropertyOp1
 70
     1
102
RTVSPropertyOp2
 70
     1
102
RTVSPropertyOp3
 70
     1
102
RTVSPropertyOp4
 70
     1
102
RTVSPropertyOp5
 70
     1
102
RTVSPropertyOp6
 70
     1
102
RTVSPropertyOp7
 70
     1
102
RTVSPropertyOp8
 70
     1
102
RTVSPropertyOp9
 70
     1
102
RTVSPropertyOp10
 70
     1
102
RTVSPropertyOp11
 70
     1
102
RTVSPropertyOp12
 70
     1
102
RTVSPropertyOp13
 70
     1
102
RTVSPropertyOp14
 70
     1
102
RTVSPropertyOp15
 70
     1
102
RTVSPropertyOp16
 70
     1
102
RTVSPropertyOp17
 70
     1
102
RTVSPropertyOp18
 70
     1
102
RTVSPropertyOp19
 70
     1
102
RTVSPropertyOp20
 70
     1
102
RTVSPropertyOp21
 70
     1
102
RTVSPropertyOp22
 70
     1
102
RTVSPropertyOp23
 70
     1
102
RTVSPropertyOp24
 70
     1
102
RTVSPropertyOp25
 70
     1
102
RTVSPropertyOp26
 70
     1
102
RTVSPropertyOp27
 70
     1
102
RTVSPropertyOp28
 70
     1
102
RTVSPropertyOp29
 70
     1
102
RTVSPropertyOp30
 70
     1
102
RTVSPropertyOp31
 70
     1
102
RTVSPropertyOp32
 70
     1
  0
XRECORD
  5
54E
102
{ACAD_REACTORS
330
54D
102
}
330
54D
100
AcDbXrecord
280
     1
102
RTVSPropertyOp0
 70
     1
102
RTVSPropertyOp1
 70
     1
102
RTVSPropertyOp2
 70
     1
102
RTVSPropertyOp3
 70
     1
102
RTVSPropertyOp4
 70
     1
102
RTVSPropertyOp5
 70
     1
102
RTVSPropertyOp6
 70
     1
102
RTVSPropertyOp7
 70
     1
102
RTVSPropertyOp8
 70
     1
102
RTVSPropertyOp9
 70
     1
102
RTVSPropertyOp10
 70
     1
102
RTVSPropertyOp11
 70
     1
102
RTVSPropertyOp12
 70
     1
102
RTVSPropertyOp13
 70
     1
102
RTVSPropertyOp14
 70
     1
102
RTVSPropertyOp15
 70
     1
102
RTVSPropertyOp16
 70
     1
102
RTVSPropertyOp17
 70
     1
102
RTVSPropertyOp18
 70
     1
102
RTVSPropertyOp19
 70
     1
102
RTVSPropertyOp20
 70
     1
102
RTVSPropertyOp21
 70
     1
102
RTVSPropertyOp22
 70
     1
102
RTVSPropertyOp23
 70
     1
102
RTVSPropertyOp24
 70
     1
102
RTVSPropertyOp25
 70
     1
102
RTVSPropertyOp26
 70
     1
102
RTVSPropertyOp27
 70
     1
102
RTVSPropertyOp28
 70
     1
102
RTVSPropertyOp29
 70
     1
102
RTVSPropertyOp30
 70
     1
102
RTVSPropertyOp31
 70
     1
102
RTVSPropertyOp32
 70
     1
  0
XRECORD
  5
552
102
{ACAD_REACTORS
330
551
102
}
330
551
100
AcDbXrecord
280
     1
102
RTVSPropertyOp0
 70
     1
102
RTVSPropertyOp1
 70
     1
102
RTVSPropertyOp2
 70
     1
102
RTVSPropertyOp3
 70
     1
102
RTVSPropertyOp4
 70
     1
102
RTVSPropertyOp5
 70
     1
102
RTVSPropertyOp6
 70
     1
102
RTVSPropertyOp7
 70
     1
102
RTVSPropertyOp8
 70
     1
102
RTVSPropertyOp9
 70
     1
102
RTVSPropertyOp10
 70
     1
102
RTVSPropertyOp11
 70
     1
102
RTVSPropertyOp12
 70
     1
102
RTVSPropertyOp13
 70
     1
102
RTVSPropertyOp14
 70
     1
102
RTVSPropertyOp15
 70
     1
102
RTVSPropertyOp16
 70
     1
102
RTVSPropertyOp17
 70
     1
102
RTVSPropertyOp18
 70
     1
102
RTVSPropertyOp19
 70
     1
102
RTVSPropertyOp20
 70
     1
102
RTVSPropertyOp21
 70
     1
102
RTVSPropertyOp22
 70
     1
102
RTVSPropertyOp23
 70
     1
102
RTVSPropertyOp24
 70
     1
102
RTVSPropertyOp25
 70
     1
102
RTVSPropertyOp26
 70
     1
102
RTVSPropertyOp27
 70
     1
102
RTVSPropertyOp28
 70
     1
102
RTVSPropertyOp29
 70
     1
102
RTVSPropertyOp30
 70
     1
102
RTVSPropertyOp31
 70
     1
102
RTVSPropertyOp32
 70
     1
  0
XRECORD
  5
55A
102
{ACAD_REACTORS
330
559
102
}
330
559
100
AcDbXrecord
280
     1
102
RTVSPropertyOp0
 70
     1
102
RTVSPropertyOp1
 70
     1
102
RTVSPropertyOp2
 70
     1
102
RTVSPropertyOp3
 70
     1
102
RTVSPropertyOp4
 70
     1
102
RTVSPropertyOp5
 70
     1
102
RTVSPropertyOp6
 70
     1
102
RTVSPropertyOp7
 70
     1
102
RTVSPropertyOp8
 70
     1
102
RTVSPropertyOp9
 70
     1
102
RTVSPropertyOp10
 70
     1
102
RTVSPropertyOp11
 70
     1
102
RTVSPropertyOp12
 70
     1
102
RTVSPropertyOp13
 70
     1
102
RTVSPropertyOp14
 70
     1
102
RTVSPropertyOp15
 70
     1
102
RTVSPropertyOp16
 70
     1
102
RTVSPropertyOp17
 70
     1
102
RTVSPropertyOp18
 70
     1
102
RTVSPropertyOp19
 70
     1
102
RTVSPropertyOp20
 70
     1
102
RTVSPropertyOp21
 70
     1
102
RTVSPropertyOp22
 70
     1
102
RTVSPropertyOp23
 70
     1
102
RTVSPropertyOp24
 70
     1
102
RTVSPropertyOp25
 70
     1
102
RTVSPropertyOp26
 70
     1
102
RTVSPropertyOp27
 70
     1
102
RTVSPropertyOp28
 70
     1
102
RTVSPropertyOp29
 70
     1
102
RTVSPropertyOp30
 70
     1
102
RTVSPropertyOp31
 70
     1
102
RTVSPropertyOp32
 70
     1
  0
XRECORD
  5
562
102
{ACAD_REACTORS
330
561
102
}
330
561
100
AcDbXrecord
280
     1
102
RTVSPropertyOp0
 70
     1
102
RTVSPropertyOp1
 70
     1
102
RTVSPropertyOp2
 70
     1
102
RTVSPropertyOp3
 70
     1
102
RTVSPropertyOp4
 70
     1
102
RTVSPropertyOp5
 70
     1
102
RTVSPropertyOp6
 70
     1
102
RTVSPropertyOp7
 70
     1
102
RTVSPropertyOp8
 70
     1
102
RTVSPropertyOp9
 70
     1
102
RTVSPropertyOp10
 70
     1
102
RTVSPropertyOp11
 70
     1
102
RTVSPropertyOp12
 70
     1
102
RTVSPropertyOp13
 70
     1
102
RTVSPropertyOp14
 70
     1
102
RTVSPropertyOp15
 70
     1
102
RTVSPropertyOp16
 70
     1
102
RTVSPropertyOp17
 70
     1
102
RTVSPropertyOp18
 70
     1
102
RTVSPropertyOp19
 70
     1
102
RTVSPropertyOp20
 70
     1
102
RTVSPropertyOp21
 70
     1
102
RTVSPropertyOp22
 70
     1
102
RTVSPropertyOp23
 70
     1
102
RTVSPropertyOp24
 70
     1
102
RTVSPropertyOp25
 70
     1
102
RTVSPropertyOp26
 70
     1
102
RTVSPropertyOp27
 70
     1
102
RTVSPropertyOp28
 70
     1
102
RTVSPropertyOp29
 70
     1
102
RTVSPropertyOp30
 70
     1
102
RTVSPropertyOp31
 70
     1
102
RTVSPropertyOp32
 70
     1
  0
XRECORD
  5
556
102
{ACAD_REACTORS
330
555
102
}
330
555
100
AcDbXrecord
280
     1
102
RTVSPropertyOp0
 70
     1
102
RTVSPropertyOp1
 70
     1
102
RTVSPropertyOp2
 70
     1
102
RTVSPropertyOp3
 70
     1
102
RTVSPropertyOp4
 70
     1
102
RTVSPropertyOp5
 70
     1
102
RTVSPropertyOp6
 70
     1
102
RTVSPropertyOp7
 70
     1
102
RTVSPropertyOp8
 70
     1
102
RTVSPropertyOp9
 70
     1
102
RTVSPropertyOp10
 70
     1
102
RTVSPropertyOp11
 70
     1
102
RTVSPropertyOp12
 70
     1
102
RTVSPropertyOp13
 70
     1
102
RTVSPropertyOp14
 70
     1
102
RTVSPropertyOp15
 70
     1
102
RTVSPropertyOp16
 70
     1
102
RTVSPropertyOp17
 70
     1
102
RTVSPropertyOp18
 70
     1
102
RTVSPropertyOp19
 70
     1
102
RTVSPropertyOp20
 70
     1
102
RTVSPropertyOp21
 70
     1
102
RTVSPropertyOp22
 70
     1
102
RTVSPropertyOp23
 70
     1
102
RTVSPropertyOp24
 70
     1
102
RTVSPropertyOp25
 70
     1
102
RTVSPropertyOp26
 70
     1
102
RTVSPropertyOp27
 70
     1
102
RTVSPropertyOp28
 70
     1
102
RTVSPropertyOp29
 70
     1
102
RTVSPropertyOp30
 70
     1
102
RTVSPropertyOp31
 70
     1
102
RTVSPropertyOp32
 70
     1
  0
XRECORD
  5
558
102
{ACAD_REACTORS
330
557
102
}
330
557
100
AcDbXrecord
280
     1
102
RTVSPropertyOp0
 70
     1
102
RTVSPropertyOp1
 70
     1
102
RTVSPropertyOp2
 70
     1
102
RTVSPropertyOp3
 70
     1
102
RTVSPropertyOp4
 70
     1
102
RTVSPropertyOp5
 70
     1
102
RTVSPropertyOp6
 70
     1
102
RTVSPropertyOp7
 70
     1
102
RTVSPropertyOp8
 70
     1
102
RTVSPropertyOp9
 70
     1
102
RTVSPropertyOp10
 70
     1
102
RTVSPropertyOp11
 70
     1
102
RTVSPropertyOp12
 70
     1
102
RTVSPropertyOp13
 70
     1
102
RTVSPropertyOp14
 70
     1
102
RTVSPropertyOp15
 70
     1
102
RTVSPropertyOp16
 70
     1
102
RTVSPropertyOp17
 70
     1
102
RTVSPropertyOp18
 70
     1
102
RTVSPropertyOp19
 70
     1
102
RTVSPropertyOp20
 70
     1
102
RTVSPropertyOp21
 70
     1
102
RTVSPropertyOp22
 70
     1
102
RTVSPropertyOp23
 70
     1
102
RTVSPropertyOp24
 70
     1
102
RTVSPropertyOp25
 70
     1
102
RTVSPropertyOp26
 70
     1
102
RTVSPropertyOp27
 70
     1
102
RTVSPropertyOp28
 70
     1
102
RTVSPropertyOp29
 70
     1
102
RTVSPropertyOp30
 70
     1
102
RTVSPropertyOp31
 70
     1
102
RTVSPropertyOp32
 70
     1
  0
XRECORD
  5
560
102
{ACAD_REACTORS
330
55F
102
}
330
55F
100
AcDbXrecord
280
     1
102
RTVSPropertyOp0
 70
     1
102
RTVSPropertyOp1
 70
     1
102
RTVSPropertyOp2
 70
     1
102
RTVSPropertyOp3
 70
     1
102
RTVSPropertyOp4
 70
     1
102
RTVSPropertyOp5
 70
     1
102
RTVSPropertyOp6
 70
     1
102
RTVSPropertyOp7
 70
     1
102
RTVSPropertyOp8
 70
     1
102
RTVSPropertyOp9
 70
     1
102
RTVSPropertyOp10
 70
     1
102
RTVSPropertyOp11
 70
     1
102
RTVSPropertyOp12
 70
     1
102
RTVSPropertyOp13
 70
     1
102
RTVSPropertyOp14
 70
     1
102
RTVSPropertyOp15
 70
     1
102
RTVSPropertyOp16
 70
     1
102
RTVSPropertyOp17
 70
     1
102
RTVSPropertyOp18
 70
     1
102
RTVSPropertyOp19
 70
     1
102
RTVSPropertyOp20
 70
     1
102
RTVSPropertyOp21
 70
     1
102
RTVSPropertyOp22
 70
     1
102
RTVSPropertyOp23
 70
     1
102
RTVSPropertyOp24
 70
     1
102
RTVSPropertyOp25
 70
     1
102
RTVSPropertyOp26
 70
     1
102
RTVSPropertyOp27
 70
     1
102
RTVSPropertyOp28
 70
     1
102
RTVSPropertyOp29
 70
     1
102
RTVSPropertyOp30
 70
     1
102
RTVSPropertyOp31
 70
     1
102
RTVSPropertyOp32
 70
     1
  0
XRECORD
  5
544
102
{ACAD_REACTORS
330
543
102
}
330
543
100
AcDbXrecord
280
     1
102
RTVSPropertyOp0
 70
     1
102
RTVSPropertyOp1
 70
     1
102
RTVSPropertyOp2
 70
     1
102
RTVSPropertyOp3
 70
     1
102
RTVSPropertyOp4
 70
     1
102
RTVSPropertyOp5
 70
     1
102
RTVSPropertyOp6
 70
     1
102
RTVSPropertyOp7
 70
     1
102
RTVSPropertyOp8
 70
     1
102
RTVSPropertyOp9
 70
     1
102
RTVSPropertyOp10
 70
     1
102
RTVSPropertyOp11
 70
     1
102
RTVSPropertyOp12
 70
     1
102
RTVSPropertyOp13
 70
     1
102
RTVSPropertyOp14
 70
     1
102
RTVSPropertyOp15
 70
     1
102
RTVSPropertyOp16
 70
     1
102
RTVSPropertyOp17
 70
     1
102
RTVSPropertyOp18
 70
     1
102
RTVSPropertyOp19
 70
     1
102
RTVSPropertyOp20
 70
     1
102
RTVSPropertyOp21
 70
     1
102
RTVSPropertyOp22
 70
     1
102
RTVSPropertyOp23
 70
     1
102
RTVSPropertyOp24
 70
     1
102
RTVSPropertyOp25
 70
     1
102
RTVSPropertyOp26
 70
     1
102
RTVSPropertyOp27
 70
     1
102
RTVSPropertyOp28
 70
     1
102
RTVSPropertyOp29
 70
     1
102
RTVSPropertyOp30
 70
     1
102
RTVSPropertyOp31
 70
     1
102
RTVSPropertyOp32
 70
     1
  0
XRECORD
  5
546
102
{ACAD_REACTORS
330
545
102
}
330
545
100
AcDbXrecord
280
     1
102
RTVSPropertyOp0
 70
     1
102
RTVSPropertyOp1
 70
     1
102
RTVSPropertyOp2
 70
     1
102
RTVSPropertyOp3
 70
     1
102
RTVSPropertyOp4
 70
     1
102
RTVSPropertyOp5
 70
     1
102
RTVSPropertyOp6
 70
     1
102
RTVSPropertyOp7
 70
     1
102
RTVSPropertyOp8
 70
     1
102
RTVSPropertyOp9
 70
     1
102
RTVSPropertyOp10
 70
     1
102
RTVSPropertyOp11
 70
     1
102
RTVSPropertyOp12
 70
     1
102
RTVSPropertyOp13
 70
     1
102
RTVSPropertyOp14
 70
     1
102
RTVSPropertyOp15
 70
     1
102
RTVSPropertyOp16
 70
     1
102
RTVSPropertyOp17
 70
     1
102
RTVSPropertyOp18
 70
     1
102
RTVSPropertyOp19
 70
     1
102
RTVSPropertyOp20
 70
     1
102
RTVSPropertyOp21
 70
     1
102
RTVSPropertyOp22
 70
     1
102
RTVSPropertyOp23
 70
     1
102
RTVSPropertyOp24
 70
     1
102
RTVSPropertyOp25
 70
     1
102
RTVSPropertyOp26
 70
     1
102
RTVSPropertyOp27
 70
     1
102
RTVSPropertyOp28
 70
     1
102
RTVSPropertyOp29
 70
     1
102
RTVSPropertyOp30
 70
     1
102
RTVSPropertyOp31
 70
     1
102
RTVSPropertyOp32
 70
     1
  0
XRECORD
  5
548
102
{ACAD_REACTORS
330
547
102
}
330
547
100
AcDbXrecord
280
     1
102
RTVSPropertyOp0
 70
     1
102
RTVSPropertyOp1
 70
     1
102
RTVSPropertyOp2
 70
     1
102
RTVSPropertyOp3
 70
     1
102
RTVSPropertyOp4
 70
     1
102
RTVSPropertyOp5
 70
     1
102
RTVSPropertyOp6
 70
     1
102
RTVSPropertyOp7
 70
     1
102
RTVSPropertyOp8
 70
     1
102
RTVSPropertyOp9
 70
     1
102
RTVSPropertyOp10
 70
     1
102
RTVSPropertyOp11
 70
     1
102
RTVSPropertyOp12
 70
     1
102
RTVSPropertyOp13
 70
     1
102
RTVSPropertyOp14
 70
     1
102
RTVSPropertyOp15
 70
     1
102
RTVSPropertyOp16
 70
     1
102
RTVSPropertyOp17
 70
     1
102
RTVSPropertyOp18
 70
     1
102
RTVSPropertyOp19
 70
     1
102
RTVSPropertyOp20
 70
     1
102
RTVSPropertyOp21
 70
     1
102
RTVSPropertyOp22
 70
     1
102
RTVSPropertyOp23
 70
     1
102
RTVSPropertyOp24
 70
     1
102
RTVSPropertyOp25
 70
     1
102
RTVSPropertyOp26
 70
     1
102
RTVSPropertyOp27
 70
     1
102
RTVSPropertyOp28
 70
     1
102
RTVSPropertyOp29
 70
     1
102
RTVSPropertyOp30
 70
     1
102
RTVSPropertyOp31
 70
     1
102
RTVSPropertyOp32
 70
     1
  0
XRECORD
  5
54A
102
{ACAD_REACTORS
330
549
102
}
330
549
100
AcDbXrecord
280
     1
102
RTVSPropertyOp0
 70
     1
102
RTVSPropertyOp1
 70
     1
102
RTVSPropertyOp2
 70
     1
102
RTVSPropertyOp3
 70
     1
102
RTVSPropertyOp4
 70
     1
102
RTVSPropertyOp5
 70
     1
102
RTVSPropertyOp6
 70
     1
102
RTVSPropertyOp7
 70
     1
102
RTVSPropertyOp8
 70
     1
102
RTVSPropertyOp9
 70
     1
102
RTVSPropertyOp10
 70
     1
102
RTVSPropertyOp11
 70
     1
102
RTVSPropertyOp12
 70
     1
102
RTVSPropertyOp13
 70
     1
102
RTVSPropertyOp14
 70
     1
102
RTVSPropertyOp15
 70
     1
102
RTVSPropertyOp16
 70
     1
102
RTVSPropertyOp17
 70
     1
102
RTVSPropertyOp18
 70
     1
102
RTVSPropertyOp19
 70
     1
102
RTVSPropertyOp20
 70
     1
102
RTVSPropertyOp21
 70
     1
102
RTVSPropertyOp22
 70
     1
102
RTVSPropertyOp23
 70
     1
102
RTVSPropertyOp24
 70
     1
102
RTVSPropertyOp25
 70
     1
102
RTVSPropertyOp26
 70
     1
102
RTVSPropertyOp27
 70
     1
102
RTVSPropertyOp28
 70
     1
102
RTVSPropertyOp29
 70
     1
102
RTVSPropertyOp30
 70
     1
102
RTVSPropertyOp31
 70
     1
102
RTVSPropertyOp32
 70
     1
  0
XRECORD
  5
55E
102
{ACAD_REACTORS
330
55D
102
}
330
55D
100
AcDbXrecord
280
     1
102
RTVSPropertyOp0
 70
     1
102
RTVSPropertyOp1
 70
     1
102
RTVSPropertyOp2
 70
     1
102
RTVSPropertyOp3
 70
     1
102
RTVSPropertyOp4
 70
     1
102
RTVSPropertyOp5
 70
     1
102
RTVSPropertyOp6
 70
     1
102
RTVSPropertyOp7
 70
     1
102
RTVSPropertyOp8
 70
     1
102
RTVSPropertyOp9
 70
     1
102
RTVSPropertyOp10
 70
     1
102
RTVSPropertyOp11
 70
     1
102
RTVSPropertyOp12
 70
     1
102
RTVSPropertyOp13
 70
     1
102
RTVSPropertyOp14
 70
     1
102
RTVSPropertyOp15
 70
     1
102
RTVSPropertyOp16
 70
     1
102
RTVSPropertyOp17
 70
     1
102
RTVSPropertyOp18
 70
     1
102
RTVSPropertyOp19
 70
     1
102
RTVSPropertyOp20
 70
     1
102
RTVSPropertyOp21
 70
     1
102
RTVSPropertyOp22
 70
     1
102
RTVSPropertyOp23
 70
     1
102
RTVSPropertyOp24
 70
     1
102
RTVSPropertyOp25
 70
     1
102
RTVSPropertyOp26
 70
     1
102
RTVSPropertyOp27
 70
     1
102
RTVSPropertyOp28
 70
     1
102
RTVSPropertyOp29
 70
     1
102
RTVSPropertyOp30
 70
     1
102
RTVSPropertyOp31
 70
     1
102
RTVSPropertyOp32
 70
     1
  0
XRECORD
  5
554
102
{ACAD_REACTORS
330
553
102
}
330
553
100
AcDbXrecord
280
     1
102
RTVSPropertyOp0
 70
     1
102
RTVSPropertyOp1
 70
     1
102
RTVSPropertyOp2
 70
     1
102
RTVSPropertyOp3
 70
     1
102
RTVSPropertyOp4
 70
     1
102
RTVSPropertyOp5
 70
     1
102
RTVSPropertyOp6
 70
     1
102
RTVSPropertyOp7
 70
     1
102
RTVSPropertyOp8
 70
     1
102
RTVSPropertyOp9
 70
     1
102
RTVSPropertyOp10
 70
     1
102
RTVSPropertyOp11
 70
     1
102
RTVSPropertyOp12
 70
     1
102
RTVSPropertyOp13
 70
     1
102
RTVSPropertyOp14
 70
     1
102
RTVSPropertyOp15
 70
     1
102
RTVSPropertyOp16
 70
     1
102
RTVSPropertyOp17
 70
     1
102
RTVSPropertyOp18
 70
     1
102
RTVSPropertyOp19
 70
     1
102
RTVSPropertyOp20
 70
     1
102
RTVSPropertyOp21
 70
     1
102
RTVSPropertyOp22
 70
     1
102
RTVSPropertyOp23
 70
     1
102
RTVSPropertyOp24
 70
     1
102
RTVSPropertyOp25
 70
     1
102
RTVSPropertyOp26
 70
     1
102
RTVSPropertyOp27
 70
     1
102
RTVSPropertyOp28
 70
     1
102
RTVSPropertyOp29
 70
     1
102
RTVSPropertyOp30
 70
     1
102
RTVSPropertyOp31
 70
     1
102
RTVSPropertyOp32
 70
     1
  0
XRECORD
  5
55C
102
{ACAD_REACTORS
330
55B
102
}
330
55B
100
AcDbXrecord
280
     1
102
RTVSPropertyOp0
 70
     1
102
RTVSPropertyOp1
 70
     1
102
RTVSPropertyOp2
 70
     1
102
RTVSPropertyOp3
 70
     1
102
RTVSPropertyOp4
 70
     1
102
RTVSPropertyOp5
 70
     1
102
RTVSPropertyOp6
 70
     1
102
RTVSPropertyOp7
 70
     1
102
RTVSPropertyOp8
 70
     1
102
RTVSPropertyOp9
 70
     1
102
RTVSPropertyOp10
 70
     1
102
RTVSPropertyOp11
 70
     1
102
RTVSPropertyOp12
 70
     1
102
RTVSPropertyOp13
 70
     1
102
RTVSPropertyOp14
 70
     1
102
RTVSPropertyOp15
 70
     1
102
RTVSPropertyOp16
 70
     1
102
RTVSPropertyOp17
 70
     1
102
RTVSPropertyOp18
 70
     1
102
RTVSPropertyOp19
 70
     1
102
RTVSPropertyOp20
 70
     1
102
RTVSPropertyOp21
 70
     1
102
RTVSPropertyOp22
 70
     1
102
RTVSPropertyOp23
 70
     1
102
RTVSPropertyOp24
 70
     1
102
RTVSPropertyOp25
 70
     1
102
RTVSPropertyOp26
 70
     1
102
RTVSPropertyOp27
 70
     1
102
RTVSPropertyOp28
 70
     1
102
RTVSPropertyOp29
 70
     1
102
RTVSPropertyOp30
 70
     1
102
RTVSPropertyOp31
 70
     1
102
RTVSPropertyOp32
 70
     1
  0
ENDSEC
  0
EOF
