  0
SECTION
  2
HEADER
  9
$ACADVER
  1
AC1015
  9
$ACADMAINTVER
 70
     6
  9
$DWGCODEPAGE
  3
ANSI_932
  9
$INSBASE
 10
0.0
 20
0.0
 30
0.0
  9
$EXTMIN
 10
0.0
 20
0.0
 30
0.0
  9
$EXTMAX
 10
420.0
 20
594.0
 30
0.0
  9
$LIMMIN
 10
0.0
 20
0.0
  9
$LIMMAX
 10
12.0
 20
9.0
  9
$ORTHOMODE
 70
     0
  9
$REGENMODE
 70
     1
  9
$FILLMODE
 70
     1
  9
$QTEXTMODE
 70
     0
  9
$MIRRTEXT
 70
     1
  9
$LTSCALE
 40
1.0
  9
$ATTMODE
 70
     1
  9
$TEXTSIZE
 40
0.2
  9
$TRACEWID
 40
0.05
  9
$TEXTSTYLE
  7
Standard
  9
$CLAYER
  8
0
  9
$CELTYPE
  6
ByLayer
  9
$CECOLOR
 62
   256
  9
$CELTSCALE
 40
1.0
  9
$DISPSILH
 70
     0
  9
$DIMSCALE
 40
1.0
  9
$DIMASZ
 40
0.18
  9
$DIMEXO
 40
0.0625
  9
$DIMDLI
 40
0.38
  9
$DIMRND
 40
0.0
  9
$DIMDLE
 40
0.0
  9
$DIMEXE
 40
0.18
  9
$DIMTP
 40
0.0
  9
$DIMTM
 40
0.0
  9
$DIMTXT
 40
0.18
  9
$DIMCEN
 40
0.09
  9
$DIMTSZ
 40
0.0
  9
$DIMTOL
 70
     0
  9
$DIMLIM
 70
     0
  9
$DIMTIH
 70
     1
  9
$DIMTOH
 70
     1
  9
$DIMSE1
 70
     0
  9
$DIMSE2
 70
     0
  9
$DIMTAD
 70
     0
  9
$DIMZIN
 70
     0
  9
$DIMBLK
  1

  9
$DIMASO
 70
     1
  9
$DIMSHO
 70
     1
  9
$DIMPOST
  1

  9
$DIMAPOST
  1

  9
$DIMALT
 70
     0
  9
$DIMALTD
 70
     2
  9
$DIMALTF
 40
25.4
  9
$DIMLFAC
 40
1.0
  9
$DIMTOFL
 70
     0
  9
$DIMTVP
 40
0.0
  9
$DIMTIX
 70
     0
  9
$DIMSOXD
 70
     0
  9
$DIMSAH
 70
     0
  9
$DIMBLK1
  1

  9
$DIMBLK2
  1

  9
$DIMSTYLE
  2
Standard
  9
$DIMCLRD
 70
     0
  9
$DIMCLRE
 70
     0
  9
$DIMCLRT
 70
     0
  9
$DIMTFAC
 40
1.0
  9
$DIMGAP
 40
0.09
  9
$DIMJUST
 70
     0
  9
$DIMSD1
 70
     0
  9
$DIMSD2
 70
     0
  9
$DIMTOLJ
 70
     1
  9
$DIMTZIN
 70
     0
  9
$DIMALTZ
 70
     0
  9
$DIMALTTZ
 70
     0
  9
$DIMUPT
 70
     0
  9
$DIMDEC
 70
     4
  9
$DIMTDEC
 70
     4
  9
$DIMALTU
 70
     2
  9
$DIMALTTD
 70
     2
  9
$DIMTXSTY
  7
Standard
  9
$DIMAUNIT
 70
     0
  9
$DIMADEC
 70
     0
  9
$DIMALTRND
 40
0.0
  9
$DIMAZIN
 70
     0
  9
$DIMDSEP
 70
    46
  9
$DIMATFIT
 70
     3
  9
$DIMFRAC
 70
     0
  9
$DIMLDRBLK
  1

  9
$DIMLUNIT
 70
     2
  9
$DIMLWD
 70
    -2
  9
$DIMLWE
 70
    -2
  9
$DIMTMOVE
 70
     0
  9
$LUNITS
 70
     2
  9
$LUPREC
 70
     4
  9
$SKETCHINC
 40
0.1
  9
$FILLETRAD
 40
0.5
  9
$AUNITS
 70
     0
  9
$AUPREC
 70
     0
  9
$MENU
  1
.
  9
$ELEVATION
 40
0.0
  9
$PELEVATION
 40
0.0
  9
$THICKNESS
 40
0.0
  9
$LIMCHECK
 70
     0
  9
$CHAMFERA
 40
0.5
  9
$CHAMFERB
 40
0.5
  9
$CHAMFERC
 40
1.0
  9
$CHAMFERD
 40
0.0
  9
$SKPOLY
 70
     0
  9
$TDCREATE
 40
2460237.609605266
  9
$TDUCREATE
 40
2460237.234605266
  9
$TDUPDATE
 40
2460237.609606713
  9
$TDUUPDATE
 40
2460237.234606713
  9
$TDINDWG
 40
0.0000000116
  9
$TDUSRTIMER
 40
0.0000000116
  9
$USRTIMER
 70
     1
  9
$ANGBASE
 50
0.0
  9
$ANGDIR
 70
     0
  9
$PDMODE
 70
     0
  9
$PDSIZE
 40
0.0
  9
$PLINEWID
 40
0.0
  9
$SPLFRAME
 70
     0
  9
$SPLINETYPE
 70
     6
  9
$SPLINESEGS
 70
     8
  9
$HANDSEED
  5
1B9
  9
$SURFTAB1
 70
     6
  9
$SURFTAB2
 70
     6
  9
$SURFTYPE
 70
     6
  9
$SURFU
 70
     6
  9
$SURFV
 70
     6
  9
$UCSBASE
  2

  9
$UCSNAME
  2

  9
$UCSORG
 10
0.0
 20
0.0
 30
0.0
  9
$UCSXDIR
 10
1.0
 20
0.0
 30
0.0
  9
$UCSYDIR
 10
0.0
 20
1.0
 30
0.0
  9
$UCSORTHOREF
  2

  9
$UCSORTHOVIEW
 70
     0
  9
$UCSORGTOP
 10
0.0
 20
0.0
 30
0.0
  9
$UCSORGBOTTOM
 10
0.0
 20
0.0
 30
0.0
  9
$UCSORGLEFT
 10
0.0
 20
0.0
 30
0.0
  9
$UCSORGRIGHT
 10
0.0
 20
0.0
 30
0.0
  9
$UCSORGFRONT
 10
0.0
 20
0.0
 30
0.0
  9
$UCSORGBACK
 10
0.0
 20
0.0
 30
0.0
  9
$PUCSBASE
  2

  9
$PUCSNAME
  2

  9
$PUCSORG
 10
0.0
 20
0.0
 30
0.0
  9
$PUCSXDIR
 10
1.0
 20
0.0
 30
0.0
  9
$PUCSYDIR
 10
0.0
 20
1.0
 30
0.0
  9
$PUCSORTHOREF
  2

  9
$PUCSORTHOVIEW
 70
     0
  9
$PUCSORGTOP
 10
0.0
 20
0.0
 30
0.0
  9
$PUCSORGBOTTOM
 10
0.0
 20
0.0
 30
0.0
  9
$PUCSORGLEFT
 10
0.0
 20
0.0
 30
0.0
  9
$PUCSORGRIGHT
 10
0.0
 20
0.0
 30
0.0
  9
$PUCSORGFRONT
 10
0.0
 20
0.0
 30
0.0
  9
$PUCSORGBACK
 10
0.0
 20
0.0
 30
0.0
  9
$USERI1
 70
     0
  9
$USERI2
 70
     0
  9
$USERI3
 70
     0
  9
$USERI4
 70
     0
  9
$USERI5
 70
     0
  9
$USERR1
 40
18.1
  9
$USERR2
 40
0.0
  9
$USERR3
 40
0.0
  9
$USERR4
 40
0.0
  9
$USERR5
 40
0.0
  9
$WORLDVIEW
 70
     1
  9
$SHADEDGE
 70
     3
  9
$SHADEDIF
 70
    70
  9
$TILEMODE
 70
     1
  9
$MAXACTVP
 70
    64
  9
$PINSBASE
 10
0.0
 20
0.0
 30
0.0
  9
$PLIMCHECK
 70
     0
  9
$PEXTMIN
 10
1.00000000000000E+20
 20
1.00000000000000E+20
 30
1.00000000000000E+20
  9
$PEXTMAX
 10
-1.00000000000000E+20
 20
-1.00000000000000E+20
 30
-1.00000000000000E+20
  9
$PLIMMIN
 10
0.0
 20
0.0
  9
$PLIMMAX
 10
12.0
 20
9.0
  9
$UNITMODE
 70
     0
  9
$VISRETAIN
 70
     1
  9
$PLINEGEN
 70
     0
  9
$PSLTSCALE
 70
     1
  9
$TREEDEPTH
 70
  3020
  9
$CMLSTYLE
  2
Standard
  9
$CMLJUST
 70
     0
  9
$CMLSCALE
 40
1.0
  9
$PROXYGRAPHICS
 70
     1
  9
$MEASUREMENT
 70
     1
  9
$CELWEIGHT
370
    -1
  9
$ENDCAPS
280
     0
  9
$JOINSTYLE
280
     0
  9
$LWDISPLAY
290
     0
  9
$INSUNITS
 70
     4
  9
$HYPERLINKBASE
  1

  9
$STYLESHEET
  1

  9
$XEDIT
290
     1
  9
$CEPSNTYPE
380
     0
  9
$PSTYLEMODE
290
     1
  9
$FINGERPRINTGUID
  2
{C14DD126-30C9-483A-9ACF-8B8C0306F3F7}
  9
$VERSIONGUID
  2
{FAEB1C32-E019-11D5-929B-00C0DF256EC4}
  9
$EXTNAMES
290
     1
  9
$PSVPSCALE
 40
0.0
  9
$OLESTARTUP
290
     0
  0
ENDSEC
  0
SECTION
  2
CLASSES
  0
CLASS
  1
ACDBDICTIONARYWDFLT
  2
AcDbDictionaryWithDefault
  3
ObjectDBX Classes
 90
        0
280
     0
281
     0
  0
CLASS
  1
VISUALSTYLE
  2
AcDbVisualStyle
  3
ObjectDBX Classes
 90
     4095
280
     0
281
     0
  0
CLASS
  1
MATERIAL
  2
AcDbMaterial
  3
ObjectDBX Classes
 90
     1153
280
     0
281
     0
  0
CLASS
  1
DICTIONARYVAR
  2
AcDbDictionaryVar
  3
ObjectDBX Classes
 90
        0
280
     0
281
     0
  0
CLASS
  1
ACDBPLACEHOLDER
  2
AcDbPlaceHolder
  3
ObjectDBX Classes
 90
        0
280
     0
281
     0
  0
CLASS
  1
LAYOUT
  2
AcDbLayout
  3
ObjectDBX Classes
 90
        0
280
     0
281
     0
  0
ENDSEC
  0
SECTION
  2
TABLES
  0
TABLE
  2
VPORT
  5
8
330
0
100
AcDbSymbolTable
 70
     1
  0
VPORT
  5
29
330
8
100
AcDbSymbolTableRecord
100
AcDbViewportTableRecord
  2
*Active
 70
     0
 10
0.0
 20
0.0
 11
1.0
 21
1.0
 12
210.0
 22
297.0
 13
0.0
 23
0.0
 14
0.5
 24
0.5
 15
0.5
 25
0.5
 16
0.0
 26
0.0
 36
1.0
 17
0.0
 27
0.0
 37
0.0
 40
653.4000000000001
 41
1.60267857142857
 42
50.0
 43
0.0
 44
0.0
 50
0.0
 51
0.0
 71
     0
 72
   100
 73
     1
 74
     3
 75
     0
 76
     0
 77
     0
 78
     0
281
     0
 65
     1
110
0.0
120
0.0
130
0.0
111
1.0
121
0.0
131
0.0
112
0.0
122
1.0
132
0.0
 79
     0
146
0.0
  0
ENDTAB
  0
TABLE
  2
LTYPE
  5
5
330
0
100
AcDbSymbolTable
 70
     8
  0
LTYPE
  5
14
330
5
100
AcDbSymbolTableRecord
100
AcDbLinetypeTableRecord
  2
ByBlock
 70
     0
  3

 72
    65
 73
     0
 40
0.0
  0
LTYPE
  5
15
330
5
100
AcDbSymbolTableRecord
100
AcDbLinetypeTableRecord
  2
ByLayer
 70
     0
  3

 72
    65
 73
     0
 40
0.0
  0
LTYPE
  5
16
330
5
100
AcDbSymbolTableRecord
100
AcDbLinetypeTableRecord
  2
Continuous
 70
     0
  3
Solid line
 72
    65
 73
     0
 40
0.0
  0
LTYPE
  5
3F
330
5
100
AcDbSymbolTableRecord
100
AcDbLinetypeTableRecord
  2
DASHED
 70
     0
  3
Dashed
 72
    65
 73
     2
 40
15.0
 49
7.0
 74
     0
 49
-8.0
 74
     0
  0
LTYPE
  5
40
330
5
100
AcDbSymbolTableRecord
100
AcDbLinetypeTableRecord
  2
DOTTED
 70
     0
  3
Dotted
 72
    65
 73
     2
 40
1.0
 49
0.0
 74
     0
 49
-1.0
 74
     0
  0
LTYPE
  5
41
330
5
100
AcDbSymbolTableRecord
100
AcDbLinetypeTableRecord
  2
DOT_CENTER
 70
     0
  3
Dot_Center
 72
    65
 73
     4
 40
14.0
 49
12.0
 74
     0
 49
-1.0
 74
     0
 49
0.0
 74
     0
 49
-1.0
 74
     0
  0
LTYPE
  5
42
330
5
100
AcDbSymbolTableRecord
100
AcDbLinetypeTableRecord
  2
LONG_DASHED
 70
     0
  3
Long_Dashed
 72
    65
 73
     2
 40
15.0
 49
10.0
 74
     0
 49
-5.0
 74
     0
  0
LTYPE
  5
43
330
5
100
AcDbSymbolTableRecord
100
AcDbLinetypeTableRecord
  2
DASH_CENTER
 70
     0
  3
Dash_Center
 72
    65
 73
     4
 40
14.0
 49
11.0
 74
     0
 49
-1.0
 74
     0
 49
1.0
 74
     0
 49
-1.0
 74
     0
  0
LTYPE
  5
44
330
5
100
AcDbSymbolTableRecord
100
AcDbLinetypeTableRecord
  2
PHANTOM
 70
     0
  3
Phantom
 72
    65
 73
     6
 40
13.0
 49
10.0
 74
     0
 49
-1.0
 74
     0
 49
0.0
 74
     0
 49
-1.0
 74
     0
 49
0.0
 74
     0
 49
-1.0
 74
     0
  0
LTYPE
  5
45
330
5
100
AcDbSymbolTableRecord
100
AcDbLinetypeTableRecord
  2
CENTER_DASH_DASH
 70
     0
  3
Center_Dash_Dash
 72
    65
 73
     6
 40
14.0
 49
9.0
 74
     0
 49
-1.0
 74
     0
 49
1.0
 74
     0
 49
-1.0
 74
     0
 49
1.0
 74
     0
 49
-1.0
 74
     0
  0
ENDTAB
  0
TABLE
  2
LAYER
  5
2
330
0
100
AcDbSymbolTable
 70
     5
  0
LAYER
  5
10
330
2
100
AcDbSymbolTableRecord
100
AcDbLayerTableRecord
  2
0
 70
     0
 62
     7
  6
Continuous
370
    -3
390
F
  0
LAYER
  5
46
330
2
100
AcDbSymbolTableRecord
100
AcDbLayerTableRecord
  2
1
 70
     0
 62
     7
  6
Continuous
370
    -3
390
F
  0
LAYER
  5
47
330
2
100
AcDbSymbolTableRecord
100
AcDbLayerTableRecord
  2
3
 70
     0
 62
     7
  6
Continuous
370
    -3
390
F
  0
LAYER
  5
48
330
2
100
AcDbSymbolTableRecord
100
AcDbLayerTableRecord
  2
8
 70
     0
 62
     7
  6
Continuous
370
    -3
390
F
  0
LAYER
  5
49
330
2
100
AcDbSymbolTableRecord
100
AcDbLayerTableRecord
  2
_U_30EC_U_30A4_U_30E4_U_30FC_1
 70
     0
 62
     7
  6
Continuous
370
    -3
390
F
  0
ENDTAB
  0
TABLE
  2
STYLE
  5
3
330
0
100
AcDbSymbolTable
 70
     3
  0
STYLE
  5
11
330
3
100
AcDbSymbolTableRecord
100
AcDbTextStyleTableRecord
  2
Standard
 70
     0
 40
0.0
 41
1.0
 50
0.0
 71
     0
 42
0.2
  3
txt
  4

  0
STYLE
  5
10D
330
3
100
AcDbSymbolTableRecord
100
AcDbTextStyleTableRecord
  2
CONVERTER_11
 70
     0
 40
0.0
 41
0.89
 50
0.0
 71
     0
 42
0.2
  3
MS Mincho.ttf
  4

1001
ACAD
1000
MS Mincho
1071
    32785
  0
STYLE
  5
15A
330
3
100
AcDbSymbolTableRecord
100
AcDbTextStyleTableRecord
  2
CONVERTER_12
 70
     0
 40
0.0
 41
0.9
 50
0.0
 71
     0
 42
0.2
  3
txt.shx
  4

  0
ENDTAB
  0
TABLE
  2
VIEW
  5
6
330
0
100
AcDbSymbolTable
 70
     0
  0
ENDTAB
  0
TABLE
  2
UCS
  5
7
330
0
100
AcDbSymbolTable
 70
     0
  0
ENDTAB
  0
TABLE
  2
APPID
  5
9
330
0
100
AcDbSymbolTable
 70
     1
  0
APPID
  5
12
330
9
100
AcDbSymbolTableRecord
100
AcDbRegAppTableRecord
  2
ACAD
 70
     0
  0
ENDTAB
  0
TABLE
  2
DIMSTYLE
  5
A
330
0
100
AcDbSymbolTable
 70
     4
100
AcDbDimStyleTable
  0
DIMSTYLE
105
27
330
A
100
AcDbSymbolTableRecord
100
AcDbDimStyleTableRecord
  2
Standard
 70
     0
178
     0
340
11
  0
DIMSTYLE
105
176
102
{ACAD_REACTORS
330
177
102
}
330
A
100
AcDbSymbolTableRecord
100
AcDbDimStyleTableRecord
  2
ME10_DIM_10
 70
     0
 41
7.0
 42
0.0
 44
2.0
 73
     0
 74
     0
 77
     1
 78
     8
140
7.0
147
2.0
172
     1
173
     1
174
     1
175
     1
176
     2
177
     2
271
     2
178
     7
271
     2
340
15A
  0
DIMSTYLE
105
181
102
{ACAD_REACTORS
330
182
102
}
330
A
100
AcDbSymbolTableRecord
100
AcDbDimStyleTableRecord
  2
ME10_DIM_11
 70
     0
  3
{\Fgdt;n}<>
 41
7.0
 42
0.0
 44
2.0
 73
     0
 74
     0
 77
     1
 78
     8
140
7.0
147
2.0
172
     1
173
     1
174
     1
175
     1
176
     2
177
     2
271
     2
178
     7
271
     2
340
15A
  0
DIMSTYLE
105
18C
102
{ACAD_REACTORS
330
18D
102
}
330
A
100
AcDbSymbolTableRecord
100
AcDbDimStyleTableRecord
  2
ME10_DIM_12
 70
     0
  3
{\Fgdt;n}<>
 41
7.0
 42
0.0
 44
2.0
 73
     0
 74
     0
 77
     1
 78
     8
140
7.0
147
2.0
172
     1
173
     1
174
     1
175
     1
176
     2
177
     2
271
     2
178
     7
271
     2
340
15A
  0
ENDTAB
  0
TABLE
  2
BLOCK_RECORD
  5
1
330
0
100
AcDbSymbolTable
 70
     9
  0
BLOCK_RECORD
  5
1F
330
1
100
AcDbSymbolTableRecord
100
AcDbBlockTableRecord
  2
*Model_Space
340
22
  0
BLOCK_RECORD
  5
1B
330
1
100
AcDbSymbolTableRecord
100
AcDbBlockTableRecord
  2
*Paper_Space
340
1E
  0
BLOCK_RECORD
  5
23
330
1
100
AcDbSymbolTableRecord
100
AcDbBlockTableRecord
  2
*Paper_Space0
340
26
  0
BLOCK_RECORD
  5
4A
330
1
100
AcDbSymbolTableRecord
100
AcDbBlockTableRecord
  2
流し排水栓本体
340
0
102
{BLKREFS
331
5A
102
}
  0
BLOCK_RECORD
  5
4D
330
1
100
AcDbSymbolTableRecord
100
AcDbBlockTableRecord
  2
開示A4
340
0
102
{BLKREFS
331
51
102
}
  0
BLOCK_RECORD
  5
50
330
1
100
AcDbSymbolTableRecord
100
AcDbBlockTableRecord
  2
開示A4枠
340
0
102
{BLKREFS
331
5B
102
}
  0
BLOCK_RECORD
  5
54
330
1
100
AcDbSymbolTableRecord
100
AcDbBlockTableRecord
  2
流し排水栓フタ
340
0
102
{BLKREFS
331
5C
102
}
  0
BLOCK_RECORD
  5
57
330
1
100
AcDbSymbolTableRecord
100
AcDbBlockTableRecord
  2
流し排水栓フランジ
340
0
102
{BLKREFS
331
5D
102
}
  0
BLOCK_RECORD
  5
16D
330
1
100
AcDbSymbolTableRecord
100
AcDbBlockTableRecord
  2
*D6
340
0
  0
BLOCK_RECORD
  5
178
330
1
100
AcDbSymbolTableRecord
100
AcDbBlockTableRecord
  2
*D7
340
0
  0
BLOCK_RECORD
  5
183
330
1
100
AcDbSymbolTableRecord
100
AcDbBlockTableRecord
  2
*D8
340
0
  0
ENDTAB
  0
ENDSEC
  0
SECTION
  2
BLOCKS
  0
BLOCK
  5
20
330
1F
100
AcDbEntity
  8
0
100
AcDbBlockBegin
  2
*Model_Space
 70
     0
 10
0.0
 20
0.0
 30
0.0
  3
*Model_Space
  1

  0
ENDBLK
  5
21
330
1F
100
AcDbEntity
  8
0
100
AcDbBlockEnd
  0
BLOCK
  5
1C
330
1B
100
AcDbEntity
 67
     1
  8
0
100
AcDbBlockBegin
  2
*Paper_Space
 70
     0
 10
0.0
 20
0.0
 30
0.0
  3
*Paper_Space
  1

  0
ENDBLK
  5
1D
330
1B
100
AcDbEntity
 67
     1
  8
0
100
AcDbBlockEnd
  0
BLOCK
  5
24
330
23
100
AcDbEntity
  8
0
100
AcDbBlockBegin
  2
*Paper_Space0
 70
     0
 10
0.0
 20
0.0
 30
0.0
  3
*Paper_Space0
  1

  0
ENDBLK
  5
25
330
23
100
AcDbEntity
  8
0
100
AcDbBlockEnd
  0
BLOCK
  5
4B
330
4A
100
AcDbEntity
  8
0
100
AcDbBlockBegin
  2
流し排水栓本体
 70
     0
 10
167.8448389549326
 20
123.8349286198953
 30
0.0
  3
流し排水栓本体
  1

  0
POINT
  5
5E
330
4A
100
AcDbEntity
  8
3
 62
     7
100
AcDbPoint
 10
181.8448389549326
 20
324.8349286198916
 30
0.0
  0
POINT
  5
5F
330
4A
100
AcDbEntity
  8
3
 62
     7
100
AcDbPoint
 10
179.3448389549326
 20
295.8349286198916
 30
0.0
  0
POINT
  5
60
330
4A
100
AcDbEntity
  8
3
 62
     7
100
AcDbPoint
 10
174.3413682349323
 20
319.8349286198916
 30
0.0
  0
POINT
  5
61
330
4A
100
AcDbEntity
  8
3
 62
     7
100
AcDbPoint
 10
181.3448389549326
 20
292.8349286198916
 30
0.0
  0
POINT
  5
62
330
4A
100
AcDbEntity
  8
3
 62
     7
100
AcDbPoint
 10
179.3448389549326
 20
295.8349286198916
 30
0.0
  0
POINT
  5
63
330
4A
100
AcDbEntity
  8
3
 62
     7
100
AcDbPoint
 10
195.8448389549326
 20
143.3349286198916
 30
0.0
  0
POINT
  5
64
330
4A
100
AcDbEntity
  8
3
 62
     7
100
AcDbPoint
 10
181.3448389549326
 20
292.8349286198916
 30
0.0
  0
POINT
  5
65
330
4A
100
AcDbEntity
  8
3
 62
     7
100
AcDbPoint
 10
179.3448389549326
 20
295.8349286198916
 30
0.0
  0
POINT
  5
66
330
4A
100
AcDbEntity
  8
3
 62
     7
100
AcDbPoint
 10
271.3448389549328
 20
295.8349286198916
 30
0.0
  0
POINT
  5
67
330
4A
100
AcDbEntity
  8
3
 62
     7
100
AcDbPoint
 10
269.3448389549328
 20
292.8349286198916
 30
0.0
  0
POINT
  5
68
330
4A
100
AcDbEntity
  8
3
 62
     7
100
AcDbPoint
 10
254.8448389549328
 20
143.3349286198916
 30
0.0
  0
POINT
  5
69
330
4A
100
AcDbEntity
  8
3
 62
     7
100
AcDbPoint
 10
271.3448389549328
 20
295.8349286198916
 30
0.0
  0
POINT
  5
6A
330
4A
100
AcDbEntity
  8
3
 62
     7
100
AcDbPoint
 10
269.3448389549328
 20
292.8349286198916
 30
0.0
  0
POINT
  5
6B
330
4A
100
AcDbEntity
  8
3
 62
     7
100
AcDbPoint
 10
276.348309674933
 20
319.8349286198916
 30
0.0
  0
POINT
  5
6C
330
4A
100
AcDbEntity
  8
3
 62
     7
100
AcDbPoint
 10
271.3448389549328
 20
295.8349286198916
 30
0.0
  0
POINT
  5
6D
330
4A
100
AcDbEntity
  8
3
 62
     7
100
AcDbPoint
 10
268.8448389549328
 20
324.8349286198916
 30
0.0
  0
LINE
  5
6E
330
4A
100
AcDbEntity
  8
1
  6
Continuous
 62
     2
100
AcDbLine
 10
253.3448389549328
 20
125.3349286198916
 30
0.0
 11
253.3448389549328
 21
140.8349276355783
 31
0.0
  0
LINE
  5
6F
330
4A
100
AcDbEntity
  8
1
  6
Continuous
 62
     7
100
AcDbLine
 10
195.8448389549326
 20
142.3349286198916
 30
0.0
 11
195.8448389549326
 21
140.8349276355783
 31
0.0
  0
LINE
  5
70
330
4A
100
AcDbEntity
  8
1
  6
Continuous
 62
     7
100
AcDbLine
 10
254.8448389549328
 20
140.8349276355783
 30
0.0
 11
253.3448389549328
 21
140.8349276355783
 31
0.0
  0
LINE
  5
71
330
4A
100
AcDbEntity
  8
1
  6
Continuous
 62
     7
100
AcDbLine
 10
254.8448389549328
 20
142.3349286198916
 30
0.0
 11
254.8448389549328
 21
143.3349286198916
 31
0.0
  0
LINE
  5
72
330
4A
100
AcDbEntity
  8
1
  6
Continuous
 62
     7
100
AcDbLine
 10
181.8448389549326
 20
320.8349286198916
 30
0.0
 11
181.8448389549326
 21
324.8349286198916
 31
0.0
  0
LINE
  5
73
330
4A
100
AcDbEntity
  8
1
  6
Continuous
 62
     2
100
AcDbLine
 10
197.3448389549326
 20
140.8349276355783
 30
0.0
 11
197.3448389549326
 21
123.8349286198953
 31
0.0
  0
LINE
  5
74
330
4A
100
AcDbEntity
  8
1
  6
Continuous
 62
     2
100
AcDbLine
 10
195.8448389549326
 20
142.3349278006916
 30
0.0
 11
197.3448389549326
 21
140.8349276038696
 31
0.0
  0
LINE
  5
75
330
4A
100
AcDbEntity
  8
1
  6
Continuous
 62
     7
100
AcDbLine
 10
195.8448389549326
 20
143.3349286198916
 30
0.0
 11
195.8448389549326
 21
142.3349286198916
 31
0.0
  0
LINE
  5
76
330
4A
100
AcDbEntity
  8
1
  6
Continuous
 62
     7
100
AcDbLine
 10
197.3448389549326
 20
125.3349286198916
 30
0.0
 11
197.3448389549326
 21
123.8349286198953
 31
0.0
  0
LINE
  5
77
330
4A
100
AcDbEntity
  8
1
  6
Continuous
 62
     7
100
AcDbLine
 10
197.3448389549326
 20
125.3349286198916
 30
0.0
 11
195.8448389549326
 21
125.3349286198916
 31
0.0
  0
LINE
  5
78
330
4A
100
AcDbEntity
  8
1
  6
Continuous
 62
     7
100
AcDbLine
 10
185.9210006784965
 20
148.0399245513561
 30
0.0
 11
195.8448389549326
 21
143.3349286198916
 31
0.0
  0
LINE
  5
79
330
4A
100
AcDbEntity
  8
1
  6
Continuous
 62
     7
100
AcDbLine
 10
181.3448389549326
 20
292.8349286198916
 30
0.0
 11
184.2068113353321
 21
150.6903003934074
 31
0.0
  0
LINE
  5
7A
330
4A
100
AcDbEntity
  8
1
  6
Continuous
 62
     7
100
AcDbLine
 10
199.3048389549326
 20
307.3349286198953
 30
0.0
 11
203.5648389549328
 21
307.3349286198953
 31
0.0
  0
LINE
  5
7B
330
4A
100
AcDbEntity
  8
1
  6
Continuous
 62
     7
100
AcDbLine
 10
198.3048389549326
 20
308.3549286198921
 30
0.0
 11
198.5448389549324
 21
319.8349286198916
 31
0.0
  0
LINE
  5
7C
330
4A
100
AcDbEntity
  8
1
  6
Continuous
 62
     7
100
AcDbLine
 10
204.5648389549328
 20
308.3529286198917
 30
0.0
 11
204.3448389549326
 21
319.8349286198916
 31
0.0
  0
LINE
  5
7D
330
4A
100
AcDbEntity
  8
1
  6
Continuous
 62
     7
100
AcDbLine
 10
175.8005692521069
 20
307.8349286198916
 30
0.0
 11
178.8448389549326
 21
307.8349286198916
 31
0.0
  0
LINE
  5
7E
330
4A
100
AcDbEntity
  8
1
  6
Continuous
 62
     7
100
AcDbLine
 10
174.3413682349323
 20
319.8349286198916
 30
0.0
 11
174.8014361790324
 21
308.7932980747553
 31
0.0
  0
LINE
  5
7F
330
4A
100
AcDbEntity
  8
1
  6
Continuous
 62
     7
100
AcDbLine
 10
167.8448389549326
 20
320.3349286198953
 30
0.0
 11
167.8448389549326
 21
325.3349286198953
 31
0.0
  0
LINE
  5
80
330
4A
100
AcDbEntity
  8
1
  6
Continuous
 62
     7
100
AcDbLine
 10
179.3448389549326
 20
295.8349286198916
 30
0.0
 11
181.3448389549326
 21
292.8349286198916
 31
0.0
  0
LINE
  5
81
330
4A
100
AcDbEntity
  8
1
  6
Continuous
 62
     7
100
AcDbLine
 10
178.3448389549326
 20
319.8349286198916
 30
0.0
 11
179.3448389549326
 21
295.8349286198916
 31
0.0
  0
LINE
  5
82
330
4A
100
AcDbEntity
  8
1
  6
Continuous
 62
     7
100
AcDbLine
 10
271.3448389549328
 20
295.8349286198916
 30
0.0
 11
272.3448389549328
 21
319.8349286198916
 31
0.0
  0
LINE
  5
83
330
4A
100
AcDbEntity
  8
1
  6
Continuous
 62
     7
100
AcDbLine
 10
269.3448389549328
 20
292.8349286198916
 30
0.0
 11
271.3448389549328
 21
295.8349286198916
 31
0.0
  0
LINE
  5
84
330
4A
100
AcDbEntity
  8
1
  6
Continuous
 62
     7
100
AcDbLine
 10
282.8448389549328
 20
325.3349286198953
 30
0.0
 11
282.8448389549328
 21
320.3349286198953
 31
0.0
  0
LINE
  5
85
330
4A
100
AcDbEntity
  8
1
  6
Continuous
 62
     7
100
AcDbLine
 10
275.888241730833
 20
308.7932980747553
 30
0.0
 11
276.348309674933
 21
319.8349286198916
 31
0.0
  0
LINE
  5
86
330
4A
100
AcDbEntity
  8
1
  6
Continuous
 62
     7
100
AcDbLine
 10
271.8448389549328
 20
307.8349286198916
 30
0.0
 11
274.8891086577585
 21
307.8349286198916
 31
0.0
  0
LINE
  5
87
330
4A
100
AcDbEntity
  8
1
  6
Continuous
 62
     7
100
AcDbLine
 10
271.3448389549328
 20
295.8349286198916
 30
0.0
 11
179.3448389549326
 21
295.8349286198916
 31
0.0
  0
LINE
  5
88
330
4A
100
AcDbEntity
  8
1
  6
Continuous
 62
     7
100
AcDbLine
 10
269.3448389549328
 20
292.8349286198916
 30
0.0
 11
181.3448389549326
 21
292.8349286198916
 31
0.0
  0
LINE
  5
89
330
4A
100
AcDbEntity
  8
1
  6
Continuous
 62
     7
100
AcDbLine
 10
168.3448389549326
 20
325.8349286198916
 30
0.0
 11
282.3448389549328
 21
325.8349286198916
 31
0.0
  0
LINE
  5
8A
330
4A
100
AcDbEntity
  8
1
  6
Continuous
 62
     7
100
AcDbLine
 10
282.3448389549328
 20
319.8349286198916
 30
0.0
 11
168.3448389549326
 21
319.8349286198916
 31
0.0
  0
LINE
  5
8B
330
4A
100
AcDbEntity
  8
1
  6
Continuous
 62
     7
100
AcDbLine
 10
246.3448389549328
 20
319.8349286198916
 30
0.0
 11
246.1248389549326
 21
308.3529286198917
 31
0.0
  0
LINE
  5
8C
330
4A
100
AcDbEntity
  8
1
  6
Continuous
 62
     7
100
AcDbLine
 10
252.144838954933
 20
319.8349286198916
 30
0.0
 11
252.3848389549328
 21
308.3549286198921
 31
0.0
  0
LINE
  5
8D
330
4A
100
AcDbEntity
  8
1
  6
Continuous
 62
     7
100
AcDbLine
 10
247.1248389549326
 20
307.3349286198953
 30
0.0
 11
251.3848389549328
 21
307.3349286198953
 31
0.0
  0
LINE
  5
8E
330
4A
100
AcDbEntity
  8
1
  6
Continuous
 62
     7
100
AcDbLine
 10
197.3448389549326
 20
123.8349286198953
 30
0.0
 11
253.3448389549328
 21
123.8349286198953
 31
0.0
  0
LINE
  5
8F
330
4A
100
AcDbEntity
  8
1
  6
Continuous
 62
     7
100
AcDbLine
 10
266.4828665745333
 20
150.6903003934074
 30
0.0
 11
269.3448389549328
 21
292.8349286198916
 31
0.0
  0
LINE
  5
90
330
4A
100
AcDbEntity
  8
1
  6
Continuous
 62
     7
100
AcDbLine
 10
254.8448389549328
 20
143.3349286198916
 30
0.0
 11
264.7686772313689
 21
148.0399245513561
 31
0.0
  0
LINE
  5
91
330
4A
100
AcDbEntity
  8
1
  6
Continuous
 62
     7
100
AcDbLine
 10
184.8975555403563
 20
148.8349286198953
 30
0.0
 11
265.7921223695091
 21
148.8349286198953
 31
0.0
  0
LINE
  5
92
330
4A
100
AcDbEntity
  8
1
  6
Continuous
 62
     7
100
AcDbLine
 10
195.8448389549326
 20
143.3349286198916
 30
0.0
 11
254.8448389549328
 21
143.3349286198916
 31
0.0
  0
LINE
  5
93
330
4A
100
AcDbEntity
  8
1
  6
Continuous
 62
     7
100
AcDbLine
 10
254.8448389549328
 20
125.3349286198916
 30
0.0
 11
253.3448389549328
 21
125.3349286198916
 31
0.0
  0
LINE
  5
94
330
4A
100
AcDbEntity
  8
1
  6
Continuous
 62
     7
100
AcDbLine
 10
197.3448389549326
 20
125.3349286198916
 30
0.0
 11
253.3448389549328
 21
125.3349286198916
 31
0.0
  0
LINE
  5
95
330
4A
100
AcDbEntity
  8
1
  6
Continuous
 62
     7
100
AcDbLine
 10
253.3448389549328
 20
123.8349286198953
 30
0.0
 11
253.3448389549328
 21
125.3349286198916
 31
0.0
  0
LINE
  5
96
330
4A
100
AcDbEntity
  8
1
  6
Continuous
 62
     7
100
AcDbLine
 10
254.8448389549328
 20
125.3349286198916
 30
0.0
 11
254.8448389549328
 21
142.3349286198916
 31
0.0
  0
LINE
  5
97
330
4A
100
AcDbEntity
  8
1
  6
Continuous
 62
     2
100
AcDbLine
 10
253.3448389549328
 20
140.8349276038696
 30
0.0
 11
254.8448389549328
 21
142.3349278006916
 31
0.0
  0
LINE
  5
98
330
4A
100
AcDbEntity
  8
1
  6
Continuous
 62
     7
100
AcDbLine
 10
195.8448389549326
 20
140.8349276355783
 30
0.0
 11
197.3448389549326
 21
140.8349276355783
 31
0.0
  0
LINE
  5
99
330
4A
100
AcDbEntity
  8
1
  6
Continuous
 62
     7
100
AcDbLine
 10
195.8448389549326
 20
142.3349286198916
 30
0.0
 11
254.8448389549328
 21
142.3349286198916
 31
0.0
  0
LINE
  5
9A
330
4A
100
AcDbEntity
  8
1
  6
Continuous
 62
     7
100
AcDbLine
 10
253.3448389549328
 20
123.8349286198953
 30
0.0
 11
253.3448389549328
 21
125.3349286198916
 31
0.0
  0
LINE
  5
9B
330
4A
100
AcDbEntity
  8
1
  6
Continuous
 62
     7
100
AcDbLine
 10
268.8448389549328
 20
324.8349286198916
 30
0.0
 11
268.8448389549328
 21
320.8349286198916
 31
0.0
  0
LINE
  5
9C
330
4A
100
AcDbEntity
  8
1
  6
Continuous
 62
     7
100
AcDbLine
 10
197.3448389549326
 20
140.8349276355783
 30
0.0
 11
253.3448389549328
 21
140.8349276355783
 31
0.0
  0
LINE
  5
9D
330
4A
100
AcDbEntity
  8
1
  6
Continuous
 62
     7
100
AcDbLine
 10
195.8448389549326
 20
140.8349276355783
 30
0.0
 11
195.8448389549326
 21
125.3349286198916
 31
0.0
  0
ARC
  5
9E
330
4A
100
AcDbEntity
  8
1
  6
Continuous
 62
     7
100
AcDbCircle
 10
187.2062034394325
 20
150.7506908384583
 30
0.0
 40
2.999999999998872
100
AcDbArc
 50
181.1534504511416
 51
244.6338787394114
  0
ARC
  5
9F
330
4A
100
AcDbEntity
  8
1
  6
Continuous
 62
     7
100
AcDbCircle
 10
199.3048389549326
 20
308.3349286198916
 30
0.0
 40
1.000000000000665
100
AcDbArc
 50
178.7970000000017
 51
270.0
  0
ARC
  5
A0
330
4A
100
AcDbEntity
  8
1
  6
Continuous
 62
     7
100
AcDbCircle
 10
203.5648389549328
 20
308.3349286198916
 30
0.0
 40
0.9999999999963052
100
AcDbArc
 50
270.0
 51
1.08799999989449
  0
ARC
  5
A1
330
4A
100
AcDbEntity
  8
1
  6
Continuous
 62
     7
100
AcDbCircle
 10
175.8005692521069
 20
308.8349286198953
 30
0.0
 40
0.9999999999999646
100
AcDbArc
 50
182.3859440549245
 51
270.0
  0
ARC
  5
A2
330
4A
100
AcDbEntity
  8
1
  6
Continuous
 62
     7
100
AcDbCircle
 10
168.3448389549326
 20
320.3349286198953
 30
0.0
 40
0.5
100
AcDbArc
 50
180.0
 51
270.0
  0
ARC
  5
A3
330
4A
100
AcDbEntity
  8
1
  6
Continuous
 62
     7
100
AcDbCircle
 10
168.3448389549326
 20
325.3349286198953
 30
0.0
 40
0.4999999999963052
100
AcDbArc
 50
90.0
 51
180.0
  0
ARC
  5
A4
330
4A
100
AcDbEntity
  8
1
  6
Continuous
 62
     7
100
AcDbCircle
 10
282.3448389549328
 20
325.3349286198953
 30
0.0
 40
0.5
100
AcDbArc
 50
0.0
 51
90.0
  0
ARC
  5
A5
330
4A
100
AcDbEntity
  8
1
  6
Continuous
 62
     7
100
AcDbCircle
 10
282.3448389549328
 20
320.3349286198953
 30
0.0
 40
0.5000000000036948
100
AcDbArc
 50
270.0
 51
0.0
  0
ARC
  5
A6
330
4A
100
AcDbEntity
  8
1
  6
Continuous
 62
     7
100
AcDbCircle
 10
274.8891086577585
 20
308.8349286198953
 30
0.0
 40
1.000000000003695
100
AcDbArc
 50
270.0
 51
357.6140559450754
  0
ARC
  5
A7
330
4A
100
AcDbEntity
  8
1
  6
Continuous
 62
     7
100
AcDbCircle
 10
247.1248389549326
 20
308.3349286198916
 30
0.0
 40
1.000000000000047
100
AcDbArc
 50
178.9120000001056
 51
270.0
  0
ARC
  5
A8
330
4A
100
AcDbEntity
  8
1
  6
Continuous
 62
     7
100
AcDbCircle
 10
251.3848389549328
 20
308.3349286198916
 30
0.0
 40
0.9999999999963052
100
AcDbArc
 50
270.0
 51
1.20299999999842
  0
ARC
  5
A9
330
4A
100
AcDbEntity
  8
1
  6
Continuous
 62
     7
100
AcDbCircle
 10
263.4834744704328
 20
150.7506908384583
 30
0.0
 40
3.000000000001261
100
AcDbArc
 50
295.3661212605906
 51
358.8465495488584
  0
CIRCLE
  5
AA
330
4A
100
AcDbEntity
  8
1
  6
Continuous
 62
     7
100
AcDbCircle
 10
225.3448389549326
 20
476.0
 30
0.0
 40
57.5000000000002
  0
ENDBLK
  5
4C
330
4A
100
AcDbEntity
  8
0
100
AcDbBlockEnd
  0
BLOCK
  5
4E
330
4D
100
AcDbEntity
  8
0
100
AcDbBlockBegin
  2
開示A4
 70
     0
 10
0.0
 20
0.0
 30
0.0
  3
開示A4
  1

  0
POINT
  5
AB
330
4D
100
AcDbEntity
  8
1
 62
     4
100
AcDbPoint
 10
34.0
 20
34.0
 30
0.0
  0
POINT
  5
AC
330
4D
100
AcDbEntity
  8
1
 62
     4
100
AcDbPoint
 10
57.0
 20
12.25
 30
0.0
  0
POINT
  5
AD
330
4D
100
AcDbEntity
  8
1
 62
     4
100
AcDbPoint
 10
57.0
 20
20.75
 30
0.0
  0
POINT
  5
AE
330
4D
100
AcDbEntity
  8
1
 62
     4
100
AcDbPoint
 10
57.0
 20
24.75
 30
0.0
  0
POINT
  5
AF
330
4D
100
AcDbEntity
  8
1
 62
     4
100
AcDbPoint
 10
57.0
 20
16.25
 30
0.0
  0
POINT
  5
B0
330
4D
100
AcDbEntity
  8
1
 62
     4
100
AcDbPoint
 10
157.5
 20
19.0
 30
0.0
  0
POINT
  5
B1
330
4D
100
AcDbEntity
  8
1
 62
     4
100
AcDbPoint
 10
47.5
 20
282.0000000000003
 30
0.0
  0
POINT
  5
B2
330
4D
100
AcDbEntity
  8
1
 62
     4
100
AcDbPoint
 10
57.0
 20
22.75
 30
0.0
  0
POINT
  5
B3
330
4D
100
AcDbEntity
  8
1
 62
     4
100
AcDbPoint
 10
57.0
 20
14.25
 30
0.0
  0
POINT
  5
B4
330
4D
100
AcDbEntity
  8
1
 62
     4
100
AcDbPoint
 10
157.5
 20
12.5
 30
0.0
  0
POINT
  5
B5
330
4D
100
AcDbEntity
  8
1
 62
     4
100
AcDbPoint
 10
163.25
 20
12.5
 30
0.0
  0
POINT
  5
B6
330
4D
100
AcDbEntity
  8
1
 62
     4
100
AcDbPoint
 10
151.75
 20
12.5
 30
0.0
  0
POINT
  5
B7
330
4D
100
AcDbEntity
  8
1
 62
     4
100
AcDbPoint
 10
134.75
 20
12.5
 30
0.0
  0
POINT
  5
B8
330
4D
100
AcDbEntity
  8
1
 62
     4
100
AcDbPoint
 10
146.25
 20
12.5
 30
0.0
  0
POINT
  5
B9
330
4D
100
AcDbEntity
  8
1
 62
     4
100
AcDbPoint
 10
140.5
 20
12.5
 30
0.0
  0
POINT
  5
BA
330
4D
100
AcDbEntity
  8
1
 62
     4
100
AcDbPoint
 10
140.5
 20
19.0
 30
0.0
  0
POINT
  5
BB
330
4D
100
AcDbEntity
  8
1
 62
     4
100
AcDbPoint
 10
117.75
 20
12.5
 30
0.0
  0
POINT
  5
BC
330
4D
100
AcDbEntity
  8
1
 62
     4
100
AcDbPoint
 10
129.25
 20
12.5
 30
0.0
  0
POINT
  5
BD
330
4D
100
AcDbEntity
  8
1
 62
     4
100
AcDbPoint
 10
123.5
 20
12.5
 30
0.0
  0
POINT
  5
BE
330
4D
100
AcDbEntity
  8
1
 62
     4
100
AcDbPoint
 10
123.5
 20
19.0
 30
0.0
  0
POINT
  5
BF
330
4D
100
AcDbEntity
  8
1
 62
     4
100
AcDbPoint
 10
100.75
 20
12.5
 30
0.0
  0
POINT
  5
C0
330
4D
100
AcDbEntity
  8
1
 62
     4
100
AcDbPoint
 10
112.25
 20
12.5
 30
0.0
  0
POINT
  5
C1
330
4D
100
AcDbEntity
  8
1
 62
     4
100
AcDbPoint
 10
106.5
 20
12.5
 30
0.0
  0
POINT
  5
C2
330
4D
100
AcDbEntity
  8
1
 62
     4
100
AcDbPoint
 10
106.5
 20
19.0
 30
0.0
  0
POINT
  5
C3
330
4D
100
AcDbEntity
  8
1
 62
     4
100
AcDbPoint
 10
85.25
 20
17.0
 30
0.0
  0
POINT
  5
C4
330
4D
100
AcDbEntity
  8
1
 62
     4
100
AcDbPoint
 10
93.75
 20
17.0
 30
0.0
  0
POINT
  5
C5
330
4D
100
AcDbEntity
  8
1
 62
     4
100
AcDbPoint
 10
183.0
 20
15.0
 30
0.0
  0
LINE
  5
C6
330
4D
100
AcDbEntity
  8
1
  6
Continuous
 62
     2
100
AcDbLine
 10
81.0
 20
27.0
 30
0.0
 11
81.0
 21
10.0
 31
0.0
  0
LINE
  5
C7
330
4D
100
AcDbEntity
  8
1
  6
DOT_CENTER
 62
     2
100
AcDbLine
 10
187.0
 20
26.5
 30
0.0
 11
187.0
 21
20.5
 31
0.0
  0
LINE
  5
C8
330
4D
100
AcDbEntity
  8
1
  6
DOT_CENTER
 62
     2
100
AcDbLine
 10
184.0
 20
23.5
 30
0.0
 11
197.0
 21
23.5
 31
0.0
  0
LINE
  5
C9
330
4D
100
AcDbEntity
  8
1
  6
Continuous
 62
     7
100
AcDbLine
 10
196.0
 20
21.5
 30
0.0
 11
191.0
 21
22.30000000000001
 31
0.0
  0
LINE
  5
CA
330
4D
100
AcDbEntity
  8
1
  6
Continuous
 62
     7
100
AcDbLine
 10
196.0
 20
25.5
 30
0.0
 11
196.0
 21
21.5
 31
0.0
  0
LINE
  5
CB
330
4D
100
AcDbEntity
  8
1
  6
Continuous
 62
     7
100
AcDbLine
 10
191.0
 20
24.70000000000002
 30
0.0
 11
196.0
 21
25.5
 31
0.0
  0
LINE
  5
CC
330
4D
100
AcDbEntity
  8
1
  6
Continuous
 62
     7
100
AcDbLine
 10
191.0
 20
24.70000000000002
 30
0.0
 11
191.0
 21
22.30000000000001
 31
0.0
  0
LINE
  5
CD
330
4D
100
AcDbEntity
  8
1
  6
Continuous
 62
     2
100
AcDbLine
 10
33.0
 20
27.0
 30
0.0
 11
33.0
 21
10.0
 31
0.0
  0
LINE
  5
CE
330
4D
100
AcDbEntity
  8
1
  6
Continuous
 62
     2
100
AcDbLine
 10
25.0
 20
18.5
 30
0.0
 11
81.0
 21
18.5
 31
0.0
  0
LINE
  5
CF
330
4D
100
AcDbEntity
  8
1
  6
Continuous
 62
     7
100
AcDbLine
 10
200.0
 20
287.0000000000003
 30
0.0
 11
105.0
 21
287.0000000000003
 31
0.0
  0
LINE
  5
D0
330
4D
100
AcDbEntity
  8
1
  6
Continuous
 62
     7
100
AcDbLine
 10
200.0
 20
10.0
 30
0.0
 11
200.0
 21
148.5
 31
0.0
  0
LINE
  5
D1
330
4D
100
AcDbEntity
  8
1
  6
Continuous
 62
     7
100
AcDbLine
 10
25.0
 20
10.0
 30
0.0
 11
105.0
 21
10.0
 31
0.0
  0
LINE
  5
D2
330
4D
100
AcDbEntity
  8
1
  6
PHANTOM
 62
     4
100
AcDbLine
 10
0.0
 20
297.0
 30
0.0
 11
0.0
 21
0.0
 31
0.0
  0
LINE
  5
D3
330
4D
100
AcDbEntity
  8
1
  6
PHANTOM
 62
     4
100
AcDbLine
 10
210.0
 20
297.0
 30
0.0
 11
0.0
 21
297.0
 31
0.0
  0
LINE
  5
D4
330
4D
100
AcDbEntity
  8
1
  6
PHANTOM
 62
     4
100
AcDbLine
 10
210.0
 20
0.0
 30
0.0
 11
210.0
 21
297.0
 31
0.0
  0
LINE
  5
D5
330
4D
100
AcDbEntity
  8
1
  6
PHANTOM
 62
     4
100
AcDbLine
 10
0.0
 20
0.0
 30
0.0
 11
210.0
 21
0.0
 31
0.0
  0
LINE
  5
D6
330
4D
100
AcDbEntity
  8
1
  6
Continuous
 62
     7
100
AcDbLine
 10
25.0
 20
41.0
 30
0.0
 11
200.0
 21
41.0
 31
0.0
  0
LINE
  5
D7
330
4D
100
AcDbEntity
  8
1
  6
Continuous
 62
     7
100
AcDbLine
 10
200.0
 20
27.0
 30
0.0
 11
25.0
 21
27.0
 31
0.0
  0
LINE
  5
D8
330
4D
100
AcDbEntity
  8
1
  6
Continuous
 62
     2
100
AcDbLine
 10
33.0
 20
41.0
 30
0.0
 11
33.0
 21
27.0
 31
0.0
  0
LINE
  5
D9
330
4D
100
AcDbEntity
  8
1
  6
Continuous
 62
     2
100
AcDbLine
 10
55.0
 20
287.0000000000003
 30
0.0
 11
55.0
 21
277.0000000000003
 31
0.0
  0
LINE
  5
DA
330
4D
100
AcDbEntity
  8
1
  6
Continuous
 62
     2
100
AcDbLine
 10
40.0
 20
287.0000000000003
 30
0.0
 11
40.0
 21
277.0000000000003
 31
0.0
  0
LINE
  5
DB
330
4D
100
AcDbEntity
  8
1
  6
Continuous
 62
     7
100
AcDbLine
 10
25.0
 20
10.0
 30
0.0
 11
25.0
 21
148.5
 31
0.0
  0
LINE
  5
DC
330
4D
100
AcDbEntity
  8
1
  6
Continuous
 62
     2
100
AcDbLine
 10
55.0
 20
277.0000000000003
 30
0.0
 11
25.0
 21
277.0000000000003
 31
0.0
  0
LINE
  5
DD
330
4D
100
AcDbEntity
  8
1
  6
Continuous
 62
     2
100
AcDbLine
 10
166.0
 20
27.0
 30
0.0
 11
166.0
 21
10.0
 31
0.0
  0
LINE
  5
DE
330
4D
100
AcDbEntity
  8
1
  6
Continuous
 62
     2
100
AcDbLine
 10
132.0
 20
27.0
 30
0.0
 11
132.0
 21
10.0
 31
0.0
  0
LINE
  5
DF
330
4D
100
AcDbEntity
  8
1
  6
Continuous
 62
     2
100
AcDbLine
 10
149.0
 20
27.0
 30
0.0
 11
149.0
 21
10.0
 31
0.0
  0
LINE
  5
E0
330
4D
100
AcDbEntity
  8
1
  6
Continuous
 62
     2
100
AcDbLine
 10
115.0
 20
27.0
 30
0.0
 11
115.0
 21
10.0
 31
0.0
  0
LINE
  5
E1
330
4D
100
AcDbEntity
  8
1
  6
Continuous
 62
     2
100
AcDbLine
 10
98.0
 20
27.0
 30
0.0
 11
98.0
 21
10.0
 31
0.0
  0
LINE
  5
E2
330
4D
100
AcDbEntity
  8
1
  6
Continuous
 62
     2
100
AcDbLine
 10
166.0
 20
20.0
 30
0.0
 11
200.0
 21
20.0
 31
0.0
  0
LINE
  5
E3
330
4D
100
AcDbEntity
  8
1
  6
Continuous
 62
     2
100
AcDbLine
 10
105.0
 20
287.0000000000003
 30
0.0
 11
105.0
 21
292.0000000000003
 31
0.0
  0
LINE
  5
E4
330
4D
100
AcDbEntity
  8
1
  6
Continuous
 62
     7
100
AcDbLine
 10
105.0
 20
287.0000000000003
 30
0.0
 11
25.0
 21
287.0000000000003
 31
0.0
  0
LINE
  5
E5
330
4D
100
AcDbEntity
  8
1
  6
Continuous
 62
     2
100
AcDbLine
 10
25.0
 20
148.5
 30
0.0
 11
20.0
 21
148.5
 31
0.0
  0
LINE
  5
E6
330
4D
100
AcDbEntity
  8
1
  6
Continuous
 62
     7
100
AcDbLine
 10
25.0
 20
148.5
 30
0.0
 11
25.0
 21
287.0000000000003
 31
0.0
  0
LINE
  5
E7
330
4D
100
AcDbEntity
  8
1
  6
Continuous
 62
     2
100
AcDbLine
 10
200.0
 20
148.5
 30
0.0
 11
205.0
 21
148.5
 31
0.0
  0
LINE
  5
E8
330
4D
100
AcDbEntity
  8
1
  6
Continuous
 62
     7
100
AcDbLine
 10
200.0
 20
148.5
 30
0.0
 11
200.0
 21
287.0000000000003
 31
0.0
  0
LINE
  5
E9
330
4D
100
AcDbEntity
  8
1
  6
Continuous
 62
     2
100
AcDbLine
 10
105.0
 20
10.0
 30
0.0
 11
105.0
 21
5.0
 31
0.0
  0
LINE
  5
EA
330
4D
100
AcDbEntity
  8
1
  6
Continuous
 62
     7
100
AcDbLine
 10
105.0
 20
10.0
 30
0.0
 11
200.0
 21
10.0
 31
0.0
  0
CIRCLE
  5
EF
330
4D
100
AcDbEntity
  8
1
  6
DOT_CENTER
 62
     7
100
AcDbCircle
 10
89.5
 20
18.0
 30
0.0
 40
0.1000000000000227
  0
CIRCLE
  5
F0
330
4D
100
AcDbEntity
  8
1
  6
DOT_CENTER
 62
     7
100
AcDbCircle
 10
89.5
 20
16.0
 30
0.0
 40
0.1000000000000227
  0
CIRCLE
  5
F1
330
4D
100
AcDbEntity
  8
1
  6
Continuous
 62
     7
100
AcDbCircle
 10
187.0
 20
23.5
 30
0.0
 40
2.0
  0
CIRCLE
  5
F2
330
4D
100
AcDbEntity
  8
1
  6
Continuous
 62
     7
100
AcDbCircle
 10
187.0
 20
23.5
 30
0.0
 40
1.200000000000102
  0
CIRCLE
  5
F3
330
4D
100
AcDbEntity
  8
1
  6
Continuous
 62
     7
100
AcDbCircle
 10
154.5
 20
12.5
 30
0.0
 40
0.3000000000000114
  0
CIRCLE
  5
F4
330
4D
100
AcDbEntity
  8
1
  6
Continuous
 62
     7
100
AcDbCircle
 10
160.5
 20
12.5
 30
0.0
 40
0.3000000000000114
  0
CIRCLE
  5
F5
330
4D
100
AcDbEntity
  8
1
  6
Continuous
 62
     7
100
AcDbCircle
 10
143.5
 20
12.5
 30
0.0
 40
0.3000000000000114
  0
CIRCLE
  5
F6
330
4D
100
AcDbEntity
  8
1
  6
Continuous
 62
     7
100
AcDbCircle
 10
137.5
 20
12.5
 30
0.0
 40
0.3000000000000114
  0
CIRCLE
  5
F7
330
4D
100
AcDbEntity
  8
1
  6
Continuous
 62
     7
100
AcDbCircle
 10
126.5
 20
12.5
 30
0.0
 40
0.2999999999999972
  0
CIRCLE
  5
F8
330
4D
100
AcDbEntity
  8
1
  6
Continuous
 62
     7
100
AcDbCircle
 10
120.5
 20
12.5
 30
0.0
 40
0.2999999999999972
  0
CIRCLE
  5
F9
330
4D
100
AcDbEntity
  8
1
  6
Continuous
 62
     7
100
AcDbCircle
 10
109.5
 20
12.5
 30
0.0
 40
0.2999999999999972
  0
CIRCLE
  5
FA
330
4D
100
AcDbEntity
  8
1
  6
Continuous
 62
     7
100
AcDbCircle
 10
103.5
 20
12.5
 30
0.0
 40
0.2999999999999972
  0
SPLINE
  5
FB
102
{ACAD_REACTORS
330
119
102
}
330
4D
100
AcDbEntity
  8
_U_30EC_U_30A4_U_30E4_U_30FC_1
  6
Continuous
 62
     2
100
AcDbSpline
210
0.0
220
0.0
230
1.0
 70
    11
 71
     3
 72
    99
 73
    95
 74
    93
 42
0.000000001
 43
0.0000000001
 44
0.00000001
 40
0.0
 40
0.0
 40
0.0
 40
0.0
 40
0.0796417172272386
 40
0.1621768542355955
 40
0.2486489160957608
 40
0.3404969668524566
 40
0.4381912511164575
 40
0.5434463660244873
 40
0.6518115192847189
 40
0.7530190937886773
 40
0.8492196919725035
 40
0.9419290312998099
 40
1.034249663570028
 40
1.129078600620186
 40
1.226697027573219
 40
1.327220425421675
 40
1.470572134937996
 40
1.59548986337119
 40
1.719934125348377
 40
1.850576620127388
 40
1.989059629987284
 40
2.134139054226901
 40
2.280698007207189
 40
2.424529739039458
 40
2.56592957698582
 40
2.70823926077352
 40
2.861717887443642
 40
3.045168540347341
 40
3.183798301138582
 40
3.314813961455438
 40
3.442083470447293
 40
3.569912708372946
 40
3.702177512509348
 40
3.842307559659512
 40
3.992872223245916
 40
4.156750662218305
 40
4.310981861107526
 40
4.44585990932257
 40
4.572393936131567
 40
4.701656719781972
 40
4.768279086008453
 40
4.835960697898384
 40
4.912788918729319
 40
5.006285208481535
 40
5.026909478751612
 40
5.047533749021176
 40
5.10180803147126
 40
5.162325165538546
 40
5.226919745995868
 40
5.294231806596739
 40
5.364544852554888
 40
5.438319055467937
 40
5.51787765132427
 40
5.607647714861582
 40
5.700449642544428
 40
5.788251142364158
 40
5.872714706039793
 40
5.95516729257531
 40
6.037192395190404
 40
6.120669181469139
 40
6.206848616686369
 40
6.296680855416791
 40
6.442558392872612
 40
6.5681903716083
 40
6.692904567360381
 40
6.82422044655716
 40
6.963121850329398
 40
7.107843738851181
 40
7.253431663907296
 40
7.395187468036722
 40
7.533140753237774
 40
7.670550457175252
 40
7.81623651176928
 40
7.987691657359253
 40
8.142277421969268
 40
8.293662615415034
 40
8.44296246087929
 40
8.591598316185342
 40
8.74367899236182
 40
8.9037253236992
 40
9.07630700889055
 40
9.265578604680606
 40
9.45920379536078
 40
9.617619810273569
 40
9.753609671361925
 40
9.874873300004102
 40
9.954520184977802
 40
10.02416413719247
 40
10.09769764405446
 40
10.18909955924974
 40
10.20974586420135
 40
10.23039218263381
 40
10.30057101881266
 40
10.37632012987547
 40
10.37632012987547
 40
10.37632012987547
 40
10.37632012987547
 10
170.1465954835851
 20
14.13795663215993
 30
0.0
 10
170.1632217851219
 20
14.11720608845312
 30
0.0
 10
170.1970784206577
 20
14.07495111711902
 30
0.0
 10
170.2599822541036
 20
14.02029811392072
 30
0.0
 10
170.3332500940392
 20
13.9729902512105
 30
0.0
 10
170.4175969238636
 20
13.93527231437935
 30
0.0
 10
170.5132240615459
 20
13.91040619731951
 30
0.0
 10
170.6171853775346
 20
13.90309559345939
 30
0.0
 10
170.7224020220405
 20
13.91142322794053
 30
0.0
 10
170.8206626371334
 20
13.9414917965153
 30
0.0
 10
170.9058986427548
 20
13.98848822971876
 30
0.0
 10
170.9779220206103
 20
14.04952991250859
 30
0.0
 10
171.0350917709096
 20
14.12412969578583
 30
0.0
 10
171.0767868747439
 20
14.21002464660174
 30
0.0
 10
171.1026952846292
 20
14.30485850432211
 30
0.0
 10
171.1118037332653
 20
14.41854979038366
 30
0.0
 10
171.0986864796487
 20
14.54332587770778
 30
0.0
 10
171.0325330334414
 20
14.66014719171892
 30
0.0
 10
170.9369370919569
 20
14.74512539577373
 30
0.0
 10
170.8249681022369
 20
14.8141668445916
 30
0.0
 10
170.6993659583269
 20
14.87204142045891
 30
0.0
 10
170.5656691620856
 20
14.9237372328434
 30
0.0
 10
170.4313122818831
 20
14.97899092397181
 30
0.0
 10
170.3051983986877
 20
15.04939770641649
 30
0.0
 10
170.1926579987535
 20
15.13785540731248
 30
0.0
 10
170.0969963064458
 20
15.24981067868472
 30
0.0
 10
170.0334157151825
 20
15.39949910101382
 30
0.0
 10
170.0200706505015
 20
15.55932794385141
 30
0.0
 10
170.0320510987448
 20
15.71048405306844
 30
0.0
 10
170.071229892884
 20
15.83809244591538
 30
0.0
 10
170.1354987750911
 20
15.95080874030846
 30
0.0
 10
170.2238204999739
 20
16.04648609268686
 30
0.0
 10
170.3338091207628
 20
16.12354214985754
 30
0.0
 10
170.4632284401264
 20
16.18151396936277
 30
0.0
 10
170.6111838967793
 20
16.21739177588822
 30
0.0
 10
170.7682069455487
 20
16.22746719050564
 30
0.0
 10
170.917494046643
 20
16.21863637762591
 30
0.0
 10
171.059625361417
 20
16.19074899340354
 30
0.0
 10
171.1595922609625
 20
16.13413314701138
 30
0.0
 10
171.3125074736186
 20
16.08674602105506
 30
0.0
 10
171.2455131717168
 20
16.00197553001184
 30
0.0
 10
171.2296479120268
 20
15.93438901873484
 30
0.0
 10
171.1978750531297
 20
15.8692609279319
 30
0.0
 10
171.215020220957
 20
15.76723453256951
 30
0.0
 10
171.1666427208231
 20
15.774932116819
 30
0.0
 10
171.1315789440766
 20
15.76806771724807
 30
0.0
 10
171.1296697985717
 20
15.83263831158195
 30
0.0
 10
171.0985692931989
 20
15.87825639621395
 30
0.0
 10
171.0664551628455
 20
15.93561036628455
 30
0.0
 10
171.0208038475168
 20
15.98540462692559
 30
0.0
 10
170.9658508218387
 20
16.02994813718995
 30
0.0
 10
170.9010841173007
 20
16.06763988836552
 30
0.0
 10
170.8232377310597
 20
16.09283375791352
 30
0.0
 10
170.7355160553352
 20
16.0993123099811
 30
0.0
 10
170.6452903277806
 20
16.09235709285608
 30
0.0
 10
170.5594594694064
 20
16.06909190460922
 30
0.0
 10
170.4828343638596
 20
16.03131644107544
 30
0.0
 10
170.4165265636201
 20
15.98051641089574
 30
0.0
 10
170.3622560536963
 20
15.91731143407209
 30
0.0
 10
170.3224925345459
 20
15.84276455710367
 30
0.0
 10
170.2976775510587
 20
15.75917313997763
 30
0.0
 10
170.289212426287
 20
15.65192948382285
 30
0.0
 10
170.3019697987103
 20
15.52965457267559
 30
0.0
 10
170.3681548409273
 20
15.41149724291212
 30
0.0
 10
170.4640977399832
 20
15.32606325709527
 30
0.0
 10
170.5757914963182
 20
15.25583362306722
 30
0.0
 10
170.7010863668702
 20
15.19659162305303
 30
0.0
 10
170.8349823941447
 20
15.14616708086132
 30
0.0
 10
170.968993033315
 20
15.09322516984382
 30
0.0
 10
171.0950885316915
 20
15.02750170625174
 30
0.0
 10
171.2076216638417
 20
14.94480352537321
 30
0.0
 10
171.3031370284234
 20
14.83996006310075
 30
0.0
 10
171.3672706486962
 20
14.69937117251569
 30
0.0
 10
171.3811103725279
 20
14.54065409451592
 30
0.0
 10
171.367395471223
 20
14.38153155217875
 30
0.0
 10
171.3244739153984
 20
14.23483828819212
 30
0.0
 10
171.2545906329065
 20
14.10119796587142
 30
0.0
 10
171.1574592213829
 20
13.98532387699293
 30
0.0
 10
171.0347806023657
 20
13.89089981770087
 30
0.0
 10
170.8874408413168
 20
13.82179270651982
 30
0.0
 10
170.7177132497125
 20
13.77953210858852
 30
0.0
 10
170.5317404979597
 20
13.76781736230406
 30
0.0
 10
170.3528955926183
 20
13.77809486683436
 30
0.0
 10
170.1881733753743
 20
13.81966573769155
 30
0.0
 10
170.0834410841056
 20
13.8879764288394
 30
0.0
 10
169.9350960790366
 20
13.93675219032108
 30
0.0
 10
169.9980378194729
 20
14.02976591290841
 30
0.0
 10
170.0072274430059
 20
14.1029653624828
 30
0.0
 10
170.0303711301232
 20
14.16936294501346
 30
0.0
 10
170.0034588335316
 20
14.26974809527581
 30
0.0
 10
170.0521338956339
 20
14.26234033517378
 30
0.0
 10
170.0916530580697
 20
14.26894063620895
 30
0.0
 10
170.0996204944702
 20
14.19078703218931
 30
0.0
 10
170.1305436967923
 20
14.15600927375856
 30
0.0
 10
170.1465954835851
 20
14.13795663215993
 30
0.0
 11
170.1465954835851
 21
14.13795663215993
 31
0.0
 11
170.1982038075864
 21
14.07729869814736
 31
0.0
 11
170.2601105501335
 21
14.0227129516332
 31
0.0
 11
170.3327764009802
 21
13.97583980928383
 31
0.0
 11
170.4166468655843
 21
13.93839906276537
 31
0.0
 11
170.511221073241
 21
13.91390636311878
 31
0.0
 11
170.6161603327165
 21
13.90575829888473
 31
0.0
 11
170.7240739497552
 21
13.91564048638223
 31
0.0
 11
170.8208419941616
 21
13.94528704887483
 31
0.0
 11
170.9050776083319
 21
13.99175118948819
 31
0.0
 11
170.9756144207686
 21
14.05191413218151
 31
0.0
 11
171.031944210998
 21
14.1250581946632
 31
0.0
 11
171.0736690016003
 21
14.21021434047523
 31
0.0
 11
171.0994680808032
 21
14.30436190989612
 31
0.0
 11
171.1080824729446
 21
14.40451552098219
 31
0.0
 11
171.0878517703357
 21
14.54643250879397
 31
0.0
 11
171.0272522666731
 21
14.65566684036386
 31
0.0
 11
170.9364971286285
 21
14.74081306430094
 31
0.0
 11
170.826010188474
 21
14.81052746532515
 31
0.0
 11
170.7008523531254
 21
14.86979854169923
 31
0.0
 11
170.5662951950998
 21
14.9240425347412
 31
0.0
 11
170.4316884277007
 21
14.98201274306004
 31
0.0
 11
170.3065802017258
 21
15.05297399304232
 31
0.0
 11
170.196027609828
 21
15.14113315968693
 31
0.0
 11
170.1053381235265
 21
15.25080295132617
 31
0.0
 11
170.0447055469484
 21
15.39179720476315
 31
0.0
 11
170.0245079172553
 21
15.57413260402313
 31
0.0
 11
170.0374030471347
 21
15.71216131926641
 31
0.0
 11
170.0761016659391
 21
15.83733128451289
 31
0.0
 11
170.1393141731506
 21
15.94779262129084
 31
0.0
 11
170.2257499954545
 21
16.04196885390621
 31
0.0
 11
170.3336492808962
 21
16.11846540770651
 31
0.0
 11
170.4613526283328
 21
16.17615670109487
 31
0.0
 11
170.6075393259923
 21
16.21220066809973
 31
0.0
 11
170.770976856545
 21
16.22421385386062
 31
0.0
 11
170.9248918431289
 21
16.21434269066864
 31
0.0
 11
171.0564887242607
 21
16.18477329831498
 31
0.0
 11
171.172563634494
 21
16.13439993895252
 31
0.0
 11
171.2800792741122
 21
16.06264163167876
 31
0.0
 11
171.2516994050444
 21
16.00236624106886
 31
0.0
 11
171.2284855254283
 21
15.93879017337648
 31
0.0
 11
171.2078381040801
 21
15.86478841992269
 31
0.0
 11
171.1871840681487
 21
15.77360197897326
 31
0.0
 11
171.1665597978415
 21
15.77360197897326
 31
0.0
 11
171.1459355275343
 21
15.77360197897326
 31
0.0
 11
171.1256706495791
 21
15.82395108486347
 31
0.0
 11
171.0994658759421
 21
15.87850045116929
 31
0.0
 11
171.0650468924451
 21
15.93316116296115
 31
0.0
 11
171.0203554612937
 21
15.98349593725411
 31
0.0
 11
170.9657333359511
 21
16.02777175321529
 31
0.0
 11
170.9016722004326
 21
16.06436142334502
 31
0.0
 11
170.825968296114
 21
16.08882545979727
 31
0.0
 11
170.7365722046449
 21
16.09701100667022
 31
0.0
 11
170.6440937174207
 21
16.08926973931102
 31
0.0
 11
170.5594072091645
 21
16.06609003445567
 31
0.0
 11
170.483702448884
 21
16.02863495634008
 31
0.0
 11
170.4183754766516
 21
15.97832774281102
 31
0.0
 11
170.3650487887664
 21
15.91600293379879
 31
0.0
 11
170.3254809233901
 21
15.84249947895606
 31
0.0
 11
170.3009523754711
 21
15.75988443557391
 31
0.0
 11
170.2927954104108
 21
15.67042329844352
 31
0.0
 11
170.3130095765617
 21
15.52595308146574
 31
0.0
 11
170.373625616682
 21
15.41591177072937
 31
0.0
 11
170.4643479320758
 21
15.33033670130632
 31
0.0
 11
170.5748676948813
 21
15.25941954854625
 31
0.0
 11
170.7000089937719
 21
15.19914305550579
 31
0.0
 11
170.8345826882553
 21
15.14590447913022
 31
0.0
 11
170.9691729191968
 21
15.09039489581074
 31
0.0
 11
171.0942976816297
 21
15.02377281249409
 31
0.0
 11
171.204800907977
 21
14.94118863716749
 31
0.0
 11
171.2955397598288
 21
14.83800003476273
 31
0.0
 11
171.3561557999489
 21
14.70552315979584
 31
0.0
 11
171.3763699660998
 21
14.53526378483838
 31
0.0
 11
171.3621839747998
 21
14.38133030397413
 31
0.0
 11
171.3196087009193
 21
14.23605531269098
 31
0.0
 11
171.2499752884265
 21
14.10398854189069
 31
0.0
 11
171.1544992078713
 21
13.99007218775248
 31
0.0
 11
171.0341060772624
 21
13.89715272597017
 31
0.0
 11
170.8896160201846
 21
13.82832357668181
 31
0.0
 11
170.7223519532713
 21
13.78581275203967
 31
0.0
 11
170.5336103348226
 21
13.7716586461404
 31
0.0
 11
170.3405031726387
 21
13.78581275203967
 31
0.0
 11
170.1878975900911
 21
13.82832357668181
 31
0.0
 11
170.0661897942203
 21
13.8889903301389
 31
0.0
 11
169.9660261826363
 21
13.95734322942738
 31
0.0
 11
169.9922320587039
 21
14.03255545163077
 31
0.0
 11
170.0090121537618
 21
14.10014767383612
 31
0.0
 11
170.0206196447852
 21
14.17275926235961
 31
0.0
 11
170.0313606254139
 21
14.26352788212859
 31
0.0
 11
170.0520069443315
 21
14.26352788212859
 31
0.0
 11
170.0726532632492
 21
14.26352788212859
 31
0.0
 11
170.1048916391629
 21
14.20119204881084
 31
0.0
 11
170.1465954835851
 21
14.13795663215993
 31
0.0
  0
SPLINE
  5
FC
102
{ACAD_REACTORS
330
11A
102
}
330
4D
100
AcDbEntity
  8
_U_30EC_U_30A4_U_30E4_U_30FC_1
  6
Continuous
 62
     2
100
AcDbSpline
210
0.0
220
0.0
230
1.0
 70
    11
 71
     3
 72
    57
 73
    53
 74
    51
 42
0.000000001
 43
0.0000000001
 44
0.00000001
 40
0.0
 40
0.0
 40
0.0
 40
0.0
 40
0.047163208280924
 40
0.0914861054632156
 40
0.1357762519702392
 40
0.1826527001610687
 40
0.2295203288572596
 40
0.2737751972220765
 40
0.3181310461543072
 40
0.3652607198398521
 40
0.4571007286314577
 40
0.5671851029165388
 40
0.6894623283868409
 40
0.8181758272546061
 40
0.9510087229274018
 40
1.085852229674066
 40
1.218126164475323
 40
1.343545131142385
 40
1.454537202956801
 40
1.567187607530811
 40
1.680710966642429
 40
1.794226869736793
 40
1.900009184247593
 40
2.004085860447872
 40
2.10816267445176
 40
2.214000150155305
 40
2.496038577352131
 40
2.762350745479262
 40
2.997275353279403
 40
3.185110082137736
 40
3.246407890063963
 40
3.312607550212694
 40
3.378877742711596
 40
3.440140399651451
 40
4.10050169600648
 40
4.754913085563525
 40
5.41133169342394
 40
6.077890432568722
 40
6.110575292671001
 40
6.143260152775781
 40
6.367989363395171
 40
6.610525374951579
 40
6.863389136467326
 40
7.119380025547608
 40
7.376036605091111
 40
7.631164770966302
 40
7.87672242545644
 40
8.104953735855988
 40
8.312916685924316
 40
8.497730294941311
 40
8.651018984313865
 40
8.764738853624614
 40
8.764738853624614
 40
8.764738853624614
 40
8.764738853624614
 10
174.7922649500513
 20
13.81626739612926
 30
0.0
 10
174.7766616726931
 20
13.81826231079077
 30
0.0
 10
174.7463947960302
 20
13.82213201360299
 30
0.0
 10
174.7010994202252
 20
13.82341984967266
 30
0.0
 10
174.6559553129349
 20
13.8230868355405
 30
0.0
 10
174.6099017123399
 20
13.82314658674223
 30
0.0
 10
174.5640496172096
 20
13.8232581365
 30
0.0
 10
174.5183711648164
 20
13.82277833456589
 30
0.0
 10
174.4750811541608
 20
13.82461109618722
 30
0.0
 10
174.4039947951514
 20
13.80049556814655
 30
0.0
 10
174.4057477261441
 20
13.92184693977252
 30
0.0
 10
174.358619637057
 20
14.00726239751233
 30
0.0
 10
174.3191478251762
 20
14.12486929345135
 30
0.0
 10
174.2706635532645
 20
14.24232752540438
 30
0.0
 10
174.2201017402523
 20
14.36405935761509
 30
0.0
 10
174.1718634610476
 20
14.49075967862465
 30
0.0
 10
174.1135232947595
 20
14.59933687784952
 30
0.0
 10
174.0980892667261
 20
14.75620657134408
 30
0.0
 10
173.9566586330636
 20
14.72373446548322
 30
0.0
 10
173.8508397414904
 20
14.73512888682181
 30
0.0
 10
173.7358569725222
 20
14.73392591514615
 30
0.0
 10
173.6253142252141
 20
14.73506945347409
 30
0.0
 10
173.5176583522782
 20
14.73418350037526
 30
0.0
 10
173.4121322529242
 20
14.7341660239052
 30
0.0
 10
173.3109192682012
 20
14.72714032472415
 30
0.0
 10
173.1266804827754
 20
14.75135859859866
 30
0.0
 10
173.1157393685411
 20
14.44741691121885
 30
0.0
 10
173.008769163475
 20
14.22353177253397
 30
0.0
 10
172.9098148604347
 20
14.03895314292498
 30
0.0
 10
172.9225090524007
 20
13.79530204804204
 30
0.0
 10
172.8050091716397
 20
13.82508046753197
 30
0.0
 10
172.742205586831
 20
13.82258089509602
 30
0.0
 10
172.6785872093399
 20
13.82344075102805
 30
0.0
 10
172.3946014194076
 20
13.7809803994194
 30
0.0
 10
173.0251638499381
 20
14.50081952444788
 30
0.0
 10
173.1087645289071
 20
15.01276539435727
 30
0.0
 10
173.4929252789339
 20
15.53353743550045
 30
0.0
 10
173.4777208288565
 20
16.2351962625321
 30
0.0
 10
173.7239265722697
 20
16.22345633081257
 30
0.0
 10
173.8256346157561
 20
16.23225004452773
 30
0.0
 10
173.8249752035818
 20
15.98059650730346
 30
0.0
 10
173.9428317155829
 20
15.79818020733958
 30
0.0
 10
174.0315515260484
 20
15.55563740662866
 30
0.0
 10
174.1322292485259
 20
15.32340030530128
 30
0.0
 10
174.2311142712243
 20
15.08674644566913
 30
0.0
 10
174.3299676990669
 20
14.85461739170094
 30
0.0
 10
174.4256166390925
 20
14.63122222788787
 30
0.0
 10
174.5159904573271
 20
14.42272549049316
 30
0.0
 10
174.5989944568189
 20
14.23308448529319
 30
0.0
 10
174.6726088582798
 20
14.066631060681
 30
0.0
 10
174.7342815895545
 20
13.92917699626098
 30
0.0
 10
174.7749458885604
 20
13.84999239430033
 30
0.0
 10
174.7922649500513
 20
13.81626739612926
 30
0.0
 11
174.7922649500513
 21
13.81626739612926
 31
0.0
 11
174.7453878317448
 21
13.82145433189185
 31
0.0
 11
174.7010975896125
 21
13.82315538223861
 31
0.0
 11
174.6568074431729
 21
13.82315538223861
 31
0.0
 11
174.6099309947159
 21
13.82315538223861
 31
0.0
 11
174.5630633657033
 21
13.82315538223861
 31
0.0
 11
174.5188084970408
 21
13.82315538223861
 31
0.0
 11
174.4744852776854
 21
13.82145433189185
 31
0.0
 11
174.4276419021443
 21
13.81626739612926
 31
0.0
 11
174.3992532136325
 21
13.90360966173244
 31
0.0
 11
174.3622721815898
 21
14.0072965627482
 31
0.0
 11
174.3188386236701
 21
14.12159987001127
 31
0.0
 11
174.2711055866936
 21
14.24113531268969
 31
0.0
 11
174.2208160133237
 21
14.36408057307564
 31
0.0
 11
174.1696467003932
 21
14.48883822929446
 31
0.0
 11
174.1197531801326
 21
14.61134141502772
 31
0.0
 11
174.0733119111841
 21
14.72784517367916
 31
0.0
 11
173.9623611907589
 21
14.73087465284506
 31
0.0
 11
173.8497309225089
 21
14.73300454867791
 31
0.0
 11
173.7362152069449
 21
14.7343219531914
 31
0.0
 11
173.62270004768
 21
14.73473315978853
 31
0.0
 11
173.5169185312816
 21
14.7343219531914
 31
0.0
 11
173.4128501919225
 21
14.73300454867791
 31
0.0
 11
173.3087951724045
 21
14.73087465284506
 31
0.0
 11
173.2030010615596
 21
14.72784517367916
 31
0.0
 11
173.0980914750139
 21
14.46604437513351
 31
0.0
 11
173.0034868690331
 21
14.21710232658461
 31
0.0
 11
172.9252231210298
 21
13.99559756969557
 31
0.0
 11
172.8693431224555
 21
13.81626739612926
 31
0.0
 11
172.8082651639442
 21
13.82145433189185
 31
0.0
 11
172.742087361813
 21
13.82315538223861
 31
0.0
 11
172.6758390041282
 21
13.82145433189185
 31
0.0
 11
172.6147963233938
 21
13.81626739612926
 31
0.0
 11
172.889968495193
 21
14.41656508695142
 31
0.0
 11
173.158294573417
 21
15.01343642360774
 31
0.0
 11
173.4240277350405
 21
15.61366245644381
 31
0.0
 11
173.6914740737033
 21
16.22421385386062
 31
0.0
 11
173.7241589339806
 21
16.22421385386062
 31
0.0
 11
173.7568437942579
 21
16.22421385386062
 31
0.0
 11
173.8428300681057
 21
16.01658539037084
 31
0.0
 11
173.9357285813609
 21
15.79254614563516
 31
0.0
 11
174.0328714521463
 21
15.55908663180469
 31
0.0
 11
174.1317936458031
 21
15.32298128464146
 31
0.0
 11
174.2315341249927
 21
15.08649780379784
 31
0.0
 11
174.3313071129353
 21
14.85168781253711
 31
0.0
 11
174.4280608257448
 21
14.62599492196849
 31
0.0
 11
174.5188084970408
 21
14.41658052097918
 31
0.0
 11
174.6022150834546
 21
14.22607611130461
 31
0.0
 11
174.6770293263377
 21
14.05708232662468
 31
0.0
 11
174.7410729186603
 21
13.91781337700668
 31
0.0
 11
174.7922649500513
 21
13.81626739612926
 31
0.0
  0
SPLINE
  5
FD
102
{ACAD_REACTORS
330
11A
102
}
330
4D
100
AcDbEntity
  8
_U_30EC_U_30A4_U_30E4_U_30FC_1
  6
Continuous
 62
     2
100
AcDbSpline
210
0.0
220
0.0
230
1.0
 70
    11
 71
     3
 72
    25
 73
    21
 74
    19
 42
0.000000001
 43
0.0000000001
 44
0.00000001
 40
0.0
 40
0.0
 40
0.0
 40
0.0
 40
0.0911479969064821
 40
0.1858117896204662
 40
0.2804128399734491
 40
0.3715889190714511
 40
0.4679080494218709
 40
0.5642683809229232
 40
0.6605683222644991
 40
0.7569653015810254
 40
0.8561348172522737
 40
1.092615965104292
 40
1.374867658141876
 40
1.611348812011599
 40
1.710518328425249
 40
1.809403163726567
 40
2.045205463294071
 40
2.326646917622131
 40
2.562449217190592
 40
2.661334043833911
 40
2.661334043833911
 40
2.661334043833911
 40
2.661334043833911
 10
173.2683700567199
 20
14.88614538197291
 30
0.0
 10
173.2987525917922
 20
14.88598079714553
 30
0.0
 10
173.3606895889112
 20
14.88564528689922
 30
0.0
 10
173.4541356960329
 20
14.88269055452001
 30
0.0
 10
173.5475095236357
 20
14.8797775287715
 30
0.0
 10
173.6417760753476
 20
14.87894201643416
 30
0.0
 10
173.7354964790967
 20
14.87996644658046
 30
0.0
 10
173.8352040303205
 20
14.87916977470973
 30
0.0
 10
173.9188949546312
 20
14.88921410235218
 30
0.0
 10
174.0637996315045
 20
14.86234617674164
 30
0.0
 10
173.93961324448
 20
15.03665530280047
 30
0.0
 10
173.8965867286282
 20
15.19651711006091
 30
0.0
 10
173.7808922142209
 20
15.45518458550214
 30
0.0
 10
173.7017565431257
 20
15.59231052861858
 30
0.0
 10
173.6431576621816
 20
15.80937033134076
 30
0.0
 10
173.5864803939438
 20
15.59266134213427
 30
0.0
 10
173.5052809900478
 20
15.45327012438235
 30
0.0
 10
173.4063701281488
 20
15.20406969370194
 30
0.0
 10
173.3253625094259
 20
15.01925830226072
 30
0.0
 10
173.2813683325838
 20
14.91650446856116
 30
0.0
 10
173.2683700567199
 20
14.88614538197291
 30
0.0
 11
173.2683700567199
 21
14.88614538197291
 31
0.0
 11
173.359513773782
 21
14.88526123266759
 31
0.0
 11
173.4541428297581
 21
14.882696979196
 31
0.0
 11
173.5487082179706
 21
14.88009965280777
 31
0.0
 11
173.6398803250196
 21
14.87924857641909
 31
0.0
 11
173.7361985777706
 21
14.8796597830162
 31
0.0
 11
173.8325499034376
 21
14.88097718752971
 31
0.0
 11
173.9288262638286
 21
14.88310818579312
 31
0.0
 11
174.0251753846343
 21
14.88614538197291
 31
0.0
 11
173.9854633323141
 21
14.97701642195019
 31
0.0
 11
173.8907653613968
 21
15.19370890189601
 31
0.0
 11
173.7777387509471
 21
15.45234186183134
 31
0.0
 11
173.6830407800297
 21
15.66903434177716
 31
0.0
 11
173.6433287277095
 21
15.75990538175444
 31
0.0
 11
173.6043330259266
 21
15.66903434177716
 31
0.0
 11
173.5113432755212
 21
15.45234186183134
 31
0.0
 11
173.4003555089082
 21
15.19370890189601
 31
0.0
 11
173.3073657585028
 21
14.97701642195019
 31
0.0
 11
173.2683700567199
 21
14.88614538197291
 31
0.0
  0
SPLINE
  5
FE
102
{ACAD_REACTORS
330
11B
102
}
330
4D
100
AcDbEntity
  8
_U_30EC_U_30A4_U_30E4_U_30FC_1
  6
Continuous
 62
     2
100
AcDbSpline
210
0.0
220
0.0
230
1.0
 70
    11
 71
     3
 72
    95
 73
    91
 74
    89
 42
0.000000001
 43
0.0000000001
 44
0.00000001
 40
0.0
 40
0.0
 40
0.0
 40
0.0
 40
0.6550406656911508
 40
1.308087289031932
 40
1.420803739835803
 40
1.566130759770792
 40
1.757067341888471
 40
2.006513545026453
 40
2.087328263121553
 40
2.185328872295633
 40
2.294612454748384
 40
2.408936380534818
 40
2.526802767798557
 40
2.646360524615613
 40
2.762535723971582
 40
2.870057342870153
 40
2.966883448431662
 40
3.050803243518302
 40
3.115818222436611
 40
3.156030057150259
 40
3.213914225080161
 40
3.276689026450561
 40
3.342960320981339
 40
3.404230667150588
 40
3.453822809493409
 40
3.532499827188453
 40
3.634775188507199
 40
3.754909333008207
 40
3.889736761660701
 40
4.035769602175263
 40
4.187256681197642
 40
4.338733685675995
 40
4.488478734676158
 40
4.634708317831634
 40
4.771493189921316
 40
4.892686571561257
 40
5.199775528944486
 40
5.460353566929683
 40
5.667603142345549
 40
5.814722905404529
 40
5.828990806219827
 40
5.855488336304524
 40
5.869756237118856
 40
6.189796507762854
 40
6.53189046987304
 40
6.883053637017039
 40
7.230512024911512
 40
7.566966656764624
 40
7.885203559707439
 40
8.172887439719249
 40
8.418011594062802
 40
8.443926721190723
 40
8.510760470613208
 40
8.602145393795718
 40
8.701714041647156
 40
8.793098965075385
 40
8.859932715057957
 40
8.885847842603605
 40
9.242301256612825
 40
9.589275455016795
 40
9.921808543164197
 40
10.23479624298468
 40
10.29968150889179
 40
10.35323493887767
 40
10.40154625355152
 40
10.46482922477827
 40
10.55973900668406
 40
10.69239545985618
 40
10.84920353475673
 40
11.01626328594783
 40
11.18672024367445
 40
11.35372582577212
 40
11.50257442292429
 40
11.61866495023294
 40
11.71329869152877
 40
11.82511050573909
 40
11.94464880845717
 40
12.06929242642508
 40
12.19707290435178
 40
12.32562632860531
 40
12.45034565331281
 40
12.56646595170329
 40
12.67099007414637
 40
12.76077625936784
 40
12.82703233506696
 40
12.87429132785996
 40
12.89831990323335
 40
12.92234847860024
 40
13.53984767410324
 40
14.1829428435937
 40
14.1829428435937
 40
14.1829428435937
 40
14.1829428435937
 10
177.3067935648021
 20
14.70898038201725
 30
0.0
 10
177.1752019758551
 20
14.82265058603232
 30
0.0
 10
176.9124193802728
 20
15.04964496316158
 30
0.0
 10
176.3997393441019
 20
15.89214462956287
 30
0.0
 10
176.4106654595363
 20
15.5342337757702
 30
0.0
 10
176.404122652799
 20
15.39267392272133
 30
0.0
 10
176.4028026631773
 20
15.19421305299281
 30
0.0
 10
176.4018117602538
 20
15.02150296045983
 30
0.0
 10
176.4024101751974
 20
14.8786537325758
 30
0.0
 10
176.4038994301883
 20
14.78265005413358
 30
0.0
 10
176.4055683588472
 20
14.6754550326314
 30
0.0
 10
176.4071934954618
 20
14.56164211517582
 30
0.0
 10
176.4092429501686
 20
14.44441572604589
 30
0.0
 10
176.4123165501927
 20
14.3265641123297
 30
0.0
 10
176.4156339697042
 20
14.2122808732062
 30
0.0
 10
176.419360534028
 20
14.10521401867277
 30
0.0
 10
176.4217338161424
 20
14.01007408766921
 30
0.0
 10
176.4278718888357
 20
13.92558557205695
 30
0.0
 10
176.4239784495946
 20
13.86923087298141
 30
0.0
 10
176.4455230443078
 20
13.79825022472355
 30
0.0
 10
176.3680940058618
 20
13.82902677604483
 30
0.0
 10
176.3116353240191
 20
13.82011242517612
 30
0.0
 10
176.2540495896806
 20
13.82896218398275
 30
0.0
 10
176.1690163478473
 20
13.79738225225944
 30
0.0
 10
176.2009714146382
 20
13.88095155992189
 30
0.0
 10
176.1990705282539
 20
13.94882608968309
 30
0.0
 10
176.21079600473
 20
14.05233256764419
 30
0.0
 10
176.2164241053
 20
14.17002125616695
 30
0.0
 10
176.2237902178941
 20
14.30388609164424
 30
0.0
 10
176.232075970161
 20
14.44764152872632
 30
0.0
 10
176.2398851897426
 20
14.59714022843445
 30
0.0
 10
176.2457571222657
 20
14.74792549402078
 30
0.0
 10
176.2503667817968
 20
14.89699943878438
 30
0.0
 10
176.2542632117542
 20
15.04122913163023
 30
0.0
 10
176.2570715126564
 20
15.17583905213018
 30
0.0
 10
176.2576698755022
 20
15.36469614347355
 30
0.0
 10
176.261602386715
 20
15.58975494313154
 30
0.0
 10
176.2442175378497
 20
15.86367091125708
 30
0.0
 10
176.2850417342584
 20
16.02787112098596
 30
0.0
 10
176.1995153256001
 20
16.22749661465097
 30
0.0
 10
176.2660558907688
 20
16.22385458403978
 30
0.0
 10
176.283872427323
 20
16.22413447160854
 30
0.0
 10
176.4056801797506
 20
16.22632927398615
 30
0.0
 10
176.508077033546
 20
15.94675118721514
 30
0.0
 10
176.7580021509356
 20
15.74563008536003
 30
0.0
 10
176.987003533111
 20
15.47792614987916
 30
0.0
 10
177.2245151213108
 20
15.22646413862376
 30
0.0
 10
177.4486090740772
 20
14.98969974061357
 30
0.0
 10
177.675071628301
 20
14.73218692583081
 30
0.0
 10
177.8325687886514
 20
14.61649335056921
 30
0.0
 10
178.0472129612673
 20
14.27997152538794
 30
0.0
 10
178.0422645974619
 20
14.40464754091603
 30
0.0
 10
178.0433931602546
 20
14.46327691935737
 30
0.0
 10
178.0428877841517
 20
14.55043662371976
 30
0.0
 10
178.0430475158114
 20
14.64416143182872
 30
0.0
 10
178.0430054891317
 20
14.73018971297034
 30
0.0
 10
178.0430202040373
 20
14.79153891945494
 30
0.0
 10
178.0429706255983
 20
14.94135231520992
 30
0.0
 10
178.0458811522811
 20
15.17989612510104
 30
0.0
 10
178.0259521041162
 20
15.54486509868702
 30
0.0
 10
178.0750433936248
 20
15.80799631993413
 30
0.0
 10
177.917795150918
 20
16.21928904947749
 30
0.0
 10
178.0762112872421
 20
16.16398282551748
 30
0.0
 10
178.1311680478628
 20
16.16199686500174
 30
0.0
 10
178.182788776674
 20
16.16264778248252
 30
0.0
 10
178.2713198965366
 20
16.20369527738244
 30
0.0
 10
178.2204898303168
 20
16.05696326622987
 30
0.0
 10
178.2313389930283
 20
15.95019971954434
 30
0.0
 10
178.2166036994847
 20
15.79085705414112
 30
0.0
 10
178.2099976446204
 20
15.62853061652874
 30
0.0
 10
178.2014961399915
 20
15.45992521892394
 30
0.0
 10
178.1943227202199
 20
15.29814814703541
 30
0.0
 10
178.1889063215389
 20
15.15422331457931
 30
0.0
 10
178.1871713967648
 20
15.03437493466924
 30
0.0
 10
178.1875440672319
 20
14.92686101590514
 30
0.0
 10
178.1873656126263
 20
14.81820024645586
 30
0.0
 10
178.187701086314
 20
14.6995357016553
 30
0.0
 10
178.1890040622184
 20
14.57555163512741
 30
0.0
 10
178.1908887351574
 20
14.44858294171105
 30
0.0
 10
178.192500445485
 20
14.32153861551031
 30
0.0
 10
178.194140313743
 20
14.19854884492178
 30
0.0
 10
178.1962570745752
 20
14.08300931383759
 30
0.0
 10
178.1963848422363
 20
13.98090903955837
 30
0.0
 10
178.2006514396554
 20
13.89009848838158
 30
0.0
 10
178.1908440085289
 20
13.83213621208786
 30
0.0
 10
178.2118474771689
 20
13.76517130132028
 30
0.0
 10
178.1725639739897
 20
13.77291153966687
 30
0.0
 10
177.9595307117747
 20
13.75755254145192
 30
0.0
 10
177.7636297943186
 20
14.3140305809447
 30
0.0
 10
177.4611197631544
 20
14.57556035348511
 30
0.0
 10
177.3067935648021
 20
14.70898038201725
 30
0.0
 11
177.3067935648021
 21
14.70898038201725
 31
0.0
 11
176.8595529338511
 21
15.18757635411978
 31
0.0
 11
176.4124049070643
 21
15.6635264928897
 31
0.0
 11
176.4089664262494
 21
15.55086249986232
 31
0.0
 11
176.40556101835
 21
15.40557538184311
 31
0.0
 11
176.4029636920274
 21
15.21465645827967
 31
0.0
 11
176.4021126156603
 21
14.96521170139758
 31
0.0
 11
176.4025239230289
 21
14.8843980295428
 31
0.0
 11
176.4038420329817
 21
14.78640628477561
 31
0.0
 11
176.4055192267718
 21
14.67713557299738
 31
0.0
 11
176.4072367127518
 21
14.56282454872039
 31
0.0
 11
176.4094007838772
 21
14.44497802965266
 31
0.0
 11
176.4124049070643
 21
14.32545802100199
 31
0.0
 11
176.4158359733138
 21
14.20933349846156
 31
0.0
 11
176.4192928929998
 21
14.1018674655023
 31
0.0
 11
176.4227085253088
 21
14.00510162351263
 31
0.0
 11
176.4261896983793
 21
13.92125406276972
 31
0.0
 11
176.4296006184313
 21
13.8563286200776
 31
0.0
 11
176.4330776843148
 21
13.81626739612926
 31
0.0
 11
176.3754263821571
 21
13.82145433189185
 31
0.0
 11
176.3126746318309
 21
13.82315538223861
 31
0.0
 11
176.2464251717157
 21
13.82145433189185
 31
0.0
 11
176.1853747739675
 21
13.81626739612926
 31
0.0
 11
176.1926772737812
 21
13.8653189412559
 31
0.0
 11
176.2008793569054
 21
13.94356725720854
 31
0.0
 11
176.2090098822348
 21
14.04551893253029
 31
0.0
 11
176.2163406441397
 21
14.16542920159753
 31
0.0
 11
176.2236358280421
 21
14.3000591234389
 31
0.0
 11
176.2318444255596
 21
14.44586107652745
 31
0.0
 11
176.2395504149465
 21
14.59715203135072
 31
0.0
 11
176.2455763002093
 21
14.74850913200734
 31
0.0
 11
176.2503046247416
 21
14.89817951391436
 31
0.0
 11
176.254192897212
 21
15.04435739582223
 31
0.0
 11
176.2567527408965
 21
15.18111831592697
 31
0.0
 11
176.2576324804574
 21
15.30230850686891
 31
0.0
 11
176.257192610677
 21
15.60939715262544
 31
0.0
 11
176.2559126888347
 21
15.86997204839366
 31
0.0
 11
176.2528658717893
 21
16.07719922716125
 31
0.0
 11
176.2473049112763
 21
16.22421385386062
 31
0.0
 11
176.2615728121469
 21
16.22421385386062
 31
0.0
 11
176.2880703423352
 21
16.22421385386062
 31
0.0
 11
176.3023382432058
 21
16.22421385386062
 31
0.0
 11
176.5194743650277
 21
15.98910179662774
 31
0.0
 11
176.7512744123079
 21
15.73751281231563
 31
0.0
 11
176.9894816018839
 21
15.4794955554357
 31
0.0
 11
177.2260074557521
 21
15.22497079855489
 31
0.0
 11
177.4555698717705
 21
14.97899759549137
 31
0.0
 11
177.6731797360103
 21
14.74678934034108
 31
0.0
 11
177.8713724913707
 21
14.538266805671
 31
0.0
 11
178.0430143099086
 21
14.36326697932589
 31
0.0
 11
178.0430143099086
 21
14.38918210687043
 31
0.0
 11
178.0430143099086
 21
14.45601585685371
 31
0.0
 11
178.0430143099086
 21
14.54740078030024
 31
0.0
 11
178.0430143099086
 21
14.64696942823453
 31
0.0
 11
178.0430143099086
 21
14.73835435168106
 31
0.0
 11
178.0430143099086
 21
14.80518810166434
 31
0.0
 11
178.0430143099086
 21
14.83110322920888
 31
0.0
 11
178.0417233637609
 21
15.18755430550867
 31
0.0
 11
178.0378461155958
 21
15.53450684014416
 31
0.0
 11
178.0296197790002
 21
15.86693815950552
 31
0.0
 11
178.0154535467228
 21
16.17960510387178
 31
0.0
 11
178.0790351249618
 21
16.16666367158334
 31
0.0
 11
178.1324170159611
 21
16.16238072887606
 31
0.0
 11
178.1805381084833
 21
16.16666367158334
 31
0.0
 11
178.2424836798197
 21
16.17960510387178
 31
0.0
 11
178.2351216487575
 21
16.08498128445101
 31
0.0
 11
178.2269790968818
 21
15.95257496503965
 31
0.0
 11
178.2183705364004
 21
15.79600336785656
 31
0.0
 11
178.2097547223215
 21
15.62916593734269
 31
0.0
 11
178.2016187850288
 21
15.4589032550936
 31
0.0
 11
178.1942501393835
 21
15.292060312427
 31
0.0
 11
178.1891406931522
 21
15.14329943572809
 31
0.0
 11
178.1874503478904
 21
15.027221215271
 31
0.0
 11
178.1874503478904
 21
14.93258747397518
 31
0.0
 11
178.1874503478904
 21
14.82077565976707
 31
0.0
 11
178.1878461204497
 21
14.70123801222749
 31
0.0
 11
178.1890819450708
 21
14.5766005209392
 31
0.0
 11
178.1908392193317
 21
14.44883212687392
 31
0.0
 11
178.1925303477608
 21
14.32028982655879
 31
0.0
 11
178.1942876220214
 21
14.19558288214555
 31
0.0
 11
178.1959787504505
 21
14.07947489606349
 31
0.0
 11
178.1972884379172
 21
13.97495896727018
 31
0.0
 11
178.1976985420735
 21
13.88517371555653
 31
0.0
 11
178.1976985420735
 21
13.81891763918416
 31
0.0
 11
178.1976985420735
 21
13.7716586461404
 31
0.0
 11
178.1736699662976
 21
13.7716586461404
 31
0.0
 11
178.1496413905217
 21
13.7716586461404
 31
0.0
 11
177.7410729200423
 21
14.23466735262191
 31
0.0
 11
177.3067935648021
 21
14.70898038201725
 31
0.0
  0
SPLINE
  5
FF
102
{ACAD_REACTORS
330
11C
102
}
330
4D
100
AcDbEntity
  8
_U_30EC_U_30A4_U_30E4_U_30FC_1
  6
Continuous
 62
     2
100
AcDbSpline
210
0.0
220
0.0
230
1.0
 70
    11
 71
     3
 72
   110
 73
   106
 74
   104
 42
0.000000001
 43
0.0000000001
 44
0.00000001
 40
0.0
 40
0.0
 40
0.0
 40
0.0
 40
0.2203406257277808
 40
0.4407808782838091
 40
0.5952494494615066
 40
0.7488431659393074
 40
0.9023581831309055
 40
1.056801968670404
 40
1.210736449099905
 40
1.363041386539783
 40
1.515315729683126
 40
1.669377239148077
 40
1.72161165275656
 40
1.773199502942936
 40
1.824933793209979
 40
1.877110426487958
 40
1.982682281206721
 40
2.07878166708753
 40
2.172809640822251
 40
2.271937807378905
 40
2.378349933379298
 40
2.494131557736487
 40
2.626681683943621
 40
2.783145050796048
 40
2.890701232940902
 40
2.993130312454796
 40
3.099869730691781
 40
3.220237816691267
 40
3.352695482737558
 40
3.481732806389818
 40
3.593499473690347
 40
3.674323013331854
 40
3.817951711952804
 40
3.946167120793801
 40
4.061405053453487
 40
4.166480796003127
 40
4.262478775059165
 40
4.350736673551121
 40
4.433071991254008
 40
4.511216293814611
 40
4.564262454117933
 40
4.618474415571555
 40
4.67012848875416
 40
4.722296879126367
 40
4.819540945314237
 40
4.931194984128095
 40
5.049996040257737
 40
5.168643755415282
 40
5.283970811762494
 40
5.392260784910319
 40
5.486512254876394
 40
5.559178233949793
 40
5.591425852853471
 40
5.626215969637848
 40
5.667155838674399
 40
5.71744929021422
 40
5.738402360944829
 40
5.784499116553788
 40
5.830595872164754
 40
5.851548942897607
 40
5.873019280661723
 40
5.924217778408274
 40
5.985325662817657
 40
6.036524160567677
 40
6.057994498334208
 40
6.236847789607448
 40
6.381409928945622
 40
6.493190424178658
 40
6.574067534230471
 40
6.691018086205565
 40
6.814881554220483
 40
6.944307823240435
 40
7.071266716066058
 40
7.193488604461903
 40
7.30904277312813
 40
7.414007203170756
 40
7.505140441886511
 40
7.531150360599651
 40
7.559221645322235
 40
7.587202218920892
 40
7.612569159499105
 40
7.662550809480991
 40
7.702878875764132
 40
7.857328205230947
 40
8.010799568088592
 40
8.165256399657542
 40
8.322232698713881
 40
8.479564855016568
 40
8.635216230290771
 40
8.790882550925689
 40
8.948305154947255
 40
9.168271839032956
 40
9.387358980987216
 40
9.608047961033462
 40
9.832914234792678
 40
9.858338694963013
 40
9.92536681723002
 40
10.0201307142276
 40
10.12876249858999
 40
10.23739428295249
 40
10.3321581799519
 40
10.39918630222394
 40
10.42461076239783
 40
10.64992019336943
 40
10.87188524531186
 40
10.87188524531186
 40
10.87188524531186
 40
10.87188524531186
 10
179.9057788376618
 20
15.73923260398189
 30
0.0
 10
179.9092864933541
 20
15.80616462073804
 30
0.0
 10
179.9163033987662
 20
15.94005891915858
 30
0.0
 10
179.8198027599072
 20
16.22548554971468
 30
0.0
 10
180.0510134726108
 20
16.16284386190284
 30
0.0
 10
180.1919290057156
 20
16.17001554055988
 30
0.0
 10
180.3490417757588
 20
16.16235883078245
 30
0.0
 10
180.5025913427287
 20
16.16252752283038
 30
0.0
 10
180.6545104935081
 20
16.16182040535433
 30
0.0
 10
180.8142214813231
 20
16.17210158351637
 30
0.0
 10
180.9408972601117
 20
16.15496511080751
 30
0.0
 10
181.1370821122081
 20
16.22727260107145
 30
0.0
 10
181.1034395279078
 20
16.12640699080116
 30
0.0
 10
181.1052011317184
 20
16.07619253947671
 30
0.0
 10
181.1027342073458
 20
16.02712335586466
 30
0.0
 10
181.1347076966011
 20
15.94063490847
 30
0.0
 10
181.0010399903256
 20
15.98997438608337
 30
0.0
 10
180.9172208688056
 20
15.98430634314167
 30
0.0
 10
180.8173861139324
 20
15.99465516706298
 30
0.0
 10
180.7186576720145
 20
16.00086450411087
 30
0.0
 10
180.612153277111
 20
16.00697763816777
 30
0.0
 10
180.491051169806
 20
16.01588883484585
 30
0.0
 10
180.3703381502453
 20
16.00521605912384
 30
0.0
 10
180.1812553843437
 20
16.06468503080367
 30
0.0
 10
180.2129028505311
 20
15.9055832007754
 30
0.0
 10
180.1995563316833
 20
15.80839128339905
 30
0.0
 10
180.197495842645
 20
15.69634065110104
 30
0.0
 10
180.195818804467
 20
15.57699685629352
 30
0.0
 10
180.1973336794233
 20
15.45032592155111
 30
0.0
 10
180.195658247867
 20
15.32301588016118
 30
0.0
 10
180.2058844271656
 20
15.22451566404464
 30
0.0
 10
180.1779006596583
 20
15.08388702625632
 30
0.0
 10
180.3508029999304
 20
15.13989551134095
 30
0.0
 10
180.4645020202772
 20
15.12719951478497
 30
0.0
 10
180.5840151672239
 20
15.13448377051255
 30
0.0
 10
180.6888491425071
 20
15.13878017056755
 30
0.0
 10
180.7843084898612
 20
15.14330568258977
 30
0.0
 10
180.8763823507032
 20
15.15149201146198
 30
0.0
 10
180.9476551782439
 20
15.14643850638111
 30
0.0
 10
181.0544931705685
 20
15.18536425031675
 30
0.0
 10
181.0226603598036
 20
15.1051712200588
 30
0.0
 10
181.0266164503929
 20
15.05562936846034
 30
0.0
 10
181.0234502392013
 20
15.00557478039819
 30
0.0
 10
181.0550791490585
 20
14.92128847612021
 30
0.0
 10
180.9210133677691
 20
14.97425365495158
 30
0.0
 10
180.82923227932
 20
14.96540080890442
 30
0.0
 10
180.7079729189603
 20
14.97570049965155
 30
0.0
 10
180.5914113119771
 20
14.977489117675
 30
0.0
 10
180.4783375745879
 20
14.97787017109695
 30
0.0
 10
180.3679246308471
 20
14.98415449472178
 30
0.0
 10
180.2898124067841
 20
14.97189133255364
 30
0.0
 10
180.1913625833643
 20
15.00453887616126
 30
0.0
 10
180.2012355173561
 20
14.94769748054207
 30
0.0
 10
180.1973923244402
 20
14.91392130557984
 30
0.0
 10
180.1966789884268
 20
14.87119604709411
 30
0.0
 10
180.1963369642975
 20
14.83401607262152
 30
0.0
 10
180.1963834255346
 20
14.7948723737077
 30
0.0
 10
180.1963649429926
 20
14.75716849497686
 30
0.0
 10
180.1963703431806
 20
14.71944955232403
 30
0.0
 10
180.1963697214201
 20
14.6899432474515
 30
0.0
 10
180.1963698151544
 20
14.65873577699302
 30
0.0
 10
180.1963704287921
 20
14.61414424908085
 30
0.0
 10
180.1963671499337
 20
14.55963956508851
 30
0.0
 10
180.196375962348
 20
14.51505540201446
 30
0.0
 10
180.1963359653418
 20
14.4311780858574
 30
0.0
 10
180.1976024270255
 20
14.31737520677677
 30
0.0
 10
180.1950274117842
 20
14.16830395933709
 30
0.0
 10
180.2065009381719
 20
14.06597203813905
 30
0.0
 10
180.1823506222263
 20
13.93338903885833
 30
0.0
 10
180.3332993946476
 20
13.97895732272021
 30
0.0
 10
180.4428436671556
 20
13.96427012162348
 30
0.0
 10
180.573397047392
 20
13.96920435125064
 30
0.0
 10
180.6990312209513
 20
13.97257705323359
 30
0.0
 10
180.8188730625601
 20
13.97711497498773
 30
0.0
 10
180.9391362611426
 20
13.99048536182003
 30
0.0
 10
181.0222761663514
 20
13.98068712782596
 30
0.0
 10
181.1456080421075
 20
14.04126214623319
 30
0.0
 10
181.1244269203956
 20
13.98532460134021
 30
0.0
 10
181.1235950270117
 20
13.95939249372347
 30
0.0
 10
181.1218963707558
 20
13.9319725619094
 30
0.0
 10
181.1217974888829
 20
13.89738195206386
 30
0.0
 10
181.1203659301329
 20
13.86050408220767
 30
0.0
 10
181.153280419219
 20
13.76846841021806
 30
0.0
 10
180.9551306988107
 20
13.84132015974831
 30
0.0
 10
180.8300548294891
 20
13.81825726508605
 30
0.0
 10
180.6673071295155
 20
13.82454021985784
 30
0.0
 10
180.5129366450001
 20
13.82260943909925
 30
0.0
 10
180.3566670436943
 20
13.82393762599266
 30
0.0
 10
180.1970544465282
 20
13.82059872487861
 30
0.0
 10
180.0540326342236
 20
13.8326579572824
 30
0.0
 10
179.8197144881628
 20
13.76952001976917
 30
0.0
 10
179.9173810751197
 20
14.05620527466317
 30
0.0
 10
179.9006868780058
 20
14.2498830814266
 30
0.0
 10
179.9146296709685
 20
14.47848242880295
 30
0.0
 10
179.9142987846631
 20
14.63384593955048
 30
0.0
 10
179.9143078119264
 20
14.73966336444127
 30
0.0
 10
179.9143055876316
 20
14.80205784124215
 30
0.0
 10
179.9143065551889
 20
14.89220425248327
 30
0.0
 10
179.9143065473262
 20
14.99621167157438
 30
0.0
 10
179.9143053861102
 20
15.10022131375296
 30
0.0
 10
179.9143090971502
 20
15.19036243688768
 30
0.0
 10
179.9143011051052
 20
15.25276803097215
 30
0.0
 10
179.9143334275018
 20
15.35868835961119
 30
0.0
 10
179.9131440788319
 20
15.51626716544739
 30
0.0
 10
179.9082216489256
 20
15.66528219822065
 30
0.0
 10
179.9057788376618
 20
15.73923260398189
 30
0.0
 11
179.9057788376618
 21
15.73923260398189
 31
0.0
 11
179.896691822374
 21
15.95938578101017
 31
0.0
 11
179.8868249573133
 21
16.17960510387178
 31
0.0
 11
180.04115751414
 21
16.17312391463728
 31
0.0
 11
180.1946500189046
 21
16.16754892331923
 31
0.0
 11
180.3481160653366
 21
16.1636716750563
 31
0.0
 11
180.5025544554939
 21
16.16238072887606
 31
0.0
 11
180.6564835227473
 21
16.1636716750563
 31
0.0
 11
180.80873910046
 21
16.16754892331923
 31
0.0
 11
180.9609113551074
 21
16.17312391463728
 31
0.0
 11
181.1148364762483
 21
16.17960510387178
 31
0.0
 11
181.1070811703123
 21
16.12794961777357
 31
0.0
 11
181.1044991623591
 21
16.07642642334204
 31
0.0
 11
181.1070811703123
 21
16.0247566056466
 31
0.0
 11
181.1148364762483
 21
15.97315954836785
 31
0.0
 11
181.0094874054411
 21
15.98001446156058
 31
0.0
 11
180.913637570006
 21
15.98693552058657
 31
0.0
 11
180.8198593171903
 21
15.99378381919598
 31
0.0
 11
180.7209679915881
 21
16.0006321178054
 31
0.0
 11
180.6147532199924
 21
16.00710999974824
 31
0.0
 11
180.4991060528038
 21
16.01268829835794
 31
0.0
 11
180.3666126447258
 21
16.01656554662088
 31
0.0
 11
180.2101546018423
 21
16.01785649280112
 31
0.0
 11
180.2062663293721
 21
15.91037061609187
 31
0.0
 11
180.20153800484
 21
15.80805072896465
 31
0.0
 11
180.1976607566749
 21
15.70138175329687
 31
0.0
 11
180.1963698105272
 21
15.58102059013251
 31
0.0
 11
180.1967799146836
 21
15.44856355891566
 31
0.0
 11
180.1980896021502
 21
15.31953288186455
 31
0.0
 11
180.1994074577049
 21
15.20777398432309
 31
0.0
 11
180.199819115366
 21
15.12695149302385
 31
0.0
 11
180.3434452935874
 21
15.1278025694125
 31
0.0
 11
180.4716343930758
 21
15.13039989580076
 31
0.0
 11
180.5868078221795
 21
15.13425509545254
 31
0.0
 11
180.691775631222
 21
15.13901649302076
 31
0.0
 11
180.7876346289421
 21
15.14418027774175
 31
0.0
 11
180.8757413374193
 21
15.14934406246266
 31
0.0
 11
180.9578881438496
 21
15.15491243919739
 31
0.0
 11
181.0357692335571
 21
15.16132086801525
 31
0.0
 11
181.0280180445186
 21
15.10884407115337
 31
0.0
 11
181.0254328449317
 21
15.05469378470858
 31
0.0
 11
181.0280180445186
 21
15.00310444444366
 31
0.0
 11
181.0357692335571
 21
14.95151510417881
 31
0.0
 11
180.9389813454014
 21
14.96092324653757
 31
0.0
 11
180.8275950722015
 21
14.96865128473013
 31
0.0
 11
180.7089261429373
 21
14.97425273438146
 31
0.0
 11
180.5903167449213
 21
14.9772678819501
 31
0.0
 11
180.4750025117521
 21
14.97898767361638
 31
0.0
 11
180.36672619507
 21
14.98070746528256
 31
0.0
 11
180.2724839317708
 21
14.98202486979617
 31
0.0
 11
180.199819115366
 21
14.9824360763933
 31
0.0
 11
180.199407457705
 21
14.95019108508191
 31
0.0
 11
180.1980896021502
 21
14.91542593752118
 31
0.0
 11
180.1967799146836
 21
14.87450702260084
 31
0.0
 11
180.1963698105272
 21
14.8242152430995
 31
0.0
 11
180.1963698105272
 21
14.80326217235821
 31
0.0
 11
180.1963698105272
 21
14.75716541672736
 31
0.0
 11
180.1963698105272
 21
14.71106866109651
 31
0.0
 11
180.1963698105272
 21
14.69011559035522
 31
0.0
 11
180.1963698105272
 21
14.66864525258281
 31
0.0
 11
180.1963698105272
 21
14.61744675481783
 31
0.0
 11
180.1963698105272
 21
14.55633887038867
 31
0.0
 11
180.1963698105272
 21
14.5051403726237
 31
0.0
 11
180.1963698105272
 21
14.48367003485129
 31
0.0
 11
180.1967799146836
 21
14.30481721371548
 31
0.0
 11
180.1980896021502
 21
14.16026100715442
 31
0.0
 11
180.2002868589709
 21
14.04850210961288
 31
0.0
 11
180.2032586986985
 21
13.96767961831364
 31
0.0
 11
180.3202092517447
 21
13.96767961831364
 31
0.0
 11
180.4440727208746
 21
13.96767961831364
 31
0.0
 11
180.5734925526422
 21
13.9689705644939
 31
0.0
 11
180.7003922282244
 21
13.97284781275681
 31
0.0
 11
180.8224658067973
 21
13.97886708358864
 31
0.0
 11
180.9377587499463
 21
13.98663260442001
 31
0.0
 11
181.0421754573518
 21
13.99734161483402
 31
0.0
 11
181.1320599255448
 21
14.01237656274691
 31
0.0
 11
181.1264254031191
 21
13.98698427976716
 31
0.0
 11
181.1234433285423
 21
13.95907184053803
 31
0.0
 11
181.12213398812
 21
13.93112191867003
 31
0.0
 11
181.1217235369195
 21
13.90575829888473
 31
0.0
 11
181.1243087365064
 21
13.85584355063326
 31
0.0
 11
181.1320599255448
 21
13.81626739612926
 31
0.0
 11
180.9776977178344
 21
13.82145433189185
 31
0.0
 11
180.8242357818765
 21
13.82315538223861
 31
0.0
 11
180.6697789496483
 21
13.82315538223861
 31
0.0
 11
180.5128026496768
 21
13.82315538223861
 31
0.0
 11
180.3554704921536
 21
13.82315538223861
 31
0.0
 11
180.199819115366
 21
13.82315538223861
 31
0.0
 11
180.0441620874241
 21
13.82145433189185
 31
0.0
 11
179.8868249573133
 21
13.81626739612926
 31
0.0
 11
179.896691822374
 21
14.0360126738521
 31
0.0
 11
179.9057788376618
 21
14.2549112849085
 31
0.0
 11
179.91217215184
 21
14.47550763902002
 31
0.0
 11
179.9143063455009
 21
14.70036378479716
 31
0.0
 11
179.9143063455009
 21
14.72578824496875
 31
0.0
 11
179.9143063455009
 21
14.79281636723932
 31
0.0
 11
179.9143063455009
 21
14.88758026424254
 31
0.0
 11
179.9143063455009
 21
14.99621204861208
 31
0.0
 11
179.9143063455009
 21
15.10484383298162
 31
0.0
 11
179.9143063455009
 21
15.19960772998484
 31
0.0
 11
179.9143063455009
 21
15.2666358522554
 31
0.0
 11
179.9143063455009
 21
15.292060312427
 31
0.0
 11
179.91217215184
 21
15.51735963528735
 31
0.0
 11
179.9057788376618
 21
15.73923260398189
 31
0.0
  0
SPLINE
  5
100
102
{ACAD_REACTORS
330
11D
102
}
330
4D
100
AcDbEntity
  8
_U_30EC_U_30A4_U_30E4_U_30FC_1
  6
Continuous
 62
     2
100
AcDbSpline
210
0.0
220
0.0
230
1.0
 70
    11
 71
     3
 72
    47
 73
    43
 74
    41
 42
0.000000001
 43
0.0000000001
 44
0.00000001
 40
0.0
 40
0.0
 40
0.0
 40
0.0
 40
0.220791280995723
 40
0.4459404186302935
 40
0.490238719045914
 40
0.5327473892722107
 40
0.5742260451225422
 40
0.6155432630560717
 40
0.6568164066315637
 40
0.6982511618780551
 40
0.7407663929317074
 40
0.7851366743175124
 40
1.010288833836299
 40
1.231080507002151
 40
1.451765243652376
 40
1.676638205891676
 40
1.720461045359647
 40
1.830018144043505
 40
1.972442372353132
 40
2.114866600677498
 40
2.224423699395116
 40
2.268246538883357
 40
2.493628801207193
 40
2.715602830286597
 40
2.934211330706355
 40
3.149502369855353
 40
3.231387784850999
 40
3.318231873854034
 40
3.405143198198022
 40
3.486970301720459
 40
3.702258172493906
 40
3.920866283534141
 40
4.142839325931935
 40
4.368221903865402
 40
4.412044743359882
 40
4.521601842095892
 40
4.664026070452367
 40
4.806450298809073
 40
4.91600739754676
 40
4.959830237043082
 40
5.184703515847129
 40
5.405387250767501
 40
5.405387250767501
 40
5.405387250767501
 40
5.405387250767501
 10
182.6507427258645
 20
15.73406440953872
 30
0.0
 10
182.6568139420002
 20
15.7975848250121
 30
0.0
 10
182.6690762107241
 20
15.92587938689626
 30
0.0
 10
182.5604706879413
 20
16.20166220174074
 30
0.0
 10
182.6761985896603
 20
16.17188133432053
 30
0.0
 10
182.7171842509016
 20
16.16765556262818
 30
0.0
 10
182.7591205797518
 20
16.16310446389607
 30
0.0
 10
182.800419662571
 20
16.16201982929483
 30
0.0
 10
182.8417032115555
 20
16.16310338195227
 30
0.0
 10
182.8836148270647
 20
16.16766112711342
 30
0.0
 10
182.9245983549019
 20
16.17187430209728
 30
0.0
 10
183.0404922843489
 20
16.20177611317531
 30
0.0
 10
182.9295652727456
 20
15.92339806609889
 30
0.0
 10
182.9574856365267
 20
15.74283140824953
 30
0.0
 10
182.9404267346969
 20
15.50961042346471
 30
0.0
 10
182.9414637282102
 20
15.34906622543144
 30
0.0
 10
182.9414099399404
 20
15.22284817558721
 30
0.0
 10
182.941427737248
 20
15.1242896333624
 30
0.0
 10
182.941418858108
 20
14.99280702442962
 30
0.0
 10
182.9414263928034
 20
14.8613284496865
 30
0.0
 10
182.9414129405128
 20
14.76276222694091
 30
0.0
 10
182.9414531717492
 20
14.63639735624152
 30
0.0
 10
182.9406746403817
 20
14.47482068822871
 30
0.0
 10
182.9565958319266
 20
14.24361821892914
 30
0.0
 10
182.9333468885408
 20
14.05874351972002
 30
0.0
 10
183.0360183444365
 20
13.78935602770053
 30
0.0
 10
182.8820238362836
 20
13.82660112685817
 30
0.0
 10
182.8004129802832
 20
13.82137994680532
 30
0.0
 10
182.7188192292583
 20
13.82660620378351
 30
0.0
 10
182.5648513666842
 20
13.78937069885384
 30
0.0
 10
182.6674183421917
 20
14.0587512986288
 30
0.0
 10
182.6442045316088
 20
14.24361585325414
 30
0.0
 10
182.6600444655138
 20
14.47482218565639
 30
0.0
 10
182.6593296313427
 20
14.63639712308504
 30
0.0
 10
182.6593664569907
 20
14.76276231210521
 30
0.0
 10
182.659354900027
 20
14.86132756635982
 30
0.0
 10
182.6593575019214
 20
14.9928112741722
 30
0.0
 10
182.6593648531779
 20
15.12427548031199
 30
0.0
 10
182.6593442541351
 20
15.22287786275325
 30
0.0
 10
182.6594082192028
 20
15.34896149354426
 30
0.0
 10
182.658173394759
 20
15.51210091383771
 30
0.0
 10
182.6532040396745
 20
15.6605418377755
 30
0.0
 10
182.6507427258645
 20
15.73406440953872
 30
0.0
 11
182.6507427258645
 21
15.73406440953872
 31
0.0
 11
182.6417328200379
 21
15.95467178795577
 31
0.0
 11
182.6318769706146
 21
16.17960510387178
 31
0.0
 11
182.6756985840801
 21
16.17312391463728
 31
0.0
 11
182.7178400934215
 21
16.16754892331923
 31
0.0
 11
182.759137140979
 21
16.1636716750563
 31
0.0
 11
182.8004341885365
 21
16.16238072887606
 31
0.0
 11
182.841687138873
 21
16.1636716750563
 31
0.0
 11
182.8829400892097
 21
16.16754892331923
 31
0.0
 11
182.9250882131343
 21
16.17312391463728
 31
0.0
 11
182.9689825870145
 21
16.17960510387178
 31
0.0
 11
182.9590577693891
 21
15.95467178795577
 31
0.0
 11
182.950038420831
 21
15.73406440953872
 31
0.0
 11
182.9435638463435
 21
15.51347467001055
 31
0.0
 11
182.9414218238286
 21
15.28861190965006
 31
0.0
 11
182.9414218238286
 21
15.24478907015484
 31
0.0
 11
182.9414218238286
 21
15.13523197141681
 31
0.0
 11
182.9414218238286
 21
14.99280774305737
 31
0.0
 11
182.9414218238286
 21
14.85038351469792
 31
0.0
 11
182.9414218238286
 21
14.74082641595989
 31
0.0
 11
182.9414218238286
 21
14.69700357646468
 31
0.0
 11
182.9435638463435
 21
14.47163149318767
 31
0.0
 11
182.950038420831
 21
14.2497519099098
 31
0.0
 11
182.9590577693891
 21
14.03132954885329
 31
0.0
 11
182.9689825870145
 21
13.81626739612926
 31
0.0
 11
182.887261616877
 21
13.82145433189185
 31
0.0
 11
182.8004341885365
 21
13.82315538223861
 31
0.0
 11
182.7135395119339
 21
13.82145433189185
 31
0.0
 11
182.6318769706146
 21
13.81626739612926
 31
0.0
 11
182.6417328200379
 21
14.03132954885329
 31
0.0
 11
182.6507427258645
 21
14.2497519099098
 31
0.0
 11
182.6571833838798
 21
14.47163149318767
 31
0.0
 11
182.6593583588023
 21
14.69700357646468
 31
0.0
 11
182.6593583588023
 21
14.74082641595989
 31
0.0
 11
182.6593583588023
 21
14.85038351469793
 31
0.0
 11
182.6593583588023
 21
14.99280774305737
 31
0.0
 11
182.6593583588023
 21
15.13523197141681
 31
0.0
 11
182.6593583588023
 21
15.24478907015485
 31
0.0
 11
182.6593583588023
 21
15.28861190965006
 31
0.0
 11
182.6571833838798
 21
15.51347467001055
 31
0.0
 11
182.6507427258645
 21
15.73406440953872
 31
0.0
  0
SPLINE
  5
101
102
{ACAD_REACTORS
330
11E
102
}
330
4D
100
AcDbEntity
  8
_U_30EC_U_30A4_U_30E4_U_30FC_1
  6
Continuous
 62
     2
100
AcDbSpline
210
0.0
220
0.0
230
1.0
 70
    11
 71
     3
 72
   118
 73
   114
 74
   112
 42
0.000000001
 43
0.0000000001
 44
0.00000001
 40
0.0
 40
0.0
 40
0.0
 40
0.0
 40
0.105470816297341
 40
0.2466098270051896
 40
0.3965912874591205
 40
0.5285525069753902
 40
0.6156245055642026
 40
0.6431434105797338
 40
0.7036850037986042
 40
0.7642265984504439
 40
0.7917455052354744
 40
0.9287404319989649
 40
1.106572819088009
 40
1.287544879681012
 40
1.317578308030529
 40
1.399928030857168
 40
1.522968204799942
 40
1.675072986590563
 40
1.84461653318064
 40
2.019973001638705
 40
2.189516548880017
 40
2.341621331585356
 40
2.464661506320492
 40
2.547011229647056
 40
2.57704465816802
 40
2.60379789089309
 40
2.662655002908777
 40
2.721512114949589
 40
2.748265347702769
 40
2.774215307344845
 40
2.845959313407175
 40
2.954338556588376
 40
3.090194227585555
 40
3.24436751710052
 40
3.40769961584428
 40
3.571031714539431
 40
3.725205003920107
 40
3.86106067472961
 40
3.969439917716302
 40
4.041183923628977
 40
4.06713388321297
 40
4.311886746012156
 40
4.547897258335523
 40
4.764747083043964
 40
4.952749679951766
 40
5.045772974195889
 40
5.137862019644976
 40
5.330543169793018
 40
5.553448265244007
 40
5.795083855888164
 40
6.043293412177224
 40
6.285761695541166
 40
6.31390290875265
 40
6.384255941793239
 40
6.475714884766828
 40
6.56717382775889
 40
6.637526860839668
 40
6.665668074074032
 40
6.692018920328009
 40
6.749990782071086
 40
6.807962643790462
 40
6.834313490017938
 40
6.856393084245217
 40
6.91333519564984
 40
6.991194817302504
 40
7.076026942283765
 40
7.153886563725256
 40
7.210828674844838
 40
7.232908268931173
 40
7.258199334923694
 40
7.324875781592342
 40
7.419142481924998
 40
7.527204308841937
 40
7.635266135230512
 40
7.729532834168494
 40
7.796209279292817
 40
7.821500344594763
 40
7.844652988850833
 40
7.899863140541612
 40
7.965759128053779
 40
8.020969279771062
 40
8.044121924046529
 40
8.069356610160622
 40
8.109134395441387
 40
8.132238100191099
 40
8.193147867786461
 40
8.279261678876637
 40
8.377977512673851
 40
8.476693347146636
 40
8.562807160411687
 40
8.623716930826474
 40
8.646820636853427
 40
8.67198879377424
 40
8.734909185828151
 40
8.816705695188865
 40
8.898502204815436
 40
8.961422597377897
 40
8.98659075455101
 40
9.01294160073317
 40
9.07091346238026
 40
9.128885324081763
 40
9.155236170325086
 40
9.180404327929129
 40
9.243324721948202
 40
9.325121234211995
 40
9.40691774663765
 40
9.469838141978105
 40
9.49500628827088
 40
9.51781118437902
 40
9.572192090487022
 40
9.63709833328125
 40
9.69147923951545
 40
9.71428412564349
 40
9.71428412564349
 40
9.71428412564349
 40
9.71428412564349
 10
185.2874469028653
 20
15.26889163187718
 30
0.0
 10
185.3090990569037
 20
15.2411186924281
 30
0.0
 10
185.3597257109473
 20
15.17618054561234
 30
0.0
 10
185.4349383202592
 20
15.06891060312898
 30
0.0
 10
185.5248482274346
 20
14.95377438266624
 30
0.0
 10
185.5709169676673
 20
14.85357045748319
 30
0.0
 10
185.6655825294655
 20
14.78434006814943
 30
0.0
 10
185.6204439320412
 20
14.73771639678275
 30
0.0
 10
185.5947047785789
 20
14.6966030886604
 30
0.0
 10
185.5645196708012
 20
14.6606597172794
 30
0.0
 10
185.5193684730561
 20
14.58579782596094
 30
0.0
 10
185.4710504458562
 20
14.80782524253605
 30
0.0
 10
185.3968539713073
 20
14.8451067733771
 30
0.0
 10
185.2836047324606
 20
15.116102021306
 30
0.0
 10
185.288513357817
 20
15.00095328446229
 30
0.0
 10
185.2868486556306
 20
14.92836675781627
 30
0.0
 10
185.2876830076714
 20
14.80625588483986
 30
0.0
 10
185.2873609540264
 20
14.6591380081046
 30
0.0
 10
185.2875076912456
 20
14.49307063956557
 30
0.0
 10
185.2872950092722
 20
14.32187554608602
 30
0.0
 10
185.2879497252034
 20
14.15552828635498
 30
0.0
 10
185.2859192461139
 20
14.00935173055693
 30
0.0
 10
185.291346039993
 20
13.8847104747461
 30
0.0
 10
185.2804930868708
 20
13.81718656540626
 30
0.0
 10
185.2956739155555
 20
13.75549061417022
 30
0.0
 10
185.2457895108133
 20
13.76727503897002
 30
0.0
 10
185.2017150342522
 20
13.75943822779969
 30
0.0
 10
185.15823716302
 20
13.76760441372703
 30
0.0
 10
185.1092346786489
 20
13.75538056738468
 30
0.0
 10
185.1218731234825
 20
13.80960667249313
 30
0.0
 10
185.113018296845
 20
13.86936918907558
 30
0.0
 10
185.1175058770314
 20
13.97922029044371
 30
0.0
 10
185.115796013599
 20
14.11029975405678
 30
0.0
 10
185.1163550915987
 20
14.26198011444329
 30
0.0
 10
185.1161928768693
 20
14.42211074929953
 30
0.0
 10
185.1162269924675
 20
14.58236865674567
 30
0.0
 10
185.1162514960126
 20
14.7337024752044
 30
0.0
 10
185.1161453543226
 20
14.86582156338602
 30
0.0
 10
185.116429914193
 20
14.97294802533193
 30
0.0
 10
185.1158675547568
 20
15.03808619579475
 30
0.0
 10
185.1180765083689
 20
15.16618957858676
 30
0.0
 10
185.0319435998602
 20
14.79097610391577
 30
0.0
 10
184.9555140818499
 20
14.63918193123396
 30
0.0
 10
184.8660040767834
 20
14.47766206446307
 30
0.0
 10
184.7640413217327
 20
14.20471848820173
 30
0.0
 10
184.7187976491038
 20
14.36717346596511
 30
0.0
 10
184.610235594167
 20
14.45605432058121
 30
0.0
 10
184.7995791751752
 20
14.60549794961409
 30
0.0
 10
184.85653405457
 20
14.79749136974925
 30
0.0
 10
184.9717520993352
 20
15.02899622906756
 30
0.0
 10
184.9940151630132
 20
15.21797259759063
 30
0.0
 10
185.1771905152139
 20
15.49454089325928
 30
0.0
 10
185.0538033597552
 20
15.48698978832093
 30
0.0
 10
184.9925684166834
 20
15.48856772366118
 30
0.0
 10
184.9081999617064
 20
15.48882592573671
 30
0.0
 10
184.8204235085966
 20
15.48544845751205
 30
0.0
 10
184.7656768696122
 20
15.49394814982019
 30
0.0
 10
184.7104703026025
 20
15.48048561049787
 30
0.0
 10
184.7222823035536
 20
15.52931442126763
 30
0.0
 10
184.7142496151793
 20
15.57269004896708
 30
0.0
 10
184.7228186104678
 20
15.61509438309573
 30
0.0
 10
184.7102943409157
 20
15.66267796552119
 30
0.0
 10
184.7555101538735
 20
15.6526721299511
 30
0.0
 10
184.8014815562724
 20
15.65894105174062
 30
0.0
 10
184.877722204771
 20
15.65593561405873
 30
0.0
 10
184.9561296131993
 20
15.65770448278542
 30
0.0
 10
185.0323992648932
 20
15.65464793981661
 30
0.0
 10
185.0783009459475
 20
15.66103971376178
 30
0.0
 10
185.12317339654
 20
15.65093822978897
 30
0.0
 10
185.1105552275634
 20
15.701572015819
 30
0.0
 10
185.1191936582707
 20
15.7550126188207
 30
0.0
 10
185.1152361595443
 20
15.84863255131681
 30
0.0
 10
185.1162325068335
 20
15.95112606688924
 30
0.0
 10
185.1171927413073
 20
16.05353270248163
 30
0.0
 10
185.1133211458005
 20
16.14735929609321
 30
0.0
 10
185.1217789814364
 20
16.20036542840353
 30
0.0
 10
185.1093075932835
 20
16.25211435651188
 30
0.0
 10
185.1542106389849
 20
16.23850747226757
 30
0.0
 10
185.1955083836772
 20
16.24100480320585
 30
0.0
 10
185.259534428105
 20
16.23648060574487
 30
0.0
 10
185.2986111148787
 20
16.22781003043309
 30
0.0
 10
185.3476543498742
 20
16.23515102070686
 30
0.0
 10
185.3225080030591
 20
16.19602896051758
 30
0.0
 10
185.2815901333722
 20
16.20563842455808
 30
0.0
 10
185.2910109616605
 20
16.15540148169779
 30
0.0
 10
185.2855647318746
 20
16.10385945639491
 30
0.0
 10
185.2881699601804
 20
16.01959707584522
 30
0.0
 10
185.2870102202154
 20
15.92559135583409
 30
0.0
 10
185.2883591064231
 20
15.83196865395527
 30
0.0
 10
185.2849970101509
 20
15.74679517552224
 30
0.0
 10
185.2920959917769
 20
15.69716856072045
 30
0.0
 10
185.2812569154545
 20
15.6499369496999
 30
0.0
 10
185.3304010225245
 20
15.66201674936852
 30
0.0
 10
185.3794877630146
 20
15.65447393363012
 30
0.0
 10
185.4573714280641
 20
15.65686070361433
 30
0.0
 10
185.5350365172896
 20
15.65899381905415
 30
0.0
 10
185.5845393931355
 20
15.65193391922456
 30
0.0
 10
185.6344594750639
 20
15.66360151936215
 30
0.0
 10
185.6223198516881
 20
15.61540235371393
 30
0.0
 10
185.6305838229144
 20
15.57249219801235
 30
0.0
 10
185.6223198650783
 20
15.52958201851384
 30
0.0
 10
185.6344594549854
 20
15.48138288754864
 30
0.0
 10
185.5845395158746
 20
15.49305034471509
 30
0.0
 10
185.5350350651202
 20
15.48599202435044
 30
0.0
 10
185.4573784382973
 20
15.48811665228602
 30
0.0
 10
185.379464386576
 20
15.49053389365759
 30
0.0
 10
185.3304500352716
 20
15.48291848194484
 30
0.0
 10
185.2813246108943
 20
15.49507952557592
 30
0.0
 10
185.2915559988571
 20
15.45073013424156
 30
0.0
 10
185.2856677678053
 20
15.4092543620291
 30
0.0
 10
185.2878788305568
 20
15.34915394315302
 30
0.0
 10
185.2874109346146
 20
15.30225782762887
 30
0.0
 10
185.2874386992913
 20
15.27650146418195
 30
0.0
 10
185.2874469028653
 20
15.26889163187718
 30
0.0
 11
185.2874469028653
 21
15.26889163187718
 31
0.0
 11
185.3516977534484
 21
15.18524999634255
 31
0.0
 11
185.4348258835499
 21
15.0711888974822
 31
0.0
 11
185.5216831568896
 21
14.94891767195723
 31
0.0
 11
185.5971214371872
 21
14.84064565642876
 31
0.0
 11
185.6459925881626
 21
14.76858218755791
 31
0.0
 11
185.6296821285093
 21
14.746417821244
 31
0.0
 11
185.5937991172719
 21
14.6976562153534
 31
0.0
 11
185.5579161060346
 21
14.64889460946281
 31
0.0
 11
185.5416056463813
 21
14.6267302431489
 31
0.0
 11
185.4763067109446
 21
14.74716139023814
 31
0.0
 11
185.3848434243234
 21
14.89966983670206
 31
0.0
 11
185.2874469028653
 21
15.05219788193142
 31
0.0
 11
185.2874469028653
 21
15.02216445328253
 31
0.0
 11
185.2874469028653
 21
14.93981472956783
 31
0.0
 11
185.2874469028653
 21
14.81677455413528
 31
0.0
 11
185.2874469028653
 21
14.66466977033283
 31
0.0
 11
185.2874469028653
 21
14.49512622150845
 31
0.0
 11
185.2874469028653
 21
14.31976975101009
 31
0.0
 11
185.2874469028653
 21
14.15022620218571
 31
0.0
 11
185.2874469028653
 21
13.99812141838326
 31
0.0
 11
185.2874469028653
 21
13.87508124295071
 31
0.0
 11
185.2874469028653
 21
13.79273151923601
 31
0.0
 11
185.2874469028653
 21
13.76269809058712
 31
0.0
 11
185.2606936700409
 21
13.76269809058712
 31
0.0
 11
185.2018365578272
 21
13.76269809058712
 31
0.0
 11
185.1429794456134
 21
13.76269809058712
 31
0.0
 11
185.116226212789
 21
13.76269809058712
 31
0.0
 11
185.116226212789
 21
13.7886480503125
 31
0.0
 11
185.116226212789
 21
13.86039205661208
 31
0.0
 11
185.116226212789
 21
13.96877130017102
 31
0.0
 11
185.116226212789
 21
14.10462697167448
 31
0.0
 11
185.116226212789
 21
14.25880026180761
 31
0.0
 11
185.116226212789
 21
14.42213236125559
 31
0.0
 11
185.116226212789
 21
14.58546446070357
 31
0.0
 11
185.116226212789
 21
14.7396377508367
 31
0.0
 11
185.116226212789
 21
14.87549342234016
 31
0.0
 11
185.116226212789
 21
14.9838726658991
 31
0.0
 11
185.116226212789
 21
15.05561667219868
 31
0.0
 11
185.116226212789
 21
15.08156663192406
 31
0.0
 11
185.0379865861721
 21
14.84965603302373
 31
0.0
 11
184.9497110789303
 21
14.63077616328679
 31
0.0
 11
184.8544106930045
 21
14.43598991333548
 31
0.0
 11
184.7550964303356
 21
14.27636017379203
 31
0.0
 11
184.7109198342406
 21
14.358224461966
 31
0.0
 11
184.658805738348
 21
14.43414885430812
 31
0.0
 11
184.7627302590299
 21
14.59640087926757
 31
0.0
 11
184.8629319864735
 21
14.7955146542178
 31
0.0
 11
184.9550446607901
 21
15.01890447916196
 31
0.0
 11
185.0347020220912
 21
15.25398465410319
 31
0.0
 11
185.097537810488
 21
15.48816947904464
 31
0.0
 11
185.0693965972142
 21
15.48816947904464
 31
0.0
 11
184.9990435640297
 21
15.48816947904464
 31
0.0
 11
184.9075846208898
 21
15.48816947904464
 31
0.0
 11
184.8161256777499
 21
15.48816947904464
 31
0.0
 11
184.7457726445654
 21
15.48816947904464
 31
0.0
 11
184.7176314312916
 21
15.48816947904464
 31
0.0
 11
184.7176314312916
 21
15.51452032539222
 31
0.0
 11
184.7176314312916
 21
15.57249218735689
 31
0.0
 11
184.7176314312916
 21
15.63046404932155
 31
0.0
 11
184.7176314312916
 21
15.65681489566913
 31
0.0
 11
184.739711025602
 21
15.65681489566913
 31
0.0
 11
184.7966531372444
 21
15.65681489566913
 31
0.0
 11
184.8745127592862
 21
15.65681489566913
 31
0.0
 11
184.9593448847944
 21
15.65681489566913
 31
0.0
 11
185.0372045068361
 21
15.65681489566913
 31
0.0
 11
185.0941466184786
 21
15.65681489566913
 31
0.0
 11
185.116226212789
 21
15.65681489566913
 31
0.0
 11
185.116226212789
 21
15.68210596174354
 31
0.0
 11
185.116226212789
 21
15.74878240866698
 31
0.0
 11
185.116226212789
 21
15.84304910948977
 31
0.0
 11
185.116226212789
 21
15.95111093726225
 31
0.0
 11
185.116226212789
 21
16.05917276503472
 31
0.0
 11
185.116226212789
 21
16.15343946585751
 31
0.0
 11
185.116226212789
 21
16.22011591278095
 31
0.0
 11
185.116226212789
 21
16.24540697885536
 31
0.0
 11
185.1393181988665
 21
16.243732131078
 31
0.0
 11
185.1943837041284
 21
16.23973826330122
 31
0.0
 11
185.2601070491184
 21
16.23497138885796
 31
0.0
 11
185.3151725543802
 21
16.23097752108117
 31
0.0
 11
185.3382645404578
 21
16.22930267330381
 31
0.0
 11
185.3249012644362
 21
16.20789677921191
 31
0.0
 11
185.2874469028653
 21
16.1945011455347
 31
0.0
 11
185.2874469028653
 21
16.17139743948579
 31
0.0
 11
185.2874469028653
 21
16.11048766899321
 31
0.0
 11
185.2874469028653
 21
16.02437385553817
 31
0.0
 11
185.2874469028653
 21
15.92565802060192
 31
0.0
 11
185.2874469028653
 21
15.82694218566566
 31
0.0
 11
185.2874469028653
 21
15.74082837221063
 31
0.0
 11
185.2874469028653
 21
15.67991860171804
 31
0.0
 11
185.2874469028653
 21
15.65681489566913
 31
0.0
 11
185.3126150604809
 21
15.65681489566913
 31
0.0
 11
185.3755354545199
 21
15.65681489566913
 31
0.0
 11
185.4573319667706
 21
15.65681489566913
 31
0.0
 11
185.5391284790212
 21
15.65681489566913
 31
0.0
 11
185.6020488730602
 21
15.65681489566913
 31
0.0
 11
185.6272170306758
 21
15.65681489566913
 31
0.0
 11
185.6272170306758
 21
15.63046404932155
 31
0.0
 11
185.6272170306758
 21
15.57249218735689
 31
0.0
 11
185.6272170306758
 21
15.51452032539222
 31
0.0
 11
185.6272170306758
 21
15.48816947904464
 31
0.0
 11
185.6020488730602
 21
15.48816947904464
 31
0.0
 11
185.5391284790212
 21
15.48816947904464
 31
0.0
 11
185.4573319667705
 21
15.48816947904464
 31
0.0
 11
185.3755354545199
 21
15.48816947904464
 31
0.0
 11
185.3126150604809
 21
15.48816947904464
 31
0.0
 11
185.2874469028653
 21
15.48816947904464
 31
0.0
 11
185.2874469028653
 21
15.46536458293923
 31
0.0
 11
185.2874469028653
 21
15.41098367684169
 31
0.0
 11
185.2874469028653
 21
15.34607743408013
 31
0.0
 11
185.2874469028653
 21
15.2916965279826
 31
0.0
 11
185.2874469028653
 21
15.26889163187718
 31
0.0
  0
SPLINE
  5
102
102
{ACAD_REACTORS
330
11F
102
}
330
4D
100
AcDbEntity
  8
_U_30EC_U_30A4_U_30E4_U_30FC_1
  6
Continuous
 62
     2
100
AcDbSpline
210
0.0
220
0.0
230
1.0
 70
    11
 71
     3
 72
    91
 73
    87
 74
    85
 42
0.000000001
 43
0.0000000001
 44
0.00000001
 40
0.0
 40
0.0
 40
0.0
 40
0.0
 40
0.0345987051695718
 40
0.1258134969461369
 40
0.2547723404888987
 40
0.4026032099154125
 40
0.5504340793416704
 40
0.679392922883608
 40
0.7706077146571035
 40
0.8052064287780925
 40
1.124852390615276
 40
1.427402236308867
 40
1.706356627453505
 40
1.955541417875188
 40
2.169485938566333
 40
2.344350786664787
 40
2.480568411561936
 40
2.590440557428958
 40
2.649189927151112
 40
2.749320643306318
 40
2.912632739880026
 40
3.147745656000228
 40
3.244827496385128
 40
3.338490056946713
 40
3.583815413207142
 40
3.761423943238509
 40
3.886956104362676
 40
3.985855451886839
 40
4.091766255337725
 40
4.250186473811918
 40
4.422734315084564
 40
4.628285684838661
 40
4.872093227758495
 40
5.152549652145606
 40
5.464967135837586
 40
5.803201477852499
 40
6.160362988813969
 40
6.193449448276024
 40
6.284170385501678
 40
6.419718138764548
 40
6.587285046385798
 40
6.774063446723712
 40
6.967245678113695
 40
7.154024078817681
 40
7.321590987026067
 40
7.457138740890425
 40
7.547859678556161
 40
7.580946138182721
 40
7.608533084714775
 40
7.669224367077758
 40
7.729915649429984
 40
7.757502595950037
 40
7.79027806255349
 40
7.880146277430988
 40
8.014419963180451
 40
8.180411842397952
 40
8.36543463767942
 40
8.556801071622722
 40
8.741823866830835
 40
8.907815745916345
 40
9.042089431507499
 40
9.131957646249624
 40
9.164733112797201
 40
9.41542506314012
 40
9.667986180958597
 40
9.694169807462764
 40
9.756607686047722
 40
9.831130315322529
 40
9.893568193899993
 40
9.91975182039881
 40
9.950967964690633
 40
9.996421631210744
 40
10.22087981037463
 40
10.44341866197552
 40
10.47847970788864
 40
10.57091337438765
 40
10.70159545461239
 40
10.8514017417037
 40
11.00120802880487
 40
11.13189010907393
 40
11.2243237758302
 40
11.25938480938967
 40
11.28697175596155
 40
11.3476630383593
 40
11.40835432042081
 40
11.43594125892116
 40
11.43594125892116
 40
11.43594125892116
 40
11.43594125892116
 10
190.0818114333289
 20
15.55242795125076
 30
0.0
 10
190.0702785844941
 20
15.55242790287914
 30
0.0
 10
190.0283409444998
 20
15.55242773704163
 30
0.0
 10
189.9434129719026
 20
15.55243125800908
 30
0.0
 10
189.8207688553128
 20
15.55240926435877
 30
0.0
 10
189.6791206916993
 20
15.55250801177053
 30
0.0
 10
189.537975369849
 20
15.5521468623242
 30
0.0
 10
189.4141351317905
 20
15.55321883609088
 30
0.0
 10
189.3317217825381
 20
15.55092249091267
 30
0.0
 10
189.1727791229693
 20
15.56048569373419
 30
0.0
 10
189.3503402353375
 20
15.1978539431137
 30
0.0
 10
189.3379739205452
 20
14.95243127723113
 30
0.0
 10
189.4064519473865
 20
14.66862501324835
 30
0.0
 10
189.469302432097
 20
14.43250999939034
 30
0.0
 10
189.5452253431729
 20
14.2332674039613
 30
0.0
 10
189.6303189577015
 20
14.07745347451373
 30
0.0
 10
189.7244607592936
 20
13.97657857781393
 30
0.0
 10
189.8282648207728
 20
13.92465852638965
 30
0.0
 10
189.9125872030773
 20
13.97606484379617
 30
0.0
 10
189.9351322179452
 20
14.09144544037518
 30
0.0
 10
189.9745730975371
 20
14.2188514970238
 30
0.0
 10
189.9202919734942
 20
14.53622328086758
 30
0.0
 10
190.0451218072473
 20
14.38982180140905
 30
0.0
 10
190.2019291513602
 20
14.35795300331173
 30
0.0
 10
190.0947720007057
 20
14.12421357767629
 30
0.0
 10
190.0808711209866
 20
13.95972776583656
 30
0.0
 10
190.0234709467226
 20
13.83130869122484
 30
0.0
 10
189.9335020145007
 20
13.76018802352825
 30
0.0
 10
189.8095274657878
 20
13.74432324142253
 30
0.0
 10
189.663427319686
 20
13.7799379755417
 30
0.0
 10
189.5243894320284
 20
13.90000570500277
 30
0.0
 10
189.4102003962144
 20
14.07435682550319
 30
0.0
 10
189.3146141301485
 20
14.29946603111241
 30
0.0
 10
189.2318652572626
 20
14.56388246006442
 30
0.0
 10
189.1807179256411
 20
14.88187933098543
 30
0.0
 10
189.0770189207337
 20
15.15543728488911
 30
0.0
 10
189.2042841208522
 20
15.56005818612866
 30
0.0
 10
189.0357890623018
 20
15.55112367849677
 30
0.0
 10
188.9511995787077
 20
15.55315961418362
 30
0.0
 10
188.8189876387627
 20
15.55213937388405
 30
0.0
 10
188.6560505094104
 20
15.55253230318428
 30
0.0
 10
188.4733759170532
 20
15.55235696313367
 30
0.0
 10
188.2847057373383
 20
15.55260105307467
 30
0.0
 10
188.1014469020189
 20
15.55185657906235
 30
0.0
 10
187.9404746832718
 20
15.55416360522424
 30
0.0
 10
187.8029808335276
 20
15.54799804883661
 30
0.0
 10
187.728959037231
 20
15.5603283845821
 30
0.0
 10
187.6613215186856
 20
15.54329323723555
 30
0.0
 10
187.673237371927
 20
15.59524438447527
 30
0.0
 10
187.6655677285694
 20
15.64071424966528
 30
0.0
 10
187.6732592225115
 20
15.68614453703705
 30
0.0
 10
187.6613141797761
 20
15.7380239598457
 30
0.0
 10
187.7283588305867
 20
15.72119143490264
 30
0.0
 10
187.8017375665677
 20
15.73335409092671
 30
0.0
 10
187.9379128305271
 20
15.72727231074958
 30
0.0
 10
188.0973811801513
 20
15.72954834315058
 30
0.0
 10
188.2789173085836
 20
15.72881233998961
 30
0.0
 10
188.4658034862179
 20
15.72905954196134
 30
0.0
 10
188.6468012316836
 20
15.72886400799253
 30
0.0
 10
188.8080802578878
 20
15.72932234714839
 30
0.0
 10
188.9393882124887
 20
15.72812673751206
 30
0.0
 10
189.0225051322596
 20
15.73051347319743
 30
0.0
 10
189.1556236547814
 20
15.72230605725463
 30
0.0
 10
189.0645893502658
 20
15.97752868952655
 30
0.0
 10
188.9789633074419
 20
16.24164358328248
 30
0.0
 10
189.0990589003455
 20
16.22904442969165
 30
0.0
 10
189.1514264948544
 20
16.22694235763077
 30
0.0
 10
189.2214497569715
 20
16.22535399889657
 30
0.0
 10
189.2671922337817
 20
16.21602567538113
 30
0.0
 10
189.3220812646933
 20
16.22545966915427
 30
0.0
 10
189.2963574785681
 20
16.17733028655174
 30
0.0
 10
189.1825397571452
 20
16.18266829744168
 30
0.0
 10
189.3159346621136
 20
15.95449174576777
 30
0.0
 10
189.1943658735471
 20
15.72156856595923
 30
0.0
 10
189.3223188769413
 20
15.73087258884438
 30
0.0
 10
189.4049048406461
 20
15.7280100175468
 30
0.0
 10
189.5307214850824
 20
15.72923437412302
 30
0.0
 10
189.6741469838057
 20
15.72932431888965
 30
0.0
 10
189.8157420951728
 20
15.72746163183853
 30
0.0
 10
189.9459127249967
 20
15.73333075937163
 30
0.0
 10
190.0193452286191
 20
15.72070340823203
 30
0.0
 10
190.0891112922096
 20
15.73877563110412
 30
0.0
 10
190.0775772605396
 20
15.68612850546326
 30
0.0
 10
190.0833184346682
 20
15.64221317686546
 30
0.0
 10
190.0816615770911
 20
15.59089982676548
 30
0.0
 10
190.081775756167
 20
15.56158792021633
 30
0.0
 10
190.0818114333289
 20
15.55242795125076
 30
0.0
 11
190.0818114333289
 21
15.55242795125076
 31
0.0
 11
190.0472127192051
 21
15.55242795125076
 31
0.0
 11
189.9559979274241
 21
15.55242795125076
 31
0.0
 11
189.8270390838717
 21
15.55242795125076
 31
0.0
 11
189.6792082144335
 21
15.55242795125076
 31
0.0
 11
189.5313773449954
 21
15.55242795125076
 31
0.0
 11
189.402418501443
 21
15.55242795125076
 31
0.0
 11
189.311203709662
 21
15.55242795125076
 31
0.0
 11
189.2766049955382
 21
15.55242795125076
 31
0.0
 11
189.3083140497693
 21
15.2343586493012
 31
0.0
 11
189.3527866656865
 21
14.9350952278808
 31
0.0
 11
189.4092389118319
 21
14.66191269512576
 31
0.0
 11
189.4768868567478
 21
14.42208605917227
 31
0.0
 11
189.5549465689761
 21
14.22289032815654
 31
0.0
 11
189.6426341170591
 21
14.07160051021477
 31
0.0
 11
189.7391655695388
 21
13.97549161348317
 31
0.0
 11
189.8437569949575
 21
13.94183864609792
 31
0.0
 11
189.8943077302786
 21
13.97177376978835
 31
0.0
 11
189.9310588991551
 21
14.06491619815048
 31
0.0
 11
189.9562640977528
 21
14.22627151712055
 31
0.0
 11
189.9721769222368
 21
14.46084531263483
 31
0.0
 11
190.0494082682583
 21
14.40202182306618
 31
0.0
 11
190.1327184184385
 21
14.35921885432691
 31
0.0
 11
190.1066365811217
 21
14.11528388661011
 31
0.0
 11
190.0673317805105
 21
13.94207902887562
 31
0.0
 11
190.0105702596765
 21
13.83011272445917
 31
0.0
 11
189.932118261691
 21
13.76989341669645
 31
0.0
 11
189.8277420296256
 21
13.75192954892316
 31
0.0
 11
189.6738595065097
 21
13.7895744001236
 31
0.0
 11
189.5388902376747
 21
13.89707348877402
 31
0.0
 11
189.4221739916163
 21
14.06627361744808
 31
0.0
 11
189.32305053683
 21
14.28902158871943
 31
0.0
 11
189.2408596418113
 21
14.55716420516172
 31
0.0
 11
189.1749410750559
 21
14.8625482693486
 31
0.0
 11
189.1246346050593
 21
15.19702058385373
 31
0.0
 11
189.0892800003171
 21
15.55242795125076
 31
0.0
 11
189.0561935405844
 21
15.55242795125076
 31
0.0
 11
188.9654726026075
 21
15.55242795125076
 31
0.0
 11
188.8299248482185
 21
15.55242795125076
 31
0.0
 11
188.6623579392495
 21
15.55242795125076
 31
0.0
 11
188.4755795375324
 21
15.55242795125076
 31
0.0
 11
188.2823973048992
 21
15.55242795125076
 31
0.0
 11
188.0956189031822
 21
15.55242795125076
 31
0.0
 11
187.9280519942131
 21
15.55242795125076
 31
0.0
 11
187.7925042398241
 21
15.55242795125076
 31
0.0
 11
187.7017833018473
 21
15.55242795125076
 31
0.0
 11
187.6686968421145
 21
15.55242795125076
 31
0.0
 11
187.6686968421145
 21
15.58001489785845
 31
0.0
 11
187.6686968421145
 21
15.64070618039537
 31
0.0
 11
187.6686968421145
 21
15.70139746293229
 31
0.0
 11
187.6686968421145
 21
15.72898440953998
 31
0.0
 11
187.7014723087631
 21
15.72898440953998
 31
0.0
 11
187.7913405237673
 21
15.72898440953998
 31
0.0
 11
187.9256142097148
 21
15.72898440953998
 31
0.0
 11
188.0916060891932
 21
15.72898440953998
 31
0.0
 11
188.2766288847901
 21
15.72898440953998
 31
0.0
 11
188.4679953190932
 21
15.72898440953998
 31
0.0
 11
188.6530181146902
 21
15.72898440953998
 31
0.0
 11
188.8190099941685
 21
15.72898440953998
 31
0.0
 11
188.953283680116
 21
15.72898440953998
 31
0.0
 11
189.0431518951202
 21
15.72898440953998
 31
0.0
 11
189.0759273617688
 21
15.72898440953998
 31
0.0
 11
189.0659183950103
 21
15.97947647544958
 31
0.0
 11
189.0599112510663
 21
16.23196614552532
 31
0.0
 11
189.0860575870659
 21
16.23056921608122
 31
0.0
 11
189.1484065421419
 21
16.22723807663762
 31
0.0
 11
189.2228230369099
 21
16.2232622005275
 31
0.0
 11
189.2851719919859
 21
16.21993106108388
 31
0.0
 11
189.3113183279855
 21
16.21853413163979
 31
0.0
 11
189.298293111304
 21
16.19016528616081
 31
0.0
 11
189.2551649266405
 21
16.17581274276165
 31
0.0
 11
189.2574991961821
 21
15.95136670115108
 31
0.0
 11
189.2658452735903
 21
15.72898440953998
 31
0.0
 11
189.3009063195165
 21
15.72898440953998
 31
0.0
 11
189.3933399860495
 21
15.72898440953998
 31
0.0
 11
189.5240220663201
 21
15.72898440953998
 31
0.0
 11
189.6738283534596
 21
15.72898440953998
 31
0.0
 11
189.8236346405991
 21
15.72898440953998
 31
0.0
 11
189.9543167208697
 21
15.72898440953998
 31
0.0
 11
190.0467503874027
 21
15.72898440953998
 31
0.0
 11
190.0818114333289
 21
15.72898440953998
 31
0.0
 11
190.0818114333289
 21
15.70139746293229
 31
0.0
 11
190.0818114333289
 21
15.64070618039537
 31
0.0
 11
190.0818114333289
 21
15.58001489785845
 31
0.0
 11
190.0818114333289
 21
15.55242795125076
 31
0.0
  0
SPLINE
  5
103
102
{ACAD_REACTORS
330
120
102
}
330
4D
100
AcDbEntity
  8
_U_30EC_U_30A4_U_30E4_U_30FC_1
  6
Continuous
 62
     2
100
AcDbSpline
210
0.0
220
0.0
230
1.0
 70
    11
 71
     3
 72
    75
 73
    71
 74
    69
 42
0.000000001
 43
0.0000000001
 44
0.00000001
 40
0.0
 40
0.0
 40
0.0
 40
0.0
 40
0.0342546099129691
 40
0.1245622414432346
 40
0.2522385480897518
 40
0.398599192294068
 40
0.5449598364980821
 40
0.6726361431438816
 40
0.762943774673696
 40
0.7971983935297973
 40
1.101723623449659
 40
1.408591244036667
 40
1.433332471690377
 40
1.487763172450184
 40
1.542193873082024
 40
1.566935100592579
 40
1.923523931821888
 40
2.271755704953686
 40
2.590579755100928
 40
2.858943305581185
 40
2.889120339309206
 40
2.918305855191158
 40
2.941366645531279
 40
2.99635776097317
 40
3.061992318140713
 40
3.116983433626907
 40
3.140044223997584
 40
3.411273122936508
 40
3.732441619741173
 40
3.761068217532871
 40
3.837787499630433
 40
3.948858699126073
 40
4.080541049104449
 40
4.219093782625832
 40
4.350776132722382
 40
4.461847332405718
 40
4.538566614678448
 40
4.567193212544696
 40
4.594907573998954
 40
4.666381453557493
 40
4.764111044011104
 40
4.870592538125907
 40
4.968322128642358
 40
5.039796008287043
 40
5.067510369784502
 40
5.094263603185714
 40
5.153120716668347
 40
5.21197783015079
 40
5.238731063551795
 40
5.272290535139033
 40
5.363380529444894
 40
5.497618415781572
 40
5.660621563453814
 40
5.838007341749515
 40
6.015393119910867
 40
6.178396267038492
 40
6.312634151842444
 40
6.403724143059433
 40
6.437283612672529
 40
6.464036846261145
 40
6.522893960004758
 40
6.581751071484018
 40
6.608504301590964
 40
6.637253941281111
 40
6.711397748902963
 40
6.812778057283575
 40
6.923237199249352
 40
7.024617507623995
 40
7.098761315207648
 40
7.127510946007598
 40
7.127510946007598
 40
7.127510946007598
 40
7.127510946007598
 10
188.4418622390564
 20
14.95849128473265
 30
0.0
 10
188.4418622819707
 20
14.9470731340872
 30
0.0
 10
188.4418624481129
 20
14.9055525784263
 30
0.0
 10
188.4418593081786
 20
14.82146922003772
 30
0.0
 10
188.44187882798
 20
14.70004497322329
 30
0.0
 10
188.4417912187737
 20
14.55980494047449
 30
0.0
 10
188.442111623523
 20
14.42006556794577
 30
0.0
 10
188.4411605909741
 20
14.2974503889493
 30
0.0
 10
188.4431978595967
 20
14.21587074438044
 30
0.0
 10
188.4349433178746
 20
14.06271267077699
 30
0.0
 10
188.7430797940902
 20
14.22560236054719
 30
0.0
 10
189.0350645173733
 20
14.39482938688005
 30
0.0
 10
189.0408354448708
 20
14.25973235781912
 30
0.0
 10
189.045547171989
 20
14.21617221160444
 30
0.0
 10
189.0482535411918
 20
14.17211249350544
 30
0.0
 10
189.0672545672959
 20
14.02272590363132
 30
0.0
 10
188.6583942247302
 20
14.08681172241262
 30
0.0
 10
188.3793710348831
 20
13.97296341411017
 30
0.0
 10
188.1018081587167
 20
13.87364095811144
 30
0.0
 10
187.80998371844
 20
13.91630687596355
 30
0.0
 10
187.7869144678658
 20
13.81321679744542
 30
0.0
 10
187.7537474383333
 20
13.78691091244469
 30
0.0
 10
187.7480653962739
 20
13.83455309036304
 30
0.0
 10
187.7284214559044
 20
13.87180336115069
 30
0.0
 10
187.7095089485623
 20
13.93007387847564
 30
0.0
 10
187.6942849867708
 20
13.97385201007804
 30
0.0
 10
187.6477246372934
 20
14.0875942104631
 30
0.0
 10
187.9890897312451
 20
14.05576301120048
 30
0.0
 10
188.2679649367387
 20
14.02161435106481
 30
0.0
 10
188.2617753034907
 20
14.16913976479653
 30
0.0
 10
188.2630935452773
 20
14.24013150908834
 30
0.0
 10
188.2624831689948
 20
14.34719767958662
 30
0.0
 10
188.2625871570724
 20
14.47398529785998
 30
0.0
 10
188.2629987964055
 20
14.60849243496051
 30
0.0
 10
188.2613907841968
 20
14.73395549951185
 30
0.0
 10
188.2659902567925
 20
14.84505246719118
 30
0.0
 10
188.256418650221
 20
14.9076188680069
 30
0.0
 10
188.2704001783691
 20
14.96595388295002
 30
0.0
 10
188.2147384386704
 20
14.95289710582239
 30
0.0
 10
188.1575655197821
 20
14.96136307749499
 30
0.0
 10
188.0616048925648
 20
14.95729976080637
 30
0.0
 10
187.963376752282
 20
14.95970889852476
 30
0.0
 10
187.8672582457561
 20
14.95551600613388
 30
0.0
 10
187.8104648525811
 20
14.96429346441164
 30
0.0
 10
187.7550356873384
 20
14.95094936850121
 30
0.0
 10
187.7670679427917
 20
15.00036910959257
 30
0.0
 10
187.7592003173938
 20
15.04393988030396
 30
0.0
 10
187.7666295563828
 20
15.08830469118525
 30
0.0
 10
187.7551930564144
 20
15.13902297763991
 30
0.0
 10
187.8232102370132
 20
15.12162460757743
 30
0.0
 10
187.8968496879747
 20
15.13417450237189
 30
0.0
 10
188.0325064058211
 20
15.12799677011097
 30
0.0
 10
188.1884909024525
 20
15.13029203093084
 30
0.0
 10
188.3615926358143
 20
15.1294096826253
 30
0.0
 10
188.5346942964181
 20
15.13029207142408
 30
0.0
 10
188.6906789811216
 20
15.1279966295555
 30
0.0
 10
188.8263351889797
 20
15.13417486262432
 30
0.0
 10
188.8999756705652
 20
15.12162394218335
 30
0.0
 10
188.9679914174724
 20
15.13902373012142
 30
0.0
 10
188.9565590885922
 20
15.08830130414555
 30
0.0
 10
188.9639539458297
 20
15.04397060811109
 30
0.0
 10
188.956203991227
 20
15.00028307550197
 30
0.0
 10
188.9681203741877
 20
14.95063590098477
 30
0.0
 10
188.9108170223616
 20
14.96461411338426
 30
0.0
 10
188.8520145789773
 20
14.95539755673255
 30
0.0
 10
188.7525293633199
 20
14.9595226816493
 30
0.0
 10
188.649428009835
 20
14.95822760025889
 30
0.0
 10
188.5537846354573
 20
14.95854077077641
 30
0.0
 10
188.4857467971617
 20
14.95848776697146
 30
0.0
 10
188.4514462213443
 20
14.95849051871657
 30
0.0
 10
188.4418622390564
 20
14.95849128473265
 30
0.0
 11
188.4418622390564
 21
14.95849128473265
 31
0.0
 11
188.4418622390564
 21
14.92423666587186
 31
0.0
 11
188.4418622390564
 21
14.83392903432976
 31
0.0
 11
188.4418622390564
 21
14.7062527276668
 31
0.0
 11
188.4418622390564
 21
14.5598920834434
 31
0.0
 11
188.4418622390564
 21
14.41353143922001
 31
0.0
 11
188.4418622390564
 21
14.28585513255705
 31
0.0
 11
188.4418622390564
 21
14.19554750101495
 31
0.0
 11
188.4418622390564
 21
14.16129288215416
 31
0.0
 11
188.7391932644567
 21
14.22709475713769
 31
0.0
 11
189.0384623627245
 21
14.29496038212074
 31
0.0
 11
189.0405487124976
 21
14.27030727882829
 31
0.0
 11
189.0451386819987
 21
14.2160704515849
 31
0.0
 11
189.0497286514996
 21
14.16183362434151
 31
0.0
 11
189.0518150012728
 21
14.13718052104906
 31
0.0
 11
188.705639688924
 21
14.05163370140897
 31
0.0
 11
188.3669653138838
 21
13.97060877629902
 31
0.0
 11
188.0563731516688
 21
13.8986276402493
 31
0.0
 11
187.7944444777955
 21
13.84021218778992
 31
0.0
 11
187.7817515029292
 21
13.81283442738014
 31
0.0
 11
187.7569794787513
 21
13.79740260446735
 31
0.0
 11
187.7491867589501
 21
13.81910683390636
 31
0.0
 11
187.7306041194242
 21
13.87086307333786
 31
0.0
 11
187.70842483999
 21
13.93263664943351
 31
0.0
 11
187.689842200464
 21
13.984392888865
 31
0.0
 11
187.6820494806628
 21
14.00609711830401
 31
0.0
 11
187.9482776335931
 21
14.05794001759666
 31
0.0
 11
188.2626334936289
 21
14.12373968771911
 31
0.0
 11
188.2626334936289
 21
14.15236628569625
 31
0.0
 11
188.2626334936289
 21
14.229085568275
 31
0.0
 11
188.2626334936289
 21
14.34015676842633
 31
0.0
 11
188.2626334936289
 21
14.47183911912119
 31
0.0
 11
188.2626334936289
 21
14.61039185333057
 31
0.0
 11
188.2626334936289
 21
14.74207420402544
 31
0.0
 11
188.2626334936289
 21
14.85314540417676
 31
0.0
 11
188.2626334936289
 21
14.9298646867555
 31
0.0
 11
188.2626334936289
 21
14.95849128473265
 31
0.0
 11
188.2349191321108
 21
14.95849128473265
 31
0.0
 11
188.1634452524063
 21
14.95849128473265
 31
0.0
 11
188.06571566179
 21
14.95849128473265
 31
0.0
 11
187.9592341675364
 21
14.95849128473265
 31
0.0
 11
187.8615045769201
 21
14.95849128473265
 31
0.0
 11
187.7900306972156
 21
14.95849128473265
 31
0.0
 11
187.7623163356975
 21
14.95849128473265
 31
0.0
 11
187.7623163356975
 21
14.9852445182329
 31
0.0
 11
187.7623163356975
 21
15.04410163193345
 31
0.0
 11
187.7623163356975
 21
15.10295874563399
 31
0.0
 11
187.7623163356975
 21
15.12971197913424
 31
0.0
 11
187.7958758072874
 21
15.12971197913424
 31
0.0
 11
187.8869658016031
 21
15.12971197913424
 31
0.0
 11
188.0212036879629
 21
15.12971197913424
 31
0.0
 11
188.1842068356856
 21
15.12971197913424
 31
0.0
 11
188.3615926140897
 21
15.12971197913424
 31
0.0
 11
188.5389783924938
 21
15.12971197913424
 31
0.0
 11
188.7019815402164
 21
15.12971197913424
 31
0.0
 11
188.8362194265763
 21
15.12971197913424
 31
0.0
 11
188.9273094208918
 21
15.12971197913424
 31
0.0
 11
188.9608688924818
 21
15.12971197913424
 31
0.0
 11
188.9608688924818
 21
15.10295874563399
 31
0.0
 11
188.9608688924818
 21
15.04410163193344
 31
0.0
 11
188.9608688924818
 21
14.9852445182329
 31
0.0
 11
188.9608688924818
 21
14.95849128473265
 31
0.0
 11
188.9321192527877
 21
14.95849128473265
 31
0.0
 11
188.8579754451555
 21
14.95849128473265
 31
0.0
 11
188.7565951367604
 21
14.95849128473265
 31
0.0
 11
188.6461359947778
 21
14.95849128473265
 31
0.0
 11
188.5447556863827
 21
14.95849128473265
 31
0.0
 11
188.4706118787505
 21
14.95849128473265
 31
0.0
 11
188.4418622390564
 21
14.95849128473265
 31
0.0
  0
SPLINE
  5
104
102
{ACAD_REACTORS
330
121
102
}
330
4D
100
AcDbEntity
  8
_U_30EC_U_30A4_U_30E4_U_30FC_1
  6
Continuous
 62
     2
100
AcDbSpline
210
0.0
220
0.0
230
1.0
 70
    11
 71
     3
 72
    15
 73
    11
 74
     9
 42
0.000000001
 43
0.0000000001
 44
0.00000001
 40
0.0
 40
0.0
 40
0.0
 40
0.0
 40
0.2785535985096574
 40
0.5215624748198874
 40
0.6076917376040509
 40
0.6938210001741243
 40
0.9405019146455044
 40
1.221691403489129
 40
1.300471877081053
 40
1.379252341684823
 40
1.379252341684823
 40
1.379252341684823
 40
1.379252341684823
 10
189.5681493630999
 20
16.22930267330381
 30
0.0
 10
189.6296017794178
 20
16.17691646592715
 30
0.0
 10
189.7446649974113
 20
16.07882876798222
 30
0.0
 10
190.0397348497243
 20
15.92889785897221
 30
0.0
 10
189.9025147631856
 20
15.84343227515014
 30
0.0
 10
189.8041227843778
 20
15.71085785201554
 30
0.0
 10
189.713003359065
 20
16.0161698578142
 30
0.0
 10
189.3636839480654
 20
16.07967869465373
 30
0.0
 10
189.511925837657
 20
16.17896509880877
 30
0.0
 10
189.5494081874236
 20
16.21252348402382
 30
0.0
 10
189.5681493630999
 20
16.22930267330381
 30
0.0
 11
189.5681493630999
 21
16.22930267330381
 31
0.0
 11
189.7919222440596
 21
16.06341774278972
 31
0.0
 11
189.9695046306383
 21
15.89753281227564
 31
0.0
 11
189.9066308127979
 21
15.83866743034592
 31
0.0
 11
189.8437569949575
 21
15.7798020484162
 31
0.0
 11
189.6688535117725
 21
15.95375677059491
 31
0.0
 11
189.447825685614
 21
16.12757920110701
 31
0.0
 11
189.507987524357
 21
16.17844093720541
 31
0.0
 11
189.5681493630999
 21
16.22930267330381
 31
0.0
  0
SPLINE
  5
105
102
{ACAD_REACTORS
330
122
102
}
330
4D
100
AcDbEntity
  8
_U_30EC_U_30A4_U_30E4_U_30FC_1
  6
Continuous
 62
     2
100
AcDbSpline
210
0.0
220
0.0
230
1.0
 70
    11
 71
     3
 72
    35
 73
    31
 74
    29
 42
0.000000001
 43
0.0000000001
 44
0.00000001
 40
0.0
 40
0.0
 40
0.0
 40
0.0
 40
0.0335231036620645
 40
0.0713218571712011
 40
0.4278866681487097
 40
0.8116865841964129
 40
1.198190238000074
 40
1.561379546812705
 40
1.659983174622058
 40
1.759315573807201
 40
2.132719617231085
 40
2.525233363588839
 40
2.91081539777971
 40
3.265244364303301
 40
3.592606723582048
 40
3.964386154603999
 40
4.359942131737824
 40
4.758154118639335
 40
4.843846538699958
 40
4.936650065543267
 40
5.256616602537351
 40
5.581707404416088
 40
5.899719158308183
 40
6.198363494280786
 40
6.466301046615816
 40
6.493895311537137
 40
6.559697020196929
 40
6.638234543442504
 40
6.704036252154256
 40
6.731630508423062
 40
6.731630508423062
 40
6.731630508423062
 40
6.731630508423062
 10
191.9736010568669
 20
16.23463843719134
 30
0.0
 10
191.9676006097789
 20
16.22480690542322
 30
0.0
 10
191.9548344099157
 20
16.20388988579798
 30
0.0
 10
191.7949362006552
 20
16.17127126532691
 30
0.0
 10
192.2322025842338
 20
15.88206680336702
 30
0.0
 10
192.4345394828261
 20
15.68041138358438
 30
0.0
 10
192.6819564267973
 20
15.43749387603276
 30
0.0
 10
193.1831513624606
 20
15.36047662757774
 30
0.0
 10
193.012556219897
 20
15.21876939174657
 30
0.0
 10
192.9383299463201
 20
15.01710366209107
 30
0.0
 10
192.6131432248188
 20
15.36956287174726
 30
0.0
 10
192.3277741670664
 20
15.53175212559562
 30
0.0
 10
192.0337604077657
 20
15.73687130053049
 30
0.0
 10
191.8084452691134
 20
16.21827488595456
 30
0.0
 10
191.5993085055522
 20
15.75343046609223
 30
0.0
 10
191.3207873674834
 20
15.54350952252911
 30
0.0
 10
191.0371383177209
 20
15.37424456359984
 30
0.0
 10
190.7078639527832
 20
15.00142360907934
 30
0.0
 10
190.6277012318224
 20
15.19708014459001
 30
0.0
 10
190.4759724909744
 20
15.32491104190593
 30
0.0
 10
190.9083395826794
 20
15.40454031765935
 30
0.0
 10
191.0962565329766
 20
15.60026634915473
 30
0.0
 10
191.3468477420502
 20
15.81632996916755
 30
0.0
 10
191.5714350470161
 20
15.98190992300058
 30
0.0
 10
191.6259775409712
 20
16.26133964636824
 30
0.0
 10
191.7494661029011
 20
16.24737950408079
 30
0.0
 10
191.8060273344519
 20
16.24521268867645
 30
0.0
 10
191.8761870984945
 20
16.24046859881361
 30
0.0
 10
191.9333414022105
 20
16.2370942935054
 30
0.0
 10
191.9644190320839
 20
16.23519854711119
 30
0.0
 10
191.9736010568669
 20
16.23463843719134
 30
0.0
 11
191.9736010568669
 21
16.23463843719134
 31
0.0
 11
191.9525319069884
 21
16.20856374969785
 31
0.0
 11
191.9174464559425
 21
16.1945011455347
 31
0.0
 11
192.1512374769094
 21
15.92527961131382
 31
0.0
 11
192.4414585957566
 21
15.67413407969259
 31
0.0
 11
192.7612797483684
 21
15.45710987618783
 31
0.0
 11
193.0838708706289
 21
15.29025232631636
 31
0.0
 11
193.0213299868076
 21
15.21402035584929
 31
0.0
 11
192.9688035818975
 21
15.12971197913424
 31
0.0
 11
192.6436279095814
 21
15.3132640483158
 31
0.0
 11
192.3237227768436
 21
15.54070139743428
 31
0.0
 11
192.0354200158608
 21
15.7967385512331
 31
0.0
 11
191.8050514588095
 21
16.06609003445567
 31
0.0
 11
191.5995531719516
 21
15.81126348721036
 31
0.0
 11
191.3288301341535
 21
15.55645182277755
 31
0.0
 11
191.0119538423246
 21
15.31969466354855
 31
0.0
 11
190.6679957933741
 21
15.11903163191465
 31
0.0
 11
190.6218855341338
 21
15.19126067703553
 31
0.0
 11
190.5636970460348
 21
15.26355586798965
 31
0.0
 11
190.8433040489015
 21
15.41911456961744
 31
0.0
 11
191.1093004621154
 21
15.60601009790405
 31
0.0
 11
191.3499997459746
 21
15.81384496285208
 31
0.0
 11
191.5537153607774
 21
16.03222167446415
 31
0.0
 11
191.7087607668218
 21
16.25074274274286
 31
0.0
 11
191.7363041569865
 21
16.24906789496551
 31
0.0
 11
191.8019845489177
 21
16.24507402718872
 31
0.0
 11
191.880377274771
 21
16.24030715274548
 31
0.0
 11
191.9460576667022
 21
16.2363132849687
 31
0.0
 11
191.9736010568669
 21
16.23463843719134
 31
0.0
  0
SPLINE
  5
106
102
{ACAD_REACTORS
330
123
102
}
330
4D
100
AcDbEntity
  8
_U_30EC_U_30A4_U_30E4_U_30FC_1
  6
Continuous
 62
     2
100
AcDbSpline
210
0.0
220
0.0
230
1.0
 70
    11
 71
     3
 72
    91
 73
    87
 74
    85
 42
0.000000001
 43
0.0000000001
 44
0.00000001
 40
0.0
 40
0.0
 40
0.0
 40
0.0
 40
0.0267532254356701
 40
0.0856103386464102
 40
0.1444674521996621
 40
0.1712206856618514
 40
0.2039416005642536
 40
0.2955601971652484
 40
0.4362601844616918
 40
0.616225284450725
 40
0.8256392189704698
 40
1.054685709844411
 40
1.293548478893531
 40
1.532411247938303
 40
1.761457738799568
 40
1.970871673298537
 40
2.150836773256732
 40
2.291536760495593
 40
2.3831553568367
 40
2.41587628410132
 40
2.442629517487965
 40
2.501486630949095
 40
2.560343744424242
 40
2.587096977826515
 40
2.617068194440942
 40
2.699247336756083
 40
2.822032643466396
 40
2.973822353257925
 40
3.143014704823368
 40
3.318007936879947
 40
3.48720028818678
 40
3.63898999754826
 40
3.761775303794759
 40
3.843954445753094
 40
3.87392566222979
 40
3.890812773500496
 40
3.907699884771673
 40
3.937960767857289
 40
3.980983618142321
 40
4.199085915228462
 40
4.439444339237253
 40
4.677588241260894
 40
5.05069831783778
 40
5.448212454763166
 40
5.85529121804469
 40
6.138575438885362
 40
6.417434507584217
 40
6.444551104393899
 40
6.504207617363197
 40
6.563864130314518
 40
6.590980727104111
 40
6.848609460381494
 40
7.109611990668453
 40
7.352910904446119
 40
7.557830220705495
 40
7.587518925913414
 40
7.652834077375832
 40
7.718149228845769
 40
7.747837934062073
 40
7.854880190301036
 40
7.97651125740359
 40
8.369487896592391
 40
8.757514959223684
 40
9.126072419331146
 40
9.460639380392209
 40
9.74669559303595
 40
9.777569943118726
 40
9.807050320931825
 40
9.830377336128956
 40
9.886003295436032
 40
9.952395569429942
 40
10.0080215287063
 40
10.03134854388222
 40
10.21356951009592
 40
10.42203479292875
 40
10.66154556731067
 40
10.91693789564308
 40
11.15832906556569
 40
11.18982674596627
 40
11.27286608520411
 40
11.39026653033353
 40
11.52484752840889
 40
11.65942852648451
 40
11.77682897161487
 40
11.85986831085686
 40
11.89136598230432
 40
11.89136598230432
 40
11.89136598230432
 40
11.89136598230432
 10
190.7027885008196
 20
14.70699600701772
 30
0.0
 10
190.7028237765288
 20
14.71587847311985
 30
0.0
 10
190.7029366710796
 20
14.74430237047346
 30
0.0
 10
190.7012984568489
 20
14.79409639169803
 30
0.0
 10
190.7069750292911
 20
14.83657564478154
 30
0.0
 10
190.6956928731706
 20
14.88730154856847
 30
0.0
 10
190.7632296979031
 20
14.87012900740109
 30
0.0
 10
190.83880292107
 20
14.88290227165996
 30
0.0
 10
190.9828357056
 20
14.87629729457382
 30
0.0
 10
191.1569419185427
 20
14.87888462206466
 30
0.0
 10
191.3639599611003
 20
14.87800591955553
 30
0.0
 10
191.5894688172378
 20
14.87828207920027
 30
0.0
 10
191.8251162293406
 20
14.87818339658662
 30
0.0
 10
192.0607640531348
 20
14.87828184412767
 30
0.0
 10
192.2862717580626
 20
14.87800678190789
 30
0.0
 10
192.4932934632805
 20
14.87888186270735
 30
0.0
 10
192.6673888915288
 20
14.87630522678446
 30
0.0
 10
192.8114492071986
 20
14.88288290449213
 30
0.0
 10
192.8869691915293
 20
14.87016243405604
 30
0.0
 10
192.9545776037029
 20
14.88726400191686
 30
0.0
 10
192.9430840140676
 20
14.8367478580294
 30
0.0
 10
192.9505104581733
 20
14.79253252226501
 30
0.0
 10
192.9428838927986
 20
14.7486796650361
 30
0.0
 10
192.9546489459425
 20
14.69878374479327
 30
0.0
 10
192.8930788491983
 20
14.71393227712512
 30
0.0
 10
192.8256791738672
 20
14.70310665350673
 30
0.0
 10
192.7013004056221
 20
14.70852031626236
 30
0.0
 10
192.555442823657
 20
14.70649205390785
 30
0.0
 10
192.3893576440085
 20
14.70715777578387
 30
0.0
 10
192.2188412621724
 20
14.70689643521242
 30
0.0
 10
192.0519790855388
 20
14.70721553391094
 30
0.0
 10
191.9087346827105
 20
14.70635302590762
 30
0.0
 10
191.7773313869834
 20
14.70863300482988
 30
0.0
 10
191.7239859134656
 20
14.70407704374202
 30
0.0
 10
191.6485188456912
 20
14.70999914992877
 30
0.0
 10
191.6769075779232
 20
14.70094169343353
 30
0.0
 10
191.7033652409542
 20
14.6972591226893
 30
0.0
 10
191.6633522907702
 20
14.66654271968274
 30
0.0
 10
191.5713663691867
 20
14.67667591174633
 30
0.0
 10
191.5439396207069
 20
14.43032502247784
 30
0.0
 10
191.4478793967234
 20
14.27499558764375
 30
0.0
 10
191.1917277964473
 20
13.94525417931568
 30
0.0
 10
191.7627537732762
 20
14.08430022210452
 30
0.0
 10
192.0173656320516
 20
14.08291779973364
 30
0.0
 10
192.6279647048617
 20
13.99790569242084
 30
0.0
 10
192.3340698578083
 20
14.29685417558203
 30
0.0
 10
192.0133304286517
 20
14.44330856901781
 30
0.0
 10
192.1313543360434
 20
14.50025540818288
 30
0.0
 10
192.1724716466261
 20
14.52420099873349
 30
0.0
 10
192.2156812394411
 20
14.5459975881123
 30
0.0
 10
192.317457409445
 20
14.60928721253903
 30
0.0
 10
192.4328867625247
 20
14.3514715140878
 30
0.0
 10
192.6329591642277
 20
14.21616041113682
 30
0.0
 10
192.7269077387228
 20
14.03792795138882
 30
0.0
 10
192.9558829746392
 20
13.87997821027047
 30
0.0
 10
192.8596031846708
 20
13.82915972576299
 30
0.0
 10
192.8167959763779
 20
13.79881292523054
 30
0.0
 10
192.7718243528779
 20
13.77466130281457
 30
0.0
 10
192.7121720925213
 20
13.72552146747567
 30
0.0
 10
192.6789731061325
 20
13.85997475673609
 30
0.0
 10
192.5582013350795
 20
14.01594265286582
 30
0.0
 10
192.1970976005979
 20
13.88569928059558
 30
0.0
 10
191.8385061955541
 20
13.90224694409484
 30
0.0
 10
191.457092045008
 20
13.89331229351866
 30
0.0
 10
191.1703455282891
 20
13.82882671672408
 30
0.0
 10
190.8592055599714
 20
13.94230668192827
 30
0.0
 10
190.8268737818788
 20
13.83122259927769
 30
0.0
 10
190.7896178253318
 20
13.81196313850014
 30
0.0
 10
190.7865737632754
 20
13.85874784087297
 30
0.0
 10
190.7679892860606
 20
13.89806853919136
 30
0.0
 10
190.7512436616778
 20
13.95765983478233
 30
0.0
 10
190.7383730915753
 20
14.00201969871284
 30
0.0
 10
190.7042327806429
 20
14.09106331120201
 30
0.0
 10
190.9482714457753
 20
14.0218104294377
 30
0.0
 10
191.1441394486671
 20
14.00030369057744
 30
0.0
 10
191.2395426381277
 20
14.28226484478463
 30
0.0
 10
191.2945135769597
 20
14.44363045421123
 30
0.0
 10
191.5159619357155
 20
14.71391177589737
 30
0.0
 10
191.3849239381217
 20
14.70548446853735
 30
0.0
 10
191.3110026555853
 20
14.70779008496969
 30
0.0
 10
191.1977459876244
 20
14.70671378321658
 30
0.0
 10
191.0694251807484
 20
14.7070763907651
 30
0.0
 10
190.9404252030415
 20
14.70697724466086
 30
0.0
 10
190.828784094629
 20
14.70699932712572
 30
0.0
 10
190.7514663970026
 20
14.7069957918967
 30
0.0
 10
190.713287653201
 20
14.70699595845081
 30
0.0
 10
190.7027885008196
 20
14.70699600701772
 30
0.0
 11
190.7027885008196
 21
14.70699600701772
 31
0.0
 11
190.7027885008196
 21
14.73374924051797
 31
0.0
 11
190.7027885008196
 21
14.79260635421853
 31
0.0
 11
190.7027885008196
 21
14.85146346791909
 31
0.0
 11
190.7027885008196
 21
14.87821670141935
 31
0.0
 11
190.7355094280989
 21
14.87821670141935
 31
0.0
 11
190.8271280244809
 21
14.87821670141935
 31
0.0
 11
190.9678280117818
 21
14.87821670141935
 31
0.0
 11
191.1477931118179
 21
14.87821670141935
 31
0.0
 11
191.3572070464054
 21
14.87821670141935
 31
0.0
 11
191.5862535373604
 21
14.87821670141935
 31
0.0
 11
191.8251163064992
 21
14.87821670141935
 31
0.0
 11
192.0639790756381
 21
14.87821670141935
 31
0.0
 11
192.2930255665931
 21
14.87821670141935
 31
0.0
 11
192.5024395011806
 21
14.87821670141935
 31
0.0
 11
192.6824046012167
 21
14.87821670141935
 31
0.0
 11
192.8231045885176
 21
14.87821670141935
 31
0.0
 11
192.9147231848996
 21
14.87821670141935
 31
0.0
 11
192.9474441121789
 21
14.87821670141935
 31
0.0
 11
192.9474441121789
 21
14.85146346791909
 31
0.0
 11
192.9474441121789
 21
14.79260635421853
 31
0.0
 11
192.9474441121789
 21
14.73374924051797
 31
0.0
 11
192.9474441121789
 21
14.70699600701772
 31
0.0
 11
192.9174728954758
 21
14.70699600701772
 31
0.0
 11
192.8352937529027
 21
14.70699600701772
 31
0.0
 11
192.7125084457639
 21
14.70699600701772
 31
0.0
 11
192.5607187353642
 21
14.70699600701772
 31
0.0
 11
192.3915263830077
 21
14.70699600701772
 31
0.0
 11
192.2165331499991
 21
14.70699600701772
 31
0.0
 11
192.0473407976426
 21
14.70699600701772
 31
0.0
 11
191.8955510872428
 21
14.70699600701772
 31
0.0
 11
191.7727657801042
 21
14.70699600701772
 31
0.0
 11
191.690586637531
 21
14.70699600701772
 31
0.0
 11
191.6606154208279
 21
14.70699600701772
 31
0.0
 11
191.6766359412525
 21
14.70165583340794
 31
0.0
 11
191.6926564616771
 21
14.69631565979816
 31
0.0
 11
191.670615568142
 21
14.67558114591442
 31
0.0
 11
191.6284861855363
 21
14.66685871536109
 31
0.0
 11
191.5365235541377
 21
14.46909247312657
 31
0.0
 11
191.4279078521763
 21
14.25467511978508
 31
0.0
 11
191.3127500824807
 21
14.0462255905162
 31
0.0
 11
191.685736667502
 21
14.05582441253029
 31
0.0
 11
192.083070003615
 21
14.06781232404995
 31
0.0
 11
192.4899342191145
 21
14.08102711828531
 31
0.0
 11
192.2983119496978
 21
14.2896676130248
 31
0.0
 11
192.0966752013698
 21
14.48229420151833
 31
0.0
 11
192.1204947794749
 21
14.49525327269565
 31
0.0
 11
192.1728978513061
 21
14.52376322928577
 31
0.0
 11
192.2253009231374
 21
14.55227318587588
 31
0.0
 11
192.2491205012425
 21
14.5652322570532
 31
0.0
 11
192.4387101558627
 21
14.39079508370268
 31
0.0
 11
192.6200310940435
 21
14.20305846374091
 31
0.0
 11
192.7777729231147
 21
14.01782380992436
 31
0.0
 11
192.8966252504058
 21
13.85089253500948
 31
0.0
 11
192.8715408217923
 21
13.83501202286068
 31
0.0
 11
192.8163550788425
 21
13.80007489613331
 31
0.0
 11
192.7611693358928
 21
13.76513776940594
 31
0.0
 11
192.7360849072793
 21
13.74925725725714
 31
0.0
 11
192.6775518151612
 21
13.83887824681809
 31
0.0
 11
192.6050015078457
 21
13.93650288221033
 31
0.0
 11
192.2125412924095
 21
13.9163628694376
 31
0.0
 11
191.824947406956
 21
13.89803302999774
 31
0.0
 11
191.4567378976213
 21
13.88202178722396
 31
0.0
 11
191.1224308105412
 21
13.86883756444948
 31
0.0
 11
190.8365441918518
 21
13.85898878500751
 31
0.0
 11
190.821186232174
 21
13.83220523466696
 31
0.0
 11
190.7937434290546
 21
13.82143559057246
 31
0.0
 11
190.7867927192319
 21
13.84370299445578
 31
0.0
 11
190.7702179496548
 21
13.89680218833139
 31
0.0
 11
190.7504351601596
 21
13.96017864553777
 31
0.0
 11
190.7338603905825
 21
14.01327783941338
 31
0.0
 11
190.7269096807598
 21
14.0355452432967
 31
0.0
 11
190.9091199859153
 21
14.03751638912953
 31
0.0
 11
191.1174975848588
 21
14.04356211829472
 31
0.0
 11
191.2303203127216
 21
14.25483550301553
 31
0.0
 11
191.3407936722035
 21
14.48509813155879
 31
0.0
 11
191.4358254265627
 21
14.70699600701772
 31
0.0
 11
191.4043277461597
 21
14.70699600701772
 31
0.0
 11
191.3212884069153
 21
14.70699600701772
 31
0.0
 11
191.2038879617768
 21
14.70699600701772
 31
0.0
 11
191.0693069636912
 21
14.70699600701772
 31
0.0
 11
190.9347259656055
 21
14.70699600701772
 31
0.0
 11
190.817325520467
 21
14.70699600701772
 31
0.0
 11
190.7342861812226
 21
14.70699600701772
 31
0.0
 11
190.7027885008196
 21
14.70699600701772
 31
0.0
  0
SPLINE
  5
107
102
{ACAD_REACTORS
330
124
102
}
330
4D
100
AcDbEntity
  8
_U_30EC_U_30A4_U_30E4_U_30FC_1
  6
Continuous
 62
     2
100
AcDbSpline
210
0.0
220
0.0
230
1.0
 70
    11
 71
     3
 72
   131
 73
   127
 74
   125
 42
0.000000001
 43
0.0000000001
 44
0.00000001
 40
0.0
 40
0.0
 40
0.0
 40
0.0
 40
0.019557702982603
 40
0.0426490537461317
 40
0.2863607575856552
 40
0.5344948436189216
 40
0.7842238845573114
 40
0.8737315789467299
 40
0.9803832810312796
 40
1.092842274517025
 40
1.199761146656784
 40
1.289788768186489
 40
1.351573580786183
 40
1.370727117561412
 40
1.416400936017824
 40
1.47091484835597
 40
1.516588666791764
 40
1.535742203552845
 40
1.634216592293204
 40
1.760283341175044
 40
1.897966686682107
 40
2.031216387368924
 40
2.049689751137918
 40
2.101115601646854
 40
2.179502577739972
 40
2.278859318314086
 40
2.393194462258744
 40
2.516516648383857
 40
2.642834515405986
 40
2.766156701983488
 40
2.880491846754603
 40
2.979848588358645
 40
3.058235565443822
 40
3.109661416668977
 40
3.128134780704152
 40
3.146783742386469
 40
3.19125434331533
 40
3.244332157315989
 40
3.288802758225892
 40
3.307451719895135
 40
3.327717853844748
 40
3.383747753580107
 40
3.4683886659245
 40
3.574487837698809
 40
3.694892515728914
 40
3.822449946852054
 40
3.950007377920445
 40
4.070412055800536
 40
4.176511227368093
 40
4.261152139501539
 40
4.317182039076733
 40
4.337448172964653
 40
4.62001100269627
 40
4.885096638397533
 40
4.945373043518339
 40
5.014107710488648
 40
5.070481727652055
 40
5.319246955636579
 40
5.58481216450605
 40
5.859000912056903
 40
6.133746937542085
 40
6.401732212968888
 40
6.420736683995479
 40
6.472845717451129
 40
6.550702743894057
 40
6.646951193874266
 40
6.754234497930589
 40
6.865196086587368
 40
6.972479390357826
 40
7.068727839771988
 40
7.146584865450997
 40
7.198693898189227
 40
7.217698368905367
 40
7.234950401630844
 40
7.276089864269887
 40
7.325191803515994
 40
7.366331266090377
 40
7.383583298769727
 40
7.402779163492104
 40
7.453386443254535
 40
7.524934666445537
 40
7.606953361405877
 40
7.688972056429028
 40
7.760520279784279
 40
7.811127559734521
 40
7.830323424546142
 40
7.847844055299774
 40
7.894799345666813
 40
7.962779392744503
 40
8.043374293560554
 40
8.128174145149462
 40
8.208769044817263
 40
8.276749090376967
 40
8.323704379669532
 40
8.341225010056263
 40
8.358497614800411
 40
8.401679126686616
 40
8.457815092185674
 40
8.513951057728079
 40
8.557132569708035
 40
8.574405174505078
 40
8.602340668616439
 40
8.643455660539978
 40
8.663225271966645
 40
8.715345156564293
 40
8.789031889628632
 40
8.873502045520363
 40
8.957972194323988
 40
9.031658925567882
 40
9.083778811234573
 40
9.103548423003035
 40
9.119550083123572
 40
9.160817522379874
 40
9.21724442911024
 40
9.278724491644725
 40
9.33515139829551
 40
9.376418837357805
 40
9.392420497300593
 40
9.401196302734812
 40
9.417494229384285
 40
9.426270027749556
 40
9.440875075477589
 40
9.47570249699877
 40
9.517270709865931
 40
9.5520981319941
 40
9.566703169884308
 40
9.566703169884308
 40
9.566703169884308
 40
9.566703169884308
 10
194.6170254148479
 20
15.67015871511026
 30
0.0
 10
194.6134345093371
 20
15.66453690702158
 30
0.0
 10
194.6056039123624
 20
15.65227754419112
 30
0.0
 10
194.5129968974547
 20
15.61601916040975
 30
0.0
 10
194.4887622233247
 20
15.40148444212713
 30
0.0
 10
194.3858709845938
 20
15.22197284509708
 30
0.0
 10
194.1220492364305
 20
15.03615573798146
 30
0.0
 10
194.284547156918
 20
14.95959336566081
 30
0.0
 10
194.3607225760838
 20
14.89856693195442
 30
0.0
 10
194.4492171072758
 20
14.83515804544759
 30
0.0
 10
194.5389930233111
 20
14.77525634219561
 30
0.0
 10
194.5883817636046
 20
14.72102154849208
 30
0.0
 10
194.6745708157382
 20
14.69286240541834
 30
0.0
 10
194.6411260674229
 20
14.65713309652811
 30
0.0
 10
194.621467116631
 20
14.62550387991905
 30
0.0
 10
194.5919888217882
 20
14.58475872796069
 30
0.0
 10
194.5688989446031
 20
14.55504663489643
 30
0.0
 10
194.5380205968357
 20
14.50211422668493
 30
0.0
 10
194.472919336574
 20
14.62740334938903
 30
0.0
 10
194.3796000122415
 20
14.68213900233935
 30
0.0
 10
194.2950636285138
 20
14.73916423939344
 30
0.0
 10
194.1722498125742
 20
14.89675287427523
 30
0.0
 10
194.1764450847301
 20
14.82035806766836
 30
0.0
 10
194.1751478652677
 20
14.77361280161296
 30
0.0
 10
194.1758126448076
 20
14.695847858126
 30
0.0
 10
194.1755549986957
 20
14.59902068324423
 30
0.0
 10
194.1756431239921
 20
14.48650279078809
 30
0.0
 10
194.1756077302282
 20
14.365240859457
 30
0.0
 10
194.1756511758278
 20
14.24086897858961
 30
0.0
 10
194.1755199942406
 20
14.11967683631337
 30
0.0
 10
194.1759477562046
 20
14.00691148919743
 30
0.0
 10
194.174667820231
 20
13.91082913768744
 30
0.0
 10
194.1779759851044
 20
13.831138264687
 30
0.0
 10
194.1715197740086
 20
13.78815175788784
 30
0.0
 10
194.1806208705556
 20
13.74955432372043
 30
0.0
 10
194.1447910339935
 20
13.7581088772407
 30
0.0
 10
194.1115223815252
 20
13.75342519985446
 30
0.0
 10
194.060456257604
 20
13.75351298759784
 30
0.0
 10
194.0269723972813
 20
13.75794430283821
 30
0.0
 10
193.9907585408754
 20
13.74960793842509
 30
0.0
 10
194.0009782568665
 20
13.79145277179284
 30
0.0
 10
193.9936487887773
 20
13.83778560820174
 30
0.0
 10
193.9973633136102
 20
13.92374831106014
 30
0.0
 10
193.9959480554896
 20
14.02605142704849
 30
0.0
 10
193.9964105554638
 20
14.14453223931512
 30
0.0
 10
193.996277368623
 20
14.26957683153356
 30
0.0
 10
193.9963015910045
 20
14.39475828107051
 30
0.0
 10
193.9963354925551
 20
14.51286645379058
 30
0.0
 10
193.9962060293132
 20
14.61628748709516
 30
0.0
 10
193.9965507549081
 20
14.69932036153668
 30
0.0
 10
193.995869827869
 20
14.75143368521243
 30
0.0
 10
193.9994586600625
 20
14.87912907821364
 30
0.0
 10
193.7826171386436
 20
14.58048716819619
 30
0.0
 10
193.602135492195
 20
14.35263981511517
 30
0.0
 10
193.5490322295612
 20
14.49373443289814
 30
0.0
 10
193.5200429133148
 20
14.54325767560942
 30
0.0
 10
193.4196648062821
 20
14.64641779790108
 30
0.0
 10
193.7405127723261
 20
14.72695035023779
 30
0.0
 10
193.8689897005429
 20
14.91066283036436
 30
0.0
 10
194.0906454325359
 20
15.11931995771763
 30
0.0
 10
194.1770224894068
 20
15.29339211228345
 30
0.0
 10
194.4549394229074
 20
15.56967051342512
 30
0.0
 10
194.3346247839284
 20
15.56534559551115
 30
0.0
 10
194.2863197351348
 20
15.56614856202553
 30
0.0
 10
194.2102377454905
 20
15.56574582146585
 30
0.0
 10
194.116701000975
 20
15.56590275611611
 30
0.0
 10
194.0117594788557
 20
15.56582502576224
 30
0.0
 10
193.9033887738717
 20
15.56595464378556
 30
0.0
 10
193.7981454235897
 20
15.56554393490692
 30
0.0
 10
193.7056237819412
 20
15.56682073671592
 30
0.0
 10
193.6268130800707
 20
15.5634076653485
 30
0.0
 10
193.5839674565379
 20
15.57023350036321
 30
0.0
 10
193.5449499586516
 20
15.56065064201124
 30
0.0
 10
193.5526365271863
 20
15.59420779565543
 30
0.0
 10
193.5485464404312
 20
15.62523550322234
 30
0.0
 10
193.5485531368814
 20
15.672365292709
 30
0.0
 10
193.5526239724911
 20
15.70340941646779
 30
0.0
 10
193.5449495574582
 20
15.73701861635901
 30
0.0
 10
193.5834819405495
 20
15.72748410420872
 30
0.0
 10
193.624122801448
 20
15.73397435498071
 30
0.0
 10
193.6951471850463
 20
15.73100150650254
 30
0.0
 10
193.7729318149633
 20
15.73174761399158
 30
0.0
 10
193.8507292246474
 20
15.73247814044525
 30
0.0
 10
193.9217232089907
 20
15.7295423551416
 30
0.0
 10
193.962427979182
 20
15.73595468772952
 30
0.0
 10
194.0009853489909
 20
15.72650524176004
 30
0.0
 10
193.9927342754928
 20
15.76264692158785
 30
0.0
 10
193.9982346669358
 20
15.80129837613226
 30
0.0
 10
193.9955754206163
 20
15.86913528561839
 30
0.0
 10
193.9965815471533
 20
15.9459164153874
 30
0.0
 10
193.9960178018319
 20
16.02849393582757
 30
0.0
 10
193.9970714526593
 20
16.10517329229879
 30
0.0
 10
193.994267586313
 20
16.173319907767
 30
0.0
 10
194.0000702721302
 20
16.21132399809347
 30
0.0
 10
193.9915654551159
 20
16.24758448077647
 30
0.0
 10
194.0255610233125
 20
16.23755723771853
 30
0.0
 10
194.0594575683099
 20
16.24073266813707
 30
0.0
 10
194.1126669060346
 20
16.2350896564061
 30
0.0
 10
194.1660768574483
 20
16.23434774436425
 30
0.0
 10
194.199591464949
 20
16.2281922348298
 30
0.0
 10
194.2388086183039
 20
16.23346029773593
 30
0.0
 10
194.2120263698492
 20
16.19253380793489
 30
0.0
 10
194.1708111001723
 20
16.20371204538111
 30
0.0
 10
194.1782641540874
 20
16.15867056192126
 30
0.0
 10
194.1742227952184
 20
16.11412278028145
 30
0.0
 10
194.176171404964
 20
16.04223572621704
 30
0.0
 10
194.1752364849758
 20
15.96168630588771
 30
0.0
 10
194.176510719003
 20
15.88173995404995
 30
0.0
 10
194.1732043793863
 20
15.80841837083183
 30
0.0
 10
194.1802106179961
 20
15.76688643002568
 30
0.0
 10
194.1701440380126
 20
15.72752418568113
 30
0.0
 10
194.2029814803921
 20
15.73468063430981
 30
0.0
 10
194.236457729648
 20
15.73027243137945
 30
0.0
 10
194.2915053476019
 20
15.73217943347897
 30
0.0
 10
194.3489502595314
 20
15.73185366407288
 30
0.0
 10
194.4023026248309
 20
15.73106308733082
 30
0.0
 10
194.4398540896638
 20
15.73313959118073
 30
0.0
 10
194.4623172523237
 20
15.7302233816711
 30
0.0
 10
194.4751678073731
 20
15.73572552644055
 30
0.0
 10
194.4858255685889
 20
15.7380111819779
 30
0.0
 10
194.4986635650143
 20
15.74494972588051
 30
0.0
 10
194.5145991033071
 20
15.72853046313671
 30
0.0
 10
194.5410623920892
 20
15.71709122319447
 30
0.0
 10
194.5726805253758
 20
15.6964468783519
 30
0.0
 10
194.5987255892151
 20
15.68116869628293
 30
0.0
 10
194.6128517723973
 20
15.67266976323182
 30
0.0
 10
194.6170254148479
 20
15.67015871511026
 30
0.0
 11
194.6170254148479
 21
15.67015871511026
 31
0.0
 11
194.6049990002243
 21
15.65473571164188
 31
0.0
 11
194.5848961795565
 21
15.64337406233918
 31
0.0
 11
194.4778986355813
 21
15.42440620231159
 31
0.0
 11
194.3477039934324
 21
15.21317201512161
 31
0.0
 11
194.1996540366071
 21
15.01206059027479
 31
0.0
 11
194.2734958253735
 21
14.96147384935379
 31
0.0
 11
194.36056643118
 21
14.89988411653739
 31
0.0
 11
194.4518003750404
 21
14.83413160594426
 31
0.0
 11
194.5381321779687
 21
14.77105653169304
 31
0.0
 11
194.6104963609787
 21
14.71749910790242
 31
0.0
 11
194.6598274450843
 21
14.68029954869104
 31
0.0
 11
194.6486940702213
 21
14.66471410869494
 31
0.0
 11
194.6221452532403
 21
14.62754882870423
 31
0.0
 11
194.5904579555533
 21
14.58319026871532
 31
0.0
 11
194.5639091385723
 21
14.54602498872461
 31
0.0
 11
194.5527757637093
 21
14.53043954872851
 31
0.0
 11
194.4807013362947
 21
14.59754008690618
 31
0.0
 11
194.385285698538
 21
14.6799335417467
 31
0.0
 11
194.279326415217
 21
14.76785017366917
 31
0.0
 11
194.175621051109
 21
14.85152024309267
 31
0.0
 11
194.175621051109
 21
14.83304687900863
 31
0.0
 11
194.175621051109
 21
14.78162102763955
 31
0.0
 11
194.175621051109
 21
14.70323405030999
 31
0.0
 11
194.175621051109
 21
14.60387730834449
 31
0.0
 11
194.175621051109
 21
14.4895421630676
 31
0.0
 11
194.175621051109
 21
14.36621997580389
 31
0.0
 11
194.175621051109
 21
14.2399021078779
 31
0.0
 11
194.175621051109
 21
14.11657992061419
 31
0.0
 11
194.175621051109
 21
14.0022447753373
 31
0.0
 11
194.175621051109
 21
13.9028880333718
 31
0.0
 11
194.175621051109
 21
13.82450105604223
 31
0.0
 11
194.175621051109
 21
13.77307520467316
 31
0.0
 11
194.175621051109
 21
13.75460184058912
 31
0.0
 11
194.1569720893626
 21
13.75460184058912
 31
0.0
 11
194.1125014882749
 21
13.75460184058912
 31
0.0
 11
194.0594236740736
 21
13.75460184058912
 31
0.0
 11
194.0149530729859
 21
13.75460184058912
 31
0.0
 11
193.9963041112395
 21
13.75460184058912
 31
0.0
 11
193.9963041112395
 21
13.77486797460219
 31
0.0
 11
193.9963041112395
 21
13.83089787452066
 31
0.0
 11
193.9963041112395
 21
13.91553878716347
 31
0.0
 11
193.9963041112395
 21
14.02163795934953
 31
0.0
 11
193.9963041112395
 21
14.14204263789776
 31
0.0
 11
193.9963041112395
 21
14.26960006962706
 31
0.0
 11
193.9963041112395
 21
14.39715750135636
 31
0.0
 11
193.9963041112395
 21
14.51756217990459
 31
0.0
 11
193.9963041112395
 21
14.62366135209064
 31
0.0
 11
193.9963041112395
 21
14.70830226473345
 31
0.0
 11
193.9963041112395
 21
14.76433216465193
 31
0.0
 11
193.9963041112395
 21
14.784598298665
 31
0.0
 11
193.7883272849481
 21
14.59331998274057
 31
0.0
 11
193.5763486358425
 21
14.43414885430812
 31
0.0
 11
193.5495629014482
 21
14.48814671952095
 31
0.0
 11
193.5138765415024
 21
14.54689140572026
 31
0.0
 11
193.4799697494124
 21
14.59192871537977
 31
0.0
 11
193.6830287742319
 21
14.73563387201055
 31
0.0
 11
193.881853195826
 21
14.91168423529989
 31
0.0
 11
194.0677041444178
 21
15.11327514524951
 31
0.0
 11
194.2318427502303
 21
15.3336019418611
 31
0.0
 11
194.3655301434864
 21
15.56585996513636
 31
0.0
 11
194.3465256724482
 21
15.56585996513636
 31
0.0
 11
194.2944166389562
 21
15.56585996513636
 31
0.0
 11
194.2165596124447
 21
15.56585996513636
 31
0.0
 11
194.1203111623478
 21
15.56585996513636
 31
0.0
 11
194.0130278580997
 21
15.56585996513636
 31
0.0
 11
193.9020662691345
 21
15.56585996513636
 31
0.0
 11
193.7947829648864
 21
15.56585996513636
 31
0.0
 11
193.6985345147895
 21
15.56585996513636
 31
0.0
 11
193.620677488278
 21
15.56585996513636
 31
0.0
 11
193.568568454786
 21
15.56585996513636
 31
0.0
 11
193.5495639837478
 21
15.56585996513636
 31
0.0
 11
193.5495639837478
 21
15.58311199790982
 31
0.0
 11
193.5495639837478
 21
15.62425146067732
 31
0.0
 11
193.5495639837478
 21
15.67335340010949
 31
0.0
 11
193.5495639837478
 21
15.71449286287699
 31
0.0
 11
193.5495639837478
 21
15.73174489565045
 31
0.0
 11
193.5687598486009
 21
15.73174489565045
 31
0.0
 11
193.6193671286684
 21
15.73174489565045
 31
0.0
 11
193.690915352212
 21
15.73174489565045
 31
0.0
 11
193.7729340474937
 21
15.73174489565045
 31
0.0
 11
193.8549527427753
 21
15.73174489565045
 31
0.0
 11
193.9265009663189
 21
15.73174489565045
 31
0.0
 11
193.9771082463864
 21
15.73174489565045
 31
0.0
 11
193.9963041112395
 21
15.73174489565045
 31
0.0
 11
193.9963041112395
 21
15.74926552655218
 31
0.0
 11
193.9963041112395
 21
15.79622081736882
 31
0.0
 11
193.9963041112395
 21
15.86420086526753
 31
0.0
 11
193.9963041112395
 21
15.94479576741549
 31
0.0
 11
193.9963041112395
 21
16.02959562097987
 31
0.0
 11
193.9963041112395
 21
16.11019052312783
 31
0.0
 11
193.9963041112395
 21
16.17817057102654
 31
0.0
 11
193.9963041112395
 21
16.22512586184318
 31
0.0
 11
193.9963041112395
 21
16.24264649274491
 31
0.0
 11
194.0135484112111
 21
16.2416580616752
 31
0.0
 11
194.0566591611401
 21
16.23918698400092
 31
0.0
 11
194.1127031360477
 21
16.23597458302436
 31
0.0
 11
194.1687471109553
 21
16.2327621820478
 31
0.0
 11
194.2118578608843
 21
16.23029110437352
 31
0.0
 11
194.2291021608559
 21
16.22930267330381
 31
0.0
 11
194.2143774674851
 21
16.2055629337264
 31
0.0
 11
194.175621051109
 21
16.19183767331313
 31
0.0
 11
194.175621051109
 21
16.17206806177294
 31
0.0
 11
194.175621051109
 21
16.11994817680334
 31
0.0
 11
194.175621051109
 21
16.0462614428808
 31
0.0
 11
194.175621051109
 21
15.96179128448179
 31
0.0
 11
194.175621051109
 21
15.87732112608278
 31
0.0
 11
194.175621051109
 21
15.80363439216024
 31
0.0
 11
194.175621051109
 21
15.75151450719064
 31
0.0
 11
194.175621051109
 21
15.73174489565045
 31
0.0
 11
194.1916227112935
 21
15.73174489565045
 31
0.0
 11
194.232890150717
 21
15.73174489565045
 31
0.0
 11
194.2893170576837
 21
15.73174489565045
 31
0.0
 11
194.3507971204981
 21
15.73174489565045
 31
0.0
 11
194.4072240274648
 21
15.73174489565045
 31
0.0
 11
194.4484914668882
 21
15.73174489565045
 31
0.0
 11
194.4644931270728
 21
15.73174489565045
 31
0.0
 11
194.4728206422924
 21
15.73451387455921
 31
0.0
 11
194.4882860277004
 21
15.73965626396118
 31
0.0
 11
194.49661354292
 21
15.74242524286993
 31
0.0
 11
194.5091363776005
 21
15.73490952398292
 31
0.0
 11
194.5389985218386
 21
15.71698742509852
 31
0.0
 11
194.5746404359293
 21
15.69559653288166
 31
0.0
 11
194.6045025801674
 21
15.67767443399727
 31
0.0
 11
194.6170254148479
 21
15.67015871511026
 31
0.0
  0
SPLINE
  5
108
102
{ACAD_REACTORS
330
125
102
}
330
4D
100
AcDbEntity
  8
_U_30EC_U_30A4_U_30E4_U_30FC_1
  6
Continuous
 62
     2
100
AcDbSpline
210
0.0
220
0.0
230
1.0
 70
    11
 71
     3
 72
   124
 73
   120
 74
   118
 42
0.000000001
 43
0.0000000001
 44
0.00000001
 40
0.0
 40
0.0
 40
0.0
 40
0.0
 40
0.027818722962451
 40
0.1011590162384269
 40
0.2048470170590239
 40
0.3237088716559245
 40
0.4425707262522
 40
0.5462587270699547
 40
0.6195990203311798
 40
0.647417752257866
 40
0.6750060736115224
 40
0.7357003855242741
 40
0.7963946998054474
 40
0.8239830245571766
 40
0.854093381110286
 40
0.937339662940954
 40
1.063094687343235
 40
1.220731268638073
 40
1.399622220914748
 40
1.589140358637732
 40
1.778658496423898
 40
1.957549448940509
 40
2.115186030873159
 40
2.240941056914463
 40
2.324187341760532
 40
2.354297700109382
 40
2.38188602467189
 40
2.442580338710477
 40
2.503274652750499
 40
2.530862977314606
 40
2.560983949278559
 40
2.640393784452905
 40
2.752662861759128
 40
2.881361560118145
 40
3.010060258455192
 40
3.122329335705339
 40
3.201739170817953
 40
3.231860142753313
 40
3.264298024030372
 40
3.352343701778241
 40
3.482095226868766
 40
3.639650650173031
 40
3.811108022565489
 40
3.982565394927998
 40
4.140120818152581
 40
4.269872343141293
 40
4.357918020802356
 40
4.390355902043985
 40
4.423256253992554
 40
4.508104530073076
 40
4.624121560636843
 40
4.7505281760316
 40
4.866545206602047
 40
4.951393482692004
 40
4.984293834645405
 40
5.011450833242317
 40
5.071196230152096
 40
5.130941627057166
 40
5.158098625648829
 40
5.190998977601519
 40
5.275847253689345
 40
5.391864284256779
 40
5.518270899648324
 40
5.634287930209363
 40
5.719136206288037
 40
5.752036558235925
 40
5.78213094628295
 40
5.862783906229125
 40
5.979550131774993
 40
6.117984316640402
 40
6.263641154587948
 40
6.402075339414156
 40
6.518841564907951
 40
6.599494524815536
 40
6.629588912848773
 40
6.65440302822635
 40
6.713575149488118
 40
6.784199939329436
 40
6.843372060493538
 40
6.868186175802784
 40
6.896246243201855
 40
6.939586233758251
 40
6.967846564564879
 40
7.043584251089821
 40
7.153234334451677
 40
7.283231855734429
 40
7.420011856035464
 40
7.550009376579816
 40
7.659659458835221
 40
7.735397144417214
 40
7.763657474851386
 40
7.796409728011043
 40
7.880876065096317
 40
7.996370852465703
 40
8.122208446418599
 40
8.237703224799192
 40
8.322169562010886
 40
8.3549218152059
 40
8.382078813307677
 40
8.441824209206978
 40
8.50156960524012
 40
8.528726603485696
 40
8.561478856695745
 40
8.645945193877795
 40
8.761439980865307
 40
8.887277580764449
 40
9.00277236200097
 40
9.08723869666119
 40
9.119990949235644
 40
9.152428830613344
 40
9.24047450863856
 40
9.370226034149516
 40
9.5277814579844
 40
9.69923883098139
 40
9.870696203978584
 40
10.02825162781401
 40
10.15800315332563
 40
10.24604883135118
 40
10.2784867037852
 40
10.2784867037852
 40
10.2784867037852
 40
10.2784867037852
 10
195.3821827564383
 20
14.01410517385756
 30
0.0
 10
195.3914554737523
 20
14.01410498511273
 30
0.0
 10
195.4251744536861
 20
14.01410430876713
 30
0.0
 10
195.4934706812465
 20
14.01411807243304
 30
0.0
 10
195.592014171158
 20
14.01403224219544
 30
0.0
 10
195.7062066464812
 20
14.01441755612249
 30
0.0
 10
195.818589441707
 20
14.01300835897544
 30
0.0
 10
195.9214376600118
 20
14.01719117422242
 30
0.0
 10
195.9806839874849
 20
14.00823089251982
 30
0.0
 10
196.0371265937033
 20
14.0216443452606
 30
0.0
 10
196.0246255586955
 20
13.97087198613361
 30
0.0
 10
196.0329549635703
 20
13.92589320939065
 30
0.0
 10
196.024817084112
 20
13.88056752990487
 30
0.0
 10
196.0370529214457
 20
13.82931932408465
 30
0.0
 10
195.9747773490333
 20
13.84447955365275
 30
0.0
 10
195.9060513026868
 20
13.83359750710742
 30
0.0
 10
195.7782756749592
 20
13.83911304747971
 30
0.0
 10
195.6262984511643
 20
13.83700851253697
 30
0.0
 10
195.4502695972523
 20
13.83771002588473
 30
0.0
 10
195.2644431934287
 20
13.8374523753129
 30
0.0
 10
195.0786167437175
 20
13.83771005144602
 30
0.0
 10
194.9025880142168
 20
13.8370084184773
 30
0.0
 10
194.7506104154195
 20
13.83911332229988
 30
0.0
 10
194.6228357664554
 20
13.83359680767639
 30
0.0
 10
194.5541077836581
 20
13.84448077125941
 30
0.0
 10
194.4918349042883
 20
13.82931786684209
 30
0.0
 10
194.5040616290017
 20
13.8805751080517
 30
0.0
 10
194.4960004462597
 20
13.92582473272424
 30
0.0
 10
194.5040675809892
 20
13.97106357955322
 30
0.0
 10
194.4918238487083
 20
14.02234176909957
 30
0.0
 10
194.5525017120697
 20
14.00749577363134
 30
0.0
 10
194.6162810745736
 20
14.01756448170734
 30
0.0
 10
194.7277314353502
 20
14.01294644211998
 30
0.0
 10
194.8497533443824
 20
14.01413328905468
 30
0.0
 10
194.9719538137823
 20
14.01515863900633
 30
0.0
 10
195.0829794287392
 20
14.010924756234
 30
0.0
 10
195.1476517413958
 20
14.02018584521738
 30
0.0
 10
195.2091162810501
 20
14.00604423049681
 30
0.0
 10
195.1930065601337
 20
14.07235527884516
 30
0.0
 10
195.2042980327358
 20
14.14447790121974
 30
0.0
 10
195.1987400822561
 20
14.27513760888285
 30
0.0
 10
195.2008035061691
 20
14.42607323708241
 30
0.0
 10
195.2000167127295
 20
14.59335873107886
 30
0.0
 10
195.2007845215627
 20
14.76061110332303
 30
0.0
 10
195.1988038785628
 20
14.91163289269915
 30
0.0
 10
195.2041306156621
 20
15.04206069552995
 30
0.0
 10
195.1933101388425
 20
15.114654426059
 30
0.0
 10
195.2090326429875
 20
15.18150469436799
 30
0.0
 10
195.143270813249
 20
15.16580512490825
 30
0.0
 10
195.0756367830764
 20
15.17609243083996
 30
0.0
 10
194.9615885293809
 20
15.17113786847123
 30
0.0
 10
194.8451242674902
 20
15.17414128030475
 30
0.0
 10
194.7306554121477
 20
15.16880303143389
 30
0.0
 10
194.6640324657812
 20
15.18001268074826
 30
0.0
 10
194.5990769715186
 20
15.16349132665012
 30
0.0
 10
194.6107989758707
 20
15.21473720477059
 30
0.0
 10
194.6032830189122
 20
15.25950333784091
 30
0.0
 10
194.6107989878835
 20
15.3042694489796
 30
0.0
 10
194.5990769505347
 20
15.3555153612974
 30
0.0
 10
194.66403263392
 20
15.33899381766814
 30
0.0
 10
194.7306533339822
 20
15.35020571373943
 30
0.0
 10
194.8451352858063
 20
15.34485436710663
 30
0.0
 10
194.9615454436962
 20
15.34791188771116
 30
0.0
 10
195.0757660174641
 20
15.34278499010707
 30
0.0
 10
195.1430150439227
 20
15.35345733355597
 30
0.0
 10
195.2083325941438
 20
15.33742082669076
 30
0.0
 10
195.1941391448553
 20
15.39949685750052
 30
0.0
 10
195.2036059462994
 20
15.46586761628762
 30
0.0
 10
195.1990269004085
 20
15.58239972741965
 30
0.0
 10
195.2007696555948
 20
15.71426685022375
 30
0.0
 10
195.1997551495392
 20
15.85615960150273
 30
0.0
 10
195.2017191344372
 20
15.9876905070258
 30
0.0
 10
195.1964668553851
 20
16.10524577283001
 30
0.0
 10
195.2073408763475
 20
16.16947789001584
 30
0.0
 10
195.1919536641853
 20
16.23108802545047
 30
0.0
 10
195.24075915378
 20
16.21702407382111
 30
0.0
 10
195.2853995564725
 20
16.21954742075313
 30
0.0
 10
195.3538643946742
 20
16.21512797401709
 30
0.0
 10
195.3959106169103
 20
16.20613025544034
 30
0.0
 10
195.4487544758775
 20
16.21411714866509
 30
0.0
 10
195.4207035002014
 20
16.17113917611674
 30
0.0
 10
195.3749142248593
 20
16.18259552043836
 30
0.0
 10
195.3869539073266
 20
16.12173520005137
 30
0.0
 10
195.379608607064
 20
16.05769299468773
 30
0.0
 10
195.3831195826162
 20
15.94909368863911
 30
0.0
 10
195.3819806760173
 20
15.82494319144753
 30
0.0
 10
195.3819174780263
 20
15.69189719829877
 30
0.0
 10
195.3832872966869
 20
15.56797381249555
 30
0.0
 10
195.3791638801313
 20
15.45868337849337
 30
0.0
 10
195.3877763103564
 20
15.39608580094169
 30
0.0
 10
195.3746757454402
 20
15.33740133296364
 30
0.0
 10
195.4393884328198
 20
15.35362113810901
 30
0.0
 10
195.5060405953156
 20
15.34270260383311
 30
0.0
 10
195.6198779541103
 20
15.34793740173755
 30
0.0
 10
195.7357259122097
 20
15.34485547516912
 30
0.0
 10
195.849692426328
 20
15.35018259812512
 30
0.0
 10
195.9160341018099
 20
15.33904208166541
 30
0.0
 10
195.980718852548
 20
15.35546979593177
 30
0.0
 10
195.9689820772722
 20
15.30425925210049
 30
0.0
 10
195.9765168063041
 20
15.25950334121001
 30
0.0
 10
195.9689820992257
 20
15.21474739010027
 30
0.0
 10
195.9807188140736
 20
15.16353690871041
 30
0.0
 10
195.9160344075252
 20
15.1799642779422
 30
0.0
 10
195.8496886430824
 20
15.1688278444727
 30
0.0
 10
195.7357459487012
 20
15.17413115893121
 30
0.0
 10
195.6197995623054
 20
15.17114764593544
 30
0.0
 10
195.5062756882122
 20
15.17606892268395
 30
0.0
 10
195.4389231318804
 20
15.1658508751352
 30
0.0
 10
195.3734285122495
 20
15.18145996138816
 30
0.0
 10
195.3891713619218
 20
15.11463851827411
 30
0.0
 10
195.3783275998213
 20
15.04207057815879
 30
0.0
 10
195.3836581629792
 20
14.91162247614416
 30
0.0
 10
195.3817136151855
 20
14.76064558185226
 30
0.0
 10
195.3823133683214
 20
14.59322243934158
 30
0.0
 10
195.3821506559604
 20
14.42656176118371
 30
0.0
 10
195.3821895488136
 20
14.27360142921636
 30
0.0
 10
195.3821816413098
 20
14.14849178985704
 30
0.0
 10
195.3821828382746
 20
14.06507890991419
 30
0.0
 10
195.3821827716207
 20
14.02491778281975
 30
0.0
 10
195.3821827564383
 20
14.01410517385756
 30
0.0
 11
195.3821827564383
 21
14.01410517385756
 31
0.0
 11
195.4100014883675
 21
14.01410517385756
 31
0.0
 11
195.4833417816353
 21
14.01410517385756
 31
0.0
 11
195.5870297824622
 21
14.01410517385756
 31
0.0
 11
195.7058916370687
 21
14.01410517385756
 31
0.0
 11
195.8247534916751
 21
14.01410517385756
 31
0.0
 11
195.928441492502
 21
14.01410517385756
 31
0.0
 11
196.0017817857698
 21
14.01410517385756
 31
0.0
 11
196.029600517699
 21
14.01410517385756
 31
0.0
 11
196.029600517699
 21
13.98651684921169
 31
0.0
 11
196.029600517699
 21
13.92582253499076
 31
0.0
 11
196.029600517699
 21
13.86512822076983
 31
0.0
 11
196.029600517699
 21
13.83753989612396
 31
0.0
 11
195.9994901593494
 21
13.83753989612396
 31
0.0
 11
195.9162438745004
 21
13.83753989612396
 31
0.0
 11
195.7904888484521
 21
13.83753989612396
 31
0.0
 11
195.6328522665041
 21
13.83753989612396
 31
0.0
 11
195.4539613139564
 21
13.83753989612396
 31
0.0
 11
195.2644431761089
 21
13.83753989612396
 31
0.0
 11
195.0749250382613
 21
13.83753989612396
 31
0.0
 11
194.8960340857136
 21
13.83753989612396
 31
0.0
 11
194.7383975037656
 21
13.83753989612396
 31
0.0
 11
194.6126424777172
 21
13.83753989612396
 31
0.0
 11
194.5293961928683
 21
13.83753989612396
 31
0.0
 11
194.4992858345187
 21
13.83753989612396
 31
0.0
 11
194.4992858345187
 21
13.86512822076984
 31
0.0
 11
194.4992858345187
 21
13.92582253499076
 31
0.0
 11
194.4992858345187
 21
13.98651684921169
 31
0.0
 11
194.4992858345187
 21
14.01410517385756
 31
0.0
 11
194.5294068064947
 21
14.01410517385756
 31
0.0
 11
194.608816641704
 21
14.01410517385756
 31
0.0
 11
194.721085719069
 21
14.01410517385756
 31
0.0
 11
194.8497844175118
 21
14.01410517385756
 31
0.0
 11
194.9784831159545
 21
14.01410517385756
 31
0.0
 11
195.0907521933195
 21
14.01410517385756
 31
0.0
 11
195.1701620285289
 21
14.01410517385756
 31
0.0
 11
195.2002830005048
 21
14.01410517385756
 31
0.0
 11
195.2002830005048
 21
14.04654305523834
 31
0.0
 11
195.2002830005048
 21
14.13458873327189
 31
0.0
 11
195.2002830005048
 21
14.26434025879502
 31
0.0
 11
195.2002830005048
 21
14.42189568264453
 31
0.0
 11
195.2002830005048
 21
14.59335305565724
 31
0.0
 11
195.2002830005048
 21
14.76481042866994
 31
0.0
 11
195.2002830005048
 21
14.92236585251945
 31
0.0
 11
195.2002830005048
 21
15.05211737804258
 31
0.0
 11
195.2002830005048
 21
15.14016305607613
 31
0.0
 11
195.2002830005048
 21
15.17260093745691
 31
0.0
 11
195.1673826485529
 21
15.17260093745691
 31
0.0
 11
195.0825343724662
 21
15.17260093745691
 31
0.0
 11
194.9665173418988
 21
15.17260093745691
 31
0.0
 11
194.8401107265044
 21
15.17260093745691
 31
0.0
 11
194.724093695937
 21
15.17260093745691
 31
0.0
 11
194.6392454198503
 21
15.17260093745691
 31
0.0
 11
194.6063450678984
 21
15.17260093745691
 31
0.0
 11
194.6063450678984
 21
15.19975793614803
 31
0.0
 11
194.6063450678984
 21
15.2595033332685
 31
0.0
 11
194.6063450678984
 21
15.31924873038897
 31
0.0
 11
194.6063450678984
 21
15.34640572908009
 31
0.0
 11
194.6392454198504
 21
15.34640572908009
 31
0.0
 11
194.724093695937
 21
15.34640572908009
 31
0.0
 11
194.8401107265044
 21
15.34640572908009
 31
0.0
 11
194.9665173418988
 21
15.34640572908009
 31
0.0
 11
195.0825343724662
 21
15.34640572908009
 31
0.0
 11
195.1673826485529
 21
15.34640572908009
 31
0.0
 11
195.2002830005048
 21
15.34640572908009
 31
0.0
 11
195.2002830005048
 21
15.37650011731369
 31
0.0
 11
195.2002830005048
 21
15.45715307777973
 31
0.0
 11
195.2002830005048
 21
15.57391930412608
 31
0.0
 11
195.2002830005048
 21
15.71235349000063
 31
0.0
 11
195.2002830005048
 21
15.85801032905123
 31
0.0
 11
195.2002830005048
 21
15.99644451492578
 31
0.0
 11
195.2002830005048
 21
16.11321074127213
 31
0.0
 11
195.2002830005048
 21
16.19386370173817
 31
0.0
 11
195.2002830005048
 21
16.22395808997177
 31
0.0
 11
195.2250405288618
 21
16.22228324219441
 31
0.0
 11
195.2840777118669
 21
16.21828937441765
 31
0.0
 11
195.3545414464214
 21
16.21352249997441
 31
0.0
 11
195.4135786294265
 21
16.20952863219764
 31
0.0
 11
195.4383361577835
 21
16.20785378442028
 31
0.0
 11
195.423306722403
 21
16.1841581420651
 31
0.0
 11
195.3821827564383
 21
16.17047697887404
 31
0.0
 11
195.3821827564383
 21
16.14221664794832
 31
0.0
 11
195.3821827564383
 21
16.06647896106739
 31
0.0
 11
195.3821827564383
 21
15.95682887707561
 31
0.0
 11
195.3821827564383
 21
15.8268313548173
 31
0.0
 11
195.3821827564383
 21
15.69005135313683
 31
0.0
 11
195.3821827564383
 21
15.56005383087852
 31
0.0
 11
195.3821827564383
 21
15.45040374688673
 31
0.0
 11
195.3821827564383
 21
15.37466606000581
 31
0.0
 11
195.3821827564383
 21
15.34640572908009
 31
0.0
 11
195.4149350096115
 21
15.34640572908009
 31
0.0
 11
195.4994013467422
 21
15.34640572908009
 31
0.0
 11
195.6148961342476
 21
15.34640572908009
 31
0.0
 11
195.7407337385445
 21
15.34640572908009
 31
0.0
 11
195.8562285260498
 21
15.34640572908009
 31
0.0
 11
195.9406948631806
 21
15.34640572908009
 31
0.0
 11
195.9734471163538
 21
15.34640572908009
 31
0.0
 11
195.9734471163538
 21
15.31924873038897
 31
0.0
 11
195.9734471163538
 21
15.2595033332685
 31
0.0
 11
195.9734471163538
 21
15.19975793614803
 31
0.0
 11
195.9734471163538
 21
15.17260093745691
 31
0.0
 11
195.9406948631806
 21
15.17260093745691
 31
0.0
 11
195.8562285260498
 21
15.17260093745691
 31
0.0
 11
195.7407337385445
 21
15.17260093745691
 31
0.0
 11
195.6148961342476
 21
15.17260093745691
 31
0.0
 11
195.4994013467422
 21
15.17260093745691
 31
0.0
 11
195.4149350096114
 21
15.17260093745691
 31
0.0
 11
195.3821827564383
 21
15.17260093745691
 31
0.0
 11
195.3821827564383
 21
15.14016305607613
 31
0.0
 11
195.3821827564383
 21
15.05211737804258
 31
0.0
 11
195.3821827564383
 21
14.92236585251945
 31
0.0
 11
195.3821827564383
 21
14.76481042866994
 31
0.0
 11
195.3821827564383
 21
14.59335305565724
 31
0.0
 11
195.3821827564383
 21
14.42189568264453
 31
0.0
 11
195.3821827564383
 21
14.26434025879502
 31
0.0
 11
195.3821827564383
 21
14.13458873327189
 31
0.0
 11
195.3821827564383
 21
14.04654305523834
 31
0.0
 11
195.3821827564383
 21
14.01410517385756
 31
0.0
  0
SPLINE
  5
109
102
{ACAD_REACTORS
330
126
102
}
330
4D
100
AcDbEntity
  8
_U_30EC_U_30A4_U_30E4_U_30FC_1
  6
Continuous
 62
     2
100
AcDbSpline
210
0.0
220
0.0
230
1.0
 70
     8
 71
     3
 72
    62
 73
    58
 74
    56
 42
0.000000001
 43
0.0000000001
 44
0.00000001
 40
0.0
 40
0.0
 40
0.0
 40
0.0
 40
0.0598250028308485
 40
0.2024846486897331
 40
0.3727558389221031
 40
0.515415484793607
 40
0.5752404975785339
 40
0.9332326775487322
 40
1.290451762839484
 40
1.602077253145885
 40
1.69993163411214
 40
1.799359756425049
 40
2.270120149657085
 40
2.804661928461534
 40
2.882342287383243
 40
3.076543185719093
 40
3.329004354835553
 40
3.581465524568379
 40
3.775666424543659
 40
3.853346784558279
 40
3.899120679595025
 40
3.984129341792022
 40
4.029903236817371
 40
4.105797496059528
 40
4.295533144152489
 40
4.542189486611734
 40
4.788845828875686
 40
4.97858147641007
 40
5.054475735244314
 40
5.621734664339336
 40
6.130867242037343
 40
6.225249780948584
 40
6.318913039727279
 40
6.663579954558904
 40
7.047498900224756
 40
7.435230791575686
 40
7.498943906668098
 40
7.650875181210091
 40
7.832212509001602
 40
7.984143783696988
 40
8.047856898903115
 40
8.09155463273262
 40
8.172707566964277
 40
8.216405300768
 40
8.289021782160885
 40
8.462184160757259
 40
8.66886183800534
 40
8.842024215263931
 40
8.914640695475127
 40
8.989881580861333
 40
9.155411528827235
 40
9.320941477744016
 40
9.396182352487266
 40
9.454709011143812
 40
9.583467660170747
 40
9.712226309013026
 40
9.77075295798948
 40
9.77075295798948
 40
9.77075295798948
 40
9.77075295798948
 10
187.1521871691833
 20
14.93980288195951
 30
0.0
 10
187.1322348171623
 20
14.93980875568673
 30
0.0
 10
187.0647037716466
 20
14.93982863806158
 30
0.0
 10
186.9410612161788
 20
14.93949362520326
 30
0.0
 10
186.7863180150056
 20
14.94107673750513
 30
0.0
 10
186.669734948248
 20
14.93686078860496
 30
0.0
 10
186.455094263424
 20
14.95215205331627
 30
0.0
 10
186.8518948407229
 20
14.59198721286192
 30
0.0
 10
186.8945656069268
 20
14.37510503397166
 30
0.0
 10
187.318916214661
 20
14.19325062511446
 30
0.0
 10
187.1439821496074
 20
14.08985196568072
 30
0.0
 10
187.0194523925083
 20
13.87831523212725
 30
0.0
 10
186.7666277235942
 20
14.34806081001562
 30
0.0
 10
186.4797602893628
 20
14.99511516984521
 30
0.0
 10
186.4906335926659
 20
14.68782672154693
 30
0.0
 10
186.488289277796
 20
14.52288616971778
 30
0.0
 10
186.4861096126411
 20
14.28879670711693
 30
0.0
 10
186.4980774396346
 20
14.04498072421783
 30
0.0
 10
186.468798474063
 20
13.89855796860985
 30
0.0
 10
186.511452262547
 20
13.75113490174538
 30
0.0
 10
186.4239814005639
 20
13.7668579730622
 30
0.0
 10
186.3768527606744
 20
13.76694303543455
 30
0.0
 10
186.2898973207713
 20
13.75109425482909
 30
0.0
 10
186.3313474021722
 20
13.89527771422762
 30
0.0
 10
186.3029875004285
 20
14.03855052698455
 30
0.0
 10
186.31459737753
 20
14.27674947365265
 30
0.0
 10
186.3124175648271
 20
14.50517235240347
 30
0.0
 10
186.3103111127994
 20
14.66705729375996
 30
0.0
 10
186.3208035438323
 20
14.98153709333753
 30
0.0
 10
186.0128963252893
 20
14.29229470872436
 30
0.0
 10
185.7055258267455
 20
13.81476750243055
 30
0.0
 10
185.5851367066274
 20
14.03741112637427
 30
0.0
 10
185.4074607910722
 20
14.15011034955568
 30
0.0
 10
185.8853326362894
 20
14.32548143465462
 30
0.0
 10
185.9353959057208
 20
14.56091929252032
 30
0.0
 10
186.3583799621717
 20
14.95322989344609
 30
0.0
 10
186.127675427354
 20
14.93655307029067
 30
0.0
 10
186.004968585934
 20
14.94269518948772
 30
0.0
 10
185.8325483095662
 20
14.93312822699575
 30
0.0
 10
185.7213224694449
 20
14.95448818489667
 30
0.0
 10
185.6025779627447
 20
14.92136265357421
 30
0.0
 10
185.6183169706686
 20
15.00203900606884
 30
0.0
 10
185.6178550933762
 20
15.04645414290855
 30
0.0
 10
185.6027881889931
 20
15.12967081778534
 30
0.0
 10
185.7372380935443
 20
15.09062651983884
 30
0.0
 10
185.8619755545747
 20
15.11739729328423
 30
0.0
 10
186.062875523728
 20
15.10063949044053
 30
0.0
 10
186.1921540949353
 20
15.12204225913005
 30
0.0
 10
186.3328419928294
 20
15.08868778853421
 30
0.0
 10
186.2980927452615
 20
15.22651875785069
 30
0.0
 10
186.3222185666713
 20
15.34963257349481
 30
0.0
 10
186.2967086182393
 20
15.47024055670336
 30
0.0
 10
186.3333251146684
 20
15.60539865141495
 30
0.0
 10
186.2211417027769
 20
15.58094545781891
 30
0.0
 10
186.1280356457136
 20
15.59307749842022
 30
0.0
 10
186.0191547579819
 20
15.58957630069994
 30
0.0
 10
185.9569697640964
 20
15.58981755951603
 30
0.0
 10
185.9375369557246
 20
15.58989295124144
 30
0.0
 11
187.1521871691833
 21
14.93980288195951
 31
0.0
 11
187.0923621563982
 21
14.93980288195951
 31
0.0
 11
186.949702510526
 21
14.93980288195951
 31
0.0
 11
186.7794313202913
 21
14.93980288195951
 31
0.0
 11
186.6367716744191
 21
14.93980288195951
 31
0.0
 11
186.576946661634
 21
14.93980288195951
 31
0.0
 11
186.7679960754842
 21
14.63705127966891
 31
0.0
 11
186.994127278563
 21
14.36051890576684
 31
0.0
 11
187.2244526173371
 21
14.15061253493457
 31
0.0
 11
187.1521596330704
 21
14.08466403668716
 31
0.0
 11
187.0879364402643
 21
14.00876059052561
 31
0.0
 11
186.7732818215558
 21
14.35891458349363
 31
0.0
 11
186.4886640249976
 21
14.811382951436
 31
0.0
 11
186.4886640249976
 21
14.73370259137312
 31
0.0
 11
186.4886640249976
 21
14.53950169121592
 31
0.0
 11
186.4886640249976
 21
14.28704052101156
 31
0.0
 11
186.4886640249976
 21
14.0345793508072
 31
0.0
 11
186.4886640249976
 21
13.84037845065
 31
0.0
 11
186.4886640249976
 21
13.76269809058712
 31
0.0
 11
186.4428901295605
 21
13.76269809058712
 31
0.0
 11
186.3578814666058
 21
13.76269809058712
 31
0.0
 11
186.3121075711687
 21
13.76269809058712
 31
0.0
 11
186.3121075711687
 21
13.8385923498274
 31
0.0
 11
186.3121075711687
 21
14.02832799792812
 31
0.0
 11
186.3121075711687
 21
14.27498434045904
 31
0.0
 11
186.3121075711687
 21
14.52164068298997
 31
0.0
 11
186.3121075711687
 21
14.71137633109067
 31
0.0
 11
186.3121075711687
 21
14.78727059033096
 31
0.0
 11
185.9987626399266
 21
14.31440946197694
 31
0.0
 11
185.6352328662148
 21
13.95795177109383
 31
0.0
 11
185.5773927461627
 21
14.03253450545023
 31
0.0
 11
185.5094852305341
 21
14.09704322939243
 31
0.0
 11
185.7750721898319
 21
14.31672219795891
 31
0.0
 11
186.0233764972061
 21
14.60953395971699
 31
0.0
 11
186.226498280526
 21
14.93980288195951
 31
0.0
 11
186.1627851652721
 21
14.93980288195951
 31
0.0
 11
186.0108538904359
 21
14.93980288195951
 31
0.0
 11
185.8295165624055
 21
14.93980288195951
 31
0.0
 11
185.6775852875693
 21
14.93980288195951
 31
0.0
 11
185.6138721723154
 21
14.93980288195951
 31
0.0
 11
185.6138721723154
 21
14.98350061600209
 31
0.0
 11
185.6138721723154
 21
15.0646535506526
 31
0.0
 11
185.6138721723154
 21
15.10835128469518
 31
0.0
 11
185.6864886537961
 21
15.10835128469518
 31
0.0
 11
185.8596510327118
 21
15.10835128469518
 31
0.0
 11
186.0663287107723
 21
15.10835128469518
 31
0.0
 11
186.239491089688
 21
15.10835128469518
 31
0.0
 11
186.3121075711687
 21
15.10835128469518
 31
0.0
 11
186.3121075711687
 21
15.18359217009304
 31
0.0
 11
186.3121075711687
 21
15.34912211796831
 31
0.0
 11
186.3121075711687
 21
15.51465206584359
 31
0.0
 11
186.3121075711687
 21
15.58989295124144
 31
0.0
 11
186.2535809125055
 21
15.58989295124144
 31
0.0
 11
186.1248222634467
 21
15.58989295124144
 31
0.0
 11
185.9960636143877
 21
15.58989295124144
 31
0.0
 11
185.9375369557246
 21
15.58989295124144
 31
0.0
  0
SPLINE
  5
10A
102
{ACAD_REACTORS
330
126
102
}
330
4D
100
AcDbEntity
  8
_U_30EC_U_30A4_U_30E4_U_30FC_1
  6
Continuous
 62
     2
100
AcDbSpline
210
0.0
220
0.0
230
1.0
 70
     8
 71
     3
 72
    70
 73
    66
 74
    64
 42
0.000000001
 43
0.0000000001
 44
0.00000001
 40
0.0
 40
0.0
 40
0.0
 40
0.0
 40
0.0241731073021472
 40
0.0846058988987013
 40
0.1631685280353284
 40
0.2417311571789756
 40
0.3021639488292751
 40
0.3263370654895541
 40
0.3533118254248881
 40
0.4228783438922111
 40
0.5179999095313402
 40
0.6216398239466102
 40
0.7167613891499706
 40
0.7863279069649863
 40
0.8133026791761836
 40
0.8372943998771674
 40
0.8945054261372869
 40
0.9627895541962639
 40
1.020000580349074
 40
1.043992300975172
 40
1.071934345522902
 40
1.113121768772912
 40
1.145225199332236
 40
1.225483775412775
 40
1.329819923771487
 40
1.434156071994376
 40
1.514414647795801
 40
1.546518078208409
 40
1.578974764260183
 40
1.662678849314178
 40
1.777131373668398
 40
1.901833377474789
 40
2.016285900500579
 40
2.099989982527946
 40
2.132446666570305
 40
2.158782354486027
 40
2.216720867907817
 40
2.27465938133424
 40
2.300995069256174
 40
2.333451754066147
 40
2.417155836543827
 40
2.531608358985267
 40
2.656310362283762
 40
2.770762886388894
 40
2.854466971340059
 40
2.886923657363866
 40
2.9135979768333
 40
2.982389642875102
 40
3.076451716946965
 40
3.178937260458577
 40
3.272999334739978
 40
3.341791001059198
 40
3.36846532066351
 40
3.396976080738732
 40
3.472140811845968
 40
3.578408190308657
 40
3.700226892456094
 40
3.822045594634311
 40
3.928312973256418
 40
4.003477705314815
 40
4.03198845686688
 40
4.058324144797679
 40
4.11626265823684
 40
4.17420117140064
 40
4.200536849608572
 40
4.200536849608572
 40
4.200536849608572
 40
4.200536849608572
 10
185.9857704961609
 20
15.75844135397705
 30
0.0
 10
185.9938259544679
 20
15.75844359811686
 30
0.0
 10
186.0220200663241
 20
15.75845146032798
 30
0.0
 10
186.0765534803672
 20
15.75830754828372
 30
0.0
 10
186.1482891808604
 20
15.75909120499898
 30
0.0
 10
186.2236240137062
 20
15.75627570463811
 30
0.0
 10
186.2713052366438
 20
15.76298403400957
 30
0.0
 10
186.3195071245616
 20
15.75197563692433
 30
0.0
 10
186.3062571799873
 20
15.80546402997033
 30
0.0
 10
186.3151093964539
 20
15.86049583543092
 30
0.0
 10
186.3108698036285
 20
15.95419908726109
 30
0.0
 10
186.313348348128
 20
16.04959482218532
 30
0.0
 10
186.309093870606
 20
16.14356821983387
 30
0.0
 10
186.3179818665846
 20
16.19795062438012
 30
0.0
 10
186.3046977409945
 20
16.25233997691461
 30
0.0
 10
186.3514119277109
 20
16.23842216335358
 30
0.0
 10
186.3943254545736
 20
16.24103877374043
 30
0.0
 10
186.4605443456685
 20
16.23648422450755
 30
0.0
 10
186.5013342271798
 20
16.22778162134162
 30
0.0
 10
186.5525145690819
 20
16.23531799890195
 30
0.0
 10
186.52537204872
 20
16.19349970223285
 30
0.0
 10
186.4803096055707
 20
16.20284992072597
 30
0.0
 10
186.4942065045051
 20
16.13841207371838
 30
0.0
 10
186.4858414431654
 20
16.073782196274
 30
0.0
 10
186.4903632178399
 20
15.97529141193888
 30
0.0
 10
186.4854741311167
 20
15.87595932842571
 30
0.0
 10
186.4950258992081
 20
15.81293115552969
 30
0.0
 10
186.4799761455201
 20
15.74964011499789
 30
0.0
 10
186.5449159457208
 20
15.76515072944269
 30
0.0
 10
186.6116246399496
 20
15.75499387697812
 30
0.0
 10
186.7241435470828
 20
15.75988800099367
 30
0.0
 10
186.8390235448953
 20
15.75691204732783
 30
0.0
 10
186.9519871999747
 20
15.76221664184991
 30
0.0
 10
187.0176267597677
 20
15.75107306472089
 30
0.0
 10
187.0816276691053
 20
15.76744532319857
 30
0.0
 10
187.0703142889189
 20
15.71761689905274
 30
0.0
 10
187.077533987151
 20
15.67416715212123
 30
0.0
 10
187.0703142611268
 20
15.63071745587445
 30
0.0
 10
187.0816277175994
 20
15.58088895196876
 30
0.0
 10
187.0176263598971
 20
15.59726166091362
 30
0.0
 10
186.951992124046
 20
15.58611271661588
 30
0.0
 10
186.838997431733
 20
15.59144857206854
 30
0.0
 10
186.7242456548644
 20
15.58834345663822
 30
0.0
 10
186.611318368686
 20
15.59364894682588
 30
0.0
 10
186.5455220903585
 20
15.58257300019594
 30
0.0
 10
186.4816097975358
 20
15.59887597847617
 30
0.0
 10
186.4936015165126
 20
15.54423524395742
 30
0.0
 10
186.4862104613006
 20
15.48854295047842
 30
0.0
 10
186.4892684841982
 20
15.3964968914057
 30
0.0
 10
186.4893422785683
 20
15.30179109873102
 30
0.0
 10
186.4860313578359
 20
15.20952782902266
 30
0.0
 10
186.4939505989903
 20
15.1543576873614
 30
0.0
 10
186.4815076611617
 20
15.10058169100137
 30
0.0
 10
186.5389116551632
 20
15.11453768862782
 30
0.0
 10
186.5994708140382
 20
15.10511457884227
 30
0.0
 10
186.7048680855081
 20
15.10942885928705
 30
0.0
 10
186.8204294070622
 20
15.10835504612032
 30
0.0
 10
186.9359688877797
 20
15.10725965900995
 30
0.0
 10
187.0414181130841
 20
15.11162525770633
 30
0.0
 10
187.1018680471804
 20
15.10209426030672
 30
0.0
 10
187.159283773911
 20
15.1161728960638
 30
0.0
 10
187.1477773876709
 20
15.06707153265684
 30
0.0
 10
187.153756678175
 20
15.0256465801865
 30
0.0
 10
187.1520311050801
 20
14.97651677966696
 30
0.0
 10
187.1521500122971
 20
14.94854428447609
 30
0.0
 10
187.1521871691833
 20
14.93980288195951
 30
0.0
 11
185.9857704961609
 21
15.75844135397705
 31
0.0
 11
186.0099436128282
 21
15.75844135397705
 31
0.0
 11
186.0703764044962
 21
15.75844135397705
 31
0.0
 11
186.1489390336648
 21
15.75844135397705
 31
0.0
 11
186.2275016628334
 21
15.75844135397705
 31
0.0
 11
186.2879344545015
 21
15.75844135397705
 31
0.0
 11
186.3121075711687
 21
15.75844135397705
 31
0.0
 11
186.3121075711687
 21
15.78541612620063
 31
0.0
 11
186.3121075711687
 21
15.85498264404039
 31
0.0
 11
186.3121075711687
 21
15.95010420924985
 31
0.0
 11
186.3121075711687
 21
16.05374412358256
 31
0.0
 11
186.3121075711687
 21
16.14886568879202
 31
0.0
 11
186.3121075711687
 21
16.21843220663178
 31
0.0
 11
186.3121075711687
 21
16.24540697885536
 31
0.0
 11
186.3360407604892
 21
16.243732131078
 31
0.0
 11
186.3931122119458
 21
16.23973826330121
 31
0.0
 11
186.461229750781
 21
16.23497138885795
 31
0.0
 11
186.5183012022376
 21
16.23097752108117
 31
0.0
 11
186.5422343915581
 21
16.22930267330381
 31
0.0
 11
186.5274972731229
 21
16.2055629337264
 31
0.0
 11
186.4886640249976
 21
16.19183767331313
 31
0.0
 11
186.4886640249976
 21
16.1597342422512
 31
0.0
 11
186.4886640249976
 21
16.07947566459637
 31
0.0
 11
186.4886640249976
 21
15.97513951364509
 31
0.0
 11
186.4886640249976
 21
15.87080336269381
 31
0.0
 11
186.4886640249976
 21
15.79054478503898
 31
0.0
 11
186.4886640249976
 21
15.75844135397705
 31
0.0
 11
186.5211207110824
 21
15.75844135397705
 31
0.0
 11
186.6048247962486
 21
15.75844135397705
 31
0.0
 11
186.7192773208634
 21
15.75844135397705
 31
0.0
 11
186.8439793252946
 21
15.75844135397705
 31
0.0
 11
186.9584318499095
 21
15.75844135397705
 31
0.0
 11
187.0421359350756
 21
15.75844135397705
 31
0.0
 11
187.0745926211604
 21
15.75844135397705
 31
0.0
 11
187.0745926211604
 21
15.73210566604961
 31
0.0
 11
187.0745926211604
 21
15.67416715260924
 31
0.0
 11
187.0745926211604
 21
15.61622863916888
 31
0.0
 11
187.0745926211604
 21
15.58989295124144
 31
0.0
 11
187.0421359350756
 21
15.58989295124144
 31
0.0
 11
186.9584318499095
 21
15.58989295124144
 31
0.0
 11
186.8439793252946
 21
15.58989295124144
 31
0.0
 11
186.7192773208634
 21
15.58989295124144
 31
0.0
 11
186.6048247962485
 21
15.58989295124144
 31
0.0
 11
186.5211207110824
 21
15.58989295124144
 31
0.0
 11
186.4886640249976
 21
15.58989295124144
 31
0.0
 11
186.4886640249976
 21
15.56321863152022
 31
0.0
 11
186.4886640249976
 21
15.49442696487075
 31
0.0
 11
186.4886640249976
 21
15.40036489006434
 31
0.0
 11
186.4886640249976
 21
15.29787934587228
 31
0.0
 11
186.4886640249976
 21
15.20381727106587
 31
0.0
 11
186.4886640249976
 21
15.1350256044164
 31
0.0
 11
186.4886640249976
 21
15.10835128469518
 31
0.0
 11
186.5171747850993
 21
15.10835128469518
 31
0.0
 11
186.5923395162766
 21
15.10835128469518
 31
0.0
 11
186.6986068948376
 21
15.10835128469518
 31
0.0
 11
186.8204255970904
 21
15.10835128469518
 31
0.0
 11
186.9422442993433
 21
15.10835128469518
 31
0.0
 11
187.0485116779043
 21
15.10835128469518
 31
0.0
 11
187.1236764090816
 21
15.10835128469518
 31
0.0
 11
187.1521871691833
 21
15.10835128469518
 31
0.0
 11
187.1521871691833
 21
15.08201559676773
 31
0.0
 11
187.1521871691833
 21
15.02407708332735
 31
0.0
 11
187.1521871691833
 21
14.96613856988696
 31
0.0
 11
187.1521871691833
 21
14.93980288195951
 31
0.0
  0
SPLINE
  5
10B
102
{ACAD_REACTORS
330
126
102
}
330
4D
100
AcDbEntity
  8
_U_30EC_U_30A4_U_30E4_U_30FC_1
  6
Continuous
 62
     2
100
AcDbSpline
210
0.0
220
0.0
230
1.0
 70
     8
 71
     3
 72
    24
 73
    20
 74
    18
 42
0.000000001
 43
0.0000000001
 44
0.00000001
 40
0.0
 40
0.0
 40
0.0
 40
0.0
 40
0.2211075008753987
 40
0.4273218586245354
 40
0.5080174679239279
 40
0.5914835907870152
 40
0.8143265690192731
 40
1.054651302686589
 40
1.295452694023176
 40
1.518109231328829
 40
1.540864321905445
 40
1.595126460622706
 40
1.659890947896019
 40
1.714153085187378
 40
1.736908174961678
 40
1.764951100735365
 40
1.801562291220954
 40
1.953914424543635
 40
2.126104167379711
 40
2.126104167379711
 40
2.126104167379711
 40
2.126104167379711
 10
185.9375369556889
 20
15.58989295113017
 30
0.0
 10
185.9112579081812
 20
15.53097628234375
 30
0.0
 10
185.8604698894425
 20
15.41711139679257
 30
0.0
 10
185.8131784839111
 20
15.14441958233118
 30
0.0
 10
185.7043482802618
 20
15.24445482575453
 30
0.0
 10
185.5514800279637
 20
15.27118593367329
 30
0.0
 10
185.7686155181199
 20
15.48518135017632
 30
0.0
 10
185.783848367438
 20
15.70332117782487
 30
0.0
 10
185.8906889492002
 20
15.88451579066426
 30
0.0
 10
185.8305380947075
 20
16.16913226311401
 30
0.0
 10
185.9334317395402
 20
16.14114089222451
 30
0.0
 10
185.977993346815
 20
16.13243251602299
 30
0.0
 10
186.0380842395397
 20
16.12139654183355
 30
0.0
 10
186.0756619587438
 20
16.10767523055559
 30
0.0
 10
186.1252466928606
 20
16.10756076160223
 30
0.0
 10
186.0930158919325
 20
16.07306592398623
 30
0.0
 10
186.0171802221881
 20
16.08404104537964
 30
0.0
 10
186.0429447159694
 20
15.89858969582449
 30
0.0
 10
186.0055896763849
 20
15.80702313549589
 30
0.0
 10
185.9857704961609
 20
15.75844135397705
 30
0.0
 11
185.9375369556889
 21
15.58989295113017
 31
0.0
 11
185.8616471328552
 21
15.38221708318559
 31
0.0
 11
185.7717402238433
 21
15.19663392356193
 31
0.0
 11
185.701149392311
 21
15.2357327256355
 31
0.0
 11
185.6245525192651
 21
15.26889163187718
 31
0.0
 11
185.7214026947455
 21
15.46958801203538
 31
0.0
 11
185.7994641467471
 21
15.69688163177024
 31
0.0
 11
185.858971692972
 21
15.93021436608691
 31
0.0
 11
185.9001601511226
 21
16.14902808999054
 31
0.0
 11
185.9224183822214
 21
16.14429889221395
 31
0.0
 11
185.975495702534
 21
16.13302157443899
 31
0.0
 11
186.0388460525844
 21
16.11956154999792
 31
0.0
 11
186.091923372897
 21
16.10828423222296
 31
0.0
 11
186.1141816039958
 21
16.10355503444637
 31
0.0
 11
186.096409715746
 21
16.0818625084101
 31
0.0
 11
186.0606122998071
 21
16.07418628445367
 31
0.0
 11
186.028195330148
 21
15.92532288171313
 31
0.0
 11
185.9857704961609
 21
15.75844135397705
 31
0.0
  0
LWPOLYLINE
  5
10C
102
{ACAD_REACTORS
330
127
102
}
330
4D
100
AcDbEntity
  8
_U_30EC_U_30A4_U_30E4_U_30FC_1
  6
Continuous
 62
     2
100
AcDbPolyline
 90
        5
 70
     1
 43
0.0
 10
191.1602971697031
 20
15.39722336795626
 10
192.4578138032672
 20
15.39722336795626
 10
192.4578138032672
 20
15.22875434022058
 10
191.1602971697031
 20
15.22875434022058
 10
191.1602971697031
 20
15.39722336795626
  0
MTEXT
  5
10E
330
4D
100
AcDbEntity
  8
1
 62
   250
100
AcDbMText
 10
25.0
 20
5.0
 30
0.0
 40
3.5
 41
0.0
 71
     4
 72
     1
  1
備考欄の文字列 原点位置=4
  7
CONVERTER_11
 73
     1
 44
0.54545454545455
  0
MTEXT
  5
10F
330
4D
100
AcDbEntity
  8
1
 62
     2
100
AcDbMText
 10
89.5
 20
24.0
 30
0.0
 40
3.5
 41
0.0
 71
     5
 72
     1
  1
尺度
  7
CONVERTER_11
 73
     1
 44
0.54545454545455
  0
MTEXT
  5
110
330
4D
100
AcDbEntity
  8
1
 62
     2
100
AcDbMText
 10
135.5
 20
25.0
 30
0.0
 40
3.0
 41
0.0
 71
     5
 72
     1
  1
製図
  7
CONVERTER_11
 73
     1
 44
0.59090909090909
  0
MTEXT
  5
111
330
4D
100
AcDbEntity
  8
1
 62
     2
100
AcDbMText
 10
152.5
 20
25.0
 30
0.0
 40
3.0
 41
0.0
 71
     5
 72
     1
  1
担当
  7
CONVERTER_11
 73
     1
 44
0.59090909090909
  0
MTEXT
  5
112
330
4D
100
AcDbEntity
  8
1
 62
     2
100
AcDbMText
 10
118.5
 20
25.0
 30
0.0
 40
3.0
 41
0.0
 71
     5
 72
     1
  1
検図
  7
CONVERTER_11
 73
     1
 44
0.59090909090909
  0
MTEXT
  5
113
330
4D
100
AcDbEntity
  8
1
 62
     2
100
AcDbMText
 10
175.0
 20
23.5
 30
0.0
 40
3.5
 41
0.0
 71
     5
 72
     1
  1
第三角法
  7
CONVERTER_11
 73
     1
 44
0.54545454545455
  0
MTEXT
  5
114
330
4D
100
AcDbEntity
  8
1
 62
     2
100
AcDbMText
 10
101.5
 20
25.0
 30
0.0
 40
3.0
 41
0.0
 71
     5
 72
     1
  1
承認
  7
CONVERTER_11
 73
     1
 44
0.59090909090909
  0
MTEXT
  5
115
330
4D
100
AcDbEntity
  8
1
 62
     2
100
AcDbMText
 10
29.0
 20
14.25
 30
0.0
 40
3.5
 41
0.0
 71
     5
 72
     1
  1
品番
  7
CONVERTER_11
 73
     1
 44
0.72727272727273
  0
MTEXT
  5
116
330
4D
100
AcDbEntity
  8
1
 62
     2
100
AcDbMText
 10
29.0
 20
22.75
 30
0.0
 40
3.5
 41
0.0
 71
     5
 72
     1
  1
品名
  7
CONVERTER_11
 73
     1
 44
0.72727272727273
  0
MTEXT
  5
117
330
4D
100
AcDbEntity
  8
1
 62
     2
100
AcDbMText
 10
29.0
 20
34.0
 30
0.0
 40
3.5
 41
0.0
 71
     5
 72
     1
  1
備考
  7
CONVERTER_11
 73
     1
 44
0.45454545454545
  0
MTEXT
  5
118
330
4D
100
AcDbEntity
  8
1
 62
     2
100
AcDbMText
 10
32.5
 20
282.0000000000003
 30
0.0
 40
5.0
 41
0.0
 71
     5
 72
     1
  1
図番
  7
CONVERTER_11
 73
     1
 44
0.45454545454545
  0
HATCH
  5
119
330
4D
100
AcDbEntity
  8
1
  6
Continuous
 62
     2
100
AcDbHatch
 10
0.0
 20
0.0
 30
0.0
210
0.0
220
0.0
230
1.0
  2
CUSTOM0
 70
     0
 71
     1
 91
        1
 92
        1
 93
        1
 72
     4
 94
        3
 73
     0
 74
     0
 95
       99
 96
       95
 40
0.0
 40
0.0
 40
0.0
 40
0.0
 40
0.0796417172272386
 40
0.1621768542355955
 40
0.2486489160957608
 40
0.3404969668524566
 40
0.4381912511164575
 40
0.5434463660244873
 40
0.6518115192847189
 40
0.7530190937886773
 40
0.8492196919725035
 40
0.9419290312998099
 40
1.034249663570028
 40
1.129078600620186
 40
1.226697027573219
 40
1.327220425421675
 40
1.470572134937996
 40
1.59548986337119
 40
1.719934125348377
 40
1.850576620127388
 40
1.989059629987284
 40
2.134139054226901
 40
2.280698007207189
 40
2.424529739039458
 40
2.56592957698582
 40
2.70823926077352
 40
2.861717887443642
 40
3.045168540347341
 40
3.183798301138582
 40
3.314813961455438
 40
3.442083470447293
 40
3.569912708372946
 40
3.702177512509348
 40
3.842307559659512
 40
3.992872223245916
 40
4.156750662218305
 40
4.310981861107526
 40
4.44585990932257
 40
4.572393936131567
 40
4.701656719781972
 40
4.768279086008453
 40
4.835960697898384
 40
4.912788918729319
 40
5.006285208481535
 40
5.026909478751612
 40
5.047533749021176
 40
5.10180803147126
 40
5.162325165538546
 40
5.226919745995868
 40
5.294231806596739
 40
5.364544852554888
 40
5.438319055467937
 40
5.51787765132427
 40
5.607647714861582
 40
5.700449642544428
 40
5.788251142364158
 40
5.872714706039793
 40
5.95516729257531
 40
6.037192395190404
 40
6.120669181469139
 40
6.206848616686369
 40
6.296680855416791
 40
6.442558392872612
 40
6.5681903716083
 40
6.692904567360381
 40
6.82422044655716
 40
6.963121850329398
 40
7.107843738851181
 40
7.253431663907296
 40
7.395187468036722
 40
7.533140753237774
 40
7.670550457175252
 40
7.81623651176928
 40
7.987691657359253
 40
8.142277421969268
 40
8.293662615415034
 40
8.44296246087929
 40
8.591598316185342
 40
8.74367899236182
 40
8.9037253236992
 40
9.07630700889055
 40
9.265578604680606
 40
9.45920379536078
 40
9.617619810273569
 40
9.753609671361925
 40
9.874873300004102
 40
9.954520184977802
 40
10.02416413719247
 40
10.09769764405446
 40
10.18909955924974
 40
10.20974586420135
 40
10.23039218263381
 40
10.30057101881266
 40
10.37632012987547
 40
10.37632012987547
 40
10.37632012987547
 40
10.37632012987547
 10
170.1465954835851
 20
14.13795663215993
 10
170.1632217851219
 20
14.11720608845312
 10
170.1970784206577
 20
14.07495111711902
 10
170.2599822541036
 20
14.02029811392072
 10
170.3332500940392
 20
13.9729902512105
 10
170.4175969238636
 20
13.93527231437935
 10
170.5132240615459
 20
13.91040619731951
 10
170.6171853775346
 20
13.90309559345939
 10
170.7224020220405
 20
13.91142322794053
 10
170.8206626371334
 20
13.9414917965153
 10
170.9058986427548
 20
13.98848822971876
 10
170.9779220206103
 20
14.04952991250859
 10
171.0350917709096
 20
14.12412969578583
 10
171.0767868747439
 20
14.21002464660174
 10
171.1026952846292
 20
14.30485850432211
 10
171.1118037332653
 20
14.41854979038366
 10
171.0986864796487
 20
14.54332587770778
 10
171.0325330334414
 20
14.66014719171892
 10
170.9369370919569
 20
14.74512539577373
 10
170.8249681022369
 20
14.8141668445916
 10
170.6993659583269
 20
14.87204142045891
 10
170.5656691620856
 20
14.9237372328434
 10
170.4313122818831
 20
14.97899092397181
 10
170.3051983986877
 20
15.04939770641649
 10
170.1926579987535
 20
15.13785540731248
 10
170.0969963064458
 20
15.24981067868472
 10
170.0334157151825
 20
15.39949910101382
 10
170.0200706505015
 20
15.55932794385141
 10
170.0320510987448
 20
15.71048405306844
 10
170.071229892884
 20
15.83809244591538
 10
170.1354987750911
 20
15.95080874030846
 10
170.2238204999739
 20
16.04648609268686
 10
170.3338091207628
 20
16.12354214985754
 10
170.4632284401264
 20
16.18151396936277
 10
170.6111838967793
 20
16.21739177588822
 10
170.7682069455487
 20
16.22746719050564
 10
170.917494046643
 20
16.21863637762591
 10
171.059625361417
 20
16.19074899340354
 10
171.1595922609625
 20
16.13413314701138
 10
171.3125074736186
 20
16.08674602105506
 10
171.2455131717168
 20
16.00197553001184
 10
171.2296479120268
 20
15.93438901873484
 10
171.1978750531297
 20
15.8692609279319
 10
171.215020220957
 20
15.76723453256951
 10
171.1666427208231
 20
15.774932116819
 10
171.1315789440766
 20
15.76806771724807
 10
171.1296697985717
 20
15.83263831158195
 10
171.0985692931989
 20
15.87825639621395
 10
171.0664551628455
 20
15.93561036628455
 10
171.0208038475168
 20
15.98540462692559
 10
170.9658508218387
 20
16.02994813718995
 10
170.9010841173007
 20
16.06763988836552
 10
170.8232377310597
 20
16.09283375791352
 10
170.7355160553352
 20
16.0993123099811
 10
170.6452903277806
 20
16.09235709285608
 10
170.5594594694064
 20
16.06909190460922
 10
170.4828343638596
 20
16.03131644107544
 10
170.4165265636201
 20
15.98051641089574
 10
170.3622560536963
 20
15.91731143407209
 10
170.3224925345459
 20
15.84276455710367
 10
170.2976775510587
 20
15.75917313997763
 10
170.289212426287
 20
15.65192948382285
 10
170.3019697987103
 20
15.52965457267559
 10
170.3681548409273
 20
15.41149724291212
 10
170.4640977399832
 20
15.32606325709527
 10
170.5757914963182
 20
15.25583362306722
 10
170.7010863668702
 20
15.19659162305303
 10
170.8349823941447
 20
15.14616708086132
 10
170.968993033315
 20
15.09322516984382
 10
171.0950885316915
 20
15.02750170625174
 10
171.2076216638417
 20
14.94480352537321
 10
171.3031370284234
 20
14.83996006310075
 10
171.3672706486962
 20
14.69937117251569
 10
171.3811103725279
 20
14.54065409451592
 10
171.367395471223
 20
14.38153155217875
 10
171.3244739153984
 20
14.23483828819212
 10
171.2545906329065
 20
14.10119796587142
 10
171.1574592213829
 20
13.98532387699293
 10
171.0347806023657
 20
13.89089981770087
 10
170.8874408413168
 20
13.82179270651982
 10
170.7177132497125
 20
13.77953210858852
 10
170.5317404979597
 20
13.76781736230406
 10
170.3528955926183
 20
13.77809486683436
 10
170.1881733753743
 20
13.81966573769155
 10
170.0834410841056
 20
13.8879764288394
 10
169.9350960790366
 20
13.93675219032108
 10
169.9980378194729
 20
14.02976591290841
 10
170.0072274430059
 20
14.1029653624828
 10
170.0303711301232
 20
14.16936294501346
 10
170.0034588335316
 20
14.26974809527581
 10
170.0521338956339
 20
14.26234033517378
 10
170.0916530580697
 20
14.26894063620895
 10
170.0996204944702
 20
14.19078703218931
 10
170.1305436967923
 20
14.15600927375856
 10
170.1465954835851
 20
14.13795663215993
 97
        1
330
FB
 75
     1
 76
     2
 52
45.0
 41
0.1
 77
     0
 78
     1
 53
45.0
 43
0.0
 44
0.0
 45
-0.282842712474619
 46
0.0
 79
     0
 98
        1
 10
0.0
 20
0.0
  0
HATCH
  5
11A
330
4D
100
AcDbEntity
  8
1
  6
Continuous
 62
     2
100
AcDbHatch
 10
0.0
 20
0.0
 30
0.0
210
0.0
220
0.0
230
1.0
  2
CUSTOM1
 70
     0
 71
     1
 91
        2
 92
        1
 93
        1
 72
     4
 94
        3
 73
     0
 74
     0
 95
       57
 96
       53
 40
0.0
 40
0.0
 40
0.0
 40
0.0
 40
0.047163208280924
 40
0.0914861054632156
 40
0.1357762519702392
 40
0.1826527001610687
 40
0.2295203288572596
 40
0.2737751972220765
 40
0.3181310461543072
 40
0.3652607198398521
 40
0.4571007286314577
 40
0.5671851029165388
 40
0.6894623283868409
 40
0.8181758272546061
 40
0.9510087229274018
 40
1.085852229674066
 40
1.218126164475323
 40
1.343545131142385
 40
1.454537202956801
 40
1.567187607530811
 40
1.680710966642429
 40
1.794226869736793
 40
1.900009184247593
 40
2.004085860447872
 40
2.10816267445176
 40
2.214000150155305
 40
2.496038577352131
 40
2.762350745479262
 40
2.997275353279403
 40
3.185110082137736
 40
3.246407890063963
 40
3.312607550212694
 40
3.378877742711596
 40
3.440140399651451
 40
4.10050169600648
 40
4.754913085563525
 40
5.41133169342394
 40
6.077890432568722
 40
6.110575292671001
 40
6.143260152775781
 40
6.367989363395171
 40
6.610525374951579
 40
6.863389136467326
 40
7.119380025547608
 40
7.376036605091111
 40
7.631164770966302
 40
7.87672242545644
 40
8.104953735855988
 40
8.312916685924316
 40
8.497730294941311
 40
8.651018984313865
 40
8.764738853624614
 40
8.764738853624614
 40
8.764738853624614
 40
8.764738853624614
 10
174.7922649500513
 20
13.81626739612926
 10
174.7766616726931
 20
13.81826231079077
 10
174.7463947960302
 20
13.82213201360299
 10
174.7010994202252
 20
13.82341984967266
 10
174.6559553129349
 20
13.8230868355405
 10
174.6099017123399
 20
13.82314658674223
 10
174.5640496172096
 20
13.8232581365
 10
174.5183711648164
 20
13.82277833456589
 10
174.4750811541608
 20
13.82461109618722
 10
174.4039947951514
 20
13.80049556814655
 10
174.4057477261441
 20
13.92184693977252
 10
174.358619637057
 20
14.00726239751233
 10
174.3191478251762
 20
14.12486929345135
 10
174.2706635532645
 20
14.24232752540438
 10
174.2201017402523
 20
14.36405935761509
 10
174.1718634610476
 20
14.49075967862465
 10
174.1135232947595
 20
14.59933687784952
 10
174.0980892667261
 20
14.75620657134408
 10
173.9566586330636
 20
14.72373446548322
 10
173.8508397414904
 20
14.73512888682181
 10
173.7358569725222
 20
14.73392591514615
 10
173.6253142252141
 20
14.73506945347409
 10
173.5176583522782
 20
14.73418350037526
 10
173.4121322529242
 20
14.7341660239052
 10
173.3109192682012
 20
14.72714032472415
 10
173.1266804827754
 20
14.75135859859866
 10
173.1157393685411
 20
14.44741691121885
 10
173.008769163475
 20
14.22353177253397
 10
172.9098148604347
 20
14.03895314292498
 10
172.9225090524007
 20
13.79530204804204
 10
172.8050091716397
 20
13.82508046753197
 10
172.742205586831
 20
13.82258089509602
 10
172.6785872093399
 20
13.82344075102805
 10
172.3946014194076
 20
13.7809803994194
 10
173.0251638499381
 20
14.50081952444788
 10
173.1087645289071
 20
15.01276539435727
 10
173.4929252789339
 20
15.53353743550045
 10
173.4777208288565
 20
16.2351962625321
 10
173.7239265722697
 20
16.22345633081257
 10
173.8256346157561
 20
16.23225004452773
 10
173.8249752035818
 20
15.98059650730346
 10
173.9428317155829
 20
15.79818020733958
 10
174.0315515260484
 20
15.55563740662866
 10
174.1322292485259
 20
15.32340030530128
 10
174.2311142712243
 20
15.08674644566913
 10
174.3299676990669
 20
14.85461739170094
 10
174.4256166390925
 20
14.63122222788787
 10
174.5159904573271
 20
14.42272549049316
 10
174.5989944568189
 20
14.23308448529319
 10
174.6726088582798
 20
14.066631060681
 10
174.7342815895545
 20
13.92917699626098
 10
174.7749458885604
 20
13.84999239430033
 10
174.7922649500513
 20
13.81626739612926
 97
        1
330
FC
 92
       16
 93
        1
 72
     4
 94
        3
 73
     0
 74
     0
 95
       25
 96
       21
 40
0.0
 40
0.0
 40
0.0
 40
0.0
 40
0.0911479969064821
 40
0.1858117896204662
 40
0.2804128399734491
 40
0.3715889190714511
 40
0.4679080494218709
 40
0.5642683809229232
 40
0.6605683222644991
 40
0.7569653015810254
 40
0.8561348172522737
 40
1.092615965104292
 40
1.374867658141876
 40
1.611348812011599
 40
1.710518328425249
 40
1.809403163726567
 40
2.045205463294071
 40
2.326646917622131
 40
2.562449217190592
 40
2.661334043833911
 40
2.661334043833911
 40
2.661334043833911
 40
2.661334043833911
 10
173.2683700567199
 20
14.88614538197291
 10
173.2987525917922
 20
14.88598079714553
 10
173.3606895889112
 20
14.88564528689922
 10
173.4541356960329
 20
14.88269055452001
 10
173.5475095236357
 20
14.8797775287715
 10
173.6417760753476
 20
14.87894201643416
 10
173.7354964790967
 20
14.87996644658046
 10
173.8352040303205
 20
14.87916977470973
 10
173.9188949546312
 20
14.88921410235218
 10
174.0637996315045
 20
14.86234617674164
 10
173.93961324448
 20
15.03665530280047
 10
173.8965867286282
 20
15.19651711006091
 10
173.7808922142209
 20
15.45518458550214
 10
173.7017565431257
 20
15.59231052861858
 10
173.6431576621816
 20
15.80937033134076
 10
173.5864803939438
 20
15.59266134213427
 10
173.5052809900478
 20
15.45327012438235
 10
173.4063701281488
 20
15.20406969370194
 10
173.3253625094259
 20
15.01925830226072
 10
173.2813683325838
 20
14.91650446856116
 10
173.2683700567199
 20
14.88614538197291
 97
        1
330
FD
 75
     1
 76
     2
 52
45.0
 41
0.1
 77
     0
 78
     1
 53
45.0
 43
0.0
 44
0.0
 45
-0.282842712474619
 46
0.0
 79
     0
 98
        1
 10
0.0
 20
0.0
  0
HATCH
  5
11B
330
4D
100
AcDbEntity
  8
1
  6
Continuous
 62
     2
100
AcDbHatch
 10
0.0
 20
0.0
 30
0.0
210
0.0
220
0.0
230
1.0
  2
CUSTOM2
 70
     0
 71
     1
 91
        1
 92
        1
 93
        1
 72
     4
 94
        3
 73
     0
 74
     0
 95
       95
 96
       91
 40
0.0
 40
0.0
 40
0.0
 40
0.0
 40
0.6550406656911508
 40
1.308087289031932
 40
1.420803739835803
 40
1.566130759770792
 40
1.757067341888471
 40
2.006513545026453
 40
2.087328263121553
 40
2.185328872295633
 40
2.294612454748384
 40
2.408936380534818
 40
2.526802767798557
 40
2.646360524615613
 40
2.762535723971582
 40
2.870057342870153
 40
2.966883448431662
 40
3.050803243518302
 40
3.115818222436611
 40
3.156030057150259
 40
3.213914225080161
 40
3.276689026450561
 40
3.342960320981339
 40
3.404230667150588
 40
3.453822809493409
 40
3.532499827188453
 40
3.634775188507199
 40
3.754909333008207
 40
3.889736761660701
 40
4.035769602175263
 40
4.187256681197642
 40
4.338733685675995
 40
4.488478734676158
 40
4.634708317831634
 40
4.771493189921316
 40
4.892686571561257
 40
5.199775528944486
 40
5.460353566929683
 40
5.667603142345549
 40
5.814722905404529
 40
5.828990806219827
 40
5.855488336304524
 40
5.869756237118856
 40
6.189796507762854
 40
6.53189046987304
 40
6.883053637017039
 40
7.230512024911512
 40
7.566966656764624
 40
7.885203559707439
 40
8.172887439719249
 40
8.418011594062802
 40
8.443926721190723
 40
8.510760470613208
 40
8.602145393795718
 40
8.701714041647156
 40
8.793098965075385
 40
8.859932715057957
 40
8.885847842603605
 40
9.242301256612825
 40
9.589275455016795
 40
9.921808543164197
 40
10.23479624298468
 40
10.29968150889179
 40
10.35323493887767
 40
10.40154625355152
 40
10.46482922477827
 40
10.55973900668406
 40
10.69239545985618
 40
10.84920353475673
 40
11.01626328594783
 40
11.18672024367445
 40
11.35372582577212
 40
11.50257442292429
 40
11.61866495023294
 40
11.71329869152877
 40
11.82511050573909
 40
11.94464880845717
 40
12.06929242642508
 40
12.19707290435178
 40
12.32562632860531
 40
12.45034565331281
 40
12.56646595170329
 40
12.67099007414637
 40
12.76077625936784
 40
12.82703233506696
 40
12.87429132785996
 40
12.89831990323335
 40
12.92234847860024
 40
13.53984767410324
 40
14.1829428435937
 40
14.1829428435937
 40
14.1829428435937
 40
14.1829428435937
 10
177.3067935648021
 20
14.70898038201725
 10
177.1752019758551
 20
14.82265058603232
 10
176.9124193802728
 20
15.04964496316158
 10
176.3997393441019
 20
15.89214462956287
 10
176.4106654595363
 20
15.5342337757702
 10
176.404122652799
 20
15.39267392272133
 10
176.4028026631773
 20
15.19421305299281
 10
176.4018117602538
 20
15.02150296045983
 10
176.4024101751974
 20
14.8786537325758
 10
176.4038994301883
 20
14.78265005413358
 10
176.4055683588472
 20
14.6754550326314
 10
176.4071934954618
 20
14.56164211517582
 10
176.4092429501686
 20
14.44441572604589
 10
176.4123165501927
 20
14.3265641123297
 10
176.4156339697042
 20
14.2122808732062
 10
176.419360534028
 20
14.10521401867277
 10
176.4217338161424
 20
14.01007408766921
 10
176.4278718888357
 20
13.92558557205695
 10
176.4239784495946
 20
13.86923087298141
 10
176.4455230443078
 20
13.79825022472355
 10
176.3680940058618
 20
13.82902677604483
 10
176.3116353240191
 20
13.82011242517612
 10
176.2540495896806
 20
13.82896218398275
 10
176.1690163478473
 20
13.79738225225944
 10
176.2009714146382
 20
13.88095155992189
 10
176.1990705282539
 20
13.94882608968309
 10
176.21079600473
 20
14.05233256764419
 10
176.2164241053
 20
14.17002125616695
 10
176.2237902178941
 20
14.30388609164424
 10
176.232075970161
 20
14.44764152872632
 10
176.2398851897426
 20
14.59714022843445
 10
176.2457571222657
 20
14.74792549402078
 10
176.2503667817968
 20
14.89699943878438
 10
176.2542632117542
 20
15.04122913163023
 10
176.2570715126564
 20
15.17583905213018
 10
176.2576698755022
 20
15.36469614347355
 10
176.261602386715
 20
15.58975494313154
 10
176.2442175378497
 20
15.86367091125708
 10
176.2850417342584
 20
16.02787112098596
 10
176.1995153256001
 20
16.22749661465097
 10
176.2660558907688
 20
16.22385458403978
 10
176.283872427323
 20
16.22413447160854
 10
176.4056801797506
 20
16.22632927398615
 10
176.508077033546
 20
15.94675118721514
 10
176.7580021509356
 20
15.74563008536003
 10
176.987003533111
 20
15.47792614987916
 10
177.2245151213108
 20
15.22646413862376
 10
177.4486090740772
 20
14.98969974061357
 10
177.675071628301
 20
14.73218692583081
 10
177.8325687886514
 20
14.61649335056921
 10
178.0472129612673
 20
14.27997152538794
 10
178.0422645974619
 20
14.40464754091603
 10
178.0433931602546
 20
14.46327691935737
 10
178.0428877841517
 20
14.55043662371976
 10
178.0430475158114
 20
14.64416143182872
 10
178.0430054891317
 20
14.73018971297034
 10
178.0430202040373
 20
14.79153891945494
 10
178.0429706255983
 20
14.94135231520992
 10
178.0458811522811
 20
15.17989612510104
 10
178.0259521041162
 20
15.54486509868702
 10
178.0750433936248
 20
15.80799631993413
 10
177.917795150918
 20
16.21928904947749
 10
178.0762112872421
 20
16.16398282551748
 10
178.1311680478628
 20
16.16199686500174
 10
178.182788776674
 20
16.16264778248252
 10
178.2713198965366
 20
16.20369527738244
 10
178.2204898303168
 20
16.05696326622987
 10
178.2313389930283
 20
15.95019971954434
 10
178.2166036994847
 20
15.79085705414112
 10
178.2099976446204
 20
15.62853061652874
 10
178.2014961399915
 20
15.45992521892394
 10
178.1943227202199
 20
15.29814814703541
 10
178.1889063215389
 20
15.15422331457931
 10
178.1871713967648
 20
15.03437493466924
 10
178.1875440672319
 20
14.92686101590514
 10
178.1873656126263
 20
14.81820024645586
 10
178.187701086314
 20
14.6995357016553
 10
178.1890040622184
 20
14.57555163512741
 10
178.1908887351574
 20
14.44858294171105
 10
178.192500445485
 20
14.32153861551031
 10
178.194140313743
 20
14.19854884492178
 10
178.1962570745752
 20
14.08300931383759
 10
178.1963848422363
 20
13.98090903955837
 10
178.2006514396554
 20
13.89009848838158
 10
178.1908440085289
 20
13.83213621208786
 10
178.2118474771689
 20
13.76517130132028
 10
178.1725639739897
 20
13.77291153966687
 10
177.9595307117747
 20
13.75755254145192
 10
177.7636297943186
 20
14.3140305809447
 10
177.4611197631544
 20
14.57556035348511
 10
177.3067935648021
 20
14.70898038201725
 97
        1
330
FE
 75
     1
 76
     2
 52
45.0
 41
0.1
 77
     0
 78
     1
 53
45.0
 43
0.0
 44
0.0
 45
-0.282842712474619
 46
0.0
 79
     0
 98
        1
 10
0.0
 20
0.0
  0
HATCH
  5
11C
330
4D
100
AcDbEntity
  8
1
  6
Continuous
 62
     2
100
AcDbHatch
 10
0.0
 20
0.0
 30
0.0
210
0.0
220
0.0
230
1.0
  2
CUSTOM3
 70
     0
 71
     1
 91
        1
 92
        1
 93
        1
 72
     4
 94
        3
 73
     0
 74
     0
 95
      110
 96
      106
 40
0.0
 40
0.0
 40
0.0
 40
0.0
 40
0.2203406257277808
 40
0.4407808782838091
 40
0.5952494494615066
 40
0.7488431659393074
 40
0.9023581831309055
 40
1.056801968670404
 40
1.210736449099905
 40
1.363041386539783
 40
1.515315729683126
 40
1.669377239148077
 40
1.72161165275656
 40
1.773199502942936
 40
1.824933793209979
 40
1.877110426487958
 40
1.982682281206721
 40
2.07878166708753
 40
2.172809640822251
 40
2.271937807378905
 40
2.378349933379298
 40
2.494131557736487
 40
2.626681683943621
 40
2.783145050796048
 40
2.890701232940902
 40
2.993130312454796
 40
3.099869730691781
 40
3.220237816691267
 40
3.352695482737558
 40
3.481732806389818
 40
3.593499473690347
 40
3.674323013331854
 40
3.817951711952804
 40
3.946167120793801
 40
4.061405053453487
 40
4.166480796003127
 40
4.262478775059165
 40
4.350736673551121
 40
4.433071991254008
 40
4.511216293814611
 40
4.564262454117933
 40
4.618474415571555
 40
4.67012848875416
 40
4.722296879126367
 40
4.819540945314237
 40
4.931194984128095
 40
5.049996040257737
 40
5.168643755415282
 40
5.283970811762494
 40
5.392260784910319
 40
5.486512254876394
 40
5.559178233949793
 40
5.591425852853471
 40
5.626215969637848
 40
5.667155838674399
 40
5.71744929021422
 40
5.738402360944829
 40
5.784499116553788
 40
5.830595872164754
 40
5.851548942897607
 40
5.873019280661723
 40
5.924217778408274
 40
5.985325662817657
 40
6.036524160567677
 40
6.057994498334208
 40
6.236847789607448
 40
6.381409928945622
 40
6.493190424178658
 40
6.574067534230471
 40
6.691018086205565
 40
6.814881554220483
 40
6.944307823240435
 40
7.071266716066058
 40
7.193488604461903
 40
7.30904277312813
 40
7.414007203170756
 40
7.505140441886511
 40
7.531150360599651
 40
7.559221645322235
 40
7.587202218920892
 40
7.612569159499105
 40
7.662550809480991
 40
7.702878875764132
 40
7.857328205230947
 40
8.010799568088592
 40
8.165256399657542
 40
8.322232698713881
 40
8.479564855016568
 40
8.635216230290771
 40
8.790882550925689
 40
8.948305154947255
 40
9.168271839032956
 40
9.387358980987216
 40
9.608047961033462
 40
9.832914234792678
 40
9.858338694963013
 40
9.92536681723002
 40
10.0201307142276
 40
10.12876249858999
 40
10.23739428295249
 40
10.3321581799519
 40
10.39918630222394
 40
10.42461076239783
 40
10.64992019336943
 40
10.87188524531186
 40
10.87188524531186
 40
10.87188524531186
 40
10.87188524531186
 10
179.9057788376618
 20
15.73923260398189
 10
179.9092864933541
 20
15.80616462073804
 10
179.9163033987662
 20
15.94005891915858
 10
179.8198027599072
 20
16.22548554971468
 10
180.0510134726108
 20
16.16284386190284
 10
180.1919290057156
 20
16.17001554055988
 10
180.3490417757588
 20
16.16235883078245
 10
180.5025913427287
 20
16.16252752283038
 10
180.6545104935081
 20
16.16182040535433
 10
180.8142214813231
 20
16.17210158351637
 10
180.9408972601117
 20
16.15496511080751
 10
181.1370821122081
 20
16.22727260107145
 10
181.1034395279078
 20
16.12640699080116
 10
181.1052011317184
 20
16.07619253947671
 10
181.1027342073458
 20
16.02712335586466
 10
181.1347076966011
 20
15.94063490847
 10
181.0010399903256
 20
15.98997438608337
 10
180.9172208688056
 20
15.98430634314167
 10
180.8173861139324
 20
15.99465516706298
 10
180.7186576720145
 20
16.00086450411087
 10
180.612153277111
 20
16.00697763816777
 10
180.491051169806
 20
16.01588883484585
 10
180.3703381502453
 20
16.00521605912384
 10
180.1812553843437
 20
16.06468503080367
 10
180.2129028505311
 20
15.9055832007754
 10
180.1995563316833
 20
15.80839128339905
 10
180.197495842645
 20
15.69634065110104
 10
180.195818804467
 20
15.57699685629352
 10
180.1973336794233
 20
15.45032592155111
 10
180.195658247867
 20
15.32301588016118
 10
180.2058844271656
 20
15.22451566404464
 10
180.1779006596583
 20
15.08388702625632
 10
180.3508029999304
 20
15.13989551134095
 10
180.4645020202772
 20
15.12719951478497
 10
180.5840151672239
 20
15.13448377051255
 10
180.6888491425071
 20
15.13878017056755
 10
180.7843084898612
 20
15.14330568258977
 10
180.8763823507032
 20
15.15149201146198
 10
180.9476551782439
 20
15.14643850638111
 10
181.0544931705685
 20
15.18536425031675
 10
181.0226603598036
 20
15.1051712200588
 10
181.0266164503929
 20
15.05562936846034
 10
181.0234502392013
 20
15.00557478039819
 10
181.0550791490585
 20
14.92128847612021
 10
180.9210133677691
 20
14.97425365495158
 10
180.82923227932
 20
14.96540080890442
 10
180.7079729189603
 20
14.97570049965155
 10
180.5914113119771
 20
14.977489117675
 10
180.4783375745879
 20
14.97787017109695
 10
180.3679246308471
 20
14.98415449472178
 10
180.2898124067841
 20
14.97189133255364
 10
180.1913625833643
 20
15.00453887616126
 10
180.2012355173561
 20
14.94769748054207
 10
180.1973923244402
 20
14.91392130557984
 10
180.1966789884268
 20
14.87119604709411
 10
180.1963369642975
 20
14.83401607262152
 10
180.1963834255346
 20
14.7948723737077
 10
180.1963649429926
 20
14.75716849497686
 10
180.1963703431806
 20
14.71944955232403
 10
180.1963697214201
 20
14.6899432474515
 10
180.1963698151544
 20
14.65873577699302
 10
180.1963704287921
 20
14.61414424908085
 10
180.1963671499337
 20
14.55963956508851
 10
180.196375962348
 20
14.51505540201446
 10
180.1963359653418
 20
14.4311780858574
 10
180.1976024270255
 20
14.31737520677677
 10
180.1950274117842
 20
14.16830395933709
 10
180.2065009381719
 20
14.06597203813905
 10
180.1823506222263
 20
13.93338903885833
 10
180.3332993946476
 20
13.97895732272021
 10
180.4428436671556
 20
13.96427012162348
 10
180.573397047392
 20
13.96920435125064
 10
180.6990312209513
 20
13.97257705323359
 10
180.8188730625601
 20
13.97711497498773
 10
180.9391362611426
 20
13.99048536182003
 10
181.0222761663514
 20
13.98068712782596
 10
181.1456080421075
 20
14.04126214623319
 10
181.1244269203956
 20
13.98532460134021
 10
181.1235950270117
 20
13.95939249372347
 10
181.1218963707558
 20
13.9319725619094
 10
181.1217974888829
 20
13.89738195206386
 10
181.1203659301329
 20
13.86050408220767
 10
181.153280419219
 20
13.76846841021806
 10
180.9551306988107
 20
13.84132015974831
 10
180.8300548294891
 20
13.81825726508605
 10
180.6673071295155
 20
13.82454021985784
 10
180.5129366450001
 20
13.82260943909925
 10
180.3566670436943
 20
13.82393762599266
 10
180.1970544465282
 20
13.82059872487861
 10
180.0540326342236
 20
13.8326579572824
 10
179.8197144881628
 20
13.76952001976917
 10
179.9173810751197
 20
14.05620527466317
 10
179.9006868780058
 20
14.2498830814266
 10
179.9146296709685
 20
14.47848242880295
 10
179.9142987846631
 20
14.63384593955048
 10
179.9143078119264
 20
14.73966336444127
 10
179.9143055876316
 20
14.80205784124215
 10
179.9143065551889
 20
14.89220425248327
 10
179.9143065473262
 20
14.99621167157438
 10
179.9143053861102
 20
15.10022131375296
 10
179.9143090971502
 20
15.19036243688768
 10
179.9143011051052
 20
15.25276803097215
 10
179.9143334275018
 20
15.35868835961119
 10
179.9131440788319
 20
15.51626716544739
 10
179.9082216489256
 20
15.66528219822065
 10
179.9057788376618
 20
15.73923260398189
 97
        1
330
FF
 75
     1
 76
     2
 52
45.0
 41
0.1
 77
     0
 78
     1
 53
45.0
 43
0.0
 44
0.0
 45
-0.282842712474619
 46
0.0
 79
     0
 98
        1
 10
0.0
 20
0.0
  0
HATCH
  5
11D
330
4D
100
AcDbEntity
  8
1
  6
Continuous
 62
     2
100
AcDbHatch
 10
0.0
 20
0.0
 30
0.0
210
0.0
220
0.0
230
1.0
  2
CUSTOM4
 70
     0
 71
     1
 91
        1
 92
        1
 93
        1
 72
     4
 94
        3
 73
     0
 74
     0
 95
       47
 96
       43
 40
0.0
 40
0.0
 40
0.0
 40
0.0
 40
0.220791280995723
 40
0.4459404186302935
 40
0.490238719045914
 40
0.5327473892722107
 40
0.5742260451225422
 40
0.6155432630560717
 40
0.6568164066315637
 40
0.6982511618780551
 40
0.7407663929317074
 40
0.7851366743175124
 40
1.010288833836299
 40
1.231080507002151
 40
1.451765243652376
 40
1.676638205891676
 40
1.720461045359647
 40
1.830018144043505
 40
1.972442372353132
 40
2.114866600677498
 40
2.224423699395116
 40
2.268246538883357
 40
2.493628801207193
 40
2.715602830286597
 40
2.934211330706355
 40
3.149502369855353
 40
3.231387784850999
 40
3.318231873854034
 40
3.405143198198022
 40
3.486970301720459
 40
3.702258172493906
 40
3.920866283534141
 40
4.142839325931935
 40
4.368221903865402
 40
4.412044743359882
 40
4.521601842095892
 40
4.664026070452367
 40
4.806450298809073
 40
4.91600739754676
 40
4.959830237043082
 40
5.184703515847129
 40
5.405387250767501
 40
5.405387250767501
 40
5.405387250767501
 40
5.405387250767501
 10
182.6507427258645
 20
15.73406440953872
 10
182.6568139420002
 20
15.7975848250121
 10
182.6690762107241
 20
15.92587938689626
 10
182.5604706879413
 20
16.20166220174074
 10
182.6761985896603
 20
16.17188133432053
 10
182.7171842509016
 20
16.16765556262818
 10
182.7591205797518
 20
16.16310446389607
 10
182.800419662571
 20
16.16201982929483
 10
182.8417032115555
 20
16.16310338195227
 10
182.8836148270647
 20
16.16766112711342
 10
182.9245983549019
 20
16.17187430209728
 10
183.0404922843489
 20
16.20177611317531
 10
182.9295652727456
 20
15.92339806609889
 10
182.9574856365267
 20
15.74283140824953
 10
182.9404267346969
 20
15.50961042346471
 10
182.9414637282102
 20
15.34906622543144
 10
182.9414099399404
 20
15.22284817558721
 10
182.941427737248
 20
15.1242896333624
 10
182.941418858108
 20
14.99280702442962
 10
182.9414263928034
 20
14.8613284496865
 10
182.9414129405128
 20
14.76276222694091
 10
182.9414531717492
 20
14.63639735624152
 10
182.9406746403817
 20
14.47482068822871
 10
182.9565958319266
 20
14.24361821892914
 10
182.9333468885408
 20
14.05874351972002
 10
183.0360183444365
 20
13.78935602770053
 10
182.8820238362836
 20
13.82660112685817
 10
182.8004129802832
 20
13.82137994680532
 10
182.7188192292583
 20
13.82660620378351
 10
182.5648513666842
 20
13.78937069885384
 10
182.6674183421917
 20
14.0587512986288
 10
182.6442045316088
 20
14.24361585325414
 10
182.6600444655138
 20
14.47482218565639
 10
182.6593296313427
 20
14.63639712308504
 10
182.6593664569907
 20
14.76276231210521
 10
182.659354900027
 20
14.86132756635982
 10
182.6593575019214
 20
14.9928112741722
 10
182.6593648531779
 20
15.12427548031199
 10
182.6593442541351
 20
15.22287786275325
 10
182.6594082192028
 20
15.34896149354426
 10
182.658173394759
 20
15.51210091383771
 10
182.6532040396745
 20
15.6605418377755
 10
182.6507427258645
 20
15.73406440953872
 97
        1
330
100
 75
     1
 76
     2
 52
45.0
 41
0.1
 77
     0
 78
     1
 53
45.0
 43
0.0
 44
0.0
 45
-0.282842712474619
 46
0.0
 79
     0
 98
        1
 10
0.0
 20
0.0
  0
HATCH
  5
11E
330
4D
100
AcDbEntity
  8
1
  6
Continuous
 62
     2
100
AcDbHatch
 10
0.0
 20
0.0
 30
0.0
210
0.0
220
0.0
230
1.0
  2
CUSTOM5
 70
     0
 71
     1
 91
        1
 92
        1
 93
        1
 72
     4
 94
        3
 73
     0
 74
     0
 95
      118
 96
      114
 40
0.0
 40
0.0
 40
0.0
 40
0.0
 40
0.105470816297341
 40
0.2466098270051896
 40
0.3965912874591205
 40
0.5285525069753902
 40
0.6156245055642026
 40
0.6431434105797338
 40
0.7036850037986042
 40
0.7642265984504439
 40
0.7917455052354744
 40
0.9287404319989649
 40
1.106572819088009
 40
1.287544879681012
 40
1.317578308030529
 40
1.399928030857168
 40
1.522968204799942
 40
1.675072986590563
 40
1.84461653318064
 40
2.019973001638705
 40
2.189516548880017
 40
2.341621331585356
 40
2.464661506320492
 40
2.547011229647056
 40
2.57704465816802
 40
2.60379789089309
 40
2.662655002908777
 40
2.721512114949589
 40
2.748265347702769
 40
2.774215307344845
 40
2.845959313407175
 40
2.954338556588376
 40
3.090194227585555
 40
3.24436751710052
 40
3.40769961584428
 40
3.571031714539431
 40
3.725205003920107
 40
3.86106067472961
 40
3.969439917716302
 40
4.041183923628977
 40
4.06713388321297
 40
4.311886746012156
 40
4.547897258335523
 40
4.764747083043964
 40
4.952749679951766
 40
5.045772974195889
 40
5.137862019644976
 40
5.330543169793018
 40
5.553448265244007
 40
5.795083855888164
 40
6.043293412177224
 40
6.285761695541166
 40
6.31390290875265
 40
6.384255941793239
 40
6.475714884766828
 40
6.56717382775889
 40
6.637526860839668
 40
6.665668074074032
 40
6.692018920328009
 40
6.749990782071086
 40
6.807962643790462
 40
6.834313490017938
 40
6.856393084245217
 40
6.91333519564984
 40
6.991194817302504
 40
7.076026942283765
 40
7.153886563725256
 40
7.210828674844838
 40
7.232908268931173
 40
7.258199334923694
 40
7.324875781592342
 40
7.419142481924998
 40
7.527204308841937
 40
7.635266135230512
 40
7.729532834168494
 40
7.796209279292817
 40
7.821500344594763
 40
7.844652988850833
 40
7.899863140541612
 40
7.965759128053779
 40
8.020969279771062
 40
8.044121924046529
 40
8.069356610160622
 40
8.109134395441387
 40
8.132238100191099
 40
8.193147867786461
 40
8.279261678876637
 40
8.377977512673851
 40
8.476693347146636
 40
8.562807160411687
 40
8.623716930826474
 40
8.646820636853427
 40
8.67198879377424
 40
8.734909185828151
 40
8.816705695188865
 40
8.898502204815436
 40
8.961422597377897
 40
8.98659075455101
 40
9.01294160073317
 40
9.07091346238026
 40
9.128885324081763
 40
9.155236170325086
 40
9.180404327929129
 40
9.243324721948202
 40
9.325121234211995
 40
9.40691774663765
 40
9.469838141978105
 40
9.49500628827088
 40
9.51781118437902
 40
9.572192090487022
 40
9.63709833328125
 40
9.69147923951545
 40
9.71428412564349
 40
9.71428412564349
 40
9.71428412564349
 40
9.71428412564349
 10
185.2874469028653
 20
15.26889163187718
 10
185.3090990569037
 20
15.2411186924281
 10
185.3597257109473
 20
15.17618054561234
 10
185.4349383202592
 20
15.06891060312898
 10
185.5248482274346
 20
14.95377438266624
 10
185.5709169676673
 20
14.85357045748319
 10
185.6655825294655
 20
14.78434006814943
 10
185.6204439320412
 20
14.73771639678275
 10
185.5947047785789
 20
14.6966030886604
 10
185.5645196708012
 20
14.6606597172794
 10
185.5193684730561
 20
14.58579782596094
 10
185.4710504458562
 20
14.80782524253605
 10
185.3968539713073
 20
14.8451067733771
 10
185.2836047324606
 20
15.116102021306
 10
185.288513357817
 20
15.00095328446229
 10
185.2868486556306
 20
14.92836675781627
 10
185.2876830076714
 20
14.80625588483986
 10
185.2873609540264
 20
14.6591380081046
 10
185.2875076912456
 20
14.49307063956557
 10
185.2872950092722
 20
14.32187554608602
 10
185.2879497252034
 20
14.15552828635498
 10
185.2859192461139
 20
14.00935173055693
 10
185.291346039993
 20
13.8847104747461
 10
185.2804930868708
 20
13.81718656540626
 10
185.2956739155555
 20
13.75549061417022
 10
185.2457895108133
 20
13.76727503897002
 10
185.2017150342522
 20
13.75943822779969
 10
185.15823716302
 20
13.76760441372703
 10
185.1092346786489
 20
13.75538056738468
 10
185.1218731234825
 20
13.80960667249313
 10
185.113018296845
 20
13.86936918907558
 10
185.1175058770314
 20
13.97922029044371
 10
185.115796013599
 20
14.11029975405678
 10
185.1163550915987
 20
14.26198011444329
 10
185.1161928768693
 20
14.42211074929953
 10
185.1162269924675
 20
14.58236865674567
 10
185.1162514960126
 20
14.7337024752044
 10
185.1161453543226
 20
14.86582156338602
 10
185.116429914193
 20
14.97294802533193
 10
185.1158675547568
 20
15.03808619579475
 10
185.1180765083689
 20
15.16618957858676
 10
185.0319435998602
 20
14.79097610391577
 10
184.9555140818499
 20
14.63918193123396
 10
184.8660040767834
 20
14.47766206446307
 10
184.7640413217327
 20
14.20471848820173
 10
184.7187976491038
 20
14.36717346596511
 10
184.610235594167
 20
14.45605432058121
 10
184.7995791751752
 20
14.60549794961409
 10
184.85653405457
 20
14.79749136974925
 10
184.9717520993352
 20
15.02899622906756
 10
184.9940151630132
 20
15.21797259759063
 10
185.1771905152139
 20
15.49454089325928
 10
185.0538033597552
 20
15.48698978832093
 10
184.9925684166834
 20
15.48856772366118
 10
184.9081999617064
 20
15.48882592573671
 10
184.8204235085966
 20
15.48544845751205
 10
184.7656768696122
 20
15.49394814982019
 10
184.7104703026025
 20
15.48048561049787
 10
184.7222823035536
 20
15.52931442126763
 10
184.7142496151793
 20
15.57269004896708
 10
184.7228186104678
 20
15.61509438309573
 10
184.7102943409157
 20
15.66267796552119
 10
184.7555101538735
 20
15.6526721299511
 10
184.8014815562724
 20
15.65894105174062
 10
184.877722204771
 20
15.65593561405873
 10
184.9561296131993
 20
15.65770448278542
 10
185.0323992648932
 20
15.65464793981661
 10
185.0783009459475
 20
15.66103971376178
 10
185.12317339654
 20
15.65093822978897
 10
185.1105552275634
 20
15.701572015819
 10
185.1191936582707
 20
15.7550126188207
 10
185.1152361595443
 20
15.84863255131681
 10
185.1162325068335
 20
15.95112606688924
 10
185.1171927413073
 20
16.05353270248163
 10
185.1133211458005
 20
16.14735929609321
 10
185.1217789814364
 20
16.20036542840353
 10
185.1093075932835
 20
16.25211435651188
 10
185.1542106389849
 20
16.23850747226757
 10
185.1955083836772
 20
16.24100480320585
 10
185.259534428105
 20
16.23648060574487
 10
185.2986111148787
 20
16.22781003043309
 10
185.3476543498742
 20
16.23515102070686
 10
185.3225080030591
 20
16.19602896051758
 10
185.2815901333722
 20
16.20563842455808
 10
185.2910109616605
 20
16.15540148169779
 10
185.2855647318746
 20
16.10385945639491
 10
185.2881699601804
 20
16.01959707584522
 10
185.2870102202154
 20
15.92559135583409
 10
185.2883591064231
 20
15.83196865395527
 10
185.2849970101509
 20
15.74679517552224
 10
185.2920959917769
 20
15.69716856072045
 10
185.2812569154545
 20
15.6499369496999
 10
185.3304010225245
 20
15.66201674936852
 10
185.3794877630146
 20
15.65447393363012
 10
185.4573714280641
 20
15.65686070361433
 10
185.5350365172896
 20
15.65899381905415
 10
185.5845393931355
 20
15.65193391922456
 10
185.6344594750639
 20
15.66360151936215
 10
185.6223198516881
 20
15.61540235371393
 10
185.6305838229144
 20
15.57249219801235
 10
185.6223198650783
 20
15.52958201851384
 10
185.6344594549854
 20
15.48138288754864
 10
185.5845395158746
 20
15.49305034471509
 10
185.5350350651202
 20
15.48599202435044
 10
185.4573784382973
 20
15.48811665228602
 10
185.379464386576
 20
15.49053389365759
 10
185.3304500352716
 20
15.48291848194484
 10
185.2813246108943
 20
15.49507952557592
 10
185.2915559988571
 20
15.45073013424156
 10
185.2856677678053
 20
15.4092543620291
 10
185.2878788305568
 20
15.34915394315302
 10
185.2874109346146
 20
15.30225782762887
 10
185.2874386992913
 20
15.27650146418195
 10
185.2874469028653
 20
15.26889163187718
 97
        1
330
101
 75
     1
 76
     2
 52
45.0
 41
0.1
 77
     0
 78
     1
 53
45.0
 43
0.0
 44
0.0
 45
-0.282842712474619
 46
0.0
 79
     0
 98
        1
 10
0.0
 20
0.0
  0
HATCH
  5
11F
330
4D
100
AcDbEntity
  8
1
  6
Continuous
 62
     2
100
AcDbHatch
 10
0.0
 20
0.0
 30
0.0
210
0.0
220
0.0
230
1.0
  2
CUSTOM6
 70
     0
 71
     1
 91
        1
 92
        1
 93
        1
 72
     4
 94
        3
 73
     0
 74
     0
 95
       91
 96
       87
 40
0.0
 40
0.0
 40
0.0
 40
0.0
 40
0.0345987051695718
 40
0.1258134969461369
 40
0.2547723404888987
 40
0.4026032099154125
 40
0.5504340793416704
 40
0.679392922883608
 40
0.7706077146571035
 40
0.8052064287780925
 40
1.124852390615276
 40
1.427402236308867
 40
1.706356627453505
 40
1.955541417875188
 40
2.169485938566333
 40
2.344350786664787
 40
2.480568411561936
 40
2.590440557428958
 40
2.649189927151112
 40
2.749320643306318
 40
2.912632739880026
 40
3.147745656000228
 40
3.244827496385128
 40
3.338490056946713
 40
3.583815413207142
 40
3.761423943238509
 40
3.886956104362676
 40
3.985855451886839
 40
4.091766255337725
 40
4.250186473811918
 40
4.422734315084564
 40
4.628285684838661
 40
4.872093227758495
 40
5.152549652145606
 40
5.464967135837586
 40
5.803201477852499
 40
6.160362988813969
 40
6.193449448276024
 40
6.284170385501678
 40
6.419718138764548
 40
6.587285046385798
 40
6.774063446723712
 40
6.967245678113695
 40
7.154024078817681
 40
7.321590987026067
 40
7.457138740890425
 40
7.547859678556161
 40
7.580946138182721
 40
7.608533084714775
 40
7.669224367077758
 40
7.729915649429984
 40
7.757502595950037
 40
7.79027806255349
 40
7.880146277430988
 40
8.014419963180451
 40
8.180411842397952
 40
8.36543463767942
 40
8.556801071622722
 40
8.741823866830835
 40
8.907815745916345
 40
9.042089431507499
 40
9.131957646249624
 40
9.164733112797201
 40
9.41542506314012
 40
9.667986180958597
 40
9.694169807462764
 40
9.756607686047722
 40
9.831130315322529
 40
9.893568193899993
 40
9.91975182039881
 40
9.950967964690633
 40
9.996421631210744
 40
10.22087981037463
 40
10.44341866197552
 40
10.47847970788864
 40
10.57091337438765
 40
10.70159545461239
 40
10.8514017417037
 40
11.00120802880487
 40
11.13189010907393
 40
11.2243237758302
 40
11.25938480938967
 40
11.28697175596155
 40
11.3476630383593
 40
11.40835432042081
 40
11.43594125892116
 40
11.43594125892116
 40
11.43594125892116
 40
11.43594125892116
 10
190.0818114333289
 20
15.55242795125076
 10
190.0702785844941
 20
15.55242790287914
 10
190.0283409444998
 20
15.55242773704163
 10
189.9434129719026
 20
15.55243125800908
 10
189.8207688553128
 20
15.55240926435877
 10
189.6791206916993
 20
15.55250801177053
 10
189.537975369849
 20
15.5521468623242
 10
189.4141351317905
 20
15.55321883609088
 10
189.3317217825381
 20
15.55092249091267
 10
189.1727791229693
 20
15.56048569373419
 10
189.3503402353375
 20
15.1978539431137
 10
189.3379739205452
 20
14.95243127723113
 10
189.4064519473865
 20
14.66862501324835
 10
189.469302432097
 20
14.43250999939034
 10
189.5452253431729
 20
14.2332674039613
 10
189.6303189577015
 20
14.07745347451373
 10
189.7244607592936
 20
13.97657857781393
 10
189.8282648207728
 20
13.92465852638965
 10
189.9125872030773
 20
13.97606484379617
 10
189.9351322179452
 20
14.09144544037518
 10
189.9745730975371
 20
14.2188514970238
 10
189.9202919734942
 20
14.53622328086758
 10
190.0451218072473
 20
14.38982180140905
 10
190.2019291513602
 20
14.35795300331173
 10
190.0947720007057
 20
14.12421357767629
 10
190.0808711209866
 20
13.95972776583656
 10
190.0234709467226
 20
13.83130869122484
 10
189.9335020145007
 20
13.76018802352825
 10
189.8095274657878
 20
13.74432324142253
 10
189.663427319686
 20
13.7799379755417
 10
189.5243894320284
 20
13.90000570500277
 10
189.4102003962144
 20
14.07435682550319
 10
189.3146141301485
 20
14.29946603111241
 10
189.2318652572626
 20
14.56388246006442
 10
189.1807179256411
 20
14.88187933098543
 10
189.0770189207337
 20
15.15543728488911
 10
189.2042841208522
 20
15.56005818612866
 10
189.0357890623018
 20
15.55112367849677
 10
188.9511995787077
 20
15.55315961418362
 10
188.8189876387627
 20
15.55213937388405
 10
188.6560505094104
 20
15.55253230318428
 10
188.4733759170532
 20
15.55235696313367
 10
188.2847057373383
 20
15.55260105307467
 10
188.1014469020189
 20
15.55185657906235
 10
187.9404746832718
 20
15.55416360522424
 10
187.8029808335276
 20
15.54799804883661
 10
187.728959037231
 20
15.5603283845821
 10
187.6613215186856
 20
15.54329323723555
 10
187.673237371927
 20
15.59524438447527
 10
187.6655677285694
 20
15.64071424966528
 10
187.6732592225115
 20
15.68614453703705
 10
187.6613141797761
 20
15.7380239598457
 10
187.7283588305867
 20
15.72119143490264
 10
187.8017375665677
 20
15.73335409092671
 10
187.9379128305271
 20
15.72727231074958
 10
188.0973811801513
 20
15.72954834315058
 10
188.2789173085836
 20
15.72881233998961
 10
188.4658034862179
 20
15.72905954196134
 10
188.6468012316836
 20
15.72886400799253
 10
188.8080802578878
 20
15.72932234714839
 10
188.9393882124887
 20
15.72812673751206
 10
189.0225051322596
 20
15.73051347319743
 10
189.1556236547814
 20
15.72230605725463
 10
189.0645893502658
 20
15.97752868952655
 10
188.9789633074419
 20
16.24164358328248
 10
189.0990589003455
 20
16.22904442969165
 10
189.1514264948544
 20
16.22694235763077
 10
189.2214497569715
 20
16.22535399889657
 10
189.2671922337817
 20
16.21602567538113
 10
189.3220812646933
 20
16.22545966915427
 10
189.2963574785681
 20
16.17733028655174
 10
189.1825397571452
 20
16.18266829744168
 10
189.3159346621136
 20
15.95449174576777
 10
189.1943658735471
 20
15.72156856595923
 10
189.3223188769413
 20
15.73087258884438
 10
189.4049048406461
 20
15.7280100175468
 10
189.5307214850824
 20
15.72923437412302
 10
189.6741469838057
 20
15.72932431888965
 10
189.8157420951728
 20
15.72746163183853
 10
189.9459127249967
 20
15.73333075937163
 10
190.0193452286191
 20
15.72070340823203
 10
190.0891112922096
 20
15.73877563110412
 10
190.0775772605396
 20
15.68612850546326
 10
190.0833184346682
 20
15.64221317686546
 10
190.0816615770911
 20
15.59089982676548
 10
190.081775756167
 20
15.56158792021633
 10
190.0818114333289
 20
15.55242795125076
 97
        1
330
102
 75
     1
 76
     2
 52
45.0
 41
0.1
 77
     0
 78
     1
 53
45.0
 43
0.0
 44
0.0
 45
-0.282842712474619
 46
0.0
 79
     0
 98
        1
 10
0.0
 20
0.0
  0
HATCH
  5
120
330
4D
100
AcDbEntity
  8
1
  6
Continuous
 62
     2
100
AcDbHatch
 10
0.0
 20
0.0
 30
0.0
210
0.0
220
0.0
230
1.0
  2
CUSTOM7
 70
     0
 71
     1
 91
        1
 92
        1
 93
        1
 72
     4
 94
        3
 73
     0
 74
     0
 95
       75
 96
       71
 40
0.0
 40
0.0
 40
0.0
 40
0.0
 40
0.0342546099129691
 40
0.1245622414432346
 40
0.2522385480897518
 40
0.398599192294068
 40
0.5449598364980821
 40
0.6726361431438816
 40
0.762943774673696
 40
0.7971983935297973
 40
1.101723623449659
 40
1.408591244036667
 40
1.433332471690377
 40
1.487763172450184
 40
1.542193873082024
 40
1.566935100592579
 40
1.923523931821888
 40
2.271755704953686
 40
2.590579755100928
 40
2.858943305581185
 40
2.889120339309206
 40
2.918305855191158
 40
2.941366645531279
 40
2.99635776097317
 40
3.061992318140713
 40
3.116983433626907
 40
3.140044223997584
 40
3.411273122936508
 40
3.732441619741173
 40
3.761068217532871
 40
3.837787499630433
 40
3.948858699126073
 40
4.080541049104449
 40
4.219093782625832
 40
4.350776132722382
 40
4.461847332405718
 40
4.538566614678448
 40
4.567193212544696
 40
4.594907573998954
 40
4.666381453557493
 40
4.764111044011104
 40
4.870592538125907
 40
4.968322128642358
 40
5.039796008287043
 40
5.067510369784502
 40
5.094263603185714
 40
5.153120716668347
 40
5.21197783015079
 40
5.238731063551795
 40
5.272290535139033
 40
5.363380529444894
 40
5.497618415781572
 40
5.660621563453814
 40
5.838007341749515
 40
6.015393119910867
 40
6.178396267038492
 40
6.312634151842444
 40
6.403724143059433
 40
6.437283612672529
 40
6.464036846261145
 40
6.522893960004758
 40
6.581751071484018
 40
6.608504301590964
 40
6.637253941281111
 40
6.711397748902963
 40
6.812778057283575
 40
6.923237199249352
 40
7.024617507623995
 40
7.098761315207648
 40
7.127510946007598
 40
7.127510946007598
 40
7.127510946007598
 40
7.127510946007598
 10
188.4418622390564
 20
14.95849128473265
 10
188.4418622819707
 20
14.9470731340872
 10
188.4418624481129
 20
14.9055525784263
 10
188.4418593081786
 20
14.82146922003772
 10
188.44187882798
 20
14.70004497322329
 10
188.4417912187737
 20
14.55980494047449
 10
188.442111623523
 20
14.42006556794577
 10
188.4411605909741
 20
14.2974503889493
 10
188.4431978595967
 20
14.21587074438044
 10
188.4349433178746
 20
14.06271267077699
 10
188.7430797940902
 20
14.22560236054719
 10
189.0350645173733
 20
14.39482938688005
 10
189.0408354448708
 20
14.25973235781912
 10
189.045547171989
 20
14.21617221160444
 10
189.0482535411918
 20
14.17211249350544
 10
189.0672545672959
 20
14.02272590363132
 10
188.6583942247302
 20
14.08681172241262
 10
188.3793710348831
 20
13.97296341411017
 10
188.1018081587167
 20
13.87364095811144
 10
187.80998371844
 20
13.91630687596355
 10
187.7869144678658
 20
13.81321679744542
 10
187.7537474383333
 20
13.78691091244469
 10
187.7480653962739
 20
13.83455309036304
 10
187.7284214559044
 20
13.87180336115069
 10
187.7095089485623
 20
13.93007387847564
 10
187.6942849867708
 20
13.97385201007804
 10
187.6477246372934
 20
14.0875942104631
 10
187.9890897312451
 20
14.05576301120048
 10
188.2679649367387
 20
14.02161435106481
 10
188.2617753034907
 20
14.16913976479653
 10
188.2630935452773
 20
14.24013150908834
 10
188.2624831689948
 20
14.34719767958662
 10
188.2625871570724
 20
14.47398529785998
 10
188.2629987964055
 20
14.60849243496051
 10
188.2613907841968
 20
14.73395549951185
 10
188.2659902567925
 20
14.84505246719118
 10
188.256418650221
 20
14.9076188680069
 10
188.2704001783691
 20
14.96595388295002
 10
188.2147384386704
 20
14.95289710582239
 10
188.1575655197821
 20
14.96136307749499
 10
188.0616048925648
 20
14.95729976080637
 10
187.963376752282
 20
14.95970889852476
 10
187.8672582457561
 20
14.95551600613388
 10
187.8104648525811
 20
14.96429346441164
 10
187.7550356873384
 20
14.95094936850121
 10
187.7670679427917
 20
15.00036910959257
 10
187.7592003173938
 20
15.04393988030396
 10
187.7666295563828
 20
15.08830469118525
 10
187.7551930564144
 20
15.13902297763991
 10
187.8232102370132
 20
15.12162460757743
 10
187.8968496879747
 20
15.13417450237189
 10
188.0325064058211
 20
15.12799677011097
 10
188.1884909024525
 20
15.13029203093084
 10
188.3615926358143
 20
15.1294096826253
 10
188.5346942964181
 20
15.13029207142408
 10
188.6906789811216
 20
15.1279966295555
 10
188.8263351889797
 20
15.13417486262432
 10
188.8999756705652
 20
15.12162394218335
 10
188.9679914174724
 20
15.13902373012142
 10
188.9565590885922
 20
15.08830130414555
 10
188.9639539458297
 20
15.04397060811109
 10
188.956203991227
 20
15.00028307550197
 10
188.9681203741877
 20
14.95063590098477
 10
188.9108170223616
 20
14.96461411338426
 10
188.8520145789773
 20
14.95539755673255
 10
188.7525293633199
 20
14.9595226816493
 10
188.649428009835
 20
14.95822760025889
 10
188.5537846354573
 20
14.95854077077641
 10
188.4857467971617
 20
14.95848776697146
 10
188.4514462213443
 20
14.95849051871657
 10
188.4418622390564
 20
14.95849128473265
 97
        1
330
103
 75
     1
 76
     2
 52
45.0
 41
0.1
 77
     0
 78
     1
 53
45.0
 43
0.0
 44
0.0
 45
-0.282842712474619
 46
0.0
 79
     0
 98
        1
 10
0.0
 20
0.0
  0
HATCH
  5
121
330
4D
100
AcDbEntity
  8
1
  6
Continuous
 62
     2
100
AcDbHatch
 10
0.0
 20
0.0
 30
0.0
210
0.0
220
0.0
230
1.0
  2
CUSTOM8
 70
     0
 71
     1
 91
        1
 92
        1
 93
        1
 72
     4
 94
        3
 73
     0
 74
     0
 95
       15
 96
       11
 40
0.0
 40
0.0
 40
0.0
 40
0.0
 40
0.2785535985096574
 40
0.5215624748198874
 40
0.6076917376040509
 40
0.6938210001741243
 40
0.9405019146455044
 40
1.221691403489129
 40
1.300471877081053
 40
1.379252341684823
 40
1.379252341684823
 40
1.379252341684823
 40
1.379252341684823
 10
189.5681493630999
 20
16.22930267330381
 10
189.6296017794178
 20
16.17691646592715
 10
189.7446649974113
 20
16.07882876798222
 10
190.0397348497243
 20
15.92889785897221
 10
189.9025147631856
 20
15.84343227515014
 10
189.8041227843778
 20
15.71085785201554
 10
189.713003359065
 20
16.0161698578142
 10
189.3636839480654
 20
16.07967869465373
 10
189.511925837657
 20
16.17896509880877
 10
189.5494081874236
 20
16.21252348402382
 10
189.5681493630999
 20
16.22930267330381
 97
        1
330
104
 75
     1
 76
     2
 52
45.0
 41
0.1
 77
     0
 78
     1
 53
45.0
 43
0.0
 44
0.0
 45
-0.282842712474619
 46
0.0
 79
     0
 98
        1
 10
0.0
 20
0.0
  0
HATCH
  5
122
330
4D
100
AcDbEntity
  8
1
  6
Continuous
 62
     2
100
AcDbHatch
 10
0.0
 20
0.0
 30
0.0
210
0.0
220
0.0
230
1.0
  2
CUSTOM9
 70
     0
 71
     1
 91
        1
 92
        1
 93
        1
 72
     4
 94
        3
 73
     0
 74
     0
 95
       35
 96
       31
 40
0.0
 40
0.0
 40
0.0
 40
0.0
 40
0.0335231036620645
 40
0.0713218571712011
 40
0.4278866681487097
 40
0.8116865841964129
 40
1.198190238000074
 40
1.561379546812705
 40
1.659983174622058
 40
1.759315573807201
 40
2.132719617231085
 40
2.525233363588839
 40
2.91081539777971
 40
3.265244364303301
 40
3.592606723582048
 40
3.964386154603999
 40
4.359942131737824
 40
4.758154118639335
 40
4.843846538699958
 40
4.936650065543267
 40
5.256616602537351
 40
5.581707404416088
 40
5.899719158308183
 40
6.198363494280786
 40
6.466301046615816
 40
6.493895311537137
 40
6.559697020196929
 40
6.638234543442504
 40
6.704036252154256
 40
6.731630508423062
 40
6.731630508423062
 40
6.731630508423062
 40
6.731630508423062
 10
191.9736010568669
 20
16.23463843719134
 10
191.9676006097789
 20
16.22480690542322
 10
191.9548344099157
 20
16.20388988579798
 10
191.7949362006552
 20
16.17127126532691
 10
192.2322025842338
 20
15.88206680336702
 10
192.4345394828261
 20
15.68041138358438
 10
192.6819564267973
 20
15.43749387603276
 10
193.1831513624606
 20
15.36047662757774
 10
193.012556219897
 20
15.21876939174657
 10
192.9383299463201
 20
15.01710366209107
 10
192.6131432248188
 20
15.36956287174726
 10
192.3277741670664
 20
15.53175212559562
 10
192.0337604077657
 20
15.73687130053049
 10
191.8084452691134
 20
16.21827488595456
 10
191.5993085055522
 20
15.75343046609223
 10
191.3207873674834
 20
15.54350952252911
 10
191.0371383177209
 20
15.37424456359984
 10
190.7078639527832
 20
15.00142360907934
 10
190.6277012318224
 20
15.19708014459001
 10
190.4759724909744
 20
15.32491104190593
 10
190.9083395826794
 20
15.40454031765935
 10
191.0962565329766
 20
15.60026634915473
 10
191.3468477420502
 20
15.81632996916755
 10
191.5714350470161
 20
15.98190992300058
 10
191.6259775409712
 20
16.26133964636824
 10
191.7494661029011
 20
16.24737950408079
 10
191.8060273344519
 20
16.24521268867645
 10
191.8761870984945
 20
16.24046859881361
 10
191.9333414022105
 20
16.2370942935054
 10
191.9644190320839
 20
16.23519854711119
 10
191.9736010568669
 20
16.23463843719134
 97
        1
330
105
 75
     1
 76
     2
 52
45.0
 41
0.1
 77
     0
 78
     1
 53
45.0
 43
0.0
 44
0.0
 45
-0.282842712474619
 46
0.0
 79
     0
 98
        1
 10
0.0
 20
0.0
  0
HATCH
  5
123
330
4D
100
AcDbEntity
  8
1
  6
Continuous
 62
     2
100
AcDbHatch
 10
0.0
 20
0.0
 30
0.0
210
0.0
220
0.0
230
1.0
  2
CUSTOM10
 70
     0
 71
     1
 91
        1
 92
        1
 93
        1
 72
     4
 94
        3
 73
     0
 74
     0
 95
       91
 96
       87
 40
0.0
 40
0.0
 40
0.0
 40
0.0
 40
0.0267532254356701
 40
0.0856103386464102
 40
0.1444674521996621
 40
0.1712206856618514
 40
0.2039416005642536
 40
0.2955601971652484
 40
0.4362601844616918
 40
0.616225284450725
 40
0.8256392189704698
 40
1.054685709844411
 40
1.293548478893531
 40
1.532411247938303
 40
1.761457738799568
 40
1.970871673298537
 40
2.150836773256732
 40
2.291536760495593
 40
2.3831553568367
 40
2.41587628410132
 40
2.442629517487965
 40
2.501486630949095
 40
2.560343744424242
 40
2.587096977826515
 40
2.617068194440942
 40
2.699247336756083
 40
2.822032643466396
 40
2.973822353257925
 40
3.143014704823368
 40
3.318007936879947
 40
3.48720028818678
 40
3.63898999754826
 40
3.761775303794759
 40
3.843954445753094
 40
3.87392566222979
 40
3.890812773500496
 40
3.907699884771673
 40
3.937960767857289
 40
3.980983618142321
 40
4.199085915228462
 40
4.439444339237253
 40
4.677588241260894
 40
5.05069831783778
 40
5.448212454763166
 40
5.85529121804469
 40
6.138575438885362
 40
6.417434507584217
 40
6.444551104393899
 40
6.504207617363197
 40
6.563864130314518
 40
6.590980727104111
 40
6.848609460381494
 40
7.109611990668453
 40
7.352910904446119
 40
7.557830220705495
 40
7.587518925913414
 40
7.652834077375832
 40
7.718149228845769
 40
7.747837934062073
 40
7.854880190301036
 40
7.97651125740359
 40
8.369487896592391
 40
8.757514959223684
 40
9.126072419331146
 40
9.460639380392209
 40
9.74669559303595
 40
9.777569943118726
 40
9.807050320931825
 40
9.830377336128956
 40
9.886003295436032
 40
9.952395569429942
 40
10.0080215287063
 40
10.03134854388222
 40
10.21356951009592
 40
10.42203479292875
 40
10.66154556731067
 40
10.91693789564308
 40
11.15832906556569
 40
11.18982674596627
 40
11.27286608520411
 40
11.39026653033353
 40
11.52484752840889
 40
11.65942852648451
 40
11.77682897161487
 40
11.85986831085686
 40
11.89136598230432
 40
11.89136598230432
 40
11.89136598230432
 40
11.89136598230432
 10
190.7027885008196
 20
14.70699600701772
 10
190.7028237765288
 20
14.71587847311985
 10
190.7029366710796
 20
14.74430237047346
 10
190.7012984568489
 20
14.79409639169803
 10
190.7069750292911
 20
14.83657564478154
 10
190.6956928731706
 20
14.88730154856847
 10
190.7632296979031
 20
14.87012900740109
 10
190.83880292107
 20
14.88290227165996
 10
190.9828357056
 20
14.87629729457382
 10
191.1569419185427
 20
14.87888462206466
 10
191.3639599611003
 20
14.87800591955553
 10
191.5894688172378
 20
14.87828207920027
 10
191.8251162293406
 20
14.87818339658662
 10
192.0607640531348
 20
14.87828184412767
 10
192.2862717580626
 20
14.87800678190789
 10
192.4932934632805
 20
14.87888186270735
 10
192.6673888915288
 20
14.87630522678446
 10
192.8114492071986
 20
14.88288290449213
 10
192.8869691915293
 20
14.87016243405604
 10
192.9545776037029
 20
14.88726400191686
 10
192.9430840140676
 20
14.8367478580294
 10
192.9505104581733
 20
14.79253252226501
 10
192.9428838927986
 20
14.7486796650361
 10
192.9546489459425
 20
14.69878374479327
 10
192.8930788491983
 20
14.71393227712512
 10
192.8256791738672
 20
14.70310665350673
 10
192.7013004056221
 20
14.70852031626236
 10
192.555442823657
 20
14.70649205390785
 10
192.3893576440085
 20
14.70715777578387
 10
192.2188412621724
 20
14.70689643521242
 10
192.0519790855388
 20
14.70721553391094
 10
191.9087346827105
 20
14.70635302590762
 10
191.7773313869834
 20
14.70863300482988
 10
191.7239859134656
 20
14.70407704374202
 10
191.6485188456912
 20
14.70999914992877
 10
191.6769075779232
 20
14.70094169343353
 10
191.7033652409542
 20
14.6972591226893
 10
191.6633522907702
 20
14.66654271968274
 10
191.5713663691867
 20
14.67667591174633
 10
191.5439396207069
 20
14.43032502247784
 10
191.4478793967234
 20
14.27499558764375
 10
191.1917277964473
 20
13.94525417931568
 10
191.7627537732762
 20
14.08430022210452
 10
192.0173656320516
 20
14.08291779973364
 10
192.6279647048617
 20
13.99790569242084
 10
192.3340698578083
 20
14.29685417558203
 10
192.0133304286517
 20
14.44330856901781
 10
192.1313543360434
 20
14.50025540818288
 10
192.1724716466261
 20
14.52420099873349
 10
192.2156812394411
 20
14.5459975881123
 10
192.317457409445
 20
14.60928721253903
 10
192.4328867625247
 20
14.3514715140878
 10
192.6329591642277
 20
14.21616041113682
 10
192.7269077387228
 20
14.03792795138882
 10
192.9558829746392
 20
13.87997821027047
 10
192.8596031846708
 20
13.82915972576299
 10
192.8167959763779
 20
13.79881292523054
 10
192.7718243528779
 20
13.77466130281457
 10
192.7121720925213
 20
13.72552146747567
 10
192.6789731061325
 20
13.85997475673609
 10
192.5582013350795
 20
14.01594265286582
 10
192.1970976005979
 20
13.88569928059558
 10
191.8385061955541
 20
13.90224694409484
 10
191.457092045008
 20
13.89331229351866
 10
191.1703455282891
 20
13.82882671672408
 10
190.8592055599714
 20
13.94230668192827
 10
190.8268737818788
 20
13.83122259927769
 10
190.7896178253318
 20
13.81196313850014
 10
190.7865737632754
 20
13.85874784087297
 10
190.7679892860606
 20
13.89806853919136
 10
190.7512436616778
 20
13.95765983478233
 10
190.7383730915753
 20
14.00201969871284
 10
190.7042327806429
 20
14.09106331120201
 10
190.9482714457753
 20
14.0218104294377
 10
191.1441394486671
 20
14.00030369057744
 10
191.2395426381277
 20
14.28226484478463
 10
191.2945135769597
 20
14.44363045421123
 10
191.5159619357155
 20
14.71391177589737
 10
191.3849239381217
 20
14.70548446853735
 10
191.3110026555853
 20
14.70779008496969
 10
191.1977459876244
 20
14.70671378321658
 10
191.0694251807484
 20
14.7070763907651
 10
190.9404252030415
 20
14.70697724466086
 10
190.828784094629
 20
14.70699932712572
 10
190.7514663970026
 20
14.7069957918967
 10
190.713287653201
 20
14.70699595845081
 10
190.7027885008196
 20
14.70699600701772
 97
        1
330
106
 75
     1
 76
     2
 52
45.0
 41
0.1
 77
     0
 78
     1
 53
45.0
 43
0.0
 44
0.0
 45
-0.282842712474619
 46
0.0
 79
     0
 98
        1
 10
0.0
 20
0.0
  0
HATCH
  5
124
330
4D
100
AcDbEntity
  8
1
  6
Continuous
 62
     2
100
AcDbHatch
 10
0.0
 20
0.0
 30
0.0
210
0.0
220
0.0
230
1.0
  2
CUSTOM11
 70
     0
 71
     1
 91
        1
 92
        1
 93
        1
 72
     4
 94
        3
 73
     0
 74
     0
 95
      131
 96
      127
 40
0.0
 40
0.0
 40
0.0
 40
0.0
 40
0.019557702982603
 40
0.0426490537461317
 40
0.2863607575856552
 40
0.5344948436189216
 40
0.7842238845573114
 40
0.8737315789467299
 40
0.9803832810312796
 40
1.092842274517025
 40
1.199761146656784
 40
1.289788768186489
 40
1.351573580786183
 40
1.370727117561412
 40
1.416400936017824
 40
1.47091484835597
 40
1.516588666791764
 40
1.535742203552845
 40
1.634216592293204
 40
1.760283341175044
 40
1.897966686682107
 40
2.031216387368924
 40
2.049689751137918
 40
2.101115601646854
 40
2.179502577739972
 40
2.278859318314086
 40
2.393194462258744
 40
2.516516648383857
 40
2.642834515405986
 40
2.766156701983488
 40
2.880491846754603
 40
2.979848588358645
 40
3.058235565443822
 40
3.109661416668977
 40
3.128134780704152
 40
3.146783742386469
 40
3.19125434331533
 40
3.244332157315989
 40
3.288802758225892
 40
3.307451719895135
 40
3.327717853844748
 40
3.383747753580107
 40
3.4683886659245
 40
3.574487837698809
 40
3.694892515728914
 40
3.822449946852054
 40
3.950007377920445
 40
4.070412055800536
 40
4.176511227368093
 40
4.261152139501539
 40
4.317182039076733
 40
4.337448172964653
 40
4.62001100269627
 40
4.885096638397533
 40
4.945373043518339
 40
5.014107710488648
 40
5.070481727652055
 40
5.319246955636579
 40
5.58481216450605
 40
5.859000912056903
 40
6.133746937542085
 40
6.401732212968888
 40
6.420736683995479
 40
6.472845717451129
 40
6.550702743894057
 40
6.646951193874266
 40
6.754234497930589
 40
6.865196086587368
 40
6.972479390357826
 40
7.068727839771988
 40
7.146584865450997
 40
7.198693898189227
 40
7.217698368905367
 40
7.234950401630844
 40
7.276089864269887
 40
7.325191803515994
 40
7.366331266090377
 40
7.383583298769727
 40
7.402779163492104
 40
7.453386443254535
 40
7.524934666445537
 40
7.606953361405877
 40
7.688972056429028
 40
7.760520279784279
 40
7.811127559734521
 40
7.830323424546142
 40
7.847844055299774
 40
7.894799345666813
 40
7.962779392744503
 40
8.043374293560554
 40
8.128174145149462
 40
8.208769044817263
 40
8.276749090376967
 40
8.323704379669532
 40
8.341225010056263
 40
8.358497614800411
 40
8.401679126686616
 40
8.457815092185674
 40
8.513951057728079
 40
8.557132569708035
 40
8.574405174505078
 40
8.602340668616439
 40
8.643455660539978
 40
8.663225271966645
 40
8.715345156564293
 40
8.789031889628632
 40
8.873502045520363
 40
8.957972194323988
 40
9.031658925567882
 40
9.083778811234573
 40
9.103548423003035
 40
9.119550083123572
 40
9.160817522379874
 40
9.21724442911024
 40
9.278724491644725
 40
9.33515139829551
 40
9.376418837357805
 40
9.392420497300593
 40
9.401196302734812
 40
9.417494229384285
 40
9.426270027749556
 40
9.440875075477589
 40
9.47570249699877
 40
9.517270709865931
 40
9.5520981319941
 40
9.566703169884308
 40
9.566703169884308
 40
9.566703169884308
 40
9.566703169884308
 10
194.6170254148479
 20
15.67015871511026
 10
194.6134345093371
 20
15.66453690702158
 10
194.6056039123624
 20
15.65227754419112
 10
194.5129968974547
 20
15.61601916040975
 10
194.4887622233247
 20
15.40148444212713
 10
194.3858709845938
 20
15.22197284509708
 10
194.1220492364305
 20
15.03615573798146
 10
194.284547156918
 20
14.95959336566081
 10
194.3607225760838
 20
14.89856693195442
 10
194.4492171072758
 20
14.83515804544759
 10
194.5389930233111
 20
14.77525634219561
 10
194.5883817636046
 20
14.72102154849208
 10
194.6745708157382
 20
14.69286240541834
 10
194.6411260674229
 20
14.65713309652811
 10
194.621467116631
 20
14.62550387991905
 10
194.5919888217882
 20
14.58475872796069
 10
194.5688989446031
 20
14.55504663489643
 10
194.5380205968357
 20
14.50211422668493
 10
194.472919336574
 20
14.62740334938903
 10
194.3796000122415
 20
14.68213900233935
 10
194.2950636285138
 20
14.73916423939344
 10
194.1722498125742
 20
14.89675287427523
 10
194.1764450847301
 20
14.82035806766836
 10
194.1751478652677
 20
14.77361280161296
 10
194.1758126448076
 20
14.695847858126
 10
194.1755549986957
 20
14.59902068324423
 10
194.1756431239921
 20
14.48650279078809
 10
194.1756077302282
 20
14.365240859457
 10
194.1756511758278
 20
14.24086897858961
 10
194.1755199942406
 20
14.11967683631337
 10
194.1759477562046
 20
14.00691148919743
 10
194.174667820231
 20
13.91082913768744
 10
194.1779759851044
 20
13.831138264687
 10
194.1715197740086
 20
13.78815175788784
 10
194.1806208705556
 20
13.74955432372043
 10
194.1447910339935
 20
13.7581088772407
 10
194.1115223815252
 20
13.75342519985446
 10
194.060456257604
 20
13.75351298759784
 10
194.0269723972813
 20
13.75794430283821
 10
193.9907585408754
 20
13.74960793842509
 10
194.0009782568665
 20
13.79145277179284
 10
193.9936487887773
 20
13.83778560820174
 10
193.9973633136102
 20
13.92374831106014
 10
193.9959480554896
 20
14.02605142704849
 10
193.9964105554638
 20
14.14453223931512
 10
193.996277368623
 20
14.26957683153356
 10
193.9963015910045
 20
14.39475828107051
 10
193.9963354925551
 20
14.51286645379058
 10
193.9962060293132
 20
14.61628748709516
 10
193.9965507549081
 20
14.69932036153668
 10
193.995869827869
 20
14.75143368521243
 10
193.9994586600625
 20
14.87912907821364
 10
193.7826171386436
 20
14.58048716819619
 10
193.602135492195
 20
14.35263981511517
 10
193.5490322295612
 20
14.49373443289814
 10
193.5200429133148
 20
14.54325767560942
 10
193.4196648062821
 20
14.64641779790108
 10
193.7405127723261
 20
14.72695035023779
 10
193.8689897005429
 20
14.91066283036436
 10
194.0906454325359
 20
15.11931995771763
 10
194.1770224894068
 20
15.29339211228345
 10
194.4549394229074
 20
15.56967051342512
 10
194.3346247839284
 20
15.56534559551115
 10
194.2863197351348
 20
15.56614856202553
 10
194.2102377454905
 20
15.56574582146585
 10
194.116701000975
 20
15.56590275611611
 10
194.0117594788557
 20
15.56582502576224
 10
193.9033887738717
 20
15.56595464378556
 10
193.7981454235897
 20
15.56554393490692
 10
193.7056237819412
 20
15.56682073671592
 10
193.6268130800707
 20
15.5634076653485
 10
193.5839674565379
 20
15.57023350036321
 10
193.5449499586516
 20
15.56065064201124
 10
193.5526365271863
 20
15.59420779565543
 10
193.5485464404312
 20
15.62523550322234
 10
193.5485531368814
 20
15.672365292709
 10
193.5526239724911
 20
15.70340941646779
 10
193.5449495574582
 20
15.73701861635901
 10
193.5834819405495
 20
15.72748410420872
 10
193.624122801448
 20
15.73397435498071
 10
193.6951471850463
 20
15.73100150650254
 10
193.7729318149633
 20
15.73174761399158
 10
193.8507292246474
 20
15.73247814044525
 10
193.9217232089907
 20
15.7295423551416
 10
193.962427979182
 20
15.73595468772952
 10
194.0009853489909
 20
15.72650524176004
 10
193.9927342754928
 20
15.76264692158785
 10
193.9982346669358
 20
15.80129837613226
 10
193.9955754206163
 20
15.86913528561839
 10
193.9965815471533
 20
15.9459164153874
 10
193.9960178018319
 20
16.02849393582757
 10
193.9970714526593
 20
16.10517329229879
 10
193.994267586313
 20
16.173319907767
 10
194.0000702721302
 20
16.21132399809347
 10
193.9915654551159
 20
16.24758448077647
 10
194.0255610233125
 20
16.23755723771853
 10
194.0594575683099
 20
16.24073266813707
 10
194.1126669060346
 20
16.2350896564061
 10
194.1660768574483
 20
16.23434774436425
 10
194.199591464949
 20
16.2281922348298
 10
194.2388086183039
 20
16.23346029773593
 10
194.2120263698492
 20
16.19253380793489
 10
194.1708111001723
 20
16.20371204538111
 10
194.1782641540874
 20
16.15867056192126
 10
194.1742227952184
 20
16.11412278028145
 10
194.176171404964
 20
16.04223572621704
 10
194.1752364849758
 20
15.96168630588771
 10
194.176510719003
 20
15.88173995404995
 10
194.1732043793863
 20
15.80841837083183
 10
194.1802106179961
 20
15.76688643002568
 10
194.1701440380126
 20
15.72752418568113
 10
194.2029814803921
 20
15.73468063430981
 10
194.236457729648
 20
15.73027243137945
 10
194.2915053476019
 20
15.73217943347897
 10
194.3489502595314
 20
15.73185366407288
 10
194.4023026248309
 20
15.73106308733082
 10
194.4398540896638
 20
15.73313959118073
 10
194.4623172523237
 20
15.7302233816711
 10
194.4751678073731
 20
15.73572552644055
 10
194.4858255685889
 20
15.7380111819779
 10
194.4986635650143
 20
15.74494972588051
 10
194.5145991033071
 20
15.72853046313671
 10
194.5410623920892
 20
15.71709122319447
 10
194.5726805253758
 20
15.6964468783519
 10
194.5987255892151
 20
15.68116869628293
 10
194.6128517723973
 20
15.67266976323182
 10
194.6170254148479
 20
15.67015871511026
 97
        1
330
107
 75
     1
 76
     2
 52
45.0
 41
0.1
 77
     0
 78
     1
 53
45.0
 43
0.0
 44
0.0
 45
-0.282842712474619
 46
0.0
 79
     0
 98
        1
 10
0.0
 20
0.0
  0
HATCH
  5
125
330
4D
100
AcDbEntity
  8
1
  6
Continuous
 62
     2
100
AcDbHatch
 10
0.0
 20
0.0
 30
0.0
210
0.0
220
0.0
230
1.0
  2
CUSTOM12
 70
     0
 71
     1
 91
        1
 92
        1
 93
        1
 72
     4
 94
        3
 73
     0
 74
     0
 95
      124
 96
      120
 40
0.0
 40
0.0
 40
0.0
 40
0.0
 40
0.027818722962451
 40
0.1011590162384269
 40
0.2048470170590239
 40
0.3237088716559245
 40
0.4425707262522
 40
0.5462587270699547
 40
0.6195990203311798
 40
0.647417752257866
 40
0.6750060736115224
 40
0.7357003855242741
 40
0.7963946998054474
 40
0.8239830245571766
 40
0.854093381110286
 40
0.937339662940954
 40
1.063094687343235
 40
1.220731268638073
 40
1.399622220914748
 40
1.589140358637732
 40
1.778658496423898
 40
1.957549448940509
 40
2.115186030873159
 40
2.240941056914463
 40
2.324187341760532
 40
2.354297700109382
 40
2.38188602467189
 40
2.442580338710477
 40
2.503274652750499
 40
2.530862977314606
 40
2.560983949278559
 40
2.640393784452905
 40
2.752662861759128
 40
2.881361560118145
 40
3.010060258455192
 40
3.122329335705339
 40
3.201739170817953
 40
3.231860142753313
 40
3.264298024030372
 40
3.352343701778241
 40
3.482095226868766
 40
3.639650650173031
 40
3.811108022565489
 40
3.982565394927998
 40
4.140120818152581
 40
4.269872343141293
 40
4.357918020802356
 40
4.390355902043985
 40
4.423256253992554
 40
4.508104530073076
 40
4.624121560636843
 40
4.7505281760316
 40
4.866545206602047
 40
4.951393482692004
 40
4.984293834645405
 40
5.011450833242317
 40
5.071196230152096
 40
5.130941627057166
 40
5.158098625648829
 40
5.190998977601519
 40
5.275847253689345
 40
5.391864284256779
 40
5.518270899648324
 40
5.634287930209363
 40
5.719136206288037
 40
5.752036558235925
 40
5.78213094628295
 40
5.862783906229125
 40
5.979550131774993
 40
6.117984316640402
 40
6.263641154587948
 40
6.402075339414156
 40
6.518841564907951
 40
6.599494524815536
 40
6.629588912848773
 40
6.65440302822635
 40
6.713575149488118
 40
6.784199939329436
 40
6.843372060493538
 40
6.868186175802784
 40
6.896246243201855
 40
6.939586233758251
 40
6.967846564564879
 40
7.043584251089821
 40
7.153234334451677
 40
7.283231855734429
 40
7.420011856035464
 40
7.550009376579816
 40
7.659659458835221
 40
7.735397144417214
 40
7.763657474851386
 40
7.796409728011043
 40
7.880876065096317
 40
7.996370852465703
 40
8.122208446418599
 40
8.237703224799192
 40
8.322169562010886
 40
8.3549218152059
 40
8.382078813307677
 40
8.441824209206978
 40
8.50156960524012
 40
8.528726603485696
 40
8.561478856695745
 40
8.645945193877795
 40
8.761439980865307
 40
8.887277580764449
 40
9.00277236200097
 40
9.08723869666119
 40
9.119990949235644
 40
9.152428830613344
 40
9.24047450863856
 40
9.370226034149516
 40
9.5277814579844
 40
9.69923883098139
 40
9.870696203978584
 40
10.02825162781401
 40
10.15800315332563
 40
10.24604883135118
 40
10.2784867037852
 40
10.2784867037852
 40
10.2784867037852
 40
10.2784867037852
 10
195.3821827564383
 20
14.01410517385756
 10
195.3914554737523
 20
14.01410498511273
 10
195.4251744536861
 20
14.01410430876713
 10
195.4934706812465
 20
14.01411807243304
 10
195.592014171158
 20
14.01403224219544
 10
195.7062066464812
 20
14.01441755612249
 10
195.818589441707
 20
14.01300835897544
 10
195.9214376600118
 20
14.01719117422242
 10
195.9806839874849
 20
14.00823089251982
 10
196.0371265937033
 20
14.0216443452606
 10
196.0246255586955
 20
13.97087198613361
 10
196.0329549635703
 20
13.92589320939065
 10
196.024817084112
 20
13.88056752990487
 10
196.0370529214457
 20
13.82931932408465
 10
195.9747773490333
 20
13.84447955365275
 10
195.9060513026868
 20
13.83359750710742
 10
195.7782756749592
 20
13.83911304747971
 10
195.6262984511643
 20
13.83700851253697
 10
195.4502695972523
 20
13.83771002588473
 10
195.2644431934287
 20
13.8374523753129
 10
195.0786167437175
 20
13.83771005144602
 10
194.9025880142168
 20
13.8370084184773
 10
194.7506104154195
 20
13.83911332229988
 10
194.6228357664554
 20
13.83359680767639
 10
194.5541077836581
 20
13.84448077125941
 10
194.4918349042883
 20
13.82931786684209
 10
194.5040616290017
 20
13.8805751080517
 10
194.4960004462597
 20
13.92582473272424
 10
194.5040675809892
 20
13.97106357955322
 10
194.4918238487083
 20
14.02234176909957
 10
194.5525017120697
 20
14.00749577363134
 10
194.6162810745736
 20
14.01756448170734
 10
194.7277314353502
 20
14.01294644211998
 10
194.8497533443824
 20
14.01413328905468
 10
194.9719538137823
 20
14.01515863900633
 10
195.0829794287392
 20
14.010924756234
 10
195.1476517413958
 20
14.02018584521738
 10
195.2091162810501
 20
14.00604423049681
 10
195.1930065601337
 20
14.07235527884516
 10
195.2042980327358
 20
14.14447790121974
 10
195.1987400822561
 20
14.27513760888285
 10
195.2008035061691
 20
14.42607323708241
 10
195.2000167127295
 20
14.59335873107886
 10
195.2007845215627
 20
14.76061110332303
 10
195.1988038785628
 20
14.91163289269915
 10
195.2041306156621
 20
15.04206069552995
 10
195.1933101388425
 20
15.114654426059
 10
195.2090326429875
 20
15.18150469436799
 10
195.143270813249
 20
15.16580512490825
 10
195.0756367830764
 20
15.17609243083996
 10
194.9615885293809
 20
15.17113786847123
 10
194.8451242674902
 20
15.17414128030475
 10
194.7306554121477
 20
15.16880303143389
 10
194.6640324657812
 20
15.18001268074826
 10
194.5990769715186
 20
15.16349132665012
 10
194.6107989758707
 20
15.21473720477059
 10
194.6032830189122
 20
15.25950333784091
 10
194.6107989878835
 20
15.3042694489796
 10
194.5990769505347
 20
15.3555153612974
 10
194.66403263392
 20
15.33899381766814
 10
194.7306533339822
 20
15.35020571373943
 10
194.8451352858063
 20
15.34485436710663
 10
194.9615454436962
 20
15.34791188771116
 10
195.0757660174641
 20
15.34278499010707
 10
195.1430150439227
 20
15.35345733355597
 10
195.2083325941438
 20
15.33742082669076
 10
195.1941391448553
 20
15.39949685750052
 10
195.2036059462994
 20
15.46586761628762
 10
195.1990269004085
 20
15.58239972741965
 10
195.2007696555948
 20
15.71426685022375
 10
195.1997551495392
 20
15.85615960150273
 10
195.2017191344372
 20
15.9876905070258
 10
195.1964668553851
 20
16.10524577283001
 10
195.2073408763475
 20
16.16947789001584
 10
195.1919536641853
 20
16.23108802545047
 10
195.24075915378
 20
16.21702407382111
 10
195.2853995564725
 20
16.21954742075313
 10
195.3538643946742
 20
16.21512797401709
 10
195.3959106169103
 20
16.20613025544034
 10
195.4487544758775
 20
16.21411714866509
 10
195.4207035002014
 20
16.17113917611674
 10
195.3749142248593
 20
16.18259552043836
 10
195.3869539073266
 20
16.12173520005137
 10
195.379608607064
 20
16.05769299468773
 10
195.3831195826162
 20
15.94909368863911
 10
195.3819806760173
 20
15.82494319144753
 10
195.3819174780263
 20
15.69189719829877
 10
195.3832872966869
 20
15.56797381249555
 10
195.3791638801313
 20
15.45868337849337
 10
195.3877763103564
 20
15.39608580094169
 10
195.3746757454402
 20
15.33740133296364
 10
195.4393884328198
 20
15.35362113810901
 10
195.5060405953156
 20
15.34270260383311
 10
195.6198779541103
 20
15.34793740173755
 10
195.7357259122097
 20
15.34485547516912
 10
195.849692426328
 20
15.35018259812512
 10
195.9160341018099
 20
15.33904208166541
 10
195.980718852548
 20
15.35546979593177
 10
195.9689820772722
 20
15.30425925210049
 10
195.9765168063041
 20
15.25950334121001
 10
195.9689820992257
 20
15.21474739010027
 10
195.9807188140736
 20
15.16353690871041
 10
195.9160344075252
 20
15.1799642779422
 10
195.8496886430824
 20
15.1688278444727
 10
195.7357459487012
 20
15.17413115893121
 10
195.6197995623054
 20
15.17114764593544
 10
195.5062756882122
 20
15.17606892268395
 10
195.4389231318804
 20
15.1658508751352
 10
195.3734285122495
 20
15.18145996138816
 10
195.3891713619218
 20
15.11463851827411
 10
195.3783275998213
 20
15.04207057815879
 10
195.3836581629792
 20
14.91162247614416
 10
195.3817136151855
 20
14.76064558185226
 10
195.3823133683214
 20
14.59322243934158
 10
195.3821506559604
 20
14.42656176118371
 10
195.3821895488136
 20
14.27360142921636
 10
195.3821816413098
 20
14.14849178985704
 10
195.3821828382746
 20
14.06507890991419
 10
195.3821827716207
 20
14.02491778281975
 10
195.3821827564383
 20
14.01410517385756
 97
        1
330
108
 75
     1
 76
     2
 52
45.0
 41
0.1
 77
     0
 78
     1
 53
45.0
 43
0.0
 44
0.0
 45
-0.282842712474619
 46
0.0
 79
     0
 98
        1
 10
0.0
 20
0.0
  0
HATCH
  5
126
330
4D
100
AcDbEntity
  8
1
  6
Continuous
 62
     2
100
AcDbHatch
 10
0.0
 20
0.0
 30
0.0
210
0.0
220
0.0
230
1.0
  2
CUSTOM13
 70
     0
 71
     1
 91
        1
 92
        1
 93
        3
 72
     4
 94
        3
 73
     0
 74
     0
 95
       24
 96
       20
 40
0.0
 40
0.0
 40
0.0
 40
0.0
 40
0.2211075008753987
 40
0.4273218586245354
 40
0.5080174679239279
 40
0.5914835907870152
 40
0.8143265690192731
 40
1.054651302686589
 40
1.295452694023176
 40
1.518109231328829
 40
1.540864321905445
 40
1.595126460622706
 40
1.659890947896019
 40
1.714153085187378
 40
1.736908174961678
 40
1.764951100735365
 40
1.801562291220954
 40
1.953914424543635
 40
2.126104167379711
 40
2.126104167379711
 40
2.126104167379711
 40
2.126104167379711
 10
185.9375369556889
 20
15.58989295113017
 10
185.9112579081812
 20
15.53097628234375
 10
185.8604698894425
 20
15.41711139679257
 10
185.8131784839111
 20
15.14441958233118
 10
185.7043482802618
 20
15.24445482575453
 10
185.5514800279637
 20
15.27118593367329
 10
185.7686155181199
 20
15.48518135017632
 10
185.783848367438
 20
15.70332117782487
 10
185.8906889492002
 20
15.88451579066426
 10
185.8305380947075
 20
16.16913226311401
 10
185.9334317395402
 20
16.14114089222451
 10
185.977993346815
 20
16.13243251602299
 10
186.0380842395397
 20
16.12139654183355
 10
186.0756619587438
 20
16.10767523055559
 10
186.1252466928606
 20
16.10756076160223
 10
186.0930158919325
 20
16.07306592398623
 10
186.0171802221881
 20
16.08404104537964
 10
186.0429447159694
 20
15.89858969582449
 10
186.0055896763849
 20
15.80702313549589
 10
185.9857704961609
 20
15.75844135397705
 72
     4
 94
        3
 73
     0
 74
     0
 95
       70
 96
       66
 40
0.0
 40
0.0
 40
0.0
 40
0.0
 40
0.0241731073021472
 40
0.0846058988987013
 40
0.1631685280353284
 40
0.2417311571789756
 40
0.3021639488292751
 40
0.3263370654895541
 40
0.3533118254248881
 40
0.4228783438922111
 40
0.5179999095313402
 40
0.6216398239466102
 40
0.7167613891499706
 40
0.7863279069649863
 40
0.8133026791761836
 40
0.8372943998771674
 40
0.8945054261372869
 40
0.9627895541962639
 40
1.020000580349074
 40
1.043992300975172
 40
1.071934345522902
 40
1.113121768772912
 40
1.145225199332236
 40
1.225483775412775
 40
1.329819923771487
 40
1.434156071994376
 40
1.514414647795801
 40
1.546518078208409
 40
1.578974764260183
 40
1.662678849314178
 40
1.777131373668398
 40
1.901833377474789
 40
2.016285900500579
 40
2.099989982527946
 40
2.132446666570305
 40
2.158782354486027
 40
2.216720867907817
 40
2.27465938133424
 40
2.300995069256174
 40
2.333451754066147
 40
2.417155836543827
 40
2.531608358985267
 40
2.656310362283762
 40
2.770762886388894
 40
2.854466971340059
 40
2.886923657363866
 40
2.9135979768333
 40
2.982389642875102
 40
3.076451716946965
 40
3.178937260458577
 40
3.272999334739978
 40
3.341791001059198
 40
3.36846532066351
 40
3.396976080738732
 40
3.472140811845968
 40
3.578408190308657
 40
3.700226892456094
 40
3.822045594634311
 40
3.928312973256418
 40
4.003477705314815
 40
4.03198845686688
 40
4.058324144797679
 40
4.11626265823684
 40
4.17420117140064
 40
4.200536849608572
 40
4.200536849608572
 40
4.200536849608572
 40
4.200536849608572
 10
185.9857704961609
 20
15.75844135397705
 10
185.9938259544679
 20
15.75844359811686
 10
186.0220200663241
 20
15.75845146032798
 10
186.0765534803672
 20
15.75830754828372
 10
186.1482891808604
 20
15.75909120499898
 10
186.2236240137062
 20
15.75627570463811
 10
186.2713052366438
 20
15.76298403400957
 10
186.3195071245616
 20
15.75197563692433
 10
186.3062571799873
 20
15.80546402997033
 10
186.3151093964539
 20
15.86049583543092
 10
186.3108698036285
 20
15.95419908726109
 10
186.313348348128
 20
16.04959482218532
 10
186.309093870606
 20
16.14356821983387
 10
186.3179818665846
 20
16.19795062438012
 10
186.3046977409945
 20
16.25233997691461
 10
186.3514119277109
 20
16.23842216335358
 10
186.3943254545736
 20
16.24103877374043
 10
186.4605443456685
 20
16.23648422450755
 10
186.5013342271798
 20
16.22778162134162
 10
186.5525145690819
 20
16.23531799890195
 10
186.52537204872
 20
16.19349970223285
 10
186.4803096055707
 20
16.20284992072597
 10
186.4942065045051
 20
16.13841207371838
 10
186.4858414431654
 20
16.073782196274
 10
186.4903632178399
 20
15.97529141193888
 10
186.4854741311167
 20
15.87595932842571
 10
186.4950258992081
 20
15.81293115552969
 10
186.4799761455201
 20
15.74964011499789
 10
186.5449159457208
 20
15.76515072944269
 10
186.6116246399496
 20
15.75499387697812
 10
186.7241435470828
 20
15.75988800099367
 10
186.8390235448953
 20
15.75691204732783
 10
186.9519871999747
 20
15.76221664184991
 10
187.0176267597677
 20
15.75107306472089
 10
187.0816276691053
 20
15.76744532319857
 10
187.0703142889189
 20
15.71761689905274
 10
187.077533987151
 20
15.67416715212123
 10
187.0703142611268
 20
15.63071745587445
 10
187.0816277175994
 20
15.58088895196876
 10
187.0176263598971
 20
15.59726166091362
 10
186.951992124046
 20
15.58611271661588
 10
186.838997431733
 20
15.59144857206854
 10
186.7242456548644
 20
15.58834345663822
 10
186.611318368686
 20
15.59364894682588
 10
186.5455220903585
 20
15.58257300019594
 10
186.4816097975358
 20
15.59887597847617
 10
186.4936015165126
 20
15.54423524395742
 10
186.4862104613006
 20
15.48854295047842
 10
186.4892684841982
 20
15.3964968914057
 10
186.4893422785683
 20
15.30179109873102
 10
186.4860313578359
 20
15.20952782902266
 10
186.4939505989903
 20
15.1543576873614
 10
186.4815076611617
 20
15.10058169100137
 10
186.5389116551632
 20
15.11453768862782
 10
186.5994708140382
 20
15.10511457884227
 10
186.7048680855081
 20
15.10942885928705
 10
186.8204294070622
 20
15.10835504612032
 10
186.9359688877797
 20
15.10725965900995
 10
187.0414181130841
 20
15.11162525770633
 10
187.1018680471804
 20
15.10209426030672
 10
187.159283773911
 20
15.1161728960638
 10
187.1477773876709
 20
15.06707153265684
 10
187.153756678175
 20
15.0256465801865
 10
187.1520311050801
 20
14.97651677966696
 10
187.1521500122971
 20
14.94854428447609
 10
187.1521871691833
 20
14.93980288195951
 72
     4
 94
        3
 73
     0
 74
     0
 95
       62
 96
       58
 40
0.0
 40
0.0
 40
0.0
 40
0.0
 40
0.0598250028308485
 40
0.2024846486897331
 40
0.3727558389221031
 40
0.515415484793607
 40
0.5752404975785339
 40
0.9332326775487322
 40
1.290451762839484
 40
1.602077253145885
 40
1.69993163411214
 40
1.799359756425049
 40
2.270120149657085
 40
2.804661928461534
 40
2.882342287383243
 40
3.076543185719093
 40
3.329004354835553
 40
3.581465524568379
 40
3.775666424543659
 40
3.853346784558279
 40
3.899120679595025
 40
3.984129341792022
 40
4.029903236817371
 40
4.105797496059528
 40
4.295533144152489
 40
4.542189486611734
 40
4.788845828875686
 40
4.97858147641007
 40
5.054475735244314
 40
5.621734664339336
 40
6.130867242037343
 40
6.225249780948584
 40
6.318913039727279
 40
6.663579954558904
 40
7.047498900224756
 40
7.435230791575686
 40
7.498943906668098
 40
7.650875181210091
 40
7.832212509001602
 40
7.984143783696988
 40
8.047856898903115
 40
8.09155463273262
 40
8.172707566964277
 40
8.216405300768
 40
8.289021782160885
 40
8.462184160757259
 40
8.66886183800534
 40
8.842024215263931
 40
8.914640695475127
 40
8.989881580861333
 40
9.155411528827235
 40
9.320941477744016
 40
9.396182352487266
 40
9.454709011143812
 40
9.583467660170747
 40
9.712226309013026
 40
9.77075295798948
 40
9.77075295798948
 40
9.77075295798948
 40
9.77075295798948
 10
187.1521871691833
 20
14.93980288195951
 10
187.1322348171623
 20
14.93980875568673
 10
187.0647037716466
 20
14.93982863806158
 10
186.9410612161788
 20
14.93949362520326
 10
186.7863180150056
 20
14.94107673750513
 10
186.669734948248
 20
14.93686078860496
 10
186.455094263424
 20
14.95215205331627
 10
186.8518948407229
 20
14.59198721286192
 10
186.8945656069268
 20
14.37510503397166
 10
187.318916214661
 20
14.19325062511446
 10
187.1439821496074
 20
14.08985196568072
 10
187.0194523925083
 20
13.87831523212725
 10
186.7666277235942
 20
14.34806081001562
 10
186.4797602893628
 20
14.99511516984521
 10
186.4906335926659
 20
14.68782672154693
 10
186.488289277796
 20
14.52288616971778
 10
186.4861096126411
 20
14.28879670711693
 10
186.4980774396346
 20
14.04498072421783
 10
186.468798474063
 20
13.89855796860985
 10
186.511452262547
 20
13.75113490174538
 10
186.4239814005639
 20
13.7668579730622
 10
186.3768527606744
 20
13.76694303543455
 10
186.2898973207713
 20
13.75109425482909
 10
186.3313474021722
 20
13.89527771422762
 10
186.3029875004285
 20
14.03855052698455
 10
186.31459737753
 20
14.27674947365265
 10
186.3124175648271
 20
14.50517235240347
 10
186.3103111127994
 20
14.66705729375996
 10
186.3208035438323
 20
14.98153709333753
 10
186.0128963252893
 20
14.29229470872436
 10
185.7055258267455
 20
13.81476750243055
 10
185.5851367066274
 20
14.03741112637427
 10
185.4074607910722
 20
14.15011034955568
 10
185.8853326362894
 20
14.32548143465462
 10
185.9353959057208
 20
14.56091929252032
 10
186.3583799621717
 20
14.95322989344609
 10
186.127675427354
 20
14.93655307029067
 10
186.004968585934
 20
14.94269518948772
 10
185.8325483095662
 20
14.93312822699575
 10
185.7213224694449
 20
14.95448818489667
 10
185.6025779627447
 20
14.92136265357421
 10
185.6183169706686
 20
15.00203900606884
 10
185.6178550933762
 20
15.04645414290855
 10
185.6027881889931
 20
15.12967081778534
 10
185.7372380935443
 20
15.09062651983884
 10
185.8619755545747
 20
15.11739729328423
 10
186.062875523728
 20
15.10063949044053
 10
186.1921540949353
 20
15.12204225913005
 10
186.3328419928294
 20
15.08868778853421
 10
186.2980927452615
 20
15.22651875785069
 10
186.3222185666713
 20
15.34963257349481
 10
186.2967086182393
 20
15.47024055670336
 10
186.3333251146684
 20
15.60539865141495
 10
186.2211417027769
 20
15.58094545781891
 10
186.1280356457136
 20
15.59307749842022
 10
186.0191547579819
 20
15.58957630069994
 10
185.9569697640964
 20
15.58981755951603
 10
185.9375369557246
 20
15.58989295124144
 97
        3
330
10A
330
10B
330
109
 75
     1
 76
     2
 52
45.0
 41
0.1
 77
     0
 78
     1
 53
45.0
 43
0.0
 44
0.0
 45
-0.282842712474619
 46
0.0
 79
     0
 98
        1
 10
0.0
 20
0.0
  0
HATCH
  5
127
330
4D
100
AcDbEntity
  8
1
  6
Continuous
 62
     2
100
AcDbHatch
 10
0.0
 20
0.0
 30
0.0
210
0.0
220
0.0
230
1.0
  2
CUSTOM14
 70
     0
 71
     1
 91
        1
 92
        1
 93
        4
 72
     1
 10
192.4578138032672
 20
15.22875434022058
 11
191.1602971697031
 21
15.22875434022058
 72
     1
 10
191.1602971697031
 20
15.22875434022058
 11
191.1602971697031
 21
15.39722336795626
 72
     1
 10
191.1602971697031
 20
15.39722336795626
 11
192.4578138032672
 21
15.39722336795626
 72
     1
 10
192.4578138032672
 20
15.39722336795626
 11
192.4578138032672
 21
15.22875434022058
 97
        1
330
10C
 75
     1
 76
     2
 52
45.0
 41
0.1
 77
     0
 78
     1
 53
45.0
 43
0.0
 44
0.0
 45
-0.282842712474619
 46
0.0
 79
     0
 98
        1
 10
0.0
 20
0.0
  0
ENDBLK
  5
4F
330
4D
100
AcDbEntity
  8
0
100
AcDbBlockEnd
  0
BLOCK
  5
52
330
50
100
AcDbEntity
  8
0
100
AcDbBlockBegin
  2
開示A4枠
 70
     0
 10
0.0
 20
0.0
 30
0.0
  3
開示A4枠
  1

  0
INSERT
  5
51
330
50
100
AcDbEntity
  8
1
100
AcDbBlockReference
  2
開示A4
 10
0.0
 20
0.0
 30
0.0
 41
2.0
 42
2.0
 43
2.0
  0
ENDBLK
  5
53
330
50
100
AcDbEntity
  8
0
100
AcDbBlockEnd
  0
BLOCK
  5
55
330
54
100
AcDbEntity
  8
0
100
AcDbBlockBegin
  2
流し排水栓フタ
 70
     0
 10
181.8448389549326
 20
329.3349286198916
 30
0.0
  3
流し排水栓フタ
  1

  0
POINT
  5
128
330
54
100
AcDbEntity
  8
3
 62
     7
100
AcDbPoint
 10
181.8448389549326
 20
330.834928619888
 30
0.0
  0
POINT
  5
129
330
54
100
AcDbEntity
  8
3
 62
     7
100
AcDbPoint
 10
268.8448389549328
 20
330.834928619888
 30
0.0
  0
LINE
  5
12A
330
54
100
AcDbEntity
  8
1
  6
Continuous
 62
     7
100
AcDbLine
 10
218.3448389549326
 20
334.334928619888
 30
0.0
 11
220.5323389549326
 21
330.834928619888
 31
0.0
  0
LINE
  5
12B
330
54
100
AcDbEntity
  8
1
  6
Continuous
 62
     7
100
AcDbLine
 10
218.3448389549326
 20
336.3349286198916
 30
0.0
 11
218.3448389549326
 21
334.334928619888
 31
0.0
  0
LINE
  5
12C
330
54
100
AcDbEntity
  8
1
  6
Continuous
 62
     7
100
AcDbLine
 10
181.8448389549326
 20
330.834928619888
 30
0.0
 11
182.3448389549326
 21
329.3349286198916
 31
0.0
  0
LINE
  5
12D
330
54
100
AcDbEntity
  8
1
  6
Continuous
 62
     7
100
AcDbLine
 10
268.3448389549328
 20
329.3349286198916
 30
0.0
 11
268.8448389549328
 21
330.834928619888
 31
0.0
  0
LINE
  5
12E
330
54
100
AcDbEntity
  8
1
  6
Continuous
 62
     7
100
AcDbLine
 10
232.3448389549328
 20
334.334928619888
 30
0.0
 11
232.3448389549328
 21
336.3349286198916
 31
0.0
  0
LINE
  5
12F
330
54
100
AcDbEntity
  8
1
  6
Continuous
 62
     7
100
AcDbLine
 10
181.8448389549326
 20
330.834928619888
 30
0.0
 11
268.8448389549328
 21
330.834928619888
 31
0.0
  0
LINE
  5
130
330
54
100
AcDbEntity
  8
1
  6
Continuous
 62
     7
100
AcDbLine
 10
182.3448389549326
 20
329.3349286198916
 30
0.0
 11
268.3448389549328
 21
329.3349286198916
 31
0.0
  0
LINE
  5
131
330
54
100
AcDbEntity
  8
1
  6
Continuous
 62
     7
100
AcDbLine
 10
230.1573389549328
 20
330.834928619888
 30
0.0
 11
232.3448389549328
 21
334.334928619888
 31
0.0
  0
LINE
  5
132
330
54
100
AcDbEntity
  8
1
  6
Continuous
 62
     7
100
AcDbLine
 10
232.3448389549328
 20
336.3349286198916
 30
0.0
 11
218.3448389549326
 21
336.3349286198916
 31
0.0
  0
LINE
  5
133
330
54
100
AcDbEntity
  8
1
  6
Continuous
 62
     7
100
AcDbLine
 10
232.3448389549328
 20
334.334928619888
 30
0.0
 11
218.3448389549326
 21
334.334928619888
 31
0.0
  0
ARC
  5
134
330
54
100
AcDbEntity
  8
1
  6
Continuous
 62
     7
100
AcDbCircle
 10
225.3448389549326
 20
325.0849286198916
 30
0.0
 40
13.2500000000001
100
AcDbArc
 50
58.10920819815357
 51
121.8907918018457
  0
CIRCLE
  5
135
330
54
100
AcDbEntity
  8
1
  6
Continuous
 62
     7
100
AcDbCircle
 10
225.3448389549326
 20
476.0
 30
0.0
 40
30.69999999999996
  0
CIRCLE
  5
136
330
54
100
AcDbEntity
  8
1
  6
Continuous
 62
     7
100
AcDbCircle
 10
225.3448389549326
 20
476.0
 30
0.0
 40
7.000000000000199
  0
CIRCLE
  5
137
330
54
100
AcDbEntity
  8
1
  6
Continuous
 62
     7
100
AcDbCircle
 10
225.3448389549326
 20
476.0
 30
0.0
 40
7.000000000000199
  0
CIRCLE
  5
138
330
54
100
AcDbEntity
  8
1
  6
Continuous
 62
     7
100
AcDbCircle
 10
225.3448389549326
 20
476.0
 30
0.0
 40
43.5000000000002
  0
CIRCLE
  5
139
330
54
100
AcDbEntity
  8
1
  6
Continuous
 62
     7
100
AcDbCircle
 10
225.3448389549326
 20
476.0
 30
0.0
 40
32.49999999999997
  0
CIRCLE
  5
13A
330
54
100
AcDbEntity
  8
1
  6
Continuous
 62
     7
100
AcDbCircle
 10
225.3448389549326
 20
476.0
 30
0.0
 40
20.03999999999999
  0
ENDBLK
  5
56
330
54
100
AcDbEntity
  8
0
100
AcDbBlockEnd
  0
BLOCK
  5
58
330
57
100
AcDbEntity
  8
0
100
AcDbBlockBegin
  2
流し排水栓フランジ
 70
     0
 10
168.3448392610839
 20
308.8349286198916
 30
0.0
  3
流し排水栓フランジ
  1

  0
POINT
  5
13B
330
57
100
AcDbEntity
  8
3
 62
     7
100
AcDbPoint
 10
168.3448392610839
 20
328.2317705248805
 30
0.0
  0
POINT
  5
13C
330
57
100
AcDbEntity
  8
3
 62
     7
100
AcDbPoint
 10
282.3448386487812
 20
328.2317705248805
 30
0.0
  0
LINE
  5
13D
330
57
100
AcDbEntity
  8
8
  6
Continuous
 62
     7
100
AcDbLine
 10
225.3448389549326
 20
325.8349286198916
 30
0.0
 11
182.0948392610839
 21
325.8349286198916
 31
0.0
  0
LINE
  5
13E
330
57
100
AcDbEntity
  8
8
  6
Continuous
 62
     7
100
AcDbLine
 10
173.7220509448566
 20
326.748323708938
 30
0.0
 11
169.2363917509087
 21
327.2376683482742
 31
0.0
  0
LINE
  5
13F
330
57
100
AcDbEntity
  8
8
  6
Continuous
 62
     7
100
AcDbLine
 10
169.3448392610839
 20
329.3349286198916
 30
0.0
 11
225.3448389549326
 21
329.3349286198916
 31
0.0
  0
LINE
  5
140
330
57
100
AcDbEntity
  8
8
  6
Continuous
 62
     7
100
AcDbLine
 10
168.3448392610839
 20
328.2317705248805
 30
0.0
 11
168.3448392610839
 21
328.3349286198916
 31
0.0
  0
LINE
  5
141
330
57
100
AcDbEntity
  8
8
  6
Continuous
 62
     7
100
AcDbLine
 10
178.7220509448566
 20
326.2028691634822
 30
0.0
 11
174.4676275773122
 21
326.6669880763018
 31
0.0
  0
LINE
  5
142
330
57
100
AcDbEntity
  8
8
  6
Continuous
 62
     7
100
AcDbLine
 10
182.0948392610839
 20
325.8349286198916
 30
0.0
 11
179.4676275773122
 21
326.1215335308496
 31
0.0
  0
LINE
  5
143
330
57
100
AcDbEntity
  8
8
  6
Continuous
 62
     7
100
AcDbLine
 10
271.222050332553
 20
326.1215335308496
 30
0.0
 11
268.5948386487812
 21
325.8349286198916
 31
0.0
  0
LINE
  5
144
330
57
100
AcDbEntity
  8
8
  6
Continuous
 62
     7
100
AcDbLine
 10
276.222050332553
 20
326.6669880763018
 30
0.0
 11
271.9676269650086
 21
326.2028691634822
 31
0.0
  0
LINE
  5
145
330
57
100
AcDbEntity
  8
8
  6
Continuous
 62
     7
100
AcDbLine
 10
282.3448386487812
 20
328.3349286198916
 30
0.0
 11
282.3448386487812
 21
328.2317705248805
 31
0.0
  0
LINE
  5
146
330
57
100
AcDbEntity
  8
8
  6
Continuous
 62
     7
100
AcDbLine
 10
225.3448389549326
 20
329.3349286198916
 30
0.0
 11
281.3448386487812
 21
329.3349286198916
 31
0.0
  0
LINE
  5
147
330
57
100
AcDbEntity
  8
8
  6
Continuous
 62
     7
100
AcDbLine
 10
281.4532861589564
 20
327.2376683482742
 30
0.0
 11
276.9676269650086
 21
326.748323708938
 31
0.0
  0
LINE
  5
148
330
57
100
AcDbEntity
  8
8
  6
Continuous
 62
     7
100
AcDbLine
 10
268.5948386487812
 20
325.8349286198916
 30
0.0
 11
225.3448389549326
 21
325.8349286198916
 31
0.0
  0
LINE
  5
149
330
57
100
AcDbEntity
  8
1
  6
PHANTOM
 62
     4
100
AcDbLine
 10
225.3448389549326
 20
332.3349286198916
 30
0.0
 11
225.3448389549326
 21
308.8349286198916
 31
0.0
  0
ARC
  5
14A
330
57
100
AcDbEntity
  8
8
  6
Continuous
 62
     7
100
AcDbCircle
 10
169.3448392610839
 20
328.3349286198916
 30
0.0
 40
1.0
100
AcDbArc
 50
90.0
 51
180.0
  0
ARC
  5
14B
330
57
100
AcDbEntity
  8
8
  6
Continuous
 62
     7
100
AcDbCircle
 10
169.3448392610839
 20
328.2317705248805
 30
0.0
 40
1.0
100
AcDbArc
 50
180.0
 51
263.7741709355755
  0
ARC
  5
14C
330
57
100
AcDbEntity
  8
8
  6
Continuous
 62
     7
100
AcDbCircle
 10
174.0948392610839
 20
326.7076558926181
 30
0.0
 40
0.3749999999997682
100
AcDbArc
 50
173.7741709349358
 51
353.7741709354958
  0
ARC
  5
14D
330
57
100
AcDbEntity
  8
8
  6
Continuous
 62
     7
100
AcDbCircle
 10
179.0948392610839
 20
326.1622013471659
 30
0.0
 40
0.3749999999993798
100
AcDbArc
 50
173.7741709354797
 51
353.7741709355043
  0
ARC
  5
14E
330
57
100
AcDbEntity
  8
8
  6
Continuous
 62
     7
100
AcDbCircle
 10
271.5948386487812
 20
326.1622013471659
 30
0.0
 40
0.3750000000002496
100
AcDbArc
 50
186.225829064497
 51
6.22582906451886
  0
ARC
  5
14F
330
57
100
AcDbEntity
  8
8
  6
Continuous
 62
     7
100
AcDbCircle
 10
276.5948386487812
 20
326.7076558926181
 30
0.0
 40
0.3750000000002557
100
AcDbArc
 50
186.2258290645057
 51
6.22582906506279
  0
ARC
  5
150
330
57
100
AcDbEntity
  8
8
  6
Continuous
 62
     7
100
AcDbCircle
 10
281.3448386487812
 20
328.2317705248805
 30
0.0
 40
0.9999999999982973
100
AcDbArc
 50
276.2258290644244
 51
0.0
  0
ARC
  5
151
330
57
100
AcDbEntity
  8
8
  6
Continuous
 62
     7
100
AcDbCircle
 10
281.3448386487812
 20
328.3349286198916
 30
0.0
 40
1.0
100
AcDbArc
 50
0.0
 51
90.0
  0
CIRCLE
  5
152
330
57
100
AcDbEntity
  8
1
  6
Continuous
 62
     7
100
AcDbCircle
 10
225.3448389549326
 20
476.0
 30
0.0
 40
56.99999969384859
  0
ENDBLK
  5
59
330
57
100
AcDbEntity
  8
0
100
AcDbBlockEnd
  0
BLOCK
  5
174
330
16D
100
AcDbEntity
  8
0
100
AcDbBlockBegin
  2
*D6
 70
     1
 10
0.0
 20
0.0
 30
0.0
  3
*D6
  1

  0
LINE
  5
16E
330
16D
100
AcDbEntity
  8
1
  6
Continuous
 62
     2
100
AcDbLine
 10
147.8448389549326
 20
325.8349286198917
 30
0.0
 11
147.8448389549326
 21
123.8349286198953
 31
0.0
  0
LINE
  5
16F
330
16D
100
AcDbEntity
  8
1
  6
Continuous
 62
     2
100
AcDbLine
 10
197.3448389549326
 20
123.8349286198953
 30
0.0
 11
145.8448389549326
 21
123.8349286198953
 31
0.0
  0
LINE
  5
170
330
16D
100
AcDbEntity
  8
1
  6
Continuous
 62
     2
100
AcDbLine
 10
168.3448389549326
 20
325.8349286198917
 30
0.0
 11
145.8448389549326
 21
325.8349286198917
 31
0.0
  0
SOLID
  5
171
330
16D
100
AcDbEntity
  8
1
 62
     2
100
AcDbTrace
 10
148.7664064380444
 20
318.8349286198917
 30
0.0
 11
146.9232714718208
 21
318.8349286198917
 31
0.0
 12
147.8448389549326
 22
325.8349286198917
 32
0.0
 13
147.8448389549326
 23
325.8349286198917
 33
0.0
  0
SOLID
  5
172
330
16D
100
AcDbEntity
  8
1
 62
     2
100
AcDbTrace
 10
146.9232714718208
 20
130.8349286198953
 30
0.0
 11
148.7664064380444
 21
130.8349286198953
 31
0.0
 12
147.8448389549326
 22
123.8349286198953
 32
0.0
 13
147.8448389549326
 23
123.8349286198953
 33
0.0
  0
MTEXT
  5
173
330
16D
100
AcDbEntity
  8
1
 62
     7
100
AcDbMText
 10
145.8448389549326
 20
216.4349286198935
 30
0.0
 40
7.0
 41
0.0
 71
     7
 72
     1
  1
202
  7
CONVERTER_12
 11
0.0
 21
1.0
 31
0.0
 73
     1
 44
0.60024009603842
  0
ENDBLK
  5
175
330
16D
100
AcDbEntity
  8
0
100
AcDbBlockEnd
  0
BLOCK
  5
17F
330
178
100
AcDbEntity
  8
0
100
AcDbBlockBegin
  2
*D7
 70
     1
 10
0.0
 20
0.0
 30
0.0
  3
*D7
  1

  0
LINE
  5
179
330
178
100
AcDbEntity
  8
1
  6
Continuous
 62
     2
100
AcDbLine
 10
168.344839261084
 20
358.3349286198916
 30
0.0
 11
282.3448386487812
 21
358.3349286198916
 31
0.0
  0
LINE
  5
17A
330
178
100
AcDbEntity
  8
1
  6
Continuous
 62
     2
100
AcDbLine
 10
282.3448386487812
 20
328.3349286198916
 30
0.0
 11
282.3448386487812
 21
360.3349286198916
 31
0.0
  0
LINE
  5
17B
330
178
100
AcDbEntity
  8
1
  6
Continuous
 62
     2
100
AcDbLine
 10
168.344839261084
 20
328.3349286198916
 30
0.0
 11
168.344839261084
 21
360.3349286198916
 31
0.0
  0
SOLID
  5
17C
330
178
100
AcDbEntity
  8
1
 62
     2
100
AcDbTrace
 10
175.344839261084
 20
359.2564961030034
 30
0.0
 11
175.344839261084
 21
357.4133611367799
 31
0.0
 12
168.344839261084
 22
358.3349286198916
 32
0.0
 13
168.344839261084
 23
358.3349286198916
 33
0.0
  0
SOLID
  5
17D
330
178
100
AcDbEntity
  8
1
 62
     2
100
AcDbTrace
 10
275.3448386487812
 20
357.4133611367799
 30
0.0
 11
275.3448386487812
 21
359.2564961030034
 31
0.0
 12
282.3448386487812
 22
358.3349286198916
 32
0.0
 13
282.3448386487812
 23
358.3349286198916
 33
0.0
  0
MTEXT
  5
17E
330
178
100
AcDbEntity
  8
1
 62
     7
100
AcDbMText
 10
217.5048389549495
 20
360.334914705739
 30
0.0
 40
7.0
 41
0.0
 71
     7
 72
     1
  1
\C7;{\Fgdt;n}\C7;114
  7
CONVERTER_12
 11
0.9999999999970619
 21
2.424068405545306E-6
 31
0.0
 73
     1
 44
0.60024009603842
  0
ENDBLK
  5
180
330
178
100
AcDbEntity
  8
0
100
AcDbBlockEnd
  0
BLOCK
  5
18A
330
183
100
AcDbEntity
  8
0
100
AcDbBlockBegin
  2
*D8
 70
     1
 10
0.0
 20
0.0
 30
0.0
  3
*D8
  1

  0
LINE
  5
184
330
183
100
AcDbEntity
  8
1
  6
Continuous
 62
     2
100
AcDbLine
 10
179.3448389549326
 20
215.660843430408
 30
0.0
 11
271.3448389549328
 21
215.660843430408
 31
0.0
  0
LINE
  5
185
330
183
100
AcDbEntity
  8
1
  6
Continuous
 62
     2
100
AcDbLine
 10
179.3448389549326
 20
295.8349286198916
 30
0.0
 11
179.3448389549326
 21
213.660843430408
 31
0.0
  0
LINE
  5
186
330
183
100
AcDbEntity
  8
1
  6
Continuous
 62
     2
100
AcDbLine
 10
271.3448389549328
 20
295.8349286198916
 30
0.0
 11
271.3448389549328
 21
213.660843430408
 31
0.0
  0
SOLID
  5
187
330
183
100
AcDbEntity
  8
1
 62
     2
100
AcDbTrace
 10
186.3448389549326
 20
216.5824109135198
 30
0.0
 11
186.3448389549326
 21
214.7392759472962
 31
0.0
 12
179.3448389549326
 22
215.660843430408
 32
0.0
 13
179.3448389549326
 23
215.660843430408
 33
0.0
  0
SOLID
  5
188
330
183
100
AcDbEntity
  8
1
 62
     2
100
AcDbTrace
 10
264.3448389549328
 20
214.7392759472962
 30
0.0
 11
264.3448389549328
 21
216.5824109135198
 31
0.0
 12
271.3448389549328
 22
215.660843430408
 32
0.0
 13
271.3448389549328
 23
215.660843430408
 33
0.0
  0
MTEXT
  5
189
330
183
100
AcDbEntity
  8
1
 62
     7
100
AcDbMText
 10
218.5548389549495
 20
217.6608295162553
 30
0.0
 40
7.0
 41
0.0
 71
     7
 72
     1
  1
\C7;{\Fgdt;n}\C7;92
  7
CONVERTER_12
 11
0.9999999999970619
 21
2.424068405545306E-6
 31
0.0
 73
     1
 44
0.60024009603842
  0
ENDBLK
  5
18B
330
183
100
AcDbEntity
  8
0
100
AcDbBlockEnd
  0
ENDSEC
  0
SECTION
  2
ENTITIES
  0
INSERT
  5
5A
330
1F
100
AcDbEntity
  8
1
100
AcDbBlockReference
  2
流し排水栓本体
 10
167.8448389549326
 20
123.8349286198953
 30
0.0
  0
INSERT
  5
5B
330
1F
100
AcDbEntity
  8
0
100
AcDbBlockReference
  2
開示A4枠
 10
0.0
 20
0.0
 30
0.0
  0
INSERT
  5
5C
330
1F
100
AcDbEntity
  8
1
100
AcDbBlockReference
  2
流し排水栓フタ
 10
181.8448389549326
 20
329.3349286198916
 30
0.0
  0
INSERT
  5
5D
330
1F
100
AcDbEntity
  8
1
100
AcDbBlockReference
  2
流し排水栓フランジ
 10
168.3448392610839
 20
308.8349286198916
 30
0.0
  0
LINE
  5
153
330
1F
100
AcDbEntity
  8
1
  6
DASH_CENTER
 62
     2
100
AcDbLine
 10
225.3448389549326
 20
338.3349286198916
 30
0.0
 11
225.3448389549326
 21
341.3349286198916
 31
0.0
  0
LINE
  5
154
330
1F
100
AcDbEntity
  8
1
  6
DASH_CENTER
 62
     2
100
AcDbLine
 10
225.3448389549326
 20
120.8349286198953
 30
0.0
 11
225.3448389549326
 21
214.244646879415
 31
0.0
  0
LINE
  5
155
330
1F
100
AcDbEntity
  8
1
  6
DASH_CENTER
 62
     2
100
AcDbLine
 10
288.8448389549328
 20
476.0
 30
0.0
 11
162.344839261084
 21
476.0
 31
0.0
  0
LINE
  5
156
330
1F
100
AcDbEntity
  8
1
  6
DASH_CENTER
 62
     2
100
AcDbLine
 10
225.3448389549326
 20
539.5000000000002
 30
0.0
 11
225.3448389549326
 21
412.4999999999998
 31
0.0
  0
LINE
  5
157
330
1F
100
AcDbEntity
  8
1
  6
DASH_CENTER
 62
     2
100
AcDbLine
 10
225.3448389549326
 20
228.323522070783
 30
0.0
 11
225.3448389549326
 21
338.3349286198916
 31
0.0
  0
SOLID
  5
158
330
1F
100
AcDbEntity
  8
1
 62
     2
100
AcDbTrace
 10
259.1429398066093
 20
127.4835340427997
 30
0.0
 11
257.5467381032563
 21
126.5619665596879
 31
0.0
 12
254.8448389549328
 22
133.0849281277349
 32
0.0
 13
254.8448389549328
 23
133.0849281277349
 33
0.0
  0
LEADER
  5
159
330
1F
100
AcDbEntity
  8
1
  6
Continuous
 62
     2
100
AcDbLeader
  3
Standard
 71
     0
 76
     3
 10
254.8448389549328
 20
133.0849281277349
 30
0.0
 10
269.327628962083
 20
108.0
 30
0.0
 10
285.3687976093988
 20
108.0
 30
0.0
  0
MTEXT
  5
15B
330
1F
100
AcDbEntity
  8
1
 62
     7
100
AcDbMText
 10
213.0
 20
25.0
 30
0.0
 40
5.0
 41
0.0
 71
     5
 72
     1
  1
10
  7
CONVERTER_12
 73
     1
 44
0.7202881152461
  0
MTEXT
  5
15C
330
1F
100
AcDbEntity
  8
1
 62
     7
100
AcDbMText
 10
224.5
 20
25.0
 30
0.0
 40
5.0
 41
0.0
 71
     5
 72
     1
  1
19
  7
CONVERTER_12
 73
     1
 44
0.7202881152461
  0
MTEXT
  5
15D
330
1F
100
AcDbEntity
  8
1
 62
     7
100
AcDbMText
 10
201.5
 20
25.0
 30
0.0
 40
5.0
 41
0.0
 71
     5
 72
     1
  1
23
  7
CONVERTER_12
 73
     1
 44
0.7202881152461
  0
MTEXT
  5
15E
330
1F
100
AcDbEntity
  8
1
 62
     7
100
AcDbMText
 10
235.5
 20
25.0
 30
0.0
 40
5.0
 41
0.0
 71
     5
 72
     1
  1
23
  7
CONVERTER_12
 73
     1
 44
0.7202881152461
  0
MTEXT
  5
15F
330
1F
100
AcDbEntity
  8
1
 62
     7
100
AcDbMText
 10
258.5
 20
25.0
 30
0.0
 40
5.0
 41
0.0
 71
     5
 72
     1
  1
18
  7
CONVERTER_12
 73
     1
 44
0.7202881152461
  0
MTEXT
  5
160
330
1F
100
AcDbEntity
  8
1
 62
     7
100
AcDbMText
 10
247.0
 20
25.0
 30
0.0
 40
5.0
 41
0.0
 71
     5
 72
     1
  1
10
  7
CONVERTER_12
 73
     1
 44
0.7202881152461
  0
MTEXT
  5
161
330
1F
100
AcDbEntity
  8
1
 62
     7
100
AcDbMText
 10
281.0
 20
25.0
 30
0.0
 40
5.0
 41
0.0
 71
     5
 72
     1
  1
10
  7
CONVERTER_12
 73
     1
 44
0.7202881152461
  0
MTEXT
  5
162
330
1F
100
AcDbEntity
  8
1
 62
     7
100
AcDbMText
 10
292.5
 20
25.0
 30
0.0
 40
5.0
 41
0.0
 71
     5
 72
     1
  1
17
  7
CONVERTER_12
 73
     1
 44
0.7202881152461
  0
MTEXT
  5
163
330
1F
100
AcDbEntity
  8
1
 62
     7
100
AcDbMText
 10
269.5
 20
25.0
 30
0.0
 40
5.0
 41
0.0
 71
     5
 72
     1
  1
23
  7
CONVERTER_12
 73
     1
 44
0.7202881152461
  0
MTEXT
  5
164
330
1F
100
AcDbEntity
  8
1
 62
     7
100
AcDbMText
 10
303.5
 20
25.0
 30
0.0
 40
5.0
 41
0.0
 71
     5
 72
     1
  1
12
  7
CONVERTER_12
 73
     1
 44
0.7202881152461
  0
MTEXT
  5
165
330
1F
100
AcDbEntity
  8
1
 62
     7
100
AcDbMText
 10
326.5
 20
25.0
 30
0.0
 40
5.0
 41
0.0
 71
     5
 72
     1
  1
 8
  7
CONVERTER_12
 73
     1
 44
0.7202881152461
  0
MTEXT
  5
166
330
1F
100
AcDbEntity
  8
1
 62
     7
100
AcDbMText
 10
315.0
 20
25.0
 30
0.0
 40
5.0
 41
0.0
 71
     5
 72
     1
  1
5
  7
CONVERTER_12
 73
     1
 44
0.7202881152461
  0
MTEXT
  5
167
330
1F
100
AcDbEntity
  8
1
 62
     7
100
AcDbMText
 10
277.3631522340917
 20
114.0
 30
0.0
 40
7.0
 41
0.0
 71
     5
 72
     1
  1
G2
  7
CONVERTER_12
 73
     1
 44
0.7202881152461
  0
MTEXT
  5
168
330
1F
100
AcDbEntity
  8
1
 62
     7
100
AcDbMText
 10
170.5
 20
34.0
 30
0.0
 40
7.0
 41
0.0
 71
     5
 72
     1
  1
1
  7
CONVERTER_12
 73
     1
 44
0.7202881152461
  0
MTEXT
  5
169
330
1F
100
AcDbEntity
  8
1
 62
     7
100
AcDbMText
 10
187.5
 20
34.0
 30
0.0
 40
7.0
 41
0.0
 71
     5
 72
     1
  1
1
  7
CONVERTER_12
 73
     1
 44
0.7202881152461
  0
MTEXT
  5
16A
330
1F
100
AcDbEntity
  8
1
 62
     7
100
AcDbMText
 10
114.0
 20
28.5
 30
0.0
 40
7.0
 41
0.0
 71
     5
 72
     1
  1
H65-50
  7
CONVERTER_12
 73
     1
 44
0.7202881152461
  0
MTEXT
  5
16B
330
1F
100
AcDbEntity
  8
1
 62
     7
100
AcDbMText
 10
114.0
 20
45.50000000000002
 30
0.0
 40
7.0
 41
0.0
 71
     5
 72
     1
  1
カゴ付流し排水栓
  7
CONVERTER_11
 73
     1
 44
0.54545454545455
  0
MTEXT
  5
16C
330
1F
100
AcDbEntity
  8
1
 62
     7
100
AcDbMText
 10
68.0
 20
68.0
 30
0.0
 40
7.0
 41
0.0
 71
     4
 72
     1
  1
開口寸法 約{\Fgdt;n}87
  7
CONVERTER_11
 73
     1
 44
0.54545454545455
  0
DIMENSION
  5
177
330
1F
100
AcDbEntity
  8
1
100
AcDbDimension
  2
*D6
 10
147.8448389549326
 20
325.8349286198917
 30
0.0
 11
142.3448389549326
 21
224.8349286198935
 31
0.0
 70
    32
  1
<>
 71
     5
 42
-1.0
 53
90.0
  3
ME10_DIM_10
100
AcDbAlignedDimension
 13
197.3448389549326
 23
123.8349286198953
 33
0.0
 14
168.3448389549326
 24
325.8349286198916
 34
0.0
 50
90.0
100
AcDbRotatedDimension
  0
DIMENSION
  5
182
330
1F
100
AcDbEntity
  8
1
100
AcDbDimension
  2
*D7
 10
168.344839261084
 20
358.3349286198916
 30
0.0
 11
225.3448389549326
 21
363.8349286198916
 31
0.0
 70
    32
  1
<>
 71
     5
 42
-1.0
 53
0.00013888888889
  3
ME10_DIM_11
100
AcDbAlignedDimension
 13
282.3448386487812
 23
328.3349286198916
 33
0.0
 14
168.3448392610839
 24
328.3349286198916
 34
0.0
100
AcDbRotatedDimension
  0
DIMENSION
  5
18D
330
1F
100
AcDbEntity
  8
1
100
AcDbDimension
  2
*D8
 10
179.3448389549326
 20
215.660843430408
 30
0.0
 11
225.3448389549326
 21
221.160843430408
 31
0.0
 70
    33
  1
<>
 71
     5
 42
-1.0
 53
0.00013888888889
  3
ME10_DIM_12
100
AcDbAlignedDimension
 13
271.3448389549328
 23
295.8349286198916
 33
0.0
 14
179.3448389549326
 24
295.8349286198916
 34
0.0
  0
ENDSEC
  0
SECTION
  2
OBJECTS
  0
DICTIONARY
  5
C
330
0
100
AcDbDictionary
281
     1
  3
ACAD_GROUP
350
D
  3
ACAD_LAYOUT
350
1A
  3
ACAD_MATERIAL
350
3B
  3
ACAD_MLEADERSTYLE
350
190
  3
ACAD_MLINESTYLE
350
17
  3
ACAD_PLOTSETTINGS
350
19
  3
ACAD_PLOTSTYLENAME
350
E
  3
ACAD_VISUALSTYLE
350
2A
  3
AcDbVariableDictionary
350
18E
  0
DICTIONARY
  5
D
102
{ACAD_REACTORS
330
C
102
}
330
C
100
AcDbDictionary
281
     1
  0
DICTIONARY
  5
1A
102
{ACAD_REACTORS
330
C
102
}
330
C
100
AcDbDictionary
281
     1
  3
Layout1
350
1E
  3
Layout2
350
26
  3
Model
350
22
  0
DICTIONARY
  5
3B
102
{ACAD_REACTORS
330
C
102
}
330
C
100
AcDbDictionary
281
     1
  3
ByBlock
350
3D
  3
ByLayer
350
3C
  3
Global
350
3E
  0
DICTIONARY
  5
190
102
{ACAD_REACTORS
330
C
102
}
330
C
100
AcDbDictionary
281
     1
  0
DICTIONARY
  5
17
102
{ACAD_REACTORS
330
C
102
}
330
C
100
AcDbDictionary
281
     1
  3
Standard
350
18
  0
DICTIONARY
  5
19
102
{ACAD_REACTORS
330
C
102
}
330
C
100
AcDbDictionary
281
     1
  0
ACDBDICTIONARYWDFLT
  5
E
102
{ACAD_REACTORS
330
C
102
}
330
C
100
AcDbDictionary
281
     1
  3
Normal
350
F
100
AcDbDictionaryWithDefault
340
F
  0
DICTIONARY
  5
2A
102
{ACAD_REACTORS
330
C
102
}
330
C
100
AcDbDictionary
281
     1
  3
2dWireframe
350
2F
  3
3D Hidden
350
31
  3
3dWireframe
350
30
  3
Basic
350
32
  3
Brighten
350
36
  3
ColorChange
350
3A
  3
Conceptual
350
34
  3
Dim
350
35
  3
Facepattern
350
39
  3
Flat
350
2B
  3
FlatWithEdges
350
2C
  3
Gouraud
350
2D
  3
GouraudWithEdges
350
2E
  3
Linepattern
350
38
  3
Realistic
350
33
  3
Thicken
350
37
  0
DICTIONARY
  5
18E
102
{ACAD_REACTORS
330
C
102
}
330
C
100
AcDbDictionary
281
     1
  3
DIMASSOC
350
191
  3
HIDETEXT
350
192
  0
LAYOUT
  5
1E
102
{ACAD_REACTORS
330
1A
102
}
330
1A
100
AcDbPlotSettings
  1

  2
none_device
  4

  6

 40
0.0
 41
0.0
 42
0.0
 43
0.0
 44
0.0
 45
0.0
 46
0.0
 47
0.0
 48
0.0
 49
0.0
140
0.0
141
0.0
142
1.0
143
1.0
 70
   688
 72
     0
 73
     0
 74
     5
  7

 75
    16
147
1.0
148
0.0
149
0.0
100
AcDbLayout
  1
Layout1
 70
     1
 71
     1
 10
0.0
 20
0.0
 11
12.0
 21
9.0
 12
0.0
 22
0.0
 32
0.0
 14
1.00000000000000E+20
 24
1.00000000000000E+20
 34
1.00000000000000E+20
 15
-1.00000000000000E+20
 25
-1.00000000000000E+20
 35
-1.00000000000000E+20
146
0.0
 13
0.0
 23
0.0
 33
0.0
 16
1.0
 26
0.0
 36
0.0
 17
0.0
 27
1.0
 37
0.0
 76
     0
330
1B
  0
LAYOUT
  5
26
102
{ACAD_REACTORS
330
1A
102
}
330
1A
100
AcDbPlotSettings
  1

  2
none_device
  4

  6

 40
0.0
 41
0.0
 42
0.0
 43
0.0
 44
0.0
 45
0.0
 46
0.0
 47
0.0
 48
0.0
 49
0.0
140
0.0
141
0.0
142
1.0
143
1.0
 70
   688
 72
     0
 73
     0
 74
     5
  7

 75
    16
147
1.0
148
0.0
149
0.0
100
AcDbLayout
  1
Layout2
 70
     1
 71
     2
 10
0.0
 20
0.0
 11
0.0
 21
0.0
 12
0.0
 22
0.0
 32
0.0
 14
0.0
 24
0.0
 34
0.0
 15
0.0
 25
0.0
 35
0.0
146
0.0
 13
0.0
 23
0.0
 33
0.0
 16
1.0
 26
0.0
 36
0.0
 17
0.0
 27
1.0
 37
0.0
 76
     0
330
23
  0
LAYOUT
  5
22
102
{ACAD_REACTORS
330
1A
102
}
330
1A
100
AcDbPlotSettings
  1

  2
none_device
  4

  6

 40
0.0
 41
0.0
 42
0.0
 43
0.0
 44
0.0
 45
0.0
 46
0.0
 47
0.0
 48
0.0
 49
0.0
140
0.0
141
0.0
142
1.0
143
1.0
 70
  1712
 72
     0
 73
     0
 74
     0
  7

 75
     0
147
1.0
148
0.0
149
0.0
100
AcDbLayout
  1
Model
 70
     1
 71
     0
 10
0.0
 20
0.0
 11
12.0
 21
9.0
 12
0.0
 22
0.0
 32
0.0
 14
0.0
 24
0.0
 34
0.0
 15
420.0
 25
594.0
 35
0.0
146
0.0
 13
0.0
 23
0.0
 33
0.0
 16
1.0
 26
0.0
 36
0.0
 17
0.0
 27
1.0
 37
0.0
 76
     0
330
1F
331
29
  0
MATERIAL
  5
3D
102
{ACAD_REACTORS
330
3B
102
}
102
{ACAD_XDICTIONARY
360
1B5
102
}
330
3B
100
AcDbMaterial
  1
ByBlock
  0
MATERIAL
  5
3C
102
{ACAD_REACTORS
330
3B
102
}
102
{ACAD_XDICTIONARY
360
1B3
102
}
330
3B
100
AcDbMaterial
  1
ByLayer
  0
MATERIAL
  5
3E
102
{ACAD_REACTORS
330
3B
102
}
102
{ACAD_XDICTIONARY
360
1B7
102
}
330
3B
100
AcDbMaterial
  1
Global
  0
MLINESTYLE
  5
18
102
{ACAD_REACTORS
330
17
102
}
330
17
100
AcDbMlineStyle
  2
Standard
 70
     0
  3

 62
   256
 51
90.0
 52
90.0
 71
     2
 49
0.5
 62
   256
  6
BYLAYER
 49
-0.5
 62
   256
  6
BYLAYER
  0
ACDBPLACEHOLDER
  5
F
102
{ACAD_REACTORS
330
E
102
}
330
E
  0
VISUALSTYLE
  5
2F
102
{ACAD_REACTORS
330
2A
102
}
102
{ACAD_XDICTIONARY
360
19B
102
}
330
2A
100
AcDbVisualStyle
  2
2dWireframe
 70
     4
 71
     0
 72
     2
 73
     0
 90
        0
 40
-0.6
 41
-30.0
 62
     5
 63
     7
 74
     1
 91
        4
 64
     7
 65
   257
 75
     1
175
     1
 42
1.0
 92
        0
 66
   257
 43
1.0
 76
     1
 77
     6
 78
     2
 67
     7
 79
     5
170
     0
171
     0
290
     0
174
     0
 93
        1
 44
0.0
173
     0
291
     0
 45
0.0
1001
ACAD
1000
AcDbSavedByObjectVersion
1070
     0
  0
VISUALSTYLE
  5
31
102
{ACAD_REACTORS
330
2A
102
}
102
{ACAD_XDICTIONARY
360
19F
102
}
330
2A
100
AcDbVisualStyle
  2
3D Hidden
 70
     6
 71
     1
 72
     2
 73
     2
 90
        0
 40
-0.6
 41
-30.0
 62
     5
 63
     7
 74
     2
 91
        2
 64
     7
 65
   257
 75
     2
175
     1
 42
40.0
 92
        0
 66
   257
 43
1.0
 76
     1
 77
     6
 78
     2
 67
     7
 79
     3
170
     0
171
     0
290
     0
174
     0
 93
        1
 44
0.0
173
     0
291
     0
 45
0.0
1001
ACAD
1000
AcDbSavedByObjectVersion
1070
     0
  0
VISUALSTYLE
  5
30
102
{ACAD_REACTORS
330
2A
102
}
102
{ACAD_XDICTIONARY
360
19D
102
}
330
2A
100
AcDbVisualStyle
  2
3dWireframe
 70
     5
 71
     0
 72
     2
 73
     0
 90
        0
 40
-0.6
 41
-30.0
 62
     5
 63
     7
 74
     1
 91
        4
 64
     7
 65
   257
 75
     1
175
     1
 42
1.0
 92
        0
 66
   257
 43
1.0
 76
     1
 77
     6
 78
     2
 67
     7
 79
     5
170
     0
171
     0
290
     0
174
     0
 93
        1
 44
0.0
173
     0
291
     0
 45
0.0
1001
ACAD
1000
AcDbSavedByObjectVersion
1070
     0
  0
VISUALSTYLE
  5
32
102
{ACAD_REACTORS
330
2A
102
}
102
{ACAD_XDICTIONARY
360
1A1
102
}
330
2A
100
AcDbVisualStyle
  2
Basic
 70
     7
 71
     1
 72
     0
 73
     1
 90
        0
 40
-0.6
 41
-30.0
 62
     5
 63
     7
 74
     0
 91
        4
 64
     7
 65
   257
 75
     1
175
     1
 42
1.0
 92
        8
 66
     7
 43
1.0
 76
     1
 77
     6
 78
     2
 67
     7
 79
     5
170
     0
171
     0
290
     0
174
     0
 93
        1
 44
0.0
173
     0
291
     1
 45
0.0
1001
ACAD
1000
AcDbSavedByObjectVersion
1070
     0
  0
VISUALSTYLE
  5
36
102
{ACAD_REACTORS
330
2A
102
}
102
{ACAD_XDICTIONARY
360
1A9
102
}
330
2A
100
AcDbVisualStyle
  2
Brighten
 70
    12
 71
     2
 72
     2
 73
     0
 90
        0
 40
-0.6
 41
-30.0
 62
     5
 63
     7
 74
     1
 91
        4
 64
     7
 65
   257
 75
     1
175
     1
 42
1.0
 92
        8
 66
     7
 43
1.0
 76
     1
 77
     6
 78
     2
 67
     7
 79
     5
170
     0
171
     0
290
     0
174
     0
 93
        1
 44
50.0
173
     0
291
     1
 45
0.0
1001
ACAD
1000
AcDbSavedByObjectVersion
1070
     0
  0
VISUALSTYLE
  5
3A
102
{ACAD_REACTORS
330
2A
102
}
102
{ACAD_XDICTIONARY
360
1B1
102
}
330
2A
100
AcDbVisualStyle
  2
ColorChange
 70
    16
 71
     2
 72
     2
 73
     3
 90
        0
 40
-0.6
 41
-30.0
 62
     5
 63
     8
 74
     1
 91
        4
 64
     7
 65
   257
 75
     1
175
     1
 42
1.0
 92
        8
 66
     8
 43
1.0
 76
     1
 77
     6
 78
     2
 67
     7
 79
     5
170
     0
171
     0
290
     0
174
     0
 93
        1
 44
0.0
173
     0
291
     1
 45
0.0
1001
ACAD
1000
AcDbSavedByObjectVersion
1070
     0
  0
VISUALSTYLE
  5
34
102
{ACAD_REACTORS
330
2A
102
}
102
{ACAD_XDICTIONARY
360
1A5
102
}
330
2A
100
AcDbVisualStyle
  2
Conceptual
 70
     9
 71
     3
 72
     2
 73
     0
 90
        0
 40
-0.6
 41
-30.0
 62
     5
 63
     7
 74
     2
 91
        2
 64
     7
 65
   257
 75
     1
175
     1
 42
40.0
 92
        8
 66
     7
 43
1.0
 76
     1
 77
     6
 78
     2
 67
     7
 79
     3
170
     0
171
     0
290
     0
174
     0
 93
        1
 44
0.0
173
     0
291
     0
 45
0.0
1001
ACAD
1000
AcDbSavedByObjectVersion
1070
     0
  0
VISUALSTYLE
  5
35
102
{ACAD_REACTORS
330
2A
102
}
102
{ACAD_XDICTIONARY
360
1A7
102
}
330
2A
100
AcDbVisualStyle
  2
Dim
 70
    11
 71
     2
 72
     2
 73
     0
 90
        0
 40
-0.6
 41
-30.0
 62
     5
 63
     7
 74
     1
 91
        4
 64
     7
 65
   257
 75
     1
175
     1
 42
1.0
 92
        8
 66
     7
 43
1.0
 76
     1
 77
     6
 78
     2
 67
     7
 79
     5
170
     0
171
     0
290
     0
174
     0
 93
        1
 44
-50.0
173
     0
291
     1
 45
0.0
1001
ACAD
1000
AcDbSavedByObjectVersion
1070
     0
  0
VISUALSTYLE
  5
39
102
{ACAD_REACTORS
330
2A
102
}
102
{ACAD_XDICTIONARY
360
1AF
102
}
330
2A
100
AcDbVisualStyle
  2
Facepattern
 70
    15
 71
     2
 72
     2
 73
     0
 90
        0
 40
-0.6
 41
-30.0
 62
     5
 63
     7
 74
     1
 91
        4
 64
     7
 65
   257
 75
     1
175
     1
 42
1.0
 92
        8
 66
     7
 43
1.0
 76
     1
 77
     6
 78
     2
 67
     7
 79
     5
170
     0
171
     0
290
     0
174
     0
 93
        1
 44
0.0
173
     0
291
     1
 45
0.0
1001
ACAD
1000
AcDbSavedByObjectVersion
1070
     0
  0
VISUALSTYLE
  5
2B
102
{ACAD_REACTORS
330
2A
102
}
102
{ACAD_XDICTIONARY
360
193
102
}
330
2A
100
AcDbVisualStyle
  2
Flat
 70
     0
 71
     2
 72
     1
 73
     1
 90
        2
 40
-0.6
 41
30.0
 62
     5
 63
     7
 74
     0
 91
        4
 64
     7
 65
   257
 75
     1
175
     1
 42
1.0
 92
        8
 66
     7
 43
1.0
 76
     1
 77
     6
 78
     2
 67
     7
 79
     5
170
     0
171
     0
290
     0
174
     0
 93
       13
 44
0.0
173
     0
291
     1
 45
0.0
1001
ACAD
1000
AcDbSavedByObjectVersion
1070
     0
  0
VISUALSTYLE
  5
2C
102
{ACAD_REACTORS
330
2A
102
}
102
{ACAD_XDICTIONARY
360
195
102
}
330
2A
100
AcDbVisualStyle
  2
FlatWithEdges
 70
     1
 71
     2
 72
     1
 73
     1
 90
        2
 40
-0.6
 41
30.0
 62
     5
 63
     7
 74
     1
 91
        4
 64
     7
 65
   257
 75
     1
175
     1
 42
1.0
 92
        0
 66
   257
 43
1.0
 76
     1
 77
     6
 78
     2
 67
     7
 79
     5
170
     0
171
     0
290
     0
174
     0
 93
       13
 44
0.0
173
     0
291
     1
 45
0.0
1001
ACAD
1000
AcDbSavedByObjectVersion
1070
     0
  0
VISUALSTYLE
  5
2D
102
{ACAD_REACTORS
330
2A
102
}
102
{ACAD_XDICTIONARY
360
197
102
}
330
2A
100
AcDbVisualStyle
  2
Gouraud
 70
     2
 71
     2
 72
     2
 73
     1
 90
        2
 40
-0.6
 41
30.0
 62
     5
 63
     7
 74
     0
 91
        4
 64
     7
 65
   257
 75
     1
175
     1
 42
1.0
 92
        0
 66
     7
 43
1.0
 76
     1
 77
     6
 78
     2
 67
     7
 79
     5
170
     0
171
     0
290
     0
174
     0
 93
       13
 44
0.0
173
     0
291
     1
 45
0.0
1001
ACAD
1000
AcDbSavedByObjectVersion
1070
     0
  0
VISUALSTYLE
  5
2E
102
{ACAD_REACTORS
330
2A
102
}
102
{ACAD_XDICTIONARY
360
199
102
}
330
2A
100
AcDbVisualStyle
  2
GouraudWithEdges
 70
     3
 71
     2
 72
     2
 73
     1
 90
        2
 40
-0.6
 41
30.0
 62
     5
 63
     7
 74
     1
 91
        4
 64
     7
 65
   257
 75
     1
175
     1
 42
1.0
 92
        0
 66
   257
 43
1.0
 76
     1
 77
     6
 78
     2
 67
     7
 79
     5
170
     0
171
     0
290
     0
174
     0
 93
       13
 44
0.0
173
     0
291
     1
 45
0.0
1001
ACAD
1000
AcDbSavedByObjectVersion
1070
     0
  0
VISUALSTYLE
  5
38
102
{ACAD_REACTORS
330
2A
102
}
102
{ACAD_XDICTIONARY
360
1AD
102
}
330
2A
100
AcDbVisualStyle
  2
Linepattern
 70
    14
 71
     2
 72
     2
 73
     0
 90
        0
 40
-0.6
 41
-30.0
 62
     5
 63
     7
 74
     1
 91
        4
 64
     7
 65
   257
 75
     7
175
     7
 42
1.0
 92
        8
 66
     7
 43
1.0
 76
     1
 77
     6
 78
     2
 67
     7
 79
     5
170
     0
171
     0
290
     0
174
     0
 93
        1
 44
0.0
173
     0
291
     1
 45
0.0
1001
ACAD
1000
AcDbSavedByObjectVersion
1070
     0
  0
VISUALSTYLE
  5
33
102
{ACAD_REACTORS
330
2A
102
}
102
{ACAD_XDICTIONARY
360
1A3
102
}
330
2A
100
AcDbVisualStyle
  2
Realistic
 70
     8
 71
     2
 72
     2
 73
     0
 90
        0
 40
-0.6
 41
-30.0
 62
     5
 63
     7
 74
     1
 91
        0
 64
     7
 65
   257
 75
     1
175
     1
 42
1.0
 92
        8
 66
     8
 43
1.0
 76
     1
 77
     6
 78
     2
 67
     7
 79
     5
170
     0
171
     0
290
     0
174
     0
 93
       13
 44
0.0
173
     0
291
     0
 45
0.0
1001
ACAD
1000
AcDbSavedByObjectVersion
1070
     0
  0
VISUALSTYLE
  5
37
102
{ACAD_REACTORS
330
2A
102
}
102
{ACAD_XDICTIONARY
360
1AB
102
}
330
2A
100
AcDbVisualStyle
  2
Thicken
 70
    13
 71
     2
 72
     2
 73
     0
 90
        0
 40
-0.6
 41
-30.0
 62
     5
 63
     7
 74
     1
 91
        4
 64
     7
 65
   257
 75
     1
175
     1
 42
1.0
 92
       12
 66
     7
 43
1.0
 76
     1
 77
     6
 78
     2
 67
     7
 79
     5
170
     0
171
     0
290
     0
174
     0
 93
        1
 44
0.0
173
     0
291
     1
 45
0.0
1001
ACAD
1000
AcDbSavedByObjectVersion
1070
     0
  0
DICTIONARYVAR
  5
191
102
{ACAD_REACTORS
330
18E
102
}
330
18E
100
DictionaryVariables
280
     0
  1
2
  0
DICTIONARYVAR
  5
192
102
{ACAD_REACTORS
330
18E
102
}
330
18E
100
DictionaryVariables
280
     0
  1
1
  0
DICTIONARY
  5
1B5
330
3D
100
AcDbDictionary
280
     1
281
     1
  3
ACAD_XREC_ROUNDTRIP
360
1B6
  0
DICTIONARY
  5
1B3
330
3C
100
AcDbDictionary
280
     1
281
     1
  3
ACAD_XREC_ROUNDTRIP
360
1B4
  0
DICTIONARY
  5
1B7
330
3E
100
AcDbDictionary
280
     1
281
     1
  3
ACAD_XREC_ROUNDTRIP
360
1B8
  0
DICTIONARY
  5
19B
330
2F
100
AcDbDictionary
280
     1
281
     1
  3
ACAD_XREC_ROUNDTRIP
360
19C
  0
DICTIONARY
  5
19F
330
31
100
AcDbDictionary
280
     1
281
     1
  3
ACAD_XREC_ROUNDTRIP
360
1A0
  0
DICTIONARY
  5
19D
330
30
100
AcDbDictionary
280
     1
281
     1
  3
ACAD_XREC_ROUNDTRIP
360
19E
  0
DICTIONARY
  5
1A1
330
32
100
AcDbDictionary
280
     1
281
     1
  3
ACAD_XREC_ROUNDTRIP
360
1A2
  0
DICTIONARY
  5
1A9
330
36
100
AcDbDictionary
280
     1
281
     1
  3
ACAD_XREC_ROUNDTRIP
360
1AA
  0
DICTIONARY
  5
1B1
330
3A
100
AcDbDictionary
280
     1
281
     1
  3
ACAD_XREC_ROUNDTRIP
360
1B2
  0
DICTIONARY
  5
1A5
330
34
100
AcDbDictionary
280
     1
281
     1
  3
ACAD_XREC_ROUNDTRIP
360
1A6
  0
DICTIONARY
  5
1A7
330
35
100
AcDbDictionary
280
     1
281
     1
  3
ACAD_XREC_ROUNDTRIP
360
1A8
  0
DICTIONARY
  5
1AF
330
39
100
AcDbDictionary
280
     1
281
     1
  3
ACAD_XREC_ROUNDTRIP
360
1B0
  0
DICTIONARY
  5
193
330
2B
100
AcDbDictionary
280
     1
281
     1
  3
ACAD_XREC_ROUNDTRIP
360
194
  0
DICTIONARY
  5
195
330
2C
100
AcDbDictionary
280
     1
281
     1
  3
ACAD_XREC_ROUNDTRIP
360
196
  0
DICTIONARY
  5
197
330
2D
100
AcDbDictionary
280
     1
281
     1
  3
ACAD_XREC_ROUNDTRIP
360
198
  0
DICTIONARY
  5
199
330
2E
100
AcDbDictionary
280
     1
281
     1
  3
ACAD_XREC_ROUNDTRIP
360
19A
  0
DICTIONARY
  5
1AD
330
38
100
AcDbDictionary
280
     1
281
     1
  3
ACAD_XREC_ROUNDTRIP
360
1AE
  0
DICTIONARY
  5
1A3
330
33
100
AcDbDictionary
280
     1
281
     1
  3
ACAD_XREC_ROUNDTRIP
360
1A4
  0
DICTIONARY
  5
1AB
330
37
100
AcDbDictionary
280
     1
281
     1
  3
ACAD_XREC_ROUNDTRIP
360
1AC
  0
XRECORD
  5
1B6
102
{ACAD_REACTORS
330
1B5
102
}
330
1B5
100
AcDbXrecord
280
     1
102
MATERIAL
148
0.0
149
0.0
149
0.0
 93
        0
 94
      127
282
     0
 72
     1
 77
     1
171
     1
175
     1
179
     1
273
     0
  0
XRECORD
  5
1B4
102
{ACAD_REACTORS
330
1B3
102
}
330
1B3
100
AcDbXrecord
280
     1
102
MATERIAL
148
0.0
149
0.0
149
0.0
 93
        0
 94
      127
282
     0
 72
     1
 77
     1
171
     1
175
     1
179
     1
273
     0
  0
XRECORD
  5
1B8
102
{ACAD_REACTORS
330
1B7
102
}
330
1B7
100
AcDbXrecord
280
     1
102
MATERIAL
148
0.0
149
0.0
149
0.0
 93
        0
 94
      127
282
     0
 72
     1
 77
     1
171
     1
175
     1
179
     1
273
     0
  0
XRECORD
  5
19C
102
{ACAD_REACTORS
330
19B
102
}
330
19B
100
AcDbXrecord
280
     1
102
RTVSPropertyOp0
 70
     1
102
RTVSPropertyOp1
 70
     1
102
RTVSPropertyOp2
 70
     1
102
RTVSPropertyOp3
 70
     1
102
RTVSPropertyOp4
 70
     1
102
RTVSPropertyOp5
 70
     1
102
RTVSPropertyOp6
 70
     1
102
RTVSPropertyOp7
 70
     1
102
RTVSPropertyOp8
 70
     1
102
RTVSPropertyOp9
 70
     1
102
RTVSPropertyOp10
 70
     1
102
RTVSPropertyOp11
 70
     1
102
RTVSPropertyOp12
 70
     1
102
RTVSPropertyOp13
 70
     1
102
RTVSPropertyOp14
 70
     1
102
RTVSPropertyOp15
 70
     1
102
RTVSPropertyOp16
 70
     1
102
RTVSPropertyOp17
 70
     1
102
RTVSPropertyOp18
 70
     1
102
RTVSPropertyOp19
 70
     1
102
RTVSPropertyOp20
 70
     1
102
RTVSPropertyOp21
 70
     1
102
RTVSPropertyOp22
 70
     1
102
RTVSPropertyOp23
 70
     1
102
RTVSPropertyOp24
 70
     1
102
RTVSPropertyOp25
 70
     1
102
RTVSPropertyOp26
 70
     1
102
RTVSPropertyOp27
 70
     1
102
RTVSPropertyOp28
 70
     1
102
RTVSPropertyOp29
 70
     1
102
RTVSPropertyOp30
 70
     1
102
RTVSPropertyOp31
 70
     1
102
RTVSPropertyOp32
 70
     1
  0
XRECORD
  5
1A0
102
{ACAD_REACTORS
330
19F
102
}
330
19F
100
AcDbXrecord
280
     1
102
RTVSPropertyOp0
 70
     1
102
RTVSPropertyOp1
 70
     1
102
RTVSPropertyOp2
 70
     1
102
RTVSPropertyOp3
 70
     1
102
RTVSPropertyOp4
 70
     1
102
RTVSPropertyOp5
 70
     1
102
RTVSPropertyOp6
 70
     1
102
RTVSPropertyOp7
 70
     1
102
RTVSPropertyOp8
 70
     1
102
RTVSPropertyOp9
 70
     1
102
RTVSPropertyOp10
 70
     1
102
RTVSPropertyOp11
 70
     1
102
RTVSPropertyOp12
 70
     1
102
RTVSPropertyOp13
 70
     1
102
RTVSPropertyOp14
 70
     1
102
RTVSPropertyOp15
 70
     1
102
RTVSPropertyOp16
 70
     1
102
RTVSPropertyOp17
 70
     1
102
RTVSPropertyOp18
 70
     1
102
RTVSPropertyOp19
 70
     1
102
RTVSPropertyOp20
 70
     1
102
RTVSPropertyOp21
 70
     1
102
RTVSPropertyOp22
 70
     1
102
RTVSPropertyOp23
 70
     1
102
RTVSPropertyOp24
 70
     1
102
RTVSPropertyOp25
 70
     1
102
RTVSPropertyOp26
 70
     1
102
RTVSPropertyOp27
 70
     1
102
RTVSPropertyOp28
 70
     1
102
RTVSPropertyOp29
 70
     1
102
RTVSPropertyOp30
 70
     1
102
RTVSPropertyOp31
 70
     1
102
RTVSPropertyOp32
 70
     1
  0
XRECORD
  5
19E
102
{ACAD_REACTORS
330
19D
102
}
330
19D
100
AcDbXrecord
280
     1
102
RTVSPropertyOp0
 70
     1
102
RTVSPropertyOp1
 70
     1
102
RTVSPropertyOp2
 70
     1
102
RTVSPropertyOp3
 70
     1
102
RTVSPropertyOp4
 70
     1
102
RTVSPropertyOp5
 70
     1
102
RTVSPropertyOp6
 70
     1
102
RTVSPropertyOp7
 70
     1
102
RTVSPropertyOp8
 70
     1
102
RTVSPropertyOp9
 70
     1
102
RTVSPropertyOp10
 70
     1
102
RTVSPropertyOp11
 70
     1
102
RTVSPropertyOp12
 70
     1
102
RTVSPropertyOp13
 70
     1
102
RTVSPropertyOp14
 70
     1
102
RTVSPropertyOp15
 70
     1
102
RTVSPropertyOp16
 70
     1
102
RTVSPropertyOp17
 70
     1
102
RTVSPropertyOp18
 70
     1
102
RTVSPropertyOp19
 70
     1
102
RTVSPropertyOp20
 70
     1
102
RTVSPropertyOp21
 70
     1
102
RTVSPropertyOp22
 70
     1
102
RTVSPropertyOp23
 70
     1
102
RTVSPropertyOp24
 70
     1
102
RTVSPropertyOp25
 70
     1
102
RTVSPropertyOp26
 70
     1
102
RTVSPropertyOp27
 70
     1
102
RTVSPropertyOp28
 70
     1
102
RTVSPropertyOp29
 70
     1
102
RTVSPropertyOp30
 70
     1
102
RTVSPropertyOp31
 70
     1
102
RTVSPropertyOp32
 70
     1
  0
XRECORD
  5
1A2
102
{ACAD_REACTORS
330
1A1
102
}
330
1A1
100
AcDbXrecord
280
     1
102
RTVSPropertyOp0
 70
     1
102
RTVSPropertyOp1
 70
     1
102
RTVSPropertyOp2
 70
     1
102
RTVSPropertyOp3
 70
     1
102
RTVSPropertyOp4
 70
     1
102
RTVSPropertyOp5
 70
     1
102
RTVSPropertyOp6
 70
     1
102
RTVSPropertyOp7
 70
     1
102
RTVSPropertyOp8
 70
     1
102
RTVSPropertyOp9
 70
     1
102
RTVSPropertyOp10
 70
     1
102
RTVSPropertyOp11
 70
     1
102
RTVSPropertyOp12
 70
     1
102
RTVSPropertyOp13
 70
     1
102
RTVSPropertyOp14
 70
     1
102
RTVSPropertyOp15
 70
     1
102
RTVSPropertyOp16
 70
     1
102
RTVSPropertyOp17
 70
     1
102
RTVSPropertyOp18
 70
     1
102
RTVSPropertyOp19
 70
     1
102
RTVSPropertyOp20
 70
     1
102
RTVSPropertyOp21
 70
     1
102
RTVSPropertyOp22
 70
     1
102
RTVSPropertyOp23
 70
     1
102
RTVSPropertyOp24
 70
     1
102
RTVSPropertyOp25
 70
     1
102
RTVSPropertyOp26
 70
     1
102
RTVSPropertyOp27
 70
     1
102
RTVSPropertyOp28
 70
     1
102
RTVSPropertyOp29
 70
     1
102
RTVSPropertyOp30
 70
     1
102
RTVSPropertyOp31
 70
     1
102
RTVSPropertyOp32
 70
     1
  0
XRECORD
  5
1AA
102
{ACAD_REACTORS
330
1A9
102
}
330
1A9
100
AcDbXrecord
280
     1
102
RTVSPropertyOp0
 70
     1
102
RTVSPropertyOp1
 70
     1
102
RTVSPropertyOp2
 70
     1
102
RTVSPropertyOp3
 70
     1
102
RTVSPropertyOp4
 70
     1
102
RTVSPropertyOp5
 70
     1
102
RTVSPropertyOp6
 70
     1
102
RTVSPropertyOp7
 70
     1
102
RTVSPropertyOp8
 70
     1
102
RTVSPropertyOp9
 70
     1
102
RTVSPropertyOp10
 70
     1
102
RTVSPropertyOp11
 70
     1
102
RTVSPropertyOp12
 70
     1
102
RTVSPropertyOp13
 70
     1
102
RTVSPropertyOp14
 70
     1
102
RTVSPropertyOp15
 70
     1
102
RTVSPropertyOp16
 70
     1
102
RTVSPropertyOp17
 70
     1
102
RTVSPropertyOp18
 70
     1
102
RTVSPropertyOp19
 70
     1
102
RTVSPropertyOp20
 70
     1
102
RTVSPropertyOp21
 70
     1
102
RTVSPropertyOp22
 70
     1
102
RTVSPropertyOp23
 70
     1
102
RTVSPropertyOp24
 70
     1
102
RTVSPropertyOp25
 70
     1
102
RTVSPropertyOp26
 70
     1
102
RTVSPropertyOp27
 70
     1
102
RTVSPropertyOp28
 70
     1
102
RTVSPropertyOp29
 70
     1
102
RTVSPropertyOp30
 70
     1
102
RTVSPropertyOp31
 70
     1
102
RTVSPropertyOp32
 70
     1
  0
XRECORD
  5
1B2
102
{ACAD_REACTORS
330
1B1
102
}
330
1B1
100
AcDbXrecord
280
     1
102
RTVSPropertyOp0
 70
     1
102
RTVSPropertyOp1
 70
     1
102
RTVSPropertyOp2
 70
     1
102
RTVSPropertyOp3
 70
     1
102
RTVSPropertyOp4
 70
     1
102
RTVSPropertyOp5
 70
     1
102
RTVSPropertyOp6
 70
     1
102
RTVSPropertyOp7
 70
     1
102
RTVSPropertyOp8
 70
     1
102
RTVSPropertyOp9
 70
     1
102
RTVSPropertyOp10
 70
     1
102
RTVSPropertyOp11
 70
     1
102
RTVSPropertyOp12
 70
     1
102
RTVSPropertyOp13
 70
     1
102
RTVSPropertyOp14
 70
     1
102
RTVSPropertyOp15
 70
     1
102
RTVSPropertyOp16
 70
     1
102
RTVSPropertyOp17
 70
     1
102
RTVSPropertyOp18
 70
     1
102
RTVSPropertyOp19
 70
     1
102
RTVSPropertyOp20
 70
     1
102
RTVSPropertyOp21
 70
     1
102
RTVSPropertyOp22
 70
     1
102
RTVSPropertyOp23
 70
     1
102
RTVSPropertyOp24
 70
     1
102
RTVSPropertyOp25
 70
     1
102
RTVSPropertyOp26
 70
     1
102
RTVSPropertyOp27
 70
     1
102
RTVSPropertyOp28
 70
     1
102
RTVSPropertyOp29
 70
     1
102
RTVSPropertyOp30
 70
     1
102
RTVSPropertyOp31
 70
     1
102
RTVSPropertyOp32
 70
     1
  0
XRECORD
  5
1A6
102
{ACAD_REACTORS
330
1A5
102
}
330
1A5
100
AcDbXrecord
280
     1
102
RTVSPropertyOp0
 70
     1
102
RTVSPropertyOp1
 70
     1
102
RTVSPropertyOp2
 70
     1
102
RTVSPropertyOp3
 70
     1
102
RTVSPropertyOp4
 70
     1
102
RTVSPropertyOp5
 70
     1
102
RTVSPropertyOp6
 70
     1
102
RTVSPropertyOp7
 70
     1
102
RTVSPropertyOp8
 70
     1
102
RTVSPropertyOp9
 70
     1
102
RTVSPropertyOp10
 70
     1
102
RTVSPropertyOp11
 70
     1
102
RTVSPropertyOp12
 70
     1
102
RTVSPropertyOp13
 70
     1
102
RTVSPropertyOp14
 70
     1
102
RTVSPropertyOp15
 70
     1
102
RTVSPropertyOp16
 70
     1
102
RTVSPropertyOp17
 70
     1
102
RTVSPropertyOp18
 70
     1
102
RTVSPropertyOp19
 70
     1
102
RTVSPropertyOp20
 70
     1
102
RTVSPropertyOp21
 70
     1
102
RTVSPropertyOp22
 70
     1
102
RTVSPropertyOp23
 70
     1
102
RTVSPropertyOp24
 70
     1
102
RTVSPropertyOp25
 70
     1
102
RTVSPropertyOp26
 70
     1
102
RTVSPropertyOp27
 70
     1
102
RTVSPropertyOp28
 70
     1
102
RTVSPropertyOp29
 70
     1
102
RTVSPropertyOp30
 70
     1
102
RTVSPropertyOp31
 70
     1
102
RTVSPropertyOp32
 70
     1
  0
XRECORD
  5
1A8
102
{ACAD_REACTORS
330
1A7
102
}
330
1A7
100
AcDbXrecord
280
     1
102
RTVSPropertyOp0
 70
     1
102
RTVSPropertyOp1
 70
     1
102
RTVSPropertyOp2
 70
     1
102
RTVSPropertyOp3
 70
     1
102
RTVSPropertyOp4
 70
     1
102
RTVSPropertyOp5
 70
     1
102
RTVSPropertyOp6
 70
     1
102
RTVSPropertyOp7
 70
     1
102
RTVSPropertyOp8
 70
     1
102
RTVSPropertyOp9
 70
     1
102
RTVSPropertyOp10
 70
     1
102
RTVSPropertyOp11
 70
     1
102
RTVSPropertyOp12
 70
     1
102
RTVSPropertyOp13
 70
     1
102
RTVSPropertyOp14
 70
     1
102
RTVSPropertyOp15
 70
     1
102
RTVSPropertyOp16
 70
     1
102
RTVSPropertyOp17
 70
     1
102
RTVSPropertyOp18
 70
     1
102
RTVSPropertyOp19
 70
     1
102
RTVSPropertyOp20
 70
     1
102
RTVSPropertyOp21
 70
     1
102
RTVSPropertyOp22
 70
     1
102
RTVSPropertyOp23
 70
     1
102
RTVSPropertyOp24
 70
     1
102
RTVSPropertyOp25
 70
     1
102
RTVSPropertyOp26
 70
     1
102
RTVSPropertyOp27
 70
     1
102
RTVSPropertyOp28
 70
     1
102
RTVSPropertyOp29
 70
     1
102
RTVSPropertyOp30
 70
     1
102
RTVSPropertyOp31
 70
     1
102
RTVSPropertyOp32
 70
     1
  0
XRECORD
  5
1B0
102
{ACAD_REACTORS
330
1AF
102
}
330
1AF
100
AcDbXrecord
280
     1
102
RTVSPropertyOp0
 70
     1
102
RTVSPropertyOp1
 70
     1
102
RTVSPropertyOp2
 70
     1
102
RTVSPropertyOp3
 70
     1
102
RTVSPropertyOp4
 70
     1
102
RTVSPropertyOp5
 70
     1
102
RTVSPropertyOp6
 70
     1
102
RTVSPropertyOp7
 70
     1
102
RTVSPropertyOp8
 70
     1
102
RTVSPropertyOp9
 70
     1
102
RTVSPropertyOp10
 70
     1
102
RTVSPropertyOp11
 70
     1
102
RTVSPropertyOp12
 70
     1
102
RTVSPropertyOp13
 70
     1
102
RTVSPropertyOp14
 70
     1
102
RTVSPropertyOp15
 70
     1
102
RTVSPropertyOp16
 70
     1
102
RTVSPropertyOp17
 70
     1
102
RTVSPropertyOp18
 70
     1
102
RTVSPropertyOp19
 70
     1
102
RTVSPropertyOp20
 70
     1
102
RTVSPropertyOp21
 70
     1
102
RTVSPropertyOp22
 70
     1
102
RTVSPropertyOp23
 70
     1
102
RTVSPropertyOp24
 70
     1
102
RTVSPropertyOp25
 70
     1
102
RTVSPropertyOp26
 70
     1
102
RTVSPropertyOp27
 70
     1
102
RTVSPropertyOp28
 70
     1
102
RTVSPropertyOp29
 70
     1
102
RTVSPropertyOp30
 70
     1
102
RTVSPropertyOp31
 70
     1
102
RTVSPropertyOp32
 70
     1
  0
XRECORD
  5
194
102
{ACAD_REACTORS
330
193
102
}
330
193
100
AcDbXrecord
280
     1
102
RTVSPropertyOp0
 70
     1
102
RTVSPropertyOp1
 70
     1
102
RTVSPropertyOp2
 70
     1
102
RTVSPropertyOp3
 70
     1
102
RTVSPropertyOp4
 70
     1
102
RTVSPropertyOp5
 70
     1
102
RTVSPropertyOp6
 70
     1
102
RTVSPropertyOp7
 70
     1
102
RTVSPropertyOp8
 70
     1
102
RTVSPropertyOp9
 70
     1
102
RTVSPropertyOp10
 70
     1
102
RTVSPropertyOp11
 70
     1
102
RTVSPropertyOp12
 70
     1
102
RTVSPropertyOp13
 70
     1
102
RTVSPropertyOp14
 70
     1
102
RTVSPropertyOp15
 70
     1
102
RTVSPropertyOp16
 70
     1
102
RTVSPropertyOp17
 70
     1
102
RTVSPropertyOp18
 70
     1
102
RTVSPropertyOp19
 70
     1
102
RTVSPropertyOp20
 70
     1
102
RTVSPropertyOp21
 70
     1
102
RTVSPropertyOp22
 70
     1
102
RTVSPropertyOp23
 70
     1
102
RTVSPropertyOp24
 70
     1
102
RTVSPropertyOp25
 70
     1
102
RTVSPropertyOp26
 70
     1
102
RTVSPropertyOp27
 70
     1
102
RTVSPropertyOp28
 70
     1
102
RTVSPropertyOp29
 70
     1
102
RTVSPropertyOp30
 70
     1
102
RTVSPropertyOp31
 70
     1
102
RTVSPropertyOp32
 70
     1
  0
XRECORD
  5
196
102
{ACAD_REACTORS
330
195
102
}
330
195
100
AcDbXrecord
280
     1
102
RTVSPropertyOp0
 70
     1
102
RTVSPropertyOp1
 70
     1
102
RTVSPropertyOp2
 70
     1
102
RTVSPropertyOp3
 70
     1
102
RTVSPropertyOp4
 70
     1
102
RTVSPropertyOp5
 70
     1
102
RTVSPropertyOp6
 70
     1
102
RTVSPropertyOp7
 70
     1
102
RTVSPropertyOp8
 70
     1
102
RTVSPropertyOp9
 70
     1
102
RTVSPropertyOp10
 70
     1
102
RTVSPropertyOp11
 70
     1
102
RTVSPropertyOp12
 70
     1
102
RTVSPropertyOp13
 70
     1
102
RTVSPropertyOp14
 70
     1
102
RTVSPropertyOp15
 70
     1
102
RTVSPropertyOp16
 70
     1
102
RTVSPropertyOp17
 70
     1
102
RTVSPropertyOp18
 70
     1
102
RTVSPropertyOp19
 70
     1
102
RTVSPropertyOp20
 70
     1
102
RTVSPropertyOp21
 70
     1
102
RTVSPropertyOp22
 70
     1
102
RTVSPropertyOp23
 70
     1
102
RTVSPropertyOp24
 70
     1
102
RTVSPropertyOp25
 70
     1
102
RTVSPropertyOp26
 70
     1
102
RTVSPropertyOp27
 70
     1
102
RTVSPropertyOp28
 70
     1
102
RTVSPropertyOp29
 70
     1
102
RTVSPropertyOp30
 70
     1
102
RTVSPropertyOp31
 70
     1
102
RTVSPropertyOp32
 70
     1
  0
XRECORD
  5
198
102
{ACAD_REACTORS
330
197
102
}
330
197
100
AcDbXrecord
280
     1
102
RTVSPropertyOp0
 70
     1
102
RTVSPropertyOp1
 70
     1
102
RTVSPropertyOp2
 70
     1
102
RTVSPropertyOp3
 70
     1
102
RTVSPropertyOp4
 70
     1
102
RTVSPropertyOp5
 70
     1
102
RTVSPropertyOp6
 70
     1
102
RTVSPropertyOp7
 70
     1
102
RTVSPropertyOp8
 70
     1
102
RTVSPropertyOp9
 70
     1
102
RTVSPropertyOp10
 70
     1
102
RTVSPropertyOp11
 70
     1
102
RTVSPropertyOp12
 70
     1
102
RTVSPropertyOp13
 70
     1
102
RTVSPropertyOp14
 70
     1
102
RTVSPropertyOp15
 70
     1
102
RTVSPropertyOp16
 70
     1
102
RTVSPropertyOp17
 70
     1
102
RTVSPropertyOp18
 70
     1
102
RTVSPropertyOp19
 70
     1
102
RTVSPropertyOp20
 70
     1
102
RTVSPropertyOp21
 70
     1
102
RTVSPropertyOp22
 70
     1
102
RTVSPropertyOp23
 70
     1
102
RTVSPropertyOp24
 70
     1
102
RTVSPropertyOp25
 70
     1
102
RTVSPropertyOp26
 70
     1
102
RTVSPropertyOp27
 70
     1
102
RTVSPropertyOp28
 70
     1
102
RTVSPropertyOp29
 70
     1
102
RTVSPropertyOp30
 70
     1
102
RTVSPropertyOp31
 70
     1
102
RTVSPropertyOp32
 70
     1
  0
XRECORD
  5
19A
102
{ACAD_REACTORS
330
199
102
}
330
199
100
AcDbXrecord
280
     1
102
RTVSPropertyOp0
 70
     1
102
RTVSPropertyOp1
 70
     1
102
RTVSPropertyOp2
 70
     1
102
RTVSPropertyOp3
 70
     1
102
RTVSPropertyOp4
 70
     1
102
RTVSPropertyOp5
 70
     1
102
RTVSPropertyOp6
 70
     1
102
RTVSPropertyOp7
 70
     1
102
RTVSPropertyOp8
 70
     1
102
RTVSPropertyOp9
 70
     1
102
RTVSPropertyOp10
 70
     1
102
RTVSPropertyOp11
 70
     1
102
RTVSPropertyOp12
 70
     1
102
RTVSPropertyOp13
 70
     1
102
RTVSPropertyOp14
 70
     1
102
RTVSPropertyOp15
 70
     1
102
RTVSPropertyOp16
 70
     1
102
RTVSPropertyOp17
 70
     1
102
RTVSPropertyOp18
 70
     1
102
RTVSPropertyOp19
 70
     1
102
RTVSPropertyOp20
 70
     1
102
RTVSPropertyOp21
 70
     1
102
RTVSPropertyOp22
 70
     1
102
RTVSPropertyOp23
 70
     1
102
RTVSPropertyOp24
 70
     1
102
RTVSPropertyOp25
 70
     1
102
RTVSPropertyOp26
 70
     1
102
RTVSPropertyOp27
 70
     1
102
RTVSPropertyOp28
 70
     1
102
RTVSPropertyOp29
 70
     1
102
RTVSPropertyOp30
 70
     1
102
RTVSPropertyOp31
 70
     1
102
RTVSPropertyOp32
 70
     1
  0
XRECORD
  5
1AE
102
{ACAD_REACTORS
330
1AD
102
}
330
1AD
100
AcDbXrecord
280
     1
102
RTVSPropertyOp0
 70
     1
102
RTVSPropertyOp1
 70
     1
102
RTVSPropertyOp2
 70
     1
102
RTVSPropertyOp3
 70
     1
102
RTVSPropertyOp4
 70
     1
102
RTVSPropertyOp5
 70
     1
102
RTVSPropertyOp6
 70
     1
102
RTVSPropertyOp7
 70
     1
102
RTVSPropertyOp8
 70
     1
102
RTVSPropertyOp9
 70
     1
102
RTVSPropertyOp10
 70
     1
102
RTVSPropertyOp11
 70
     1
102
RTVSPropertyOp12
 70
     1
102
RTVSPropertyOp13
 70
     1
102
RTVSPropertyOp14
 70
     1
102
RTVSPropertyOp15
 70
     1
102
RTVSPropertyOp16
 70
     1
102
RTVSPropertyOp17
 70
     1
102
RTVSPropertyOp18
 70
     1
102
RTVSPropertyOp19
 70
     1
102
RTVSPropertyOp20
 70
     1
102
RTVSPropertyOp21
 70
     1
102
RTVSPropertyOp22
 70
     1
102
RTVSPropertyOp23
 70
     1
102
RTVSPropertyOp24
 70
     1
102
RTVSPropertyOp25
 70
     1
102
RTVSPropertyOp26
 70
     1
102
RTVSPropertyOp27
 70
     1
102
RTVSPropertyOp28
 70
     1
102
RTVSPropertyOp29
 70
     1
102
RTVSPropertyOp30
 70
     1
102
RTVSPropertyOp31
 70
     1
102
RTVSPropertyOp32
 70
     1
  0
XRECORD
  5
1A4
102
{ACAD_REACTORS
330
1A3
102
}
330
1A3
100
AcDbXrecord
280
     1
102
RTVSPropertyOp0
 70
     1
102
RTVSPropertyOp1
 70
     1
102
RTVSPropertyOp2
 70
     1
102
RTVSPropertyOp3
 70
     1
102
RTVSPropertyOp4
 70
     1
102
RTVSPropertyOp5
 70
     1
102
RTVSPropertyOp6
 70
     1
102
RTVSPropertyOp7
 70
     1
102
RTVSPropertyOp8
 70
     1
102
RTVSPropertyOp9
 70
     1
102
RTVSPropertyOp10
 70
     1
102
RTVSPropertyOp11
 70
     1
102
RTVSPropertyOp12
 70
     1
102
RTVSPropertyOp13
 70
     1
102
RTVSPropertyOp14
 70
     1
102
RTVSPropertyOp15
 70
     1
102
RTVSPropertyOp16
 70
     1
102
RTVSPropertyOp17
 70
     1
102
RTVSPropertyOp18
 70
     1
102
RTVSPropertyOp19
 70
     1
102
RTVSPropertyOp20
 70
     1
102
RTVSPropertyOp21
 70
     1
102
RTVSPropertyOp22
 70
     1
102
RTVSPropertyOp23
 70
     1
102
RTVSPropertyOp24
 70
     1
102
RTVSPropertyOp25
 70
     1
102
RTVSPropertyOp26
 70
     1
102
RTVSPropertyOp27
 70
     1
102
RTVSPropertyOp28
 70
     1
102
RTVSPropertyOp29
 70
     1
102
RTVSPropertyOp30
 70
     1
102
RTVSPropertyOp31
 70
     1
102
RTVSPropertyOp32
 70
     1
  0
XRECORD
  5
1AC
102
{ACAD_REACTORS
330
1AB
102
}
330
1AB
100
AcDbXrecord
280
     1
102
RTVSPropertyOp0
 70
     1
102
RTVSPropertyOp1
 70
     1
102
RTVSPropertyOp2
 70
     1
102
RTVSPropertyOp3
 70
     1
102
RTVSPropertyOp4
 70
     1
102
RTVSPropertyOp5
 70
     1
102
RTVSPropertyOp6
 70
     1
102
RTVSPropertyOp7
 70
     1
102
RTVSPropertyOp8
 70
     1
102
RTVSPropertyOp9
 70
     1
102
RTVSPropertyOp10
 70
     1
102
RTVSPropertyOp11
 70
     1
102
RTVSPropertyOp12
 70
     1
102
RTVSPropertyOp13
 70
     1
102
RTVSPropertyOp14
 70
     1
102
RTVSPropertyOp15
 70
     1
102
RTVSPropertyOp16
 70
     1
102
RTVSPropertyOp17
 70
     1
102
RTVSPropertyOp18
 70
     1
102
RTVSPropertyOp19
 70
     1
102
RTVSPropertyOp20
 70
     1
102
RTVSPropertyOp21
 70
     1
102
RTVSPropertyOp22
 70
     1
102
RTVSPropertyOp23
 70
     1
102
RTVSPropertyOp24
 70
     1
102
RTVSPropertyOp25
 70
     1
102
RTVSPropertyOp26
 70
     1
102
RTVSPropertyOp27
 70
     1
102
RTVSPropertyOp28
 70
     1
102
RTVSPropertyOp29
 70
     1
102
RTVSPropertyOp30
 70
     1
102
RTVSPropertyOp31
 70
     1
102
RTVSPropertyOp32
 70
     1
  0
ENDSEC
  0
EOF
