  0
SECTION
  2
HEADER
  9
$ACADVER
  1
AC1015
  9
$ACADMAINTVER
 70
     6
  9
$DWGCODEPAGE
  3
ANSI_932
  9
$INSBASE
 10
0.0
 20
0.0
 30
0.0
  9
$EXTMIN
 10
0.0
 20
-0.00000000000006
 30
0.0
  9
$EXTMAX
 10
210.0
 20
296.9999999999999
 30
0.0
  9
$LIMMIN
 10
0.0
 20
0.0
  9
$LIMMAX
 10
12.0
 20
9.0
  9
$ORTHOMODE
 70
     0
  9
$REGENMODE
 70
     1
  9
$FILLMODE
 70
     1
  9
$QTEXTMODE
 70
     0
  9
$MIRRTEXT
 70
     1
  9
$LTSCALE
 40
1.0
  9
$ATTMODE
 70
     1
  9
$TEXTSIZE
 40
0.2
  9
$TRACEWID
 40
0.05
  9
$TEXTSTYLE
  7
Standard
  9
$CLAYER
  8
0
  9
$CELTYPE
  6
ByLayer
  9
$CECOLOR
 62
   256
  9
$CELTSCALE
 40
1.0
  9
$DISPSILH
 70
     0
  9
$DIMSCALE
 40
1.0
  9
$DIMASZ
 40
0.18
  9
$DIMEXO
 40
0.0625
  9
$DIMDLI
 40
0.38
  9
$DIMRND
 40
0.0
  9
$DIMDLE
 40
0.0
  9
$DIMEXE
 40
0.18
  9
$DIMTP
 40
0.0
  9
$DIMTM
 40
0.0
  9
$DIMTXT
 40
0.18
  9
$DIMCEN
 40
0.09
  9
$DIMTSZ
 40
0.0
  9
$DIMTOL
 70
     0
  9
$DIMLIM
 70
     0
  9
$DIMTIH
 70
     1
  9
$DIMTOH
 70
     1
  9
$DIMSE1
 70
     0
  9
$DIMSE2
 70
     0
  9
$DIMTAD
 70
     0
  9
$DIMZIN
 70
     0
  9
$DIMBLK
  1

  9
$DIMASO
 70
     1
  9
$DIMSHO
 70
     1
  9
$DIMPOST
  1

  9
$DIMAPOST
  1

  9
$DIMALT
 70
     0
  9
$DIMALTD
 70
     2
  9
$DIMALTF
 40
25.4
  9
$DIMLFAC
 40
1.0
  9
$DIMTOFL
 70
     0
  9
$DIMTVP
 40
0.0
  9
$DIMTIX
 70
     0
  9
$DIMSOXD
 70
     0
  9
$DIMSAH
 70
     0
  9
$DIMBLK1
  1

  9
$DIMBLK2
  1

  9
$DIMSTYLE
  2
Standard
  9
$DIMCLRD
 70
     0
  9
$DIMCLRE
 70
     0
  9
$DIMCLRT
 70
     0
  9
$DIMTFAC
 40
1.0
  9
$DIMGAP
 40
0.09
  9
$DIMJUST
 70
     0
  9
$DIMSD1
 70
     0
  9
$DIMSD2
 70
     0
  9
$DIMTOLJ
 70
     1
  9
$DIMTZIN
 70
     0
  9
$DIMALTZ
 70
     0
  9
$DIMALTTZ
 70
     0
  9
$DIMUPT
 70
     0
  9
$DIMDEC
 70
     4
  9
$DIMTDEC
 70
     4
  9
$DIMALTU
 70
     2
  9
$DIMALTTD
 70
     2
  9
$DIMTXSTY
  7
Standard
  9
$DIMAUNIT
 70
     0
  9
$DIMADEC
 70
     0
  9
$DIMALTRND
 40
0.0
  9
$DIMAZIN
 70
     0
  9
$DIMDSEP
 70
    46
  9
$DIMATFIT
 70
     3
  9
$DIMFRAC
 70
     0
  9
$DIMLDRBLK
  1

  9
$DIMLUNIT
 70
     2
  9
$DIMLWD
 70
    -2
  9
$DIMLWE
 70
    -2
  9
$DIMTMOVE
 70
     0
  9
$LUNITS
 70
     2
  9
$LUPREC
 70
     4
  9
$SKETCHINC
 40
0.1
  9
$FILLETRAD
 40
0.5
  9
$AUNITS
 70
     0
  9
$AUPREC
 70
     0
  9
$MENU
  1
.
  9
$ELEVATION
 40
0.0
  9
$PELEVATION
 40
0.0
  9
$THICKNESS
 40
0.0
  9
$LIMCHECK
 70
     0
  9
$CHAMFERA
 40
0.5
  9
$CHAMFERB
 40
0.5
  9
$CHAMFERC
 40
1.0
  9
$CHAMFERD
 40
0.0
  9
$SKPOLY
 70
     0
  9
$TDCREATE
 40
2459719.567484213
  9
$TDUCREATE
 40
2459719.192484213
  9
$TDUPDATE
 40
2459719.56748566
  9
$TDUUPDATE
 40
2459719.19248566
  9
$TDINDWG
 40
0.0000000116
  9
$TDUSRTIMER
 40
0.0000000116
  9
$USRTIMER
 70
     1
  9
$ANGBASE
 50
0.0
  9
$ANGDIR
 70
     0
  9
$PDMODE
 70
     0
  9
$PDSIZE
 40
0.0
  9
$PLINEWID
 40
0.0
  9
$SPLFRAME
 70
     0
  9
$SPLINETYPE
 70
     6
  9
$SPLINESEGS
 70
     8
  9
$HANDSEED
  5
13C
  9
$SURFTAB1
 70
     6
  9
$SURFTAB2
 70
     6
  9
$SURFTYPE
 70
     6
  9
$SURFU
 70
     6
  9
$SURFV
 70
     6
  9
$UCSBASE
  2

  9
$UCSNAME
  2

  9
$UCSORG
 10
0.0
 20
0.0
 30
0.0
  9
$UCSXDIR
 10
1.0
 20
0.0
 30
0.0
  9
$UCSYDIR
 10
0.0
 20
1.0
 30
0.0
  9
$UCSORTHOREF
  2

  9
$UCSORTHOVIEW
 70
     0
  9
$UCSORGTOP
 10
0.0
 20
0.0
 30
0.0
  9
$UCSORGBOTTOM
 10
0.0
 20
0.0
 30
0.0
  9
$UCSORGLEFT
 10
0.0
 20
0.0
 30
0.0
  9
$UCSORGRIGHT
 10
0.0
 20
0.0
 30
0.0
  9
$UCSORGFRONT
 10
0.0
 20
0.0
 30
0.0
  9
$UCSORGBACK
 10
0.0
 20
0.0
 30
0.0
  9
$PUCSBASE
  2

  9
$PUCSNAME
  2

  9
$PUCSORG
 10
0.0
 20
0.0
 30
0.0
  9
$PUCSXDIR
 10
1.0
 20
0.0
 30
0.0
  9
$PUCSYDIR
 10
0.0
 20
1.0
 30
0.0
  9
$PUCSORTHOREF
  2

  9
$PUCSORTHOVIEW
 70
     0
  9
$PUCSORGTOP
 10
0.0
 20
0.0
 30
0.0
  9
$PUCSORGBOTTOM
 10
0.0
 20
0.0
 30
0.0
  9
$PUCSORGLEFT
 10
0.0
 20
0.0
 30
0.0
  9
$PUCSORGRIGHT
 10
0.0
 20
0.0
 30
0.0
  9
$PUCSORGFRONT
 10
0.0
 20
0.0
 30
0.0
  9
$PUCSORGBACK
 10
0.0
 20
0.0
 30
0.0
  9
$USERI1
 70
     0
  9
$USERI2
 70
     0
  9
$USERI3
 70
     0
  9
$USERI4
 70
     0
  9
$USERI5
 70
     0
  9
$USERR1
 40
18.1
  9
$USERR2
 40
0.0
  9
$USERR3
 40
0.0
  9
$USERR4
 40
0.0
  9
$USERR5
 40
0.0
  9
$WORLDVIEW
 70
     1
  9
$SHADEDGE
 70
     3
  9
$SHADEDIF
 70
    70
  9
$TILEMODE
 70
     1
  9
$MAXACTVP
 70
    64
  9
$PINSBASE
 10
0.0
 20
0.0
 30
0.0
  9
$PLIMCHECK
 70
     0
  9
$PEXTMIN
 10
1.00000000000000E+20
 20
1.00000000000000E+20
 30
1.00000000000000E+20
  9
$PEXTMAX
 10
-1.00000000000000E+20
 20
-1.00000000000000E+20
 30
-1.00000000000000E+20
  9
$PLIMMIN
 10
0.0
 20
0.0
  9
$PLIMMAX
 10
12.0
 20
9.0
  9
$UNITMODE
 70
     0
  9
$VISRETAIN
 70
     1
  9
$PLINEGEN
 70
     0
  9
$PSLTSCALE
 70
     1
  9
$TREEDEPTH
 70
  3020
  9
$CMLSTYLE
  2
Standard
  9
$CMLJUST
 70
     0
  9
$CMLSCALE
 40
1.0
  9
$PROXYGRAPHICS
 70
     1
  9
$MEASUREMENT
 70
     1
  9
$CELWEIGHT
370
    -1
  9
$ENDCAPS
280
     0
  9
$JOINSTYLE
280
     0
  9
$LWDISPLAY
290
     0
  9
$INSUNITS
 70
     4
  9
$HYPERLINKBASE
  1

  9
$STYLESHEET
  1

  9
$XEDIT
290
     1
  9
$CEPSNTYPE
380
     0
  9
$PSTYLEMODE
290
     1
  9
$FINGERPRINTGUID
  2
{72E82070-C7BB-4DD6-8FE4-F0A84B89BB13}
  9
$VERSIONGUID
  2
{FAEB1C32-E019-11D5-929B-00C0DF256EC4}
  9
$EXTNAMES
290
     1
  9
$PSVPSCALE
 40
0.0
  9
$OLESTARTUP
290
     0
  0
ENDSEC
  0
SECTION
  2
CLASSES
  0
CLASS
  1
ACDBDICTIONARYWDFLT
  2
AcDbDictionaryWithDefault
  3
ObjectDBX Classes
 90
        0
280
     0
281
     0
  0
CLASS
  1
VISUALSTYLE
  2
AcDbVisualStyle
  3
ObjectDBX Classes
 90
     4095
280
     0
281
     0
  0
CLASS
  1
MATERIAL
  2
AcDbMaterial
  3
ObjectDBX Classes
 90
     1153
280
     0
281
     0
  0
CLASS
  1
DICTIONARYVAR
  2
AcDbDictionaryVar
  3
ObjectDBX Classes
 90
        0
280
     0
281
     0
  0
CLASS
  1
ACDBPLACEHOLDER
  2
AcDbPlaceHolder
  3
ObjectDBX Classes
 90
        0
280
     0
281
     0
  0
CLASS
  1
LAYOUT
  2
AcDbLayout
  3
ObjectDBX Classes
 90
        0
280
     0
281
     0
  0
ENDSEC
  0
SECTION
  2
TABLES
  0
TABLE
  2
VPORT
  5
8
330
0
100
AcDbSymbolTable
 70
     1
  0
VPORT
  5
29
330
8
100
AcDbSymbolTableRecord
100
AcDbViewportTableRecord
  2
*Active
 70
     0
 10
0.0
 20
0.0
 11
1.0
 21
1.0
 12
105.0
 22
148.4999999999999
 13
0.0
 23
0.0
 14
0.5
 24
0.5
 15
0.5
 25
0.5
 16
0.0
 26
0.0
 36
1.0
 17
0.0
 27
0.0
 37
0.0
 40
326.7
 41
1.60267857142857
 42
50.0
 43
0.0
 44
0.0
 50
0.0
 51
0.0
 71
     0
 72
   100
 73
     1
 74
     3
 75
     0
 76
     0
 77
     0
 78
     0
281
     0
 65
     1
110
0.0
120
0.0
130
0.0
111
1.0
121
0.0
131
0.0
112
0.0
122
1.0
132
0.0
 79
     0
146
0.0
  0
ENDTAB
  0
TABLE
  2
LTYPE
  5
5
330
0
100
AcDbSymbolTable
 70
     8
  0
LTYPE
  5
14
330
5
100
AcDbSymbolTableRecord
100
AcDbLinetypeTableRecord
  2
ByBlock
 70
     0
  3

 72
    65
 73
     0
 40
0.0
  0
LTYPE
  5
15
330
5
100
AcDbSymbolTableRecord
100
AcDbLinetypeTableRecord
  2
ByLayer
 70
     0
  3

 72
    65
 73
     0
 40
0.0
  0
LTYPE
  5
16
330
5
100
AcDbSymbolTableRecord
100
AcDbLinetypeTableRecord
  2
Continuous
 70
     0
  3
Solid line
 72
    65
 73
     0
 40
0.0
  0
LTYPE
  5
3F
330
5
100
AcDbSymbolTableRecord
100
AcDbLinetypeTableRecord
  2
DASHED
 70
     0
  3
Dashed
 72
    65
 73
     2
 40
15.0
 49
7.0
 74
     0
 49
-8.0
 74
     0
  0
LTYPE
  5
40
330
5
100
AcDbSymbolTableRecord
100
AcDbLinetypeTableRecord
  2
DOTTED
 70
     0
  3
Dotted
 72
    65
 73
     2
 40
1.0
 49
0.0
 74
     0
 49
-1.0
 74
     0
  0
LTYPE
  5
41
330
5
100
AcDbSymbolTableRecord
100
AcDbLinetypeTableRecord
  2
DOT_CENTER
 70
     0
  3
Dot_Center
 72
    65
 73
     4
 40
14.0
 49
12.0
 74
     0
 49
-1.0
 74
     0
 49
0.0
 74
     0
 49
-1.0
 74
     0
  0
LTYPE
  5
42
330
5
100
AcDbSymbolTableRecord
100
AcDbLinetypeTableRecord
  2
LONG_DASHED
 70
     0
  3
Long_Dashed
 72
    65
 73
     2
 40
15.0
 49
10.0
 74
     0
 49
-5.0
 74
     0
  0
LTYPE
  5
43
330
5
100
AcDbSymbolTableRecord
100
AcDbLinetypeTableRecord
  2
DASH_CENTER
 70
     0
  3
Dash_Center
 72
    65
 73
     4
 40
14.0
 49
11.0
 74
     0
 49
-1.0
 74
     0
 49
1.0
 74
     0
 49
-1.0
 74
     0
  0
LTYPE
  5
44
330
5
100
AcDbSymbolTableRecord
100
AcDbLinetypeTableRecord
  2
PHANTOM
 70
     0
  3
Phantom
 72
    65
 73
     6
 40
13.0
 49
10.0
 74
     0
 49
-1.0
 74
     0
 49
0.0
 74
     0
 49
-1.0
 74
     0
 49
0.0
 74
     0
 49
-1.0
 74
     0
  0
LTYPE
  5
45
330
5
100
AcDbSymbolTableRecord
100
AcDbLinetypeTableRecord
  2
CENTER_DASH_DASH
 70
     0
  3
Center_Dash_Dash
 72
    65
 73
     6
 40
14.0
 49
9.0
 74
     0
 49
-1.0
 74
     0
 49
1.0
 74
     0
 49
-1.0
 74
     0
 49
1.0
 74
     0
 49
-1.0
 74
     0
  0
ENDTAB
  0
TABLE
  2
LAYER
  5
2
330
0
100
AcDbSymbolTable
 70
     3
  0
LAYER
  5
10
330
2
100
AcDbSymbolTableRecord
100
AcDbLayerTableRecord
  2
0
 70
     0
 62
     7
  6
Continuous
370
    -3
390
F
  0
LAYER
  5
46
330
2
100
AcDbSymbolTableRecord
100
AcDbLayerTableRecord
  2
1
 70
     0
 62
     7
  6
Continuous
370
    -3
390
F
  0
LAYER
  5
47
330
2
100
AcDbSymbolTableRecord
100
AcDbLayerTableRecord
  2
_U_30EC_U_30A4_U_30E4_U_30FC_1
 70
     0
 62
     7
  6
Continuous
370
    -3
390
F
  0
ENDTAB
  0
TABLE
  2
STYLE
  5
3
330
0
100
AcDbSymbolTable
 70
     3
  0
STYLE
  5
11
330
3
100
AcDbSymbolTableRecord
100
AcDbTextStyleTableRecord
  2
Standard
 70
     0
 40
0.0
 41
1.0
 50
0.0
 71
     0
 42
0.2
  3
txt
  4

  0
STYLE
  5
B2
330
3
100
AcDbSymbolTableRecord
100
AcDbTextStyleTableRecord
  2
CONVERTER_11
 70
     0
 40
0.0
 41
0.89
 50
0.0
 71
     0
 42
0.2
  3
MS Mincho.ttf
  4

1001
ACAD
1000
MS Mincho
1071
    32785
  0
STYLE
  5
E2
330
3
100
AcDbSymbolTableRecord
100
AcDbTextStyleTableRecord
  2
CONVERTER_12
 70
     0
 40
0.0
 41
0.9
 50
0.0
 71
     0
 42
0.2
  3
txt.shx
  4

  0
ENDTAB
  0
TABLE
  2
VIEW
  5
6
330
0
100
AcDbSymbolTable
 70
     0
  0
ENDTAB
  0
TABLE
  2
UCS
  5
7
330
0
100
AcDbSymbolTable
 70
     0
  0
ENDTAB
  0
TABLE
  2
APPID
  5
9
330
0
100
AcDbSymbolTable
 70
     1
  0
APPID
  5
12
330
9
100
AcDbSymbolTableRecord
100
AcDbRegAppTableRecord
  2
ACAD
 70
     0
  0
ENDTAB
  0
TABLE
  2
DIMSTYLE
  5
A
330
0
100
AcDbSymbolTable
 70
     3
100
AcDbDimStyleTable
  0
DIMSTYLE
105
27
330
A
100
AcDbSymbolTableRecord
100
AcDbDimStyleTableRecord
  2
Standard
 70
     0
178
     0
340
11
  0
DIMSTYLE
105
FC
102
{ACAD_REACTORS
330
FD
102
}
330
A
100
AcDbSymbolTableRecord
100
AcDbDimStyleTableRecord
  2
ME10_DIM_10
 70
     0
 41
3.5
 42
0.0
 44
2.0
 73
     0
 74
     0
 77
     1
 78
     8
140
3.0
147
2.0
172
     1
173
     1
174
     1
175
     1
176
     2
177
     2
271
     2
178
     7
271
     2
340
E2
  0
DIMSTYLE
105
107
102
{ACAD_REACTORS
330
108
102
}
330
A
100
AcDbSymbolTableRecord
100
AcDbDimStyleTableRecord
  2
ME10_DIM_11
 70
     0
  3
{\Fgdt;n}<>
 41
3.5
 42
0.0
 44
2.0
 73
     0
 74
     0
 77
     1
 78
     8
140
3.0
147
2.0
172
     1
173
     1
174
     1
175
     1
176
     2
177
     2
271
     2
178
     7
271
     2
340
E2
  0
ENDTAB
  0
TABLE
  2
BLOCK_RECORD
  5
1
330
0
100
AcDbSymbolTable
 70
     6
  0
BLOCK_RECORD
  5
1F
330
1
100
AcDbSymbolTableRecord
100
AcDbBlockTableRecord
  2
*Model_Space
340
22
  0
BLOCK_RECORD
  5
1B
330
1
100
AcDbSymbolTableRecord
100
AcDbBlockTableRecord
  2
*Paper_Space
340
1E
  0
BLOCK_RECORD
  5
23
330
1
100
AcDbSymbolTableRecord
100
AcDbBlockTableRecord
  2
*Paper_Space0
340
26
  0
BLOCK_RECORD
  5
48
330
1
100
AcDbSymbolTableRecord
100
AcDbBlockTableRecord
  2
開示A4
340
0
102
{BLKREFS
331
4C
102
}
  0
BLOCK_RECORD
  5
4B
330
1
100
AcDbSymbolTableRecord
100
AcDbBlockTableRecord
  2
開示A4枠
340
0
102
{BLKREFS
331
4F
102
}
  0
BLOCK_RECORD
  5
F3
330
1
100
AcDbSymbolTableRecord
100
AcDbBlockTableRecord
  2
*D3
340
0
  0
BLOCK_RECORD
  5
FE
330
1
100
AcDbSymbolTableRecord
100
AcDbBlockTableRecord
  2
*D4
340
0
  0
BLOCK_RECORD
  5
109
330
1
100
AcDbSymbolTableRecord
100
AcDbBlockTableRecord
  2
*D5
340
0
102
{BLKREFS
331
110
102
}
  0
ENDTAB
  0
ENDSEC
  0
SECTION
  2
BLOCKS
  0
BLOCK
  5
20
330
1F
100
AcDbEntity
  8
0
100
AcDbBlockBegin
  2
*Model_Space
 70
     0
 10
0.0
 20
0.0
 30
0.0
  3
*Model_Space
  1

  0
ENDBLK
  5
21
330
1F
100
AcDbEntity
  8
0
100
AcDbBlockEnd
  0
BLOCK
  5
1C
330
1B
100
AcDbEntity
 67
     1
  8
0
100
AcDbBlockBegin
  2
*Paper_Space
 70
     0
 10
0.0
 20
0.0
 30
0.0
  3
*Paper_Space
  1

  0
ENDBLK
  5
1D
330
1B
100
AcDbEntity
 67
     1
  8
0
100
AcDbBlockEnd
  0
BLOCK
  5
24
330
23
100
AcDbEntity
  8
0
100
AcDbBlockBegin
  2
*Paper_Space0
 70
     0
 10
0.0
 20
0.0
 30
0.0
  3
*Paper_Space0
  1

  0
ENDBLK
  5
25
330
23
100
AcDbEntity
  8
0
100
AcDbBlockEnd
  0
BLOCK
  5
49
330
48
100
AcDbEntity
  8
0
100
AcDbBlockBegin
  2
開示A4
 70
     0
 10
0.0
 20
-0.00000000000006
 30
0.0
  3
開示A4
  1

  0
POINT
  5
50
330
48
100
AcDbEntity
  8
1
 62
     4
100
AcDbPoint
 10
34.0
 20
33.99999999999994
 30
0.0
  0
POINT
  5
51
330
48
100
AcDbEntity
  8
1
 62
     4
100
AcDbPoint
 10
57.0
 20
12.24999999999994
 30
0.0
  0
POINT
  5
52
330
48
100
AcDbEntity
  8
1
 62
     4
100
AcDbPoint
 10
57.0
 20
20.74999999999994
 30
0.0
  0
POINT
  5
53
330
48
100
AcDbEntity
  8
1
 62
     4
100
AcDbPoint
 10
57.0
 20
24.74999999999994
 30
0.0
  0
POINT
  5
54
330
48
100
AcDbEntity
  8
1
 62
     4
100
AcDbPoint
 10
57.0
 20
16.24999999999994
 30
0.0
  0
POINT
  5
55
330
48
100
AcDbEntity
  8
1
 62
     4
100
AcDbPoint
 10
157.5
 20
18.99999999999994
 30
0.0
  0
POINT
  5
56
330
48
100
AcDbEntity
  8
1
 62
     4
100
AcDbPoint
 10
47.5
 20
282.0000000000002
 30
0.0
  0
POINT
  5
57
330
48
100
AcDbEntity
  8
1
 62
     4
100
AcDbPoint
 10
57.0
 20
22.74999999999994
 30
0.0
  0
POINT
  5
58
330
48
100
AcDbEntity
  8
1
 62
     4
100
AcDbPoint
 10
57.0
 20
14.24999999999994
 30
0.0
  0
POINT
  5
59
330
48
100
AcDbEntity
  8
1
 62
     4
100
AcDbPoint
 10
157.5
 20
12.49999999999994
 30
0.0
  0
POINT
  5
5A
330
48
100
AcDbEntity
  8
1
 62
     4
100
AcDbPoint
 10
163.25
 20
12.49999999999994
 30
0.0
  0
POINT
  5
5B
330
48
100
AcDbEntity
  8
1
 62
     4
100
AcDbPoint
 10
151.75
 20
12.49999999999994
 30
0.0
  0
POINT
  5
5C
330
48
100
AcDbEntity
  8
1
 62
     4
100
AcDbPoint
 10
134.75
 20
12.49999999999994
 30
0.0
  0
POINT
  5
5D
330
48
100
AcDbEntity
  8
1
 62
     4
100
AcDbPoint
 10
146.25
 20
12.49999999999994
 30
0.0
  0
POINT
  5
5E
330
48
100
AcDbEntity
  8
1
 62
     4
100
AcDbPoint
 10
140.5
 20
12.49999999999994
 30
0.0
  0
POINT
  5
5F
330
48
100
AcDbEntity
  8
1
 62
     4
100
AcDbPoint
 10
140.5
 20
18.99999999999994
 30
0.0
  0
POINT
  5
60
330
48
100
AcDbEntity
  8
1
 62
     4
100
AcDbPoint
 10
117.75
 20
12.49999999999994
 30
0.0
  0
POINT
  5
61
330
48
100
AcDbEntity
  8
1
 62
     4
100
AcDbPoint
 10
129.25
 20
12.49999999999994
 30
0.0
  0
POINT
  5
62
330
48
100
AcDbEntity
  8
1
 62
     4
100
AcDbPoint
 10
123.5
 20
12.49999999999994
 30
0.0
  0
POINT
  5
63
330
48
100
AcDbEntity
  8
1
 62
     4
100
AcDbPoint
 10
123.5
 20
18.99999999999994
 30
0.0
  0
POINT
  5
64
330
48
100
AcDbEntity
  8
1
 62
     4
100
AcDbPoint
 10
100.75
 20
12.49999999999994
 30
0.0
  0
POINT
  5
65
330
48
100
AcDbEntity
  8
1
 62
     4
100
AcDbPoint
 10
112.25
 20
12.49999999999994
 30
0.0
  0
POINT
  5
66
330
48
100
AcDbEntity
  8
1
 62
     4
100
AcDbPoint
 10
106.5
 20
12.49999999999994
 30
0.0
  0
POINT
  5
67
330
48
100
AcDbEntity
  8
1
 62
     4
100
AcDbPoint
 10
106.5
 20
18.99999999999994
 30
0.0
  0
POINT
  5
68
330
48
100
AcDbEntity
  8
1
 62
     4
100
AcDbPoint
 10
85.25
 20
16.99999999999994
 30
0.0
  0
POINT
  5
69
330
48
100
AcDbEntity
  8
1
 62
     4
100
AcDbPoint
 10
93.75
 20
16.99999999999994
 30
0.0
  0
POINT
  5
6A
330
48
100
AcDbEntity
  8
1
 62
     4
100
AcDbPoint
 10
183.0
 20
14.99999999999994
 30
0.0
  0
LINE
  5
6B
330
48
100
AcDbEntity
  8
1
  6
Continuous
 62
     2
100
AcDbLine
 10
81.0
 20
26.99999999999994
 30
0.0
 11
81.0
 21
9.99999999999994
 31
0.0
  0
LINE
  5
6C
330
48
100
AcDbEntity
  8
1
  6
DOT_CENTER
 62
     2
100
AcDbLine
 10
187.0
 20
26.49999999999994
 30
0.0
 11
187.0
 21
20.49999999999994
 31
0.0
  0
LINE
  5
6D
330
48
100
AcDbEntity
  8
1
  6
DOT_CENTER
 62
     2
100
AcDbLine
 10
184.0
 20
23.49999999999994
 30
0.0
 11
197.0
 21
23.49999999999994
 31
0.0
  0
LINE
  5
6E
330
48
100
AcDbEntity
  8
1
  6
Continuous
 62
     7
100
AcDbLine
 10
196.0
 20
21.49999999999994
 30
0.0
 11
191.0
 21
22.29999999999996
 31
0.0
  0
LINE
  5
6F
330
48
100
AcDbEntity
  8
1
  6
Continuous
 62
     7
100
AcDbLine
 10
196.0
 20
25.49999999999994
 30
0.0
 11
196.0
 21
21.49999999999994
 31
0.0
  0
LINE
  5
70
330
48
100
AcDbEntity
  8
1
  6
Continuous
 62
     7
100
AcDbLine
 10
191.0
 20
24.69999999999996
 30
0.0
 11
196.0
 21
25.49999999999994
 31
0.0
  0
LINE
  5
71
330
48
100
AcDbEntity
  8
1
  6
Continuous
 62
     7
100
AcDbLine
 10
191.0
 20
24.69999999999996
 30
0.0
 11
191.0
 21
22.29999999999996
 31
0.0
  0
LINE
  5
72
330
48
100
AcDbEntity
  8
1
  6
Continuous
 62
     2
100
AcDbLine
 10
33.0
 20
26.99999999999994
 30
0.0
 11
33.0
 21
9.99999999999994
 31
0.0
  0
LINE
  5
73
330
48
100
AcDbEntity
  8
1
  6
Continuous
 62
     2
100
AcDbLine
 10
25.0
 20
18.49999999999994
 30
0.0
 11
81.0
 21
18.49999999999994
 31
0.0
  0
LINE
  5
74
330
48
100
AcDbEntity
  8
1
  6
Continuous
 62
     7
100
AcDbLine
 10
200.0
 20
287.0000000000002
 30
0.0
 11
105.0
 21
287.0000000000002
 31
0.0
  0
LINE
  5
75
330
48
100
AcDbEntity
  8
1
  6
Continuous
 62
     7
100
AcDbLine
 10
200.0
 20
9.99999999999994
 30
0.0
 11
200.0
 21
148.4999999999999
 31
0.0
  0
LINE
  5
76
330
48
100
AcDbEntity
  8
1
  6
Continuous
 62
     7
100
AcDbLine
 10
25.0
 20
9.99999999999994
 30
0.0
 11
105.0
 21
9.99999999999994
 31
0.0
  0
LINE
  5
77
330
48
100
AcDbEntity
  8
1
  6
PHANTOM
 62
     4
100
AcDbLine
 10
0.0
 20
296.9999999999999
 30
0.0
 11
0.0
 21
-0.00000000000006
 31
0.0
  0
LINE
  5
78
330
48
100
AcDbEntity
  8
1
  6
PHANTOM
 62
     4
100
AcDbLine
 10
210.0
 20
296.9999999999999
 30
0.0
 11
0.0
 21
296.9999999999999
 31
0.0
  0
LINE
  5
79
330
48
100
AcDbEntity
  8
1
  6
PHANTOM
 62
     4
100
AcDbLine
 10
210.0
 20
-0.00000000000006
 30
0.0
 11
210.0
 21
296.9999999999999
 31
0.0
  0
LINE
  5
7A
330
48
100
AcDbEntity
  8
1
  6
PHANTOM
 62
     4
100
AcDbLine
 10
0.0
 20
-0.00000000000006
 30
0.0
 11
210.0
 21
-0.00000000000006
 31
0.0
  0
LINE
  5
7B
330
48
100
AcDbEntity
  8
1
  6
Continuous
 62
     7
100
AcDbLine
 10
25.0
 20
40.99999999999994
 30
0.0
 11
200.0
 21
40.99999999999994
 31
0.0
  0
LINE
  5
7C
330
48
100
AcDbEntity
  8
1
  6
Continuous
 62
     7
100
AcDbLine
 10
200.0
 20
26.99999999999994
 30
0.0
 11
25.0
 21
26.99999999999994
 31
0.0
  0
LINE
  5
7D
330
48
100
AcDbEntity
  8
1
  6
Continuous
 62
     2
100
AcDbLine
 10
33.0
 20
40.99999999999994
 30
0.0
 11
33.0
 21
26.99999999999994
 31
0.0
  0
LINE
  5
7E
330
48
100
AcDbEntity
  8
1
  6
Continuous
 62
     2
100
AcDbLine
 10
55.0
 20
287.0000000000002
 30
0.0
 11
55.0
 21
277.0000000000002
 31
0.0
  0
LINE
  5
7F
330
48
100
AcDbEntity
  8
1
  6
Continuous
 62
     2
100
AcDbLine
 10
40.0
 20
287.0000000000002
 30
0.0
 11
40.0
 21
277.0000000000002
 31
0.0
  0
LINE
  5
80
330
48
100
AcDbEntity
  8
1
  6
Continuous
 62
     7
100
AcDbLine
 10
25.0
 20
9.99999999999994
 30
0.0
 11
25.0
 21
148.4999999999999
 31
0.0
  0
LINE
  5
81
330
48
100
AcDbEntity
  8
1
  6
Continuous
 62
     2
100
AcDbLine
 10
55.0
 20
277.0000000000002
 30
0.0
 11
25.0
 21
277.0000000000002
 31
0.0
  0
LINE
  5
82
330
48
100
AcDbEntity
  8
1
  6
Continuous
 62
     2
100
AcDbLine
 10
166.0
 20
26.99999999999994
 30
0.0
 11
166.0
 21
9.99999999999994
 31
0.0
  0
LINE
  5
83
330
48
100
AcDbEntity
  8
1
  6
Continuous
 62
     2
100
AcDbLine
 10
132.0
 20
26.99999999999994
 30
0.0
 11
132.0
 21
9.99999999999994
 31
0.0
  0
LINE
  5
84
330
48
100
AcDbEntity
  8
1
  6
Continuous
 62
     2
100
AcDbLine
 10
149.0
 20
26.99999999999994
 30
0.0
 11
149.0
 21
9.99999999999994
 31
0.0
  0
LINE
  5
85
330
48
100
AcDbEntity
  8
1
  6
Continuous
 62
     2
100
AcDbLine
 10
115.0
 20
26.99999999999994
 30
0.0
 11
115.0
 21
9.99999999999994
 31
0.0
  0
LINE
  5
86
330
48
100
AcDbEntity
  8
1
  6
Continuous
 62
     2
100
AcDbLine
 10
98.0
 20
26.99999999999994
 30
0.0
 11
98.0
 21
9.99999999999994
 31
0.0
  0
LINE
  5
87
330
48
100
AcDbEntity
  8
1
  6
Continuous
 62
     2
100
AcDbLine
 10
166.0
 20
19.99999999999994
 30
0.0
 11
200.0
 21
19.99999999999994
 31
0.0
  0
LINE
  5
88
330
48
100
AcDbEntity
  8
1
  6
Continuous
 62
     2
100
AcDbLine
 10
105.0
 20
287.0000000000002
 30
0.0
 11
105.0
 21
292.0000000000002
 31
0.0
  0
LINE
  5
89
330
48
100
AcDbEntity
  8
1
  6
Continuous
 62
     7
100
AcDbLine
 10
105.0
 20
287.0000000000002
 30
0.0
 11
25.0
 21
287.0000000000002
 31
0.0
  0
LINE
  5
8A
330
48
100
AcDbEntity
  8
1
  6
Continuous
 62
     2
100
AcDbLine
 10
25.0
 20
148.4999999999999
 30
0.0
 11
20.0
 21
148.4999999999999
 31
0.0
  0
LINE
  5
8B
330
48
100
AcDbEntity
  8
1
  6
Continuous
 62
     7
100
AcDbLine
 10
25.0
 20
148.4999999999999
 30
0.0
 11
25.0
 21
287.0000000000002
 31
0.0
  0
LINE
  5
8C
330
48
100
AcDbEntity
  8
1
  6
Continuous
 62
     2
100
AcDbLine
 10
200.0
 20
148.4999999999999
 30
0.0
 11
205.0
 21
148.4999999999999
 31
0.0
  0
LINE
  5
8D
330
48
100
AcDbEntity
  8
1
  6
Continuous
 62
     7
100
AcDbLine
 10
200.0
 20
148.4999999999999
 30
0.0
 11
200.0
 21
287.0000000000002
 31
0.0
  0
LINE
  5
8E
330
48
100
AcDbEntity
  8
1
  6
Continuous
 62
     2
100
AcDbLine
 10
105.0
 20
9.99999999999994
 30
0.0
 11
105.0
 21
4.99999999999994
 31
0.0
  0
LINE
  5
8F
330
48
100
AcDbEntity
  8
1
  6
Continuous
 62
     7
100
AcDbLine
 10
105.0
 20
9.99999999999994
 30
0.0
 11
200.0
 21
9.99999999999994
 31
0.0
  0
CIRCLE
  5
94
330
48
100
AcDbEntity
  8
1
  6
DOT_CENTER
 62
     7
100
AcDbCircle
 10
89.5
 20
17.99999999999994
 30
0.0
 40
0.1000000000000227
  0
CIRCLE
  5
95
330
48
100
AcDbEntity
  8
1
  6
DOT_CENTER
 62
     7
100
AcDbCircle
 10
89.5
 20
15.99999999999994
 30
0.0
 40
0.1000000000000227
  0
CIRCLE
  5
96
330
48
100
AcDbEntity
  8
1
  6
Continuous
 62
     7
100
AcDbCircle
 10
187.0
 20
23.49999999999994
 30
0.0
 40
2.0
  0
CIRCLE
  5
97
330
48
100
AcDbEntity
  8
1
  6
Continuous
 62
     7
100
AcDbCircle
 10
187.0
 20
23.49999999999994
 30
0.0
 40
1.200000000000102
  0
CIRCLE
  5
98
330
48
100
AcDbEntity
  8
1
  6
Continuous
 62
     7
100
AcDbCircle
 10
154.5
 20
12.49999999999994
 30
0.0
 40
0.3000000000000114
  0
CIRCLE
  5
99
330
48
100
AcDbEntity
  8
1
  6
Continuous
 62
     7
100
AcDbCircle
 10
160.5
 20
12.49999999999994
 30
0.0
 40
0.3000000000000114
  0
CIRCLE
  5
9A
330
48
100
AcDbEntity
  8
1
  6
Continuous
 62
     7
100
AcDbCircle
 10
143.5
 20
12.49999999999994
 30
0.0
 40
0.3000000000000114
  0
CIRCLE
  5
9B
330
48
100
AcDbEntity
  8
1
  6
Continuous
 62
     7
100
AcDbCircle
 10
137.5
 20
12.49999999999994
 30
0.0
 40
0.3000000000000114
  0
CIRCLE
  5
9C
330
48
100
AcDbEntity
  8
1
  6
Continuous
 62
     7
100
AcDbCircle
 10
126.5
 20
12.49999999999994
 30
0.0
 40
0.2999999999999972
  0
CIRCLE
  5
9D
330
48
100
AcDbEntity
  8
1
  6
Continuous
 62
     7
100
AcDbCircle
 10
120.5
 20
12.49999999999994
 30
0.0
 40
0.2999999999999972
  0
CIRCLE
  5
9E
330
48
100
AcDbEntity
  8
1
  6
Continuous
 62
     7
100
AcDbCircle
 10
109.5
 20
12.49999999999994
 30
0.0
 40
0.2999999999999972
  0
CIRCLE
  5
9F
330
48
100
AcDbEntity
  8
1
  6
Continuous
 62
     7
100
AcDbCircle
 10
103.5
 20
12.49999999999994
 30
0.0
 40
0.2999999999999972
  0
SPLINE
  5
A0
102
{ACAD_REACTORS
330
BE
102
}
330
48
100
AcDbEntity
  8
_U_30EC_U_30A4_U_30E4_U_30FC_1
  6
Continuous
 62
     2
100
AcDbSpline
210
0.0
220
0.0
230
1.0
 70
    11
 71
     3
 72
    99
 73
    95
 74
    93
 42
0.000000001
 43
0.0000000001
 44
0.00000001
 40
0.0
 40
0.0
 40
0.0
 40
0.0
 40
0.0796417172272386
 40
0.1621768542355943
 40
0.2486489160957578
 40
0.3404969668524557
 40
0.4381912511164548
 40
0.5434463660244845
 40
0.6518115192847157
 40
0.753019093788676
 40
0.8492196919724988
 40
0.941929031299803
 40
1.034249663570024
 40
1.129078600620187
 40
1.226697027573212
 40
1.327220425421667
 40
1.47057213493799
 40
1.595489863371192
 40
1.719934125348379
 40
1.850576620127384
 40
1.989059629987282
 40
2.134139054226901
 40
2.280698007207186
 40
2.424529739039453
 40
2.565929576985818
 40
2.708239260773516
 40
2.86171788744364
 40
3.045168540347345
 40
3.183798301138588
 40
3.314813961455433
 40
3.442083470447296
 40
3.56991270837295
 40
3.702177512509345
 40
3.84230755965951
 40
3.992872223245914
 40
4.156750662218303
 40
4.310981861107525
 40
4.445859909322569
 40
4.572393936131566
 40
4.701656719781969
 40
4.76827908600845
 40
4.835960697898384
 40
4.912788918729316
 40
5.006285208481535
 40
5.026909478751612
 40
5.047533749021176
 40
5.101808031471267
 40
5.162325165538548
 40
5.226919745995874
 40
5.29423180659674
 40
5.364544852554889
 40
5.438319055467939
 40
5.517877651324271
 40
5.607647714861583
 40
5.70044964254443
 40
5.78825114236416
 40
5.87271470603979
 40
5.955167292575314
 40
6.037192395190407
 40
6.120669181469143
 40
6.206848616686374
 40
6.296680855416785
 40
6.442558392872616
 40
6.568190371608305
 40
6.692904567360387
 40
6.824220446557164
 40
6.9631218503294
 40
7.107843738851181
 40
7.253431663907301
 40
7.395187468036727
 40
7.533140753237778
 40
7.670550457175256
 40
7.816236511769279
 40
7.987691657359258
 40
8.14227742196927
 40
8.293662615415036
 40
8.442962460879293
 40
8.591598316185346
 40
8.74367899236182
 40
8.903725323699202
 40
9.076307008890552
 40
9.265578604680607
 40
9.459203795360782
 40
9.61761981027357
 40
9.753609671361929
 40
9.874873300004102
 40
9.954520184977811
 40
10.02416413719247
 40
10.09769764405446
 40
10.18909955924974
 40
10.20974586420135
 40
10.23039218263381
 40
10.30057101881266
 40
10.37632012987547
 40
10.37632012987547
 40
10.37632012987547
 40
10.37632012987547
 10
170.1465954835851
 20
14.13795663215987
 30
0.0
 10
170.1632217851219
 20
14.11720608845306
 30
0.0
 10
170.1970784206577
 20
14.07495111711895
 30
0.0
 10
170.2599822541036
 20
14.02029811392066
 30
0.0
 10
170.3332500940393
 20
13.97299025121045
 30
0.0
 10
170.4175969238636
 20
13.93527231437928
 30
0.0
 10
170.513224061546
 20
13.91040619731946
 30
0.0
 10
170.6171853775346
 20
13.90309559345934
 30
0.0
 10
170.7224020220405
 20
13.91142322794047
 30
0.0
 10
170.8206626371334
 20
13.94149179651525
 30
0.0
 10
170.9058986427548
 20
13.98848822971871
 30
0.0
 10
170.9779220206103
 20
14.04952991250853
 30
0.0
 10
171.0350917709096
 20
14.12412969578578
 30
0.0
 10
171.0767868747439
 20
14.21002464660168
 30
0.0
 10
171.1026952846293
 20
14.30485850432206
 30
0.0
 10
171.1118037332653
 20
14.4185497903836
 30
0.0
 10
171.0986864796487
 20
14.54332587770772
 30
0.0
 10
171.0325330334414
 20
14.66014719171887
 30
0.0
 10
170.9369370919569
 20
14.74512539577368
 30
0.0
 10
170.8249681022369
 20
14.81416684459154
 30
0.0
 10
170.6993659583269
 20
14.87204142045885
 30
0.0
 10
170.5656691620857
 20
14.92373723284335
 30
0.0
 10
170.431312281883
 20
14.97899092397175
 30
0.0
 10
170.3051983986877
 20
15.04939770641644
 30
0.0
 10
170.1926579987534
 20
15.13785540731243
 30
0.0
 10
170.0969963064458
 20
15.24981067868466
 30
0.0
 10
170.0334157151826
 20
15.39949910101378
 30
0.0
 10
170.0200706505015
 20
15.55932794385135
 30
0.0
 10
170.0320510987449
 20
15.7104840530684
 30
0.0
 10
170.071229892884
 20
15.83809244591532
 30
0.0
 10
170.135498775091
 20
15.9508087403084
 30
0.0
 10
170.223820499974
 20
16.04648609268681
 30
0.0
 10
170.3338091207627
 20
16.12354214985747
 30
0.0
 10
170.4632284401265
 20
16.18151396936272
 30
0.0
 10
170.6111838967793
 20
16.21739177588816
 30
0.0
 10
170.7682069455486
 20
16.22746719050558
 30
0.0
 10
170.917494046643
 20
16.21863637762585
 30
0.0
 10
171.059625361417
 20
16.19074899340347
 30
0.0
 10
171.1595922609625
 20
16.13413314701132
 30
0.0
 10
171.3125074736184
 20
16.086746021055
 30
0.0
 10
171.2455131717168
 20
16.00197553001178
 30
0.0
 10
171.2296479120269
 20
15.93438901873478
 30
0.0
 10
171.1978750531297
 20
15.86926092793184
 30
0.0
 10
171.2150202209571
 20
15.76723453256946
 30
0.0
 10
171.1666427208232
 20
15.77493211681894
 30
0.0
 10
171.1315789440765
 20
15.768067717248
 30
0.0
 10
171.1296697985718
 20
15.8326383115819
 30
0.0
 10
171.0985692931989
 20
15.8782563962139
 30
0.0
 10
171.0664551628455
 20
15.93561036628449
 30
0.0
 10
171.0208038475168
 20
15.98540462692553
 30
0.0
 10
170.9658508218386
 20
16.02994813718988
 30
0.0
 10
170.9010841173007
 20
16.06763988836546
 30
0.0
 10
170.8232377310597
 20
16.09283375791346
 30
0.0
 10
170.7355160553352
 20
16.09931230998104
 30
0.0
 10
170.6452903277806
 20
16.09235709285601
 30
0.0
 10
170.5594594694065
 20
16.06909190460916
 30
0.0
 10
170.4828343638596
 20
16.0313164410754
 30
0.0
 10
170.41652656362
 20
15.98051641089567
 30
0.0
 10
170.3622560536964
 20
15.91731143407204
 30
0.0
 10
170.3224925345459
 20
15.8427645571036
 30
0.0
 10
170.2976775510588
 20
15.75917313997757
 30
0.0
 10
170.2892124262869
 20
15.65192948382279
 30
0.0
 10
170.3019697987103
 20
15.52965457267553
 30
0.0
 10
170.3681548409272
 20
15.41149724291205
 30
0.0
 10
170.4640977399832
 20
15.32606325709522
 30
0.0
 10
170.5757914963181
 20
15.25583362306716
 30
0.0
 10
170.7010863668703
 20
15.19659162305297
 30
0.0
 10
170.8349823941447
 20
15.14616708086128
 30
0.0
 10
170.968993033315
 20
15.09322516984375
 30
0.0
 10
171.0950885316915
 20
15.02750170625168
 30
0.0
 10
171.2076216638417
 20
14.94480352537315
 30
0.0
 10
171.3031370284232
 20
14.83996006310068
 30
0.0
 10
171.3672706486963
 20
14.69937117251563
 30
0.0
 10
171.3811103725279
 20
14.54065409451586
 30
0.0
 10
171.367395471223
 20
14.38153155217869
 30
0.0
 10
171.3244739153984
 20
14.23483828819205
 30
0.0
 10
171.2545906329066
 20
14.10119796587137
 30
0.0
 10
171.1574592213829
 20
13.98532387699287
 30
0.0
 10
171.0347806023657
 20
13.89089981770082
 30
0.0
 10
170.8874408413167
 20
13.82179270651977
 30
0.0
 10
170.7177132497125
 20
13.77953210858846
 30
0.0
 10
170.5317404979597
 20
13.767817362304
 30
0.0
 10
170.3528955926183
 20
13.77809486683431
 30
0.0
 10
170.1881733753743
 20
13.81966573769149
 30
0.0
 10
170.0834410841056
 20
13.88797642883936
 30
0.0
 10
169.9350960790365
 20
13.93675219032101
 30
0.0
 10
169.9980378194729
 20
14.02976591290836
 30
0.0
 10
170.0072274430059
 20
14.10296536248274
 30
0.0
 10
170.0303711301232
 20
14.1693629450134
 30
0.0
 10
170.0034588335317
 20
14.26974809527575
 30
0.0
 10
170.0521338956338
 20
14.26234033517372
 30
0.0
 10
170.0916530580697
 20
14.26894063620889
 30
0.0
 10
170.0996204944702
 20
14.19078703218926
 30
0.0
 10
170.1305436967922
 20
14.1560092737585
 30
0.0
 10
170.1465954835851
 20
14.13795663215987
 30
0.0
 11
170.1465954835851
 21
14.13795663215987
 31
0.0
 11
170.1982038075864
 21
14.0772986981473
 31
0.0
 11
170.2601105501335
 21
14.02271295163314
 31
0.0
 11
170.3327764009802
 21
13.97583980928377
 31
0.0
 11
170.4166468655843
 21
13.93839906276531
 31
0.0
 11
170.511221073241
 21
13.91390636311873
 31
0.0
 11
170.6161603327165
 21
13.90575829888468
 31
0.0
 11
170.7240739497552
 21
13.91564048638218
 31
0.0
 11
170.8208419941616
 21
13.94528704887478
 31
0.0
 11
170.9050776083319
 21
13.99175118948814
 31
0.0
 11
170.9756144207686
 21
14.05191413218145
 31
0.0
 11
171.031944210998
 21
14.12505819466314
 31
0.0
 11
171.0736690016003
 21
14.21021434047518
 31
0.0
 11
171.0994680808032
 21
14.30436190989606
 31
0.0
 11
171.1080824729446
 21
14.40451552098213
 31
0.0
 11
171.0878517703357
 21
14.54643250879391
 31
0.0
 11
171.0272522666731
 21
14.65566684036381
 31
0.0
 11
170.9364971286285
 21
14.74081306430089
 31
0.0
 11
170.826010188474
 21
14.81052746532509
 31
0.0
 11
170.7008523531254
 21
14.86979854169917
 31
0.0
 11
170.5662951950998
 21
14.92404253474115
 31
0.0
 11
170.4316884277007
 21
14.98201274305998
 31
0.0
 11
170.3065802017258
 21
15.05297399304226
 31
0.0
 11
170.196027609828
 21
15.14113315968688
 31
0.0
 11
170.1053381235265
 21
15.25080295132611
 31
0.0
 11
170.0447055469484
 21
15.3917972047631
 31
0.0
 11
170.0245079172553
 21
15.57413260402308
 31
0.0
 11
170.0374030471347
 21
15.71216131926636
 31
0.0
 11
170.0761016659391
 21
15.83733128451283
 31
0.0
 11
170.1393141731506
 21
15.94779262129079
 31
0.0
 11
170.2257499954545
 21
16.04196885390616
 31
0.0
 11
170.3336492808962
 21
16.11846540770645
 31
0.0
 11
170.4613526283328
 21
16.17615670109481
 31
0.0
 11
170.6075393259923
 21
16.21220066809967
 31
0.0
 11
170.770976856545
 21
16.22421385386056
 31
0.0
 11
170.9248918431289
 21
16.21434269066858
 31
0.0
 11
171.0564887242607
 21
16.18477329831492
 31
0.0
 11
171.172563634494
 21
16.13439993895246
 31
0.0
 11
171.2800792741122
 21
16.0626416316787
 31
0.0
 11
171.2516994050444
 21
16.0023662410688
 31
0.0
 11
171.2284855254283
 21
15.93879017337642
 31
0.0
 11
171.2078381040801
 21
15.86478841992263
 31
0.0
 11
171.1871840681487
 21
15.7736019789732
 31
0.0
 11
171.1665597978415
 21
15.7736019789732
 31
0.0
 11
171.1459355275343
 21
15.7736019789732
 31
0.0
 11
171.1256706495791
 21
15.82395108486341
 31
0.0
 11
171.0994658759421
 21
15.87850045116923
 31
0.0
 11
171.0650468924451
 21
15.93316116296109
 31
0.0
 11
171.0203554612937
 21
15.98349593725405
 31
0.0
 11
170.9657333359511
 21
16.02777175321523
 31
0.0
 11
170.9016722004326
 21
16.06436142334496
 31
0.0
 11
170.825968296114
 21
16.08882545979721
 31
0.0
 11
170.7365722046449
 21
16.09701100667016
 31
0.0
 11
170.6440937174207
 21
16.08926973931096
 31
0.0
 11
170.5594072091645
 21
16.06609003445561
 31
0.0
 11
170.483702448884
 21
16.02863495634003
 31
0.0
 11
170.4183754766516
 21
15.97832774281096
 31
0.0
 11
170.3650487887664
 21
15.91600293379873
 31
0.0
 11
170.3254809233901
 21
15.842499478956
 31
0.0
 11
170.3009523754711
 21
15.75988443557385
 31
0.0
 11
170.2927954104108
 21
15.67042329844347
 31
0.0
 11
170.3130095765617
 21
15.52595308146568
 31
0.0
 11
170.373625616682
 21
15.41591177072931
 31
0.0
 11
170.4643479320758
 21
15.33033670130625
 31
0.0
 11
170.5748676948813
 21
15.25941954854619
 31
0.0
 11
170.7000089937719
 21
15.19914305550573
 31
0.0
 11
170.8345826882553
 21
15.14590447913017
 31
0.0
 11
170.9691729191968
 21
15.09039489581068
 31
0.0
 11
171.0942976816297
 21
15.02377281249403
 31
0.0
 11
171.204800907977
 21
14.94118863716743
 31
0.0
 11
171.2955397598288
 21
14.83800003476267
 31
0.0
 11
171.3561557999489
 21
14.70552315979579
 31
0.0
 11
171.3763699660998
 21
14.53526378483832
 31
0.0
 11
171.3621839747998
 21
14.38133030397407
 31
0.0
 11
171.3196087009193
 21
14.23605531269092
 31
0.0
 11
171.2499752884265
 21
14.10398854189063
 31
0.0
 11
171.1544992078713
 21
13.99007218775242
 31
0.0
 11
171.0341060772624
 21
13.89715272597012
 31
0.0
 11
170.8896160201846
 21
13.82832357668175
 31
0.0
 11
170.7223519532713
 21
13.78581275203961
 31
0.0
 11
170.5336103348226
 21
13.77165864614034
 31
0.0
 11
170.3405031726387
 21
13.78581275203961
 31
0.0
 11
170.1878975900911
 21
13.82832357668175
 31
0.0
 11
170.0661897942203
 21
13.88899033013884
 31
0.0
 11
169.9660261826363
 21
13.95734322942732
 31
0.0
 11
169.9922320587039
 21
14.03255545163072
 31
0.0
 11
170.0090121537618
 21
14.10014767383606
 31
0.0
 11
170.0206196447852
 21
14.17275926235955
 31
0.0
 11
170.0313606254139
 21
14.26352788212853
 31
0.0
 11
170.0520069443315
 21
14.26352788212853
 31
0.0
 11
170.0726532632492
 21
14.26352788212853
 31
0.0
 11
170.1048916391629
 21
14.20119204881078
 31
0.0
 11
170.1465954835851
 21
14.13795663215987
 31
0.0
  0
SPLINE
  5
A1
102
{ACAD_REACTORS
330
BF
102
}
330
48
100
AcDbEntity
  8
_U_30EC_U_30A4_U_30E4_U_30FC_1
  6
Continuous
 62
     2
100
AcDbSpline
210
0.0
220
0.0
230
1.0
 70
    11
 71
     3
 72
    57
 73
    53
 74
    51
 42
0.000000001
 43
0.0000000001
 44
0.00000001
 40
0.0
 40
0.0
 40
0.0
 40
0.0
 40
0.0471632082809231
 40
0.0914861054632147
 40
0.1357762519702382
 40
0.1826527001610677
 40
0.2295203288572586
 40
0.2737751972220756
 40
0.3181310461543062
 40
0.3652607198398501
 40
0.4571007286314472
 40
0.5671851029165283
 40
0.6894623283868304
 40
0.8181758272546056
 40
0.9510087229274014
 40
1.085852229674055
 40
1.218126164475323
 40
1.343545131142375
 40
1.454537202956791
 40
1.5671876075308
 40
1.680710966642419
 40
1.794226869736783
 40
1.900009184247583
 40
2.004085860447862
 40
2.10816267445175
 40
2.214000150155295
 40
2.496038577352121
 40
2.762350745479252
 40
2.997275353279391
 40
3.185110082137717
 40
3.246407890063943
 40
3.312607550212674
 40
3.378877742711576
 40
3.440140399651431
 40
4.100501696006452
 40
4.754913085563507
 40
5.411331693423918
 40
6.077890432568696
 40
6.110575292670975
 40
6.143260152775755
 40
6.367989363395141
 40
6.610525374951556
 40
6.863389136467303
 40
7.119380025547583
 40
7.376036605091086
 40
7.631164770966278
 40
7.876722425456413
 40
8.104953735855965
 40
8.312916685924293
 40
8.497730294941288
 40
8.651018984313842
 40
8.764738853624582
 40
8.764738853624582
 40
8.764738853624582
 40
8.764738853624582
 10
174.7922649500513
 20
13.81626739612921
 30
0.0
 10
174.7766616726931
 20
13.81826231079072
 30
0.0
 10
174.7463947960302
 20
13.82213201360292
 30
0.0
 10
174.7010994202252
 20
13.82341984967261
 30
0.0
 10
174.6559553129349
 20
13.82308683554044
 30
0.0
 10
174.6099017123399
 20
13.82314658674217
 30
0.0
 10
174.5640496172097
 20
13.82325813649994
 30
0.0
 10
174.5183711648164
 20
13.82277833456583
 30
0.0
 10
174.4750811541608
 20
13.82461109618715
 30
0.0
 10
174.4039947951513
 20
13.80049556814651
 30
0.0
 10
174.4057477261441
 20
13.92184693977245
 30
0.0
 10
174.358619637057
 20
14.00726239751228
 30
0.0
 10
174.3191478251761
 20
14.12486929345129
 30
0.0
 10
174.2706635532645
 20
14.24232752540433
 30
0.0
 10
174.2201017402523
 20
14.36405935761504
 30
0.0
 10
174.1718634610476
 20
14.49075967862459
 30
0.0
 10
174.1135232947595
 20
14.59933687784946
 30
0.0
 10
174.098089266726
 20
14.75620657134402
 30
0.0
 10
173.9566586330636
 20
14.72373446548318
 30
0.0
 10
173.8508397414903
 20
14.73512888682174
 30
0.0
 10
173.7358569725222
 20
14.73392591514609
 30
0.0
 10
173.6253142252141
 20
14.73506945347405
 30
0.0
 10
173.5176583522782
 20
14.7341835003752
 30
0.0
 10
173.4121322529242
 20
14.73416602390514
 30
0.0
 10
173.3109192682012
 20
14.7271403247241
 30
0.0
 10
173.1266804827754
 20
14.7513585985986
 30
0.0
 10
173.1157393685411
 20
14.4474169112188
 30
0.0
 10
173.008769163475
 20
14.22353177253391
 30
0.0
 10
172.9098148604347
 20
14.03895314292492
 30
0.0
 10
172.9225090524007
 20
13.795302048042
 30
0.0
 10
172.8050091716397
 20
13.82508046753191
 30
0.0
 10
172.742205586831
 20
13.82258089509596
 30
0.0
 10
172.67858720934
 20
13.82344075102799
 30
0.0
 10
172.3946014194073
 20
13.78098039941939
 30
0.0
 10
173.0251638499382
 20
14.50081952444781
 30
0.0
 10
173.108764528907
 20
15.01276539435722
 30
0.0
 10
173.4929252789341
 20
15.53353743550039
 30
0.0
 10
173.477720828856
 20
16.23519626253204
 30
0.0
 10
173.7239265722697
 20
16.22345633081251
 30
0.0
 10
173.825634615756
 20
16.23225004452766
 30
0.0
 10
173.8249752035819
 20
15.98059650730341
 30
0.0
 10
173.9428317155828
 20
15.79818020733951
 30
0.0
 10
174.0315515260484
 20
15.5556374066286
 30
0.0
 10
174.1322292485259
 20
15.32340030530122
 30
0.0
 10
174.2311142712242
 20
15.08674644566907
 30
0.0
 10
174.3299676990669
 20
14.85461739170088
 30
0.0
 10
174.4256166390925
 20
14.63122222788781
 30
0.0
 10
174.5159904573271
 20
14.4227254904931
 30
0.0
 10
174.5989944568189
 20
14.23308448529314
 30
0.0
 10
174.6726088582799
 20
14.06663106068094
 30
0.0
 10
174.7342815895545
 20
13.92917699626091
 30
0.0
 10
174.7749458885603
 20
13.84999239430028
 30
0.0
 10
174.7922649500513
 20
13.81626739612921
 30
0.0
 11
174.7922649500513
 21
13.81626739612921
 31
0.0
 11
174.7453878317448
 21
13.82145433189179
 31
0.0
 11
174.7010975896125
 21
13.82315538223855
 31
0.0
 11
174.6568074431729
 21
13.82315538223855
 31
0.0
 11
174.6099309947159
 21
13.82315538223855
 31
0.0
 11
174.5630633657033
 21
13.82315538223855
 31
0.0
 11
174.5188084970408
 21
13.82315538223855
 31
0.0
 11
174.4744852776854
 21
13.82145433189179
 31
0.0
 11
174.4276419021443
 21
13.81626739612921
 31
0.0
 11
174.3992532136325
 21
13.90360966173238
 31
0.0
 11
174.3622721815898
 21
14.00729656274814
 31
0.0
 11
174.3188386236701
 21
14.12159987001121
 31
0.0
 11
174.2711055866936
 21
14.24113531268964
 31
0.0
 11
174.2208160133237
 21
14.36408057307559
 31
0.0
 11
174.1696467003932
 21
14.4888382292944
 31
0.0
 11
174.1197531801326
 21
14.61134141502767
 31
0.0
 11
174.0733119111841
 21
14.7278451736791
 31
0.0
 11
173.9623611907589
 21
14.73087465284501
 31
0.0
 11
173.8497309225089
 21
14.73300454867785
 31
0.0
 11
173.7362152069449
 21
14.73432195319135
 31
0.0
 11
173.62270004768
 21
14.73473315978848
 31
0.0
 11
173.5169185312816
 21
14.73432195319135
 31
0.0
 11
173.4128501919225
 21
14.73300454867785
 31
0.0
 11
173.3087951724045
 21
14.730874652845
 31
0.0
 11
173.2030010615596
 21
14.7278451736791
 31
0.0
 11
173.0980914750139
 21
14.46604437513345
 31
0.0
 11
173.0034868690331
 21
14.21710232658455
 31
0.0
 11
172.9252231210298
 21
13.99559756969551
 31
0.0
 11
172.8693431224555
 21
13.81626739612921
 31
0.0
 11
172.8082651639442
 21
13.82145433189179
 31
0.0
 11
172.742087361813
 21
13.82315538223855
 31
0.0
 11
172.6758390041282
 21
13.82145433189179
 31
0.0
 11
172.6147963233938
 21
13.81626739612921
 31
0.0
 11
172.889968495193
 21
14.41656508695136
 31
0.0
 11
173.158294573417
 21
15.01343642360769
 31
0.0
 11
173.4240277350405
 21
15.61366245644376
 31
0.0
 11
173.6914740737033
 21
16.22421385386056
 31
0.0
 11
173.7241589339806
 21
16.22421385386056
 31
0.0
 11
173.7568437942579
 21
16.22421385386056
 31
0.0
 11
173.8428300681057
 21
16.01658539037079
 31
0.0
 11
173.9357285813609
 21
15.7925461456351
 31
0.0
 11
174.0328714521463
 21
15.55908663180463
 31
0.0
 11
174.1317936458031
 21
15.3229812846414
 31
0.0
 11
174.2315341249927
 21
15.08649780379778
 31
0.0
 11
174.3313071129353
 21
14.85168781253705
 31
0.0
 11
174.4280608257448
 21
14.62599492196844
 31
0.0
 11
174.5188084970408
 21
14.41658052097912
 31
0.0
 11
174.6022150834546
 21
14.22607611130455
 31
0.0
 11
174.6770293263377
 21
14.05708232662462
 31
0.0
 11
174.7410729186603
 21
13.91781337700662
 31
0.0
 11
174.7922649500513
 21
13.81626739612921
 31
0.0
  0
SPLINE
  5
A2
102
{ACAD_REACTORS
330
BF
102
}
330
48
100
AcDbEntity
  8
_U_30EC_U_30A4_U_30E4_U_30FC_1
  6
Continuous
 62
     2
100
AcDbSpline
210
0.0
220
0.0
230
1.0
 70
    11
 71
     3
 72
    25
 73
    21
 74
    19
 42
0.000000001
 43
0.0000000001
 44
0.00000001
 40
0.0
 40
0.0
 40
0.0
 40
0.0
 40
0.0911479969064821
 40
0.1858117896204662
 40
0.2804128399734491
 40
0.3715889190714511
 40
0.4679080494218709
 40
0.5642683809229232
 40
0.6605683222644991
 40
0.7569653015810255
 40
0.8561348172522723
 40
1.092615965104292
 40
1.374867658141876
 40
1.611348812011601
 40
1.710518328425249
 40
1.809403163726566
 40
2.045205463294068
 40
2.32664691762213
 40
2.562449217190593
 40
2.661334043833911
 40
2.661334043833911
 40
2.661334043833911
 40
2.661334043833911
 10
173.2683700567199
 20
14.88614538197285
 30
0.0
 10
173.2987525917922
 20
14.88598079714548
 30
0.0
 10
173.3606895889112
 20
14.88564528689916
 30
0.0
 10
173.454135696033
 20
14.88269055451995
 30
0.0
 10
173.5475095236357
 20
14.87977752877144
 30
0.0
 10
173.6417760753476
 20
14.8789420164341
 30
0.0
 10
173.7354964790967
 20
14.87996644658041
 30
0.0
 10
173.8352040303205
 20
14.87916977470966
 30
0.0
 10
173.9188949546313
 20
14.88921410235213
 30
0.0
 10
174.0637996315044
 20
14.86234617674157
 30
0.0
 10
173.9396132444801
 20
15.03665530280042
 30
0.0
 10
173.8965867286282
 20
15.19651711006085
 30
0.0
 10
173.780892214221
 20
15.45518458550209
 30
0.0
 10
173.7017565431256
 20
15.59231052861851
 30
0.0
 10
173.6431576621816
 20
15.80937033134069
 30
0.0
 10
173.5864803939438
 20
15.59266134213422
 30
0.0
 10
173.5052809900478
 20
15.45327012438229
 30
0.0
 10
173.4063701281488
 20
15.20406969370188
 30
0.0
 10
173.3253625094259
 20
15.01925830226066
 30
0.0
 10
173.2813683325838
 20
14.9165044685611
 30
0.0
 10
173.2683700567199
 20
14.88614538197285
 30
0.0
 11
173.2683700567199
 21
14.88614538197285
 31
0.0
 11
173.359513773782
 21
14.88526123266753
 31
0.0
 11
173.4541428297581
 21
14.88269697919594
 31
0.0
 11
173.5487082179706
 21
14.88009965280771
 31
0.0
 11
173.6398803250196
 21
14.87924857641903
 31
0.0
 11
173.7361985777706
 21
14.87965978301615
 31
0.0
 11
173.8325499034376
 21
14.88097718752965
 31
0.0
 11
173.9288262638286
 21
14.88310818579306
 31
0.0
 11
174.0251753846343
 21
14.88614538197285
 31
0.0
 11
173.9854633323141
 21
14.97701642195013
 31
0.0
 11
173.8907653613968
 21
15.19370890189595
 31
0.0
 11
173.7777387509471
 21
15.45234186183128
 31
0.0
 11
173.6830407800297
 21
15.6690343417771
 31
0.0
 11
173.6433287277095
 21
15.75990538175438
 31
0.0
 11
173.6043330259266
 21
15.6690343417771
 31
0.0
 11
173.5113432755212
 21
15.45234186183128
 31
0.0
 11
173.4003555089082
 21
15.19370890189595
 31
0.0
 11
173.3073657585028
 21
14.97701642195013
 31
0.0
 11
173.2683700567199
 21
14.88614538197285
 31
0.0
  0
SPLINE
  5
A3
102
{ACAD_REACTORS
330
C0
102
}
330
48
100
AcDbEntity
  8
_U_30EC_U_30A4_U_30E4_U_30FC_1
  6
Continuous
 62
     2
100
AcDbSpline
210
0.0
220
0.0
230
1.0
 70
    11
 71
     3
 72
    95
 73
    91
 74
    89
 42
0.000000001
 43
0.0000000001
 44
0.00000001
 40
0.0
 40
0.0
 40
0.0
 40
0.0
 40
0.6550406656911573
 40
1.308087289031939
 40
1.420803739835816
 40
1.566130759770811
 40
1.757067341888492
 40
2.006513545026472
 40
2.087328263121568
 40
2.185328872295652
 40
2.294612454748394
 40
2.408936380534835
 40
2.526802767798574
 40
2.646360524615621
 40
2.762535723971597
 40
2.870057342870172
 40
2.96688344843168
 40
3.050803243518319
 40
3.115818222436625
 40
3.156030057150268
 40
3.21391422508017
 40
3.27668902645057
 40
3.342960320981347
 40
3.404230667150596
 40
3.453822809493414
 40
3.532499827188463
 40
3.6347751885072
 40
3.754909333008217
 40
3.889736761660704
 40
4.035769602175262
 40
4.187256681197646
 40
4.338733685676004
 40
4.488478734676159
 40
4.634708317831643
 40
4.771493189921322
 40
4.892686571561256
 40
5.199775528944494
 40
5.460353566929693
 40
5.667603142345552
 40
5.814722905404532
 40
5.82899080621983
 40
5.855488336304527
 40
5.869756237118859
 40
6.18979650776286
 40
6.531890469873045
 40
6.883053637017044
 40
7.230512024911509
 40
7.566966656764621
 40
7.885203559707443
 40
8.172887439719249
 40
8.418011594062804
 40
8.443926721190726
 40
8.510760470613212
 40
8.602145393795718
 40
8.701714041647156
 40
8.793098965075385
 40
8.859932715057958
 40
8.885847842603605
 40
9.242301256612828
 40
9.589275455016795
 40
9.921808543164197
 40
10.23479624298468
 40
10.29968150889179
 40
10.35323493887767
 40
10.40154625355152
 40
10.46482922477827
 40
10.55973900668405
 40
10.69239545985618
 40
10.84920353475672
 40
11.01626328594782
 40
11.18672024367445
 40
11.35372582577212
 40
11.50257442292429
 40
11.61866495023294
 40
11.71329869152876
 40
11.82511050573909
 40
11.94464880845717
 40
12.06929242642508
 40
12.19707290435177
 40
12.32562632860529
 40
12.4503456533128
 40
12.56646595170329
 40
12.67099007414637
 40
12.76077625936782
 40
12.82703233506696
 40
12.87429132785996
 40
12.89831990323335
 40
12.92234847860023
 40
13.53984767410325
 40
14.1829428435937
 40
14.1829428435937
 40
14.1829428435937
 40
14.1829428435937
 10
177.3067935648021
 20
14.70898038201719
 30
0.0
 10
177.1752019758551
 20
14.82265058603226
 30
0.0
 10
176.9124193802727
 20
15.04964496316152
 30
0.0
 10
176.399739344102
 20
15.89214462956283
 30
0.0
 10
176.4106654595362
 20
15.53423377577014
 30
0.0
 10
176.4041226527991
 20
15.39267392272127
 30
0.0
 10
176.4028026631772
 20
15.19421305299275
 30
0.0
 10
176.4018117602538
 20
15.02150296045977
 30
0.0
 10
176.4024101751974
 20
14.87865373257574
 30
0.0
 10
176.4038994301882
 20
14.78265005413352
 30
0.0
 10
176.4055683588472
 20
14.67545503263135
 30
0.0
 10
176.4071934954618
 20
14.56164211517577
 30
0.0
 10
176.4092429501685
 20
14.44441572604583
 30
0.0
 10
176.4123165501927
 20
14.32656411232965
 30
0.0
 10
176.4156339697042
 20
14.21228087320615
 30
0.0
 10
176.419360534028
 20
14.10521401867271
 30
0.0
 10
176.4217338161424
 20
14.01007408766915
 30
0.0
 10
176.4278718888357
 20
13.92558557205689
 30
0.0
 10
176.4239784495946
 20
13.86923087298135
 30
0.0
 10
176.4455230443077
 20
13.79825022472349
 30
0.0
 10
176.3680940058617
 20
13.82902677604477
 30
0.0
 10
176.3116353240191
 20
13.82011242517606
 30
0.0
 10
176.2540495896806
 20
13.82896218398269
 30
0.0
 10
176.1690163478472
 20
13.79738225225939
 30
0.0
 10
176.2009714146382
 20
13.88095155992184
 30
0.0
 10
176.1990705282539
 20
13.94882608968303
 30
0.0
 10
176.21079600473
 20
14.05233256764413
 30
0.0
 10
176.2164241053
 20
14.1700212561669
 30
0.0
 10
176.2237902178941
 20
14.30388609164418
 30
0.0
 10
176.232075970161
 20
14.44764152872626
 30
0.0
 10
176.2398851897426
 20
14.59714022843439
 30
0.0
 10
176.2457571222657
 20
14.74792549402072
 30
0.0
 10
176.2503667817968
 20
14.89699943878433
 30
0.0
 10
176.2542632117542
 20
15.04122913163017
 30
0.0
 10
176.2570715126564
 20
15.17583905213013
 30
0.0
 10
176.2576698755022
 20
15.36469614347349
 30
0.0
 10
176.261602386715
 20
15.58975494313149
 30
0.0
 10
176.2442175378497
 20
15.86367091125702
 30
0.0
 10
176.2850417342584
 20
16.02787112098592
 30
0.0
 10
176.1995153256001
 20
16.2274966146509
 30
0.0
 10
176.2660558907688
 20
16.22385458403973
 30
0.0
 10
176.283872427323
 20
16.22413447160848
 30
0.0
 10
176.4056801797509
 20
16.22632927398611
 30
0.0
 10
176.5080770335458
 20
15.94675118721507
 30
0.0
 10
176.7580021509357
 20
15.74563008535998
 30
0.0
 10
176.987003533111
 20
15.4779261498791
 30
0.0
 10
177.2245151213109
 20
15.22646413862371
 30
0.0
 10
177.4486090740771
 20
14.98969974061352
 30
0.0
 10
177.6750716283009
 20
14.73218692583075
 30
0.0
 10
177.8325687886515
 20
14.61649335056915
 30
0.0
 10
178.0472129612673
 20
14.27997152538788
 30
0.0
 10
178.0422645974618
 20
14.40464754091597
 30
0.0
 10
178.0433931602546
 20
14.46327691935731
 30
0.0
 10
178.0428877841517
 20
14.55043662371971
 30
0.0
 10
178.0430475158113
 20
14.64416143182865
 30
0.0
 10
178.0430054891317
 20
14.73018971297028
 30
0.0
 10
178.0430202040372
 20
14.79153891945488
 30
0.0
 10
178.0429706255985
 20
14.94135231520986
 30
0.0
 10
178.0458811522809
 20
15.17989612510098
 30
0.0
 10
178.0259521041162
 20
15.54486509868695
 30
0.0
 10
178.0750433936246
 20
15.80799631993407
 30
0.0
 10
177.9177951509181
 20
16.21928904947741
 30
0.0
 10
178.0762112872421
 20
16.16398282551743
 30
0.0
 10
178.1311680478628
 20
16.16199686500167
 30
0.0
 10
178.182788776674
 20
16.16264778248246
 30
0.0
 10
178.2713198965366
 20
16.20369527738238
 30
0.0
 10
178.2204898303168
 20
16.05696326622981
 30
0.0
 10
178.2313389930283
 20
15.95019971954428
 30
0.0
 10
178.2166036994847
 20
15.79085705414107
 30
0.0
 10
178.2099976446204
 20
15.62853061652867
 30
0.0
 10
178.2014961399915
 20
15.45992521892389
 30
0.0
 10
178.1943227202199
 20
15.29814814703534
 30
0.0
 10
178.1889063215389
 20
15.15422331457926
 30
0.0
 10
178.1871713967648
 20
15.03437493466918
 30
0.0
 10
178.1875440672319
 20
14.92686101590508
 30
0.0
 10
178.1873656126263
 20
14.8182002464558
 30
0.0
 10
178.1877010863139
 20
14.69953570165524
 30
0.0
 10
178.1890040622185
 20
14.57555163512736
 30
0.0
 10
178.1908887351574
 20
14.44858294171099
 30
0.0
 10
178.1925004454851
 20
14.32153861551026
 30
0.0
 10
178.1941403137429
 20
14.19854884492172
 30
0.0
 10
178.1962570745752
 20
14.08300931383754
 30
0.0
 10
178.1963848422363
 20
13.98090903955831
 30
0.0
 10
178.2006514396554
 20
13.89009848838151
 30
0.0
 10
178.1908440085289
 20
13.83213621208781
 30
0.0
 10
178.211847477169
 20
13.76517130132022
 30
0.0
 10
178.1725639739896
 20
13.77291153966681
 30
0.0
 10
177.9595307117746
 20
13.75755254145186
 30
0.0
 10
177.7636297943186
 20
14.31403058094465
 30
0.0
 10
177.4611197631543
 20
14.57556035348505
 30
0.0
 10
177.3067935648021
 20
14.70898038201719
 30
0.0
 11
177.3067935648021
 21
14.70898038201719
 31
0.0
 11
176.8595529338511
 21
15.18757635411972
 31
0.0
 11
176.4124049070643
 21
15.66352649288965
 31
0.0
 11
176.4089664262494
 21
15.55086249986227
 31
0.0
 11
176.40556101835
 21
15.40557538184305
 31
0.0
 11
176.4029636920274
 21
15.21465645827961
 31
0.0
 11
176.4021126156603
 21
14.96521170139752
 31
0.0
 11
176.4025239230289
 21
14.88439802954274
 31
0.0
 11
176.4038420329817
 21
14.78640628477555
 31
0.0
 11
176.4055192267718
 21
14.67713557299733
 31
0.0
 11
176.4072367127518
 21
14.56282454872033
 31
0.0
 11
176.4094007838772
 21
14.4449780296526
 31
0.0
 11
176.4124049070643
 21
14.32545802100194
 31
0.0
 11
176.4158359733138
 21
14.20933349846151
 31
0.0
 11
176.4192928929998
 21
14.10186746550224
 31
0.0
 11
176.4227085253088
 21
14.00510162351257
 31
0.0
 11
176.4261896983793
 21
13.92125406276966
 31
0.0
 11
176.4296006184313
 21
13.85632862007754
 31
0.0
 11
176.4330776843148
 21
13.81626739612921
 31
0.0
 11
176.3754263821571
 21
13.82145433189179
 31
0.0
 11
176.3126746318309
 21
13.82315538223855
 31
0.0
 11
176.2464251717157
 21
13.82145433189179
 31
0.0
 11
176.1853747739675
 21
13.81626739612921
 31
0.0
 11
176.1926772737812
 21
13.86531894125585
 31
0.0
 11
176.2008793569054
 21
13.94356725720849
 31
0.0
 11
176.2090098822348
 21
14.04551893253023
 31
0.0
 11
176.2163406441397
 21
14.16542920159748
 31
0.0
 11
176.2236358280421
 21
14.30005912343884
 31
0.0
 11
176.2318444255596
 21
14.44586107652739
 31
0.0
 11
176.2395504149465
 21
14.59715203135067
 31
0.0
 11
176.2455763002093
 21
14.74850913200729
 31
0.0
 11
176.2503046247416
 21
14.8981795139143
 31
0.0
 11
176.254192897212
 21
15.04435739582218
 31
0.0
 11
176.2567527408965
 21
15.18111831592691
 31
0.0
 11
176.2576324804574
 21
15.30230850686885
 31
0.0
 11
176.257192610677
 21
15.60939715262539
 31
0.0
 11
176.2559126888347
 21
15.86997204839361
 31
0.0
 11
176.2528658717893
 21
16.07719922716119
 31
0.0
 11
176.2473049112763
 21
16.22421385386056
 31
0.0
 11
176.2615728121469
 21
16.22421385386056
 31
0.0
 11
176.2880703423352
 21
16.22421385386056
 31
0.0
 11
176.3023382432058
 21
16.22421385386056
 31
0.0
 11
176.5194743650277
 21
15.98910179662768
 31
0.0
 11
176.7512744123079
 21
15.73751281231557
 31
0.0
 11
176.9894816018839
 21
15.47949555543564
 31
0.0
 11
177.2260074557521
 21
15.22497079855484
 31
0.0
 11
177.4555698717705
 21
14.97899759549132
 31
0.0
 11
177.6731797360103
 21
14.74678934034102
 31
0.0
 11
177.8713724913707
 21
14.53826680567094
 31
0.0
 11
178.0430143099086
 21
14.36326697932583
 31
0.0
 11
178.0430143099086
 21
14.38918210687037
 31
0.0
 11
178.0430143099086
 21
14.45601585685365
 31
0.0
 11
178.0430143099086
 21
14.54740078030018
 31
0.0
 11
178.0430143099086
 21
14.64696942823447
 31
0.0
 11
178.0430143099086
 21
14.738354351681
 31
0.0
 11
178.0430143099086
 21
14.80518810166428
 31
0.0
 11
178.0430143099086
 21
14.83110322920882
 31
0.0
 11
178.0417233637609
 21
15.18755430550861
 31
0.0
 11
178.0378461155958
 21
15.5345068401441
 31
0.0
 11
178.0296197790002
 21
15.86693815950546
 31
0.0
 11
178.0154535467228
 21
16.17960510387172
 31
0.0
 11
178.0790351249618
 21
16.16666367158328
 31
0.0
 11
178.1324170159611
 21
16.162380728876
 31
0.0
 11
178.1805381084833
 21
16.16666367158328
 31
0.0
 11
178.2424836798197
 21
16.17960510387172
 31
0.0
 11
178.2351216487575
 21
16.08498128445095
 31
0.0
 11
178.2269790968818
 21
15.95257496503959
 31
0.0
 11
178.2183705364004
 21
15.7960033678565
 31
0.0
 11
178.2097547223215
 21
15.62916593734263
 31
0.0
 11
178.2016187850288
 21
15.45890325509354
 31
0.0
 11
178.1942501393835
 21
15.29206031242694
 31
0.0
 11
178.1891406931522
 21
15.14329943572803
 31
0.0
 11
178.1874503478904
 21
15.02722121527094
 31
0.0
 11
178.1874503478904
 21
14.93258747397513
 31
0.0
 11
178.1874503478904
 21
14.82077565976701
 31
0.0
 11
178.1878461204497
 21
14.70123801222743
 31
0.0
 11
178.1890819450708
 21
14.57660052093914
 31
0.0
 11
178.1908392193317
 21
14.44883212687386
 31
0.0
 11
178.1925303477608
 21
14.32028982655874
 31
0.0
 11
178.1942876220214
 21
14.19558288214549
 31
0.0
 11
178.1959787504505
 21
14.07947489606343
 31
0.0
 11
178.1972884379172
 21
13.97495896727012
 31
0.0
 11
178.1976985420735
 21
13.88517371555648
 31
0.0
 11
178.1976985420735
 21
13.8189176391841
 31
0.0
 11
178.1976985420735
 21
13.77165864614034
 31
0.0
 11
178.1736699662976
 21
13.77165864614034
 31
0.0
 11
178.1496413905217
 21
13.77165864614034
 31
0.0
 11
177.7410729200423
 21
14.23466735262186
 31
0.0
 11
177.3067935648021
 21
14.70898038201719
 31
0.0
  0
SPLINE
  5
A4
102
{ACAD_REACTORS
330
C1
102
}
330
48
100
AcDbEntity
  8
_U_30EC_U_30A4_U_30E4_U_30FC_1
  6
Continuous
 62
     2
100
AcDbSpline
210
0.0
220
0.0
230
1.0
 70
    11
 71
     3
 72
   110
 73
   106
 74
   104
 42
0.000000001
 43
0.0000000001
 44
0.00000001
 40
0.0
 40
0.0
 40
0.0
 40
0.0
 40
0.2203406257277826
 40
0.4407808782838091
 40
0.5952494494615064
 40
0.7488431659393073
 40
0.9023581831309055
 40
1.056801968670404
 40
1.210736449099905
 40
1.363041386539783
 40
1.515315729683126
 40
1.669377239148076
 40
1.721611652756553
 40
1.773199502942926
 40
1.824933793209972
 40
1.877110426487958
 40
1.982682281206721
 40
2.078781667087529
 40
2.172809640822251
 40
2.271937807378904
 40
2.378349933379297
 40
2.494131557736487
 40
2.62668168394362
 40
2.783145050796048
 40
2.890701232940901
 40
2.993130312454795
 40
3.099869730691776
 40
3.220237816691267
 40
3.352695482737554
 40
3.481732806389817
 40
3.593499473690345
 40
3.674323013331843
 40
3.817951711952792
 40
3.94616712079379
 40
4.061405053453475
 40
4.166480796003116
 40
4.262478775059154
 40
4.350736673551109
 40
4.433071991253995
 40
4.511216293814599
 40
4.564262454117926
 40
4.61847441557155
 40
4.670128488754155
 40
4.722296879126364
 40
4.819540945314234
 40
4.931194984128092
 40
5.049996040257733
 40
5.168643755415278
 40
5.28397081176249
 40
5.392260784910316
 40
5.48651225487639
 40
5.559178233949789
 40
5.591425852853462
 40
5.626215969637844
 40
5.667155838674395
 40
5.717449290214206
 40
5.738402360944815
 40
5.784499116553779
 40
5.830595872164747
 40
5.851548942897602
 40
5.873019280661716
 40
5.924217778408267
 40
5.985325662817652
 40
6.036524160567672
 40
6.057994498334204
 40
6.236847789607443
 40
6.381409928945617
 40
6.493190424178649
 40
6.574067534230467
 40
6.691018086205561
 40
6.814881554220479
 40
6.944307823240432
 40
7.071266716066055
 40
7.1934886044619
 40
7.309042773128127
 40
7.414007203170754
 40
7.505140441886508
 40
7.53115036059964
 40
7.559221645322231
 40
7.58720221892089
 40
7.612569159499093
 40
7.662550809480986
 40
7.70287887576412
 40
7.857328205230934
 40
8.01079956808858
 40
8.16525639965753
 40
8.322232698713869
 40
8.479564855016555
 40
8.635216230290759
 40
8.790882550925676
 40
8.948305154947242
 40
9.168271839032938
 40
9.387358980987205
 40
9.608047961033447
 40
9.832914234792668
 40
9.858338694963
 40
9.925366817230008
 40
10.02013071422759
 40
10.12876249858997
 40
10.23739428295247
 40
10.33215817995189
 40
10.39918630222392
 40
10.42461076239781
 40
10.64992019336941
 40
10.87188524531184
 40
10.87188524531184
 40
10.87188524531184
 40
10.87188524531184
 10
179.9057788376618
 20
15.73923260398183
 30
0.0
 10
179.9092864933541
 20
15.80616462073797
 30
0.0
 10
179.9163033987662
 20
15.94005891915852
 30
0.0
 10
179.8198027599073
 20
16.22548554971462
 30
0.0
 10
180.0510134726107
 20
16.16284386190278
 30
0.0
 10
180.1919290057156
 20
16.17001554055982
 30
0.0
 10
180.3490417757588
 20
16.16235883078238
 30
0.0
 10
180.5025913427288
 20
16.16252752283032
 30
0.0
 10
180.654510493508
 20
16.16182040535426
 30
0.0
 10
180.8142214813231
 20
16.1721015835163
 30
0.0
 10
180.9408972601117
 20
16.15496511080746
 30
0.0
 10
181.1370821122081
 20
16.22727260107139
 30
0.0
 10
181.1034395279078
 20
16.1264069908011
 30
0.0
 10
181.1052011317184
 20
16.07619253947665
 30
0.0
 10
181.1027342073458
 20
16.0271233558646
 30
0.0
 10
181.1347076966011
 20
15.94063490846994
 30
0.0
 10
181.0010399903256
 20
15.98997438608331
 30
0.0
 10
180.9172208688057
 20
15.98430634314161
 30
0.0
 10
180.8173861139324
 20
15.99465516706292
 30
0.0
 10
180.7186576720146
 20
16.00086450411081
 30
0.0
 10
180.612153277111
 20
16.00697763816771
 30
0.0
 10
180.491051169806
 20
16.01588883484581
 30
0.0
 10
180.3703381502454
 20
16.00521605912379
 30
0.0
 10
180.1812553843437
 20
16.06468503080361
 30
0.0
 10
180.2129028505311
 20
15.90558320077533
 30
0.0
 10
180.1995563316833
 20
15.80839128339899
 30
0.0
 10
180.197495842645
 20
15.69634065110098
 30
0.0
 10
180.195818804467
 20
15.57699685629346
 30
0.0
 10
180.1973336794233
 20
15.45032592155104
 30
0.0
 10
180.195658247867
 20
15.32301588016111
 30
0.0
 10
180.2058844271658
 20
15.22451566404459
 30
0.0
 10
180.1779006596582
 20
15.08388702625626
 30
0.0
 10
180.3508029999305
 20
15.13989551134089
 30
0.0
 10
180.4645020202772
 20
15.12719951478492
 30
0.0
 10
180.5840151672239
 20
15.13448377051249
 30
0.0
 10
180.6888491425071
 20
15.1387801705675
 30
0.0
 10
180.7843084898612
 20
15.14330568258972
 30
0.0
 10
180.8763823507032
 20
15.15149201146192
 30
0.0
 10
180.9476551782439
 20
15.14643850638106
 30
0.0
 10
181.0544931705685
 20
15.1853642503167
 30
0.0
 10
181.0226603598036
 20
15.10517122005874
 30
0.0
 10
181.026616450393
 20
15.05562936846028
 30
0.0
 10
181.0234502392013
 20
15.00557478039813
 30
0.0
 10
181.0550791490585
 20
14.92128847612015
 30
0.0
 10
180.9210133677691
 20
14.97425365495151
 30
0.0
 10
180.82923227932
 20
14.96540080890436
 30
0.0
 10
180.7079729189602
 20
14.9757004996515
 30
0.0
 10
180.5914113119771
 20
14.97748911767494
 30
0.0
 10
180.4783375745879
 20
14.97787017109688
 30
0.0
 10
180.3679246308471
 20
14.98415449472174
 30
0.0
 10
180.2898124067841
 20
14.97189133255358
 30
0.0
 10
180.1913625833644
 20
15.00453887616121
 30
0.0
 10
180.2012355173561
 20
14.94769748054201
 30
0.0
 10
180.1973923244403
 20
14.91392130557978
 30
0.0
 10
180.1966789884268
 20
14.87119604709405
 30
0.0
 10
180.1963369642975
 20
14.83401607262147
 30
0.0
 10
180.1963834255345
 20
14.79487237370765
 30
0.0
 10
180.1963649429927
 20
14.7571684949768
 30
0.0
 10
180.1963703431805
 20
14.71944955232397
 30
0.0
 10
180.1963697214201
 20
14.68994324745145
 30
0.0
 10
180.1963698151544
 20
14.65873577699295
 30
0.0
 10
180.1963704287921
 20
14.61414424908079
 30
0.0
 10
180.1963671499337
 20
14.55963956508845
 30
0.0
 10
180.1963759623481
 20
14.51505540201441
 30
0.0
 10
180.1963359653417
 20
14.43117808585733
 30
0.0
 10
180.1976024270255
 20
14.31737520677672
 30
0.0
 10
180.1950274117842
 20
14.16830395933703
 30
0.0
 10
180.2065009381719
 20
14.06597203813899
 30
0.0
 10
180.1823506222264
 20
13.93338903885827
 30
0.0
 10
180.3332993946476
 20
13.97895732272014
 30
0.0
 10
180.4428436671556
 20
13.96427012162342
 30
0.0
 10
180.573397047392
 20
13.96920435125057
 30
0.0
 10
180.6990312209513
 20
13.97257705323353
 30
0.0
 10
180.8188730625601
 20
13.97711497498767
 30
0.0
 10
180.9391362611426
 20
13.99048536181997
 30
0.0
 10
181.0222761663515
 20
13.98068712782591
 30
0.0
 10
181.1456080421075
 20
14.04126214623312
 30
0.0
 10
181.1244269203956
 20
13.98532460134015
 30
0.0
 10
181.1235950270117
 20
13.95939249372342
 30
0.0
 10
181.1218963707557
 20
13.93197256190934
 30
0.0
 10
181.121797488883
 20
13.8973819520638
 30
0.0
 10
181.1203659301329
 20
13.86050408220763
 30
0.0
 10
181.153280419219
 20
13.768468410218
 30
0.0
 10
180.9551306988107
 20
13.84132015974825
 30
0.0
 10
180.8300548294891
 20
13.81825726508599
 30
0.0
 10
180.6673071295155
 20
13.82454021985778
 30
0.0
 10
180.5129366450001
 20
13.82260943909919
 30
0.0
 10
180.3566670436943
 20
13.8239376259926
 30
0.0
 10
180.1970544465282
 20
13.82059872487855
 30
0.0
 10
180.0540326342237
 20
13.83265795728234
 30
0.0
 10
179.8197144881628
 20
13.76952001976912
 30
0.0
 10
179.9173810751197
 20
14.05620527466312
 30
0.0
 10
179.9006868780058
 20
14.24988308142654
 30
0.0
 10
179.9146296709684
 20
14.4784824288029
 30
0.0
 10
179.9142987846633
 20
14.63384593955043
 30
0.0
 10
179.9143078119263
 20
14.73966336444121
 30
0.0
 10
179.9143055876316
 20
14.8020578412421
 30
0.0
 10
179.9143065551889
 20
14.89220425248322
 30
0.0
 10
179.9143065473262
 20
14.99621167157433
 30
0.0
 10
179.9143053861101
 20
15.10022131375291
 30
0.0
 10
179.9143090971503
 20
15.19036243688762
 30
0.0
 10
179.9143011051051
 20
15.25276803097209
 30
0.0
 10
179.9143334275017
 20
15.35868835961113
 30
0.0
 10
179.9131440788319
 20
15.51626716544734
 30
0.0
 10
179.9082216489256
 20
15.66528219822059
 30
0.0
 10
179.9057788376618
 20
15.73923260398183
 30
0.0
 11
179.9057788376618
 21
15.73923260398183
 31
0.0
 11
179.896691822374
 21
15.95938578101011
 31
0.0
 11
179.8868249573133
 21
16.17960510387172
 31
0.0
 11
180.04115751414
 21
16.17312391463722
 31
0.0
 11
180.1946500189046
 21
16.16754892331917
 31
0.0
 11
180.3481160653366
 21
16.16367167505624
 31
0.0
 11
180.5025544554939
 21
16.162380728876
 31
0.0
 11
180.6564835227473
 21
16.16367167505624
 31
0.0
 11
180.80873910046
 21
16.16754892331917
 31
0.0
 11
180.9609113551074
 21
16.17312391463722
 31
0.0
 11
181.1148364762483
 21
16.17960510387172
 31
0.0
 11
181.1070811703123
 21
16.12794961777352
 31
0.0
 11
181.1044991623591
 21
16.07642642334199
 31
0.0
 11
181.1070811703123
 21
16.02475660564655
 31
0.0
 11
181.1148364762483
 21
15.97315954836779
 31
0.0
 11
181.0094874054411
 21
15.98001446156052
 31
0.0
 11
180.913637570006
 21
15.98693552058651
 31
0.0
 11
180.8198593171903
 21
15.99378381919593
 31
0.0
 11
180.7209679915881
 21
16.00063211780534
 31
0.0
 11
180.6147532199924
 21
16.00710999974818
 31
0.0
 11
180.4991060528038
 21
16.01268829835789
 31
0.0
 11
180.3666126447258
 21
16.01656554662082
 31
0.0
 11
180.2101546018423
 21
16.01785649280106
 31
0.0
 11
180.2062663293721
 21
15.91037061609181
 31
0.0
 11
180.20153800484
 21
15.80805072896459
 31
0.0
 11
180.1976607566749
 21
15.70138175329682
 31
0.0
 11
180.1963698105272
 21
15.58102059013245
 31
0.0
 11
180.1967799146836
 21
15.4485635589156
 31
0.0
 11
180.1980896021502
 21
15.31953288186449
 31
0.0
 11
180.1994074577049
 21
15.20777398432303
 31
0.0
 11
180.199819115366
 21
15.1269514930238
 31
0.0
 11
180.3434452935874
 21
15.12780256941244
 31
0.0
 11
180.4716343930758
 21
15.13039989580071
 31
0.0
 11
180.5868078221795
 21
15.13425509545248
 31
0.0
 11
180.691775631222
 21
15.13901649302071
 31
0.0
 11
180.7876346289421
 21
15.1441802777417
 31
0.0
 11
180.8757413374193
 21
15.1493440624626
 31
0.0
 11
180.9578881438496
 21
15.15491243919734
 31
0.0
 11
181.0357692335571
 21
15.1613208680152
 31
0.0
 11
181.0280180445186
 21
15.10884407115332
 31
0.0
 11
181.0254328449317
 21
15.05469378470852
 31
0.0
 11
181.0280180445186
 21
15.00310444444361
 31
0.0
 11
181.0357692335571
 21
14.95151510417875
 31
0.0
 11
180.9389813454014
 21
14.96092324653751
 31
0.0
 11
180.8275950722015
 21
14.96865128473007
 31
0.0
 11
180.7089261429373
 21
14.9742527343814
 31
0.0
 11
180.5903167449213
 21
14.97726788195004
 31
0.0
 11
180.4750025117521
 21
14.97898767361632
 31
0.0
 11
180.36672619507
 21
14.98070746528251
 31
0.0
 11
180.2724839317708
 21
14.98202486979611
 31
0.0
 11
180.199819115366
 21
14.98243607639324
 31
0.0
 11
180.199407457705
 21
14.95019108508185
 31
0.0
 11
180.1980896021502
 21
14.91542593752112
 31
0.0
 11
180.1967799146836
 21
14.87450702260078
 31
0.0
 11
180.1963698105272
 21
14.82421524309945
 31
0.0
 11
180.1963698105272
 21
14.80326217235816
 31
0.0
 11
180.1963698105272
 21
14.75716541672731
 31
0.0
 11
180.1963698105272
 21
14.71106866109645
 31
0.0
 11
180.1963698105272
 21
14.69011559035516
 31
0.0
 11
180.1963698105272
 21
14.66864525258275
 31
0.0
 11
180.1963698105272
 21
14.61744675481778
 31
0.0
 11
180.1963698105272
 21
14.55633887038861
 31
0.0
 11
180.1963698105272
 21
14.50514037262364
 31
0.0
 11
180.1963698105272
 21
14.48367003485123
 31
0.0
 11
180.1967799146836
 21
14.30481721371542
 31
0.0
 11
180.1980896021502
 21
14.16026100715436
 31
0.0
 11
180.2002868589709
 21
14.04850210961283
 31
0.0
 11
180.2032586986985
 21
13.96767961831358
 31
0.0
 11
180.3202092517447
 21
13.96767961831358
 31
0.0
 11
180.4440727208746
 21
13.96767961831358
 31
0.0
 11
180.5734925526422
 21
13.96897056449384
 31
0.0
 11
180.7003922282244
 21
13.97284781275675
 31
0.0
 11
180.8224658067973
 21
13.97886708358858
 31
0.0
 11
180.9377587499463
 21
13.98663260441995
 31
0.0
 11
181.0421754573518
 21
13.99734161483396
 31
0.0
 11
181.1320599255448
 21
14.01237656274685
 31
0.0
 11
181.1264254031191
 21
13.98698427976711
 31
0.0
 11
181.1234433285423
 21
13.95907184053797
 31
0.0
 11
181.12213398812
 21
13.93112191866997
 31
0.0
 11
181.1217235369195
 21
13.90575829888468
 31
0.0
 11
181.1243087365064
 21
13.8558435506332
 31
0.0
 11
181.1320599255448
 21
13.81626739612921
 31
0.0
 11
180.9776977178344
 21
13.82145433189179
 31
0.0
 11
180.8242357818765
 21
13.82315538223855
 31
0.0
 11
180.6697789496483
 21
13.82315538223855
 31
0.0
 11
180.5128026496768
 21
13.82315538223855
 31
0.0
 11
180.3554704921536
 21
13.82315538223855
 31
0.0
 11
180.199819115366
 21
13.82315538223855
 31
0.0
 11
180.0441620874241
 21
13.82145433189179
 31
0.0
 11
179.8868249573133
 21
13.81626739612921
 31
0.0
 11
179.896691822374
 21
14.03601267385205
 31
0.0
 11
179.9057788376618
 21
14.25491128490845
 31
0.0
 11
179.91217215184
 21
14.47550763901997
 31
0.0
 11
179.9143063455009
 21
14.70036378479711
 31
0.0
 11
179.9143063455009
 21
14.7257882449687
 31
0.0
 11
179.9143063455009
 21
14.79281636723927
 31
0.0
 11
179.9143063455009
 21
14.88758026424249
 31
0.0
 11
179.9143063455009
 21
14.99621204861203
 31
0.0
 11
179.9143063455009
 21
15.10484383298157
 31
0.0
 11
179.9143063455009
 21
15.19960772998478
 31
0.0
 11
179.9143063455009
 21
15.26663585225535
 31
0.0
 11
179.9143063455009
 21
15.29206031242694
 31
0.0
 11
179.91217215184
 21
15.5173596352873
 31
0.0
 11
179.9057788376618
 21
15.73923260398183
 31
0.0
  0
SPLINE
  5
A5
102
{ACAD_REACTORS
330
C2
102
}
330
48
100
AcDbEntity
  8
_U_30EC_U_30A4_U_30E4_U_30FC_1
  6
Continuous
 62
     2
100
AcDbSpline
210
0.0
220
0.0
230
1.0
 70
    11
 71
     3
 72
    47
 73
    43
 74
    41
 42
0.000000001
 43
0.0000000001
 44
0.00000001
 40
0.0
 40
0.0
 40
0.0
 40
0.0
 40
0.2207912809957266
 40
0.4459404186302918
 40
0.4902387190459117
 40
0.5327473892722089
 40
0.5742260451225404
 40
0.6155432630560699
 40
0.6568164066315619
 40
0.6982511618780534
 40
0.7407663929317061
 40
0.7851366743175106
 40
1.010288833836292
 40
1.231080507002147
 40
1.451765243652374
 40
1.676638205891674
 40
1.720461045359643
 40
1.830018144043503
 40
1.97244237235313
 40
2.114866600677493
 40
2.224423699395114
 40
2.268246538883353
 40
2.49362880120719
 40
2.715602830286586
 40
2.934211330706343
 40
3.149502369855342
 40
3.231387784850988
 40
3.318231873854023
 40
3.405143198198011
 40
3.486970301720447
 40
3.702258172493895
 40
3.920866283534129
 40
4.142839325931917
 40
4.368221903865383
 40
4.412044743359861
 40
4.521601842095873
 40
4.664026070452346
 40
4.80645029880905
 40
4.916007397546741
 40
4.959830237043061
 40
5.184703515847108
 40
5.405387250767482
 40
5.405387250767482
 40
5.405387250767482
 40
5.405387250767482
 10
182.6507427258645
 20
15.73406440953866
 30
0.0
 10
182.6568139420003
 20
15.79758482501205
 30
0.0
 10
182.6690762107242
 20
15.92587938689621
 30
0.0
 10
182.5604706879412
 20
16.20166220174066
 30
0.0
 10
182.6761985896604
 20
16.17188133432048
 30
0.0
 10
182.7171842509015
 20
16.16765556262812
 30
0.0
 10
182.7591205797518
 20
16.16310446389601
 30
0.0
 10
182.800419662571
 20
16.16201982929477
 30
0.0
 10
182.8417032115556
 20
16.16310338195222
 30
0.0
 10
182.8836148270647
 20
16.16766112711334
 30
0.0
 10
182.9245983549019
 20
16.17187430209723
 30
0.0
 10
183.0404922843487
 20
16.20177611317523
 30
0.0
 10
182.9295652727457
 20
15.92339806609884
 30
0.0
 10
182.9574856365267
 20
15.74283140824947
 30
0.0
 10
182.9404267346968
 20
15.50961042346465
 30
0.0
 10
182.9414637282103
 20
15.34906622543139
 30
0.0
 10
182.9414099399405
 20
15.22284817558715
 30
0.0
 10
182.941427737248
 20
15.12428963336235
 30
0.0
 10
182.9414188581081
 20
14.99280702442957
 30
0.0
 10
182.9414263928033
 20
14.86132844968644
 30
0.0
 10
182.9414129405128
 20
14.76276222694085
 30
0.0
 10
182.9414531717492
 20
14.63639735624146
 30
0.0
 10
182.9406746403816
 20
14.47482068822865
 30
0.0
 10
182.9565958319267
 20
14.24361821892909
 30
0.0
 10
182.9333468885408
 20
14.05874351971996
 30
0.0
 10
183.0360183444365
 20
13.78935602770049
 30
0.0
 10
182.8820238362836
 20
13.8266011268581
 30
0.0
 10
182.8004129802832
 20
13.82137994680527
 30
0.0
 10
182.7188192292582
 20
13.82660620378345
 30
0.0
 10
182.5648513666842
 20
13.7893706988538
 30
0.0
 10
182.6674183421917
 20
14.05875129862874
 30
0.0
 10
182.6442045316088
 20
14.2436158532541
 30
0.0
 10
182.6600444655138
 20
14.47482218565633
 30
0.0
 10
182.6593296313428
 20
14.63639712308498
 30
0.0
 10
182.6593664569907
 20
14.76276231210515
 30
0.0
 10
182.659354900027
 20
14.86132756635976
 30
0.0
 10
182.6593575019214
 20
14.99281127417213
 30
0.0
 10
182.6593648531779
 20
15.12427548031193
 30
0.0
 10
182.6593442541351
 20
15.22287786275318
 30
0.0
 10
182.6594082192028
 20
15.34896149354421
 30
0.0
 10
182.658173394759
 20
15.51210091383764
 30
0.0
 10
182.6532040396745
 20
15.66054183777544
 30
0.0
 10
182.6507427258645
 20
15.73406440953866
 30
0.0
 11
182.6507427258645
 21
15.73406440953866
 31
0.0
 11
182.6417328200379
 21
15.95467178795572
 31
0.0
 11
182.6318769706146
 21
16.17960510387172
 31
0.0
 11
182.6756985840801
 21
16.17312391463722
 31
0.0
 11
182.7178400934215
 21
16.16754892331917
 31
0.0
 11
182.759137140979
 21
16.16367167505624
 31
0.0
 11
182.8004341885365
 21
16.162380728876
 31
0.0
 11
182.841687138873
 21
16.16367167505624
 31
0.0
 11
182.8829400892097
 21
16.16754892331917
 31
0.0
 11
182.9250882131343
 21
16.17312391463722
 31
0.0
 11
182.9689825870145
 21
16.17960510387172
 31
0.0
 11
182.9590577693891
 21
15.95467178795572
 31
0.0
 11
182.950038420831
 21
15.73406440953866
 31
0.0
 11
182.9435638463435
 21
15.51347467001048
 31
0.0
 11
182.9414218238286
 21
15.28861190965
 31
0.0
 11
182.9414218238286
 21
15.24478907015479
 31
0.0
 11
182.9414218238286
 21
15.13523197141675
 31
0.0
 11
182.9414218238286
 21
14.99280774305731
 31
0.0
 11
182.9414218238286
 21
14.85038351469787
 31
0.0
 11
182.9414218238286
 21
14.74082641595983
 31
0.0
 11
182.9414218238286
 21
14.69700357646462
 31
0.0
 11
182.9435638463435
 21
14.47163149318761
 31
0.0
 11
182.950038420831
 21
14.24975190990975
 31
0.0
 11
182.9590577693891
 21
14.03132954885324
 31
0.0
 11
182.9689825870145
 21
13.81626739612921
 31
0.0
 11
182.887261616877
 21
13.82145433189179
 31
0.0
 11
182.8004341885365
 21
13.82315538223855
 31
0.0
 11
182.7135395119339
 21
13.82145433189179
 31
0.0
 11
182.6318769706146
 21
13.81626739612921
 31
0.0
 11
182.6417328200379
 21
14.03132954885324
 31
0.0
 11
182.6507427258645
 21
14.24975190990975
 31
0.0
 11
182.6571833838798
 21
14.47163149318761
 31
0.0
 11
182.6593583588023
 21
14.69700357646462
 31
0.0
 11
182.6593583588023
 21
14.74082641595983
 31
0.0
 11
182.6593583588023
 21
14.85038351469787
 31
0.0
 11
182.6593583588023
 21
14.99280774305731
 31
0.0
 11
182.6593583588023
 21
15.13523197141675
 31
0.0
 11
182.6593583588023
 21
15.24478907015479
 31
0.0
 11
182.6593583588023
 21
15.28861190965
 31
0.0
 11
182.6571833838798
 21
15.51347467001048
 31
0.0
 11
182.6507427258645
 21
15.73406440953866
 31
0.0
  0
SPLINE
  5
A6
102
{ACAD_REACTORS
330
C3
102
}
330
48
100
AcDbEntity
  8
_U_30EC_U_30A4_U_30E4_U_30FC_1
  6
Continuous
 62
     2
100
AcDbSpline
210
0.0
220
0.0
230
1.0
 70
    11
 71
     3
 72
   118
 73
   114
 74
   112
 42
0.000000001
 43
0.0000000001
 44
0.00000001
 40
0.0
 40
0.0
 40
0.0
 40
0.0
 40
0.1054708162973438
 40
0.2466098270051967
 40
0.3965912874591276
 40
0.5285525069753974
 40
0.6156245055642111
 40
0.6431434105797438
 40
0.7036850037986128
 40
0.7642265984504525
 40
0.7917455052354829
 40
0.9287404319989797
 40
1.106572819088021
 40
1.287544879681021
 40
1.31757830803054
 40
1.399928030857176
 40
1.522968204799951
 40
1.675072986590568
 40
1.844616533180647
 40
2.019973001638708
 40
2.189516548880019
 40
2.341621331585356
 40
2.46466150632049
 40
2.547011229647054
 40
2.577044658168018
 40
2.603797890893088
 40
2.662655002908775
 40
2.721512114949587
 40
2.748265347702767
 40
2.774215307344844
 40
2.845959313407175
 40
2.954338556588374
 40
3.090194227585552
 40
3.24436751710052
 40
3.407699615844277
 40
3.571031714539429
 40
3.725205003920107
 40
3.861060674729608
 40
3.969439917716302
 40
4.041183923628975
 40
4.067133883212969
 40
4.311886746012162
 40
4.547897258335531
 40
4.764747083043972
 40
4.952749679951775
 40
5.045772974195898
 40
5.137862019644984
 40
5.330543169793029
 40
5.553448265244018
 40
5.795083855888177
 40
6.043293412177239
 40
6.285761695541185
 40
6.313902908752668
 40
6.384255941793258
 40
6.475714884766846
 40
6.567173827758909
 40
6.637526860839687
 40
6.66566807407405
 40
6.692018920328026
 40
6.749990782071098
 40
6.807962643790471
 40
6.834313490017946
 40
6.856393084245225
 40
6.913335195649848
 40
6.991194817302512
 40
7.076026942283773
 40
7.153886563725264
 40
7.210828674844846
 40
7.232908268931181
 40
7.258199334923702
 40
7.324875781592349
 40
7.419142481925006
 40
7.527204308841945
 40
7.63526613523052
 40
7.729532834168506
 40
7.796209279292825
 40
7.821500344594771
 40
7.844652988850841
 40
7.89986314054162
 40
7.965759128053786
 40
8.020969279771071
 40
8.044121924046538
 40
8.069356610160627
 40
8.10913439544139
 40
8.132238100191103
 40
8.193147867786468
 40
8.279261678876644
 40
8.377977512673858
 40
8.476693347146647
 40
8.562807160411703
 40
8.623716930826486
 40
8.646820636853441
 40
8.671988793774254
 40
8.734909185828165
 40
8.81670569518888
 40
8.89850220481545
 40
8.961422597377911
 40
8.986590754551024
 40
9.012941600733182
 40
9.07091346238027
 40
9.128885324081766
 40
9.15523617032509
 40
9.180404327929132
 40
9.243324721948206
 40
9.325121234211998
 40
9.406917746637653
 40
9.469838141978109
 40
9.495006288270883
 40
9.517811184379024
 40
9.572192090487025
 40
9.637098333281253
 40
9.691479239515456
 40
9.714284125643493
 40
9.714284125643493
 40
9.714284125643493
 40
9.714284125643493
 10
185.2874469028653
 20
15.26889163187713
 30
0.0
 10
185.3090990569038
 20
15.24111869242805
 30
0.0
 10
185.3597257109473
 20
15.17618054561229
 30
0.0
 10
185.4349383202591
 20
15.06891060312891
 30
0.0
 10
185.5248482274346
 20
14.95377438266619
 30
0.0
 10
185.5709169676673
 20
14.85357045748314
 30
0.0
 10
185.6655825294655
 20
14.78434006814937
 30
0.0
 10
185.6204439320412
 20
14.73771639678269
 30
0.0
 10
185.5947047785789
 20
14.69660308866034
 30
0.0
 10
185.5645196708012
 20
14.66065971727934
 30
0.0
 10
185.5193684730562
 20
14.58579782596088
 30
0.0
 10
185.4710504458562
 20
14.807825242536
 30
0.0
 10
185.3968539713071
 20
14.84510677337703
 30
0.0
 10
185.2836047324608
 20
15.11610202130596
 30
0.0
 10
185.2885133578169
 20
15.00095328446222
 30
0.0
 10
185.2868486556307
 20
14.92836675781621
 30
0.0
 10
185.2876830076713
 20
14.8062558848398
 30
0.0
 10
185.2873609540265
 20
14.65913800810454
 30
0.0
 10
185.2875076912455
 20
14.49307063956551
 30
0.0
 10
185.2872950092722
 20
14.32187554608596
 30
0.0
 10
185.2879497252034
 20
14.15552828635493
 30
0.0
 10
185.2859192461139
 20
14.00935173055688
 30
0.0
 10
185.291346039993
 20
13.88471047474606
 30
0.0
 10
185.2804930868708
 20
13.81718656540621
 30
0.0
 10
185.2956739155555
 20
13.75549061417017
 30
0.0
 10
185.2457895108133
 20
13.76727503896997
 30
0.0
 10
185.2017150342522
 20
13.75943822779964
 30
0.0
 10
185.15823716302
 20
13.76760441372698
 30
0.0
 10
185.1092346786489
 20
13.75538056738463
 30
0.0
 10
185.1218731234824
 20
13.80960667249308
 30
0.0
 10
185.113018296845
 20
13.86936918907553
 30
0.0
 10
185.1175058770314
 20
13.97922029044365
 30
0.0
 10
185.1157960135991
 20
14.11029975405674
 30
0.0
 10
185.1163550915986
 20
14.26198011444323
 30
0.0
 10
185.1161928768694
 20
14.42211074929948
 30
0.0
 10
185.1162269924674
 20
14.58236865674562
 30
0.0
 10
185.1162514960127
 20
14.73370247520435
 30
0.0
 10
185.1161453543224
 20
14.86582156338596
 30
0.0
 10
185.1164299141932
 20
14.9729480253319
 30
0.0
 10
185.1158675547567
 20
15.0380861957947
 30
0.0
 10
185.1180765083691
 20
15.16618957858671
 30
0.0
 10
185.0319435998601
 20
14.79097610391571
 30
0.0
 10
184.9555140818499
 20
14.6391819312339
 30
0.0
 10
184.8660040767833
 20
14.47766206446301
 30
0.0
 10
184.7640413217327
 20
14.20471848820167
 30
0.0
 10
184.7187976491039
 20
14.36717346596505
 30
0.0
 10
184.610235594167
 20
14.45605432058115
 30
0.0
 10
184.7995791751753
 20
14.60549794961403
 30
0.0
 10
184.85653405457
 20
14.7974913697492
 30
0.0
 10
184.9717520993352
 20
15.02899622906751
 30
0.0
 10
184.9940151630132
 20
15.21797259759057
 30
0.0
 10
185.177190515214
 20
15.49454089325924
 30
0.0
 10
185.0538033597552
 20
15.48698978832088
 30
0.0
 10
184.9925684166834
 20
15.48856772366112
 30
0.0
 10
184.9081999617064
 20
15.48882592573666
 30
0.0
 10
184.8204235085966
 20
15.48544845751199
 30
0.0
 10
184.7656768696122
 20
15.49394814982014
 30
0.0
 10
184.7104703026025
 20
15.48048561049782
 30
0.0
 10
184.7222823035536
 20
15.52931442126757
 30
0.0
 10
184.7142496151794
 20
15.57269004896703
 30
0.0
 10
184.7228186104679
 20
15.61509438309567
 30
0.0
 10
184.7102943409157
 20
15.66267796552113
 30
0.0
 10
184.7555101538735
 20
15.65267212995104
 30
0.0
 10
184.8014815562723
 20
15.65894105174056
 30
0.0
 10
184.877722204771
 20
15.65593561405867
 30
0.0
 10
184.9561296131993
 20
15.65770448278536
 30
0.0
 10
185.0323992648932
 20
15.65464793981655
 30
0.0
 10
185.0783009459475
 20
15.66103971376172
 30
0.0
 10
185.1231733965399
 20
15.65093822978891
 30
0.0
 10
185.1105552275634
 20
15.70157201581893
 30
0.0
 10
185.1191936582707
 20
15.75501261882065
 30
0.0
 10
185.1152361595443
 20
15.84863255131675
 30
0.0
 10
185.1162325068335
 20
15.95112606688918
 30
0.0
 10
185.1171927413073
 20
16.05353270248158
 30
0.0
 10
185.1133211458005
 20
16.14735929609315
 30
0.0
 10
185.1217789814365
 20
16.20036542840347
 30
0.0
 10
185.1093075932835
 20
16.25211435651182
 30
0.0
 10
185.154210638985
 20
16.2385074722675
 30
0.0
 10
185.1955083836772
 20
16.24100480320579
 30
0.0
 10
185.259534428105
 20
16.23648060574482
 30
0.0
 10
185.2986111148786
 20
16.22781003043302
 30
0.0
 10
185.3476543498742
 20
16.23515102070681
 30
0.0
 10
185.322508003059
 20
16.19602896051752
 30
0.0
 10
185.2815901333723
 20
16.20563842455804
 30
0.0
 10
185.2910109616603
 20
16.15540148169774
 30
0.0
 10
185.2855647318746
 20
16.10385945639486
 30
0.0
 10
185.2881699601804
 20
16.01959707584517
 30
0.0
 10
185.2870102202153
 20
15.92559135583403
 30
0.0
 10
185.2883591064232
 20
15.83196865395521
 30
0.0
 10
185.2849970101508
 20
15.74679517552218
 30
0.0
 10
185.2920959917769
 20
15.69716856072039
 30
0.0
 10
185.2812569154545
 20
15.64993694969984
 30
0.0
 10
185.3304010225245
 20
15.66201674936847
 30
0.0
 10
185.3794877630147
 20
15.65447393363006
 30
0.0
 10
185.4573714280641
 20
15.65686070361428
 30
0.0
 10
185.5350365172896
 20
15.65899381905409
 30
0.0
 10
185.5845393931354
 20
15.6519339192245
 30
0.0
 10
185.6344594750639
 20
15.66360151936209
 30
0.0
 10
185.622319851688
 20
15.61540235371387
 30
0.0
 10
185.6305838229143
 20
15.5724921980123
 30
0.0
 10
185.6223198650783
 20
15.52958201851379
 30
0.0
 10
185.6344594549855
 20
15.48138288754859
 30
0.0
 10
185.5845395158746
 20
15.49305034471504
 30
0.0
 10
185.5350350651202
 20
15.4859920243504
 30
0.0
 10
185.4573784382973
 20
15.48811665228597
 30
0.0
 10
185.379464386576
 20
15.49053389365754
 30
0.0
 10
185.3304500352716
 20
15.48291848194479
 30
0.0
 10
185.2813246108943
 20
15.49507952557586
 30
0.0
 10
185.2915559988571
 20
15.45073013424152
 30
0.0
 10
185.2856677678054
 20
15.40925436202905
 30
0.0
 10
185.2878788305568
 20
15.34915394315296
 30
0.0
 10
185.2874109346146
 20
15.30225782762883
 30
0.0
 10
185.2874386992913
 20
15.2765014641819
 30
0.0
 10
185.2874469028653
 20
15.26889163187713
 30
0.0
 11
185.2874469028653
 21
15.26889163187713
 31
0.0
 11
185.3516977534484
 21
15.1852499963425
 31
0.0
 11
185.4348258835499
 21
15.07118889748214
 31
0.0
 11
185.5216831568896
 21
14.94891767195717
 31
0.0
 11
185.5971214371872
 21
14.8406456564287
 31
0.0
 11
185.6459925881626
 21
14.76858218755785
 31
0.0
 11
185.6296821285093
 21
14.74641782124394
 31
0.0
 11
185.5937991172719
 21
14.69765621535334
 31
0.0
 11
185.5579161060346
 21
14.64889460946275
 31
0.0
 11
185.5416056463813
 21
14.62673024314884
 31
0.0
 11
185.4763067109446
 21
14.74716139023808
 31
0.0
 11
185.3848434243234
 21
14.89966983670201
 31
0.0
 11
185.2874469028653
 21
15.05219788193136
 31
0.0
 11
185.2874469028653
 21
15.02216445328247
 31
0.0
 11
185.2874469028653
 21
14.93981472956777
 31
0.0
 11
185.2874469028653
 21
14.81677455413522
 31
0.0
 11
185.2874469028653
 21
14.66466977033278
 31
0.0
 11
185.2874469028653
 21
14.49512622150839
 31
0.0
 11
185.2874469028653
 21
14.31976975101004
 31
0.0
 11
185.2874469028653
 21
14.15022620218565
 31
0.0
 11
185.2874469028653
 21
13.99812141838321
 31
0.0
 11
185.2874469028653
 21
13.87508124295066
 31
0.0
 11
185.2874469028653
 21
13.79273151923596
 31
0.0
 11
185.2874469028653
 21
13.76269809058707
 31
0.0
 11
185.2606936700409
 21
13.76269809058707
 31
0.0
 11
185.2018365578272
 21
13.76269809058707
 31
0.0
 11
185.1429794456134
 21
13.76269809058707
 31
0.0
 11
185.116226212789
 21
13.76269809058707
 31
0.0
 11
185.116226212789
 21
13.78864805031245
 31
0.0
 11
185.116226212789
 21
13.86039205661203
 31
0.0
 11
185.116226212789
 21
13.96877130017097
 31
0.0
 11
185.116226212789
 21
14.10462697167442
 31
0.0
 11
185.116226212789
 21
14.25880026180756
 31
0.0
 11
185.116226212789
 21
14.42213236125554
 31
0.0
 11
185.116226212789
 21
14.58546446070352
 31
0.0
 11
185.116226212789
 21
14.73963775083666
 31
0.0
 11
185.116226212789
 21
14.87549342234011
 31
0.0
 11
185.116226212789
 21
14.98387266589905
 31
0.0
 11
185.116226212789
 21
15.05561667219863
 31
0.0
 11
185.116226212789
 21
15.08156663192401
 31
0.0
 11
185.0379865861721
 21
14.84965603302367
 31
0.0
 11
184.9497110789303
 21
14.63077616328673
 31
0.0
 11
184.8544106930045
 21
14.43598991333542
 31
0.0
 11
184.7550964303356
 21
14.27636017379197
 31
0.0
 11
184.7109198342406
 21
14.35822446196594
 31
0.0
 11
184.658805738348
 21
14.43414885430806
 31
0.0
 11
184.7627302590299
 21
14.59640087926751
 31
0.0
 11
184.8629319864735
 21
14.79551465421775
 31
0.0
 11
184.9550446607901
 21
15.0189044791619
 31
0.0
 11
185.0347020220912
 21
15.25398465410314
 31
0.0
 11
185.097537810488
 21
15.48816947904459
 31
0.0
 11
185.0693965972142
 21
15.48816947904459
 31
0.0
 11
184.9990435640297
 21
15.48816947904459
 31
0.0
 11
184.9075846208898
 21
15.48816947904459
 31
0.0
 11
184.8161256777499
 21
15.48816947904459
 31
0.0
 11
184.7457726445654
 21
15.48816947904459
 31
0.0
 11
184.7176314312916
 21
15.48816947904459
 31
0.0
 11
184.7176314312916
 21
15.51452032539217
 31
0.0
 11
184.7176314312916
 21
15.57249218735683
 31
0.0
 11
184.7176314312916
 21
15.6304640493215
 31
0.0
 11
184.7176314312916
 21
15.65681489566907
 31
0.0
 11
184.739711025602
 21
15.65681489566907
 31
0.0
 11
184.7966531372444
 21
15.65681489566907
 31
0.0
 11
184.8745127592862
 21
15.65681489566907
 31
0.0
 11
184.9593448847944
 21
15.65681489566907
 31
0.0
 11
185.0372045068361
 21
15.65681489566907
 31
0.0
 11
185.0941466184786
 21
15.65681489566907
 31
0.0
 11
185.116226212789
 21
15.65681489566907
 31
0.0
 11
185.116226212789
 21
15.68210596174348
 31
0.0
 11
185.116226212789
 21
15.74878240866692
 31
0.0
 11
185.116226212789
 21
15.84304910948971
 31
0.0
 11
185.116226212789
 21
15.95111093726219
 31
0.0
 11
185.116226212789
 21
16.05917276503466
 31
0.0
 11
185.116226212789
 21
16.15343946585745
 31
0.0
 11
185.116226212789
 21
16.22011591278089
 31
0.0
 11
185.116226212789
 21
16.2454069788553
 31
0.0
 11
185.1393181988665
 21
16.24373213107794
 31
0.0
 11
185.1943837041284
 21
16.23973826330116
 31
0.0
 11
185.2601070491184
 21
16.2349713888579
 31
0.0
 11
185.3151725543802
 21
16.23097752108111
 31
0.0
 11
185.3382645404578
 21
16.22930267330375
 31
0.0
 11
185.3249012644362
 21
16.20789677921185
 31
0.0
 11
185.2874469028653
 21
16.19450114553465
 31
0.0
 11
185.2874469028653
 21
16.17139743948574
 31
0.0
 11
185.2874469028653
 21
16.11048766899316
 31
0.0
 11
185.2874469028653
 21
16.02437385553812
 31
0.0
 11
185.2874469028653
 21
15.92565802060186
 31
0.0
 11
185.2874469028653
 21
15.8269421856656
 31
0.0
 11
185.2874469028653
 21
15.74082837221057
 31
0.0
 11
185.2874469028653
 21
15.67991860171798
 31
0.0
 11
185.2874469028653
 21
15.65681489566907
 31
0.0
 11
185.3126150604809
 21
15.65681489566907
 31
0.0
 11
185.3755354545199
 21
15.65681489566907
 31
0.0
 11
185.4573319667706
 21
15.65681489566907
 31
0.0
 11
185.5391284790212
 21
15.65681489566907
 31
0.0
 11
185.6020488730602
 21
15.65681489566907
 31
0.0
 11
185.6272170306758
 21
15.65681489566907
 31
0.0
 11
185.6272170306758
 21
15.63046404932149
 31
0.0
 11
185.6272170306758
 21
15.57249218735683
 31
0.0
 11
185.6272170306758
 21
15.51452032539217
 31
0.0
 11
185.6272170306758
 21
15.48816947904459
 31
0.0
 11
185.6020488730602
 21
15.48816947904459
 31
0.0
 11
185.5391284790212
 21
15.48816947904459
 31
0.0
 11
185.4573319667705
 21
15.48816947904459
 31
0.0
 11
185.3755354545199
 21
15.48816947904459
 31
0.0
 11
185.3126150604809
 21
15.48816947904459
 31
0.0
 11
185.2874469028653
 21
15.48816947904459
 31
0.0
 11
185.2874469028653
 21
15.46536458293918
 31
0.0
 11
185.2874469028653
 21
15.41098367684164
 31
0.0
 11
185.2874469028653
 21
15.34607743408008
 31
0.0
 11
185.2874469028653
 21
15.29169652798254
 31
0.0
 11
185.2874469028653
 21
15.26889163187713
 31
0.0
  0
SPLINE
  5
A7
102
{ACAD_REACTORS
330
C4
102
}
330
48
100
AcDbEntity
  8
_U_30EC_U_30A4_U_30E4_U_30FC_1
  6
Continuous
 62
     2
100
AcDbSpline
210
0.0
220
0.0
230
1.0
 70
    11
 71
     3
 72
    91
 73
    87
 74
    85
 42
0.000000001
 43
0.0000000001
 44
0.00000001
 40
0.0
 40
0.0
 40
0.0
 40
0.0
 40
0.0345987051695718
 40
0.1258134969461369
 40
0.2547723404888987
 40
0.4026032099154125
 40
0.5504340793416704
 40
0.679392922883608
 40
0.7706077146571035
 40
0.8052064287780925
 40
1.124852390615279
 40
1.427402236308872
 40
1.706356627453514
 40
1.955541417875197
 40
2.169485938566342
 40
2.344350786664796
 40
2.480568411561946
 40
2.590440557428968
 40
2.649189927151123
 40
2.749320643306327
 40
2.912632739880034
 40
3.147745656000237
 40
3.244827496385135
 40
3.338490056946717
 40
3.583815413207148
 40
3.761423943238516
 40
3.886956104362687
 40
3.985855451886853
 40
4.091766255337738
 40
4.250186473811932
 40
4.422734315084577
 40
4.628285684838676
 40
4.872093227758509
 40
5.15254965214562
 40
5.464967135837605
 40
5.803201477852522
 40
6.160362988813993
 40
6.193449448276048
 40
6.284170385501702
 40
6.419718138764572
 40
6.587285046385822
 40
6.774063446723736
 40
6.967245678113719
 40
7.154024078817705
 40
7.321590987026091
 40
7.457138740890449
 40
7.547859678556185
 40
7.580946138182745
 40
7.608533084714801
 40
7.669224367077779
 40
7.729915649429999
 40
7.757502595950052
 40
7.790278062553505
 40
7.880146277431003
 40
8.014419963180465
 40
8.180411842397966
 40
8.365434637679435
 40
8.556801071622736
 40
8.741823866830849
 40
8.90781574591636
 40
9.042089431507513
 40
9.131957646249639
 40
9.164733112797215
 40
9.415425063140136
 40
9.667986180958609
 40
9.694169807462776
 40
9.756607686047735
 40
9.831130315322541
 40
9.893568193900006
 40
9.919751820398822
 40
9.950967964690642
 40
9.996421631210755
 40
10.22087981037464
 40
10.44341866197553
 40
10.47847970788865
 40
10.57091337438766
 40
10.7015954546124
 40
10.85140174170371
 40
11.00120802880488
 40
11.13189010907393
 40
11.22432377583021
 40
11.25938480938967
 40
11.28697175596156
 40
11.3476630383593
 40
11.40835432042081
 40
11.43594125892116
 40
11.43594125892116
 40
11.43594125892116
 40
11.43594125892116
 10
190.0818114333289
 20
15.55242795125071
 30
0.0
 10
190.0702785844941
 20
15.55242790287909
 30
0.0
 10
190.0283409444998
 20
15.55242773704158
 30
0.0
 10
189.9434129719026
 20
15.55243125800903
 30
0.0
 10
189.8207688553128
 20
15.55240926435872
 30
0.0
 10
189.6791206916993
 20
15.55250801177048
 30
0.0
 10
189.537975369849
 20
15.55214686232415
 30
0.0
 10
189.4141351317904
 20
15.55321883609083
 30
0.0
 10
189.3317217825382
 20
15.55092249091262
 30
0.0
 10
189.1727791229692
 20
15.56048569373413
 30
0.0
 10
189.3503402353376
 20
15.19785394311365
 30
0.0
 10
189.3379739205452
 20
14.95243127723108
 30
0.0
 10
189.4064519473864
 20
14.66862501324828
 30
0.0
 10
189.469302432097
 20
14.43250999939029
 30
0.0
 10
189.5452253431729
 20
14.23326740396124
 30
0.0
 10
189.6303189577016
 20
14.07745347451367
 30
0.0
 10
189.7244607592935
 20
13.97657857781386
 30
0.0
 10
189.8282648207728
 20
13.92465852638959
 30
0.0
 10
189.9125872030773
 20
13.97606484379611
 30
0.0
 10
189.9351322179452
 20
14.09144544037512
 30
0.0
 10
189.9745730975372
 20
14.21885149702375
 30
0.0
 10
189.9202919734942
 20
14.53622328086752
 30
0.0
 10
190.0451218072474
 20
14.389821801409
 30
0.0
 10
190.2019291513602
 20
14.35795300331168
 30
0.0
 10
190.0947720007057
 20
14.12421357767623
 30
0.0
 10
190.0808711209867
 20
13.95972776583652
 30
0.0
 10
190.0234709467225
 20
13.83130869122477
 30
0.0
 10
189.9335020145008
 20
13.7601880235282
 30
0.0
 10
189.8095274657877
 20
13.74432324142247
 30
0.0
 10
189.6634273196859
 20
13.77993797554165
 30
0.0
 10
189.5243894320284
 20
13.90000570500271
 30
0.0
 10
189.4102003962144
 20
14.07435682550314
 30
0.0
 10
189.3146141301486
 20
14.29946603111234
 30
0.0
 10
189.2318652572626
 20
14.56388246006437
 30
0.0
 10
189.1807179256412
 20
14.88187933098537
 30
0.0
 10
189.0770189207338
 20
15.15543728488907
 30
0.0
 10
189.2042841208521
 20
15.56005818612861
 30
0.0
 10
189.0357890623018
 20
15.55112367849672
 30
0.0
 10
188.9511995787077
 20
15.55315961418357
 30
0.0
 10
188.8189876387627
 20
15.552139373884
 30
0.0
 10
188.6560505094104
 20
15.55253230318423
 30
0.0
 10
188.4733759170532
 20
15.55235696313362
 30
0.0
 10
188.2847057373383
 20
15.55260105307462
 30
0.0
 10
188.1014469020189
 20
15.5518565790623
 30
0.0
 10
187.9404746832718
 20
15.5541636052242
 30
0.0
 10
187.8029808335276
 20
15.54799804883656
 30
0.0
 10
187.728959037231
 20
15.56032838458205
 30
0.0
 10
187.6613215186857
 20
15.5432932372355
 30
0.0
 10
187.673237371927
 20
15.59524438447522
 30
0.0
 10
187.6655677285694
 20
15.64071424966523
 30
0.0
 10
187.6732592225115
 20
15.68614453703699
 30
0.0
 10
187.6613141797761
 20
15.73802395984564
 30
0.0
 10
187.7283588305867
 20
15.72119143490258
 30
0.0
 10
187.8017375665676
 20
15.73335409092665
 30
0.0
 10
187.9379128305272
 20
15.72727231074952
 30
0.0
 10
188.0973811801512
 20
15.72954834315052
 30
0.0
 10
188.2789173085836
 20
15.72881233998957
 30
0.0
 10
188.4658034862179
 20
15.72905954196127
 30
0.0
 10
188.6468012316836
 20
15.72886400799248
 30
0.0
 10
188.8080802578878
 20
15.72932234714833
 30
0.0
 10
188.9393882124887
 20
15.728126737512
 30
0.0
 10
189.0225051322596
 20
15.73051347319736
 30
0.0
 10
189.1556236547815
 20
15.72230605725459
 30
0.0
 10
189.0645893502657
 20
15.97752868952648
 30
0.0
 10
188.978963307442
 20
16.24164358328244
 30
0.0
 10
189.0990589003455
 20
16.22904442969159
 30
0.0
 10
189.1514264948544
 20
16.22694235763071
 30
0.0
 10
189.2214497569715
 20
16.2253539988965
 30
0.0
 10
189.2671922337817
 20
16.21602567538108
 30
0.0
 10
189.3220812646933
 20
16.2254596691542
 30
0.0
 10
189.2963574785681
 20
16.17733028655167
 30
0.0
 10
189.1825397571453
 20
16.18266829744163
 30
0.0
 10
189.3159346621136
 20
15.95449174576772
 30
0.0
 10
189.1943658735469
 20
15.72156856595915
 30
0.0
 10
189.3223188769414
 20
15.73087258884434
 30
0.0
 10
189.404904840646
 20
15.72801001754674
 30
0.0
 10
189.5307214850824
 20
15.72923437412297
 30
0.0
 10
189.6741469838057
 20
15.72932431888959
 30
0.0
 10
189.8157420951728
 20
15.72746163183847
 30
0.0
 10
189.9459127249967
 20
15.73333075937157
 30
0.0
 10
190.0193452286191
 20
15.72070340823198
 30
0.0
 10
190.0891112922096
 20
15.73877563110406
 30
0.0
 10
190.0775772605396
 20
15.6861285054632
 30
0.0
 10
190.0833184346681
 20
15.64221317686541
 30
0.0
 10
190.0816615770911
 20
15.59089982676544
 30
0.0
 10
190.081775756167
 20
15.56158792021628
 30
0.0
 10
190.0818114333289
 20
15.55242795125071
 30
0.0
 11
190.0818114333289
 21
15.55242795125071
 31
0.0
 11
190.0472127192051
 21
15.55242795125071
 31
0.0
 11
189.9559979274241
 21
15.55242795125071
 31
0.0
 11
189.8270390838717
 21
15.55242795125071
 31
0.0
 11
189.6792082144335
 21
15.55242795125071
 31
0.0
 11
189.5313773449954
 21
15.55242795125071
 31
0.0
 11
189.402418501443
 21
15.55242795125071
 31
0.0
 11
189.311203709662
 21
15.55242795125071
 31
0.0
 11
189.2766049955382
 21
15.55242795125071
 31
0.0
 11
189.3083140497693
 21
15.23435864930115
 31
0.0
 11
189.3527866656865
 21
14.93509522788074
 31
0.0
 11
189.4092389118319
 21
14.6619126951257
 31
0.0
 11
189.4768868567478
 21
14.42208605917221
 31
0.0
 11
189.5549465689761
 21
14.22289032815648
 31
0.0
 11
189.6426341170591
 21
14.07160051021472
 31
0.0
 11
189.7391655695388
 21
13.97549161348311
 31
0.0
 11
189.8437569949575
 21
13.94183864609786
 31
0.0
 11
189.8943077302786
 21
13.97177376978829
 31
0.0
 11
189.9310588991551
 21
14.06491619815042
 31
0.0
 11
189.9562640977528
 21
14.22627151712049
 31
0.0
 11
189.9721769222368
 21
14.46084531263477
 31
0.0
 11
190.0494082682583
 21
14.40202182306612
 31
0.0
 11
190.1327184184385
 21
14.35921885432686
 31
0.0
 11
190.1066365811217
 21
14.11528388661005
 31
0.0
 11
190.0673317805105
 21
13.94207902887557
 31
0.0
 11
190.0105702596765
 21
13.83011272445911
 31
0.0
 11
189.932118261691
 21
13.76989341669639
 31
0.0
 11
189.8277420296256
 21
13.7519295489231
 31
0.0
 11
189.6738595065097
 21
13.78957440012354
 31
0.0
 11
189.5388902376747
 21
13.89707348877396
 31
0.0
 11
189.4221739916163
 21
14.06627361744802
 31
0.0
 11
189.32305053683
 21
14.28902158871937
 31
0.0
 11
189.2408596418113
 21
14.55716420516166
 31
0.0
 11
189.1749410750559
 21
14.86254826934855
 31
0.0
 11
189.1246346050593
 21
15.19702058385368
 31
0.0
 11
189.0892800003171
 21
15.55242795125071
 31
0.0
 11
189.0561935405844
 21
15.55242795125071
 31
0.0
 11
188.9654726026075
 21
15.55242795125071
 31
0.0
 11
188.8299248482185
 21
15.55242795125071
 31
0.0
 11
188.6623579392495
 21
15.55242795125071
 31
0.0
 11
188.4755795375324
 21
15.55242795125071
 31
0.0
 11
188.2823973048992
 21
15.55242795125071
 31
0.0
 11
188.0956189031822
 21
15.55242795125071
 31
0.0
 11
187.9280519942131
 21
15.55242795125071
 31
0.0
 11
187.7925042398241
 21
15.55242795125071
 31
0.0
 11
187.7017833018473
 21
15.55242795125071
 31
0.0
 11
187.6686968421145
 21
15.55242795125071
 31
0.0
 11
187.6686968421145
 21
15.5800148978584
 31
0.0
 11
187.6686968421145
 21
15.64070618039532
 31
0.0
 11
187.6686968421145
 21
15.70139746293223
 31
0.0
 11
187.6686968421145
 21
15.72898440953992
 31
0.0
 11
187.7014723087631
 21
15.72898440953992
 31
0.0
 11
187.7913405237673
 21
15.72898440953992
 31
0.0
 11
187.9256142097148
 21
15.72898440953992
 31
0.0
 11
188.0916060891932
 21
15.72898440953992
 31
0.0
 11
188.2766288847901
 21
15.72898440953992
 31
0.0
 11
188.4679953190932
 21
15.72898440953992
 31
0.0
 11
188.6530181146902
 21
15.72898440953992
 31
0.0
 11
188.8190099941685
 21
15.72898440953992
 31
0.0
 11
188.953283680116
 21
15.72898440953992
 31
0.0
 11
189.0431518951202
 21
15.72898440953992
 31
0.0
 11
189.0759273617688
 21
15.72898440953992
 31
0.0
 11
189.0659183950103
 21
15.97947647544952
 31
0.0
 11
189.0599112510663
 21
16.23196614552526
 31
0.0
 11
189.0860575870659
 21
16.23056921608116
 31
0.0
 11
189.1484065421419
 21
16.22723807663755
 31
0.0
 11
189.2228230369099
 21
16.22326220052744
 31
0.0
 11
189.2851719919859
 21
16.21993106108383
 31
0.0
 11
189.3113183279855
 21
16.21853413163973
 31
0.0
 11
189.298293111304
 21
16.19016528616075
 31
0.0
 11
189.2551649266405
 21
16.17581274276159
 31
0.0
 11
189.2574991961821
 21
15.95136670115103
 31
0.0
 11
189.2658452735903
 21
15.72898440953992
 31
0.0
 11
189.3009063195165
 21
15.72898440953992
 31
0.0
 11
189.3933399860495
 21
15.72898440953992
 31
0.0
 11
189.5240220663201
 21
15.72898440953992
 31
0.0
 11
189.6738283534596
 21
15.72898440953992
 31
0.0
 11
189.8236346405991
 21
15.72898440953992
 31
0.0
 11
189.9543167208697
 21
15.72898440953992
 31
0.0
 11
190.0467503874027
 21
15.72898440953992
 31
0.0
 11
190.0818114333289
 21
15.72898440953992
 31
0.0
 11
190.0818114333289
 21
15.70139746293223
 31
0.0
 11
190.0818114333289
 21
15.64070618039532
 31
0.0
 11
190.0818114333289
 21
15.5800148978584
 31
0.0
 11
190.0818114333289
 21
15.55242795125071
 31
0.0
  0
SPLINE
  5
A8
102
{ACAD_REACTORS
330
C5
102
}
330
48
100
AcDbEntity
  8
_U_30EC_U_30A4_U_30E4_U_30FC_1
  6
Continuous
 62
     2
100
AcDbSpline
210
0.0
220
0.0
230
1.0
 70
    11
 71
     3
 72
    75
 73
    71
 74
    69
 42
0.000000001
 43
0.0000000001
 44
0.00000001
 40
0.0
 40
0.0
 40
0.0
 40
0.0
 40
0.0342546099129673
 40
0.1245622414432329
 40
0.2522385480897518
 40
0.398599192294068
 40
0.5449598364980839
 40
0.6726361431438834
 40
0.7629437746736925
 40
0.7971983935297973
 40
1.10172362344966
 40
1.408591244036667
 40
1.433332471690377
 40
1.487763172450184
 40
1.542193873082025
 40
1.566935100592579
 40
1.923523931821886
 40
2.271755704953684
 40
2.590579755100926
 40
2.858943305581186
 40
2.889120339309206
 40
2.918305855191158
 40
2.941366645531283
 40
2.996357760973174
 40
3.061992318140719
 40
3.116983433626916
 40
3.140044223997595
 40
3.411273122936517
 40
3.732441619741182
 40
3.76106821753288
 40
3.837787499630442
 40
3.948858699126081
 40
4.080541049104458
 40
4.219093782625842
 40
4.350776132722393
 40
4.461847332405727
 40
4.53856661467846
 40
4.567193212544705
 40
4.594907573998963
 40
4.666381453557502
 40
4.764111044011113
 40
4.870592538125916
 40
4.968322128642367
 40
5.039796008287052
 40
5.067510369784511
 40
5.094263603185725
 40
5.153120716668361
 40
5.211977830150808
 40
5.238731063551812
 40
5.272290535139051
 40
5.363380529444912
 40
5.49761841578159
 40
5.660621563453832
 40
5.838007341749533
 40
6.015393119910884
 40
6.17839626703851
 40
6.312634151842461
 40
6.403724143059451
 40
6.437283612672546
 40
6.464036846261161
 40
6.522893960004778
 40
6.581751071484044
 40
6.60850430159099
 40
6.637253941281138
 40
6.711397748902989
 40
6.812778057283602
 40
6.923237199249378
 40
7.024617507624022
 40
7.098761315207675
 40
7.127510946007625
 40
7.127510946007625
 40
7.127510946007625
 40
7.127510946007625
 10
188.4418622390564
 20
14.95849128473259
 30
0.0
 10
188.4418622819707
 20
14.94707313408715
 30
0.0
 10
188.4418624481128
 20
14.90555257842624
 30
0.0
 10
188.4418593081787
 20
14.82146922003766
 30
0.0
 10
188.4418788279801
 20
14.70004497322323
 30
0.0
 10
188.4417912187737
 20
14.55980494047443
 30
0.0
 10
188.442111623523
 20
14.42006556794571
 30
0.0
 10
188.441160590974
 20
14.29745038894924
 30
0.0
 10
188.4431978595968
 20
14.21587074438038
 30
0.0
 10
188.4349433178744
 20
14.06271267077691
 30
0.0
 10
188.7430797940903
 20
14.22560236054715
 30
0.0
 10
189.0350645173735
 20
14.39482938688001
 30
0.0
 10
189.0408354448707
 20
14.25973235781906
 30
0.0
 10
189.0455471719891
 20
14.21617221160438
 30
0.0
 10
189.0482535411917
 20
14.17211249350538
 30
0.0
 10
189.0672545672962
 20
14.02272590363128
 30
0.0
 10
188.65839422473
 20
14.08681172241256
 30
0.0
 10
188.3793710348832
 20
13.97296341411012
 30
0.0
 10
188.1018081587166
 20
13.87364095811138
 30
0.0
 10
187.80998371844
 20
13.9163068759635
 30
0.0
 10
187.7869144678658
 20
13.81321679744536
 30
0.0
 10
187.7537474383332
 20
13.78691091244463
 30
0.0
 10
187.7480653962739
 20
13.83455309036298
 30
0.0
 10
187.7284214559044
 20
13.87180336115064
 30
0.0
 10
187.7095089485622
 20
13.93007387847558
 30
0.0
 10
187.6942849867707
 20
13.97385201007799
 30
0.0
 10
187.6477246372935
 20
14.08759421046305
 30
0.0
 10
187.9890897312449
 20
14.05576301120041
 30
0.0
 10
188.267964936739
 20
14.02161435106477
 30
0.0
 10
188.2617753034906
 20
14.16913976479646
 30
0.0
 10
188.2630935452774
 20
14.24013150908828
 30
0.0
 10
188.2624831689948
 20
14.34719767958656
 30
0.0
 10
188.2625871570725
 20
14.47398529785993
 30
0.0
 10
188.2629987964055
 20
14.60849243496045
 30
0.0
 10
188.2613907841969
 20
14.73395549951179
 30
0.0
 10
188.2659902567925
 20
14.84505246719112
 30
0.0
 10
188.256418650221
 20
14.90761886800683
 30
0.0
 10
188.2704001783691
 20
14.96595388294996
 30
0.0
 10
188.2147384386705
 20
14.95289710582233
 30
0.0
 10
188.1575655197821
 20
14.96136307749493
 30
0.0
 10
188.0616048925648
 20
14.95729976080631
 30
0.0
 10
187.963376752282
 20
14.95970889852469
 30
0.0
 10
187.8672582457561
 20
14.95551600613383
 30
0.0
 10
187.8104648525811
 20
14.96429346441157
 30
0.0
 10
187.7550356873384
 20
14.95094936850116
 30
0.0
 10
187.7670679427917
 20
15.00036910959252
 30
0.0
 10
187.7592003173937
 20
15.0439398803039
 30
0.0
 10
187.7666295563828
 20
15.0883046911852
 30
0.0
 10
187.7551930564143
 20
15.13902297763985
 30
0.0
 10
187.8232102370133
 20
15.12162460757738
 30
0.0
 10
187.8968496879747
 20
15.13417450237183
 30
0.0
 10
188.0325064058211
 20
15.12799677011093
 30
0.0
 10
188.1884909024525
 20
15.13029203093079
 30
0.0
 10
188.3615926358143
 20
15.12940968262525
 30
0.0
 10
188.5346942964181
 20
15.13029207142403
 30
0.0
 10
188.6906789811216
 20
15.12799662955545
 30
0.0
 10
188.8263351889797
 20
15.13417486262426
 30
0.0
 10
188.8999756705652
 20
15.1216239421833
 30
0.0
 10
188.9679914174724
 20
15.13902373012137
 30
0.0
 10
188.9565590885922
 20
15.0883013041455
 30
0.0
 10
188.9639539458297
 20
15.04397060811103
 30
0.0
 10
188.956203991227
 20
15.0002830755019
 30
0.0
 10
188.9681203741877
 20
14.95063590098472
 30
0.0
 10
188.9108170223616
 20
14.9646141133842
 30
0.0
 10
188.8520145789773
 20
14.95539755673249
 30
0.0
 10
188.7525293633199
 20
14.95952268164924
 30
0.0
 10
188.649428009835
 20
14.95822760025883
 30
0.0
 10
188.5537846354573
 20
14.95854077077635
 30
0.0
 10
188.4857467971617
 20
14.9584877669714
 30
0.0
 10
188.4514462213443
 20
14.95849051871651
 30
0.0
 10
188.4418622390564
 20
14.95849128473259
 30
0.0
 11
188.4418622390564
 21
14.95849128473259
 31
0.0
 11
188.4418622390564
 21
14.9242366658718
 31
0.0
 11
188.4418622390564
 21
14.8339290343297
 31
0.0
 11
188.4418622390564
 21
14.70625272766674
 31
0.0
 11
188.4418622390564
 21
14.55989208344334
 31
0.0
 11
188.4418622390564
 21
14.41353143921995
 31
0.0
 11
188.4418622390564
 21
14.28585513255699
 31
0.0
 11
188.4418622390564
 21
14.1955475010149
 31
0.0
 11
188.4418622390564
 21
14.1612928821541
 31
0.0
 11
188.7391932644567
 21
14.22709475713763
 31
0.0
 11
189.0384623627245
 21
14.29496038212068
 31
0.0
 11
189.0405487124976
 21
14.27030727882823
 31
0.0
 11
189.0451386819987
 21
14.21607045158484
 31
0.0
 11
189.0497286514996
 21
14.16183362434145
 31
0.0
 11
189.0518150012728
 21
14.137180521049
 31
0.0
 11
188.705639688924
 21
14.05163370140892
 31
0.0
 11
188.3669653138838
 21
13.97060877629897
 31
0.0
 11
188.0563731516688
 21
13.89862764024925
 31
0.0
 11
187.7944444777955
 21
13.84021218778986
 31
0.0
 11
187.7817515029292
 21
13.81283442738008
 31
0.0
 11
187.7569794787513
 21
13.79740260446729
 31
0.0
 11
187.7491867589501
 21
13.81910683390631
 31
0.0
 11
187.7306041194242
 21
13.8708630733378
 31
0.0
 11
187.70842483999
 21
13.93263664943345
 31
0.0
 11
187.689842200464
 21
13.98439288886495
 31
0.0
 11
187.6820494806628
 21
14.00609711830396
 31
0.0
 11
187.9482776335931
 21
14.0579400175966
 31
0.0
 11
188.2626334936289
 21
14.12373968771905
 31
0.0
 11
188.2626334936289
 21
14.15236628569619
 31
0.0
 11
188.2626334936289
 21
14.22908556827494
 31
0.0
 11
188.2626334936289
 21
14.34015676842626
 31
0.0
 11
188.2626334936289
 21
14.47183911912113
 31
0.0
 11
188.2626334936289
 21
14.61039185333051
 31
0.0
 11
188.2626334936289
 21
14.74207420402538
 31
0.0
 11
188.2626334936289
 21
14.8531454041767
 31
0.0
 11
188.2626334936289
 21
14.92986468675545
 31
0.0
 11
188.2626334936289
 21
14.95849128473259
 31
0.0
 11
188.2349191321108
 21
14.95849128473259
 31
0.0
 11
188.1634452524063
 21
14.95849128473259
 31
0.0
 11
188.06571566179
 21
14.95849128473259
 31
0.0
 11
187.9592341675364
 21
14.95849128473259
 31
0.0
 11
187.8615045769201
 21
14.95849128473259
 31
0.0
 11
187.7900306972156
 21
14.95849128473259
 31
0.0
 11
187.7623163356975
 21
14.95849128473259
 31
0.0
 11
187.7623163356975
 21
14.98524451823284
 31
0.0
 11
187.7623163356975
 21
15.04410163193339
 31
0.0
 11
187.7623163356975
 21
15.10295874563394
 31
0.0
 11
187.7623163356975
 21
15.12971197913419
 31
0.0
 11
187.7958758072874
 21
15.12971197913419
 31
0.0
 11
187.8869658016031
 21
15.12971197913419
 31
0.0
 11
188.0212036879629
 21
15.12971197913419
 31
0.0
 11
188.1842068356856
 21
15.12971197913419
 31
0.0
 11
188.3615926140897
 21
15.12971197913419
 31
0.0
 11
188.5389783924938
 21
15.12971197913419
 31
0.0
 11
188.7019815402164
 21
15.12971197913419
 31
0.0
 11
188.8362194265763
 21
15.12971197913419
 31
0.0
 11
188.9273094208918
 21
15.12971197913419
 31
0.0
 11
188.9608688924818
 21
15.12971197913419
 31
0.0
 11
188.9608688924818
 21
15.10295874563394
 31
0.0
 11
188.9608688924818
 21
15.04410163193339
 31
0.0
 11
188.9608688924818
 21
14.98524451823284
 31
0.0
 11
188.9608688924818
 21
14.95849128473259
 31
0.0
 11
188.9321192527877
 21
14.95849128473259
 31
0.0
 11
188.8579754451555
 21
14.95849128473259
 31
0.0
 11
188.7565951367604
 21
14.95849128473259
 31
0.0
 11
188.6461359947778
 21
14.95849128473259
 31
0.0
 11
188.5447556863827
 21
14.95849128473259
 31
0.0
 11
188.4706118787505
 21
14.95849128473259
 31
0.0
 11
188.4418622390564
 21
14.95849128473259
 31
0.0
  0
SPLINE
  5
A9
102
{ACAD_REACTORS
330
C6
102
}
330
48
100
AcDbEntity
  8
_U_30EC_U_30A4_U_30E4_U_30FC_1
  6
Continuous
 62
     2
100
AcDbSpline
210
0.0
220
0.0
230
1.0
 70
    11
 71
     3
 72
    15
 73
    11
 74
     9
 42
0.000000001
 43
0.0000000001
 44
0.00000001
 40
0.0
 40
0.0
 40
0.0
 40
0.0
 40
0.2785535985096532
 40
0.5215624748198807
 40
0.6076917376040478
 40
0.6938210001741236
 40
0.9405019146455025
 40
1.221691403489127
 40
1.300471877081051
 40
1.379252341684821
 40
1.379252341684821
 40
1.379252341684821
 40
1.379252341684821
 10
189.5681493630999
 20
16.22930267330375
 30
0.0
 10
189.6296017794178
 20
16.1769164659271
 30
0.0
 10
189.7446649974113
 20
16.07882876798217
 30
0.0
 10
190.0397348497244
 20
15.92889785897218
 30
0.0
 10
189.9025147631856
 20
15.84343227515008
 30
0.0
 10
189.8041227843779
 20
15.71085785201549
 30
0.0
 10
189.7130033590649
 20
16.01616985781414
 30
0.0
 10
189.3636839480656
 20
16.07967869465367
 30
0.0
 10
189.5119258376569
 20
16.17896509880871
 30
0.0
 10
189.5494081874236
 20
16.21252348402376
 30
0.0
 10
189.5681493630999
 20
16.22930267330375
 30
0.0
 11
189.5681493630999
 21
16.22930267330375
 31
0.0
 11
189.7919222440596
 21
16.06341774278967
 31
0.0
 11
189.9695046306383
 21
15.89753281227559
 31
0.0
 11
189.9066308127979
 21
15.83866743034586
 31
0.0
 11
189.8437569949575
 21
15.77980204841614
 31
0.0
 11
189.6688535117725
 21
15.95375677059485
 31
0.0
 11
189.447825685614
 21
16.12757920110695
 31
0.0
 11
189.507987524357
 21
16.17844093720535
 31
0.0
 11
189.5681493630999
 21
16.22930267330375
 31
0.0
  0
SPLINE
  5
AA
102
{ACAD_REACTORS
330
C7
102
}
330
48
100
AcDbEntity
  8
_U_30EC_U_30A4_U_30E4_U_30FC_1
  6
Continuous
 62
     2
100
AcDbSpline
210
0.0
220
0.0
230
1.0
 70
    11
 71
     3
 72
    35
 73
    31
 74
    29
 42
0.000000001
 43
0.0000000001
 44
0.00000001
 40
0.0
 40
0.0
 40
0.0
 40
0.0
 40
0.0335231036620645
 40
0.0713218571711972
 40
0.4278866681487083
 40
0.8116865841964163
 40
1.198190238000073
 40
1.561379546812703
 40
1.659983174622059
 40
1.7593155738072
 40
2.132719617231083
 40
2.525233363588836
 40
2.910815397779706
 40
3.265244364303294
 40
3.592606723582035
 40
3.964386154603984
 40
4.359942131737808
 40
4.75815411863932
 40
4.84384653869994
 40
4.936650065543253
 40
5.256616602537334
 40
5.58170740441607
 40
5.899719158308164
 40
6.198363494280763
 40
6.466301046615796
 40
6.493895311537118
 40
6.559697020196911
 40
6.638234543442486
 40
6.704036252154238
 40
6.731630508423044
 40
6.731630508423044
 40
6.731630508423044
 40
6.731630508423044
 10
191.9736010568669
 20
16.23463843719128
 30
0.0
 10
191.9676006097788
 20
16.22480690542316
 30
0.0
 10
191.9548344099157
 20
16.20388988579792
 30
0.0
 10
191.794936200655
 20
16.1712712653269
 30
0.0
 10
192.2322025842339
 20
15.88206680336694
 30
0.0
 10
192.4345394828261
 20
15.68041138358433
 30
0.0
 10
192.6819564267973
 20
15.43749387603271
 30
0.0
 10
193.1831513624606
 20
15.3604766275777
 30
0.0
 10
193.012556219897
 20
15.21876939174651
 30
0.0
 10
192.9383299463201
 20
15.01710366209102
 30
0.0
 10
192.6131432248188
 20
15.36956287174721
 30
0.0
 10
192.3277741670664
 20
15.53175212559556
 30
0.0
 10
192.0337604077658
 20
15.73687130053044
 30
0.0
 10
191.8084452691134
 20
16.2182748859545
 30
0.0
 10
191.5993085055521
 20
15.75343046609218
 30
0.0
 10
191.3207873674834
 20
15.54350952252906
 30
0.0
 10
191.0371383177208
 20
15.37424456359979
 30
0.0
 10
190.7078639527832
 20
15.0014236090793
 30
0.0
 10
190.6277012318224
 20
15.19708014458996
 30
0.0
 10
190.4759724909745
 20
15.32491104190589
 30
0.0
 10
190.9083395826794
 20
15.40454031765929
 30
0.0
 10
191.0962565329766
 20
15.60026634915467
 30
0.0
 10
191.3468477420502
 20
15.81632996916749
 30
0.0
 10
191.5714350470161
 20
15.98190992300052
 30
0.0
 10
191.6259775409712
 20
16.26133964636821
 30
0.0
 10
191.7494661029011
 20
16.24737950408072
 30
0.0
 10
191.806027334452
 20
16.24521268867641
 30
0.0
 10
191.8761870984944
 20
16.24046859881354
 30
0.0
 10
191.9333414022105
 20
16.23709429350534
 30
0.0
 10
191.9644190320839
 20
16.23519854711113
 30
0.0
 10
191.9736010568669
 20
16.23463843719128
 30
0.0
 11
191.9736010568669
 21
16.23463843719128
 31
0.0
 11
191.9525319069884
 21
16.20856374969779
 31
0.0
 11
191.9174464559425
 21
16.19450114553465
 31
0.0
 11
192.1512374769094
 21
15.92527961131377
 31
0.0
 11
192.4414585957566
 21
15.67413407969253
 31
0.0
 11
192.7612797483684
 21
15.45710987618778
 31
0.0
 11
193.0838708706289
 21
15.29025232631631
 31
0.0
 11
193.0213299868076
 21
15.21402035584923
 31
0.0
 11
192.9688035818975
 21
15.12971197913419
 31
0.0
 11
192.6436279095814
 21
15.31326404831574
 31
0.0
 11
192.3237227768436
 21
15.54070139743423
 31
0.0
 11
192.0354200158608
 21
15.79673855123305
 31
0.0
 11
191.8050514588095
 21
16.06609003445561
 31
0.0
 11
191.5995531719516
 21
15.81126348721031
 31
0.0
 11
191.3288301341535
 21
15.5564518227775
 31
0.0
 11
191.0119538423246
 21
15.3196946635485
 31
0.0
 11
190.6679957933741
 21
15.1190316319146
 31
0.0
 11
190.6218855341338
 21
15.19126067703548
 31
0.0
 11
190.5636970460348
 21
15.2635558679896
 31
0.0
 11
190.8433040489015
 21
15.41911456961738
 31
0.0
 11
191.1093004621154
 21
15.60601009790399
 31
0.0
 11
191.3499997459746
 21
15.81384496285202
 31
0.0
 11
191.5537153607774
 21
16.03222167446409
 31
0.0
 11
191.7087607668218
 21
16.2507427427428
 31
0.0
 11
191.7363041569865
 21
16.24906789496544
 31
0.0
 11
191.8019845489177
 21
16.24507402718867
 31
0.0
 11
191.880377274771
 21
16.24030715274542
 31
0.0
 11
191.9460576667022
 21
16.23631328496864
 31
0.0
 11
191.9736010568669
 21
16.23463843719128
 31
0.0
  0
SPLINE
  5
AB
102
{ACAD_REACTORS
330
C8
102
}
330
48
100
AcDbEntity
  8
_U_30EC_U_30A4_U_30E4_U_30FC_1
  6
Continuous
 62
     2
100
AcDbSpline
210
0.0
220
0.0
230
1.0
 70
    11
 71
     3
 72
    91
 73
    87
 74
    85
 42
0.000000001
 43
0.0000000001
 44
0.00000001
 40
0.0
 40
0.0
 40
0.0
 40
0.0
 40
0.0267532254356701
 40
0.0856103386464067
 40
0.1444674521996532
 40
0.1712206856618426
 40
0.2039416005642447
 40
0.2955601971652395
 40
0.4362601844616829
 40
0.6162252844507161
 40
0.8256392189704609
 40
1.054685709844402
 40
1.293548478893522
 40
1.532411247938294
 40
1.761457738799559
 40
1.970871673298528
 40
2.150836773256724
 40
2.291536760495585
 40
2.383155356836691
 40
2.415876284101311
 40
2.442629517487952
 40
2.501486630949082
 40
2.560343744424226
 40
2.587096977826497
 40
2.617068194440924
 40
2.699247336756065
 40
2.822032643466378
 40
2.973822353257908
 40
3.14301470482335
 40
3.318007936879929
 40
3.487200288186762
 40
3.638989997548243
 40
3.761775303794741
 40
3.843954445753076
 40
3.873925662229772
 40
3.89081277350048
 40
3.907699884771658
 40
3.937960767857272
 40
3.980983618142306
 40
4.199085915228443
 40
4.439444339237237
 40
4.677588241260877
 40
5.050698317837763
 40
5.448212454763149
 40
5.855291218044673
 40
6.138575438885352
 40
6.417434507584198
 40
6.44455110439388
 40
6.504207617363178
 40
6.563864130314499
 40
6.590980727104093
 40
6.848609460381476
 40
7.109611990668435
 40
7.352910904446102
 40
7.557830220705477
 40
7.587518925913394
 40
7.652834077375813
 40
7.718149228845745
 40
7.747837934062049
 40
7.854880190301012
 40
7.976511257403566
 40
8.369487896592368
 40
8.757514959223661
 40
9.126072419331123
 40
9.460639380392186
 40
9.746695593035927
 40
9.777569943118706
 40
9.807050320931804
 40
9.830377336128937
 40
9.886003295436009
 40
9.952395569429918
 40
10.00802152870627
 40
10.03134854388219
 40
10.21356951009589
 40
10.42203479292872
 40
10.66154556731064
 40
10.91693789564306
 40
11.15832906556567
 40
11.18982674596624
 40
11.27286608520409
 40
11.39026653033351
 40
11.52484752840887
 40
11.65942852648449
 40
11.77682897161485
 40
11.85986831085684
 40
11.89136598230429
 40
11.89136598230429
 40
11.89136598230429
 40
11.89136598230429
 10
190.7027885008196
 20
14.70699600701767
 30
0.0
 10
190.7028237765288
 20
14.7158784731198
 30
0.0
 10
190.7029366710796
 20
14.74430237047342
 30
0.0
 10
190.7012984568489
 20
14.79409639169797
 30
0.0
 10
190.7069750292911
 20
14.83657564478148
 30
0.0
 10
190.6956928731706
 20
14.88730154856841
 30
0.0
 10
190.7632296979031
 20
14.87012900740103
 30
0.0
 10
190.83880292107
 20
14.8829022716599
 30
0.0
 10
190.9828357056
 20
14.87629729457376
 30
0.0
 10
191.1569419185427
 20
14.8788846220646
 30
0.0
 10
191.3639599611003
 20
14.87800591955547
 30
0.0
 10
191.5894688172378
 20
14.87828207920022
 30
0.0
 10
191.8251162293406
 20
14.87818339658656
 30
0.0
 10
192.0607640531348
 20
14.87828184412761
 30
0.0
 10
192.2862717580626
 20
14.87800678190782
 30
0.0
 10
192.4932934632805
 20
14.87888186270729
 30
0.0
 10
192.6673888915288
 20
14.87630522678441
 30
0.0
 10
192.8114492071986
 20
14.88288290449207
 30
0.0
 10
192.8869691915293
 20
14.87016243405598
 30
0.0
 10
192.954577603703
 20
14.8872640019168
 30
0.0
 10
192.9430840140676
 20
14.83674785802934
 30
0.0
 10
192.9505104581733
 20
14.79253252226496
 30
0.0
 10
192.9428838927986
 20
14.74867966503604
 30
0.0
 10
192.9546489459424
 20
14.69878374479323
 30
0.0
 10
192.8930788491983
 20
14.71393227712506
 30
0.0
 10
192.8256791738672
 20
14.70310665350669
 30
0.0
 10
192.7013004056221
 20
14.70852031626231
 30
0.0
 10
192.555442823657
 20
14.7064920539078
 30
0.0
 10
192.3893576440085
 20
14.70715777578381
 30
0.0
 10
192.2188412621724
 20
14.70689643521237
 30
0.0
 10
192.0519790855388
 20
14.70721553391089
 30
0.0
 10
191.9087346827105
 20
14.70635302590757
 30
0.0
 10
191.7773313869834
 20
14.70863300482983
 30
0.0
 10
191.7239859134656
 20
14.70407704374196
 30
0.0
 10
191.6485188456912
 20
14.70999914992873
 30
0.0
 10
191.6769075779232
 20
14.70094169343347
 30
0.0
 10
191.7033652409542
 20
14.69725912268925
 30
0.0
 10
191.6633522907702
 20
14.66654271968267
 30
0.0
 10
191.5713663691867
 20
14.67667591174627
 30
0.0
 10
191.543939620707
 20
14.43032502247778
 30
0.0
 10
191.4478793967234
 20
14.27499558764369
 30
0.0
 10
191.1917277964474
 20
13.94525417931563
 30
0.0
 10
191.7627537732762
 20
14.08430022210445
 30
0.0
 10
192.0173656320517
 20
14.08291779973359
 30
0.0
 10
192.6279647048617
 20
13.99790569242078
 30
0.0
 10
192.3340698578084
 20
14.29685417558198
 30
0.0
 10
192.0133304286517
 20
14.44330856901775
 30
0.0
 10
192.1313543360434
 20
14.50025540818282
 30
0.0
 10
192.1724716466261
 20
14.52420099873343
 30
0.0
 10
192.2156812394411
 20
14.54599758811224
 30
0.0
 10
192.317457409445
 20
14.60928721253897
 30
0.0
 10
192.4328867625247
 20
14.35147151408774
 30
0.0
 10
192.6329591642277
 20
14.21616041113676
 30
0.0
 10
192.7269077387227
 20
14.03792795138875
 30
0.0
 10
192.9558829746394
 20
13.87997821027042
 30
0.0
 10
192.8596031846707
 20
13.82915972576293
 30
0.0
 10
192.8167959763779
 20
13.79881292523047
 30
0.0
 10
192.7718243528779
 20
13.77466130281453
 30
0.0
 10
192.7121720925213
 20
13.72552146747561
 30
0.0
 10
192.6789731061325
 20
13.85997475673604
 30
0.0
 10
192.5582013350796
 20
14.01594265286577
 30
0.0
 10
192.1970976005978
 20
13.88569928059552
 30
0.0
 10
191.8385061955541
 20
13.90224694409479
 30
0.0
 10
191.457092045008
 20
13.89331229351861
 30
0.0
 10
191.170345528289
 20
13.82882671672403
 30
0.0
 10
190.8592055599715
 20
13.94230668192822
 30
0.0
 10
190.8268737818788
 20
13.83122259927763
 30
0.0
 10
190.7896178253318
 20
13.81196313850009
 30
0.0
 10
190.7865737632753
 20
13.85874784087292
 30
0.0
 10
190.7679892860607
 20
13.89806853919131
 30
0.0
 10
190.7512436616778
 20
13.95765983478227
 30
0.0
 10
190.7383730915753
 20
14.00201969871278
 30
0.0
 10
190.7042327806428
 20
14.09106331120195
 30
0.0
 10
190.9482714457754
 20
14.02181042943764
 30
0.0
 10
191.1441394486671
 20
14.00030369057738
 30
0.0
 10
191.2395426381277
 20
14.28226484478458
 30
0.0
 10
191.2945135769597
 20
14.44363045421117
 30
0.0
 10
191.5159619357156
 20
14.71391177589733
 30
0.0
 10
191.3849239381216
 20
14.7054844685373
 30
0.0
 10
191.3110026555854
 20
14.70779008496965
 30
0.0
 10
191.1977459876244
 20
14.70671378321653
 30
0.0
 10
191.0694251807484
 20
14.70707639076504
 30
0.0
 10
190.9404252030415
 20
14.70697724466081
 30
0.0
 10
190.828784094629
 20
14.70699932712568
 30
0.0
 10
190.7514663970026
 20
14.70699579189664
 30
0.0
 10
190.713287653201
 20
14.70699595845076
 30
0.0
 10
190.7027885008196
 20
14.70699600701767
 30
0.0
 11
190.7027885008196
 21
14.70699600701767
 31
0.0
 11
190.7027885008196
 21
14.73374924051793
 31
0.0
 11
190.7027885008196
 21
14.79260635421848
 31
0.0
 11
190.7027885008196
 21
14.85146346791904
 31
0.0
 11
190.7027885008196
 21
14.87821670141929
 31
0.0
 11
190.7355094280989
 21
14.87821670141929
 31
0.0
 11
190.8271280244809
 21
14.87821670141929
 31
0.0
 11
190.9678280117818
 21
14.87821670141929
 31
0.0
 11
191.1477931118179
 21
14.87821670141929
 31
0.0
 11
191.3572070464054
 21
14.87821670141929
 31
0.0
 11
191.5862535373604
 21
14.87821670141929
 31
0.0
 11
191.8251163064992
 21
14.87821670141929
 31
0.0
 11
192.0639790756381
 21
14.87821670141929
 31
0.0
 11
192.2930255665931
 21
14.87821670141929
 31
0.0
 11
192.5024395011806
 21
14.87821670141929
 31
0.0
 11
192.6824046012167
 21
14.87821670141929
 31
0.0
 11
192.8231045885176
 21
14.87821670141929
 31
0.0
 11
192.9147231848996
 21
14.87821670141929
 31
0.0
 11
192.9474441121789
 21
14.87821670141929
 31
0.0
 11
192.9474441121789
 21
14.85146346791904
 31
0.0
 11
192.9474441121789
 21
14.79260635421848
 31
0.0
 11
192.9474441121789
 21
14.73374924051792
 31
0.0
 11
192.9474441121789
 21
14.70699600701767
 31
0.0
 11
192.9174728954758
 21
14.70699600701767
 31
0.0
 11
192.8352937529027
 21
14.70699600701767
 31
0.0
 11
192.7125084457639
 21
14.70699600701767
 31
0.0
 11
192.5607187353642
 21
14.70699600701767
 31
0.0
 11
192.3915263830077
 21
14.70699600701767
 31
0.0
 11
192.2165331499991
 21
14.70699600701767
 31
0.0
 11
192.0473407976426
 21
14.70699600701767
 31
0.0
 11
191.8955510872428
 21
14.70699600701767
 31
0.0
 11
191.7727657801042
 21
14.70699600701767
 31
0.0
 11
191.690586637531
 21
14.70699600701767
 31
0.0
 11
191.6606154208279
 21
14.70699600701767
 31
0.0
 11
191.6766359412525
 21
14.70165583340789
 31
0.0
 11
191.6926564616771
 21
14.6963156597981
 31
0.0
 11
191.670615568142
 21
14.67558114591436
 31
0.0
 11
191.6284861855363
 21
14.66685871536103
 31
0.0
 11
191.5365235541377
 21
14.46909247312651
 31
0.0
 11
191.4279078521763
 21
14.25467511978502
 31
0.0
 11
191.3127500824807
 21
14.04622559051614
 31
0.0
 11
191.685736667502
 21
14.05582441253023
 31
0.0
 11
192.083070003615
 21
14.06781232404989
 31
0.0
 11
192.4899342191145
 21
14.08102711828525
 31
0.0
 11
192.2983119496978
 21
14.28966761302475
 31
0.0
 11
192.0966752013698
 21
14.48229420151827
 31
0.0
 11
192.1204947794749
 21
14.49525327269559
 31
0.0
 11
192.1728978513061
 21
14.52376322928571
 31
0.0
 11
192.2253009231374
 21
14.55227318587582
 31
0.0
 11
192.2491205012425
 21
14.56523225705314
 31
0.0
 11
192.4387101558627
 21
14.39079508370262
 31
0.0
 11
192.6200310940435
 21
14.20305846374085
 31
0.0
 11
192.7777729231147
 21
14.0178238099243
 31
0.0
 11
192.8966252504058
 21
13.85089253500942
 31
0.0
 11
192.8715408217923
 21
13.83501202286062
 31
0.0
 11
192.8163550788425
 21
13.80007489613325
 31
0.0
 11
192.7611693358928
 21
13.76513776940589
 31
0.0
 11
192.7360849072793
 21
13.74925725725709
 31
0.0
 11
192.6775518151612
 21
13.83887824681804
 31
0.0
 11
192.6050015078457
 21
13.93650288221028
 31
0.0
 11
192.2125412924095
 21
13.91636286943755
 31
0.0
 11
191.824947406956
 21
13.89803302999769
 31
0.0
 11
191.4567378976213
 21
13.88202178722391
 31
0.0
 11
191.1224308105412
 21
13.86883756444943
 31
0.0
 11
190.8365441918518
 21
13.85898878500746
 31
0.0
 11
190.821186232174
 21
13.83220523466691
 31
0.0
 11
190.7937434290546
 21
13.82143559057241
 31
0.0
 11
190.7867927192319
 21
13.84370299445573
 31
0.0
 11
190.7702179496548
 21
13.89680218833134
 31
0.0
 11
190.7504351601596
 21
13.96017864553771
 31
0.0
 11
190.7338603905825
 21
14.01327783941332
 31
0.0
 11
190.7269096807598
 21
14.03554524329664
 31
0.0
 11
190.9091199859153
 21
14.03751638912947
 31
0.0
 11
191.1174975848588
 21
14.04356211829466
 31
0.0
 11
191.2303203127216
 21
14.25483550301548
 31
0.0
 11
191.3407936722035
 21
14.48509813155874
 31
0.0
 11
191.4358254265627
 21
14.70699600701767
 31
0.0
 11
191.4043277461597
 21
14.70699600701767
 31
0.0
 11
191.3212884069153
 21
14.70699600701767
 31
0.0
 11
191.2038879617768
 21
14.70699600701767
 31
0.0
 11
191.0693069636912
 21
14.70699600701767
 31
0.0
 11
190.9347259656055
 21
14.70699600701767
 31
0.0
 11
190.817325520467
 21
14.70699600701767
 31
0.0
 11
190.7342861812226
 21
14.70699600701767
 31
0.0
 11
190.7027885008196
 21
14.70699600701767
 31
0.0
  0
SPLINE
  5
AC
102
{ACAD_REACTORS
330
C9
102
}
330
48
100
AcDbEntity
  8
_U_30EC_U_30A4_U_30E4_U_30FC_1
  6
Continuous
 62
     2
100
AcDbSpline
210
0.0
220
0.0
230
1.0
 70
    11
 71
     3
 72
   131
 73
   127
 74
   125
 42
0.000000001
 43
0.0000000001
 44
0.00000001
 40
0.0
 40
0.0
 40
0.0
 40
0.0
 40
0.0195577029826058
 40
0.0426490537461379
 40
0.2863607575856583
 40
0.5344948436189293
 40
0.7842238845573176
 40
0.8737315789467361
 40
0.9803832810312868
 40
1.092842274517031
 40
1.199761146656791
 40
1.289788768186494
 40
1.351573580786189
 40
1.370727117561417
 40
1.416400936017832
 40
1.470914848355975
 40
1.516588666791769
 40
1.53574220355285
 40
1.634216592293208
 40
1.760283341175048
 40
1.897966686682111
 40
2.031216387368928
 40
2.049689751137923
 40
2.101115601646858
 40
2.179502577739975
 40
2.278859318314089
 40
2.393194462258747
 40
2.516516648383859
 40
2.642834515405986
 40
2.766156701983491
 40
2.880491846754604
 40
2.979848588358647
 40
3.058235565443826
 40
3.109661416668978
 40
3.128134780704154
 40
3.146783742386471
 40
3.191254343315332
 40
3.24433215731599
 40
3.288802758225894
 40
3.307451719895137
 40
3.327717853844748
 40
3.383747753580111
 40
3.468388665924503
 40
3.574487837698812
 40
3.694892515728919
 40
3.82244994685206
 40
3.950007377920453
 40
4.070412055800547
 40
4.176511227368104
 40
4.26115213950155
 40
4.317182039076743
 40
4.337448172964664
 40
4.620011002696283
 40
4.885096638397551
 40
4.945373043518361
 40
5.014107710488672
 40
5.070481727652073
 40
5.319246955636596
 40
5.584812164506068
 40
5.859000912056919
 40
6.133746937542101
 40
6.401732212968906
 40
6.420736683995496
 40
6.472845717451147
 40
6.550702743894075
 40
6.646951193874283
 40
6.754234497930607
 40
6.865196086587385
 40
6.972479390357844
 40
7.068727839772006
 40
7.146584865451015
 40
7.198693898189244
 40
7.217698368905385
 40
7.234950401630861
 40
7.276089864269904
 40
7.32519180351601
 40
7.366331266090395
 40
7.383583298769745
 40
7.402779163492122
 40
7.453386443254553
 40
7.524934666445555
 40
7.606953361405894
 40
7.688972056429046
 40
7.760520279784297
 40
7.811127559734539
 40
7.83032342454616
 40
7.847844055299786
 40
7.894799345666831
 40
7.962779392744519
 40
8.04337429356057
 40
8.12817414514948
 40
8.208769044817284
 40
8.276749090376988
 40
8.32370437966955
 40
8.34122501005628
 40
8.358497614800429
 40
8.401679126686634
 40
8.457815092185692
 40
8.513951057728097
 40
8.557132569708052
 40
8.574405174505095
 40
8.602340668616456
 40
8.643455660539995
 40
8.663225271966663
 40
8.715345156564311
 40
8.78903188962865
 40
8.87350204552038
 40
8.957972194324006
 40
9.0316589255679
 40
9.083778811234588
 40
9.103548423003053
 40
9.11955008312359
 40
9.160817522379892
 40
9.217244429110258
 40
9.278724491644743
 40
9.335151398295528
 40
9.376418837357823
 40
9.392420497300611
 40
9.40119630273483
 40
9.417494229384303
 40
9.426270027749576
 40
9.440875075477608
 40
9.475702496998787
 40
9.517270709865949
 40
9.552098131994118
 40
9.566703169884326
 40
9.566703169884326
 40
9.566703169884326
 40
9.566703169884326
 10
194.6170254148479
 20
15.67015871511021
 30
0.0
 10
194.6134345093371
 20
15.66453690702153
 30
0.0
 10
194.6056039123625
 20
15.65227754419107
 30
0.0
 10
194.5129968974546
 20
15.61601916040967
 30
0.0
 10
194.4887622233248
 20
15.40148444212709
 30
0.0
 10
194.3858709845937
 20
15.22197284509701
 30
0.0
 10
194.1220492364305
 20
15.03615573798139
 30
0.0
 10
194.284547156918
 20
14.95959336566075
 30
0.0
 10
194.3607225760838
 20
14.89856693195436
 30
0.0
 10
194.4492171072758
 20
14.83515804544754
 30
0.0
 10
194.538993023311
 20
14.77525634219555
 30
0.0
 10
194.5883817636047
 20
14.72102154849202
 30
0.0
 10
194.6745708157381
 20
14.69286240541828
 30
0.0
 10
194.6411260674229
 20
14.65713309652805
 30
0.0
 10
194.621467116631
 20
14.62550387991899
 30
0.0
 10
194.5919888217882
 20
14.58475872796063
 30
0.0
 10
194.5688989446031
 20
14.55504663489637
 30
0.0
 10
194.5380205968357
 20
14.50211422668487
 30
0.0
 10
194.472919336574
 20
14.62740334938897
 30
0.0
 10
194.3796000122415
 20
14.68213900233929
 30
0.0
 10
194.2950636285138
 20
14.73916423939338
 30
0.0
 10
194.1722498125742
 20
14.89675287427516
 30
0.0
 10
194.1764450847301
 20
14.8203580676683
 30
0.0
 10
194.1751478652677
 20
14.77361280161289
 30
0.0
 10
194.1758126448076
 20
14.69584785812595
 30
0.0
 10
194.1755549986957
 20
14.59902068324417
 30
0.0
 10
194.1756431239921
 20
14.48650279078803
 30
0.0
 10
194.1756077302282
 20
14.36524085945694
 30
0.0
 10
194.1756511758279
 20
14.24086897858955
 30
0.0
 10
194.1755199942405
 20
14.1196768363133
 30
0.0
 10
194.1759477562047
 20
14.00691148919738
 30
0.0
 10
194.174667820231
 20
13.91082913768738
 30
0.0
 10
194.1779759851044
 20
13.83113826468694
 30
0.0
 10
194.1715197740086
 20
13.78815175788778
 30
0.0
 10
194.1806208705555
 20
13.74955432372037
 30
0.0
 10
194.1447910339935
 20
13.75810887724065
 30
0.0
 10
194.1115223815252
 20
13.75342519985441
 30
0.0
 10
194.0604562576041
 20
13.75351298759779
 30
0.0
 10
194.0269723972812
 20
13.75794430283815
 30
0.0
 10
193.9907585408754
 20
13.74960793842504
 30
0.0
 10
194.0009782568665
 20
13.79145277179278
 30
0.0
 10
193.9936487887773
 20
13.83778560820167
 30
0.0
 10
193.9973633136103
 20
13.92374831106009
 30
0.0
 10
193.9959480554896
 20
14.02605142704843
 30
0.0
 10
193.9964105554639
 20
14.14453223931507
 30
0.0
 10
193.996277368623
 20
14.26957683153351
 30
0.0
 10
193.9963015910045
 20
14.39475828107044
 30
0.0
 10
193.9963354925551
 20
14.51286645379054
 30
0.0
 10
193.9962060293132
 20
14.61628748709511
 30
0.0
 10
193.9965507549081
 20
14.69932036153662
 30
0.0
 10
193.995869827869
 20
14.75143368521239
 30
0.0
 10
193.9994586600623
 20
14.87912907821357
 30
0.0
 10
193.7826171386436
 20
14.58048716819614
 30
0.0
 10
193.6021354921951
 20
14.35263981511511
 30
0.0
 10
193.5490322295612
 20
14.49373443289808
 30
0.0
 10
193.5200429133148
 20
14.54325767560938
 30
0.0
 10
193.4196648062821
 20
14.64641779790101
 30
0.0
 10
193.7405127723262
 20
14.72695035023774
 30
0.0
 10
193.8689897005428
 20
14.91066283036428
 30
0.0
 10
194.0906454325359
 20
15.11931995771757
 30
0.0
 10
194.1770224894068
 20
15.29339211228338
 30
0.0
 10
194.4549394229075
 20
15.56967051342508
 30
0.0
 10
194.3346247839283
 20
15.56534559551108
 30
0.0
 10
194.2863197351349
 20
15.56614856202548
 30
0.0
 10
194.2102377454905
 20
15.56574582146579
 30
0.0
 10
194.116701000975
 20
15.56590275611604
 30
0.0
 10
194.0117594788557
 20
15.56582502576219
 30
0.0
 10
193.9033887738717
 20
15.56595464378549
 30
0.0
 10
193.7981454235897
 20
15.56554393490687
 30
0.0
 10
193.7056237819412
 20
15.56682073671586
 30
0.0
 10
193.6268130800707
 20
15.56340766534845
 30
0.0
 10
193.5839674565379
 20
15.57023350036315
 30
0.0
 10
193.5449499586516
 20
15.56065064201118
 30
0.0
 10
193.5526365271863
 20
15.59420779565537
 30
0.0
 10
193.5485464404312
 20
15.62523550322227
 30
0.0
 10
193.5485531368814
 20
15.67236529270894
 30
0.0
 10
193.5526239724912
 20
15.70340941646773
 30
0.0
 10
193.5449495574582
 20
15.73701861635895
 30
0.0
 10
193.5834819405495
 20
15.72748410420866
 30
0.0
 10
193.624122801448
 20
15.73397435498065
 30
0.0
 10
193.6951471850463
 20
15.73100150650248
 30
0.0
 10
193.7729318149633
 20
15.73174761399151
 30
0.0
 10
193.8507292246474
 20
15.73247814044519
 30
0.0
 10
193.9217232089907
 20
15.72954235514154
 30
0.0
 10
193.962427979182
 20
15.73595468772946
 30
0.0
 10
194.0009853489909
 20
15.72650524175998
 30
0.0
 10
193.9927342754927
 20
15.76264692158778
 30
0.0
 10
193.9982346669359
 20
15.80129837613221
 30
0.0
 10
193.9955754206163
 20
15.86913528561833
 30
0.0
 10
193.9965815471532
 20
15.94591641538734
 30
0.0
 10
193.996017801832
 20
16.02849393582752
 30
0.0
 10
193.9970714526592
 20
16.10517329229873
 30
0.0
 10
193.994267586313
 20
16.17331990776695
 30
0.0
 10
194.0000702721303
 20
16.21132399809341
 30
0.0
 10
193.9915654551159
 20
16.24758448077641
 30
0.0
 10
194.0255610233125
 20
16.23755723771847
 30
0.0
 10
194.0594575683099
 20
16.24073266813702
 30
0.0
 10
194.1126669060346
 20
16.23508965640604
 30
0.0
 10
194.1660768574483
 20
16.23434774436419
 30
0.0
 10
194.199591464949
 20
16.22819223482974
 30
0.0
 10
194.2388086183039
 20
16.23346029773587
 30
0.0
 10
194.2120263698492
 20
16.19253380793484
 30
0.0
 10
194.1708111001723
 20
16.20371204538106
 30
0.0
 10
194.1782641540874
 20
16.15867056192119
 30
0.0
 10
194.1742227952184
 20
16.11412278028139
 30
0.0
 10
194.176171404964
 20
16.04223572621697
 30
0.0
 10
194.1752364849758
 20
15.96168630588766
 30
0.0
 10
194.176510719003
 20
15.88173995404989
 30
0.0
 10
194.1732043793864
 20
15.80841837083177
 30
0.0
 10
194.1802106179961
 20
15.76688643002562
 30
0.0
 10
194.1701440380125
 20
15.72752418568107
 30
0.0
 10
194.2029814803921
 20
15.73468063430975
 30
0.0
 10
194.236457729648
 20
15.73027243137938
 30
0.0
 10
194.2915053476019
 20
15.73217943347891
 30
0.0
 10
194.3489502595314
 20
15.73185366407282
 30
0.0
 10
194.4023026248309
 20
15.73106308733075
 30
0.0
 10
194.4398540896638
 20
15.73313959118068
 30
0.0
 10
194.4623172523237
 20
15.73022338167103
 30
0.0
 10
194.4751678073731
 20
15.7357255264405
 30
0.0
 10
194.4858255685888
 20
15.73801118197784
 30
0.0
 10
194.4986635650144
 20
15.74494972588046
 30
0.0
 10
194.514599103307
 20
15.72853046313665
 30
0.0
 10
194.5410623920892
 20
15.71709122319442
 30
0.0
 10
194.5726805253758
 20
15.69644687835184
 30
0.0
 10
194.5987255892151
 20
15.68116869628288
 30
0.0
 10
194.6128517723973
 20
15.67266976323177
 30
0.0
 10
194.6170254148479
 20
15.67015871511021
 30
0.0
 11
194.6170254148479
 21
15.67015871511021
 31
0.0
 11
194.6049990002243
 21
15.65473571164183
 31
0.0
 11
194.5848961795565
 21
15.64337406233912
 31
0.0
 11
194.4778986355813
 21
15.42440620231153
 31
0.0
 11
194.3477039934324
 21
15.21317201512154
 31
0.0
 11
194.1996540366071
 21
15.01206059027473
 31
0.0
 11
194.2734958253735
 21
14.96147384935373
 31
0.0
 11
194.36056643118
 21
14.89988411653733
 31
0.0
 11
194.4518003750404
 21
14.8341316059442
 31
0.0
 11
194.5381321779687
 21
14.77105653169298
 31
0.0
 11
194.6104963609787
 21
14.71749910790236
 31
0.0
 11
194.6598274450843
 21
14.68029954869098
 31
0.0
 11
194.6486940702213
 21
14.66471410869488
 31
0.0
 11
194.6221452532403
 21
14.62754882870417
 31
0.0
 11
194.5904579555533
 21
14.58319026871526
 31
0.0
 11
194.5639091385723
 21
14.54602498872455
 31
0.0
 11
194.5527757637093
 21
14.53043954872845
 31
0.0
 11
194.4807013362947
 21
14.59754008690612
 31
0.0
 11
194.385285698538
 21
14.67993354174664
 31
0.0
 11
194.279326415217
 21
14.76785017366911
 31
0.0
 11
194.175621051109
 21
14.85152024309261
 31
0.0
 11
194.175621051109
 21
14.83304687900857
 31
0.0
 11
194.175621051109
 21
14.78162102763949
 31
0.0
 11
194.175621051109
 21
14.70323405030993
 31
0.0
 11
194.175621051109
 21
14.60387730834443
 31
0.0
 11
194.175621051109
 21
14.48954216306754
 31
0.0
 11
194.175621051109
 21
14.36621997580383
 31
0.0
 11
194.175621051109
 21
14.23990210787784
 31
0.0
 11
194.175621051109
 21
14.11657992061413
 31
0.0
 11
194.175621051109
 21
14.00224477533724
 31
0.0
 11
194.175621051109
 21
13.90288803337174
 31
0.0
 11
194.175621051109
 21
13.82450105604217
 31
0.0
 11
194.175621051109
 21
13.7730752046731
 31
0.0
 11
194.175621051109
 21
13.75460184058906
 31
0.0
 11
194.1569720893626
 21
13.75460184058906
 31
0.0
 11
194.1125014882749
 21
13.75460184058906
 31
0.0
 11
194.0594236740736
 21
13.75460184058906
 31
0.0
 11
194.0149530729859
 21
13.75460184058906
 31
0.0
 11
193.9963041112395
 21
13.75460184058906
 31
0.0
 11
193.9963041112395
 21
13.77486797460213
 31
0.0
 11
193.9963041112395
 21
13.83089787452061
 31
0.0
 11
193.9963041112395
 21
13.91553878716342
 31
0.0
 11
193.9963041112395
 21
14.02163795934948
 31
0.0
 11
193.9963041112395
 21
14.1420426378977
 31
0.0
 11
193.9963041112395
 21
14.26960006962701
 31
0.0
 11
193.9963041112395
 21
14.39715750135631
 31
0.0
 11
193.9963041112395
 21
14.51756217990454
 31
0.0
 11
193.9963041112395
 21
14.62366135209059
 31
0.0
 11
193.9963041112395
 21
14.7083022647334
 31
0.0
 11
193.9963041112395
 21
14.76433216465188
 31
0.0
 11
193.9963041112395
 21
14.78459829866495
 31
0.0
 11
193.7883272849481
 21
14.59331998274051
 31
0.0
 11
193.5763486358425
 21
14.43414885430806
 31
0.0
 11
193.5495629014482
 21
14.48814671952089
 31
0.0
 11
193.5138765415024
 21
14.5468914057202
 31
0.0
 11
193.4799697494124
 21
14.59192871537971
 31
0.0
 11
193.6830287742319
 21
14.73563387201048
 31
0.0
 11
193.881853195826
 21
14.91168423529983
 31
0.0
 11
194.0677041444178
 21
15.11327514524944
 31
0.0
 11
194.2318427502303
 21
15.33360194186104
 31
0.0
 11
194.3655301434864
 21
15.5658599651363
 31
0.0
 11
194.3465256724482
 21
15.5658599651363
 31
0.0
 11
194.2944166389562
 21
15.5658599651363
 31
0.0
 11
194.2165596124447
 21
15.5658599651363
 31
0.0
 11
194.1203111623478
 21
15.5658599651363
 31
0.0
 11
194.0130278580997
 21
15.5658599651363
 31
0.0
 11
193.9020662691345
 21
15.5658599651363
 31
0.0
 11
193.7947829648864
 21
15.5658599651363
 31
0.0
 11
193.6985345147895
 21
15.5658599651363
 31
0.0
 11
193.620677488278
 21
15.5658599651363
 31
0.0
 11
193.568568454786
 21
15.5658599651363
 31
0.0
 11
193.5495639837478
 21
15.5658599651363
 31
0.0
 11
193.5495639837478
 21
15.58311199790976
 31
0.0
 11
193.5495639837478
 21
15.62425146067726
 31
0.0
 11
193.5495639837478
 21
15.67335340010943
 31
0.0
 11
193.5495639837478
 21
15.71449286287693
 31
0.0
 11
193.5495639837478
 21
15.73174489565039
 31
0.0
 11
193.5687598486009
 21
15.73174489565039
 31
0.0
 11
193.6193671286684
 21
15.73174489565039
 31
0.0
 11
193.690915352212
 21
15.73174489565039
 31
0.0
 11
193.7729340474937
 21
15.73174489565039
 31
0.0
 11
193.8549527427753
 21
15.73174489565039
 31
0.0
 11
193.9265009663189
 21
15.73174489565039
 31
0.0
 11
193.9771082463864
 21
15.73174489565039
 31
0.0
 11
193.9963041112395
 21
15.73174489565039
 31
0.0
 11
193.9963041112395
 21
15.74926552655212
 31
0.0
 11
193.9963041112395
 21
15.79622081736876
 31
0.0
 11
193.9963041112395
 21
15.86420086526747
 31
0.0
 11
193.9963041112395
 21
15.94479576741543
 31
0.0
 11
193.9963041112395
 21
16.02959562097981
 31
0.0
 11
193.9963041112395
 21
16.11019052312777
 31
0.0
 11
193.9963041112395
 21
16.17817057102648
 31
0.0
 11
193.9963041112395
 21
16.22512586184312
 31
0.0
 11
193.9963041112395
 21
16.24264649274485
 31
0.0
 11
194.0135484112111
 21
16.24165806167514
 31
0.0
 11
194.0566591611401
 21
16.23918698400086
 31
0.0
 11
194.1127031360477
 21
16.2359745830243
 31
0.0
 11
194.1687471109553
 21
16.23276218204774
 31
0.0
 11
194.2118578608843
 21
16.23029110437346
 31
0.0
 11
194.2291021608559
 21
16.22930267330375
 31
0.0
 11
194.2143774674851
 21
16.20556293372634
 31
0.0
 11
194.175621051109
 21
16.19183767331307
 31
0.0
 11
194.175621051109
 21
16.17206806177288
 31
0.0
 11
194.175621051109
 21
16.11994817680328
 31
0.0
 11
194.175621051109
 21
16.04626144288074
 31
0.0
 11
194.175621051109
 21
15.96179128448173
 31
0.0
 11
194.175621051109
 21
15.87732112608272
 31
0.0
 11
194.175621051109
 21
15.80363439216018
 31
0.0
 11
194.175621051109
 21
15.75151450719058
 31
0.0
 11
194.175621051109
 21
15.73174489565039
 31
0.0
 11
194.1916227112935
 21
15.73174489565039
 31
0.0
 11
194.232890150717
 21
15.73174489565039
 31
0.0
 11
194.2893170576837
 21
15.73174489565039
 31
0.0
 11
194.3507971204981
 21
15.73174489565039
 31
0.0
 11
194.4072240274648
 21
15.73174489565039
 31
0.0
 11
194.4484914668882
 21
15.73174489565039
 31
0.0
 11
194.4644931270728
 21
15.73174489565039
 31
0.0
 11
194.4728206422924
 21
15.73451387455914
 31
0.0
 11
194.4882860277004
 21
15.73965626396112
 31
0.0
 11
194.49661354292
 21
15.74242524286987
 31
0.0
 11
194.5091363776005
 21
15.73490952398287
 31
0.0
 11
194.5389985218386
 21
15.71698742509847
 31
0.0
 11
194.5746404359293
 21
15.69559653288161
 31
0.0
 11
194.6045025801674
 21
15.67767443399721
 31
0.0
 11
194.6170254148479
 21
15.67015871511021
 31
0.0
  0
SPLINE
  5
AD
102
{ACAD_REACTORS
330
CA
102
}
330
48
100
AcDbEntity
  8
_U_30EC_U_30A4_U_30E4_U_30FC_1
  6
Continuous
 62
     2
100
AcDbSpline
210
0.0
220
0.0
230
1.0
 70
    11
 71
     3
 72
   124
 73
   120
 74
   118
 42
0.000000001
 43
0.0000000001
 44
0.00000001
 40
0.0
 40
0.0
 40
0.0
 40
0.0
 40
0.027818722962451
 40
0.1011590162384269
 40
0.2048470170590239
 40
0.3237088716559245
 40
0.4425707262522
 40
0.5462587270699547
 40
0.6195990203311798
 40
0.647417752257866
 40
0.6750060736115242
 40
0.7357003855242741
 40
0.7963946998054456
 40
0.8239830245571766
 40
0.854093381110286
 40
0.937339662940954
 40
1.063094687343235
 40
1.220731268638073
 40
1.399622220914748
 40
1.589140358637732
 40
1.778658496423898
 40
1.957549448940509
 40
2.115186030873159
 40
2.240941056914463
 40
2.324187341760532
 40
2.354297700109382
 40
2.38188602467189
 40
2.442580338710477
 40
2.503274652750499
 40
2.530862977314606
 40
2.560983949278559
 40
2.640393784452905
 40
2.752662861759128
 40
2.881361560118145
 40
3.010060258455192
 40
3.122329335705339
 40
3.201739170817953
 40
3.231860142753313
 40
3.26429802403037
 40
3.352343701778243
 40
3.482095226868767
 40
3.639650650173031
 40
3.811108022565489
 40
3.982565394927998
 40
4.140120818152583
 40
4.269872343141293
 40
4.357918020802356
 40
4.390355902043985
 40
4.423256253992554
 40
4.508104530073076
 40
4.624121560636843
 40
4.7505281760316
 40
4.866545206602047
 40
4.951393482692004
 40
4.984293834645405
 40
5.011450833242319
 40
5.071196230152098
 40
5.130941627057166
 40
5.15809862564883
 40
5.190998977601521
 40
5.275847253689347
 40
5.391864284256781
 40
5.518270899648326
 40
5.634287930209365
 40
5.719136206288039
 40
5.752036558235926
 40
5.782130946282952
 40
5.862783906229127
 40
5.979550131774997
 40
6.117984316640407
 40
6.263641154587956
 40
6.402075339414165
 40
6.518841564907961
 40
6.599494524815547
 40
6.629588912848784
 40
6.654403028226361
 40
6.713575149488128
 40
6.784199939329446
 40
6.843372060493548
 40
6.868186175802794
 40
6.896246243201862
 40
6.939586233758258
 40
6.96784656456489
 40
7.043584251089825
 40
7.153234334451688
 40
7.283231855734438
 40
7.420011856035473
 40
7.550009376579827
 40
7.659659458835228
 40
7.735397144417223
 40
7.763657474851395
 40
7.796409728011052
 40
7.880876065096326
 40
7.996370852465712
 40
8.122208446418608
 40
8.237703224799201
 40
8.322169562010895
 40
8.354921815205909
 40
8.382078813307686
 40
8.441824209206986
 40
8.501569605240132
 40
8.528726603485707
 40
8.561478856695755
 40
8.645945193877806
 40
8.761439980865317
 40
8.88727758076446
 40
9.00277236200098
 40
9.0872386966612
 40
9.119990949235655
 40
9.152428830613355
 40
9.24047450863857
 40
9.370226034149525
 40
9.527781457984409
 40
9.6992388309814
 40
9.870696203978595
 40
10.02825162781402
 40
10.15800315332564
 40
10.24604883135119
 40
10.27848670378521
 40
10.27848670378521
 40
10.27848670378521
 40
10.27848670378521
 10
195.3821827564383
 20
14.0141051738575
 30
0.0
 10
195.3914554737523
 20
14.01410498511267
 30
0.0
 10
195.4251744536861
 20
14.01410430876707
 30
0.0
 10
195.4934706812465
 20
14.01411807243297
 30
0.0
 10
195.592014171158
 20
14.01403224219538
 30
0.0
 10
195.7062066464812
 20
14.01441755612243
 30
0.0
 10
195.818589441707
 20
14.01300835897538
 30
0.0
 10
195.9214376600118
 20
14.01719117422236
 30
0.0
 10
195.9806839874849
 20
14.00823089251976
 30
0.0
 10
196.0371265937032
 20
14.02164434526054
 30
0.0
 10
196.0246255586955
 20
13.97087198613354
 30
0.0
 10
196.0329549635703
 20
13.92589320939059
 30
0.0
 10
196.024817084112
 20
13.88056752990481
 30
0.0
 10
196.0370529214457
 20
13.82931932408459
 30
0.0
 10
195.9747773490333
 20
13.84447955365269
 30
0.0
 10
195.9060513026868
 20
13.83359750710735
 30
0.0
 10
195.7782756749592
 20
13.83911304747965
 30
0.0
 10
195.6262984511643
 20
13.83700851253691
 30
0.0
 10
195.4502695972523
 20
13.83771002588467
 30
0.0
 10
195.2644431934287
 20
13.83745237531284
 30
0.0
 10
195.0786167437175
 20
13.83771005144596
 30
0.0
 10
194.9025880142168
 20
13.83700841847724
 30
0.0
 10
194.7506104154195
 20
13.83911332229982
 30
0.0
 10
194.6228357664554
 20
13.83359680767633
 30
0.0
 10
194.5541077836581
 20
13.84448077125935
 30
0.0
 10
194.4918349042883
 20
13.82931786684202
 30
0.0
 10
194.5040616290017
 20
13.88057510805165
 30
0.0
 10
194.4960004462597
 20
13.92582473272418
 30
0.0
 10
194.5040675809892
 20
13.97106357955316
 30
0.0
 10
194.4918238487083
 20
14.02234176909951
 30
0.0
 10
194.5525017120697
 20
14.00749577363128
 30
0.0
 10
194.6162810745736
 20
14.01756448170728
 30
0.0
 10
194.7277314353502
 20
14.01294644211992
 30
0.0
 10
194.8497533443824
 20
14.01413328905462
 30
0.0
 10
194.9719538137823
 20
14.01515863900628
 30
0.0
 10
195.0829794287392
 20
14.01092475623394
 30
0.0
 10
195.1476517413958
 20
14.02018584521732
 30
0.0
 10
195.2091162810501
 20
14.00604423049676
 30
0.0
 10
195.1930065601337
 20
14.0723552788451
 30
0.0
 10
195.2042980327358
 20
14.14447790121969
 30
0.0
 10
195.1987400822561
 20
14.27513760888279
 30
0.0
 10
195.200803506169
 20
14.42607323708235
 30
0.0
 10
195.2000167127295
 20
14.5933587310788
 30
0.0
 10
195.2007845215627
 20
14.76061110332297
 30
0.0
 10
195.1988038785627
 20
14.91163289269908
 30
0.0
 10
195.2041306156621
 20
15.0420606955299
 30
0.0
 10
195.1933101388425
 20
15.11465442605894
 30
0.0
 10
195.2090326429875
 20
15.18150469436793
 30
0.0
 10
195.143270813249
 20
15.16580512490819
 30
0.0
 10
195.0756367830764
 20
15.1760924308399
 30
0.0
 10
194.9615885293809
 20
15.17113786847117
 30
0.0
 10
194.8451242674902
 20
15.17414128030469
 30
0.0
 10
194.7306554121477
 20
15.16880303143384
 30
0.0
 10
194.6640324657812
 20
15.18001268074819
 30
0.0
 10
194.5990769715186
 20
15.16349132665006
 30
0.0
 10
194.6107989758707
 20
15.21473720477053
 30
0.0
 10
194.6032830189122
 20
15.25950333784085
 30
0.0
 10
194.6107989878835
 20
15.30426944897955
 30
0.0
 10
194.5990769505347
 20
15.35551536129734
 30
0.0
 10
194.66403263392
 20
15.33899381766809
 30
0.0
 10
194.7306533339821
 20
15.35020571373937
 30
0.0
 10
194.8451352858063
 20
15.34485436710657
 30
0.0
 10
194.9615454436962
 20
15.3479118877111
 30
0.0
 10
195.0757660174641
 20
15.34278499010701
 30
0.0
 10
195.1430150439227
 20
15.35345733355591
 30
0.0
 10
195.2083325941438
 20
15.3374208266907
 30
0.0
 10
195.1941391448553
 20
15.39949685750047
 30
0.0
 10
195.2036059462994
 20
15.46586761628756
 30
0.0
 10
195.1990269004085
 20
15.5823997274196
 30
0.0
 10
195.2007696555948
 20
15.7142668502237
 30
0.0
 10
195.1997551495392
 20
15.85615960150267
 30
0.0
 10
195.2017191344373
 20
15.98769050702575
 30
0.0
 10
195.196466855385
 20
16.10524577282997
 30
0.0
 10
195.2073408763474
 20
16.16947789001579
 30
0.0
 10
195.1919536641853
 20
16.23108802545042
 30
0.0
 10
195.24075915378
 20
16.21702407382105
 30
0.0
 10
195.2853995564726
 20
16.21954742075308
 30
0.0
 10
195.3538643946742
 20
16.21512797401702
 30
0.0
 10
195.3959106169103
 20
16.20613025544029
 30
0.0
 10
195.4487544758774
 20
16.21411714866503
 30
0.0
 10
195.4207035002014
 20
16.17113917611669
 30
0.0
 10
195.3749142248594
 20
16.18259552043831
 30
0.0
 10
195.3869539073265
 20
16.12173520005132
 30
0.0
 10
195.3796086070641
 20
16.05769299468767
 30
0.0
 10
195.3831195826162
 20
15.94909368863905
 30
0.0
 10
195.3819806760173
 20
15.82494319144746
 30
0.0
 10
195.3819174780263
 20
15.69189719829872
 30
0.0
 10
195.3832872966869
 20
15.5679738124955
 30
0.0
 10
195.3791638801313
 20
15.45868337849331
 30
0.0
 10
195.3877763103564
 20
15.39608580094163
 30
0.0
 10
195.3746757454402
 20
15.33740133296358
 30
0.0
 10
195.4393884328198
 20
15.35362113810895
 30
0.0
 10
195.5060405953156
 20
15.34270260383305
 30
0.0
 10
195.6198779541103
 20
15.34793740173749
 30
0.0
 10
195.7357259122097
 20
15.34485547516906
 30
0.0
 10
195.849692426328
 20
15.35018259812506
 30
0.0
 10
195.9160341018099
 20
15.33904208166535
 30
0.0
 10
195.980718852548
 20
15.35546979593171
 30
0.0
 10
195.9689820772722
 20
15.30425925210043
 30
0.0
 10
195.9765168063041
 20
15.25950334120995
 30
0.0
 10
195.9689820992257
 20
15.21474739010021
 30
0.0
 10
195.9807188140736
 20
15.16353690871035
 30
0.0
 10
195.9160344075252
 20
15.17996427794215
 30
0.0
 10
195.8496886430824
 20
15.16882784447264
 30
0.0
 10
195.7357459487012
 20
15.17413115893116
 30
0.0
 10
195.6197995623054
 20
15.17114764593538
 30
0.0
 10
195.5062756882122
 20
15.17606892268388
 30
0.0
 10
195.4389231318804
 20
15.16585087513514
 30
0.0
 10
195.3734285122495
 20
15.1814599613881
 30
0.0
 10
195.3891713619218
 20
15.11463851827406
 30
0.0
 10
195.3783275998211
 20
15.04207057815873
 30
0.0
 10
195.3836581629792
 20
14.91162247614411
 30
0.0
 10
195.3817136151854
 20
14.7606455818522
 30
0.0
 10
195.3823133683214
 20
14.59322243934152
 30
0.0
 10
195.3821506559603
 20
14.42656176118365
 30
0.0
 10
195.3821895488136
 20
14.27360142921629
 30
0.0
 10
195.3821816413099
 20
14.14849178985698
 30
0.0
 10
195.3821828382745
 20
14.06507890991413
 30
0.0
 10
195.3821827716208
 20
14.02491778281969
 30
0.0
 10
195.3821827564383
 20
14.0141051738575
 30
0.0
 11
195.3821827564383
 21
14.0141051738575
 31
0.0
 11
195.4100014883675
 21
14.0141051738575
 31
0.0
 11
195.4833417816353
 21
14.0141051738575
 31
0.0
 11
195.5870297824622
 21
14.0141051738575
 31
0.0
 11
195.7058916370687
 21
14.0141051738575
 31
0.0
 11
195.8247534916751
 21
14.0141051738575
 31
0.0
 11
195.928441492502
 21
14.0141051738575
 31
0.0
 11
196.0017817857698
 21
14.0141051738575
 31
0.0
 11
196.029600517699
 21
14.0141051738575
 31
0.0
 11
196.029600517699
 21
13.98651684921162
 31
0.0
 11
196.029600517699
 21
13.9258225349907
 31
0.0
 11
196.029600517699
 21
13.86512822076978
 31
0.0
 11
196.029600517699
 21
13.8375398961239
 31
0.0
 11
195.9994901593494
 21
13.8375398961239
 31
0.0
 11
195.9162438745004
 21
13.8375398961239
 31
0.0
 11
195.7904888484521
 21
13.8375398961239
 31
0.0
 11
195.6328522665041
 21
13.8375398961239
 31
0.0
 11
195.4539613139564
 21
13.8375398961239
 31
0.0
 11
195.2644431761089
 21
13.8375398961239
 31
0.0
 11
195.0749250382613
 21
13.8375398961239
 31
0.0
 11
194.8960340857136
 21
13.8375398961239
 31
0.0
 11
194.7383975037656
 21
13.8375398961239
 31
0.0
 11
194.6126424777172
 21
13.8375398961239
 31
0.0
 11
194.5293961928683
 21
13.8375398961239
 31
0.0
 11
194.4992858345187
 21
13.8375398961239
 31
0.0
 11
194.4992858345187
 21
13.86512822076978
 31
0.0
 11
194.4992858345187
 21
13.9258225349907
 31
0.0
 11
194.4992858345187
 21
13.98651684921163
 31
0.0
 11
194.4992858345187
 21
14.0141051738575
 31
0.0
 11
194.5294068064947
 21
14.0141051738575
 31
0.0
 11
194.608816641704
 21
14.0141051738575
 31
0.0
 11
194.721085719069
 21
14.0141051738575
 31
0.0
 11
194.8497844175118
 21
14.0141051738575
 31
0.0
 11
194.9784831159545
 21
14.0141051738575
 31
0.0
 11
195.0907521933195
 21
14.0141051738575
 31
0.0
 11
195.1701620285289
 21
14.0141051738575
 31
0.0
 11
195.2002830005048
 21
14.0141051738575
 31
0.0
 11
195.2002830005048
 21
14.04654305523828
 31
0.0
 11
195.2002830005048
 21
14.13458873327183
 31
0.0
 11
195.2002830005048
 21
14.26434025879496
 31
0.0
 11
195.2002830005048
 21
14.42189568264447
 31
0.0
 11
195.2002830005048
 21
14.59335305565718
 31
0.0
 11
195.2002830005048
 21
14.76481042866988
 31
0.0
 11
195.2002830005048
 21
14.92236585251939
 31
0.0
 11
195.2002830005048
 21
15.05211737804252
 31
0.0
 11
195.2002830005048
 21
15.14016305607607
 31
0.0
 11
195.2002830005048
 21
15.17260093745685
 31
0.0
 11
195.1673826485529
 21
15.17260093745685
 31
0.0
 11
195.0825343724662
 21
15.17260093745685
 31
0.0
 11
194.9665173418988
 21
15.17260093745685
 31
0.0
 11
194.8401107265044
 21
15.17260093745685
 31
0.0
 11
194.724093695937
 21
15.17260093745685
 31
0.0
 11
194.6392454198503
 21
15.17260093745685
 31
0.0
 11
194.6063450678984
 21
15.17260093745685
 31
0.0
 11
194.6063450678984
 21
15.19975793614797
 31
0.0
 11
194.6063450678984
 21
15.25950333326844
 31
0.0
 11
194.6063450678984
 21
15.31924873038891
 31
0.0
 11
194.6063450678984
 21
15.34640572908003
 31
0.0
 11
194.6392454198504
 21
15.34640572908003
 31
0.0
 11
194.724093695937
 21
15.34640572908003
 31
0.0
 11
194.8401107265044
 21
15.34640572908003
 31
0.0
 11
194.9665173418988
 21
15.34640572908003
 31
0.0
 11
195.0825343724662
 21
15.34640572908003
 31
0.0
 11
195.1673826485529
 21
15.34640572908003
 31
0.0
 11
195.2002830005048
 21
15.34640572908003
 31
0.0
 11
195.2002830005048
 21
15.37650011731363
 31
0.0
 11
195.2002830005048
 21
15.45715307777967
 31
0.0
 11
195.2002830005048
 21
15.57391930412602
 31
0.0
 11
195.2002830005048
 21
15.71235349000057
 31
0.0
 11
195.2002830005048
 21
15.85801032905118
 31
0.0
 11
195.2002830005048
 21
15.99644451492573
 31
0.0
 11
195.2002830005048
 21
16.11321074127208
 31
0.0
 11
195.2002830005048
 21
16.19386370173812
 31
0.0
 11
195.2002830005048
 21
16.22395808997172
 31
0.0
 11
195.2250405288618
 21
16.22228324219437
 31
0.0
 11
195.2840777118669
 21
16.21828937441759
 31
0.0
 11
195.3545414464214
 21
16.21352249997435
 31
0.0
 11
195.4135786294265
 21
16.20952863219757
 31
0.0
 11
195.4383361577835
 21
16.20785378442022
 31
0.0
 11
195.423306722403
 21
16.18415814206504
 31
0.0
 11
195.3821827564383
 21
16.17047697887398
 31
0.0
 11
195.3821827564383
 21
16.14221664794826
 31
0.0
 11
195.3821827564383
 21
16.06647896106734
 31
0.0
 11
195.3821827564383
 21
15.95682887707555
 31
0.0
 11
195.3821827564383
 21
15.82683135481724
 31
0.0
 11
195.3821827564383
 21
15.69005135313677
 31
0.0
 11
195.3821827564383
 21
15.56005383087846
 31
0.0
 11
195.3821827564383
 21
15.45040374688667
 31
0.0
 11
195.3821827564383
 21
15.37466606000575
 31
0.0
 11
195.3821827564383
 21
15.34640572908003
 31
0.0
 11
195.4149350096115
 21
15.34640572908003
 31
0.0
 11
195.4994013467422
 21
15.34640572908003
 31
0.0
 11
195.6148961342476
 21
15.34640572908003
 31
0.0
 11
195.7407337385445
 21
15.34640572908003
 31
0.0
 11
195.8562285260498
 21
15.34640572908003
 31
0.0
 11
195.9406948631806
 21
15.34640572908003
 31
0.0
 11
195.9734471163538
 21
15.34640572908003
 31
0.0
 11
195.9734471163538
 21
15.31924873038891
 31
0.0
 11
195.9734471163538
 21
15.25950333326844
 31
0.0
 11
195.9734471163538
 21
15.19975793614797
 31
0.0
 11
195.9734471163538
 21
15.17260093745685
 31
0.0
 11
195.9406948631806
 21
15.17260093745685
 31
0.0
 11
195.8562285260498
 21
15.17260093745685
 31
0.0
 11
195.7407337385445
 21
15.17260093745685
 31
0.0
 11
195.6148961342476
 21
15.17260093745685
 31
0.0
 11
195.4994013467422
 21
15.17260093745685
 31
0.0
 11
195.4149350096114
 21
15.17260093745685
 31
0.0
 11
195.3821827564383
 21
15.17260093745685
 31
0.0
 11
195.3821827564383
 21
15.14016305607607
 31
0.0
 11
195.3821827564383
 21
15.05211737804252
 31
0.0
 11
195.3821827564383
 21
14.92236585251939
 31
0.0
 11
195.3821827564383
 21
14.76481042866988
 31
0.0
 11
195.3821827564383
 21
14.59335305565718
 31
0.0
 11
195.3821827564383
 21
14.42189568264447
 31
0.0
 11
195.3821827564383
 21
14.26434025879496
 31
0.0
 11
195.3821827564383
 21
14.13458873327183
 31
0.0
 11
195.3821827564383
 21
14.04654305523828
 31
0.0
 11
195.3821827564383
 21
14.0141051738575
 31
0.0
  0
SPLINE
  5
AE
102
{ACAD_REACTORS
330
CB
102
}
330
48
100
AcDbEntity
  8
_U_30EC_U_30A4_U_30E4_U_30FC_1
  6
Continuous
 62
     2
100
AcDbSpline
210
0.0
220
0.0
230
1.0
 70
     8
 71
     3
 72
    62
 73
    58
 74
    56
 42
0.000000001
 43
0.0000000001
 44
0.00000001
 40
0.0
 40
0.0
 40
0.0
 40
0.0
 40
0.0598250028308485
 40
0.2024846486897331
 40
0.3727558389221031
 40
0.515415484793607
 40
0.5752404975785339
 40
0.9332326775487261
 40
1.290451762839482
 40
1.602077253145884
 40
1.699931634112135
 40
1.799359756425048
 40
2.270120149657082
 40
2.804661928461539
 40
2.882342287383252
 40
3.076543185719099
 40
3.329004354835561
 40
3.581465524568383
 40
3.775666424543665
 40
3.853346784558285
 40
3.89912067959503
 40
3.984129341792028
 40
4.029903236817377
 40
4.105797496059532
 40
4.295533144152495
 40
4.542189486611738
 40
4.78884582887569
 40
4.978581476410078
 40
5.054475735244321
 40
5.621734664339349
 40
6.130867242037351
 40
6.225249780948588
 40
6.31891303972728
 40
6.663579954558907
 40
7.047498900224759
 40
7.435230791575685
 40
7.498943906668097
 40
7.650875181210091
 40
7.832212509001601
 40
7.984143783696987
 40
8.047856898903113
 40
8.09155463273262
 40
8.172707566964275
 40
8.216405300767999
 40
8.289021782160884
 40
8.462184160757257
 40
8.668861838005338
 40
8.84202421526393
 40
8.914640695475125
 40
8.98988158086133
 40
9.155411528827234
 40
9.320941477744014
 40
9.396182352487264
 40
9.45470901114381
 40
9.583467660170745
 40
9.712226309013024
 40
9.770752957989478
 40
9.770752957989478
 40
9.770752957989478
 40
9.770752957989478
 10
187.1521871691833
 20
14.93980288195945
 30
0.0
 10
187.1322348171623
 20
14.93980875568666
 30
0.0
 10
187.0647037716466
 20
14.93982863806153
 30
0.0
 10
186.9410612161788
 20
14.93949362520321
 30
0.0
 10
186.7863180150056
 20
14.94107673750506
 30
0.0
 10
186.669734948248
 20
14.93686078860491
 30
0.0
 10
186.455094263424
 20
14.9521520533162
 30
0.0
 10
186.8518948407229
 20
14.59198721286187
 30
0.0
 10
186.8945656069267
 20
14.3751050339716
 30
0.0
 10
187.3189162146611
 20
14.1932506251144
 30
0.0
 10
187.1439821496074
 20
14.08985196568067
 30
0.0
 10
187.0194523925083
 20
13.87831523212719
 30
0.0
 10
186.7666277235943
 20
14.34806081001557
 30
0.0
 10
186.4797602893626
 20
14.99511516984516
 30
0.0
 10
186.490633592666
 20
14.68782672154688
 30
0.0
 10
186.488289277796
 20
14.52288616971773
 30
0.0
 10
186.4861096126411
 20
14.28879670711688
 30
0.0
 10
186.4980774396346
 20
14.04498072421778
 30
0.0
 10
186.4687984740631
 20
13.8985579686098
 30
0.0
 10
186.511452262547
 20
13.75113490174533
 30
0.0
 10
186.4239814005639
 20
13.76685797306215
 30
0.0
 10
186.3768527606744
 20
13.76694303543449
 30
0.0
 10
186.2898973207713
 20
13.75109425482904
 30
0.0
 10
186.3313474021722
 20
13.89527771422758
 30
0.0
 10
186.3029875004285
 20
14.0385505269845
 30
0.0
 10
186.3145973775299
 20
14.2767494736526
 30
0.0
 10
186.3124175648272
 20
14.50517235240342
 30
0.0
 10
186.3103111127994
 20
14.66705729375991
 30
0.0
 10
186.3208035438323
 20
14.98153709333748
 30
0.0
 10
186.0128963252894
 20
14.2922947087243
 30
0.0
 10
185.7055258267455
 20
13.81476750243051
 30
0.0
 10
185.5851367066275
 20
14.03741112637421
 30
0.0
 10
185.4074607910721
 20
14.15011034955561
 30
0.0
 10
185.8853326362895
 20
14.32548143465456
 30
0.0
 10
185.9353959057207
 20
14.56091929252026
 30
0.0
 10
186.3583799621717
 20
14.95322989344603
 30
0.0
 10
186.127675427354
 20
14.9365530702906
 30
0.0
 10
186.004968585934
 20
14.94269518948765
 30
0.0
 10
185.8325483095662
 20
14.93312822699569
 30
0.0
 10
185.7213224694448
 20
14.9544881848966
 30
0.0
 10
185.6025779627448
 20
14.92136265357415
 30
0.0
 10
185.6183169706686
 20
15.00203900606878
 30
0.0
 10
185.6178550933763
 20
15.04645414290849
 30
0.0
 10
185.6027881889931
 20
15.12967081778528
 30
0.0
 10
185.7372380935444
 20
15.09062651983878
 30
0.0
 10
185.8619755545746
 20
15.11739729328417
 30
0.0
 10
186.062875523728
 20
15.10063949044047
 30
0.0
 10
186.1921540949352
 20
15.12204225912998
 30
0.0
 10
186.3328419928295
 20
15.08868778853416
 30
0.0
 10
186.2980927452614
 20
15.22651875785062
 30
0.0
 10
186.3222185666714
 20
15.34963257349476
 30
0.0
 10
186.2967086182392
 20
15.4702405567033
 30
0.0
 10
186.3333251146685
 20
15.60539865141489
 30
0.0
 10
186.2211417027769
 20
15.58094545781884
 30
0.0
 10
186.1280356457136
 20
15.59307749842017
 30
0.0
 10
186.0191547579819
 20
15.58957630069986
 30
0.0
 10
185.9569697640964
 20
15.58981755951597
 30
0.0
 10
185.9375369557246
 20
15.58989295124138
 30
0.0
 11
187.1521871691833
 21
14.93980288195945
 31
0.0
 11
187.0923621563982
 21
14.93980288195945
 31
0.0
 11
186.949702510526
 21
14.93980288195945
 31
0.0
 11
186.7794313202913
 21
14.93980288195945
 31
0.0
 11
186.6367716744191
 21
14.93980288195945
 31
0.0
 11
186.576946661634
 21
14.93980288195945
 31
0.0
 11
186.7679960754842
 21
14.63705127966886
 31
0.0
 11
186.994127278563
 21
14.36051890576679
 31
0.0
 11
187.2244526173371
 21
14.15061253493451
 31
0.0
 11
187.1521596330704
 21
14.08466403668711
 31
0.0
 11
187.0879364402643
 21
14.00876059052555
 31
0.0
 11
186.7732818215558
 21
14.35891458349357
 31
0.0
 11
186.4886640249976
 21
14.81138295143595
 31
0.0
 11
186.4886640249976
 21
14.73370259137307
 31
0.0
 11
186.4886640249976
 21
14.53950169121587
 31
0.0
 11
186.4886640249976
 21
14.28704052101151
 31
0.0
 11
186.4886640249976
 21
14.03457935080715
 31
0.0
 11
186.4886640249976
 21
13.84037845064995
 31
0.0
 11
186.4886640249976
 21
13.76269809058707
 31
0.0
 11
186.4428901295605
 21
13.76269809058707
 31
0.0
 11
186.3578814666058
 21
13.76269809058707
 31
0.0
 11
186.3121075711687
 21
13.76269809058707
 31
0.0
 11
186.3121075711687
 21
13.83859234982735
 31
0.0
 11
186.3121075711687
 21
14.02832799792807
 31
0.0
 11
186.3121075711687
 21
14.27498434045899
 31
0.0
 11
186.3121075711687
 21
14.52164068298991
 31
0.0
 11
186.3121075711687
 21
14.71137633109063
 31
0.0
 11
186.3121075711687
 21
14.78727059033091
 31
0.0
 11
185.9987626399266
 21
14.31440946197688
 31
0.0
 11
185.6352328662148
 21
13.95795177109378
 31
0.0
 11
185.5773927461627
 21
14.03253450545017
 31
0.0
 11
185.5094852305341
 21
14.09704322939237
 31
0.0
 11
185.7750721898319
 21
14.31672219795885
 31
0.0
 11
186.0233764972061
 21
14.60953395971693
 31
0.0
 11
186.226498280526
 21
14.93980288195945
 31
0.0
 11
186.1627851652721
 21
14.93980288195945
 31
0.0
 11
186.0108538904359
 21
14.93980288195945
 31
0.0
 11
185.8295165624055
 21
14.93980288195945
 31
0.0
 11
185.6775852875693
 21
14.93980288195945
 31
0.0
 11
185.6138721723154
 21
14.93980288195945
 31
0.0
 11
185.6138721723154
 21
14.98350061600203
 31
0.0
 11
185.6138721723154
 21
15.06465355065254
 31
0.0
 11
185.6138721723154
 21
15.10835128469512
 31
0.0
 11
185.6864886537961
 21
15.10835128469512
 31
0.0
 11
185.8596510327118
 21
15.10835128469512
 31
0.0
 11
186.0663287107723
 21
15.10835128469512
 31
0.0
 11
186.239491089688
 21
15.10835128469512
 31
0.0
 11
186.3121075711687
 21
15.10835128469512
 31
0.0
 11
186.3121075711687
 21
15.18359217009297
 31
0.0
 11
186.3121075711687
 21
15.34912211796825
 31
0.0
 11
186.3121075711687
 21
15.51465206584353
 31
0.0
 11
186.3121075711687
 21
15.58989295124138
 31
0.0
 11
186.2535809125055
 21
15.58989295124138
 31
0.0
 11
186.1248222634467
 21
15.58989295124138
 31
0.0
 11
185.9960636143877
 21
15.58989295124138
 31
0.0
 11
185.9375369557246
 21
15.58989295124138
 31
0.0
  0
SPLINE
  5
AF
102
{ACAD_REACTORS
330
CB
102
}
330
48
100
AcDbEntity
  8
_U_30EC_U_30A4_U_30E4_U_30FC_1
  6
Continuous
 62
     2
100
AcDbSpline
210
0.0
220
0.0
230
1.0
 70
     8
 71
     3
 72
    70
 73
    66
 74
    64
 42
0.000000001
 43
0.0000000001
 44
0.00000001
 40
0.0
 40
0.0
 40
0.0
 40
0.0
 40
0.0241731073021472
 40
0.0846058988987013
 40
0.1631685280353284
 40
0.2417311571789756
 40
0.3021639488292751
 40
0.3263370654895541
 40
0.3533118254248881
 40
0.4228783438922094
 40
0.517999909531342
 40
0.6216398239466102
 40
0.7167613891499706
 40
0.7863279069649863
 40
0.8133026791761836
 40
0.8372943998771676
 40
0.8945054261372869
 40
0.9627895541962637
 40
1.020000580349074
 40
1.043992300975172
 40
1.071934345522902
 40
1.113121768772912
 40
1.145225199332236
 40
1.225483775412775
 40
1.329819923771487
 40
1.43415607199438
 40
1.514414647795801
 40
1.546518078208409
 40
1.578974764260183
 40
1.662678849314178
 40
1.777131373668398
 40
1.901833377474789
 40
2.016285900500579
 40
2.099989982527946
 40
2.132446666570305
 40
2.158782354486029
 40
2.216720867907817
 40
2.274659381334242
 40
2.300995069256174
 40
2.333451754066147
 40
2.417155836543827
 40
2.531608358985267
 40
2.656310362283762
 40
2.770762886388894
 40
2.854466971340059
 40
2.886923657363866
 40
2.913597976833298
 40
2.9823896428751
 40
3.076451716946965
 40
3.178937260458577
 40
3.272999334739978
 40
3.3417910010592
 40
3.36846532066351
 40
3.396976080738732
 40
3.472140811845968
 40
3.578408190308657
 40
3.700226892456094
 40
3.822045594634311
 40
3.928312973256418
 40
4.003477705314815
 40
4.03198845686688
 40
4.05832414479768
 40
4.11626265823684
 40
4.17420117140064
 40
4.200536849608572
 40
4.200536849608572
 40
4.200536849608572
 40
4.200536849608572
 10
185.9857704961609
 20
15.75844135397699
 30
0.0
 10
185.9938259544679
 20
15.7584435981168
 30
0.0
 10
186.0220200663241
 20
15.75845146032791
 30
0.0
 10
186.0765534803672
 20
15.75830754828365
 30
0.0
 10
186.1482891808604
 20
15.75909120499892
 30
0.0
 10
186.2236240137062
 20
15.75627570463805
 30
0.0
 10
186.2713052366438
 20
15.76298403400951
 30
0.0
 10
186.3195071245616
 20
15.75197563692426
 30
0.0
 10
186.3062571799873
 20
15.80546402997027
 30
0.0
 10
186.3151093964538
 20
15.86049583543085
 30
0.0
 10
186.3108698036286
 20
15.95419908726103
 30
0.0
 10
186.313348348128
 20
16.04959482218526
 30
0.0
 10
186.309093870606
 20
16.14356821983381
 30
0.0
 10
186.3179818665846
 20
16.19795062438006
 30
0.0
 10
186.3046977409945
 20
16.25233997691454
 30
0.0
 10
186.3514119277109
 20
16.23842216335352
 30
0.0
 10
186.3943254545736
 20
16.24103877374037
 30
0.0
 10
186.4605443456684
 20
16.23648422450748
 30
0.0
 10
186.5013342271799
 20
16.22778162134156
 30
0.0
 10
186.5525145690819
 20
16.23531799890189
 30
0.0
 10
186.52537204872
 20
16.19349970223279
 30
0.0
 10
186.4803096055707
 20
16.20284992072591
 30
0.0
 10
186.4942065045051
 20
16.13841207371832
 30
0.0
 10
186.4858414431654
 20
16.07378219627394
 30
0.0
 10
186.4903632178398
 20
15.97529141193882
 30
0.0
 10
186.4854741311167
 20
15.87595932842564
 30
0.0
 10
186.4950258992082
 20
15.81293115552963
 30
0.0
 10
186.47997614552
 20
15.74964011499782
 30
0.0
 10
186.5449159457209
 20
15.76515072944263
 30
0.0
 10
186.6116246399496
 20
15.75499387697806
 30
0.0
 10
186.7241435470828
 20
15.75988800099362
 30
0.0
 10
186.8390235448954
 20
15.75691204732777
 30
0.0
 10
186.9519871999747
 20
15.76221664184985
 30
0.0
 10
187.0176267597678
 20
15.75107306472083
 30
0.0
 10
187.0816276691053
 20
15.76744532319851
 30
0.0
 10
187.0703142889189
 20
15.71761689905269
 30
0.0
 10
187.0775339871509
 20
15.67416715212117
 30
0.0
 10
187.070314261127
 20
15.63071745587438
 30
0.0
 10
187.0816277175994
 20
15.5808889519687
 30
0.0
 10
187.0176263598972
 20
15.59726166091356
 30
0.0
 10
186.9519921240459
 20
15.58611271661582
 30
0.0
 10
186.838997431733
 20
15.59144857206848
 30
0.0
 10
186.7242456548644
 20
15.58834345663815
 30
0.0
 10
186.611318368686
 20
15.59364894682583
 30
0.0
 10
186.5455220903585
 20
15.58257300019587
 30
0.0
 10
186.4816097975358
 20
15.59887597847612
 30
0.0
 10
186.4936015165126
 20
15.54423524395736
 30
0.0
 10
186.4862104613006
 20
15.48854295047836
 30
0.0
 10
186.4892684841983
 20
15.39649689140564
 30
0.0
 10
186.4893422785683
 20
15.30179109873096
 30
0.0
 10
186.486031357836
 20
15.2095278290226
 30
0.0
 10
186.4939505989903
 20
15.15435768736134
 30
0.0
 10
186.4815076611617
 20
15.10058169100131
 30
0.0
 10
186.5389116551632
 20
15.11453768862776
 30
0.0
 10
186.5994708140383
 20
15.10511457884221
 30
0.0
 10
186.7048680855081
 20
15.10942885928699
 30
0.0
 10
186.8204294070622
 20
15.10835504612026
 30
0.0
 10
186.9359688877797
 20
15.10725965900989
 30
0.0
 10
187.0414181130841
 20
15.11162525770628
 30
0.0
 10
187.1018680471805
 20
15.10209426030666
 30
0.0
 10
187.159283773911
 20
15.11617289606374
 30
0.0
 10
187.1477773876709
 20
15.06707153265678
 30
0.0
 10
187.1537566781749
 20
15.02564658018643
 30
0.0
 10
187.1520311050801
 20
14.97651677966691
 30
0.0
 10
187.1521500122971
 20
14.94854428447603
 30
0.0
 10
187.1521871691833
 20
14.93980288195945
 30
0.0
 11
185.9857704961609
 21
15.75844135397699
 31
0.0
 11
186.0099436128282
 21
15.75844135397699
 31
0.0
 11
186.0703764044962
 21
15.75844135397699
 31
0.0
 11
186.1489390336648
 21
15.75844135397699
 31
0.0
 11
186.2275016628334
 21
15.75844135397699
 31
0.0
 11
186.2879344545015
 21
15.75844135397699
 31
0.0
 11
186.3121075711687
 21
15.75844135397699
 31
0.0
 11
186.3121075711687
 21
15.78541612620057
 31
0.0
 11
186.3121075711687
 21
15.85498264404032
 31
0.0
 11
186.3121075711687
 21
15.95010420924979
 31
0.0
 11
186.3121075711687
 21
16.0537441235825
 31
0.0
 11
186.3121075711687
 21
16.14886568879196
 31
0.0
 11
186.3121075711687
 21
16.21843220663172
 31
0.0
 11
186.3121075711687
 21
16.2454069788553
 31
0.0
 11
186.3360407604892
 21
16.24373213107794
 31
0.0
 11
186.3931122119458
 21
16.23973826330115
 31
0.0
 11
186.461229750781
 21
16.2349713888579
 31
0.0
 11
186.5183012022376
 21
16.23097752108111
 31
0.0
 11
186.5422343915581
 21
16.22930267330375
 31
0.0
 11
186.5274972731229
 21
16.20556293372634
 31
0.0
 11
186.4886640249976
 21
16.19183767331307
 31
0.0
 11
186.4886640249976
 21
16.15973424225114
 31
0.0
 11
186.4886640249976
 21
16.07947566459631
 31
0.0
 11
186.4886640249976
 21
15.97513951364503
 31
0.0
 11
186.4886640249976
 21
15.87080336269375
 31
0.0
 11
186.4886640249976
 21
15.79054478503892
 31
0.0
 11
186.4886640249976
 21
15.75844135397699
 31
0.0
 11
186.5211207110824
 21
15.75844135397699
 31
0.0
 11
186.6048247962486
 21
15.75844135397699
 31
0.0
 11
186.7192773208634
 21
15.75844135397699
 31
0.0
 11
186.8439793252946
 21
15.75844135397699
 31
0.0
 11
186.9584318499095
 21
15.75844135397699
 31
0.0
 11
187.0421359350756
 21
15.75844135397699
 31
0.0
 11
187.0745926211604
 21
15.75844135397699
 31
0.0
 11
187.0745926211604
 21
15.73210566604955
 31
0.0
 11
187.0745926211604
 21
15.67416715260918
 31
0.0
 11
187.0745926211604
 21
15.61622863916882
 31
0.0
 11
187.0745926211604
 21
15.58989295124138
 31
0.0
 11
187.0421359350756
 21
15.58989295124138
 31
0.0
 11
186.9584318499095
 21
15.58989295124138
 31
0.0
 11
186.8439793252946
 21
15.58989295124138
 31
0.0
 11
186.7192773208634
 21
15.58989295124138
 31
0.0
 11
186.6048247962485
 21
15.58989295124138
 31
0.0
 11
186.5211207110824
 21
15.58989295124138
 31
0.0
 11
186.4886640249976
 21
15.58989295124138
 31
0.0
 11
186.4886640249976
 21
15.56321863152016
 31
0.0
 11
186.4886640249976
 21
15.49442696487069
 31
0.0
 11
186.4886640249976
 21
15.40036489006428
 31
0.0
 11
186.4886640249976
 21
15.29787934587222
 31
0.0
 11
186.4886640249976
 21
15.20381727106581
 31
0.0
 11
186.4886640249976
 21
15.13502560441634
 31
0.0
 11
186.4886640249976
 21
15.10835128469512
 31
0.0
 11
186.5171747850993
 21
15.10835128469512
 31
0.0
 11
186.5923395162766
 21
15.10835128469512
 31
0.0
 11
186.6986068948376
 21
15.10835128469512
 31
0.0
 11
186.8204255970904
 21
15.10835128469512
 31
0.0
 11
186.9422442993433
 21
15.10835128469512
 31
0.0
 11
187.0485116779043
 21
15.10835128469512
 31
0.0
 11
187.1236764090816
 21
15.10835128469512
 31
0.0
 11
187.1521871691833
 21
15.10835128469512
 31
0.0
 11
187.1521871691833
 21
15.08201559676767
 31
0.0
 11
187.1521871691833
 21
15.02407708332728
 31
0.0
 11
187.1521871691833
 21
14.9661385698869
 31
0.0
 11
187.1521871691833
 21
14.93980288195945
 31
0.0
  0
SPLINE
  5
B0
102
{ACAD_REACTORS
330
CB
102
}
330
48
100
AcDbEntity
  8
_U_30EC_U_30A4_U_30E4_U_30FC_1
  6
Continuous
 62
     2
100
AcDbSpline
210
0.0
220
0.0
230
1.0
 70
     8
 71
     3
 72
    24
 73
    20
 74
    18
 42
0.000000001
 43
0.0000000001
 44
0.00000001
 40
0.0
 40
0.0
 40
0.0
 40
0.0
 40
0.2211075008753937
 40
0.4273218586245273
 40
0.5080174679239162
 40
0.5914835907870063
 40
0.8143265690192611
 40
1.054651302686575
 40
1.295452694023162
 40
1.51810923132881
 40
1.540864321905425
 40
1.595126460622686
 40
1.659890947895999
 40
1.714153085187357
 40
1.736908174961657
 40
1.764951100735346
 40
1.801562291220935
 40
1.953914424543619
 40
2.126104167379702
 40
2.126104167379702
 40
2.126104167379702
 40
2.126104167379702
 10
185.9375369556889
 20
15.58989295113011
 30
0.0
 10
185.9112579081811
 20
15.53097628234369
 30
0.0
 10
185.8604698894426
 20
15.41711139679251
 30
0.0
 10
185.8131784839111
 20
15.14441958233114
 30
0.0
 10
185.7043482802617
 20
15.24445482575447
 30
0.0
 10
185.5514800279638
 20
15.27118593367326
 30
0.0
 10
185.7686155181199
 20
15.48518135017626
 30
0.0
 10
185.7838483674381
 20
15.70332117782481
 30
0.0
 10
185.8906889492
 20
15.8845157906642
 30
0.0
 10
185.8305380947078
 20
16.16913226311395
 30
0.0
 10
185.9334317395401
 20
16.14114089222445
 30
0.0
 10
185.977993346815
 20
16.13243251602294
 30
0.0
 10
186.0380842395397
 20
16.1213965418335
 30
0.0
 10
186.0756619587438
 20
16.10767523055554
 30
0.0
 10
186.1252466928606
 20
16.10756076160218
 30
0.0
 10
186.0930158919325
 20
16.07306592398617
 30
0.0
 10
186.0171802221882
 20
16.0840410453796
 30
0.0
 10
186.0429447159693
 20
15.89858969582443
 30
0.0
 10
186.005589676385
 20
15.80702313549583
 30
0.0
 10
185.9857704961609
 20
15.75844135397699
 30
0.0
 11
185.9375369556889
 21
15.58989295113011
 31
0.0
 11
185.8616471328552
 21
15.38221708318554
 31
0.0
 11
185.7717402238433
 21
15.19663392356188
 31
0.0
 11
185.701149392311
 21
15.23573272563544
 31
0.0
 11
185.6245525192651
 21
15.26889163187713
 31
0.0
 11
185.7214026947455
 21
15.46958801203532
 31
0.0
 11
185.7994641467471
 21
15.69688163177018
 31
0.0
 11
185.858971692972
 21
15.93021436608686
 31
0.0
 11
185.9001601511226
 21
16.14902808999048
 31
0.0
 11
185.9224183822214
 21
16.14429889221389
 31
0.0
 11
185.975495702534
 21
16.13302157443893
 31
0.0
 11
186.0388460525844
 21
16.11956154999787
 31
0.0
 11
186.091923372897
 21
16.10828423222291
 31
0.0
 11
186.1141816039958
 21
16.10355503444632
 31
0.0
 11
186.096409715746
 21
16.08186250841004
 31
0.0
 11
186.0606122998071
 21
16.07418628445362
 31
0.0
 11
186.028195330148
 21
15.92532288171308
 31
0.0
 11
185.9857704961609
 21
15.75844135397699
 31
0.0
  0
LWPOLYLINE
  5
B1
102
{ACAD_REACTORS
330
CC
102
}
330
48
100
AcDbEntity
  8
_U_30EC_U_30A4_U_30E4_U_30FC_1
  6
Continuous
 62
     2
100
AcDbPolyline
 90
        5
 70
     1
 43
0.0
 10
191.1602971697031
 20
15.3972233679562
 10
192.4578138032672
 20
15.3972233679562
 10
192.4578138032672
 20
15.22875434022052
 10
191.1602971697031
 20
15.22875434022052
 10
191.1602971697031
 20
15.3972233679562
  0
MTEXT
  5
B3
330
48
100
AcDbEntity
  8
1
 62
   250
100
AcDbMText
 10
25.0
 20
4.99999999999994
 30
0.0
 40
3.5
 41
0.0
 71
     4
 72
     1
  1
備考欄の文字列 原点位置=4
  7
CONVERTER_11
 73
     1
 44
0.54545454545455
  0
MTEXT
  5
B4
330
48
100
AcDbEntity
  8
1
 62
     2
100
AcDbMText
 10
89.5
 20
23.99999999999994
 30
0.0
 40
3.5
 41
0.0
 71
     5
 72
     1
  1
尺度
  7
CONVERTER_11
 73
     1
 44
0.54545454545455
  0
MTEXT
  5
B5
330
48
100
AcDbEntity
  8
1
 62
     2
100
AcDbMText
 10
135.5
 20
24.99999999999994
 30
0.0
 40
3.0
 41
0.0
 71
     5
 72
     1
  1
製図
  7
CONVERTER_11
 73
     1
 44
0.59090909090909
  0
MTEXT
  5
B6
330
48
100
AcDbEntity
  8
1
 62
     2
100
AcDbMText
 10
152.5
 20
24.99999999999994
 30
0.0
 40
3.0
 41
0.0
 71
     5
 72
     1
  1
設計
  7
CONVERTER_11
 73
     1
 44
0.59090909090909
  0
MTEXT
  5
B7
330
48
100
AcDbEntity
  8
1
 62
     2
100
AcDbMText
 10
118.5
 20
24.99999999999994
 30
0.0
 40
3.0
 41
0.0
 71
     5
 72
     1
  1
検図
  7
CONVERTER_11
 73
     1
 44
0.59090909090909
  0
MTEXT
  5
B8
330
48
100
AcDbEntity
  8
1
 62
     2
100
AcDbMText
 10
175.0
 20
23.49999999999994
 30
0.0
 40
3.5
 41
0.0
 71
     5
 72
     1
  1
第三角法
  7
CONVERTER_11
 73
     1
 44
0.54545454545455
  0
MTEXT
  5
B9
330
48
100
AcDbEntity
  8
1
 62
     2
100
AcDbMText
 10
101.5
 20
24.99999999999994
 30
0.0
 40
3.0
 41
0.0
 71
     5
 72
     1
  1
承認
  7
CONVERTER_11
 73
     1
 44
0.59090909090909
  0
MTEXT
  5
BA
330
48
100
AcDbEntity
  8
1
 62
     2
100
AcDbMText
 10
29.0
 20
14.24999999999994
 30
0.0
 40
3.5
 41
0.0
 71
     5
 72
     1
  1
品番
  7
CONVERTER_11
 73
     1
 44
0.72727272727273
  0
MTEXT
  5
BB
330
48
100
AcDbEntity
  8
1
 62
     2
100
AcDbMText
 10
29.0
 20
22.74999999999994
 30
0.0
 40
3.5
 41
0.0
 71
     5
 72
     1
  1
品名
  7
CONVERTER_11
 73
     1
 44
0.72727272727273
  0
MTEXT
  5
BC
330
48
100
AcDbEntity
  8
1
 62
     2
100
AcDbMText
 10
29.0
 20
33.99999999999994
 30
0.0
 40
3.5
 41
0.0
 71
     5
 72
     1
  1
備考
  7
CONVERTER_11
 73
     1
 44
0.45454545454545
  0
MTEXT
  5
BD
330
48
100
AcDbEntity
  8
1
 62
     2
100
AcDbMText
 10
32.5
 20
282.0000000000002
 30
0.0
 40
5.0
 41
0.0
 71
     5
 72
     1
  1
図番
  7
CONVERTER_11
 73
     1
 44
0.45454545454545
  0
HATCH
  5
BE
330
48
100
AcDbEntity
  8
1
  6
Continuous
 62
     2
100
AcDbHatch
 10
0.0
 20
0.0
 30
0.0
210
0.0
220
0.0
230
1.0
  2
CUSTOM0
 70
     0
 71
     1
 91
        1
 92
        1
 93
        1
 72
     4
 94
        3
 73
     0
 74
     0
 95
       99
 96
       95
 40
0.0
 40
0.0
 40
0.0
 40
0.0
 40
0.0796417172272386
 40
0.1621768542355943
 40
0.2486489160957578
 40
0.3404969668524557
 40
0.4381912511164548
 40
0.5434463660244845
 40
0.6518115192847157
 40
0.753019093788676
 40
0.8492196919724988
 40
0.941929031299803
 40
1.034249663570024
 40
1.129078600620187
 40
1.226697027573212
 40
1.327220425421667
 40
1.47057213493799
 40
1.595489863371192
 40
1.719934125348379
 40
1.850576620127384
 40
1.989059629987282
 40
2.134139054226901
 40
2.280698007207186
 40
2.424529739039453
 40
2.565929576985818
 40
2.708239260773516
 40
2.86171788744364
 40
3.045168540347345
 40
3.183798301138588
 40
3.314813961455433
 40
3.442083470447296
 40
3.56991270837295
 40
3.702177512509345
 40
3.84230755965951
 40
3.992872223245914
 40
4.156750662218303
 40
4.310981861107525
 40
4.445859909322569
 40
4.572393936131566
 40
4.701656719781969
 40
4.76827908600845
 40
4.835960697898384
 40
4.912788918729316
 40
5.006285208481535
 40
5.026909478751612
 40
5.047533749021176
 40
5.101808031471267
 40
5.162325165538548
 40
5.226919745995874
 40
5.29423180659674
 40
5.364544852554889
 40
5.438319055467939
 40
5.517877651324271
 40
5.607647714861583
 40
5.70044964254443
 40
5.78825114236416
 40
5.87271470603979
 40
5.955167292575314
 40
6.037192395190407
 40
6.120669181469143
 40
6.206848616686374
 40
6.296680855416785
 40
6.442558392872616
 40
6.568190371608305
 40
6.692904567360387
 40
6.824220446557164
 40
6.9631218503294
 40
7.107843738851181
 40
7.253431663907301
 40
7.395187468036727
 40
7.533140753237778
 40
7.670550457175256
 40
7.816236511769279
 40
7.987691657359258
 40
8.14227742196927
 40
8.293662615415036
 40
8.442962460879293
 40
8.591598316185346
 40
8.74367899236182
 40
8.903725323699202
 40
9.076307008890552
 40
9.265578604680607
 40
9.459203795360782
 40
9.61761981027357
 40
9.753609671361929
 40
9.874873300004102
 40
9.954520184977811
 40
10.02416413719247
 40
10.09769764405446
 40
10.18909955924974
 40
10.20974586420135
 40
10.23039218263381
 40
10.30057101881266
 40
10.37632012987547
 40
10.37632012987547
 40
10.37632012987547
 40
10.37632012987547
 10
170.1465954835851
 20
14.13795663215987
 10
170.1632217851219
 20
14.11720608845306
 10
170.1970784206577
 20
14.07495111711895
 10
170.2599822541036
 20
14.02029811392066
 10
170.3332500940393
 20
13.97299025121045
 10
170.4175969238636
 20
13.93527231437928
 10
170.513224061546
 20
13.91040619731946
 10
170.6171853775346
 20
13.90309559345934
 10
170.7224020220405
 20
13.91142322794047
 10
170.8206626371334
 20
13.94149179651525
 10
170.9058986427548
 20
13.98848822971871
 10
170.9779220206103
 20
14.04952991250853
 10
171.0350917709096
 20
14.12412969578578
 10
171.0767868747439
 20
14.21002464660168
 10
171.1026952846293
 20
14.30485850432206
 10
171.1118037332653
 20
14.4185497903836
 10
171.0986864796487
 20
14.54332587770772
 10
171.0325330334414
 20
14.66014719171887
 10
170.9369370919569
 20
14.74512539577368
 10
170.8249681022369
 20
14.81416684459154
 10
170.6993659583269
 20
14.87204142045885
 10
170.5656691620857
 20
14.92373723284335
 10
170.431312281883
 20
14.97899092397175
 10
170.3051983986877
 20
15.04939770641644
 10
170.1926579987534
 20
15.13785540731243
 10
170.0969963064458
 20
15.24981067868466
 10
170.0334157151826
 20
15.39949910101378
 10
170.0200706505015
 20
15.55932794385135
 10
170.0320510987449
 20
15.7104840530684
 10
170.071229892884
 20
15.83809244591532
 10
170.135498775091
 20
15.9508087403084
 10
170.223820499974
 20
16.04648609268681
 10
170.3338091207627
 20
16.12354214985747
 10
170.4632284401265
 20
16.18151396936272
 10
170.6111838967793
 20
16.21739177588816
 10
170.7682069455486
 20
16.22746719050558
 10
170.917494046643
 20
16.21863637762585
 10
171.059625361417
 20
16.19074899340347
 10
171.1595922609625
 20
16.13413314701132
 10
171.3125074736184
 20
16.086746021055
 10
171.2455131717168
 20
16.00197553001178
 10
171.2296479120269
 20
15.93438901873478
 10
171.1978750531297
 20
15.86926092793184
 10
171.2150202209571
 20
15.76723453256946
 10
171.1666427208232
 20
15.77493211681894
 10
171.1315789440765
 20
15.768067717248
 10
171.1296697985718
 20
15.8326383115819
 10
171.0985692931989
 20
15.8782563962139
 10
171.0664551628455
 20
15.93561036628449
 10
171.0208038475168
 20
15.98540462692553
 10
170.9658508218386
 20
16.02994813718988
 10
170.9010841173007
 20
16.06763988836546
 10
170.8232377310597
 20
16.09283375791346
 10
170.7355160553352
 20
16.09931230998104
 10
170.6452903277806
 20
16.09235709285601
 10
170.5594594694065
 20
16.06909190460916
 10
170.4828343638596
 20
16.0313164410754
 10
170.41652656362
 20
15.98051641089567
 10
170.3622560536964
 20
15.91731143407204
 10
170.3224925345459
 20
15.8427645571036
 10
170.2976775510588
 20
15.75917313997757
 10
170.2892124262869
 20
15.65192948382279
 10
170.3019697987103
 20
15.52965457267553
 10
170.3681548409272
 20
15.41149724291205
 10
170.4640977399832
 20
15.32606325709522
 10
170.5757914963181
 20
15.25583362306716
 10
170.7010863668703
 20
15.19659162305297
 10
170.8349823941447
 20
15.14616708086128
 10
170.968993033315
 20
15.09322516984375
 10
171.0950885316915
 20
15.02750170625168
 10
171.2076216638417
 20
14.94480352537315
 10
171.3031370284232
 20
14.83996006310068
 10
171.3672706486963
 20
14.69937117251563
 10
171.3811103725279
 20
14.54065409451586
 10
171.367395471223
 20
14.38153155217869
 10
171.3244739153984
 20
14.23483828819205
 10
171.2545906329066
 20
14.10119796587137
 10
171.1574592213829
 20
13.98532387699287
 10
171.0347806023657
 20
13.89089981770082
 10
170.8874408413167
 20
13.82179270651977
 10
170.7177132497125
 20
13.77953210858846
 10
170.5317404979597
 20
13.767817362304
 10
170.3528955926183
 20
13.77809486683431
 10
170.1881733753743
 20
13.81966573769149
 10
170.0834410841056
 20
13.88797642883936
 10
169.9350960790365
 20
13.93675219032101
 10
169.9980378194729
 20
14.02976591290836
 10
170.0072274430059
 20
14.10296536248274
 10
170.0303711301232
 20
14.1693629450134
 10
170.0034588335317
 20
14.26974809527575
 10
170.0521338956338
 20
14.26234033517372
 10
170.0916530580697
 20
14.26894063620889
 10
170.0996204944702
 20
14.19078703218926
 10
170.1305436967922
 20
14.1560092737585
 10
170.1465954835851
 20
14.13795663215987
 97
        1
330
A0
 75
     1
 76
     2
 52
45.0
 41
0.1
 77
     0
 78
     1
 53
45.0
 43
0.0
 44
0.0
 45
-0.282842712474619
 46
0.0
 79
     0
 98
        1
 10
0.0
 20
0.0
  0
HATCH
  5
BF
330
48
100
AcDbEntity
  8
1
  6
Continuous
 62
     2
100
AcDbHatch
 10
0.0
 20
0.0
 30
0.0
210
0.0
220
0.0
230
1.0
  2
CUSTOM1
 70
     0
 71
     1
 91
        2
 92
        1
 93
        1
 72
     4
 94
        3
 73
     0
 74
     0
 95
       57
 96
       53
 40
0.0
 40
0.0
 40
0.0
 40
0.0
 40
0.0471632082809231
 40
0.0914861054632147
 40
0.1357762519702382
 40
0.1826527001610677
 40
0.2295203288572586
 40
0.2737751972220756
 40
0.3181310461543062
 40
0.3652607198398501
 40
0.4571007286314472
 40
0.5671851029165283
 40
0.6894623283868304
 40
0.8181758272546056
 40
0.9510087229274014
 40
1.085852229674055
 40
1.218126164475323
 40
1.343545131142375
 40
1.454537202956791
 40
1.5671876075308
 40
1.680710966642419
 40
1.794226869736783
 40
1.900009184247583
 40
2.004085860447862
 40
2.10816267445175
 40
2.214000150155295
 40
2.496038577352121
 40
2.762350745479252
 40
2.997275353279391
 40
3.185110082137717
 40
3.246407890063943
 40
3.312607550212674
 40
3.378877742711576
 40
3.440140399651431
 40
4.100501696006452
 40
4.754913085563507
 40
5.411331693423918
 40
6.077890432568696
 40
6.110575292670975
 40
6.143260152775755
 40
6.367989363395141
 40
6.610525374951556
 40
6.863389136467303
 40
7.119380025547583
 40
7.376036605091086
 40
7.631164770966278
 40
7.876722425456413
 40
8.104953735855965
 40
8.312916685924293
 40
8.497730294941288
 40
8.651018984313842
 40
8.764738853624582
 40
8.764738853624582
 40
8.764738853624582
 40
8.764738853624582
 10
174.7922649500513
 20
13.81626739612921
 10
174.7766616726931
 20
13.81826231079072
 10
174.7463947960302
 20
13.82213201360292
 10
174.7010994202252
 20
13.82341984967261
 10
174.6559553129349
 20
13.82308683554044
 10
174.6099017123399
 20
13.82314658674217
 10
174.5640496172097
 20
13.82325813649994
 10
174.5183711648164
 20
13.82277833456583
 10
174.4750811541608
 20
13.82461109618715
 10
174.4039947951513
 20
13.80049556814651
 10
174.4057477261441
 20
13.92184693977245
 10
174.358619637057
 20
14.00726239751228
 10
174.3191478251761
 20
14.12486929345129
 10
174.2706635532645
 20
14.24232752540433
 10
174.2201017402523
 20
14.36405935761504
 10
174.1718634610476
 20
14.49075967862459
 10
174.1135232947595
 20
14.59933687784946
 10
174.098089266726
 20
14.75620657134402
 10
173.9566586330636
 20
14.72373446548318
 10
173.8508397414903
 20
14.73512888682174
 10
173.7358569725222
 20
14.73392591514609
 10
173.6253142252141
 20
14.73506945347405
 10
173.5176583522782
 20
14.7341835003752
 10
173.4121322529242
 20
14.73416602390514
 10
173.3109192682012
 20
14.7271403247241
 10
173.1266804827754
 20
14.7513585985986
 10
173.1157393685411
 20
14.4474169112188
 10
173.008769163475
 20
14.22353177253391
 10
172.9098148604347
 20
14.03895314292492
 10
172.9225090524007
 20
13.795302048042
 10
172.8050091716397
 20
13.82508046753191
 10
172.742205586831
 20
13.82258089509596
 10
172.67858720934
 20
13.82344075102799
 10
172.3946014194073
 20
13.78098039941939
 10
173.0251638499382
 20
14.50081952444781
 10
173.108764528907
 20
15.01276539435722
 10
173.4929252789341
 20
15.53353743550039
 10
173.477720828856
 20
16.23519626253204
 10
173.7239265722697
 20
16.22345633081251
 10
173.825634615756
 20
16.23225004452766
 10
173.8249752035819
 20
15.98059650730341
 10
173.9428317155828
 20
15.79818020733951
 10
174.0315515260484
 20
15.5556374066286
 10
174.1322292485259
 20
15.32340030530122
 10
174.2311142712242
 20
15.08674644566907
 10
174.3299676990669
 20
14.85461739170088
 10
174.4256166390925
 20
14.63122222788781
 10
174.5159904573271
 20
14.4227254904931
 10
174.5989944568189
 20
14.23308448529314
 10
174.6726088582799
 20
14.06663106068094
 10
174.7342815895545
 20
13.92917699626091
 10
174.7749458885603
 20
13.84999239430028
 10
174.7922649500513
 20
13.81626739612921
 97
        1
330
A1
 92
       16
 93
        1
 72
     4
 94
        3
 73
     0
 74
     0
 95
       25
 96
       21
 40
0.0
 40
0.0
 40
0.0
 40
0.0
 40
0.0911479969064821
 40
0.1858117896204662
 40
0.2804128399734491
 40
0.3715889190714511
 40
0.4679080494218709
 40
0.5642683809229232
 40
0.6605683222644991
 40
0.7569653015810255
 40
0.8561348172522723
 40
1.092615965104292
 40
1.374867658141876
 40
1.611348812011601
 40
1.710518328425249
 40
1.809403163726566
 40
2.045205463294068
 40
2.32664691762213
 40
2.562449217190593
 40
2.661334043833911
 40
2.661334043833911
 40
2.661334043833911
 40
2.661334043833911
 10
173.2683700567199
 20
14.88614538197285
 10
173.2987525917922
 20
14.88598079714548
 10
173.3606895889112
 20
14.88564528689916
 10
173.454135696033
 20
14.88269055451995
 10
173.5475095236357
 20
14.87977752877144
 10
173.6417760753476
 20
14.8789420164341
 10
173.7354964790967
 20
14.87996644658041
 10
173.8352040303205
 20
14.87916977470966
 10
173.9188949546313
 20
14.88921410235213
 10
174.0637996315044
 20
14.86234617674157
 10
173.9396132444801
 20
15.03665530280042
 10
173.8965867286282
 20
15.19651711006085
 10
173.780892214221
 20
15.45518458550209
 10
173.7017565431256
 20
15.59231052861851
 10
173.6431576621816
 20
15.80937033134069
 10
173.5864803939438
 20
15.59266134213422
 10
173.5052809900478
 20
15.45327012438229
 10
173.4063701281488
 20
15.20406969370188
 10
173.3253625094259
 20
15.01925830226066
 10
173.2813683325838
 20
14.9165044685611
 10
173.2683700567199
 20
14.88614538197285
 97
        1
330
A2
 75
     1
 76
     2
 52
45.0
 41
0.1
 77
     0
 78
     1
 53
45.0
 43
0.0
 44
0.0
 45
-0.282842712474619
 46
0.0
 79
     0
 98
        1
 10
0.0
 20
0.0
  0
HATCH
  5
C0
330
48
100
AcDbEntity
  8
1
  6
Continuous
 62
     2
100
AcDbHatch
 10
0.0
 20
0.0
 30
0.0
210
0.0
220
0.0
230
1.0
  2
CUSTOM2
 70
     0
 71
     1
 91
        1
 92
        1
 93
        1
 72
     4
 94
        3
 73
     0
 74
     0
 95
       95
 96
       91
 40
0.0
 40
0.0
 40
0.0
 40
0.0
 40
0.6550406656911573
 40
1.308087289031939
 40
1.420803739835816
 40
1.566130759770811
 40
1.757067341888492
 40
2.006513545026472
 40
2.087328263121568
 40
2.185328872295652
 40
2.294612454748394
 40
2.408936380534835
 40
2.526802767798574
 40
2.646360524615621
 40
2.762535723971597
 40
2.870057342870172
 40
2.96688344843168
 40
3.050803243518319
 40
3.115818222436625
 40
3.156030057150268
 40
3.21391422508017
 40
3.27668902645057
 40
3.342960320981347
 40
3.404230667150596
 40
3.453822809493414
 40
3.532499827188463
 40
3.6347751885072
 40
3.754909333008217
 40
3.889736761660704
 40
4.035769602175262
 40
4.187256681197646
 40
4.338733685676004
 40
4.488478734676159
 40
4.634708317831643
 40
4.771493189921322
 40
4.892686571561256
 40
5.199775528944494
 40
5.460353566929693
 40
5.667603142345552
 40
5.814722905404532
 40
5.82899080621983
 40
5.855488336304527
 40
5.869756237118859
 40
6.18979650776286
 40
6.531890469873045
 40
6.883053637017044
 40
7.230512024911509
 40
7.566966656764621
 40
7.885203559707443
 40
8.172887439719249
 40
8.418011594062804
 40
8.443926721190726
 40
8.510760470613212
 40
8.602145393795718
 40
8.701714041647156
 40
8.793098965075385
 40
8.859932715057958
 40
8.885847842603605
 40
9.242301256612828
 40
9.589275455016795
 40
9.921808543164197
 40
10.23479624298468
 40
10.29968150889179
 40
10.35323493887767
 40
10.40154625355152
 40
10.46482922477827
 40
10.55973900668405
 40
10.69239545985618
 40
10.84920353475672
 40
11.01626328594782
 40
11.18672024367445
 40
11.35372582577212
 40
11.50257442292429
 40
11.61866495023294
 40
11.71329869152876
 40
11.82511050573909
 40
11.94464880845717
 40
12.06929242642508
 40
12.19707290435177
 40
12.32562632860529
 40
12.4503456533128
 40
12.56646595170329
 40
12.67099007414637
 40
12.76077625936782
 40
12.82703233506696
 40
12.87429132785996
 40
12.89831990323335
 40
12.92234847860023
 40
13.53984767410325
 40
14.1829428435937
 40
14.1829428435937
 40
14.1829428435937
 40
14.1829428435937
 10
177.3067935648021
 20
14.70898038201719
 10
177.1752019758551
 20
14.82265058603226
 10
176.9124193802727
 20
15.04964496316152
 10
176.399739344102
 20
15.89214462956283
 10
176.4106654595362
 20
15.53423377577014
 10
176.4041226527991
 20
15.39267392272127
 10
176.4028026631772
 20
15.19421305299275
 10
176.4018117602538
 20
15.02150296045977
 10
176.4024101751974
 20
14.87865373257574
 10
176.4038994301882
 20
14.78265005413352
 10
176.4055683588472
 20
14.67545503263135
 10
176.4071934954618
 20
14.56164211517577
 10
176.4092429501685
 20
14.44441572604583
 10
176.4123165501927
 20
14.32656411232965
 10
176.4156339697042
 20
14.21228087320615
 10
176.419360534028
 20
14.10521401867271
 10
176.4217338161424
 20
14.01007408766915
 10
176.4278718888357
 20
13.92558557205689
 10
176.4239784495946
 20
13.86923087298135
 10
176.4455230443077
 20
13.79825022472349
 10
176.3680940058617
 20
13.82902677604477
 10
176.3116353240191
 20
13.82011242517606
 10
176.2540495896806
 20
13.82896218398269
 10
176.1690163478472
 20
13.79738225225939
 10
176.2009714146382
 20
13.88095155992184
 10
176.1990705282539
 20
13.94882608968303
 10
176.21079600473
 20
14.05233256764413
 10
176.2164241053
 20
14.1700212561669
 10
176.2237902178941
 20
14.30388609164418
 10
176.232075970161
 20
14.44764152872626
 10
176.2398851897426
 20
14.59714022843439
 10
176.2457571222657
 20
14.74792549402072
 10
176.2503667817968
 20
14.89699943878433
 10
176.2542632117542
 20
15.04122913163017
 10
176.2570715126564
 20
15.17583905213013
 10
176.2576698755022
 20
15.36469614347349
 10
176.261602386715
 20
15.58975494313149
 10
176.2442175378497
 20
15.86367091125702
 10
176.2850417342584
 20
16.02787112098592
 10
176.1995153256001
 20
16.2274966146509
 10
176.2660558907688
 20
16.22385458403973
 10
176.283872427323
 20
16.22413447160848
 10
176.4056801797509
 20
16.22632927398611
 10
176.5080770335458
 20
15.94675118721507
 10
176.7580021509357
 20
15.74563008535998
 10
176.987003533111
 20
15.4779261498791
 10
177.2245151213109
 20
15.22646413862371
 10
177.4486090740771
 20
14.98969974061352
 10
177.6750716283009
 20
14.73218692583075
 10
177.8325687886515
 20
14.61649335056915
 10
178.0472129612673
 20
14.27997152538788
 10
178.0422645974618
 20
14.40464754091597
 10
178.0433931602546
 20
14.46327691935731
 10
178.0428877841517
 20
14.55043662371971
 10
178.0430475158113
 20
14.64416143182865
 10
178.0430054891317
 20
14.73018971297028
 10
178.0430202040372
 20
14.79153891945488
 10
178.0429706255985
 20
14.94135231520986
 10
178.0458811522809
 20
15.17989612510098
 10
178.0259521041162
 20
15.54486509868695
 10
178.0750433936246
 20
15.80799631993407
 10
177.9177951509181
 20
16.21928904947741
 10
178.0762112872421
 20
16.16398282551743
 10
178.1311680478628
 20
16.16199686500167
 10
178.182788776674
 20
16.16264778248246
 10
178.2713198965366
 20
16.20369527738238
 10
178.2204898303168
 20
16.05696326622981
 10
178.2313389930283
 20
15.95019971954428
 10
178.2166036994847
 20
15.79085705414107
 10
178.2099976446204
 20
15.62853061652867
 10
178.2014961399915
 20
15.45992521892389
 10
178.1943227202199
 20
15.29814814703534
 10
178.1889063215389
 20
15.15422331457926
 10
178.1871713967648
 20
15.03437493466918
 10
178.1875440672319
 20
14.92686101590508
 10
178.1873656126263
 20
14.8182002464558
 10
178.1877010863139
 20
14.69953570165524
 10
178.1890040622185
 20
14.57555163512736
 10
178.1908887351574
 20
14.44858294171099
 10
178.1925004454851
 20
14.32153861551026
 10
178.1941403137429
 20
14.19854884492172
 10
178.1962570745752
 20
14.08300931383754
 10
178.1963848422363
 20
13.98090903955831
 10
178.2006514396554
 20
13.89009848838151
 10
178.1908440085289
 20
13.83213621208781
 10
178.211847477169
 20
13.76517130132022
 10
178.1725639739896
 20
13.77291153966681
 10
177.9595307117746
 20
13.75755254145186
 10
177.7636297943186
 20
14.31403058094465
 10
177.4611197631543
 20
14.57556035348505
 10
177.3067935648021
 20
14.70898038201719
 97
        1
330
A3
 75
     1
 76
     2
 52
45.0
 41
0.1
 77
     0
 78
     1
 53
45.0
 43
0.0
 44
0.0
 45
-0.282842712474619
 46
0.0
 79
     0
 98
        1
 10
0.0
 20
0.0
  0
HATCH
  5
C1
330
48
100
AcDbEntity
  8
1
  6
Continuous
 62
     2
100
AcDbHatch
 10
0.0
 20
0.0
 30
0.0
210
0.0
220
0.0
230
1.0
  2
CUSTOM3
 70
     0
 71
     1
 91
        1
 92
        1
 93
        1
 72
     4
 94
        3
 73
     0
 74
     0
 95
      110
 96
      106
 40
0.0
 40
0.0
 40
0.0
 40
0.0
 40
0.2203406257277826
 40
0.4407808782838091
 40
0.5952494494615064
 40
0.7488431659393073
 40
0.9023581831309055
 40
1.056801968670404
 40
1.210736449099905
 40
1.363041386539783
 40
1.515315729683126
 40
1.669377239148076
 40
1.721611652756553
 40
1.773199502942926
 40
1.824933793209972
 40
1.877110426487958
 40
1.982682281206721
 40
2.078781667087529
 40
2.172809640822251
 40
2.271937807378904
 40
2.378349933379297
 40
2.494131557736487
 40
2.62668168394362
 40
2.783145050796048
 40
2.890701232940901
 40
2.993130312454795
 40
3.099869730691776
 40
3.220237816691267
 40
3.352695482737554
 40
3.481732806389817
 40
3.593499473690345
 40
3.674323013331843
 40
3.817951711952792
 40
3.94616712079379
 40
4.061405053453475
 40
4.166480796003116
 40
4.262478775059154
 40
4.350736673551109
 40
4.433071991253995
 40
4.511216293814599
 40
4.564262454117926
 40
4.61847441557155
 40
4.670128488754155
 40
4.722296879126364
 40
4.819540945314234
 40
4.931194984128092
 40
5.049996040257733
 40
5.168643755415278
 40
5.28397081176249
 40
5.392260784910316
 40
5.48651225487639
 40
5.559178233949789
 40
5.591425852853462
 40
5.626215969637844
 40
5.667155838674395
 40
5.717449290214206
 40
5.738402360944815
 40
5.784499116553779
 40
5.830595872164747
 40
5.851548942897602
 40
5.873019280661716
 40
5.924217778408267
 40
5.985325662817652
 40
6.036524160567672
 40
6.057994498334204
 40
6.236847789607443
 40
6.381409928945617
 40
6.493190424178649
 40
6.574067534230467
 40
6.691018086205561
 40
6.814881554220479
 40
6.944307823240432
 40
7.071266716066055
 40
7.1934886044619
 40
7.309042773128127
 40
7.414007203170754
 40
7.505140441886508
 40
7.53115036059964
 40
7.559221645322231
 40
7.58720221892089
 40
7.612569159499093
 40
7.662550809480986
 40
7.70287887576412
 40
7.857328205230934
 40
8.01079956808858
 40
8.16525639965753
 40
8.322232698713869
 40
8.479564855016555
 40
8.635216230290759
 40
8.790882550925676
 40
8.948305154947242
 40
9.168271839032938
 40
9.387358980987205
 40
9.608047961033447
 40
9.832914234792668
 40
9.858338694963
 40
9.925366817230008
 40
10.02013071422759
 40
10.12876249858997
 40
10.23739428295247
 40
10.33215817995189
 40
10.39918630222392
 40
10.42461076239781
 40
10.64992019336941
 40
10.87188524531184
 40
10.87188524531184
 40
10.87188524531184
 40
10.87188524531184
 10
179.9057788376618
 20
15.73923260398183
 10
179.9092864933541
 20
15.80616462073797
 10
179.9163033987662
 20
15.94005891915852
 10
179.8198027599073
 20
16.22548554971462
 10
180.0510134726107
 20
16.16284386190278
 10
180.1919290057156
 20
16.17001554055982
 10
180.3490417757588
 20
16.16235883078238
 10
180.5025913427288
 20
16.16252752283032
 10
180.654510493508
 20
16.16182040535426
 10
180.8142214813231
 20
16.1721015835163
 10
180.9408972601117
 20
16.15496511080746
 10
181.1370821122081
 20
16.22727260107139
 10
181.1034395279078
 20
16.1264069908011
 10
181.1052011317184
 20
16.07619253947665
 10
181.1027342073458
 20
16.0271233558646
 10
181.1347076966011
 20
15.94063490846994
 10
181.0010399903256
 20
15.98997438608331
 10
180.9172208688057
 20
15.98430634314161
 10
180.8173861139324
 20
15.99465516706292
 10
180.7186576720146
 20
16.00086450411081
 10
180.612153277111
 20
16.00697763816771
 10
180.491051169806
 20
16.01588883484581
 10
180.3703381502454
 20
16.00521605912379
 10
180.1812553843437
 20
16.06468503080361
 10
180.2129028505311
 20
15.90558320077533
 10
180.1995563316833
 20
15.80839128339899
 10
180.197495842645
 20
15.69634065110098
 10
180.195818804467
 20
15.57699685629346
 10
180.1973336794233
 20
15.45032592155104
 10
180.195658247867
 20
15.32301588016111
 10
180.2058844271658
 20
15.22451566404459
 10
180.1779006596582
 20
15.08388702625626
 10
180.3508029999305
 20
15.13989551134089
 10
180.4645020202772
 20
15.12719951478492
 10
180.5840151672239
 20
15.13448377051249
 10
180.6888491425071
 20
15.1387801705675
 10
180.7843084898612
 20
15.14330568258972
 10
180.8763823507032
 20
15.15149201146192
 10
180.9476551782439
 20
15.14643850638106
 10
181.0544931705685
 20
15.1853642503167
 10
181.0226603598036
 20
15.10517122005874
 10
181.026616450393
 20
15.05562936846028
 10
181.0234502392013
 20
15.00557478039813
 10
181.0550791490585
 20
14.92128847612015
 10
180.9210133677691
 20
14.97425365495151
 10
180.82923227932
 20
14.96540080890436
 10
180.7079729189602
 20
14.9757004996515
 10
180.5914113119771
 20
14.97748911767494
 10
180.4783375745879
 20
14.97787017109688
 10
180.3679246308471
 20
14.98415449472174
 10
180.2898124067841
 20
14.97189133255358
 10
180.1913625833644
 20
15.00453887616121
 10
180.2012355173561
 20
14.94769748054201
 10
180.1973923244403
 20
14.91392130557978
 10
180.1966789884268
 20
14.87119604709405
 10
180.1963369642975
 20
14.83401607262147
 10
180.1963834255345
 20
14.79487237370765
 10
180.1963649429927
 20
14.7571684949768
 10
180.1963703431805
 20
14.71944955232397
 10
180.1963697214201
 20
14.68994324745145
 10
180.1963698151544
 20
14.65873577699295
 10
180.1963704287921
 20
14.61414424908079
 10
180.1963671499337
 20
14.55963956508845
 10
180.1963759623481
 20
14.51505540201441
 10
180.1963359653417
 20
14.43117808585733
 10
180.1976024270255
 20
14.31737520677672
 10
180.1950274117842
 20
14.16830395933703
 10
180.2065009381719
 20
14.06597203813899
 10
180.1823506222264
 20
13.93338903885827
 10
180.3332993946476
 20
13.97895732272014
 10
180.4428436671556
 20
13.96427012162342
 10
180.573397047392
 20
13.96920435125057
 10
180.6990312209513
 20
13.97257705323353
 10
180.8188730625601
 20
13.97711497498767
 10
180.9391362611426
 20
13.99048536181997
 10
181.0222761663515
 20
13.98068712782591
 10
181.1456080421075
 20
14.04126214623312
 10
181.1244269203956
 20
13.98532460134015
 10
181.1235950270117
 20
13.95939249372342
 10
181.1218963707557
 20
13.93197256190934
 10
181.121797488883
 20
13.8973819520638
 10
181.1203659301329
 20
13.86050408220763
 10
181.153280419219
 20
13.768468410218
 10
180.9551306988107
 20
13.84132015974825
 10
180.8300548294891
 20
13.81825726508599
 10
180.6673071295155
 20
13.82454021985778
 10
180.5129366450001
 20
13.82260943909919
 10
180.3566670436943
 20
13.8239376259926
 10
180.1970544465282
 20
13.82059872487855
 10
180.0540326342237
 20
13.83265795728234
 10
179.8197144881628
 20
13.76952001976912
 10
179.9173810751197
 20
14.05620527466312
 10
179.9006868780058
 20
14.24988308142654
 10
179.9146296709684
 20
14.4784824288029
 10
179.9142987846633
 20
14.63384593955043
 10
179.9143078119263
 20
14.73966336444121
 10
179.9143055876316
 20
14.8020578412421
 10
179.9143065551889
 20
14.89220425248322
 10
179.9143065473262
 20
14.99621167157433
 10
179.9143053861101
 20
15.10022131375291
 10
179.9143090971503
 20
15.19036243688762
 10
179.9143011051051
 20
15.25276803097209
 10
179.9143334275017
 20
15.35868835961113
 10
179.9131440788319
 20
15.51626716544734
 10
179.9082216489256
 20
15.66528219822059
 10
179.9057788376618
 20
15.73923260398183
 97
        1
330
A4
 75
     1
 76
     2
 52
45.0
 41
0.1
 77
     0
 78
     1
 53
45.0
 43
0.0
 44
0.0
 45
-0.282842712474619
 46
0.0
 79
     0
 98
        1
 10
0.0
 20
0.0
  0
HATCH
  5
C2
330
48
100
AcDbEntity
  8
1
  6
Continuous
 62
     2
100
AcDbHatch
 10
0.0
 20
0.0
 30
0.0
210
0.0
220
0.0
230
1.0
  2
CUSTOM4
 70
     0
 71
     1
 91
        1
 92
        1
 93
        1
 72
     4
 94
        3
 73
     0
 74
     0
 95
       47
 96
       43
 40
0.0
 40
0.0
 40
0.0
 40
0.0
 40
0.2207912809957266
 40
0.4459404186302918
 40
0.4902387190459117
 40
0.5327473892722089
 40
0.5742260451225404
 40
0.6155432630560699
 40
0.6568164066315619
 40
0.6982511618780534
 40
0.7407663929317061
 40
0.7851366743175106
 40
1.010288833836292
 40
1.231080507002147
 40
1.451765243652374
 40
1.676638205891674
 40
1.720461045359643
 40
1.830018144043503
 40
1.97244237235313
 40
2.114866600677493
 40
2.224423699395114
 40
2.268246538883353
 40
2.49362880120719
 40
2.715602830286586
 40
2.934211330706343
 40
3.149502369855342
 40
3.231387784850988
 40
3.318231873854023
 40
3.405143198198011
 40
3.486970301720447
 40
3.702258172493895
 40
3.920866283534129
 40
4.142839325931917
 40
4.368221903865383
 40
4.412044743359861
 40
4.521601842095873
 40
4.664026070452346
 40
4.80645029880905
 40
4.916007397546741
 40
4.959830237043061
 40
5.184703515847108
 40
5.405387250767482
 40
5.405387250767482
 40
5.405387250767482
 40
5.405387250767482
 10
182.6507427258645
 20
15.73406440953866
 10
182.6568139420003
 20
15.79758482501205
 10
182.6690762107242
 20
15.92587938689621
 10
182.5604706879412
 20
16.20166220174066
 10
182.6761985896604
 20
16.17188133432048
 10
182.7171842509015
 20
16.16765556262812
 10
182.7591205797518
 20
16.16310446389601
 10
182.800419662571
 20
16.16201982929477
 10
182.8417032115556
 20
16.16310338195222
 10
182.8836148270647
 20
16.16766112711334
 10
182.9245983549019
 20
16.17187430209723
 10
183.0404922843487
 20
16.20177611317523
 10
182.9295652727457
 20
15.92339806609884
 10
182.9574856365267
 20
15.74283140824947
 10
182.9404267346968
 20
15.50961042346465
 10
182.9414637282103
 20
15.34906622543139
 10
182.9414099399405
 20
15.22284817558715
 10
182.941427737248
 20
15.12428963336235
 10
182.9414188581081
 20
14.99280702442957
 10
182.9414263928033
 20
14.86132844968644
 10
182.9414129405128
 20
14.76276222694085
 10
182.9414531717492
 20
14.63639735624146
 10
182.9406746403816
 20
14.47482068822865
 10
182.9565958319267
 20
14.24361821892909
 10
182.9333468885408
 20
14.05874351971996
 10
183.0360183444365
 20
13.78935602770049
 10
182.8820238362836
 20
13.8266011268581
 10
182.8004129802832
 20
13.82137994680527
 10
182.7188192292582
 20
13.82660620378345
 10
182.5648513666842
 20
13.7893706988538
 10
182.6674183421917
 20
14.05875129862874
 10
182.6442045316088
 20
14.2436158532541
 10
182.6600444655138
 20
14.47482218565633
 10
182.6593296313428
 20
14.63639712308498
 10
182.6593664569907
 20
14.76276231210515
 10
182.659354900027
 20
14.86132756635976
 10
182.6593575019214
 20
14.99281127417213
 10
182.6593648531779
 20
15.12427548031193
 10
182.6593442541351
 20
15.22287786275318
 10
182.6594082192028
 20
15.34896149354421
 10
182.658173394759
 20
15.51210091383764
 10
182.6532040396745
 20
15.66054183777544
 10
182.6507427258645
 20
15.73406440953866
 97
        1
330
A5
 75
     1
 76
     2
 52
45.0
 41
0.1
 77
     0
 78
     1
 53
45.0
 43
0.0
 44
0.0
 45
-0.282842712474619
 46
0.0
 79
     0
 98
        1
 10
0.0
 20
0.0
  0
HATCH
  5
C3
330
48
100
AcDbEntity
  8
1
  6
Continuous
 62
     2
100
AcDbHatch
 10
0.0
 20
0.0
 30
0.0
210
0.0
220
0.0
230
1.0
  2
CUSTOM5
 70
     0
 71
     1
 91
        1
 92
        1
 93
        1
 72
     4
 94
        3
 73
     0
 74
     0
 95
      118
 96
      114
 40
0.0
 40
0.0
 40
0.0
 40
0.0
 40
0.1054708162973438
 40
0.2466098270051967
 40
0.3965912874591276
 40
0.5285525069753974
 40
0.6156245055642111
 40
0.6431434105797438
 40
0.7036850037986128
 40
0.7642265984504525
 40
0.7917455052354829
 40
0.9287404319989797
 40
1.106572819088021
 40
1.287544879681021
 40
1.31757830803054
 40
1.399928030857176
 40
1.522968204799951
 40
1.675072986590568
 40
1.844616533180647
 40
2.019973001638708
 40
2.189516548880019
 40
2.341621331585356
 40
2.46466150632049
 40
2.547011229647054
 40
2.577044658168018
 40
2.603797890893088
 40
2.662655002908775
 40
2.721512114949587
 40
2.748265347702767
 40
2.774215307344844
 40
2.845959313407175
 40
2.954338556588374
 40
3.090194227585552
 40
3.24436751710052
 40
3.407699615844277
 40
3.571031714539429
 40
3.725205003920107
 40
3.861060674729608
 40
3.969439917716302
 40
4.041183923628975
 40
4.067133883212969
 40
4.311886746012162
 40
4.547897258335531
 40
4.764747083043972
 40
4.952749679951775
 40
5.045772974195898
 40
5.137862019644984
 40
5.330543169793029
 40
5.553448265244018
 40
5.795083855888177
 40
6.043293412177239
 40
6.285761695541185
 40
6.313902908752668
 40
6.384255941793258
 40
6.475714884766846
 40
6.567173827758909
 40
6.637526860839687
 40
6.66566807407405
 40
6.692018920328026
 40
6.749990782071098
 40
6.807962643790471
 40
6.834313490017946
 40
6.856393084245225
 40
6.913335195649848
 40
6.991194817302512
 40
7.076026942283773
 40
7.153886563725264
 40
7.210828674844846
 40
7.232908268931181
 40
7.258199334923702
 40
7.324875781592349
 40
7.419142481925006
 40
7.527204308841945
 40
7.63526613523052
 40
7.729532834168506
 40
7.796209279292825
 40
7.821500344594771
 40
7.844652988850841
 40
7.89986314054162
 40
7.965759128053786
 40
8.020969279771071
 40
8.044121924046538
 40
8.069356610160627
 40
8.10913439544139
 40
8.132238100191103
 40
8.193147867786468
 40
8.279261678876644
 40
8.377977512673858
 40
8.476693347146647
 40
8.562807160411703
 40
8.623716930826486
 40
8.646820636853441
 40
8.671988793774254
 40
8.734909185828165
 40
8.81670569518888
 40
8.89850220481545
 40
8.961422597377911
 40
8.986590754551024
 40
9.012941600733182
 40
9.07091346238027
 40
9.128885324081766
 40
9.15523617032509
 40
9.180404327929132
 40
9.243324721948206
 40
9.325121234211998
 40
9.406917746637653
 40
9.469838141978109
 40
9.495006288270883
 40
9.517811184379024
 40
9.572192090487025
 40
9.637098333281253
 40
9.691479239515456
 40
9.714284125643493
 40
9.714284125643493
 40
9.714284125643493
 40
9.714284125643493
 10
185.2874469028653
 20
15.26889163187713
 10
185.3090990569038
 20
15.24111869242805
 10
185.3597257109473
 20
15.17618054561229
 10
185.4349383202591
 20
15.06891060312891
 10
185.5248482274346
 20
14.95377438266619
 10
185.5709169676673
 20
14.85357045748314
 10
185.6655825294655
 20
14.78434006814937
 10
185.6204439320412
 20
14.73771639678269
 10
185.5947047785789
 20
14.69660308866034
 10
185.5645196708012
 20
14.66065971727934
 10
185.5193684730562
 20
14.58579782596088
 10
185.4710504458562
 20
14.807825242536
 10
185.3968539713071
 20
14.84510677337703
 10
185.2836047324608
 20
15.11610202130596
 10
185.2885133578169
 20
15.00095328446222
 10
185.2868486556307
 20
14.92836675781621
 10
185.2876830076713
 20
14.8062558848398
 10
185.2873609540265
 20
14.65913800810454
 10
185.2875076912455
 20
14.49307063956551
 10
185.2872950092722
 20
14.32187554608596
 10
185.2879497252034
 20
14.15552828635493
 10
185.2859192461139
 20
14.00935173055688
 10
185.291346039993
 20
13.88471047474606
 10
185.2804930868708
 20
13.81718656540621
 10
185.2956739155555
 20
13.75549061417017
 10
185.2457895108133
 20
13.76727503896997
 10
185.2017150342522
 20
13.75943822779964
 10
185.15823716302
 20
13.76760441372698
 10
185.1092346786489
 20
13.75538056738463
 10
185.1218731234824
 20
13.80960667249308
 10
185.113018296845
 20
13.86936918907553
 10
185.1175058770314
 20
13.97922029044365
 10
185.1157960135991
 20
14.11029975405674
 10
185.1163550915986
 20
14.26198011444323
 10
185.1161928768694
 20
14.42211074929948
 10
185.1162269924674
 20
14.58236865674562
 10
185.1162514960127
 20
14.73370247520435
 10
185.1161453543224
 20
14.86582156338596
 10
185.1164299141932
 20
14.9729480253319
 10
185.1158675547567
 20
15.0380861957947
 10
185.1180765083691
 20
15.16618957858671
 10
185.0319435998601
 20
14.79097610391571
 10
184.9555140818499
 20
14.6391819312339
 10
184.8660040767833
 20
14.47766206446301
 10
184.7640413217327
 20
14.20471848820167
 10
184.7187976491039
 20
14.36717346596505
 10
184.610235594167
 20
14.45605432058115
 10
184.7995791751753
 20
14.60549794961403
 10
184.85653405457
 20
14.7974913697492
 10
184.9717520993352
 20
15.02899622906751
 10
184.9940151630132
 20
15.21797259759057
 10
185.177190515214
 20
15.49454089325924
 10
185.0538033597552
 20
15.48698978832088
 10
184.9925684166834
 20
15.48856772366112
 10
184.9081999617064
 20
15.48882592573666
 10
184.8204235085966
 20
15.48544845751199
 10
184.7656768696122
 20
15.49394814982014
 10
184.7104703026025
 20
15.48048561049782
 10
184.7222823035536
 20
15.52931442126757
 10
184.7142496151794
 20
15.57269004896703
 10
184.7228186104679
 20
15.61509438309567
 10
184.7102943409157
 20
15.66267796552113
 10
184.7555101538735
 20
15.65267212995104
 10
184.8014815562723
 20
15.65894105174056
 10
184.877722204771
 20
15.65593561405867
 10
184.9561296131993
 20
15.65770448278536
 10
185.0323992648932
 20
15.65464793981655
 10
185.0783009459475
 20
15.66103971376172
 10
185.1231733965399
 20
15.65093822978891
 10
185.1105552275634
 20
15.70157201581893
 10
185.1191936582707
 20
15.75501261882065
 10
185.1152361595443
 20
15.84863255131675
 10
185.1162325068335
 20
15.95112606688918
 10
185.1171927413073
 20
16.05353270248158
 10
185.1133211458005
 20
16.14735929609315
 10
185.1217789814365
 20
16.20036542840347
 10
185.1093075932835
 20
16.25211435651182
 10
185.154210638985
 20
16.2385074722675
 10
185.1955083836772
 20
16.24100480320579
 10
185.259534428105
 20
16.23648060574482
 10
185.2986111148786
 20
16.22781003043302
 10
185.3476543498742
 20
16.23515102070681
 10
185.322508003059
 20
16.19602896051752
 10
185.2815901333723
 20
16.20563842455804
 10
185.2910109616603
 20
16.15540148169774
 10
185.2855647318746
 20
16.10385945639486
 10
185.2881699601804
 20
16.01959707584517
 10
185.2870102202153
 20
15.92559135583403
 10
185.2883591064232
 20
15.83196865395521
 10
185.2849970101508
 20
15.74679517552218
 10
185.2920959917769
 20
15.69716856072039
 10
185.2812569154545
 20
15.64993694969984
 10
185.3304010225245
 20
15.66201674936847
 10
185.3794877630147
 20
15.65447393363006
 10
185.4573714280641
 20
15.65686070361428
 10
185.5350365172896
 20
15.65899381905409
 10
185.5845393931354
 20
15.6519339192245
 10
185.6344594750639
 20
15.66360151936209
 10
185.622319851688
 20
15.61540235371387
 10
185.6305838229143
 20
15.5724921980123
 10
185.6223198650783
 20
15.52958201851379
 10
185.6344594549855
 20
15.48138288754859
 10
185.5845395158746
 20
15.49305034471504
 10
185.5350350651202
 20
15.4859920243504
 10
185.4573784382973
 20
15.48811665228597
 10
185.379464386576
 20
15.49053389365754
 10
185.3304500352716
 20
15.48291848194479
 10
185.2813246108943
 20
15.49507952557586
 10
185.2915559988571
 20
15.45073013424152
 10
185.2856677678054
 20
15.40925436202905
 10
185.2878788305568
 20
15.34915394315296
 10
185.2874109346146
 20
15.30225782762883
 10
185.2874386992913
 20
15.2765014641819
 10
185.2874469028653
 20
15.26889163187713
 97
        1
330
A6
 75
     1
 76
     2
 52
45.0
 41
0.1
 77
     0
 78
     1
 53
45.0
 43
0.0
 44
0.0
 45
-0.282842712474619
 46
0.0
 79
     0
 98
        1
 10
0.0
 20
0.0
  0
HATCH
  5
C4
330
48
100
AcDbEntity
  8
1
  6
Continuous
 62
     2
100
AcDbHatch
 10
0.0
 20
0.0
 30
0.0
210
0.0
220
0.0
230
1.0
  2
CUSTOM6
 70
     0
 71
     1
 91
        1
 92
        1
 93
        1
 72
     4
 94
        3
 73
     0
 74
     0
 95
       91
 96
       87
 40
0.0
 40
0.0
 40
0.0
 40
0.0
 40
0.0345987051695718
 40
0.1258134969461369
 40
0.2547723404888987
 40
0.4026032099154125
 40
0.5504340793416704
 40
0.679392922883608
 40
0.7706077146571035
 40
0.8052064287780925
 40
1.124852390615279
 40
1.427402236308872
 40
1.706356627453514
 40
1.955541417875197
 40
2.169485938566342
 40
2.344350786664796
 40
2.480568411561946
 40
2.590440557428968
 40
2.649189927151123
 40
2.749320643306327
 40
2.912632739880034
 40
3.147745656000237
 40
3.244827496385135
 40
3.338490056946717
 40
3.583815413207148
 40
3.761423943238516
 40
3.886956104362687
 40
3.985855451886853
 40
4.091766255337738
 40
4.250186473811932
 40
4.422734315084577
 40
4.628285684838676
 40
4.872093227758509
 40
5.15254965214562
 40
5.464967135837605
 40
5.803201477852522
 40
6.160362988813993
 40
6.193449448276048
 40
6.284170385501702
 40
6.419718138764572
 40
6.587285046385822
 40
6.774063446723736
 40
6.967245678113719
 40
7.154024078817705
 40
7.321590987026091
 40
7.457138740890449
 40
7.547859678556185
 40
7.580946138182745
 40
7.608533084714801
 40
7.669224367077779
 40
7.729915649429999
 40
7.757502595950052
 40
7.790278062553505
 40
7.880146277431003
 40
8.014419963180465
 40
8.180411842397966
 40
8.365434637679435
 40
8.556801071622736
 40
8.741823866830849
 40
8.90781574591636
 40
9.042089431507513
 40
9.131957646249639
 40
9.164733112797215
 40
9.415425063140136
 40
9.667986180958609
 40
9.694169807462776
 40
9.756607686047735
 40
9.831130315322541
 40
9.893568193900006
 40
9.919751820398822
 40
9.950967964690642
 40
9.996421631210755
 40
10.22087981037464
 40
10.44341866197553
 40
10.47847970788865
 40
10.57091337438766
 40
10.7015954546124
 40
10.85140174170371
 40
11.00120802880488
 40
11.13189010907393
 40
11.22432377583021
 40
11.25938480938967
 40
11.28697175596156
 40
11.3476630383593
 40
11.40835432042081
 40
11.43594125892116
 40
11.43594125892116
 40
11.43594125892116
 40
11.43594125892116
 10
190.0818114333289
 20
15.55242795125071
 10
190.0702785844941
 20
15.55242790287909
 10
190.0283409444998
 20
15.55242773704158
 10
189.9434129719026
 20
15.55243125800903
 10
189.8207688553128
 20
15.55240926435872
 10
189.6791206916993
 20
15.55250801177048
 10
189.537975369849
 20
15.55214686232415
 10
189.4141351317904
 20
15.55321883609083
 10
189.3317217825382
 20
15.55092249091262
 10
189.1727791229692
 20
15.56048569373413
 10
189.3503402353376
 20
15.19785394311365
 10
189.3379739205452
 20
14.95243127723108
 10
189.4064519473864
 20
14.66862501324828
 10
189.469302432097
 20
14.43250999939029
 10
189.5452253431729
 20
14.23326740396124
 10
189.6303189577016
 20
14.07745347451367
 10
189.7244607592935
 20
13.97657857781386
 10
189.8282648207728
 20
13.92465852638959
 10
189.9125872030773
 20
13.97606484379611
 10
189.9351322179452
 20
14.09144544037512
 10
189.9745730975372
 20
14.21885149702375
 10
189.9202919734942
 20
14.53622328086752
 10
190.0451218072474
 20
14.389821801409
 10
190.2019291513602
 20
14.35795300331168
 10
190.0947720007057
 20
14.12421357767623
 10
190.0808711209867
 20
13.95972776583652
 10
190.0234709467225
 20
13.83130869122477
 10
189.9335020145008
 20
13.7601880235282
 10
189.8095274657877
 20
13.74432324142247
 10
189.6634273196859
 20
13.77993797554165
 10
189.5243894320284
 20
13.90000570500271
 10
189.4102003962144
 20
14.07435682550314
 10
189.3146141301486
 20
14.29946603111234
 10
189.2318652572626
 20
14.56388246006437
 10
189.1807179256412
 20
14.88187933098537
 10
189.0770189207338
 20
15.15543728488907
 10
189.2042841208521
 20
15.56005818612861
 10
189.0357890623018
 20
15.55112367849672
 10
188.9511995787077
 20
15.55315961418357
 10
188.8189876387627
 20
15.552139373884
 10
188.6560505094104
 20
15.55253230318423
 10
188.4733759170532
 20
15.55235696313362
 10
188.2847057373383
 20
15.55260105307462
 10
188.1014469020189
 20
15.5518565790623
 10
187.9404746832718
 20
15.5541636052242
 10
187.8029808335276
 20
15.54799804883656
 10
187.728959037231
 20
15.56032838458205
 10
187.6613215186857
 20
15.5432932372355
 10
187.673237371927
 20
15.59524438447522
 10
187.6655677285694
 20
15.64071424966523
 10
187.6732592225115
 20
15.68614453703699
 10
187.6613141797761
 20
15.73802395984564
 10
187.7283588305867
 20
15.72119143490258
 10
187.8017375665676
 20
15.73335409092665
 10
187.9379128305272
 20
15.72727231074952
 10
188.0973811801512
 20
15.72954834315052
 10
188.2789173085836
 20
15.72881233998957
 10
188.4658034862179
 20
15.72905954196127
 10
188.6468012316836
 20
15.72886400799248
 10
188.8080802578878
 20
15.72932234714833
 10
188.9393882124887
 20
15.728126737512
 10
189.0225051322596
 20
15.73051347319736
 10
189.1556236547815
 20
15.72230605725459
 10
189.0645893502657
 20
15.97752868952648
 10
188.978963307442
 20
16.24164358328244
 10
189.0990589003455
 20
16.22904442969159
 10
189.1514264948544
 20
16.22694235763071
 10
189.2214497569715
 20
16.2253539988965
 10
189.2671922337817
 20
16.21602567538108
 10
189.3220812646933
 20
16.2254596691542
 10
189.2963574785681
 20
16.17733028655167
 10
189.1825397571453
 20
16.18266829744163
 10
189.3159346621136
 20
15.95449174576772
 10
189.1943658735469
 20
15.72156856595915
 10
189.3223188769414
 20
15.73087258884434
 10
189.404904840646
 20
15.72801001754674
 10
189.5307214850824
 20
15.72923437412297
 10
189.6741469838057
 20
15.72932431888959
 10
189.8157420951728
 20
15.72746163183847
 10
189.9459127249967
 20
15.73333075937157
 10
190.0193452286191
 20
15.72070340823198
 10
190.0891112922096
 20
15.73877563110406
 10
190.0775772605396
 20
15.6861285054632
 10
190.0833184346681
 20
15.64221317686541
 10
190.0816615770911
 20
15.59089982676544
 10
190.081775756167
 20
15.56158792021628
 10
190.0818114333289
 20
15.55242795125071
 97
        1
330
A7
 75
     1
 76
     2
 52
45.0
 41
0.1
 77
     0
 78
     1
 53
45.0
 43
0.0
 44
0.0
 45
-0.282842712474619
 46
0.0
 79
     0
 98
        1
 10
0.0
 20
0.0
  0
HATCH
  5
C5
330
48
100
AcDbEntity
  8
1
  6
Continuous
 62
     2
100
AcDbHatch
 10
0.0
 20
0.0
 30
0.0
210
0.0
220
0.0
230
1.0
  2
CUSTOM7
 70
     0
 71
     1
 91
        1
 92
        1
 93
        1
 72
     4
 94
        3
 73
     0
 74
     0
 95
       75
 96
       71
 40
0.0
 40
0.0
 40
0.0
 40
0.0
 40
0.0342546099129673
 40
0.1245622414432329
 40
0.2522385480897518
 40
0.398599192294068
 40
0.5449598364980839
 40
0.6726361431438834
 40
0.7629437746736925
 40
0.7971983935297973
 40
1.10172362344966
 40
1.408591244036667
 40
1.433332471690377
 40
1.487763172450184
 40
1.542193873082025
 40
1.566935100592579
 40
1.923523931821886
 40
2.271755704953684
 40
2.590579755100926
 40
2.858943305581186
 40
2.889120339309206
 40
2.918305855191158
 40
2.941366645531283
 40
2.996357760973174
 40
3.061992318140719
 40
3.116983433626916
 40
3.140044223997595
 40
3.411273122936517
 40
3.732441619741182
 40
3.76106821753288
 40
3.837787499630442
 40
3.948858699126081
 40
4.080541049104458
 40
4.219093782625842
 40
4.350776132722393
 40
4.461847332405727
 40
4.53856661467846
 40
4.567193212544705
 40
4.594907573998963
 40
4.666381453557502
 40
4.764111044011113
 40
4.870592538125916
 40
4.968322128642367
 40
5.039796008287052
 40
5.067510369784511
 40
5.094263603185725
 40
5.153120716668361
 40
5.211977830150808
 40
5.238731063551812
 40
5.272290535139051
 40
5.363380529444912
 40
5.49761841578159
 40
5.660621563453832
 40
5.838007341749533
 40
6.015393119910884
 40
6.17839626703851
 40
6.312634151842461
 40
6.403724143059451
 40
6.437283612672546
 40
6.464036846261161
 40
6.522893960004778
 40
6.581751071484044
 40
6.60850430159099
 40
6.637253941281138
 40
6.711397748902989
 40
6.812778057283602
 40
6.923237199249378
 40
7.024617507624022
 40
7.098761315207675
 40
7.127510946007625
 40
7.127510946007625
 40
7.127510946007625
 40
7.127510946007625
 10
188.4418622390564
 20
14.95849128473259
 10
188.4418622819707
 20
14.94707313408715
 10
188.4418624481128
 20
14.90555257842624
 10
188.4418593081787
 20
14.82146922003766
 10
188.4418788279801
 20
14.70004497322323
 10
188.4417912187737
 20
14.55980494047443
 10
188.442111623523
 20
14.42006556794571
 10
188.441160590974
 20
14.29745038894924
 10
188.4431978595968
 20
14.21587074438038
 10
188.4349433178744
 20
14.06271267077691
 10
188.7430797940903
 20
14.22560236054715
 10
189.0350645173735
 20
14.39482938688001
 10
189.0408354448707
 20
14.25973235781906
 10
189.0455471719891
 20
14.21617221160438
 10
189.0482535411917
 20
14.17211249350538
 10
189.0672545672962
 20
14.02272590363128
 10
188.65839422473
 20
14.08681172241256
 10
188.3793710348832
 20
13.97296341411012
 10
188.1018081587166
 20
13.87364095811138
 10
187.80998371844
 20
13.9163068759635
 10
187.7869144678658
 20
13.81321679744536
 10
187.7537474383332
 20
13.78691091244463
 10
187.7480653962739
 20
13.83455309036298
 10
187.7284214559044
 20
13.87180336115064
 10
187.7095089485622
 20
13.93007387847558
 10
187.6942849867707
 20
13.97385201007799
 10
187.6477246372935
 20
14.08759421046305
 10
187.9890897312449
 20
14.05576301120041
 10
188.267964936739
 20
14.02161435106477
 10
188.2617753034906
 20
14.16913976479646
 10
188.2630935452774
 20
14.24013150908828
 10
188.2624831689948
 20
14.34719767958656
 10
188.2625871570725
 20
14.47398529785993
 10
188.2629987964055
 20
14.60849243496045
 10
188.2613907841969
 20
14.73395549951179
 10
188.2659902567925
 20
14.84505246719112
 10
188.256418650221
 20
14.90761886800683
 10
188.2704001783691
 20
14.96595388294996
 10
188.2147384386705
 20
14.95289710582233
 10
188.1575655197821
 20
14.96136307749493
 10
188.0616048925648
 20
14.95729976080631
 10
187.963376752282
 20
14.95970889852469
 10
187.8672582457561
 20
14.95551600613383
 10
187.8104648525811
 20
14.96429346441157
 10
187.7550356873384
 20
14.95094936850116
 10
187.7670679427917
 20
15.00036910959252
 10
187.7592003173937
 20
15.0439398803039
 10
187.7666295563828
 20
15.0883046911852
 10
187.7551930564143
 20
15.13902297763985
 10
187.8232102370133
 20
15.12162460757738
 10
187.8968496879747
 20
15.13417450237183
 10
188.0325064058211
 20
15.12799677011093
 10
188.1884909024525
 20
15.13029203093079
 10
188.3615926358143
 20
15.12940968262525
 10
188.5346942964181
 20
15.13029207142403
 10
188.6906789811216
 20
15.12799662955545
 10
188.8263351889797
 20
15.13417486262426
 10
188.8999756705652
 20
15.1216239421833
 10
188.9679914174724
 20
15.13902373012137
 10
188.9565590885922
 20
15.0883013041455
 10
188.9639539458297
 20
15.04397060811103
 10
188.956203991227
 20
15.0002830755019
 10
188.9681203741877
 20
14.95063590098472
 10
188.9108170223616
 20
14.9646141133842
 10
188.8520145789773
 20
14.95539755673249
 10
188.7525293633199
 20
14.95952268164924
 10
188.649428009835
 20
14.95822760025883
 10
188.5537846354573
 20
14.95854077077635
 10
188.4857467971617
 20
14.9584877669714
 10
188.4514462213443
 20
14.95849051871651
 10
188.4418622390564
 20
14.95849128473259
 97
        1
330
A8
 75
     1
 76
     2
 52
45.0
 41
0.1
 77
     0
 78
     1
 53
45.0
 43
0.0
 44
0.0
 45
-0.282842712474619
 46
0.0
 79
     0
 98
        1
 10
0.0
 20
0.0
  0
HATCH
  5
C6
330
48
100
AcDbEntity
  8
1
  6
Continuous
 62
     2
100
AcDbHatch
 10
0.0
 20
0.0
 30
0.0
210
0.0
220
0.0
230
1.0
  2
CUSTOM8
 70
     0
 71
     1
 91
        1
 92
        1
 93
        1
 72
     4
 94
        3
 73
     0
 74
     0
 95
       15
 96
       11
 40
0.0
 40
0.0
 40
0.0
 40
0.0
 40
0.2785535985096532
 40
0.5215624748198807
 40
0.6076917376040478
 40
0.6938210001741236
 40
0.9405019146455025
 40
1.221691403489127
 40
1.300471877081051
 40
1.379252341684821
 40
1.379252341684821
 40
1.379252341684821
 40
1.379252341684821
 10
189.5681493630999
 20
16.22930267330375
 10
189.6296017794178
 20
16.1769164659271
 10
189.7446649974113
 20
16.07882876798217
 10
190.0397348497244
 20
15.92889785897218
 10
189.9025147631856
 20
15.84343227515008
 10
189.8041227843779
 20
15.71085785201549
 10
189.7130033590649
 20
16.01616985781414
 10
189.3636839480656
 20
16.07967869465367
 10
189.5119258376569
 20
16.17896509880871
 10
189.5494081874236
 20
16.21252348402376
 10
189.5681493630999
 20
16.22930267330375
 97
        1
330
A9
 75
     1
 76
     2
 52
45.0
 41
0.1
 77
     0
 78
     1
 53
45.0
 43
0.0
 44
0.0
 45
-0.282842712474619
 46
0.0
 79
     0
 98
        1
 10
0.0
 20
0.0
  0
HATCH
  5
C7
330
48
100
AcDbEntity
  8
1
  6
Continuous
 62
     2
100
AcDbHatch
 10
0.0
 20
0.0
 30
0.0
210
0.0
220
0.0
230
1.0
  2
CUSTOM9
 70
     0
 71
     1
 91
        1
 92
        1
 93
        1
 72
     4
 94
        3
 73
     0
 74
     0
 95
       35
 96
       31
 40
0.0
 40
0.0
 40
0.0
 40
0.0
 40
0.0335231036620645
 40
0.0713218571711972
 40
0.4278866681487083
 40
0.8116865841964163
 40
1.198190238000073
 40
1.561379546812703
 40
1.659983174622059
 40
1.7593155738072
 40
2.132719617231083
 40
2.525233363588836
 40
2.910815397779706
 40
3.265244364303294
 40
3.592606723582035
 40
3.964386154603984
 40
4.359942131737808
 40
4.75815411863932
 40
4.84384653869994
 40
4.936650065543253
 40
5.256616602537334
 40
5.58170740441607
 40
5.899719158308164
 40
6.198363494280763
 40
6.466301046615796
 40
6.493895311537118
 40
6.559697020196911
 40
6.638234543442486
 40
6.704036252154238
 40
6.731630508423044
 40
6.731630508423044
 40
6.731630508423044
 40
6.731630508423044
 10
191.9736010568669
 20
16.23463843719128
 10
191.9676006097788
 20
16.22480690542316
 10
191.9548344099157
 20
16.20388988579792
 10
191.794936200655
 20
16.1712712653269
 10
192.2322025842339
 20
15.88206680336694
 10
192.4345394828261
 20
15.68041138358433
 10
192.6819564267973
 20
15.43749387603271
 10
193.1831513624606
 20
15.3604766275777
 10
193.012556219897
 20
15.21876939174651
 10
192.9383299463201
 20
15.01710366209102
 10
192.6131432248188
 20
15.36956287174721
 10
192.3277741670664
 20
15.53175212559556
 10
192.0337604077658
 20
15.73687130053044
 10
191.8084452691134
 20
16.2182748859545
 10
191.5993085055521
 20
15.75343046609218
 10
191.3207873674834
 20
15.54350952252906
 10
191.0371383177208
 20
15.37424456359979
 10
190.7078639527832
 20
15.0014236090793
 10
190.6277012318224
 20
15.19708014458996
 10
190.4759724909745
 20
15.32491104190589
 10
190.9083395826794
 20
15.40454031765929
 10
191.0962565329766
 20
15.60026634915467
 10
191.3468477420502
 20
15.81632996916749
 10
191.5714350470161
 20
15.98190992300052
 10
191.6259775409712
 20
16.26133964636821
 10
191.7494661029011
 20
16.24737950408072
 10
191.806027334452
 20
16.24521268867641
 10
191.8761870984944
 20
16.24046859881354
 10
191.9333414022105
 20
16.23709429350534
 10
191.9644190320839
 20
16.23519854711113
 10
191.9736010568669
 20
16.23463843719128
 97
        1
330
AA
 75
     1
 76
     2
 52
45.0
 41
0.1
 77
     0
 78
     1
 53
45.0
 43
0.0
 44
0.0
 45
-0.282842712474619
 46
0.0
 79
     0
 98
        1
 10
0.0
 20
0.0
  0
HATCH
  5
C8
330
48
100
AcDbEntity
  8
1
  6
Continuous
 62
     2
100
AcDbHatch
 10
0.0
 20
0.0
 30
0.0
210
0.0
220
0.0
230
1.0
  2
CUSTOM10
 70
     0
 71
     1
 91
        1
 92
        1
 93
        1
 72
     4
 94
        3
 73
     0
 74
     0
 95
       91
 96
       87
 40
0.0
 40
0.0
 40
0.0
 40
0.0
 40
0.0267532254356701
 40
0.0856103386464067
 40
0.1444674521996532
 40
0.1712206856618426
 40
0.2039416005642447
 40
0.2955601971652395
 40
0.4362601844616829
 40
0.6162252844507161
 40
0.8256392189704609
 40
1.054685709844402
 40
1.293548478893522
 40
1.532411247938294
 40
1.761457738799559
 40
1.970871673298528
 40
2.150836773256724
 40
2.291536760495585
 40
2.383155356836691
 40
2.415876284101311
 40
2.442629517487952
 40
2.501486630949082
 40
2.560343744424226
 40
2.587096977826497
 40
2.617068194440924
 40
2.699247336756065
 40
2.822032643466378
 40
2.973822353257908
 40
3.14301470482335
 40
3.318007936879929
 40
3.487200288186762
 40
3.638989997548243
 40
3.761775303794741
 40
3.843954445753076
 40
3.873925662229772
 40
3.89081277350048
 40
3.907699884771658
 40
3.937960767857272
 40
3.980983618142306
 40
4.199085915228443
 40
4.439444339237237
 40
4.677588241260877
 40
5.050698317837763
 40
5.448212454763149
 40
5.855291218044673
 40
6.138575438885352
 40
6.417434507584198
 40
6.44455110439388
 40
6.504207617363178
 40
6.563864130314499
 40
6.590980727104093
 40
6.848609460381476
 40
7.109611990668435
 40
7.352910904446102
 40
7.557830220705477
 40
7.587518925913394
 40
7.652834077375813
 40
7.718149228845745
 40
7.747837934062049
 40
7.854880190301012
 40
7.976511257403566
 40
8.369487896592368
 40
8.757514959223661
 40
9.126072419331123
 40
9.460639380392186
 40
9.746695593035927
 40
9.777569943118706
 40
9.807050320931804
 40
9.830377336128937
 40
9.886003295436009
 40
9.952395569429918
 40
10.00802152870627
 40
10.03134854388219
 40
10.21356951009589
 40
10.42203479292872
 40
10.66154556731064
 40
10.91693789564306
 40
11.15832906556567
 40
11.18982674596624
 40
11.27286608520409
 40
11.39026653033351
 40
11.52484752840887
 40
11.65942852648449
 40
11.77682897161485
 40
11.85986831085684
 40
11.89136598230429
 40
11.89136598230429
 40
11.89136598230429
 40
11.89136598230429
 10
190.7027885008196
 20
14.70699600701767
 10
190.7028237765288
 20
14.7158784731198
 10
190.7029366710796
 20
14.74430237047342
 10
190.7012984568489
 20
14.79409639169797
 10
190.7069750292911
 20
14.83657564478148
 10
190.6956928731706
 20
14.88730154856841
 10
190.7632296979031
 20
14.87012900740103
 10
190.83880292107
 20
14.8829022716599
 10
190.9828357056
 20
14.87629729457376
 10
191.1569419185427
 20
14.8788846220646
 10
191.3639599611003
 20
14.87800591955547
 10
191.5894688172378
 20
14.87828207920022
 10
191.8251162293406
 20
14.87818339658656
 10
192.0607640531348
 20
14.87828184412761
 10
192.2862717580626
 20
14.87800678190782
 10
192.4932934632805
 20
14.87888186270729
 10
192.6673888915288
 20
14.87630522678441
 10
192.8114492071986
 20
14.88288290449207
 10
192.8869691915293
 20
14.87016243405598
 10
192.954577603703
 20
14.8872640019168
 10
192.9430840140676
 20
14.83674785802934
 10
192.9505104581733
 20
14.79253252226496
 10
192.9428838927986
 20
14.74867966503604
 10
192.9546489459424
 20
14.69878374479323
 10
192.8930788491983
 20
14.71393227712506
 10
192.8256791738672
 20
14.70310665350669
 10
192.7013004056221
 20
14.70852031626231
 10
192.555442823657
 20
14.7064920539078
 10
192.3893576440085
 20
14.70715777578381
 10
192.2188412621724
 20
14.70689643521237
 10
192.0519790855388
 20
14.70721553391089
 10
191.9087346827105
 20
14.70635302590757
 10
191.7773313869834
 20
14.70863300482983
 10
191.7239859134656
 20
14.70407704374196
 10
191.6485188456912
 20
14.70999914992873
 10
191.6769075779232
 20
14.70094169343347
 10
191.7033652409542
 20
14.69725912268925
 10
191.6633522907702
 20
14.66654271968267
 10
191.5713663691867
 20
14.67667591174627
 10
191.543939620707
 20
14.43032502247778
 10
191.4478793967234
 20
14.27499558764369
 10
191.1917277964474
 20
13.94525417931563
 10
191.7627537732762
 20
14.08430022210445
 10
192.0173656320517
 20
14.08291779973359
 10
192.6279647048617
 20
13.99790569242078
 10
192.3340698578084
 20
14.29685417558198
 10
192.0133304286517
 20
14.44330856901775
 10
192.1313543360434
 20
14.50025540818282
 10
192.1724716466261
 20
14.52420099873343
 10
192.2156812394411
 20
14.54599758811224
 10
192.317457409445
 20
14.60928721253897
 10
192.4328867625247
 20
14.35147151408774
 10
192.6329591642277
 20
14.21616041113676
 10
192.7269077387227
 20
14.03792795138875
 10
192.9558829746394
 20
13.87997821027042
 10
192.8596031846707
 20
13.82915972576293
 10
192.8167959763779
 20
13.79881292523047
 10
192.7718243528779
 20
13.77466130281453
 10
192.7121720925213
 20
13.72552146747561
 10
192.6789731061325
 20
13.85997475673604
 10
192.5582013350796
 20
14.01594265286577
 10
192.1970976005978
 20
13.88569928059552
 10
191.8385061955541
 20
13.90224694409479
 10
191.457092045008
 20
13.89331229351861
 10
191.170345528289
 20
13.82882671672403
 10
190.8592055599715
 20
13.94230668192822
 10
190.8268737818788
 20
13.83122259927763
 10
190.7896178253318
 20
13.81196313850009
 10
190.7865737632753
 20
13.85874784087292
 10
190.7679892860607
 20
13.89806853919131
 10
190.7512436616778
 20
13.95765983478227
 10
190.7383730915753
 20
14.00201969871278
 10
190.7042327806428
 20
14.09106331120195
 10
190.9482714457754
 20
14.02181042943764
 10
191.1441394486671
 20
14.00030369057738
 10
191.2395426381277
 20
14.28226484478458
 10
191.2945135769597
 20
14.44363045421117
 10
191.5159619357156
 20
14.71391177589733
 10
191.3849239381216
 20
14.7054844685373
 10
191.3110026555854
 20
14.70779008496965
 10
191.1977459876244
 20
14.70671378321653
 10
191.0694251807484
 20
14.70707639076504
 10
190.9404252030415
 20
14.70697724466081
 10
190.828784094629
 20
14.70699932712568
 10
190.7514663970026
 20
14.70699579189664
 10
190.713287653201
 20
14.70699595845076
 10
190.7027885008196
 20
14.70699600701767
 97
        1
330
AB
 75
     1
 76
     2
 52
45.0
 41
0.1
 77
     0
 78
     1
 53
45.0
 43
0.0
 44
0.0
 45
-0.282842712474619
 46
0.0
 79
     0
 98
        1
 10
0.0
 20
0.0
  0
HATCH
  5
C9
330
48
100
AcDbEntity
  8
1
  6
Continuous
 62
     2
100
AcDbHatch
 10
0.0
 20
0.0
 30
0.0
210
0.0
220
0.0
230
1.0
  2
CUSTOM11
 70
     0
 71
     1
 91
        1
 92
        1
 93
        1
 72
     4
 94
        3
 73
     0
 74
     0
 95
      131
 96
      127
 40
0.0
 40
0.0
 40
0.0
 40
0.0
 40
0.0195577029826058
 40
0.0426490537461379
 40
0.2863607575856583
 40
0.5344948436189293
 40
0.7842238845573176
 40
0.8737315789467361
 40
0.9803832810312868
 40
1.092842274517031
 40
1.199761146656791
 40
1.289788768186494
 40
1.351573580786189
 40
1.370727117561417
 40
1.416400936017832
 40
1.470914848355975
 40
1.516588666791769
 40
1.53574220355285
 40
1.634216592293208
 40
1.760283341175048
 40
1.897966686682111
 40
2.031216387368928
 40
2.049689751137923
 40
2.101115601646858
 40
2.179502577739975
 40
2.278859318314089
 40
2.393194462258747
 40
2.516516648383859
 40
2.642834515405986
 40
2.766156701983491
 40
2.880491846754604
 40
2.979848588358647
 40
3.058235565443826
 40
3.109661416668978
 40
3.128134780704154
 40
3.146783742386471
 40
3.191254343315332
 40
3.24433215731599
 40
3.288802758225894
 40
3.307451719895137
 40
3.327717853844748
 40
3.383747753580111
 40
3.468388665924503
 40
3.574487837698812
 40
3.694892515728919
 40
3.82244994685206
 40
3.950007377920453
 40
4.070412055800547
 40
4.176511227368104
 40
4.26115213950155
 40
4.317182039076743
 40
4.337448172964664
 40
4.620011002696283
 40
4.885096638397551
 40
4.945373043518361
 40
5.014107710488672
 40
5.070481727652073
 40
5.319246955636596
 40
5.584812164506068
 40
5.859000912056919
 40
6.133746937542101
 40
6.401732212968906
 40
6.420736683995496
 40
6.472845717451147
 40
6.550702743894075
 40
6.646951193874283
 40
6.754234497930607
 40
6.865196086587385
 40
6.972479390357844
 40
7.068727839772006
 40
7.146584865451015
 40
7.198693898189244
 40
7.217698368905385
 40
7.234950401630861
 40
7.276089864269904
 40
7.32519180351601
 40
7.366331266090395
 40
7.383583298769745
 40
7.402779163492122
 40
7.453386443254553
 40
7.524934666445555
 40
7.606953361405894
 40
7.688972056429046
 40
7.760520279784297
 40
7.811127559734539
 40
7.83032342454616
 40
7.847844055299786
 40
7.894799345666831
 40
7.962779392744519
 40
8.04337429356057
 40
8.12817414514948
 40
8.208769044817284
 40
8.276749090376988
 40
8.32370437966955
 40
8.34122501005628
 40
8.358497614800429
 40
8.401679126686634
 40
8.457815092185692
 40
8.513951057728097
 40
8.557132569708052
 40
8.574405174505095
 40
8.602340668616456
 40
8.643455660539995
 40
8.663225271966663
 40
8.715345156564311
 40
8.78903188962865
 40
8.87350204552038
 40
8.957972194324006
 40
9.0316589255679
 40
9.083778811234588
 40
9.103548423003053
 40
9.11955008312359
 40
9.160817522379892
 40
9.217244429110258
 40
9.278724491644743
 40
9.335151398295528
 40
9.376418837357823
 40
9.392420497300611
 40
9.40119630273483
 40
9.417494229384303
 40
9.426270027749576
 40
9.440875075477608
 40
9.475702496998787
 40
9.517270709865949
 40
9.552098131994118
 40
9.566703169884326
 40
9.566703169884326
 40
9.566703169884326
 40
9.566703169884326
 10
194.6170254148479
 20
15.67015871511021
 10
194.6134345093371
 20
15.66453690702153
 10
194.6056039123625
 20
15.65227754419107
 10
194.5129968974546
 20
15.61601916040967
 10
194.4887622233248
 20
15.40148444212709
 10
194.3858709845937
 20
15.22197284509701
 10
194.1220492364305
 20
15.03615573798139
 10
194.284547156918
 20
14.95959336566075
 10
194.3607225760838
 20
14.89856693195436
 10
194.4492171072758
 20
14.83515804544754
 10
194.538993023311
 20
14.77525634219555
 10
194.5883817636047
 20
14.72102154849202
 10
194.6745708157381
 20
14.69286240541828
 10
194.6411260674229
 20
14.65713309652805
 10
194.621467116631
 20
14.62550387991899
 10
194.5919888217882
 20
14.58475872796063
 10
194.5688989446031
 20
14.55504663489637
 10
194.5380205968357
 20
14.50211422668487
 10
194.472919336574
 20
14.62740334938897
 10
194.3796000122415
 20
14.68213900233929
 10
194.2950636285138
 20
14.73916423939338
 10
194.1722498125742
 20
14.89675287427516
 10
194.1764450847301
 20
14.8203580676683
 10
194.1751478652677
 20
14.77361280161289
 10
194.1758126448076
 20
14.69584785812595
 10
194.1755549986957
 20
14.59902068324417
 10
194.1756431239921
 20
14.48650279078803
 10
194.1756077302282
 20
14.36524085945694
 10
194.1756511758279
 20
14.24086897858955
 10
194.1755199942405
 20
14.1196768363133
 10
194.1759477562047
 20
14.00691148919738
 10
194.174667820231
 20
13.91082913768738
 10
194.1779759851044
 20
13.83113826468694
 10
194.1715197740086
 20
13.78815175788778
 10
194.1806208705555
 20
13.74955432372037
 10
194.1447910339935
 20
13.75810887724065
 10
194.1115223815252
 20
13.75342519985441
 10
194.0604562576041
 20
13.75351298759779
 10
194.0269723972812
 20
13.75794430283815
 10
193.9907585408754
 20
13.74960793842504
 10
194.0009782568665
 20
13.79145277179278
 10
193.9936487887773
 20
13.83778560820167
 10
193.9973633136103
 20
13.92374831106009
 10
193.9959480554896
 20
14.02605142704843
 10
193.9964105554639
 20
14.14453223931507
 10
193.996277368623
 20
14.26957683153351
 10
193.9963015910045
 20
14.39475828107044
 10
193.9963354925551
 20
14.51286645379054
 10
193.9962060293132
 20
14.61628748709511
 10
193.9965507549081
 20
14.69932036153662
 10
193.995869827869
 20
14.75143368521239
 10
193.9994586600623
 20
14.87912907821357
 10
193.7826171386436
 20
14.58048716819614
 10
193.6021354921951
 20
14.35263981511511
 10
193.5490322295612
 20
14.49373443289808
 10
193.5200429133148
 20
14.54325767560938
 10
193.4196648062821
 20
14.64641779790101
 10
193.7405127723262
 20
14.72695035023774
 10
193.8689897005428
 20
14.91066283036428
 10
194.0906454325359
 20
15.11931995771757
 10
194.1770224894068
 20
15.29339211228338
 10
194.4549394229075
 20
15.56967051342508
 10
194.3346247839283
 20
15.56534559551108
 10
194.2863197351349
 20
15.56614856202548
 10
194.2102377454905
 20
15.56574582146579
 10
194.116701000975
 20
15.56590275611604
 10
194.0117594788557
 20
15.56582502576219
 10
193.9033887738717
 20
15.56595464378549
 10
193.7981454235897
 20
15.56554393490687
 10
193.7056237819412
 20
15.56682073671586
 10
193.6268130800707
 20
15.56340766534845
 10
193.5839674565379
 20
15.57023350036315
 10
193.5449499586516
 20
15.56065064201118
 10
193.5526365271863
 20
15.59420779565537
 10
193.5485464404312
 20
15.62523550322227
 10
193.5485531368814
 20
15.67236529270894
 10
193.5526239724912
 20
15.70340941646773
 10
193.5449495574582
 20
15.73701861635895
 10
193.5834819405495
 20
15.72748410420866
 10
193.624122801448
 20
15.73397435498065
 10
193.6951471850463
 20
15.73100150650248
 10
193.7729318149633
 20
15.73174761399151
 10
193.8507292246474
 20
15.73247814044519
 10
193.9217232089907
 20
15.72954235514154
 10
193.962427979182
 20
15.73595468772946
 10
194.0009853489909
 20
15.72650524175998
 10
193.9927342754927
 20
15.76264692158778
 10
193.9982346669359
 20
15.80129837613221
 10
193.9955754206163
 20
15.86913528561833
 10
193.9965815471532
 20
15.94591641538734
 10
193.996017801832
 20
16.02849393582752
 10
193.9970714526592
 20
16.10517329229873
 10
193.994267586313
 20
16.17331990776695
 10
194.0000702721303
 20
16.21132399809341
 10
193.9915654551159
 20
16.24758448077641
 10
194.0255610233125
 20
16.23755723771847
 10
194.0594575683099
 20
16.24073266813702
 10
194.1126669060346
 20
16.23508965640604
 10
194.1660768574483
 20
16.23434774436419
 10
194.199591464949
 20
16.22819223482974
 10
194.2388086183039
 20
16.23346029773587
 10
194.2120263698492
 20
16.19253380793484
 10
194.1708111001723
 20
16.20371204538106
 10
194.1782641540874
 20
16.15867056192119
 10
194.1742227952184
 20
16.11412278028139
 10
194.176171404964
 20
16.04223572621697
 10
194.1752364849758
 20
15.96168630588766
 10
194.176510719003
 20
15.88173995404989
 10
194.1732043793864
 20
15.80841837083177
 10
194.1802106179961
 20
15.76688643002562
 10
194.1701440380125
 20
15.72752418568107
 10
194.2029814803921
 20
15.73468063430975
 10
194.236457729648
 20
15.73027243137938
 10
194.2915053476019
 20
15.73217943347891
 10
194.3489502595314
 20
15.73185366407282
 10
194.4023026248309
 20
15.73106308733075
 10
194.4398540896638
 20
15.73313959118068
 10
194.4623172523237
 20
15.73022338167103
 10
194.4751678073731
 20
15.7357255264405
 10
194.4858255685888
 20
15.73801118197784
 10
194.4986635650144
 20
15.74494972588046
 10
194.514599103307
 20
15.72853046313665
 10
194.5410623920892
 20
15.71709122319442
 10
194.5726805253758
 20
15.69644687835184
 10
194.5987255892151
 20
15.68116869628288
 10
194.6128517723973
 20
15.67266976323177
 10
194.6170254148479
 20
15.67015871511021
 97
        1
330
AC
 75
     1
 76
     2
 52
45.0
 41
0.1
 77
     0
 78
     1
 53
45.0
 43
0.0
 44
0.0
 45
-0.282842712474619
 46
0.0
 79
     0
 98
        1
 10
0.0
 20
0.0
  0
HATCH
  5
CA
330
48
100
AcDbEntity
  8
1
  6
Continuous
 62
     2
100
AcDbHatch
 10
0.0
 20
0.0
 30
0.0
210
0.0
220
0.0
230
1.0
  2
CUSTOM12
 70
     0
 71
     1
 91
        1
 92
        1
 93
        1
 72
     4
 94
        3
 73
     0
 74
     0
 95
      124
 96
      120
 40
0.0
 40
0.0
 40
0.0
 40
0.0
 40
0.027818722962451
 40
0.1011590162384269
 40
0.2048470170590239
 40
0.3237088716559245
 40
0.4425707262522
 40
0.5462587270699547
 40
0.6195990203311798
 40
0.647417752257866
 40
0.6750060736115242
 40
0.7357003855242741
 40
0.7963946998054456
 40
0.8239830245571766
 40
0.854093381110286
 40
0.937339662940954
 40
1.063094687343235
 40
1.220731268638073
 40
1.399622220914748
 40
1.589140358637732
 40
1.778658496423898
 40
1.957549448940509
 40
2.115186030873159
 40
2.240941056914463
 40
2.324187341760532
 40
2.354297700109382
 40
2.38188602467189
 40
2.442580338710477
 40
2.503274652750499
 40
2.530862977314606
 40
2.560983949278559
 40
2.640393784452905
 40
2.752662861759128
 40
2.881361560118145
 40
3.010060258455192
 40
3.122329335705339
 40
3.201739170817953
 40
3.231860142753313
 40
3.26429802403037
 40
3.352343701778243
 40
3.482095226868767
 40
3.639650650173031
 40
3.811108022565489
 40
3.982565394927998
 40
4.140120818152583
 40
4.269872343141293
 40
4.357918020802356
 40
4.390355902043985
 40
4.423256253992554
 40
4.508104530073076
 40
4.624121560636843
 40
4.7505281760316
 40
4.866545206602047
 40
4.951393482692004
 40
4.984293834645405
 40
5.011450833242319
 40
5.071196230152098
 40
5.130941627057166
 40
5.15809862564883
 40
5.190998977601521
 40
5.275847253689347
 40
5.391864284256781
 40
5.518270899648326
 40
5.634287930209365
 40
5.719136206288039
 40
5.752036558235926
 40
5.782130946282952
 40
5.862783906229127
 40
5.979550131774997
 40
6.117984316640407
 40
6.263641154587956
 40
6.402075339414165
 40
6.518841564907961
 40
6.599494524815547
 40
6.629588912848784
 40
6.654403028226361
 40
6.713575149488128
 40
6.784199939329446
 40
6.843372060493548
 40
6.868186175802794
 40
6.896246243201862
 40
6.939586233758258
 40
6.96784656456489
 40
7.043584251089825
 40
7.153234334451688
 40
7.283231855734438
 40
7.420011856035473
 40
7.550009376579827
 40
7.659659458835228
 40
7.735397144417223
 40
7.763657474851395
 40
7.796409728011052
 40
7.880876065096326
 40
7.996370852465712
 40
8.122208446418608
 40
8.237703224799201
 40
8.322169562010895
 40
8.354921815205909
 40
8.382078813307686
 40
8.441824209206986
 40
8.501569605240132
 40
8.528726603485707
 40
8.561478856695755
 40
8.645945193877806
 40
8.761439980865317
 40
8.88727758076446
 40
9.00277236200098
 40
9.0872386966612
 40
9.119990949235655
 40
9.152428830613355
 40
9.24047450863857
 40
9.370226034149525
 40
9.527781457984409
 40
9.6992388309814
 40
9.870696203978595
 40
10.02825162781402
 40
10.15800315332564
 40
10.24604883135119
 40
10.27848670378521
 40
10.27848670378521
 40
10.27848670378521
 40
10.27848670378521
 10
195.3821827564383
 20
14.0141051738575
 10
195.3914554737523
 20
14.01410498511267
 10
195.4251744536861
 20
14.01410430876707
 10
195.4934706812465
 20
14.01411807243297
 10
195.592014171158
 20
14.01403224219538
 10
195.7062066464812
 20
14.01441755612243
 10
195.818589441707
 20
14.01300835897538
 10
195.9214376600118
 20
14.01719117422236
 10
195.9806839874849
 20
14.00823089251976
 10
196.0371265937032
 20
14.02164434526054
 10
196.0246255586955
 20
13.97087198613354
 10
196.0329549635703
 20
13.92589320939059
 10
196.024817084112
 20
13.88056752990481
 10
196.0370529214457
 20
13.82931932408459
 10
195.9747773490333
 20
13.84447955365269
 10
195.9060513026868
 20
13.83359750710735
 10
195.7782756749592
 20
13.83911304747965
 10
195.6262984511643
 20
13.83700851253691
 10
195.4502695972523
 20
13.83771002588467
 10
195.2644431934287
 20
13.83745237531284
 10
195.0786167437175
 20
13.83771005144596
 10
194.9025880142168
 20
13.83700841847724
 10
194.7506104154195
 20
13.83911332229982
 10
194.6228357664554
 20
13.83359680767633
 10
194.5541077836581
 20
13.84448077125935
 10
194.4918349042883
 20
13.82931786684202
 10
194.5040616290017
 20
13.88057510805165
 10
194.4960004462597
 20
13.92582473272418
 10
194.5040675809892
 20
13.97106357955316
 10
194.4918238487083
 20
14.02234176909951
 10
194.5525017120697
 20
14.00749577363128
 10
194.6162810745736
 20
14.01756448170728
 10
194.7277314353502
 20
14.01294644211992
 10
194.8497533443824
 20
14.01413328905462
 10
194.9719538137823
 20
14.01515863900628
 10
195.0829794287392
 20
14.01092475623394
 10
195.1476517413958
 20
14.02018584521732
 10
195.2091162810501
 20
14.00604423049676
 10
195.1930065601337
 20
14.0723552788451
 10
195.2042980327358
 20
14.14447790121969
 10
195.1987400822561
 20
14.27513760888279
 10
195.200803506169
 20
14.42607323708235
 10
195.2000167127295
 20
14.5933587310788
 10
195.2007845215627
 20
14.76061110332297
 10
195.1988038785627
 20
14.91163289269908
 10
195.2041306156621
 20
15.0420606955299
 10
195.1933101388425
 20
15.11465442605894
 10
195.2090326429875
 20
15.18150469436793
 10
195.143270813249
 20
15.16580512490819
 10
195.0756367830764
 20
15.1760924308399
 10
194.9615885293809
 20
15.17113786847117
 10
194.8451242674902
 20
15.17414128030469
 10
194.7306554121477
 20
15.16880303143384
 10
194.6640324657812
 20
15.18001268074819
 10
194.5990769715186
 20
15.16349132665006
 10
194.6107989758707
 20
15.21473720477053
 10
194.6032830189122
 20
15.25950333784085
 10
194.6107989878835
 20
15.30426944897955
 10
194.5990769505347
 20
15.35551536129734
 10
194.66403263392
 20
15.33899381766809
 10
194.7306533339821
 20
15.35020571373937
 10
194.8451352858063
 20
15.34485436710657
 10
194.9615454436962
 20
15.3479118877111
 10
195.0757660174641
 20
15.34278499010701
 10
195.1430150439227
 20
15.35345733355591
 10
195.2083325941438
 20
15.3374208266907
 10
195.1941391448553
 20
15.39949685750047
 10
195.2036059462994
 20
15.46586761628756
 10
195.1990269004085
 20
15.5823997274196
 10
195.2007696555948
 20
15.7142668502237
 10
195.1997551495392
 20
15.85615960150267
 10
195.2017191344373
 20
15.98769050702575
 10
195.196466855385
 20
16.10524577282997
 10
195.2073408763474
 20
16.16947789001579
 10
195.1919536641853
 20
16.23108802545042
 10
195.24075915378
 20
16.21702407382105
 10
195.2853995564726
 20
16.21954742075308
 10
195.3538643946742
 20
16.21512797401702
 10
195.3959106169103
 20
16.20613025544029
 10
195.4487544758774
 20
16.21411714866503
 10
195.4207035002014
 20
16.17113917611669
 10
195.3749142248594
 20
16.18259552043831
 10
195.3869539073265
 20
16.12173520005132
 10
195.3796086070641
 20
16.05769299468767
 10
195.3831195826162
 20
15.94909368863905
 10
195.3819806760173
 20
15.82494319144746
 10
195.3819174780263
 20
15.69189719829872
 10
195.3832872966869
 20
15.5679738124955
 10
195.3791638801313
 20
15.45868337849331
 10
195.3877763103564
 20
15.39608580094163
 10
195.3746757454402
 20
15.33740133296358
 10
195.4393884328198
 20
15.35362113810895
 10
195.5060405953156
 20
15.34270260383305
 10
195.6198779541103
 20
15.34793740173749
 10
195.7357259122097
 20
15.34485547516906
 10
195.849692426328
 20
15.35018259812506
 10
195.9160341018099
 20
15.33904208166535
 10
195.980718852548
 20
15.35546979593171
 10
195.9689820772722
 20
15.30425925210043
 10
195.9765168063041
 20
15.25950334120995
 10
195.9689820992257
 20
15.21474739010021
 10
195.9807188140736
 20
15.16353690871035
 10
195.9160344075252
 20
15.17996427794215
 10
195.8496886430824
 20
15.16882784447264
 10
195.7357459487012
 20
15.17413115893116
 10
195.6197995623054
 20
15.17114764593538
 10
195.5062756882122
 20
15.17606892268388
 10
195.4389231318804
 20
15.16585087513514
 10
195.3734285122495
 20
15.1814599613881
 10
195.3891713619218
 20
15.11463851827406
 10
195.3783275998211
 20
15.04207057815873
 10
195.3836581629792
 20
14.91162247614411
 10
195.3817136151854
 20
14.7606455818522
 10
195.3823133683214
 20
14.59322243934152
 10
195.3821506559603
 20
14.42656176118365
 10
195.3821895488136
 20
14.27360142921629
 10
195.3821816413099
 20
14.14849178985698
 10
195.3821828382745
 20
14.06507890991413
 10
195.3821827716208
 20
14.02491778281969
 10
195.3821827564383
 20
14.0141051738575
 97
        1
330
AD
 75
     1
 76
     2
 52
45.0
 41
0.1
 77
     0
 78
     1
 53
45.0
 43
0.0
 44
0.0
 45
-0.282842712474619
 46
0.0
 79
     0
 98
        1
 10
0.0
 20
0.0
  0
HATCH
  5
CB
330
48
100
AcDbEntity
  8
1
  6
Continuous
 62
     2
100
AcDbHatch
 10
0.0
 20
0.0
 30
0.0
210
0.0
220
0.0
230
1.0
  2
CUSTOM13
 70
     0
 71
     1
 91
        1
 92
        1
 93
        3
 72
     4
 94
        3
 73
     0
 74
     0
 95
       24
 96
       20
 40
0.0
 40
0.0
 40
0.0
 40
0.0
 40
0.2211075008753937
 40
0.4273218586245273
 40
0.5080174679239162
 40
0.5914835907870063
 40
0.8143265690192611
 40
1.054651302686575
 40
1.295452694023162
 40
1.51810923132881
 40
1.540864321905425
 40
1.595126460622686
 40
1.659890947895999
 40
1.714153085187357
 40
1.736908174961657
 40
1.764951100735346
 40
1.801562291220935
 40
1.953914424543619
 40
2.126104167379702
 40
2.126104167379702
 40
2.126104167379702
 40
2.126104167379702
 10
185.9375369556889
 20
15.58989295113011
 10
185.9112579081811
 20
15.53097628234369
 10
185.8604698894426
 20
15.41711139679251
 10
185.8131784839111
 20
15.14441958233114
 10
185.7043482802617
 20
15.24445482575447
 10
185.5514800279638
 20
15.27118593367326
 10
185.7686155181199
 20
15.48518135017626
 10
185.7838483674381
 20
15.70332117782481
 10
185.8906889492
 20
15.8845157906642
 10
185.8305380947078
 20
16.16913226311395
 10
185.9334317395401
 20
16.14114089222445
 10
185.977993346815
 20
16.13243251602294
 10
186.0380842395397
 20
16.1213965418335
 10
186.0756619587438
 20
16.10767523055554
 10
186.1252466928606
 20
16.10756076160218
 10
186.0930158919325
 20
16.07306592398617
 10
186.0171802221882
 20
16.0840410453796
 10
186.0429447159693
 20
15.89858969582443
 10
186.005589676385
 20
15.80702313549583
 10
185.9857704961609
 20
15.75844135397699
 72
     4
 94
        3
 73
     0
 74
     0
 95
       70
 96
       66
 40
0.0
 40
0.0
 40
0.0
 40
0.0
 40
0.0241731073021472
 40
0.0846058988987013
 40
0.1631685280353284
 40
0.2417311571789756
 40
0.3021639488292751
 40
0.3263370654895541
 40
0.3533118254248881
 40
0.4228783438922094
 40
0.517999909531342
 40
0.6216398239466102
 40
0.7167613891499706
 40
0.7863279069649863
 40
0.8133026791761836
 40
0.8372943998771676
 40
0.8945054261372869
 40
0.9627895541962637
 40
1.020000580349074
 40
1.043992300975172
 40
1.071934345522902
 40
1.113121768772912
 40
1.145225199332236
 40
1.225483775412775
 40
1.329819923771487
 40
1.43415607199438
 40
1.514414647795801
 40
1.546518078208409
 40
1.578974764260183
 40
1.662678849314178
 40
1.777131373668398
 40
1.901833377474789
 40
2.016285900500579
 40
2.099989982527946
 40
2.132446666570305
 40
2.158782354486029
 40
2.216720867907817
 40
2.274659381334242
 40
2.300995069256174
 40
2.333451754066147
 40
2.417155836543827
 40
2.531608358985267
 40
2.656310362283762
 40
2.770762886388894
 40
2.854466971340059
 40
2.886923657363866
 40
2.913597976833298
 40
2.9823896428751
 40
3.076451716946965
 40
3.178937260458577
 40
3.272999334739978
 40
3.3417910010592
 40
3.36846532066351
 40
3.396976080738732
 40
3.472140811845968
 40
3.578408190308657
 40
3.700226892456094
 40
3.822045594634311
 40
3.928312973256418
 40
4.003477705314815
 40
4.03198845686688
 40
4.05832414479768
 40
4.11626265823684
 40
4.17420117140064
 40
4.200536849608572
 40
4.200536849608572
 40
4.200536849608572
 40
4.200536849608572
 10
185.9857704961609
 20
15.75844135397699
 10
185.9938259544679
 20
15.7584435981168
 10
186.0220200663241
 20
15.75845146032791
 10
186.0765534803672
 20
15.75830754828365
 10
186.1482891808604
 20
15.75909120499892
 10
186.2236240137062
 20
15.75627570463805
 10
186.2713052366438
 20
15.76298403400951
 10
186.3195071245616
 20
15.75197563692426
 10
186.3062571799873
 20
15.80546402997027
 10
186.3151093964538
 20
15.86049583543085
 10
186.3108698036286
 20
15.95419908726103
 10
186.313348348128
 20
16.04959482218526
 10
186.309093870606
 20
16.14356821983381
 10
186.3179818665846
 20
16.19795062438006
 10
186.3046977409945
 20
16.25233997691454
 10
186.3514119277109
 20
16.23842216335352
 10
186.3943254545736
 20
16.24103877374037
 10
186.4605443456684
 20
16.23648422450748
 10
186.5013342271799
 20
16.22778162134156
 10
186.5525145690819
 20
16.23531799890189
 10
186.52537204872
 20
16.19349970223279
 10
186.4803096055707
 20
16.20284992072591
 10
186.4942065045051
 20
16.13841207371832
 10
186.4858414431654
 20
16.07378219627394
 10
186.4903632178398
 20
15.97529141193882
 10
186.4854741311167
 20
15.87595932842564
 10
186.4950258992082
 20
15.81293115552963
 10
186.47997614552
 20
15.74964011499782
 10
186.5449159457209
 20
15.76515072944263
 10
186.6116246399496
 20
15.75499387697806
 10
186.7241435470828
 20
15.75988800099362
 10
186.8390235448954
 20
15.75691204732777
 10
186.9519871999747
 20
15.76221664184985
 10
187.0176267597678
 20
15.75107306472083
 10
187.0816276691053
 20
15.76744532319851
 10
187.0703142889189
 20
15.71761689905269
 10
187.0775339871509
 20
15.67416715212117
 10
187.070314261127
 20
15.63071745587438
 10
187.0816277175994
 20
15.5808889519687
 10
187.0176263598972
 20
15.59726166091356
 10
186.9519921240459
 20
15.58611271661582
 10
186.838997431733
 20
15.59144857206848
 10
186.7242456548644
 20
15.58834345663815
 10
186.611318368686
 20
15.59364894682583
 10
186.5455220903585
 20
15.58257300019587
 10
186.4816097975358
 20
15.59887597847612
 10
186.4936015165126
 20
15.54423524395736
 10
186.4862104613006
 20
15.48854295047836
 10
186.4892684841983
 20
15.39649689140564
 10
186.4893422785683
 20
15.30179109873096
 10
186.486031357836
 20
15.2095278290226
 10
186.4939505989903
 20
15.15435768736134
 10
186.4815076611617
 20
15.10058169100131
 10
186.5389116551632
 20
15.11453768862776
 10
186.5994708140383
 20
15.10511457884221
 10
186.7048680855081
 20
15.10942885928699
 10
186.8204294070622
 20
15.10835504612026
 10
186.9359688877797
 20
15.10725965900989
 10
187.0414181130841
 20
15.11162525770628
 10
187.1018680471805
 20
15.10209426030666
 10
187.159283773911
 20
15.11617289606374
 10
187.1477773876709
 20
15.06707153265678
 10
187.1537566781749
 20
15.02564658018643
 10
187.1520311050801
 20
14.97651677966691
 10
187.1521500122971
 20
14.94854428447603
 10
187.1521871691833
 20
14.93980288195945
 72
     4
 94
        3
 73
     0
 74
     0
 95
       62
 96
       58
 40
0.0
 40
0.0
 40
0.0
 40
0.0
 40
0.0598250028308485
 40
0.2024846486897331
 40
0.3727558389221031
 40
0.515415484793607
 40
0.5752404975785339
 40
0.9332326775487261
 40
1.290451762839482
 40
1.602077253145884
 40
1.699931634112135
 40
1.799359756425048
 40
2.270120149657082
 40
2.804661928461539
 40
2.882342287383252
 40
3.076543185719099
 40
3.329004354835561
 40
3.581465524568383
 40
3.775666424543665
 40
3.853346784558285
 40
3.89912067959503
 40
3.984129341792028
 40
4.029903236817377
 40
4.105797496059532
 40
4.295533144152495
 40
4.542189486611738
 40
4.78884582887569
 40
4.978581476410078
 40
5.054475735244321
 40
5.621734664339349
 40
6.130867242037351
 40
6.225249780948588
 40
6.31891303972728
 40
6.663579954558907
 40
7.047498900224759
 40
7.435230791575685
 40
7.498943906668097
 40
7.650875181210091
 40
7.832212509001601
 40
7.984143783696987
 40
8.047856898903113
 40
8.09155463273262
 40
8.172707566964275
 40
8.216405300767999
 40
8.289021782160884
 40
8.462184160757257
 40
8.668861838005338
 40
8.84202421526393
 40
8.914640695475125
 40
8.98988158086133
 40
9.155411528827234
 40
9.320941477744014
 40
9.396182352487264
 40
9.45470901114381
 40
9.583467660170745
 40
9.712226309013024
 40
9.770752957989478
 40
9.770752957989478
 40
9.770752957989478
 40
9.770752957989478
 10
187.1521871691833
 20
14.93980288195945
 10
187.1322348171623
 20
14.93980875568666
 10
187.0647037716466
 20
14.93982863806153
 10
186.9410612161788
 20
14.93949362520321
 10
186.7863180150056
 20
14.94107673750506
 10
186.669734948248
 20
14.93686078860491
 10
186.455094263424
 20
14.9521520533162
 10
186.8518948407229
 20
14.59198721286187
 10
186.8945656069267
 20
14.3751050339716
 10
187.3189162146611
 20
14.1932506251144
 10
187.1439821496074
 20
14.08985196568067
 10
187.0194523925083
 20
13.87831523212719
 10
186.7666277235943
 20
14.34806081001557
 10
186.4797602893626
 20
14.99511516984516
 10
186.490633592666
 20
14.68782672154688
 10
186.488289277796
 20
14.52288616971773
 10
186.4861096126411
 20
14.28879670711688
 10
186.4980774396346
 20
14.04498072421778
 10
186.4687984740631
 20
13.8985579686098
 10
186.511452262547
 20
13.75113490174533
 10
186.4239814005639
 20
13.76685797306215
 10
186.3768527606744
 20
13.76694303543449
 10
186.2898973207713
 20
13.75109425482904
 10
186.3313474021722
 20
13.89527771422758
 10
186.3029875004285
 20
14.0385505269845
 10
186.3145973775299
 20
14.2767494736526
 10
186.3124175648272
 20
14.50517235240342
 10
186.3103111127994
 20
14.66705729375991
 10
186.3208035438323
 20
14.98153709333748
 10
186.0128963252894
 20
14.2922947087243
 10
185.7055258267455
 20
13.81476750243051
 10
185.5851367066275
 20
14.03741112637421
 10
185.4074607910721
 20
14.15011034955561
 10
185.8853326362895
 20
14.32548143465456
 10
185.9353959057207
 20
14.56091929252026
 10
186.3583799621717
 20
14.95322989344603
 10
186.127675427354
 20
14.9365530702906
 10
186.004968585934
 20
14.94269518948765
 10
185.8325483095662
 20
14.93312822699569
 10
185.7213224694448
 20
14.9544881848966
 10
185.6025779627448
 20
14.92136265357415
 10
185.6183169706686
 20
15.00203900606878
 10
185.6178550933763
 20
15.04645414290849
 10
185.6027881889931
 20
15.12967081778528
 10
185.7372380935444
 20
15.09062651983878
 10
185.8619755545746
 20
15.11739729328417
 10
186.062875523728
 20
15.10063949044047
 10
186.1921540949352
 20
15.12204225912998
 10
186.3328419928295
 20
15.08868778853416
 10
186.2980927452614
 20
15.22651875785062
 10
186.3222185666714
 20
15.34963257349476
 10
186.2967086182392
 20
15.4702405567033
 10
186.3333251146685
 20
15.60539865141489
 10
186.2211417027769
 20
15.58094545781884
 10
186.1280356457136
 20
15.59307749842017
 10
186.0191547579819
 20
15.58957630069986
 10
185.9569697640964
 20
15.58981755951597
 10
185.9375369557246
 20
15.58989295124138
 97
        3
330
AF
330
B0
330
AE
 75
     1
 76
     2
 52
45.0
 41
0.1
 77
     0
 78
     1
 53
45.0
 43
0.0
 44
0.0
 45
-0.282842712474619
 46
0.0
 79
     0
 98
        1
 10
0.0
 20
0.0
  0
HATCH
  5
CC
330
48
100
AcDbEntity
  8
1
  6
Continuous
 62
     2
100
AcDbHatch
 10
0.0
 20
0.0
 30
0.0
210
0.0
220
0.0
230
1.0
  2
CUSTOM14
 70
     0
 71
     1
 91
        1
 92
        1
 93
        4
 72
     1
 10
192.4578138032672
 20
15.22875434022052
 11
191.1602971697031
 21
15.22875434022052
 72
     1
 10
191.1602971697031
 20
15.22875434022052
 11
191.1602971697031
 21
15.3972233679562
 72
     1
 10
191.1602971697031
 20
15.3972233679562
 11
192.4578138032672
 21
15.3972233679562
 72
     1
 10
192.4578138032672
 20
15.3972233679562
 11
192.4578138032672
 21
15.22875434022052
 97
        1
330
B1
 75
     1
 76
     2
 52
45.0
 41
0.1
 77
     0
 78
     1
 53
45.0
 43
0.0
 44
0.0
 45
-0.282842712474619
 46
0.0
 79
     0
 98
        1
 10
0.0
 20
0.0
  0
ENDBLK
  5
4A
330
48
100
AcDbEntity
  8
0
100
AcDbBlockEnd
  0
BLOCK
  5
4D
330
4B
100
AcDbEntity
  8
0
100
AcDbBlockBegin
  2
開示A4枠
 70
     0
 10
0.0
 20
-0.00000000000006
 30
0.0
  3
開示A4枠
  1

  0
INSERT
  5
4C
330
4B
100
AcDbEntity
  8
1
100
AcDbBlockReference
  2
開示A4
 10
0.0
 20
-0.00000000000006
 30
0.0
  0
ENDBLK
  5
4E
330
4B
100
AcDbEntity
  8
0
100
AcDbBlockEnd
  0
BLOCK
  5
FA
330
F3
100
AcDbEntity
  8
0
100
AcDbBlockBegin
  2
*D3
 70
     1
 10
0.0
 20
0.0
 30
0.0
  3
*D3
  1

  0
LINE
  5
F4
330
F3
100
AcDbEntity
  8
1
  6
Continuous
 62
     2
100
AcDbLine
 10
158.5
 20
105.0158153913519
 30
0.0
 11
158.5
 21
155.0158153913519
 31
0.0
  0
LINE
  5
F5
330
F3
100
AcDbEntity
  8
1
  6
Continuous
 62
     2
100
AcDbLine
 10
133.5
 20
155.0158153913519
 30
0.0
 11
160.5
 21
155.0158153913519
 31
0.0
  0
LINE
  5
F6
330
F3
100
AcDbEntity
  8
1
  6
Continuous
 62
     2
100
AcDbLine
 10
149.5
 20
105.0158153913519
 30
0.0
 11
160.5
 21
105.0158153913519
 31
0.0
  0
SOLID
  5
F7
330
F3
100
AcDbEntity
  8
1
 62
     2
100
AcDbTrace
 10
158.0392162584441
 20
108.5158153913519
 30
0.0
 11
158.9607837415559
 21
108.5158153913519
 31
0.0
 12
158.5
 22
105.0158153913519
 32
0.0
 13
158.5
 23
105.0158153913519
 33
0.0
  0
SOLID
  5
F8
330
F3
100
AcDbEntity
  8
1
 62
     2
100
AcDbTrace
 10
158.9607837415559
 20
151.5158153913519
 30
0.0
 11
158.0392162584441
 21
151.5158153913519
 31
0.0
 12
158.5
 22
155.0158153913519
 32
0.0
 13
158.5
 23
155.0158153913519
 33
0.0
  0
MTEXT
  5
F9
330
F3
100
AcDbEntity
  8
1
 62
     7
100
AcDbMText
 10
156.5
 20
127.7685876056799
 30
0.0
 40
3.0
 41
0.0
 71
     7
 72
     1
  1
50
  7
CONVERTER_12
 11
0.0
 21
1.0
 31
0.0
 73
     1
 44
0.60024009603842
  0
ENDBLK
  5
FB
330
F3
100
AcDbEntity
  8
0
100
AcDbBlockEnd
  0
BLOCK
  5
105
330
FE
100
AcDbEntity
  8
0
100
AcDbBlockBegin
  2
*D4
 70
     1
 10
0.0
 20
0.0
 30
0.0
  3
*D4
  1

  0
LINE
  5
FF
330
FE
100
AcDbEntity
  8
1
  6
Continuous
 62
     2
100
AcDbLine
 10
76.5
 20
87.0158153913519
 30
0.0
 11
148.5
 21
87.0158153913519
 31
0.0
  0
LINE
  5
100
330
FE
100
AcDbEntity
  8
1
  6
Continuous
 62
     2
100
AcDbLine
 10
148.5
 20
105.0158153913519
 30
0.0
 11
148.5
 21
85.0158153913519
 31
0.0
  0
LINE
  5
101
330
FE
100
AcDbEntity
  8
1
  6
Continuous
 62
     2
100
AcDbLine
 10
76.5
 20
105.0158153913519
 30
0.0
 11
76.5
 21
85.0158153913519
 31
0.0
  0
SOLID
  5
102
330
FE
100
AcDbEntity
  8
1
 62
     2
100
AcDbTrace
 10
80.0
 20
87.47659913290778
 30
0.0
 11
80.0
 21
86.555031649796
 31
0.0
 12
76.5
 22
87.0158153913519
 32
0.0
 13
76.5
 23
87.0158153913519
 33
0.0
  0
SOLID
  5
103
330
FE
100
AcDbEntity
  8
1
 62
     2
100
AcDbTrace
 10
145.0
 20
86.555031649796
 30
0.0
 11
145.0
 21
87.47659913290778
 31
0.0
 12
148.5
 22
87.0158153913519
 32
0.0
 13
148.5
 23
87.0158153913519
 33
0.0
  0
MTEXT
  5
104
330
FE
100
AcDbEntity
  8
1
 62
     7
100
AcDbMText
 10
109.5900000000072
 20
89.01580942814361
 30
0.0
 40
3.0
 41
0.0
 71
     7
 72
     1
  1
\C7;{\Fgdt;n}\C7;72
  7
CONVERTER_12
 11
0.9999999999970619
 21
2.424068405545306E-6
 31
0.0
 73
     1
 44
0.60024009603842
  0
ENDBLK
  5
106
330
FE
100
AcDbEntity
  8
0
100
AcDbBlockEnd
  0
BLOCK
  5
10E
330
109
100
AcDbEntity
  8
0
100
AcDbBlockBegin
  2
*D5
 70
     1
 10
0.0
 20
0.0
 30
0.0
  3
*D5
  1

  0
LINE
  5
10A
330
109
100
AcDbEntity
  8
1
  6
Continuous
 62
     2
100
AcDbLine
 10
122.776361327779
 20
220.948303884812
 30
0.0
 11
76.85464445945206
 21
181.8259817210473
 31
0.0
  0
SOLID
  5
10B
330
109
100
AcDbEntity
  8
1
 62
     2
100
AcDbTrace
 10
104.5890607789524
 20
206.0592333831611
 30
0.0
 11
105.1867002169304
 21
205.3577252020953
 31
0.0
 12
102.223638672221
 22
203.4387181831539
 32
0.0
 13
102.223638672221
 23
203.4387181831539
 33
0.0
  0
SOLID
  5
10C
330
109
100
AcDbEntity
  8
1
 62
     2
100
AcDbTrace
 10
120.4109392210476
 20
218.3277886848049
 30
0.0
 11
119.8132997830696
 21
219.0292968658707
 31
0.0
 12
122.776361327779
 22
220.948303884812
 32
0.0
 13
122.776361327779
 23
220.948303884812
 33
0.0
  0
MTEXT
  5
10D
330
109
100
AcDbEntity
  8
1
 62
     7
100
AcDbMText
 10
76.42541973441578
 20
184.0876992399734
 30
0.0
 40
3.0
 41
0.0
 71
     7
 72
     1
  1
\C7;{\Fgdt;n}\C7;27
  7
CONVERTER_12
 11
0.7612119502058547
 21
0.6485031741354851
 31
0.0
 73
     1
 44
0.60024009603842
  0
ENDBLK
  5
10F
330
109
100
AcDbEntity
  8
0
100
AcDbBlockEnd
  0
ENDSEC
  0
SECTION
  2
ENTITIES
  0
INSERT
  5
4F
330
1F
100
AcDbEntity
  8
0
100
AcDbBlockReference
  2
開示A4枠
 10
0.0
 20
-0.00000000000006
 30
0.0
  0
LINE
  5
CD
330
1F
100
AcDbEntity
  8
1
  6
Continuous
 62
     7
100
AcDbLine
 10
77.00002262821839
 20
105.0158153913519
 30
0.0
 11
76.50000000000003
 21
105.0158153913519
 31
0.0
  0
LINE
  5
CE
330
1F
100
AcDbEntity
  8
1
  6
Continuous
 62
     7
100
AcDbLine
 10
76.50000000000003
 20
105.0158153913519
 30
0.0
 11
77.00002262821839
 21
105.0158153913519
 31
0.0
  0
LINE
  5
CF
330
1F
100
AcDbEntity
  8
1
  6
Continuous
 62
     7
100
AcDbLine
 10
133.5
 20
155.0158153913519
 30
0.0
 11
91.50000000000001
 21
155.0158153913519
 31
0.0
  0
LINE
  5
D0
330
1F
100
AcDbEntity
  8
1
  6
Continuous
 62
     7
100
AcDbLine
 10
147.9999773717816
 20
105.0158153913519
 30
0.0
 11
112.5
 21
105.0158153913519
 31
0.0
  0
LINE
  5
D1
330
1F
100
AcDbEntity
  8
1
  6
Continuous
 62
     7
100
AcDbLine
 10
147.9999773717816
 20
105.0158153913519
 30
0.0
 11
148.5
 21
105.0158153913519
 31
0.0
  0
LINE
  5
D2
330
1F
100
AcDbEntity
  8
1
  6
Continuous
 62
     7
100
AcDbLine
 10
148.5
 20
105.0158153913519
 30
0.0
 11
147.9999773717816
 21
105.0158153913519
 31
0.0
  0
LINE
  5
D3
330
1F
100
AcDbEntity
  8
1
  6
DASH_CENTER
 62
     2
100
AcDbLine
 10
112.5
 20
102.0158153913519
 30
0.0
 11
112.5
 21
160.6403102464774
 31
0.0
  0
LINE
  5
D4
330
1F
100
AcDbEntity
  8
1
  6
Continuous
 62
     7
100
AcDbLine
 10
112.5
 20
105.0158153913519
 30
0.0
 11
77.00002262821839
 21
105.0158153913519
 31
0.0
  0
LINE
  5
D5
330
1F
100
AcDbEntity
  8
1
  6
Continuous
 62
     2
100
AcDbLine
 10
148.5
 20
105.0158153913519
 30
0.0
 11
149.5
 21
105.0158153913519
 31
0.0
  0
LINE
  5
D6
330
1F
100
AcDbEntity
  8
1
  6
Continuous
 62
     7
100
AcDbLine
 10
76.50000000000001
 20
140.1403102464774
 30
0.0
 11
76.50000000000001
 21
135.963134532782
 31
0.0
  0
LINE
  5
D7
330
1F
100
AcDbEntity
  8
1
  6
Continuous
 62
     7
100
AcDbLine
 10
148.5
 20
140.1403102464774
 30
0.0
 11
148.5
 21
134.963134532782
 31
0.0
  0
LINE
  5
D8
330
1F
100
AcDbEntity
  8
1
  6
Continuous
 62
     7
100
AcDbLine
 10
148.5
 20
134.963134532782
 30
0.0
 11
148.5
 21
105.0158153913519
 31
0.0
  0
LINE
  5
D9
330
1F
100
AcDbEntity
  8
1
  6
Continuous
 62
     7
100
AcDbLine
 10
76.50000000000001
 20
135.963134532782
 30
0.0
 11
76.50000000000003
 21
105.0158153913519
 31
0.0
  0
LINE
  5
DA
330
1F
100
AcDbEntity
  8
1
  6
DASH_CENTER
 62
     2
100
AcDbLine
 10
74.5
 20
212.193511033983
 30
0.0
 11
126.0
 21
212.193511033983
 31
0.0
  0
LINE
  5
DB
330
1F
100
AcDbEntity
  8
1
  6
DASH_CENTER
 62
     2
100
AcDbLine
 10
112.5
 20
174.193511033983
 30
0.0
 11
112.5
 21
250.193511033983
 31
0.0
  0
LINE
  5
DC
330
1F
100
AcDbEntity
  8
1
  6
DASH_CENTER
 62
     2
100
AcDbLine
 10
126.0
 20
212.193511033983
 30
0.0
 11
150.5
 21
212.193511033983
 31
0.0
  0
ARC
  5
DD
330
1F
100
AcDbEntity
  8
1
  6
Continuous
 62
     7
100
AcDbCircle
 10
91.50765081793502
 20
140.0075795867652
 30
0.0
 40
15.00823775468305
100
AcDbArc
 50
90.02920793258008
 51
179.4932779000437
  0
ARC
  5
DE
330
1F
100
AcDbEntity
  8
1
  6
Continuous
 62
     7
100
AcDbCircle
 10
133.492349182065
 20
140.0075795867652
 30
0.0
 40
15.00823775468302
100
AcDbArc
 50
0.5067220999563
 51
89.97079206741992
  0
CIRCLE
  5
DF
330
1F
100
AcDbEntity
  8
1
  6
Continuous
 62
     7
100
AcDbCircle
 10
112.5
 20
212.193511033983
 30
0.0
 40
36.00000000000011
  0
CIRCLE
  5
E0
330
1F
100
AcDbEntity
  8
1
  6
Continuous
 62
     7
100
AcDbCircle
 10
112.5
 20
212.193511033983
 30
0.0
 40
13.5
  0
CIRCLE
  5
E1
330
1F
100
AcDbEntity
  8
1
  6
Continuous
 62
     7
100
AcDbCircle
 10
112.5
 20
212.193511033983
 30
0.0
 40
14.0
  0
MTEXT
  5
E3
330
1F
100
AcDbEntity
  8
1
 62
     7
100
AcDbMText
 10
117.75
 20
12.49999999999994
 30
0.0
 40
2.5
 41
0.0
 71
     5
 72
     1
  1
22
  7
CONVERTER_12
 73
     1
 44
0.7202881152461
  0
MTEXT
  5
E4
330
1F
100
AcDbEntity
  8
1
 62
     7
100
AcDbMText
 10
129.25
 20
12.49999999999994
 30
0.0
 40
2.5
 41
0.0
 71
     5
 72
     1
  1
18
  7
CONVERTER_12
 73
     1
 44
0.7202881152461
  0
MTEXT
  5
E5
330
1F
100
AcDbEntity
  8
1
 62
     7
100
AcDbMText
 10
123.5
 20
12.49999999999994
 30
0.0
 40
2.5
 41
0.0
 71
     5
 72
     1
  1
5
  7
CONVERTER_12
 73
     1
 44
0.7202881152461
  0
MTEXT
  5
E6
330
1F
100
AcDbEntity
  8
1
 62
     7
100
AcDbMText
 10
100.75
 20
12.49999999999994
 30
0.0
 40
2.5
 41
0.0
 71
     5
 72
     1
  1
22
  7
CONVERTER_12
 73
     1
 44
0.7202881152461
  0
MTEXT
  5
E7
330
1F
100
AcDbEntity
  8
1
 62
     7
100
AcDbMText
 10
112.25
 20
12.49999999999994
 30
0.0
 40
2.5
 41
0.0
 71
     5
 72
     1
  1
18
  7
CONVERTER_12
 73
     1
 44
0.7202881152461
  0
MTEXT
  5
E8
330
1F
100
AcDbEntity
  8
1
 62
     7
100
AcDbMText
 10
106.5
 20
12.49999999999994
 30
0.0
 40
2.5
 41
0.0
 71
     5
 72
     1
  1
5
  7
CONVERTER_12
 73
     1
 44
0.7202881152461
  0
MTEXT
  5
E9
330
1F
100
AcDbEntity
  8
1
 62
     7
100
AcDbMText
 10
157.5
 20
12.49999999999996
 30
0.0
 40
2.5
 41
0.0
 71
     5
 72
     1
  1
5
  7
CONVERTER_12
 73
     1
 44
0.7202881152461
  0
MTEXT
  5
EA
330
1F
100
AcDbEntity
  8
1
 62
     7
100
AcDbMText
 10
151.75
 20
12.49999999999996
 30
0.0
 40
2.5
 41
0.0
 71
     5
 72
     1
  1
06
  7
CONVERTER_12
 73
     1
 44
0.7202881152461
  0
MTEXT
  5
EB
330
1F
100
AcDbEntity
  8
1
 62
     7
100
AcDbMText
 10
93.75
 20
16.99999999999996
 30
0.0
 40
3.5
 41
0.0
 71
     5
 72
     1
  1
1
  7
CONVERTER_12
 73
     1
 44
0.7202881152461
  0
MTEXT
  5
EC
330
1F
100
AcDbEntity
  8
1
 62
     7
100
AcDbMText
 10
57.0
 20
12.24999999999994
 30
0.0
 40
3.5
 41
0.0
 71
     5
 72
     1
  1
-25X72X50
  7
CONVERTER_12
 73
     1
 44
0.7202881152461
  0
MTEXT
  5
ED
330
1F
100
AcDbEntity
  8
1
 62
     7
100
AcDbMText
 10
57.0
 20
22.74999999999997
 30
0.0
 40
3.5
 41
0.0
 71
     5
 72
     1
  1
ワン座金
  7
CONVERTER_11
 73
     1
 44
0.54545454545455
  0
MTEXT
  5
EE
330
1F
100
AcDbEntity
  8
1
 62
     7
100
AcDbMText
 10
85.25
 20
16.99999999999996
 30
0.0
 40
3.5
 41
0.0
 71
     5
 72
     1
  1
1
  7
CONVERTER_12
 73
     1
 44
0.7202881152461
  0
MTEXT
  5
EF
330
1F
100
AcDbEntity
  8
0
 62
     7
100
AcDbMText
 10
57.0
 20
16.24999999999994
 30
0.0
 40
3.5
 41
0.0
 71
     5
 72
     1
  1
H70-57
  7
CONVERTER_12
 73
     1
 44
0.84033613445378
  0
MTEXT
  5
F0
330
1F
100
AcDbEntity
  8
1
 62
     7
100
AcDbMText
 10
140.5
 20
12.49999999999994
 30
0.0
 40
2.5
 41
0.0
 71
     5
 72
     1
  1
5
  7
CONVERTER_12
 73
     1
 44
0.7202881152461
  0
MTEXT
  5
F1
330
1F
100
AcDbEntity
  8
1
 62
     7
100
AcDbMText
 10
146.25
 20
12.49999999999994
 30
0.0
 40
2.5
 41
0.0
 71
     5
 72
     1
  1
13
  7
CONVERTER_12
 73
     1
 44
0.7202881152461
  0
MTEXT
  5
F2
330
1F
100
AcDbEntity
  8
1
 62
     7
100
AcDbMText
 10
134.75
 20
12.49999999999994
 30
0.0
 40
2.5
 41
0.0
 71
     5
 72
     1
  1
22
  7
CONVERTER_12
 73
     1
 44
0.7202881152461
  0
DIMENSION
  5
FD
330
1F
100
AcDbEntity
  8
1
100
AcDbDimension
  2
*D3
 10
158.5
 20
105.0158153913519
 30
0.0
 11
155.0
 21
130.0185876056799
 31
0.0
 70
    32
  1
50
 71
     5
 42
-1.0
 53
90.0
  3
ME10_DIM_10
100
AcDbAlignedDimension
 13
133.5
 23
155.0158153913519
 33
0.0
 14
149.5
 24
105.0158153913519
 34
0.0
 50
90.0
100
AcDbRotatedDimension
  0
DIMENSION
  5
108
330
1F
100
AcDbEntity
  8
1
100
AcDbDimension
  2
*D4
 10
76.5
 20
87.0158153913519
 30
0.0
 11
112.5
 21
90.5158153913519
 31
0.0
 70
    33
  1
<>
 71
     5
 42
-1.0
 53
0.00013888888889
  3
ME10_DIM_11
100
AcDbAlignedDimension
 13
148.5
 23
105.0158153913519
 33
0.0
 14
76.50000000000003
 24
105.0158153913519
 34
0.0
  0
INSERT
  5
110
330
1F
100
AcDbEntity
  8
1
100
AcDbBlockReference
  2
*D5
 10
0.0
 20
0.0
 30
0.0
  0
ENDSEC
  0
SECTION
  2
OBJECTS
  0
DICTIONARY
  5
C
330
0
100
AcDbDictionary
281
     1
  3
ACAD_GROUP
350
D
  3
ACAD_LAYOUT
350
1A
  3
ACAD_MATERIAL
350
3B
  3
ACAD_MLEADERSTYLE
350
113
  3
ACAD_MLINESTYLE
350
17
  3
ACAD_PLOTSETTINGS
350
19
  3
ACAD_PLOTSTYLENAME
350
E
  3
ACAD_VISUALSTYLE
350
2A
  3
AcDbVariableDictionary
350
111
  0
DICTIONARY
  5
D
102
{ACAD_REACTORS
330
C
102
}
330
C
100
AcDbDictionary
281
     1
  0
DICTIONARY
  5
1A
102
{ACAD_REACTORS
330
C
102
}
330
C
100
AcDbDictionary
281
     1
  3
Layout1
350
1E
  3
Layout2
350
26
  3
Model
350
22
  0
DICTIONARY
  5
3B
102
{ACAD_REACTORS
330
C
102
}
330
C
100
AcDbDictionary
281
     1
  3
ByBlock
350
3D
  3
ByLayer
350
3C
  3
Global
350
3E
  0
DICTIONARY
  5
113
102
{ACAD_REACTORS
330
C
102
}
330
C
100
AcDbDictionary
281
     1
  0
DICTIONARY
  5
17
102
{ACAD_REACTORS
330
C
102
}
330
C
100
AcDbDictionary
281
     1
  3
Standard
350
18
  0
DICTIONARY
  5
19
102
{ACAD_REACTORS
330
C
102
}
330
C
100
AcDbDictionary
281
     1
  0
ACDBDICTIONARYWDFLT
  5
E
102
{ACAD_REACTORS
330
C
102
}
330
C
100
AcDbDictionary
281
     1
  3
Normal
350
F
100
AcDbDictionaryWithDefault
340
F
  0
DICTIONARY
  5
2A
102
{ACAD_REACTORS
330
C
102
}
330
C
100
AcDbDictionary
281
     1
  3
2dWireframe
350
2F
  3
3D Hidden
350
31
  3
3dWireframe
350
30
  3
Basic
350
32
  3
Brighten
350
36
  3
ColorChange
350
3A
  3
Conceptual
350
34
  3
Dim
350
35
  3
Facepattern
350
39
  3
Flat
350
2B
  3
FlatWithEdges
350
2C
  3
Gouraud
350
2D
  3
GouraudWithEdges
350
2E
  3
Linepattern
350
38
  3
Realistic
350
33
  3
Thicken
350
37
  0
DICTIONARY
  5
111
102
{ACAD_REACTORS
330
C
102
}
330
C
100
AcDbDictionary
281
     1
  3
DIMASSOC
350
114
  3
HIDETEXT
350
115
  0
LAYOUT
  5
1E
102
{ACAD_REACTORS
330
1A
102
}
330
1A
100
AcDbPlotSettings
  1

  2
none_device
  4

  6

 40
0.0
 41
0.0
 42
0.0
 43
0.0
 44
0.0
 45
0.0
 46
0.0
 47
0.0
 48
0.0
 49
0.0
140
0.0
141
0.0
142
1.0
143
1.0
 70
   688
 72
     0
 73
     0
 74
     5
  7

 75
    16
147
1.0
148
0.0
149
0.0
100
AcDbLayout
  1
Layout1
 70
     1
 71
     1
 10
0.0
 20
0.0
 11
12.0
 21
9.0
 12
0.0
 22
0.0
 32
0.0
 14
1.00000000000000E+20
 24
1.00000000000000E+20
 34
1.00000000000000E+20
 15
-1.00000000000000E+20
 25
-1.00000000000000E+20
 35
-1.00000000000000E+20
146
0.0
 13
0.0
 23
0.0
 33
0.0
 16
1.0
 26
0.0
 36
0.0
 17
0.0
 27
1.0
 37
0.0
 76
     0
330
1B
  0
LAYOUT
  5
26
102
{ACAD_REACTORS
330
1A
102
}
330
1A
100
AcDbPlotSettings
  1

  2
none_device
  4

  6

 40
0.0
 41
0.0
 42
0.0
 43
0.0
 44
0.0
 45
0.0
 46
0.0
 47
0.0
 48
0.0
 49
0.0
140
0.0
141
0.0
142
1.0
143
1.0
 70
   688
 72
     0
 73
     0
 74
     5
  7

 75
    16
147
1.0
148
0.0
149
0.0
100
AcDbLayout
  1
Layout2
 70
     1
 71
     2
 10
0.0
 20
0.0
 11
0.0
 21
0.0
 12
0.0
 22
0.0
 32
0.0
 14
0.0
 24
0.0
 34
0.0
 15
0.0
 25
0.0
 35
0.0
146
0.0
 13
0.0
 23
0.0
 33
0.0
 16
1.0
 26
0.0
 36
0.0
 17
0.0
 27
1.0
 37
0.0
 76
     0
330
23
  0
LAYOUT
  5
22
102
{ACAD_REACTORS
330
1A
102
}
330
1A
100
AcDbPlotSettings
  1

  2
none_device
  4

  6

 40
0.0
 41
0.0
 42
0.0
 43
0.0
 44
0.0
 45
0.0
 46
0.0
 47
0.0
 48
0.0
 49
0.0
140
0.0
141
0.0
142
1.0
143
1.0
 70
  1712
 72
     0
 73
     0
 74
     0
  7

 75
     0
147
1.0
148
0.0
149
0.0
100
AcDbLayout
  1
Model
 70
     1
 71
     0
 10
0.0
 20
0.0
 11
12.0
 21
9.0
 12
0.0
 22
0.0
 32
0.0
 14
0.0
 24
-0.00000000000006
 34
0.0
 15
210.0
 25
296.9999999999999
 35
0.0
146
0.0
 13
0.0
 23
0.0
 33
0.0
 16
1.0
 26
0.0
 36
0.0
 17
0.0
 27
1.0
 37
0.0
 76
     0
330
1F
331
29
  0
MATERIAL
  5
3D
102
{ACAD_REACTORS
330
3B
102
}
102
{ACAD_XDICTIONARY
360
138
102
}
330
3B
100
AcDbMaterial
  1
ByBlock
  0
MATERIAL
  5
3C
102
{ACAD_REACTORS
330
3B
102
}
102
{ACAD_XDICTIONARY
360
136
102
}
330
3B
100
AcDbMaterial
  1
ByLayer
  0
MATERIAL
  5
3E
102
{ACAD_REACTORS
330
3B
102
}
102
{ACAD_XDICTIONARY
360
13A
102
}
330
3B
100
AcDbMaterial
  1
Global
  0
MLINESTYLE
  5
18
102
{ACAD_REACTORS
330
17
102
}
330
17
100
AcDbMlineStyle
  2
Standard
 70
     0
  3

 62
   256
 51
90.0
 52
90.0
 71
     2
 49
0.5
 62
   256
  6
BYLAYER
 49
-0.5
 62
   256
  6
BYLAYER
  0
ACDBPLACEHOLDER
  5
F
102
{ACAD_REACTORS
330
E
102
}
330
E
  0
VISUALSTYLE
  5
2F
102
{ACAD_REACTORS
330
2A
102
}
102
{ACAD_XDICTIONARY
360
11E
102
}
330
2A
100
AcDbVisualStyle
  2
2dWireframe
 70
     4
 71
     0
 72
     2
 73
     0
 90
        0
 40
-0.6
 41
-30.0
 62
     5
 63
     7
 74
     1
 91
        4
 64
     7
 65
   257
 75
     1
175
     1
 42
1.0
 92
        0
 66
   257
 43
1.0
 76
     1
 77
     6
 78
     2
 67
     7
 79
     5
170
     0
171
     0
290
     0
174
     0
 93
        1
 44
0.0
173
     0
291
     0
 45
0.0
1001
ACAD
1000
AcDbSavedByObjectVersion
1070
     0
  0
VISUALSTYLE
  5
31
102
{ACAD_REACTORS
330
2A
102
}
102
{ACAD_XDICTIONARY
360
122
102
}
330
2A
100
AcDbVisualStyle
  2
3D Hidden
 70
     6
 71
     1
 72
     2
 73
     2
 90
        0
 40
-0.6
 41
-30.0
 62
     5
 63
     7
 74
     2
 91
        2
 64
     7
 65
   257
 75
     2
175
     1
 42
40.0
 92
        0
 66
   257
 43
1.0
 76
     1
 77
     6
 78
     2
 67
     7
 79
     3
170
     0
171
     0
290
     0
174
     0
 93
        1
 44
0.0
173
     0
291
     0
 45
0.0
1001
ACAD
1000
AcDbSavedByObjectVersion
1070
     0
  0
VISUALSTYLE
  5
30
102
{ACAD_REACTORS
330
2A
102
}
102
{ACAD_XDICTIONARY
360
120
102
}
330
2A
100
AcDbVisualStyle
  2
3dWireframe
 70
     5
 71
     0
 72
     2
 73
     0
 90
        0
 40
-0.6
 41
-30.0
 62
     5
 63
     7
 74
     1
 91
        4
 64
     7
 65
   257
 75
     1
175
     1
 42
1.0
 92
        0
 66
   257
 43
1.0
 76
     1
 77
     6
 78
     2
 67
     7
 79
     5
170
     0
171
     0
290
     0
174
     0
 93
        1
 44
0.0
173
     0
291
     0
 45
0.0
1001
ACAD
1000
AcDbSavedByObjectVersion
1070
     0
  0
VISUALSTYLE
  5
32
102
{ACAD_REACTORS
330
2A
102
}
102
{ACAD_XDICTIONARY
360
124
102
}
330
2A
100
AcDbVisualStyle
  2
Basic
 70
     7
 71
     1
 72
     0
 73
     1
 90
        0
 40
-0.6
 41
-30.0
 62
     5
 63
     7
 74
     0
 91
        4
 64
     7
 65
   257
 75
     1
175
     1
 42
1.0
 92
        8
 66
     7
 43
1.0
 76
     1
 77
     6
 78
     2
 67
     7
 79
     5
170
     0
171
     0
290
     0
174
     0
 93
        1
 44
0.0
173
     0
291
     1
 45
0.0
1001
ACAD
1000
AcDbSavedByObjectVersion
1070
     0
  0
VISUALSTYLE
  5
36
102
{ACAD_REACTORS
330
2A
102
}
102
{ACAD_XDICTIONARY
360
12C
102
}
330
2A
100
AcDbVisualStyle
  2
Brighten
 70
    12
 71
     2
 72
     2
 73
     0
 90
        0
 40
-0.6
 41
-30.0
 62
     5
 63
     7
 74
     1
 91
        4
 64
     7
 65
   257
 75
     1
175
     1
 42
1.0
 92
        8
 66
     7
 43
1.0
 76
     1
 77
     6
 78
     2
 67
     7
 79
     5
170
     0
171
     0
290
     0
174
     0
 93
        1
 44
50.0
173
     0
291
     1
 45
0.0
1001
ACAD
1000
AcDbSavedByObjectVersion
1070
     0
  0
VISUALSTYLE
  5
3A
102
{ACAD_REACTORS
330
2A
102
}
102
{ACAD_XDICTIONARY
360
134
102
}
330
2A
100
AcDbVisualStyle
  2
ColorChange
 70
    16
 71
     2
 72
     2
 73
     3
 90
        0
 40
-0.6
 41
-30.0
 62
     5
 63
     8
 74
     1
 91
        4
 64
     7
 65
   257
 75
     1
175
     1
 42
1.0
 92
        8
 66
     8
 43
1.0
 76
     1
 77
     6
 78
     2
 67
     7
 79
     5
170
     0
171
     0
290
     0
174
     0
 93
        1
 44
0.0
173
     0
291
     1
 45
0.0
1001
ACAD
1000
AcDbSavedByObjectVersion
1070
     0
  0
VISUALSTYLE
  5
34
102
{ACAD_REACTORS
330
2A
102
}
102
{ACAD_XDICTIONARY
360
128
102
}
330
2A
100
AcDbVisualStyle
  2
Conceptual
 70
     9
 71
     3
 72
     2
 73
     0
 90
        0
 40
-0.6
 41
-30.0
 62
     5
 63
     7
 74
     2
 91
        2
 64
     7
 65
   257
 75
     1
175
     1
 42
40.0
 92
        8
 66
     7
 43
1.0
 76
     1
 77
     6
 78
     2
 67
     7
 79
     3
170
     0
171
     0
290
     0
174
     0
 93
        1
 44
0.0
173
     0
291
     0
 45
0.0
1001
ACAD
1000
AcDbSavedByObjectVersion
1070
     0
  0
VISUALSTYLE
  5
35
102
{ACAD_REACTORS
330
2A
102
}
102
{ACAD_XDICTIONARY
360
12A
102
}
330
2A
100
AcDbVisualStyle
  2
Dim
 70
    11
 71
     2
 72
     2
 73
     0
 90
        0
 40
-0.6
 41
-30.0
 62
     5
 63
     7
 74
     1
 91
        4
 64
     7
 65
   257
 75
     1
175
     1
 42
1.0
 92
        8
 66
     7
 43
1.0
 76
     1
 77
     6
 78
     2
 67
     7
 79
     5
170
     0
171
     0
290
     0
174
     0
 93
        1
 44
-50.0
173
     0
291
     1
 45
0.0
1001
ACAD
1000
AcDbSavedByObjectVersion
1070
     0
  0
VISUALSTYLE
  5
39
102
{ACAD_REACTORS
330
2A
102
}
102
{ACAD_XDICTIONARY
360
132
102
}
330
2A
100
AcDbVisualStyle
  2
Facepattern
 70
    15
 71
     2
 72
     2
 73
     0
 90
        0
 40
-0.6
 41
-30.0
 62
     5
 63
     7
 74
     1
 91
        4
 64
     7
 65
   257
 75
     1
175
     1
 42
1.0
 92
        8
 66
     7
 43
1.0
 76
     1
 77
     6
 78
     2
 67
     7
 79
     5
170
     0
171
     0
290
     0
174
     0
 93
        1
 44
0.0
173
     0
291
     1
 45
0.0
1001
ACAD
1000
AcDbSavedByObjectVersion
1070
     0
  0
VISUALSTYLE
  5
2B
102
{ACAD_REACTORS
330
2A
102
}
102
{ACAD_XDICTIONARY
360
116
102
}
330
2A
100
AcDbVisualStyle
  2
Flat
 70
     0
 71
     2
 72
     1
 73
     1
 90
        2
 40
-0.6
 41
30.0
 62
     5
 63
     7
 74
     0
 91
        4
 64
     7
 65
   257
 75
     1
175
     1
 42
1.0
 92
        8
 66
     7
 43
1.0
 76
     1
 77
     6
 78
     2
 67
     7
 79
     5
170
     0
171
     0
290
     0
174
     0
 93
       13
 44
0.0
173
     0
291
     1
 45
0.0
1001
ACAD
1000
AcDbSavedByObjectVersion
1070
     0
  0
VISUALSTYLE
  5
2C
102
{ACAD_REACTORS
330
2A
102
}
102
{ACAD_XDICTIONARY
360
118
102
}
330
2A
100
AcDbVisualStyle
  2
FlatWithEdges
 70
     1
 71
     2
 72
     1
 73
     1
 90
        2
 40
-0.6
 41
30.0
 62
     5
 63
     7
 74
     1
 91
        4
 64
     7
 65
   257
 75
     1
175
     1
 42
1.0
 92
        0
 66
   257
 43
1.0
 76
     1
 77
     6
 78
     2
 67
     7
 79
     5
170
     0
171
     0
290
     0
174
     0
 93
       13
 44
0.0
173
     0
291
     1
 45
0.0
1001
ACAD
1000
AcDbSavedByObjectVersion
1070
     0
  0
VISUALSTYLE
  5
2D
102
{ACAD_REACTORS
330
2A
102
}
102
{ACAD_XDICTIONARY
360
11A
102
}
330
2A
100
AcDbVisualStyle
  2
Gouraud
 70
     2
 71
     2
 72
     2
 73
     1
 90
        2
 40
-0.6
 41
30.0
 62
     5
 63
     7
 74
     0
 91
        4
 64
     7
 65
   257
 75
     1
175
     1
 42
1.0
 92
        0
 66
     7
 43
1.0
 76
     1
 77
     6
 78
     2
 67
     7
 79
     5
170
     0
171
     0
290
     0
174
     0
 93
       13
 44
0.0
173
     0
291
     1
 45
0.0
1001
ACAD
1000
AcDbSavedByObjectVersion
1070
     0
  0
VISUALSTYLE
  5
2E
102
{ACAD_REACTORS
330
2A
102
}
102
{ACAD_XDICTIONARY
360
11C
102
}
330
2A
100
AcDbVisualStyle
  2
GouraudWithEdges
 70
     3
 71
     2
 72
     2
 73
     1
 90
        2
 40
-0.6
 41
30.0
 62
     5
 63
     7
 74
     1
 91
        4
 64
     7
 65
   257
 75
     1
175
     1
 42
1.0
 92
        0
 66
   257
 43
1.0
 76
     1
 77
     6
 78
     2
 67
     7
 79
     5
170
     0
171
     0
290
     0
174
     0
 93
       13
 44
0.0
173
     0
291
     1
 45
0.0
1001
ACAD
1000
AcDbSavedByObjectVersion
1070
     0
  0
VISUALSTYLE
  5
38
102
{ACAD_REACTORS
330
2A
102
}
102
{ACAD_XDICTIONARY
360
130
102
}
330
2A
100
AcDbVisualStyle
  2
Linepattern
 70
    14
 71
     2
 72
     2
 73
     0
 90
        0
 40
-0.6
 41
-30.0
 62
     5
 63
     7
 74
     1
 91
        4
 64
     7
 65
   257
 75
     7
175
     7
 42
1.0
 92
        8
 66
     7
 43
1.0
 76
     1
 77
     6
 78
     2
 67
     7
 79
     5
170
     0
171
     0
290
     0
174
     0
 93
        1
 44
0.0
173
     0
291
     1
 45
0.0
1001
ACAD
1000
AcDbSavedByObjectVersion
1070
     0
  0
VISUALSTYLE
  5
33
102
{ACAD_REACTORS
330
2A
102
}
102
{ACAD_XDICTIONARY
360
126
102
}
330
2A
100
AcDbVisualStyle
  2
Realistic
 70
     8
 71
     2
 72
     2
 73
     0
 90
        0
 40
-0.6
 41
-30.0
 62
     5
 63
     7
 74
     1
 91
        0
 64
     7
 65
   257
 75
     1
175
     1
 42
1.0
 92
        8
 66
     8
 43
1.0
 76
     1
 77
     6
 78
     2
 67
     7
 79
     5
170
     0
171
     0
290
     0
174
     0
 93
       13
 44
0.0
173
     0
291
     0
 45
0.0
1001
ACAD
1000
AcDbSavedByObjectVersion
1070
     0
  0
VISUALSTYLE
  5
37
102
{ACAD_REACTORS
330
2A
102
}
102
{ACAD_XDICTIONARY
360
12E
102
}
330
2A
100
AcDbVisualStyle
  2
Thicken
 70
    13
 71
     2
 72
     2
 73
     0
 90
        0
 40
-0.6
 41
-30.0
 62
     5
 63
     7
 74
     1
 91
        4
 64
     7
 65
   257
 75
     1
175
     1
 42
1.0
 92
       12
 66
     7
 43
1.0
 76
     1
 77
     6
 78
     2
 67
     7
 79
     5
170
     0
171
     0
290
     0
174
     0
 93
        1
 44
0.0
173
     0
291
     1
 45
0.0
1001
ACAD
1000
AcDbSavedByObjectVersion
1070
     0
  0
DICTIONARYVAR
  5
114
102
{ACAD_REACTORS
330
111
102
}
330
111
100
DictionaryVariables
280
     0
  1
2
  0
DICTIONARYVAR
  5
115
102
{ACAD_REACTORS
330
111
102
}
330
111
100
DictionaryVariables
280
     0
  1
1
  0
DICTIONARY
  5
138
330
3D
100
AcDbDictionary
280
     1
281
     1
  3
ACAD_XREC_ROUNDTRIP
360
139
  0
DICTIONARY
  5
136
330
3C
100
AcDbDictionary
280
     1
281
     1
  3
ACAD_XREC_ROUNDTRIP
360
137
  0
DICTIONARY
  5
13A
330
3E
100
AcDbDictionary
280
     1
281
     1
  3
ACAD_XREC_ROUNDTRIP
360
13B
  0
DICTIONARY
  5
11E
330
2F
100
AcDbDictionary
280
     1
281
     1
  3
ACAD_XREC_ROUNDTRIP
360
11F
  0
DICTIONARY
  5
122
330
31
100
AcDbDictionary
280
     1
281
     1
  3
ACAD_XREC_ROUNDTRIP
360
123
  0
DICTIONARY
  5
120
330
30
100
AcDbDictionary
280
     1
281
     1
  3
ACAD_XREC_ROUNDTRIP
360
121
  0
DICTIONARY
  5
124
330
32
100
AcDbDictionary
280
     1
281
     1
  3
ACAD_XREC_ROUNDTRIP
360
125
  0
DICTIONARY
  5
12C
330
36
100
AcDbDictionary
280
     1
281
     1
  3
ACAD_XREC_ROUNDTRIP
360
12D
  0
DICTIONARY
  5
134
330
3A
100
AcDbDictionary
280
     1
281
     1
  3
ACAD_XREC_ROUNDTRIP
360
135
  0
DICTIONARY
  5
128
330
34
100
AcDbDictionary
280
     1
281
     1
  3
ACAD_XREC_ROUNDTRIP
360
129
  0
DICTIONARY
  5
12A
330
35
100
AcDbDictionary
280
     1
281
     1
  3
ACAD_XREC_ROUNDTRIP
360
12B
  0
DICTIONARY
  5
132
330
39
100
AcDbDictionary
280
     1
281
     1
  3
ACAD_XREC_ROUNDTRIP
360
133
  0
DICTIONARY
  5
116
330
2B
100
AcDbDictionary
280
     1
281
     1
  3
ACAD_XREC_ROUNDTRIP
360
117
  0
DICTIONARY
  5
118
330
2C
100
AcDbDictionary
280
     1
281
     1
  3
ACAD_XREC_ROUNDTRIP
360
119
  0
DICTIONARY
  5
11A
330
2D
100
AcDbDictionary
280
     1
281
     1
  3
ACAD_XREC_ROUNDTRIP
360
11B
  0
DICTIONARY
  5
11C
330
2E
100
AcDbDictionary
280
     1
281
     1
  3
ACAD_XREC_ROUNDTRIP
360
11D
  0
DICTIONARY
  5
130
330
38
100
AcDbDictionary
280
     1
281
     1
  3
ACAD_XREC_ROUNDTRIP
360
131
  0
DICTIONARY
  5
126
330
33
100
AcDbDictionary
280
     1
281
     1
  3
ACAD_XREC_ROUNDTRIP
360
127
  0
DICTIONARY
  5
12E
330
37
100
AcDbDictionary
280
     1
281
     1
  3
ACAD_XREC_ROUNDTRIP
360
12F
  0
XRECORD
  5
139
102
{ACAD_REACTORS
330
138
102
}
330
138
100
AcDbXrecord
280
     1
102
MATERIAL
148
0.0
149
0.0
149
0.0
 93
        0
 94
      127
282
     0
 72
     1
 77
     1
171
     1
175
     1
179
     1
273
     0
  0
XRECORD
  5
137
102
{ACAD_REACTORS
330
136
102
}
330
136
100
AcDbXrecord
280
     1
102
MATERIAL
148
0.0
149
0.0
149
0.0
 93
        0
 94
      127
282
     0
 72
     1
 77
     1
171
     1
175
     1
179
     1
273
     0
  0
XRECORD
  5
13B
102
{ACAD_REACTORS
330
13A
102
}
330
13A
100
AcDbXrecord
280
     1
102
MATERIAL
148
0.0
149
0.0
149
0.0
 93
        0
 94
      127
282
     0
 72
     1
 77
     1
171
     1
175
     1
179
     1
273
     0
  0
XRECORD
  5
11F
102
{ACAD_REACTORS
330
11E
102
}
330
11E
100
AcDbXrecord
280
     1
102
RTVSPropertyOp0
 70
     1
102
RTVSPropertyOp1
 70
     1
102
RTVSPropertyOp2
 70
     1
102
RTVSPropertyOp3
 70
     1
102
RTVSPropertyOp4
 70
     1
102
RTVSPropertyOp5
 70
     1
102
RTVSPropertyOp6
 70
     1
102
RTVSPropertyOp7
 70
     1
102
RTVSPropertyOp8
 70
     1
102
RTVSPropertyOp9
 70
     1
102
RTVSPropertyOp10
 70
     1
102
RTVSPropertyOp11
 70
     1
102
RTVSPropertyOp12
 70
     1
102
RTVSPropertyOp13
 70
     1
102
RTVSPropertyOp14
 70
     1
102
RTVSPropertyOp15
 70
     1
102
RTVSPropertyOp16
 70
     1
102
RTVSPropertyOp17
 70
     1
102
RTVSPropertyOp18
 70
     1
102
RTVSPropertyOp19
 70
     1
102
RTVSPropertyOp20
 70
     1
102
RTVSPropertyOp21
 70
     1
102
RTVSPropertyOp22
 70
     1
102
RTVSPropertyOp23
 70
     1
102
RTVSPropertyOp24
 70
     1
102
RTVSPropertyOp25
 70
     1
102
RTVSPropertyOp26
 70
     1
102
RTVSPropertyOp27
 70
     1
102
RTVSPropertyOp28
 70
     1
102
RTVSPropertyOp29
 70
     1
102
RTVSPropertyOp30
 70
     1
102
RTVSPropertyOp31
 70
     1
102
RTVSPropertyOp32
 70
     1
  0
XRECORD
  5
123
102
{ACAD_REACTORS
330
122
102
}
330
122
100
AcDbXrecord
280
     1
102
RTVSPropertyOp0
 70
     1
102
RTVSPropertyOp1
 70
     1
102
RTVSPropertyOp2
 70
     1
102
RTVSPropertyOp3
 70
     1
102
RTVSPropertyOp4
 70
     1
102
RTVSPropertyOp5
 70
     1
102
RTVSPropertyOp6
 70
     1
102
RTVSPropertyOp7
 70
     1
102
RTVSPropertyOp8
 70
     1
102
RTVSPropertyOp9
 70
     1
102
RTVSPropertyOp10
 70
     1
102
RTVSPropertyOp11
 70
     1
102
RTVSPropertyOp12
 70
     1
102
RTVSPropertyOp13
 70
     1
102
RTVSPropertyOp14
 70
     1
102
RTVSPropertyOp15
 70
     1
102
RTVSPropertyOp16
 70
     1
102
RTVSPropertyOp17
 70
     1
102
RTVSPropertyOp18
 70
     1
102
RTVSPropertyOp19
 70
     1
102
RTVSPropertyOp20
 70
     1
102
RTVSPropertyOp21
 70
     1
102
RTVSPropertyOp22
 70
     1
102
RTVSPropertyOp23
 70
     1
102
RTVSPropertyOp24
 70
     1
102
RTVSPropertyOp25
 70
     1
102
RTVSPropertyOp26
 70
     1
102
RTVSPropertyOp27
 70
     1
102
RTVSPropertyOp28
 70
     1
102
RTVSPropertyOp29
 70
     1
102
RTVSPropertyOp30
 70
     1
102
RTVSPropertyOp31
 70
     1
102
RTVSPropertyOp32
 70
     1
  0
XRECORD
  5
121
102
{ACAD_REACTORS
330
120
102
}
330
120
100
AcDbXrecord
280
     1
102
RTVSPropertyOp0
 70
     1
102
RTVSPropertyOp1
 70
     1
102
RTVSPropertyOp2
 70
     1
102
RTVSPropertyOp3
 70
     1
102
RTVSPropertyOp4
 70
     1
102
RTVSPropertyOp5
 70
     1
102
RTVSPropertyOp6
 70
     1
102
RTVSPropertyOp7
 70
     1
102
RTVSPropertyOp8
 70
     1
102
RTVSPropertyOp9
 70
     1
102
RTVSPropertyOp10
 70
     1
102
RTVSPropertyOp11
 70
     1
102
RTVSPropertyOp12
 70
     1
102
RTVSPropertyOp13
 70
     1
102
RTVSPropertyOp14
 70
     1
102
RTVSPropertyOp15
 70
     1
102
RTVSPropertyOp16
 70
     1
102
RTVSPropertyOp17
 70
     1
102
RTVSPropertyOp18
 70
     1
102
RTVSPropertyOp19
 70
     1
102
RTVSPropertyOp20
 70
     1
102
RTVSPropertyOp21
 70
     1
102
RTVSPropertyOp22
 70
     1
102
RTVSPropertyOp23
 70
     1
102
RTVSPropertyOp24
 70
     1
102
RTVSPropertyOp25
 70
     1
102
RTVSPropertyOp26
 70
     1
102
RTVSPropertyOp27
 70
     1
102
RTVSPropertyOp28
 70
     1
102
RTVSPropertyOp29
 70
     1
102
RTVSPropertyOp30
 70
     1
102
RTVSPropertyOp31
 70
     1
102
RTVSPropertyOp32
 70
     1
  0
XRECORD
  5
125
102
{ACAD_REACTORS
330
124
102
}
330
124
100
AcDbXrecord
280
     1
102
RTVSPropertyOp0
 70
     1
102
RTVSPropertyOp1
 70
     1
102
RTVSPropertyOp2
 70
     1
102
RTVSPropertyOp3
 70
     1
102
RTVSPropertyOp4
 70
     1
102
RTVSPropertyOp5
 70
     1
102
RTVSPropertyOp6
 70
     1
102
RTVSPropertyOp7
 70
     1
102
RTVSPropertyOp8
 70
     1
102
RTVSPropertyOp9
 70
     1
102
RTVSPropertyOp10
 70
     1
102
RTVSPropertyOp11
 70
     1
102
RTVSPropertyOp12
 70
     1
102
RTVSPropertyOp13
 70
     1
102
RTVSPropertyOp14
 70
     1
102
RTVSPropertyOp15
 70
     1
102
RTVSPropertyOp16
 70
     1
102
RTVSPropertyOp17
 70
     1
102
RTVSPropertyOp18
 70
     1
102
RTVSPropertyOp19
 70
     1
102
RTVSPropertyOp20
 70
     1
102
RTVSPropertyOp21
 70
     1
102
RTVSPropertyOp22
 70
     1
102
RTVSPropertyOp23
 70
     1
102
RTVSPropertyOp24
 70
     1
102
RTVSPropertyOp25
 70
     1
102
RTVSPropertyOp26
 70
     1
102
RTVSPropertyOp27
 70
     1
102
RTVSPropertyOp28
 70
     1
102
RTVSPropertyOp29
 70
     1
102
RTVSPropertyOp30
 70
     1
102
RTVSPropertyOp31
 70
     1
102
RTVSPropertyOp32
 70
     1
  0
XRECORD
  5
12D
102
{ACAD_REACTORS
330
12C
102
}
330
12C
100
AcDbXrecord
280
     1
102
RTVSPropertyOp0
 70
     1
102
RTVSPropertyOp1
 70
     1
102
RTVSPropertyOp2
 70
     1
102
RTVSPropertyOp3
 70
     1
102
RTVSPropertyOp4
 70
     1
102
RTVSPropertyOp5
 70
     1
102
RTVSPropertyOp6
 70
     1
102
RTVSPropertyOp7
 70
     1
102
RTVSPropertyOp8
 70
     1
102
RTVSPropertyOp9
 70
     1
102
RTVSPropertyOp10
 70
     1
102
RTVSPropertyOp11
 70
     1
102
RTVSPropertyOp12
 70
     1
102
RTVSPropertyOp13
 70
     1
102
RTVSPropertyOp14
 70
     1
102
RTVSPropertyOp15
 70
     1
102
RTVSPropertyOp16
 70
     1
102
RTVSPropertyOp17
 70
     1
102
RTVSPropertyOp18
 70
     1
102
RTVSPropertyOp19
 70
     1
102
RTVSPropertyOp20
 70
     1
102
RTVSPropertyOp21
 70
     1
102
RTVSPropertyOp22
 70
     1
102
RTVSPropertyOp23
 70
     1
102
RTVSPropertyOp24
 70
     1
102
RTVSPropertyOp25
 70
     1
102
RTVSPropertyOp26
 70
     1
102
RTVSPropertyOp27
 70
     1
102
RTVSPropertyOp28
 70
     1
102
RTVSPropertyOp29
 70
     1
102
RTVSPropertyOp30
 70
     1
102
RTVSPropertyOp31
 70
     1
102
RTVSPropertyOp32
 70
     1
  0
XRECORD
  5
135
102
{ACAD_REACTORS
330
134
102
}
330
134
100
AcDbXrecord
280
     1
102
RTVSPropertyOp0
 70
     1
102
RTVSPropertyOp1
 70
     1
102
RTVSPropertyOp2
 70
     1
102
RTVSPropertyOp3
 70
     1
102
RTVSPropertyOp4
 70
     1
102
RTVSPropertyOp5
 70
     1
102
RTVSPropertyOp6
 70
     1
102
RTVSPropertyOp7
 70
     1
102
RTVSPropertyOp8
 70
     1
102
RTVSPropertyOp9
 70
     1
102
RTVSPropertyOp10
 70
     1
102
RTVSPropertyOp11
 70
     1
102
RTVSPropertyOp12
 70
     1
102
RTVSPropertyOp13
 70
     1
102
RTVSPropertyOp14
 70
     1
102
RTVSPropertyOp15
 70
     1
102
RTVSPropertyOp16
 70
     1
102
RTVSPropertyOp17
 70
     1
102
RTVSPropertyOp18
 70
     1
102
RTVSPropertyOp19
 70
     1
102
RTVSPropertyOp20
 70
     1
102
RTVSPropertyOp21
 70
     1
102
RTVSPropertyOp22
 70
     1
102
RTVSPropertyOp23
 70
     1
102
RTVSPropertyOp24
 70
     1
102
RTVSPropertyOp25
 70
     1
102
RTVSPropertyOp26
 70
     1
102
RTVSPropertyOp27
 70
     1
102
RTVSPropertyOp28
 70
     1
102
RTVSPropertyOp29
 70
     1
102
RTVSPropertyOp30
 70
     1
102
RTVSPropertyOp31
 70
     1
102
RTVSPropertyOp32
 70
     1
  0
XRECORD
  5
129
102
{ACAD_REACTORS
330
128
102
}
330
128
100
AcDbXrecord
280
     1
102
RTVSPropertyOp0
 70
     1
102
RTVSPropertyOp1
 70
     1
102
RTVSPropertyOp2
 70
     1
102
RTVSPropertyOp3
 70
     1
102
RTVSPropertyOp4
 70
     1
102
RTVSPropertyOp5
 70
     1
102
RTVSPropertyOp6
 70
     1
102
RTVSPropertyOp7
 70
     1
102
RTVSPropertyOp8
 70
     1
102
RTVSPropertyOp9
 70
     1
102
RTVSPropertyOp10
 70
     1
102
RTVSPropertyOp11
 70
     1
102
RTVSPropertyOp12
 70
     1
102
RTVSPropertyOp13
 70
     1
102
RTVSPropertyOp14
 70
     1
102
RTVSPropertyOp15
 70
     1
102
RTVSPropertyOp16
 70
     1
102
RTVSPropertyOp17
 70
     1
102
RTVSPropertyOp18
 70
     1
102
RTVSPropertyOp19
 70
     1
102
RTVSPropertyOp20
 70
     1
102
RTVSPropertyOp21
 70
     1
102
RTVSPropertyOp22
 70
     1
102
RTVSPropertyOp23
 70
     1
102
RTVSPropertyOp24
 70
     1
102
RTVSPropertyOp25
 70
     1
102
RTVSPropertyOp26
 70
     1
102
RTVSPropertyOp27
 70
     1
102
RTVSPropertyOp28
 70
     1
102
RTVSPropertyOp29
 70
     1
102
RTVSPropertyOp30
 70
     1
102
RTVSPropertyOp31
 70
     1
102
RTVSPropertyOp32
 70
     1
  0
XRECORD
  5
12B
102
{ACAD_REACTORS
330
12A
102
}
330
12A
100
AcDbXrecord
280
     1
102
RTVSPropertyOp0
 70
     1
102
RTVSPropertyOp1
 70
     1
102
RTVSPropertyOp2
 70
     1
102
RTVSPropertyOp3
 70
     1
102
RTVSPropertyOp4
 70
     1
102
RTVSPropertyOp5
 70
     1
102
RTVSPropertyOp6
 70
     1
102
RTVSPropertyOp7
 70
     1
102
RTVSPropertyOp8
 70
     1
102
RTVSPropertyOp9
 70
     1
102
RTVSPropertyOp10
 70
     1
102
RTVSPropertyOp11
 70
     1
102
RTVSPropertyOp12
 70
     1
102
RTVSPropertyOp13
 70
     1
102
RTVSPropertyOp14
 70
     1
102
RTVSPropertyOp15
 70
     1
102
RTVSPropertyOp16
 70
     1
102
RTVSPropertyOp17
 70
     1
102
RTVSPropertyOp18
 70
     1
102
RTVSPropertyOp19
 70
     1
102
RTVSPropertyOp20
 70
     1
102
RTVSPropertyOp21
 70
     1
102
RTVSPropertyOp22
 70
     1
102
RTVSPropertyOp23
 70
     1
102
RTVSPropertyOp24
 70
     1
102
RTVSPropertyOp25
 70
     1
102
RTVSPropertyOp26
 70
     1
102
RTVSPropertyOp27
 70
     1
102
RTVSPropertyOp28
 70
     1
102
RTVSPropertyOp29
 70
     1
102
RTVSPropertyOp30
 70
     1
102
RTVSPropertyOp31
 70
     1
102
RTVSPropertyOp32
 70
     1
  0
XRECORD
  5
133
102
{ACAD_REACTORS
330
132
102
}
330
132
100
AcDbXrecord
280
     1
102
RTVSPropertyOp0
 70
     1
102
RTVSPropertyOp1
 70
     1
102
RTVSPropertyOp2
 70
     1
102
RTVSPropertyOp3
 70
     1
102
RTVSPropertyOp4
 70
     1
102
RTVSPropertyOp5
 70
     1
102
RTVSPropertyOp6
 70
     1
102
RTVSPropertyOp7
 70
     1
102
RTVSPropertyOp8
 70
     1
102
RTVSPropertyOp9
 70
     1
102
RTVSPropertyOp10
 70
     1
102
RTVSPropertyOp11
 70
     1
102
RTVSPropertyOp12
 70
     1
102
RTVSPropertyOp13
 70
     1
102
RTVSPropertyOp14
 70
     1
102
RTVSPropertyOp15
 70
     1
102
RTVSPropertyOp16
 70
     1
102
RTVSPropertyOp17
 70
     1
102
RTVSPropertyOp18
 70
     1
102
RTVSPropertyOp19
 70
     1
102
RTVSPropertyOp20
 70
     1
102
RTVSPropertyOp21
 70
     1
102
RTVSPropertyOp22
 70
     1
102
RTVSPropertyOp23
 70
     1
102
RTVSPropertyOp24
 70
     1
102
RTVSPropertyOp25
 70
     1
102
RTVSPropertyOp26
 70
     1
102
RTVSPropertyOp27
 70
     1
102
RTVSPropertyOp28
 70
     1
102
RTVSPropertyOp29
 70
     1
102
RTVSPropertyOp30
 70
     1
102
RTVSPropertyOp31
 70
     1
102
RTVSPropertyOp32
 70
     1
  0
XRECORD
  5
117
102
{ACAD_REACTORS
330
116
102
}
330
116
100
AcDbXrecord
280
     1
102
RTVSPropertyOp0
 70
     1
102
RTVSPropertyOp1
 70
     1
102
RTVSPropertyOp2
 70
     1
102
RTVSPropertyOp3
 70
     1
102
RTVSPropertyOp4
 70
     1
102
RTVSPropertyOp5
 70
     1
102
RTVSPropertyOp6
 70
     1
102
RTVSPropertyOp7
 70
     1
102
RTVSPropertyOp8
 70
     1
102
RTVSPropertyOp9
 70
     1
102
RTVSPropertyOp10
 70
     1
102
RTVSPropertyOp11
 70
     1
102
RTVSPropertyOp12
 70
     1
102
RTVSPropertyOp13
 70
     1
102
RTVSPropertyOp14
 70
     1
102
RTVSPropertyOp15
 70
     1
102
RTVSPropertyOp16
 70
     1
102
RTVSPropertyOp17
 70
     1
102
RTVSPropertyOp18
 70
     1
102
RTVSPropertyOp19
 70
     1
102
RTVSPropertyOp20
 70
     1
102
RTVSPropertyOp21
 70
     1
102
RTVSPropertyOp22
 70
     1
102
RTVSPropertyOp23
 70
     1
102
RTVSPropertyOp24
 70
     1
102
RTVSPropertyOp25
 70
     1
102
RTVSPropertyOp26
 70
     1
102
RTVSPropertyOp27
 70
     1
102
RTVSPropertyOp28
 70
     1
102
RTVSPropertyOp29
 70
     1
102
RTVSPropertyOp30
 70
     1
102
RTVSPropertyOp31
 70
     1
102
RTVSPropertyOp32
 70
     1
  0
XRECORD
  5
119
102
{ACAD_REACTORS
330
118
102
}
330
118
100
AcDbXrecord
280
     1
102
RTVSPropertyOp0
 70
     1
102
RTVSPropertyOp1
 70
     1
102
RTVSPropertyOp2
 70
     1
102
RTVSPropertyOp3
 70
     1
102
RTVSPropertyOp4
 70
     1
102
RTVSPropertyOp5
 70
     1
102
RTVSPropertyOp6
 70
     1
102
RTVSPropertyOp7
 70
     1
102
RTVSPropertyOp8
 70
     1
102
RTVSPropertyOp9
 70
     1
102
RTVSPropertyOp10
 70
     1
102
RTVSPropertyOp11
 70
     1
102
RTVSPropertyOp12
 70
     1
102
RTVSPropertyOp13
 70
     1
102
RTVSPropertyOp14
 70
     1
102
RTVSPropertyOp15
 70
     1
102
RTVSPropertyOp16
 70
     1
102
RTVSPropertyOp17
 70
     1
102
RTVSPropertyOp18
 70
     1
102
RTVSPropertyOp19
 70
     1
102
RTVSPropertyOp20
 70
     1
102
RTVSPropertyOp21
 70
     1
102
RTVSPropertyOp22
 70
     1
102
RTVSPropertyOp23
 70
     1
102
RTVSPropertyOp24
 70
     1
102
RTVSPropertyOp25
 70
     1
102
RTVSPropertyOp26
 70
     1
102
RTVSPropertyOp27
 70
     1
102
RTVSPropertyOp28
 70
     1
102
RTVSPropertyOp29
 70
     1
102
RTVSPropertyOp30
 70
     1
102
RTVSPropertyOp31
 70
     1
102
RTVSPropertyOp32
 70
     1
  0
XRECORD
  5
11B
102
{ACAD_REACTORS
330
11A
102
}
330
11A
100
AcDbXrecord
280
     1
102
RTVSPropertyOp0
 70
     1
102
RTVSPropertyOp1
 70
     1
102
RTVSPropertyOp2
 70
     1
102
RTVSPropertyOp3
 70
     1
102
RTVSPropertyOp4
 70
     1
102
RTVSPropertyOp5
 70
     1
102
RTVSPropertyOp6
 70
     1
102
RTVSPropertyOp7
 70
     1
102
RTVSPropertyOp8
 70
     1
102
RTVSPropertyOp9
 70
     1
102
RTVSPropertyOp10
 70
     1
102
RTVSPropertyOp11
 70
     1
102
RTVSPropertyOp12
 70
     1
102
RTVSPropertyOp13
 70
     1
102
RTVSPropertyOp14
 70
     1
102
RTVSPropertyOp15
 70
     1
102
RTVSPropertyOp16
 70
     1
102
RTVSPropertyOp17
 70
     1
102
RTVSPropertyOp18
 70
     1
102
RTVSPropertyOp19
 70
     1
102
RTVSPropertyOp20
 70
     1
102
RTVSPropertyOp21
 70
     1
102
RTVSPropertyOp22
 70
     1
102
RTVSPropertyOp23
 70
     1
102
RTVSPropertyOp24
 70
     1
102
RTVSPropertyOp25
 70
     1
102
RTVSPropertyOp26
 70
     1
102
RTVSPropertyOp27
 70
     1
102
RTVSPropertyOp28
 70
     1
102
RTVSPropertyOp29
 70
     1
102
RTVSPropertyOp30
 70
     1
102
RTVSPropertyOp31
 70
     1
102
RTVSPropertyOp32
 70
     1
  0
XRECORD
  5
11D
102
{ACAD_REACTORS
330
11C
102
}
330
11C
100
AcDbXrecord
280
     1
102
RTVSPropertyOp0
 70
     1
102
RTVSPropertyOp1
 70
     1
102
RTVSPropertyOp2
 70
     1
102
RTVSPropertyOp3
 70
     1
102
RTVSPropertyOp4
 70
     1
102
RTVSPropertyOp5
 70
     1
102
RTVSPropertyOp6
 70
     1
102
RTVSPropertyOp7
 70
     1
102
RTVSPropertyOp8
 70
     1
102
RTVSPropertyOp9
 70
     1
102
RTVSPropertyOp10
 70
     1
102
RTVSPropertyOp11
 70
     1
102
RTVSPropertyOp12
 70
     1
102
RTVSPropertyOp13
 70
     1
102
RTVSPropertyOp14
 70
     1
102
RTVSPropertyOp15
 70
     1
102
RTVSPropertyOp16
 70
     1
102
RTVSPropertyOp17
 70
     1
102
RTVSPropertyOp18
 70
     1
102
RTVSPropertyOp19
 70
     1
102
RTVSPropertyOp20
 70
     1
102
RTVSPropertyOp21
 70
     1
102
RTVSPropertyOp22
 70
     1
102
RTVSPropertyOp23
 70
     1
102
RTVSPropertyOp24
 70
     1
102
RTVSPropertyOp25
 70
     1
102
RTVSPropertyOp26
 70
     1
102
RTVSPropertyOp27
 70
     1
102
RTVSPropertyOp28
 70
     1
102
RTVSPropertyOp29
 70
     1
102
RTVSPropertyOp30
 70
     1
102
RTVSPropertyOp31
 70
     1
102
RTVSPropertyOp32
 70
     1
  0
XRECORD
  5
131
102
{ACAD_REACTORS
330
130
102
}
330
130
100
AcDbXrecord
280
     1
102
RTVSPropertyOp0
 70
     1
102
RTVSPropertyOp1
 70
     1
102
RTVSPropertyOp2
 70
     1
102
RTVSPropertyOp3
 70
     1
102
RTVSPropertyOp4
 70
     1
102
RTVSPropertyOp5
 70
     1
102
RTVSPropertyOp6
 70
     1
102
RTVSPropertyOp7
 70
     1
102
RTVSPropertyOp8
 70
     1
102
RTVSPropertyOp9
 70
     1
102
RTVSPropertyOp10
 70
     1
102
RTVSPropertyOp11
 70
     1
102
RTVSPropertyOp12
 70
     1
102
RTVSPropertyOp13
 70
     1
102
RTVSPropertyOp14
 70
     1
102
RTVSPropertyOp15
 70
     1
102
RTVSPropertyOp16
 70
     1
102
RTVSPropertyOp17
 70
     1
102
RTVSPropertyOp18
 70
     1
102
RTVSPropertyOp19
 70
     1
102
RTVSPropertyOp20
 70
     1
102
RTVSPropertyOp21
 70
     1
102
RTVSPropertyOp22
 70
     1
102
RTVSPropertyOp23
 70
     1
102
RTVSPropertyOp24
 70
     1
102
RTVSPropertyOp25
 70
     1
102
RTVSPropertyOp26
 70
     1
102
RTVSPropertyOp27
 70
     1
102
RTVSPropertyOp28
 70
     1
102
RTVSPropertyOp29
 70
     1
102
RTVSPropertyOp30
 70
     1
102
RTVSPropertyOp31
 70
     1
102
RTVSPropertyOp32
 70
     1
  0
XRECORD
  5
127
102
{ACAD_REACTORS
330
126
102
}
330
126
100
AcDbXrecord
280
     1
102
RTVSPropertyOp0
 70
     1
102
RTVSPropertyOp1
 70
     1
102
RTVSPropertyOp2
 70
     1
102
RTVSPropertyOp3
 70
     1
102
RTVSPropertyOp4
 70
     1
102
RTVSPropertyOp5
 70
     1
102
RTVSPropertyOp6
 70
     1
102
RTVSPropertyOp7
 70
     1
102
RTVSPropertyOp8
 70
     1
102
RTVSPropertyOp9
 70
     1
102
RTVSPropertyOp10
 70
     1
102
RTVSPropertyOp11
 70
     1
102
RTVSPropertyOp12
 70
     1
102
RTVSPropertyOp13
 70
     1
102
RTVSPropertyOp14
 70
     1
102
RTVSPropertyOp15
 70
     1
102
RTVSPropertyOp16
 70
     1
102
RTVSPropertyOp17
 70
     1
102
RTVSPropertyOp18
 70
     1
102
RTVSPropertyOp19
 70
     1
102
RTVSPropertyOp20
 70
     1
102
RTVSPropertyOp21
 70
     1
102
RTVSPropertyOp22
 70
     1
102
RTVSPropertyOp23
 70
     1
102
RTVSPropertyOp24
 70
     1
102
RTVSPropertyOp25
 70
     1
102
RTVSPropertyOp26
 70
     1
102
RTVSPropertyOp27
 70
     1
102
RTVSPropertyOp28
 70
     1
102
RTVSPropertyOp29
 70
     1
102
RTVSPropertyOp30
 70
     1
102
RTVSPropertyOp31
 70
     1
102
RTVSPropertyOp32
 70
     1
  0
XRECORD
  5
12F
102
{ACAD_REACTORS
330
12E
102
}
330
12E
100
AcDbXrecord
280
     1
102
RTVSPropertyOp0
 70
     1
102
RTVSPropertyOp1
 70
     1
102
RTVSPropertyOp2
 70
     1
102
RTVSPropertyOp3
 70
     1
102
RTVSPropertyOp4
 70
     1
102
RTVSPropertyOp5
 70
     1
102
RTVSPropertyOp6
 70
     1
102
RTVSPropertyOp7
 70
     1
102
RTVSPropertyOp8
 70
     1
102
RTVSPropertyOp9
 70
     1
102
RTVSPropertyOp10
 70
     1
102
RTVSPropertyOp11
 70
     1
102
RTVSPropertyOp12
 70
     1
102
RTVSPropertyOp13
 70
     1
102
RTVSPropertyOp14
 70
     1
102
RTVSPropertyOp15
 70
     1
102
RTVSPropertyOp16
 70
     1
102
RTVSPropertyOp17
 70
     1
102
RTVSPropertyOp18
 70
     1
102
RTVSPropertyOp19
 70
     1
102
RTVSPropertyOp20
 70
     1
102
RTVSPropertyOp21
 70
     1
102
RTVSPropertyOp22
 70
     1
102
RTVSPropertyOp23
 70
     1
102
RTVSPropertyOp24
 70
     1
102
RTVSPropertyOp25
 70
     1
102
RTVSPropertyOp26
 70
     1
102
RTVSPropertyOp27
 70
     1
102
RTVSPropertyOp28
 70
     1
102
RTVSPropertyOp29
 70
     1
102
RTVSPropertyOp30
 70
     1
102
RTVSPropertyOp31
 70
     1
102
RTVSPropertyOp32
 70
     1
  0
ENDSEC
  0
EOF
