  0
SECTION
  2
HEADER
  9
$ACADVER
  1
AC1015
  9
$ACADMAINTVER
 70
     6
  9
$DWGCODEPAGE
  3
ANSI_932
  9
$INSBASE
 10
0.0
 20
0.0
 30
0.0
  9
$EXTMIN
 10
0.0
 20
-0.00000000000003
 30
0.0
  9
$EXTMAX
 10
210.0
 20
297.0
 30
0.0
  9
$LIMMIN
 10
0.0
 20
0.0
  9
$LIMMAX
 10
12.0
 20
9.0
  9
$ORTHOMODE
 70
     0
  9
$REGENMODE
 70
     1
  9
$FILLMODE
 70
     1
  9
$QTEXTMODE
 70
     0
  9
$MIRRTEXT
 70
     1
  9
$LTSCALE
 40
1.0
  9
$ATTMODE
 70
     1
  9
$TEXTSIZE
 40
0.2
  9
$TRACEWID
 40
0.05
  9
$TEXTSTYLE
  7
Standard
  9
$CLAYER
  8
0
  9
$CELTYPE
  6
ByLayer
  9
$CECOLOR
 62
   256
  9
$CELTSCALE
 40
1.0
  9
$DISPSILH
 70
     0
  9
$DIMSCALE
 40
1.0
  9
$DIMASZ
 40
0.18
  9
$DIMEXO
 40
0.0625
  9
$DIMDLI
 40
0.38
  9
$DIMRND
 40
0.0
  9
$DIMDLE
 40
0.0
  9
$DIMEXE
 40
0.18
  9
$DIMTP
 40
0.0
  9
$DIMTM
 40
0.0
  9
$DIMTXT
 40
0.18
  9
$DIMCEN
 40
0.09
  9
$DIMTSZ
 40
0.0
  9
$DIMTOL
 70
     0
  9
$DIMLIM
 70
     0
  9
$DIMTIH
 70
     1
  9
$DIMTOH
 70
     1
  9
$DIMSE1
 70
     0
  9
$DIMSE2
 70
     0
  9
$DIMTAD
 70
     0
  9
$DIMZIN
 70
     0
  9
$DIMBLK
  1

  9
$DIMASO
 70
     1
  9
$DIMSHO
 70
     1
  9
$DIMPOST
  1

  9
$DIMAPOST
  1

  9
$DIMALT
 70
     0
  9
$DIMALTD
 70
     2
  9
$DIMALTF
 40
25.4
  9
$DIMLFAC
 40
1.0
  9
$DIMTOFL
 70
     0
  9
$DIMTVP
 40
0.0
  9
$DIMTIX
 70
     0
  9
$DIMSOXD
 70
     0
  9
$DIMSAH
 70
     0
  9
$DIMBLK1
  1

  9
$DIMBLK2
  1

  9
$DIMSTYLE
  2
Standard
  9
$DIMCLRD
 70
     0
  9
$DIMCLRE
 70
     0
  9
$DIMCLRT
 70
     0
  9
$DIMTFAC
 40
1.0
  9
$DIMGAP
 40
0.09
  9
$DIMJUST
 70
     0
  9
$DIMSD1
 70
     0
  9
$DIMSD2
 70
     0
  9
$DIMTOLJ
 70
     1
  9
$DIMTZIN
 70
     0
  9
$DIMALTZ
 70
     0
  9
$DIMALTTZ
 70
     0
  9
$DIMUPT
 70
     0
  9
$DIMDEC
 70
     4
  9
$DIMTDEC
 70
     4
  9
$DIMALTU
 70
     2
  9
$DIMALTTD
 70
     2
  9
$DIMTXSTY
  7
Standard
  9
$DIMAUNIT
 70
     0
  9
$DIMADEC
 70
     0
  9
$DIMALTRND
 40
0.0
  9
$DIMAZIN
 70
     0
  9
$DIMDSEP
 70
    46
  9
$DIMATFIT
 70
     3
  9
$DIMFRAC
 70
     0
  9
$DIMLDRBLK
  1

  9
$DIMLUNIT
 70
     2
  9
$DIMLWD
 70
    -2
  9
$DIMLWE
 70
    -2
  9
$DIMTMOVE
 70
     0
  9
$LUNITS
 70
     2
  9
$LUPREC
 70
     4
  9
$SKETCHINC
 40
0.1
  9
$FILLETRAD
 40
0.5
  9
$AUNITS
 70
     0
  9
$AUPREC
 70
     0
  9
$MENU
  1
.
  9
$ELEVATION
 40
0.0
  9
$PELEVATION
 40
0.0
  9
$THICKNESS
 40
0.0
  9
$LIMCHECK
 70
     0
  9
$CHAMFERA
 40
0.5
  9
$CHAMFERB
 40
0.5
  9
$CHAMFERC
 40
1.0
  9
$CHAMFERD
 40
0.0
  9
$SKPOLY
 70
     0
  9
$TDCREATE
 40
2459719.574611227
  9
$TDUCREATE
 40
2459719.199611227
  9
$TDUPDATE
 40
2459719.574612859
  9
$TDUUPDATE
 40
2459719.199612859
  9
$TDINDWG
 40
0.0000000116
  9
$TDUSRTIMER
 40
0.0000000116
  9
$USRTIMER
 70
     1
  9
$ANGBASE
 50
0.0
  9
$ANGDIR
 70
     0
  9
$PDMODE
 70
     0
  9
$PDSIZE
 40
0.0
  9
$PLINEWID
 40
0.0
  9
$SPLFRAME
 70
     0
  9
$SPLINETYPE
 70
     6
  9
$SPLINESEGS
 70
     8
  9
$HANDSEED
  5
136
  9
$SURFTAB1
 70
     6
  9
$SURFTAB2
 70
     6
  9
$SURFTYPE
 70
     6
  9
$SURFU
 70
     6
  9
$SURFV
 70
     6
  9
$UCSBASE
  2

  9
$UCSNAME
  2

  9
$UCSORG
 10
0.0
 20
0.0
 30
0.0
  9
$UCSXDIR
 10
1.0
 20
0.0
 30
0.0
  9
$UCSYDIR
 10
0.0
 20
1.0
 30
0.0
  9
$UCSORTHOREF
  2

  9
$UCSORTHOVIEW
 70
     0
  9
$UCSORGTOP
 10
0.0
 20
0.0
 30
0.0
  9
$UCSORGBOTTOM
 10
0.0
 20
0.0
 30
0.0
  9
$UCSORGLEFT
 10
0.0
 20
0.0
 30
0.0
  9
$UCSORGRIGHT
 10
0.0
 20
0.0
 30
0.0
  9
$UCSORGFRONT
 10
0.0
 20
0.0
 30
0.0
  9
$UCSORGBACK
 10
0.0
 20
0.0
 30
0.0
  9
$PUCSBASE
  2

  9
$PUCSNAME
  2

  9
$PUCSORG
 10
0.0
 20
0.0
 30
0.0
  9
$PUCSXDIR
 10
1.0
 20
0.0
 30
0.0
  9
$PUCSYDIR
 10
0.0
 20
1.0
 30
0.0
  9
$PUCSORTHOREF
  2

  9
$PUCSORTHOVIEW
 70
     0
  9
$PUCSORGTOP
 10
0.0
 20
0.0
 30
0.0
  9
$PUCSORGBOTTOM
 10
0.0
 20
0.0
 30
0.0
  9
$PUCSORGLEFT
 10
0.0
 20
0.0
 30
0.0
  9
$PUCSORGRIGHT
 10
0.0
 20
0.0
 30
0.0
  9
$PUCSORGFRONT
 10
0.0
 20
0.0
 30
0.0
  9
$PUCSORGBACK
 10
0.0
 20
0.0
 30
0.0
  9
$USERI1
 70
     0
  9
$USERI2
 70
     0
  9
$USERI3
 70
     0
  9
$USERI4
 70
     0
  9
$USERI5
 70
     0
  9
$USERR1
 40
18.1
  9
$USERR2
 40
0.0
  9
$USERR3
 40
0.0
  9
$USERR4
 40
0.0
  9
$USERR5
 40
0.0
  9
$WORLDVIEW
 70
     1
  9
$SHADEDGE
 70
     3
  9
$SHADEDIF
 70
    70
  9
$TILEMODE
 70
     1
  9
$MAXACTVP
 70
    64
  9
$PINSBASE
 10
0.0
 20
0.0
 30
0.0
  9
$PLIMCHECK
 70
     0
  9
$PEXTMIN
 10
1.00000000000000E+20
 20
1.00000000000000E+20
 30
1.00000000000000E+20
  9
$PEXTMAX
 10
-1.00000000000000E+20
 20
-1.00000000000000E+20
 30
-1.00000000000000E+20
  9
$PLIMMIN
 10
0.0
 20
0.0
  9
$PLIMMAX
 10
12.0
 20
9.0
  9
$UNITMODE
 70
     0
  9
$VISRETAIN
 70
     1
  9
$PLINEGEN
 70
     0
  9
$PSLTSCALE
 70
     1
  9
$TREEDEPTH
 70
  3020
  9
$CMLSTYLE
  2
Standard
  9
$CMLJUST
 70
     0
  9
$CMLSCALE
 40
1.0
  9
$PROXYGRAPHICS
 70
     1
  9
$MEASUREMENT
 70
     1
  9
$CELWEIGHT
370
    -1
  9
$ENDCAPS
280
     0
  9
$JOINSTYLE
280
     0
  9
$LWDISPLAY
290
     0
  9
$INSUNITS
 70
     4
  9
$HYPERLINKBASE
  1

  9
$STYLESHEET
  1

  9
$XEDIT
290
     1
  9
$CEPSNTYPE
380
     0
  9
$PSTYLEMODE
290
     1
  9
$FINGERPRINTGUID
  2
{ED741BCC-AE5A-44CE-BB15-5E63CAF1304A}
  9
$VERSIONGUID
  2
{FAEB1C32-E019-11D5-929B-00C0DF256EC4}
  9
$EXTNAMES
290
     1
  9
$PSVPSCALE
 40
0.0
  9
$OLESTARTUP
290
     0
  0
ENDSEC
  0
SECTION
  2
CLASSES
  0
CLASS
  1
ACDBDICTIONARYWDFLT
  2
AcDbDictionaryWithDefault
  3
ObjectDBX Classes
 90
        0
280
     0
281
     0
  0
CLASS
  1
VISUALSTYLE
  2
AcDbVisualStyle
  3
ObjectDBX Classes
 90
     4095
280
     0
281
     0
  0
CLASS
  1
MATERIAL
  2
AcDbMaterial
  3
ObjectDBX Classes
 90
     1153
280
     0
281
     0
  0
CLASS
  1
DICTIONARYVAR
  2
AcDbDictionaryVar
  3
ObjectDBX Classes
 90
        0
280
     0
281
     0
  0
CLASS
  1
ACDBPLACEHOLDER
  2
AcDbPlaceHolder
  3
ObjectDBX Classes
 90
        0
280
     0
281
     0
  0
CLASS
  1
LAYOUT
  2
AcDbLayout
  3
ObjectDBX Classes
 90
        0
280
     0
281
     0
  0
ENDSEC
  0
SECTION
  2
TABLES
  0
TABLE
  2
VPORT
  5
8
330
0
100
AcDbSymbolTable
 70
     1
  0
VPORT
  5
29
330
8
100
AcDbSymbolTableRecord
100
AcDbViewportTableRecord
  2
*Active
 70
     0
 10
0.0
 20
0.0
 11
1.0
 21
1.0
 12
105.0
 22
148.5
 13
0.0
 23
0.0
 14
0.5
 24
0.5
 15
0.5
 25
0.5
 16
0.0
 26
0.0
 36
1.0
 17
0.0
 27
0.0
 37
0.0
 40
326.7
 41
1.60267857142857
 42
50.0
 43
0.0
 44
0.0
 50
0.0
 51
0.0
 71
     0
 72
   100
 73
     1
 74
     3
 75
     0
 76
     0
 77
     0
 78
     0
281
     0
 65
     1
110
0.0
120
0.0
130
0.0
111
1.0
121
0.0
131
0.0
112
0.0
122
1.0
132
0.0
 79
     0
146
0.0
  0
ENDTAB
  0
TABLE
  2
LTYPE
  5
5
330
0
100
AcDbSymbolTable
 70
     8
  0
LTYPE
  5
14
330
5
100
AcDbSymbolTableRecord
100
AcDbLinetypeTableRecord
  2
ByBlock
 70
     0
  3

 72
    65
 73
     0
 40
0.0
  0
LTYPE
  5
15
330
5
100
AcDbSymbolTableRecord
100
AcDbLinetypeTableRecord
  2
ByLayer
 70
     0
  3

 72
    65
 73
     0
 40
0.0
  0
LTYPE
  5
16
330
5
100
AcDbSymbolTableRecord
100
AcDbLinetypeTableRecord
  2
Continuous
 70
     0
  3
Solid line
 72
    65
 73
     0
 40
0.0
  0
LTYPE
  5
3F
330
5
100
AcDbSymbolTableRecord
100
AcDbLinetypeTableRecord
  2
DASHED
 70
     0
  3
Dashed
 72
    65
 73
     2
 40
15.0
 49
7.0
 74
     0
 49
-8.0
 74
     0
  0
LTYPE
  5
40
330
5
100
AcDbSymbolTableRecord
100
AcDbLinetypeTableRecord
  2
DOTTED
 70
     0
  3
Dotted
 72
    65
 73
     2
 40
1.0
 49
0.0
 74
     0
 49
-1.0
 74
     0
  0
LTYPE
  5
41
330
5
100
AcDbSymbolTableRecord
100
AcDbLinetypeTableRecord
  2
DOT_CENTER
 70
     0
  3
Dot_Center
 72
    65
 73
     4
 40
14.0
 49
12.0
 74
     0
 49
-1.0
 74
     0
 49
0.0
 74
     0
 49
-1.0
 74
     0
  0
LTYPE
  5
42
330
5
100
AcDbSymbolTableRecord
100
AcDbLinetypeTableRecord
  2
LONG_DASHED
 70
     0
  3
Long_Dashed
 72
    65
 73
     2
 40
15.0
 49
10.0
 74
     0
 49
-5.0
 74
     0
  0
LTYPE
  5
43
330
5
100
AcDbSymbolTableRecord
100
AcDbLinetypeTableRecord
  2
DASH_CENTER
 70
     0
  3
Dash_Center
 72
    65
 73
     4
 40
14.0
 49
11.0
 74
     0
 49
-1.0
 74
     0
 49
1.0
 74
     0
 49
-1.0
 74
     0
  0
LTYPE
  5
44
330
5
100
AcDbSymbolTableRecord
100
AcDbLinetypeTableRecord
  2
PHANTOM
 70
     0
  3
Phantom
 72
    65
 73
     6
 40
13.0
 49
10.0
 74
     0
 49
-1.0
 74
     0
 49
0.0
 74
     0
 49
-1.0
 74
     0
 49
0.0
 74
     0
 49
-1.0
 74
     0
  0
LTYPE
  5
45
330
5
100
AcDbSymbolTableRecord
100
AcDbLinetypeTableRecord
  2
CENTER_DASH_DASH
 70
     0
  3
Center_Dash_Dash
 72
    65
 73
     6
 40
14.0
 49
9.0
 74
     0
 49
-1.0
 74
     0
 49
1.0
 74
     0
 49
-1.0
 74
     0
 49
1.0
 74
     0
 49
-1.0
 74
     0
  0
ENDTAB
  0
TABLE
  2
LAYER
  5
2
330
0
100
AcDbSymbolTable
 70
     3
  0
LAYER
  5
10
330
2
100
AcDbSymbolTableRecord
100
AcDbLayerTableRecord
  2
0
 70
     0
 62
     7
  6
Continuous
370
    -3
390
F
  0
LAYER
  5
46
330
2
100
AcDbSymbolTableRecord
100
AcDbLayerTableRecord
  2
1
 70
     0
 62
     7
  6
Continuous
370
    -3
390
F
  0
LAYER
  5
47
330
2
100
AcDbSymbolTableRecord
100
AcDbLayerTableRecord
  2
_U_30EC_U_30A4_U_30E4_U_30FC_1
 70
     0
 62
     7
  6
Continuous
370
    -3
390
F
  0
ENDTAB
  0
TABLE
  2
STYLE
  5
3
330
0
100
AcDbSymbolTable
 70
     3
  0
STYLE
  5
11
330
3
100
AcDbSymbolTableRecord
100
AcDbTextStyleTableRecord
  2
Standard
 70
     0
 40
0.0
 41
1.0
 50
0.0
 71
     0
 42
0.2
  3
txt
  4

  0
STYLE
  5
B2
330
3
100
AcDbSymbolTableRecord
100
AcDbTextStyleTableRecord
  2
CONVERTER_11
 70
     0
 40
0.0
 41
0.89
 50
0.0
 71
     0
 42
0.2
  3
MS Mincho.ttf
  4

1001
ACAD
1000
MS Mincho
1071
    32785
  0
STYLE
  5
DC
330
3
100
AcDbSymbolTableRecord
100
AcDbTextStyleTableRecord
  2
CONVERTER_12
 70
     0
 40
0.0
 41
0.9
 50
0.0
 71
     0
 42
0.2
  3
txt.shx
  4

  0
ENDTAB
  0
TABLE
  2
VIEW
  5
6
330
0
100
AcDbSymbolTable
 70
     0
  0
ENDTAB
  0
TABLE
  2
UCS
  5
7
330
0
100
AcDbSymbolTable
 70
     0
  0
ENDTAB
  0
TABLE
  2
APPID
  5
9
330
0
100
AcDbSymbolTable
 70
     1
  0
APPID
  5
12
330
9
100
AcDbSymbolTableRecord
100
AcDbRegAppTableRecord
  2
ACAD
 70
     0
  0
ENDTAB
  0
TABLE
  2
DIMSTYLE
  5
A
330
0
100
AcDbSymbolTable
 70
     3
100
AcDbDimStyleTable
  0
DIMSTYLE
105
27
330
A
100
AcDbSymbolTableRecord
100
AcDbDimStyleTableRecord
  2
Standard
 70
     0
178
     0
340
11
  0
DIMSTYLE
105
F6
102
{ACAD_REACTORS
330
F7
102
}
330
A
100
AcDbSymbolTableRecord
100
AcDbDimStyleTableRecord
  2
ME10_DIM_10
 70
     0
  3
{\Fgdt;n}<>
 41
3.5
 42
0.0
 44
1.0
 73
     0
 74
     0
 77
     1
 78
     8
140
3.5
147
1.0
172
     1
173
     1
174
     1
175
     1
176
     2
177
     2
271
     2
178
     7
271
     2
340
DC
  0
DIMSTYLE
105
101
102
{ACAD_REACTORS
330
102
102
}
330
A
100
AcDbSymbolTableRecord
100
AcDbDimStyleTableRecord
  2
ME10_DIM_11
 70
     0
 41
3.5
 42
0.0
 44
1.0
 73
     0
 74
     0
 77
     1
 78
     8
140
3.5
147
1.0
172
     1
173
     1
174
     1
175
     1
176
     2
177
     2
271
     2
178
     7
271
     2
340
DC
  0
ENDTAB
  0
TABLE
  2
BLOCK_RECORD
  5
1
330
0
100
AcDbSymbolTable
 70
     6
  0
BLOCK_RECORD
  5
1F
330
1
100
AcDbSymbolTableRecord
100
AcDbBlockTableRecord
  2
*Model_Space
340
22
  0
BLOCK_RECORD
  5
1B
330
1
100
AcDbSymbolTableRecord
100
AcDbBlockTableRecord
  2
*Paper_Space
340
1E
  0
BLOCK_RECORD
  5
23
330
1
100
AcDbSymbolTableRecord
100
AcDbBlockTableRecord
  2
*Paper_Space0
340
26
  0
BLOCK_RECORD
  5
48
330
1
100
AcDbSymbolTableRecord
100
AcDbBlockTableRecord
  2
開示A4
340
0
102
{BLKREFS
331
4C
102
}
  0
BLOCK_RECORD
  5
4B
330
1
100
AcDbSymbolTableRecord
100
AcDbBlockTableRecord
  2
開示A4枠
340
0
102
{BLKREFS
331
4F
102
}
  0
BLOCK_RECORD
  5
ED
330
1
100
AcDbSymbolTableRecord
100
AcDbBlockTableRecord
  2
*D3
340
0
  0
BLOCK_RECORD
  5
F8
330
1
100
AcDbSymbolTableRecord
100
AcDbBlockTableRecord
  2
*D4
340
0
  0
BLOCK_RECORD
  5
103
330
1
100
AcDbSymbolTableRecord
100
AcDbBlockTableRecord
  2
*D5
340
0
102
{BLKREFS
331
10A
102
}
  0
ENDTAB
  0
ENDSEC
  0
SECTION
  2
BLOCKS
  0
BLOCK
  5
20
330
1F
100
AcDbEntity
  8
0
100
AcDbBlockBegin
  2
*Model_Space
 70
     0
 10
0.0
 20
0.0
 30
0.0
  3
*Model_Space
  1

  0
ENDBLK
  5
21
330
1F
100
AcDbEntity
  8
0
100
AcDbBlockEnd
  0
BLOCK
  5
1C
330
1B
100
AcDbEntity
 67
     1
  8
0
100
AcDbBlockBegin
  2
*Paper_Space
 70
     0
 10
0.0
 20
0.0
 30
0.0
  3
*Paper_Space
  1

  0
ENDBLK
  5
1D
330
1B
100
AcDbEntity
 67
     1
  8
0
100
AcDbBlockEnd
  0
BLOCK
  5
24
330
23
100
AcDbEntity
  8
0
100
AcDbBlockBegin
  2
*Paper_Space0
 70
     0
 10
0.0
 20
0.0
 30
0.0
  3
*Paper_Space0
  1

  0
ENDBLK
  5
25
330
23
100
AcDbEntity
  8
0
100
AcDbBlockEnd
  0
BLOCK
  5
49
330
48
100
AcDbEntity
  8
0
100
AcDbBlockBegin
  2
開示A4
 70
     0
 10
0.0
 20
-0.00000000000003
 30
0.0
  3
開示A4
  1

  0
POINT
  5
50
330
48
100
AcDbEntity
  8
1
 62
     4
100
AcDbPoint
 10
183.0
 20
14.99999999999997
 30
0.0
  0
POINT
  5
51
330
48
100
AcDbEntity
  8
1
 62
     4
100
AcDbPoint
 10
93.75
 20
16.99999999999997
 30
0.0
  0
POINT
  5
52
330
48
100
AcDbEntity
  8
1
 62
     4
100
AcDbPoint
 10
85.25
 20
16.99999999999997
 30
0.0
  0
POINT
  5
53
330
48
100
AcDbEntity
  8
1
 62
     4
100
AcDbPoint
 10
106.5
 20
18.99999999999997
 30
0.0
  0
POINT
  5
54
330
48
100
AcDbEntity
  8
1
 62
     4
100
AcDbPoint
 10
106.5
 20
12.49999999999997
 30
0.0
  0
POINT
  5
55
330
48
100
AcDbEntity
  8
1
 62
     4
100
AcDbPoint
 10
112.25
 20
12.49999999999997
 30
0.0
  0
POINT
  5
56
330
48
100
AcDbEntity
  8
1
 62
     4
100
AcDbPoint
 10
100.75
 20
12.49999999999997
 30
0.0
  0
POINT
  5
57
330
48
100
AcDbEntity
  8
1
 62
     4
100
AcDbPoint
 10
123.5
 20
18.99999999999997
 30
0.0
  0
POINT
  5
58
330
48
100
AcDbEntity
  8
1
 62
     4
100
AcDbPoint
 10
123.5
 20
12.49999999999997
 30
0.0
  0
POINT
  5
59
330
48
100
AcDbEntity
  8
1
 62
     4
100
AcDbPoint
 10
129.25
 20
12.49999999999997
 30
0.0
  0
POINT
  5
5A
330
48
100
AcDbEntity
  8
1
 62
     4
100
AcDbPoint
 10
117.75
 20
12.49999999999997
 30
0.0
  0
POINT
  5
5B
330
48
100
AcDbEntity
  8
1
 62
     4
100
AcDbPoint
 10
140.5
 20
18.99999999999997
 30
0.0
  0
POINT
  5
5C
330
48
100
AcDbEntity
  8
1
 62
     4
100
AcDbPoint
 10
140.5
 20
12.49999999999997
 30
0.0
  0
POINT
  5
5D
330
48
100
AcDbEntity
  8
1
 62
     4
100
AcDbPoint
 10
146.25
 20
12.49999999999997
 30
0.0
  0
POINT
  5
5E
330
48
100
AcDbEntity
  8
1
 62
     4
100
AcDbPoint
 10
134.75
 20
12.49999999999997
 30
0.0
  0
POINT
  5
5F
330
48
100
AcDbEntity
  8
1
 62
     4
100
AcDbPoint
 10
151.75
 20
12.49999999999997
 30
0.0
  0
POINT
  5
60
330
48
100
AcDbEntity
  8
1
 62
     4
100
AcDbPoint
 10
163.25
 20
12.49999999999997
 30
0.0
  0
POINT
  5
61
330
48
100
AcDbEntity
  8
1
 62
     4
100
AcDbPoint
 10
157.5
 20
12.49999999999997
 30
0.0
  0
POINT
  5
62
330
48
100
AcDbEntity
  8
1
 62
     4
100
AcDbPoint
 10
57.0
 20
14.24999999999997
 30
0.0
  0
POINT
  5
63
330
48
100
AcDbEntity
  8
1
 62
     4
100
AcDbPoint
 10
57.0
 20
22.74999999999997
 30
0.0
  0
POINT
  5
64
330
48
100
AcDbEntity
  8
1
 62
     4
100
AcDbPoint
 10
47.5
 20
282.0000000000002
 30
0.0
  0
POINT
  5
65
330
48
100
AcDbEntity
  8
1
 62
     4
100
AcDbPoint
 10
157.5
 20
18.99999999999997
 30
0.0
  0
POINT
  5
66
330
48
100
AcDbEntity
  8
1
 62
     4
100
AcDbPoint
 10
57.0
 20
16.24999999999997
 30
0.0
  0
POINT
  5
67
330
48
100
AcDbEntity
  8
1
 62
     4
100
AcDbPoint
 10
57.0
 20
24.74999999999997
 30
0.0
  0
POINT
  5
68
330
48
100
AcDbEntity
  8
1
 62
     4
100
AcDbPoint
 10
57.0
 20
20.74999999999997
 30
0.0
  0
POINT
  5
69
330
48
100
AcDbEntity
  8
1
 62
     4
100
AcDbPoint
 10
57.0
 20
12.24999999999997
 30
0.0
  0
POINT
  5
6A
330
48
100
AcDbEntity
  8
1
 62
     4
100
AcDbPoint
 10
34.0
 20
33.99999999999997
 30
0.0
  0
LINE
  5
6F
330
48
100
AcDbEntity
  8
1
  6
Continuous
 62
     7
100
AcDbLine
 10
105.0
 20
9.99999999999997
 30
0.0
 11
200.0
 21
9.99999999999997
 31
0.0
  0
LINE
  5
70
330
48
100
AcDbEntity
  8
1
  6
Continuous
 62
     2
100
AcDbLine
 10
105.0
 20
9.99999999999997
 30
0.0
 11
105.0
 21
4.99999999999997
 31
0.0
  0
LINE
  5
71
330
48
100
AcDbEntity
  8
1
  6
Continuous
 62
     7
100
AcDbLine
 10
200.0
 20
148.5
 30
0.0
 11
200.0
 21
287.0000000000002
 31
0.0
  0
LINE
  5
72
330
48
100
AcDbEntity
  8
1
  6
Continuous
 62
     2
100
AcDbLine
 10
200.0
 20
148.5
 30
0.0
 11
205.0
 21
148.5
 31
0.0
  0
LINE
  5
73
330
48
100
AcDbEntity
  8
1
  6
Continuous
 62
     7
100
AcDbLine
 10
25.0
 20
148.5
 30
0.0
 11
25.0
 21
287.0000000000002
 31
0.0
  0
LINE
  5
74
330
48
100
AcDbEntity
  8
1
  6
Continuous
 62
     2
100
AcDbLine
 10
25.0
 20
148.5
 30
0.0
 11
20.0
 21
148.5
 31
0.0
  0
LINE
  5
75
330
48
100
AcDbEntity
  8
1
  6
Continuous
 62
     7
100
AcDbLine
 10
105.0
 20
287.0000000000002
 30
0.0
 11
25.0
 21
287.0000000000002
 31
0.0
  0
LINE
  5
76
330
48
100
AcDbEntity
  8
1
  6
Continuous
 62
     2
100
AcDbLine
 10
105.0
 20
287.0000000000002
 30
0.0
 11
105.0
 21
292.0000000000002
 31
0.0
  0
LINE
  5
77
330
48
100
AcDbEntity
  8
1
  6
Continuous
 62
     2
100
AcDbLine
 10
166.0
 20
19.99999999999997
 30
0.0
 11
200.0
 21
19.99999999999997
 31
0.0
  0
LINE
  5
78
330
48
100
AcDbEntity
  8
1
  6
Continuous
 62
     2
100
AcDbLine
 10
98.0
 20
26.99999999999997
 30
0.0
 11
98.0
 21
9.99999999999997
 31
0.0
  0
LINE
  5
79
330
48
100
AcDbEntity
  8
1
  6
Continuous
 62
     2
100
AcDbLine
 10
115.0
 20
26.99999999999997
 30
0.0
 11
115.0
 21
9.99999999999997
 31
0.0
  0
LINE
  5
7A
330
48
100
AcDbEntity
  8
1
  6
Continuous
 62
     2
100
AcDbLine
 10
149.0
 20
26.99999999999997
 30
0.0
 11
149.0
 21
9.99999999999997
 31
0.0
  0
LINE
  5
7B
330
48
100
AcDbEntity
  8
1
  6
Continuous
 62
     2
100
AcDbLine
 10
132.0
 20
26.99999999999997
 30
0.0
 11
132.0
 21
9.99999999999997
 31
0.0
  0
LINE
  5
7C
330
48
100
AcDbEntity
  8
1
  6
Continuous
 62
     2
100
AcDbLine
 10
166.0
 20
26.99999999999997
 30
0.0
 11
166.0
 21
9.99999999999997
 31
0.0
  0
LINE
  5
7D
330
48
100
AcDbEntity
  8
1
  6
Continuous
 62
     2
100
AcDbLine
 10
55.0
 20
277.0000000000002
 30
0.0
 11
25.0
 21
277.0000000000002
 31
0.0
  0
LINE
  5
7E
330
48
100
AcDbEntity
  8
1
  6
Continuous
 62
     7
100
AcDbLine
 10
25.0
 20
9.99999999999997
 30
0.0
 11
25.0
 21
148.5
 31
0.0
  0
LINE
  5
7F
330
48
100
AcDbEntity
  8
1
  6
Continuous
 62
     2
100
AcDbLine
 10
40.0
 20
287.0000000000002
 30
0.0
 11
40.0
 21
277.0000000000002
 31
0.0
  0
LINE
  5
80
330
48
100
AcDbEntity
  8
1
  6
Continuous
 62
     2
100
AcDbLine
 10
55.0
 20
287.0000000000002
 30
0.0
 11
55.0
 21
277.0000000000002
 31
0.0
  0
LINE
  5
81
330
48
100
AcDbEntity
  8
1
  6
Continuous
 62
     2
100
AcDbLine
 10
33.0
 20
40.99999999999997
 30
0.0
 11
33.0
 21
26.99999999999997
 31
0.0
  0
LINE
  5
82
330
48
100
AcDbEntity
  8
1
  6
Continuous
 62
     7
100
AcDbLine
 10
200.0
 20
26.99999999999997
 30
0.0
 11
25.0
 21
26.99999999999997
 31
0.0
  0
LINE
  5
83
330
48
100
AcDbEntity
  8
1
  6
Continuous
 62
     7
100
AcDbLine
 10
25.0
 20
40.99999999999997
 30
0.0
 11
200.0
 21
40.99999999999997
 31
0.0
  0
LINE
  5
84
330
48
100
AcDbEntity
  8
1
  6
PHANTOM
 62
     4
100
AcDbLine
 10
0.0
 20
-0.00000000000003
 30
0.0
 11
210.0
 21
-0.00000000000003
 31
0.0
  0
LINE
  5
85
330
48
100
AcDbEntity
  8
1
  6
PHANTOM
 62
     4
100
AcDbLine
 10
210.0
 20
-0.00000000000003
 30
0.0
 11
210.0
 21
297.0
 31
0.0
  0
LINE
  5
86
330
48
100
AcDbEntity
  8
1
  6
PHANTOM
 62
     4
100
AcDbLine
 10
210.0
 20
297.0
 30
0.0
 11
0.0
 21
297.0
 31
0.0
  0
LINE
  5
87
330
48
100
AcDbEntity
  8
1
  6
PHANTOM
 62
     4
100
AcDbLine
 10
0.0
 20
297.0
 30
0.0
 11
0.0
 21
-0.00000000000003
 31
0.0
  0
LINE
  5
88
330
48
100
AcDbEntity
  8
1
  6
Continuous
 62
     7
100
AcDbLine
 10
25.0
 20
9.99999999999997
 30
0.0
 11
105.0
 21
9.99999999999997
 31
0.0
  0
LINE
  5
89
330
48
100
AcDbEntity
  8
1
  6
Continuous
 62
     7
100
AcDbLine
 10
200.0
 20
9.99999999999997
 30
0.0
 11
200.0
 21
148.5
 31
0.0
  0
LINE
  5
8A
330
48
100
AcDbEntity
  8
1
  6
Continuous
 62
     7
100
AcDbLine
 10
200.0
 20
287.0000000000002
 30
0.0
 11
105.0
 21
287.0000000000002
 31
0.0
  0
LINE
  5
8B
330
48
100
AcDbEntity
  8
1
  6
Continuous
 62
     2
100
AcDbLine
 10
25.0
 20
18.49999999999997
 30
0.0
 11
81.0
 21
18.49999999999997
 31
0.0
  0
LINE
  5
8C
330
48
100
AcDbEntity
  8
1
  6
Continuous
 62
     2
100
AcDbLine
 10
33.0
 20
26.99999999999997
 30
0.0
 11
33.0
 21
9.99999999999997
 31
0.0
  0
LINE
  5
8D
330
48
100
AcDbEntity
  8
1
  6
Continuous
 62
     7
100
AcDbLine
 10
191.0
 20
24.69999999999999
 30
0.0
 11
191.0
 21
22.29999999999998
 31
0.0
  0
LINE
  5
8E
330
48
100
AcDbEntity
  8
1
  6
Continuous
 62
     7
100
AcDbLine
 10
191.0
 20
24.69999999999999
 30
0.0
 11
196.0
 21
25.49999999999997
 31
0.0
  0
LINE
  5
8F
330
48
100
AcDbEntity
  8
1
  6
Continuous
 62
     7
100
AcDbLine
 10
196.0
 20
25.49999999999997
 30
0.0
 11
196.0
 21
21.49999999999997
 31
0.0
  0
LINE
  5
90
330
48
100
AcDbEntity
  8
1
  6
Continuous
 62
     7
100
AcDbLine
 10
196.0
 20
21.49999999999997
 30
0.0
 11
191.0
 21
22.29999999999998
 31
0.0
  0
LINE
  5
91
330
48
100
AcDbEntity
  8
1
  6
DOT_CENTER
 62
     2
100
AcDbLine
 10
184.0
 20
23.49999999999997
 30
0.0
 11
197.0
 21
23.49999999999997
 31
0.0
  0
LINE
  5
92
330
48
100
AcDbEntity
  8
1
  6
DOT_CENTER
 62
     2
100
AcDbLine
 10
187.0
 20
26.49999999999997
 30
0.0
 11
187.0
 21
20.49999999999997
 31
0.0
  0
LINE
  5
93
330
48
100
AcDbEntity
  8
1
  6
Continuous
 62
     2
100
AcDbLine
 10
81.0
 20
26.99999999999997
 30
0.0
 11
81.0
 21
9.99999999999997
 31
0.0
  0
CIRCLE
  5
94
330
48
100
AcDbEntity
  8
1
  6
Continuous
 62
     7
100
AcDbCircle
 10
103.5
 20
12.49999999999997
 30
0.0
 40
0.2999999999999972
  0
CIRCLE
  5
95
330
48
100
AcDbEntity
  8
1
  6
Continuous
 62
     7
100
AcDbCircle
 10
109.5
 20
12.49999999999997
 30
0.0
 40
0.2999999999999972
  0
CIRCLE
  5
96
330
48
100
AcDbEntity
  8
1
  6
Continuous
 62
     7
100
AcDbCircle
 10
120.5
 20
12.49999999999997
 30
0.0
 40
0.2999999999999972
  0
CIRCLE
  5
97
330
48
100
AcDbEntity
  8
1
  6
Continuous
 62
     7
100
AcDbCircle
 10
126.5
 20
12.49999999999997
 30
0.0
 40
0.2999999999999972
  0
CIRCLE
  5
98
330
48
100
AcDbEntity
  8
1
  6
Continuous
 62
     7
100
AcDbCircle
 10
137.5
 20
12.49999999999997
 30
0.0
 40
0.3000000000000114
  0
CIRCLE
  5
99
330
48
100
AcDbEntity
  8
1
  6
Continuous
 62
     7
100
AcDbCircle
 10
143.5
 20
12.49999999999997
 30
0.0
 40
0.3000000000000114
  0
CIRCLE
  5
9A
330
48
100
AcDbEntity
  8
1
  6
Continuous
 62
     7
100
AcDbCircle
 10
160.5
 20
12.49999999999997
 30
0.0
 40
0.3000000000000114
  0
CIRCLE
  5
9B
330
48
100
AcDbEntity
  8
1
  6
Continuous
 62
     7
100
AcDbCircle
 10
154.5
 20
12.49999999999997
 30
0.0
 40
0.3000000000000114
  0
CIRCLE
  5
9C
330
48
100
AcDbEntity
  8
1
  6
Continuous
 62
     7
100
AcDbCircle
 10
187.0
 20
23.49999999999997
 30
0.0
 40
1.200000000000102
  0
CIRCLE
  5
9D
330
48
100
AcDbEntity
  8
1
  6
Continuous
 62
     7
100
AcDbCircle
 10
187.0
 20
23.49999999999997
 30
0.0
 40
2.0
  0
CIRCLE
  5
9E
330
48
100
AcDbEntity
  8
1
  6
DOT_CENTER
 62
     7
100
AcDbCircle
 10
89.5
 20
15.99999999999997
 30
0.0
 40
0.1000000000000227
  0
CIRCLE
  5
9F
330
48
100
AcDbEntity
  8
1
  6
DOT_CENTER
 62
     7
100
AcDbCircle
 10
89.5
 20
17.99999999999997
 30
0.0
 40
0.1000000000000227
  0
SPLINE
  5
A0
102
{ACAD_REACTORS
330
BF
102
}
330
48
100
AcDbEntity
  8
_U_30EC_U_30A4_U_30E4_U_30FC_1
  6
Continuous
 62
     2
100
AcDbSpline
210
0.0
220
0.0
230
1.0
 70
     8
 71
     3
 72
    24
 73
    20
 74
    18
 42
0.000000001
 43
0.0000000001
 44
0.00000001
 40
0.0
 40
0.0
 40
0.0
 40
0.0
 40
0.221107500875397
 40
0.4273218586245274
 40
0.5080174679239156
 40
0.5914835907870021
 40
0.81432656901926
 40
1.054651302686574
 40
1.295452694023163
 40
1.518109231328814
 40
1.540864321905429
 40
1.59512646062269
 40
1.659890947896003
 40
1.714153085187361
 40
1.73690817496166
 40
1.76495110073535
 40
1.801562291220939
 40
1.953914424543622
 40
2.126104167379705
 40
2.126104167379705
 40
2.126104167379705
 40
2.126104167379705
 10
185.9375369556889
 20
15.58989295113014
 30
0.0
 10
185.9112579081811
 20
15.53097628234372
 30
0.0
 10
185.8604698894425
 20
15.41711139679254
 30
0.0
 10
185.8131784839111
 20
15.14441958233117
 30
0.0
 10
185.7043482802618
 20
15.2444548257545
 30
0.0
 10
185.5514800279637
 20
15.27118593367326
 30
0.0
 10
185.7686155181199
 20
15.48518135017629
 30
0.0
 10
185.7838483674381
 20
15.70332117782483
 30
0.0
 10
185.8906889492001
 20
15.88451579066423
 30
0.0
 10
185.8305380947076
 20
16.16913226311397
 30
0.0
 10
185.9334317395402
 20
16.14114089222448
 30
0.0
 10
185.9779933468149
 20
16.13243251602297
 30
0.0
 10
186.0380842395397
 20
16.12139654183352
 30
0.0
 10
186.0756619587438
 20
16.10767523055557
 30
0.0
 10
186.1252466928606
 20
16.10756076160221
 30
0.0
 10
186.0930158919325
 20
16.07306592398621
 30
0.0
 10
186.017180222188
 20
16.08404104537961
 30
0.0
 10
186.0429447159694
 20
15.89858969582447
 30
0.0
 10
186.005589676385
 20
15.80702313549586
 30
0.0
 10
185.9857704961609
 20
15.75844135397702
 30
0.0
 11
185.9375369556889
 21
15.58989295113014
 31
0.0
 11
185.8616471328552
 21
15.38221708318556
 31
0.0
 11
185.7717402238433
 21
15.19663392356191
 31
0.0
 11
185.701149392311
 21
15.23573272563547
 31
0.0
 11
185.6245525192651
 21
15.26889163187715
 31
0.0
 11
185.7214026947455
 21
15.46958801203535
 31
0.0
 11
185.7994641467471
 21
15.69688163177021
 31
0.0
 11
185.858971692972
 21
15.93021436608688
 31
0.0
 11
185.9001601511226
 21
16.14902808999051
 31
0.0
 11
185.9224183822214
 21
16.14429889221392
 31
0.0
 11
185.975495702534
 21
16.13302157443897
 31
0.0
 11
186.0388460525844
 21
16.11956154999789
 31
0.0
 11
186.091923372897
 21
16.10828423222294
 31
0.0
 11
186.1141816039958
 21
16.10355503444635
 31
0.0
 11
186.096409715746
 21
16.08186250841008
 31
0.0
 11
186.0606122998071
 21
16.07418628445365
 31
0.0
 11
186.028195330148
 21
15.92532288171311
 31
0.0
 11
185.9857704961609
 21
15.75844135397702
 31
0.0
  0
SPLINE
  5
A1
102
{ACAD_REACTORS
330
BF
102
}
330
48
100
AcDbEntity
  8
_U_30EC_U_30A4_U_30E4_U_30FC_1
  6
Continuous
 62
     2
100
AcDbSpline
210
0.0
220
0.0
230
1.0
 70
     8
 71
     3
 72
    70
 73
    66
 74
    64
 42
0.000000001
 43
0.0000000001
 44
0.00000001
 40
0.0
 40
0.0
 40
0.0
 40
0.0
 40
0.0241731073021472
 40
0.0846058988987013
 40
0.1631685280353284
 40
0.2417311571789756
 40
0.3021639488292751
 40
0.3263370654895541
 40
0.3533118254248881
 40
0.4228783438922094
 40
0.5179999095313402
 40
0.6216398239466084
 40
0.7167613891499688
 40
0.7863279069649846
 40
0.8133026791761818
 40
0.8372943998771656
 40
0.8945054261372849
 40
0.9627895541962619
 40
1.020000580349072
 40
1.04399230097517
 40
1.071934345522903
 40
1.113121768772912
 40
1.145225199332237
 40
1.225483775412775
 40
1.329819923771486
 40
1.434156071994377
 40
1.5144146477958
 40
1.546518078208408
 40
1.578974764260182
 40
1.662678849314177
 40
1.777131373668397
 40
1.901833377474788
 40
2.016285900500578
 40
2.099989982527945
 40
2.132446666570304
 40
2.158782354486028
 40
2.216720867907816
 40
2.274659381334238
 40
2.300995069256174
 40
2.333451754066146
 40
2.417155836543826
 40
2.531608358985266
 40
2.656310362283761
 40
2.770762886388893
 40
2.854466971340059
 40
2.886923657363865
 40
2.913597976833299
 40
2.982389642875101
 40
3.076451716946962
 40
3.178937260458578
 40
3.272999334739976
 40
3.341791001059199
 40
3.36846532066351
 40
3.396976080738731
 40
3.472140811845967
 40
3.578408190308656
 40
3.700226892456093
 40
3.82204559463431
 40
3.928312973256417
 40
4.003477705314814
 40
4.03198845686688
 40
4.058324144797678
 40
4.116262658236839
 40
4.174201171400639
 40
4.200536849608571
 40
4.200536849608571
 40
4.200536849608571
 40
4.200536849608571
 10
185.9857704961609
 20
15.75844135397702
 30
0.0
 10
185.9938259544679
 20
15.75844359811683
 30
0.0
 10
186.0220200663241
 20
15.75845146032794
 30
0.0
 10
186.0765534803672
 20
15.75830754828368
 30
0.0
 10
186.1482891808604
 20
15.75909120499895
 30
0.0
 10
186.2236240137062
 20
15.75627570463808
 30
0.0
 10
186.2713052366438
 20
15.76298403400954
 30
0.0
 10
186.3195071245616
 20
15.7519756369243
 30
0.0
 10
186.3062571799873
 20
15.8054640299703
 30
0.0
 10
186.3151093964538
 20
15.86049583543088
 30
0.0
 10
186.3108698036285
 20
15.95419908726106
 30
0.0
 10
186.313348348128
 20
16.04959482218529
 30
0.0
 10
186.309093870606
 20
16.14356821983384
 30
0.0
 10
186.3179818665846
 20
16.19795062438009
 30
0.0
 10
186.3046977409946
 20
16.25233997691457
 30
0.0
 10
186.3514119277108
 20
16.23842216335355
 30
0.0
 10
186.3943254545737
 20
16.24103877374041
 30
0.0
 10
186.4605443456685
 20
16.23648422450752
 30
0.0
 10
186.5013342271799
 20
16.22778162134159
 30
0.0
 10
186.5525145690819
 20
16.23531799890192
 30
0.0
 10
186.52537204872
 20
16.19349970223282
 30
0.0
 10
186.4803096055706
 20
16.20284992072594
 30
0.0
 10
186.4942065045051
 20
16.13841207371835
 30
0.0
 10
186.4858414431653
 20
16.07378219627396
 30
0.0
 10
186.4903632178399
 20
15.97529141193885
 30
0.0
 10
186.4854741311167
 20
15.87595932842567
 30
0.0
 10
186.4950258992081
 20
15.81293115552965
 30
0.0
 10
186.47997614552
 20
15.74964011499786
 30
0.0
 10
186.5449159457209
 20
15.76515072944266
 30
0.0
 10
186.6116246399496
 20
15.75499387697809
 30
0.0
 10
186.7241435470828
 20
15.75988800099364
 30
0.0
 10
186.8390235448954
 20
15.7569120473278
 30
0.0
 10
186.9519871999747
 20
15.76221664184988
 30
0.0
 10
187.0176267597678
 20
15.75107306472086
 30
0.0
 10
187.0816276691053
 20
15.76744532319854
 30
0.0
 10
187.0703142889189
 20
15.71761689905272
 30
0.0
 10
187.0775339871509
 20
15.67416715212119
 30
0.0
 10
187.0703142611269
 20
15.63071745587442
 30
0.0
 10
187.0816277175994
 20
15.58088895196873
 30
0.0
 10
187.0176263598972
 20
15.59726166091359
 30
0.0
 10
186.9519921240459
 20
15.58611271661585
 30
0.0
 10
186.838997431733
 20
15.59144857206851
 30
0.0
 10
186.7242456548644
 20
15.58834345663819
 30
0.0
 10
186.611318368686
 20
15.59364894682585
 30
0.0
 10
186.5455220903585
 20
15.58257300019591
 30
0.0
 10
186.4816097975358
 20
15.59887597847614
 30
0.0
 10
186.4936015165126
 20
15.54423524395739
 30
0.0
 10
186.4862104613006
 20
15.48854295047839
 30
0.0
 10
186.4892684841983
 20
15.39649689140567
 30
0.0
 10
186.4893422785683
 20
15.30179109873098
 30
0.0
 10
186.4860313578359
 20
15.20952782902263
 30
0.0
 10
186.4939505989904
 20
15.15435768736137
 30
0.0
 10
186.4815076611617
 20
15.10058169100134
 30
0.0
 10
186.5389116551632
 20
15.11453768862778
 30
0.0
 10
186.5994708140383
 20
15.10511457884224
 30
0.0
 10
186.7048680855081
 20
15.10942885928702
 30
0.0
 10
186.8204294070622
 20
15.10835504612029
 30
0.0
 10
186.9359688877797
 20
15.10725965900993
 30
0.0
 10
187.0414181130841
 20
15.1116252577063
 30
0.0
 10
187.1018680471804
 20
15.10209426030669
 30
0.0
 10
187.159283773911
 20
15.11617289606377
 30
0.0
 10
187.1477773876709
 20
15.06707153265681
 30
0.0
 10
187.153756678175
 20
15.02564658018647
 30
0.0
 10
187.1520311050801
 20
14.97651677966694
 30
0.0
 10
187.1521500122971
 20
14.94854428447606
 30
0.0
 10
187.1521871691833
 20
14.93980288195948
 30
0.0
 11
185.9857704961609
 21
15.75844135397702
 31
0.0
 11
186.0099436128282
 21
15.75844135397702
 31
0.0
 11
186.0703764044962
 21
15.75844135397702
 31
0.0
 11
186.1489390336648
 21
15.75844135397702
 31
0.0
 11
186.2275016628334
 21
15.75844135397702
 31
0.0
 11
186.2879344545015
 21
15.75844135397702
 31
0.0
 11
186.3121075711687
 21
15.75844135397702
 31
0.0
 11
186.3121075711687
 21
15.7854161262006
 31
0.0
 11
186.3121075711687
 21
15.85498264404035
 31
0.0
 11
186.3121075711687
 21
15.95010420924982
 31
0.0
 11
186.3121075711687
 21
16.05374412358253
 31
0.0
 11
186.3121075711687
 21
16.14886568879199
 31
0.0
 11
186.3121075711687
 21
16.21843220663175
 31
0.0
 11
186.3121075711687
 21
16.24540697885533
 31
0.0
 11
186.3360407604892
 21
16.24373213107797
 31
0.0
 11
186.3931122119458
 21
16.23973826330118
 31
0.0
 11
186.461229750781
 21
16.23497138885793
 31
0.0
 11
186.5183012022376
 21
16.23097752108114
 31
0.0
 11
186.5422343915581
 21
16.22930267330378
 31
0.0
 11
186.5274972731229
 21
16.20556293372637
 31
0.0
 11
186.4886640249976
 21
16.1918376733131
 31
0.0
 11
186.4886640249976
 21
16.15973424225117
 31
0.0
 11
186.4886640249976
 21
16.07947566459634
 31
0.0
 11
186.4886640249976
 21
15.97513951364506
 31
0.0
 11
186.4886640249976
 21
15.87080336269378
 31
0.0
 11
186.4886640249976
 21
15.79054478503895
 31
0.0
 11
186.4886640249976
 21
15.75844135397702
 31
0.0
 11
186.5211207110824
 21
15.75844135397702
 31
0.0
 11
186.6048247962486
 21
15.75844135397702
 31
0.0
 11
186.7192773208634
 21
15.75844135397702
 31
0.0
 11
186.8439793252946
 21
15.75844135397702
 31
0.0
 11
186.9584318499095
 21
15.75844135397702
 31
0.0
 11
187.0421359350756
 21
15.75844135397702
 31
0.0
 11
187.0745926211604
 21
15.75844135397702
 31
0.0
 11
187.0745926211604
 21
15.73210566604958
 31
0.0
 11
187.0745926211604
 21
15.67416715260921
 31
0.0
 11
187.0745926211604
 21
15.61622863916885
 31
0.0
 11
187.0745926211604
 21
15.58989295124141
 31
0.0
 11
187.0421359350756
 21
15.58989295124141
 31
0.0
 11
186.9584318499095
 21
15.58989295124141
 31
0.0
 11
186.8439793252946
 21
15.58989295124141
 31
0.0
 11
186.7192773208634
 21
15.58989295124141
 31
0.0
 11
186.6048247962485
 21
15.58989295124141
 31
0.0
 11
186.5211207110824
 21
15.58989295124141
 31
0.0
 11
186.4886640249976
 21
15.58989295124141
 31
0.0
 11
186.4886640249976
 21
15.56321863152019
 31
0.0
 11
186.4886640249976
 21
15.49442696487072
 31
0.0
 11
186.4886640249976
 21
15.40036489006431
 31
0.0
 11
186.4886640249976
 21
15.29787934587225
 31
0.0
 11
186.4886640249976
 21
15.20381727106584
 31
0.0
 11
186.4886640249976
 21
15.13502560441637
 31
0.0
 11
186.4886640249976
 21
15.10835128469515
 31
0.0
 11
186.5171747850993
 21
15.10835128469515
 31
0.0
 11
186.5923395162766
 21
15.10835128469515
 31
0.0
 11
186.6986068948376
 21
15.10835128469515
 31
0.0
 11
186.8204255970904
 21
15.10835128469515
 31
0.0
 11
186.9422442993433
 21
15.10835128469515
 31
0.0
 11
187.0485116779043
 21
15.10835128469515
 31
0.0
 11
187.1236764090816
 21
15.10835128469515
 31
0.0
 11
187.1521871691833
 21
15.10835128469515
 31
0.0
 11
187.1521871691833
 21
15.0820155967677
 31
0.0
 11
187.1521871691833
 21
15.02407708332731
 31
0.0
 11
187.1521871691833
 21
14.96613856988693
 31
0.0
 11
187.1521871691833
 21
14.93980288195948
 31
0.0
  0
SPLINE
  5
A2
102
{ACAD_REACTORS
330
BF
102
}
330
48
100
AcDbEntity
  8
_U_30EC_U_30A4_U_30E4_U_30FC_1
  6
Continuous
 62
     2
100
AcDbSpline
210
0.0
220
0.0
230
1.0
 70
     8
 71
     3
 72
    62
 73
    58
 74
    56
 42
0.000000001
 43
0.0000000001
 44
0.00000001
 40
0.0
 40
0.0
 40
0.0
 40
0.0
 40
0.0598250028308485
 40
0.2024846486897331
 40
0.3727558389221031
 40
0.515415484793607
 40
0.5752404975785339
 40
0.9332326775487276
 40
1.290451762839482
 40
1.602077253145884
 40
1.699931634112136
 40
1.799359756425049
 40
2.270120149657083
 40
2.804661928461534
 40
2.882342287383245
 40
3.076543185719095
 40
3.329004354835553
 40
3.581465524568379
 40
3.775666424543659
 40
3.853346784558279
 40
3.899120679595025
 40
3.984129341792022
 40
4.029903236817371
 40
4.105797496059526
 40
4.295533144152487
 40
4.542189486611734
 40
4.788845828875686
 40
4.97858147641007
 40
5.054475735244314
 40
5.621734664339338
 40
6.130867242037344
 40
6.225249780948585
 40
6.31891303972728
 40
6.663579954558899
 40
7.047498900224747
 40
7.435230791575687
 40
7.498943906668099
 40
7.650875181210092
 40
7.832212509001603
 40
7.984143783696989
 40
8.047856898903117
 40
8.091554632732622
 40
8.17270756696428
 40
8.216405300768002
 40
8.289021782160887
 40
8.46218416075726
 40
8.668861838005341
 40
8.842024215263933
 40
8.914640695475128
 40
8.989881580861331
 40
9.155411528827237
 40
9.320941477744018
 40
9.396182352487267
 40
9.454709011143814
 40
9.583467660170749
 40
9.712226309013028
 40
9.770752957989481
 40
9.770752957989481
 40
9.770752957989481
 40
9.770752957989481
 10
187.1521871691833
 20
14.93980288195948
 30
0.0
 10
187.1322348171623
 20
14.93980875568669
 30
0.0
 10
187.0647037716466
 20
14.93982863806155
 30
0.0
 10
186.9410612161788
 20
14.93949362520324
 30
0.0
 10
186.7863180150056
 20
14.9410767375051
 30
0.0
 10
186.669734948248
 20
14.93686078860493
 30
0.0
 10
186.455094263424
 20
14.95215205331624
 30
0.0
 10
186.8518948407229
 20
14.5919872128619
 30
0.0
 10
186.8945656069266
 20
14.37510503397163
 30
0.0
 10
187.3189162146611
 20
14.19325062511443
 30
0.0
 10
187.1439821496074
 20
14.0898519656807
 30
0.0
 10
187.0194523925083
 20
13.87831523212722
 30
0.0
 10
186.7666277235943
 20
14.34806081001559
 30
0.0
 10
186.4797602893627
 20
14.99511516984517
 30
0.0
 10
186.490633592666
 20
14.6878267215469
 30
0.0
 10
186.488289277796
 20
14.52288616971775
 30
0.0
 10
186.4861096126411
 20
14.2887967071169
 30
0.0
 10
186.4980774396346
 20
14.0449807242178
 30
0.0
 10
186.468798474063
 20
13.89855796860981
 30
0.0
 10
186.511452262547
 20
13.75113490174535
 30
0.0
 10
186.4239814005639
 20
13.76685797306217
 30
0.0
 10
186.3768527606744
 20
13.76694303543452
 30
0.0
 10
186.2898973207713
 20
13.75109425482906
 30
0.0
 10
186.3313474021722
 20
13.89527771422759
 30
0.0
 10
186.3029875004286
 20
14.03855052698452
 30
0.0
 10
186.3145973775299
 20
14.27674947365262
 30
0.0
 10
186.3124175648272
 20
14.50517235240344
 30
0.0
 10
186.3103111127993
 20
14.66705729375993
 30
0.0
 10
186.3208035438323
 20
14.98153709333749
 30
0.0
 10
186.0128963252893
 20
14.29229470872432
 30
0.0
 10
185.7055258267455
 20
13.81476750243052
 30
0.0
 10
185.5851367066275
 20
14.03741112637424
 30
0.0
 10
185.4074607910721
 20
14.15011034955565
 30
0.0
 10
185.8853326362894
 20
14.32548143465458
 30
0.0
 10
185.9353959057208
 20
14.56091929252028
 30
0.0
 10
186.3583799621717
 20
14.95322989344605
 30
0.0
 10
186.127675427354
 20
14.93655307029064
 30
0.0
 10
186.004968585934
 20
14.94269518948768
 30
0.0
 10
185.8325483095661
 20
14.93312822699571
 30
0.0
 10
185.7213224694449
 20
14.95448818489664
 30
0.0
 10
185.6025779627448
 20
14.92136265357418
 30
0.0
 10
185.6183169706686
 20
15.00203900606882
 30
0.0
 10
185.6178550933762
 20
15.04645414290852
 30
0.0
 10
185.6027881889931
 20
15.12967081778531
 30
0.0
 10
185.7372380935443
 20
15.0906265198388
 30
0.0
 10
185.8619755545747
 20
15.1173972932842
 30
0.0
 10
186.062875523728
 20
15.10063949044051
 30
0.0
 10
186.1921540949353
 20
15.12204225913002
 30
0.0
 10
186.3328419928295
 20
15.08868778853419
 30
0.0
 10
186.2980927452614
 20
15.22651875785065
 30
0.0
 10
186.3222185666713
 20
15.34963257349478
 30
0.0
 10
186.2967086182392
 20
15.47024055670333
 30
0.0
 10
186.3333251146685
 20
15.60539865141491
 30
0.0
 10
186.2211417027769
 20
15.58094545781887
 30
0.0
 10
186.1280356457136
 20
15.59307749842019
 30
0.0
 10
186.0191547579819
 20
15.58957630069991
 30
0.0
 10
185.9569697640964
 20
15.589817559516
 30
0.0
 10
185.9375369557246
 20
15.58989295124141
 30
0.0
 11
187.1521871691833
 21
14.93980288195948
 31
0.0
 11
187.0923621563982
 21
14.93980288195948
 31
0.0
 11
186.949702510526
 21
14.93980288195948
 31
0.0
 11
186.7794313202913
 21
14.93980288195948
 31
0.0
 11
186.6367716744191
 21
14.93980288195948
 31
0.0
 11
186.576946661634
 21
14.93980288195948
 31
0.0
 11
186.7679960754842
 21
14.63705127966888
 31
0.0
 11
186.994127278563
 21
14.36051890576682
 31
0.0
 11
187.2244526173371
 21
14.15061253493454
 31
0.0
 11
187.1521596330704
 21
14.08466403668714
 31
0.0
 11
187.0879364402643
 21
14.00876059052558
 31
0.0
 11
186.7732818215558
 21
14.3589145834936
 31
0.0
 11
186.4886640249976
 21
14.81138295143597
 31
0.0
 11
186.4886640249976
 21
14.73370259137309
 31
0.0
 11
186.4886640249976
 21
14.53950169121589
 31
0.0
 11
186.4886640249976
 21
14.28704052101153
 31
0.0
 11
186.4886640249976
 21
14.03457935080717
 31
0.0
 11
186.4886640249976
 21
13.84037845064997
 31
0.0
 11
186.4886640249976
 21
13.76269809058709
 31
0.0
 11
186.4428901295605
 21
13.76269809058709
 31
0.0
 11
186.3578814666058
 21
13.76269809058709
 31
0.0
 11
186.3121075711687
 21
13.76269809058709
 31
0.0
 11
186.3121075711687
 21
13.83859234982737
 31
0.0
 11
186.3121075711687
 21
14.02832799792808
 31
0.0
 11
186.3121075711687
 21
14.27498434045901
 31
0.0
 11
186.3121075711687
 21
14.52164068298994
 31
0.0
 11
186.3121075711687
 21
14.71137633109064
 31
0.0
 11
186.3121075711687
 21
14.78727059033093
 31
0.0
 11
185.9987626399266
 21
14.3144094619769
 31
0.0
 11
185.6352328662148
 21
13.9579517710938
 31
0.0
 11
185.5773927461627
 21
14.0325345054502
 31
0.0
 11
185.5094852305341
 21
14.0970432293924
 31
0.0
 11
185.7750721898319
 21
14.31672219795887
 31
0.0
 11
186.0233764972061
 21
14.60953395971694
 31
0.0
 11
186.226498280526
 21
14.93980288195948
 31
0.0
 11
186.1627851652721
 21
14.93980288195948
 31
0.0
 11
186.0108538904359
 21
14.93980288195948
 31
0.0
 11
185.8295165624055
 21
14.93980288195948
 31
0.0
 11
185.6775852875693
 21
14.93980288195948
 31
0.0
 11
185.6138721723154
 21
14.93980288195948
 31
0.0
 11
185.6138721723154
 21
14.98350061600206
 31
0.0
 11
185.6138721723154
 21
15.06465355065257
 31
0.0
 11
185.6138721723154
 21
15.10835128469515
 31
0.0
 11
185.6864886537961
 21
15.10835128469515
 31
0.0
 11
185.8596510327118
 21
15.10835128469515
 31
0.0
 11
186.0663287107723
 21
15.10835128469515
 31
0.0
 11
186.239491089688
 21
15.10835128469515
 31
0.0
 11
186.3121075711687
 21
15.10835128469515
 31
0.0
 11
186.3121075711687
 21
15.183592170093
 31
0.0
 11
186.3121075711687
 21
15.34912211796828
 31
0.0
 11
186.3121075711687
 21
15.51465206584356
 31
0.0
 11
186.3121075711687
 21
15.58989295124141
 31
0.0
 11
186.2535809125055
 21
15.58989295124141
 31
0.0
 11
186.1248222634467
 21
15.58989295124141
 31
0.0
 11
185.9960636143877
 21
15.58989295124141
 31
0.0
 11
185.9375369557246
 21
15.58989295124141
 31
0.0
  0
SPLINE
  5
A3
102
{ACAD_REACTORS
330
C0
102
}
330
48
100
AcDbEntity
  8
_U_30EC_U_30A4_U_30E4_U_30FC_1
  6
Continuous
 62
     2
100
AcDbSpline
210
0.0
220
0.0
230
1.0
 70
    11
 71
     3
 72
   124
 73
   120
 74
   118
 42
0.000000001
 43
0.0000000001
 44
0.00000001
 40
0.0
 40
0.0
 40
0.0
 40
0.0
 40
0.027818722962451
 40
0.1011590162384269
 40
0.2048470170590239
 40
0.3237088716559245
 40
0.4425707262522
 40
0.5462587270699547
 40
0.6195990203311798
 40
0.647417752257866
 40
0.6750060736115207
 40
0.7357003855242759
 40
0.7963946998054474
 40
0.8239830245571766
 40
0.854093381110286
 40
0.937339662940954
 40
1.063094687343235
 40
1.220731268638073
 40
1.399622220914748
 40
1.589140358637732
 40
1.778658496423898
 40
1.957549448940509
 40
2.115186030873159
 40
2.240941056914463
 40
2.324187341760532
 40
2.354297700109382
 40
2.381886024671888
 40
2.442580338710475
 40
2.503274652750499
 40
2.530862977314606
 40
2.560983949278559
 40
2.640393784452905
 40
2.752662861759128
 40
2.881361560118145
 40
3.010060258455192
 40
3.122329335705339
 40
3.201739170817953
 40
3.231860142753313
 40
3.264298024030368
 40
3.352343701778241
 40
3.482095226868766
 40
3.639650650173031
 40
3.811108022565487
 40
3.982565394927996
 40
4.140120818152581
 40
4.269872343141293
 40
4.357918020802356
 40
4.390355902043985
 40
4.423256253992554
 40
4.508104530073076
 40
4.624121560636843
 40
4.7505281760316
 40
4.866545206602047
 40
4.951393482692004
 40
4.984293834645405
 40
5.011450833242319
 40
5.071196230152096
 40
5.130941627057166
 40
5.158098625648829
 40
5.190998977601519
 40
5.275847253689345
 40
5.391864284256779
 40
5.518270899648324
 40
5.634287930209363
 40
5.719136206288037
 40
5.752036558235925
 40
5.78213094628295
 40
5.862783906229127
 40
5.979550131774995
 40
6.117984316640405
 40
6.263641154587954
 40
6.402075339414163
 40
6.51884156490796
 40
6.599494524815545
 40
6.629588912848782
 40
6.654403028226359
 40
6.713575149488126
 40
6.784199939329445
 40
6.843372060493548
 40
6.868186175802793
 40
6.896246243201865
 40
6.939586233758261
 40
6.967846564564892
 40
7.043584251089831
 40
7.153234334451689
 40
7.28323185573444
 40
7.420011856035476
 40
7.55000937657983
 40
7.659659458835231
 40
7.735397144417226
 40
7.763657474851398
 40
7.796409728011055
 40
7.880876065096329
 40
7.996370852465715
 40
8.12220844641861
 40
8.237703224799203
 40
8.322169562010897
 40
8.35492181520591
 40
8.38207881330769
 40
8.441824209206988
 40
8.501569605240132
 40
8.528726603485707
 40
8.561478856695755
 40
8.645945193877806
 40
8.761439980865317
 40
8.88727758076446
 40
9.00277236200098
 40
9.0872386966612
 40
9.119990949235655
 40
9.152428830613355
 40
9.240474508638572
 40
9.370226034149525
 40
9.52778145798441
 40
9.699238830981402
 40
9.870696203978595
 40
10.02825162781402
 40
10.15800315332564
 40
10.24604883135119
 40
10.27848670378521
 40
10.27848670378521
 40
10.27848670378521
 40
10.27848670378521
 10
195.3821827564383
 20
14.01410517385753
 30
0.0
 10
195.3914554737523
 20
14.0141049851127
 30
0.0
 10
195.4251744536861
 20
14.0141043087671
 30
0.0
 10
195.4934706812465
 20
14.01411807243301
 30
0.0
 10
195.592014171158
 20
14.0140322421954
 30
0.0
 10
195.7062066464812
 20
14.01441755612247
 30
0.0
 10
195.818589441707
 20
14.01300835897541
 30
0.0
 10
195.9214376600118
 20
14.01719117422239
 30
0.0
 10
195.9806839874849
 20
14.00823089251979
 30
0.0
 10
196.0371265937032
 20
14.02164434526057
 30
0.0
 10
196.0246255586956
 20
13.97087198613357
 30
0.0
 10
196.0329549635703
 20
13.92589320939063
 30
0.0
 10
196.024817084112
 20
13.88056752990484
 30
0.0
 10
196.0370529214457
 20
13.82931932408462
 30
0.0
 10
195.9747773490333
 20
13.84447955365272
 30
0.0
 10
195.9060513026868
 20
13.83359750710738
 30
0.0
 10
195.7782756749592
 20
13.83911304747969
 30
0.0
 10
195.6262984511643
 20
13.83700851253694
 30
0.0
 10
195.4502695972523
 20
13.8377100258847
 30
0.0
 10
195.2644431934287
 20
13.83745237531287
 30
0.0
 10
195.0786167437175
 20
13.83771005144599
 30
0.0
 10
194.9025880142168
 20
13.83700841847727
 30
0.0
 10
194.7506104154195
 20
13.83911332229985
 30
0.0
 10
194.6228357664554
 20
13.83359680767636
 30
0.0
 10
194.554107783658
 20
13.84448077125938
 30
0.0
 10
194.4918349042883
 20
13.82931786684205
 30
0.0
 10
194.5040616290017
 20
13.88057510805167
 30
0.0
 10
194.4960004462597
 20
13.92582473272421
 30
0.0
 10
194.5040675809892
 20
13.97106357955319
 30
0.0
 10
194.4918238487084
 20
14.02234176909954
 30
0.0
 10
194.5525017120697
 20
14.00749577363131
 30
0.0
 10
194.6162810745736
 20
14.01756448170731
 30
0.0
 10
194.7277314353502
 20
14.01294644211995
 30
0.0
 10
194.8497533443824
 20
14.01413328905465
 30
0.0
 10
194.9719538137823
 20
14.01515863900631
 30
0.0
 10
195.0829794287392
 20
14.01092475623397
 30
0.0
 10
195.1476517413959
 20
14.02018584521735
 30
0.0
 10
195.2091162810501
 20
14.00604423049678
 30
0.0
 10
195.1930065601337
 20
14.07235527884513
 30
0.0
 10
195.2042980327358
 20
14.14447790121972
 30
0.0
 10
195.1987400822561
 20
14.27513760888282
 30
0.0
 10
195.200803506169
 20
14.42607323708238
 30
0.0
 10
195.2000167127295
 20
14.59335873107883
 30
0.0
 10
195.2007845215627
 20
14.76061110332299
 30
0.0
 10
195.1988038785628
 20
14.91163289269912
 30
0.0
 10
195.2041306156621
 20
15.04206069552992
 30
0.0
 10
195.1933101388424
 20
15.11465442605897
 30
0.0
 10
195.2090326429876
 20
15.18150469436796
 30
0.0
 10
195.143270813249
 20
15.16580512490822
 30
0.0
 10
195.0756367830764
 20
15.17609243083993
 30
0.0
 10
194.9615885293809
 20
15.1711378684712
 30
0.0
 10
194.8451242674902
 20
15.17414128030472
 30
0.0
 10
194.7306554121477
 20
15.16880303143387
 30
0.0
 10
194.6640324657812
 20
15.18001268074822
 30
0.0
 10
194.5990769715185
 20
15.16349132665009
 30
0.0
 10
194.6107989758707
 20
15.21473720477056
 30
0.0
 10
194.6032830189121
 20
15.25950333784088
 30
0.0
 10
194.6107989878835
 20
15.30426944897957
 30
0.0
 10
194.5990769505347
 20
15.35551536129737
 30
0.0
 10
194.66403263392
 20
15.3389938176681
 30
0.0
 10
194.7306533339822
 20
15.3502057137394
 30
0.0
 10
194.8451352858063
 20
15.3448543671066
 30
0.0
 10
194.9615454436962
 20
15.34791188771113
 30
0.0
 10
195.0757660174641
 20
15.34278499010704
 30
0.0
 10
195.1430150439227
 20
15.35345733355594
 30
0.0
 10
195.2083325941438
 20
15.33742082669073
 30
0.0
 10
195.1941391448553
 20
15.3994968575005
 30
0.0
 10
195.2036059462994
 20
15.46586761628759
 30
0.0
 10
195.1990269004085
 20
15.58239972741963
 30
0.0
 10
195.2007696555948
 20
15.71426685022372
 30
0.0
 10
195.1997551495392
 20
15.8561596015027
 30
0.0
 10
195.2017191344373
 20
15.98769050702577
 30
0.0
 10
195.196466855385
 20
16.10524577282999
 30
0.0
 10
195.2073408763474
 20
16.16947789001582
 30
0.0
 10
195.1919536641853
 20
16.23108802545045
 30
0.0
 10
195.24075915378
 20
16.21702407382108
 30
0.0
 10
195.2853995564725
 20
16.21954742075311
 30
0.0
 10
195.3538643946742
 20
16.21512797401707
 30
0.0
 10
195.3959106169102
 20
16.20613025544031
 30
0.0
 10
195.4487544758775
 20
16.21411714866506
 30
0.0
 10
195.4207035002013
 20
16.17113917611671
 30
0.0
 10
195.3749142248594
 20
16.18259552043834
 30
0.0
 10
195.3869539073265
 20
16.12173520005134
 30
0.0
 10
195.379608607064
 20
16.0576929946877
 30
0.0
 10
195.3831195826162
 20
15.94909368863908
 30
0.0
 10
195.3819806760173
 20
15.82494319144749
 30
0.0
 10
195.3819174780263
 20
15.69189719829875
 30
0.0
 10
195.3832872966868
 20
15.56797381249552
 30
0.0
 10
195.3791638801313
 20
15.45868337849334
 30
0.0
 10
195.3877763103564
 20
15.39608580094166
 30
0.0
 10
195.3746757454402
 20
15.33740133296361
 30
0.0
 10
195.4393884328198
 20
15.35362113810898
 30
0.0
 10
195.5060405953156
 20
15.34270260383308
 30
0.0
 10
195.6198779541102
 20
15.34793740173751
 30
0.0
 10
195.7357259122097
 20
15.3448554751691
 30
0.0
 10
195.8496924263279
 20
15.35018259812507
 30
0.0
 10
195.91603410181
 20
15.33904208166539
 30
0.0
 10
195.9807188525479
 20
15.35546979593174
 30
0.0
 10
195.9689820772722
 20
15.30425925210047
 30
0.0
 10
195.9765168063041
 20
15.25950334120998
 30
0.0
 10
195.9689820992258
 20
15.21474739010024
 30
0.0
 10
195.9807188140736
 20
15.16353690871038
 30
0.0
 10
195.9160344075252
 20
15.17996427794218
 30
0.0
 10
195.8496886430824
 20
15.16882784447266
 30
0.0
 10
195.7357459487012
 20
15.17413115893118
 30
0.0
 10
195.6197995623054
 20
15.17114764593542
 30
0.0
 10
195.5062756882122
 20
15.17606892268391
 30
0.0
 10
195.4389231318804
 20
15.16585087513517
 30
0.0
 10
195.3734285122495
 20
15.18145996138813
 30
0.0
 10
195.3891713619218
 20
15.11463851827409
 30
0.0
 10
195.3783275998213
 20
15.04207057815876
 30
0.0
 10
195.3836581629792
 20
14.91162247614414
 30
0.0
 10
195.3817136151855
 20
14.76064558185223
 30
0.0
 10
195.3823133683214
 20
14.59322243934155
 30
0.0
 10
195.3821506559604
 20
14.42656176118368
 30
0.0
 10
195.3821895488136
 20
14.27360142921632
 30
0.0
 10
195.3821816413099
 20
14.14849178985701
 30
0.0
 10
195.3821828382745
 20
14.06507890991416
 30
0.0
 10
195.3821827716208
 20
14.02491778281972
 30
0.0
 10
195.3821827564383
 20
14.01410517385753
 30
0.0
 11
195.3821827564383
 21
14.01410517385753
 31
0.0
 11
195.4100014883675
 21
14.01410517385753
 31
0.0
 11
195.4833417816353
 21
14.01410517385753
 31
0.0
 11
195.5870297824622
 21
14.01410517385753
 31
0.0
 11
195.7058916370687
 21
14.01410517385753
 31
0.0
 11
195.8247534916751
 21
14.01410517385753
 31
0.0
 11
195.928441492502
 21
14.01410517385753
 31
0.0
 11
196.0017817857698
 21
14.01410517385753
 31
0.0
 11
196.029600517699
 21
14.01410517385753
 31
0.0
 11
196.029600517699
 21
13.98651684921166
 31
0.0
 11
196.029600517699
 21
13.92582253499073
 31
0.0
 11
196.029600517699
 21
13.8651282207698
 31
0.0
 11
196.029600517699
 21
13.83753989612393
 31
0.0
 11
195.9994901593494
 21
13.83753989612393
 31
0.0
 11
195.9162438745004
 21
13.83753989612393
 31
0.0
 11
195.7904888484521
 21
13.83753989612393
 31
0.0
 11
195.6328522665041
 21
13.83753989612393
 31
0.0
 11
195.4539613139564
 21
13.83753989612393
 31
0.0
 11
195.2644431761089
 21
13.83753989612393
 31
0.0
 11
195.0749250382613
 21
13.83753989612393
 31
0.0
 11
194.8960340857136
 21
13.83753989612393
 31
0.0
 11
194.7383975037656
 21
13.83753989612393
 31
0.0
 11
194.6126424777172
 21
13.83753989612393
 31
0.0
 11
194.5293961928683
 21
13.83753989612393
 31
0.0
 11
194.4992858345187
 21
13.83753989612393
 31
0.0
 11
194.4992858345187
 21
13.8651282207698
 31
0.0
 11
194.4992858345187
 21
13.92582253499073
 31
0.0
 11
194.4992858345187
 21
13.98651684921166
 31
0.0
 11
194.4992858345187
 21
14.01410517385753
 31
0.0
 11
194.5294068064947
 21
14.01410517385753
 31
0.0
 11
194.608816641704
 21
14.01410517385753
 31
0.0
 11
194.721085719069
 21
14.01410517385753
 31
0.0
 11
194.8497844175118
 21
14.01410517385753
 31
0.0
 11
194.9784831159545
 21
14.01410517385753
 31
0.0
 11
195.0907521933195
 21
14.01410517385753
 31
0.0
 11
195.1701620285289
 21
14.01410517385753
 31
0.0
 11
195.2002830005048
 21
14.01410517385753
 31
0.0
 11
195.2002830005048
 21
14.04654305523831
 31
0.0
 11
195.2002830005048
 21
14.13458873327186
 31
0.0
 11
195.2002830005048
 21
14.26434025879499
 31
0.0
 11
195.2002830005048
 21
14.4218956826445
 31
0.0
 11
195.2002830005048
 21
14.5933530556572
 31
0.0
 11
195.2002830005048
 21
14.76481042866991
 31
0.0
 11
195.2002830005048
 21
14.92236585251942
 31
0.0
 11
195.2002830005048
 21
15.05211737804255
 31
0.0
 11
195.2002830005048
 21
15.1401630560761
 31
0.0
 11
195.2002830005048
 21
15.17260093745688
 31
0.0
 11
195.1673826485529
 21
15.17260093745688
 31
0.0
 11
195.0825343724662
 21
15.17260093745688
 31
0.0
 11
194.9665173418988
 21
15.17260093745688
 31
0.0
 11
194.8401107265044
 21
15.17260093745688
 31
0.0
 11
194.724093695937
 21
15.17260093745688
 31
0.0
 11
194.6392454198503
 21
15.17260093745688
 31
0.0
 11
194.6063450678984
 21
15.17260093745688
 31
0.0
 11
194.6063450678984
 21
15.199757936148
 31
0.0
 11
194.6063450678984
 21
15.25950333326847
 31
0.0
 11
194.6063450678984
 21
15.31924873038894
 31
0.0
 11
194.6063450678984
 21
15.34640572908006
 31
0.0
 11
194.6392454198504
 21
15.34640572908006
 31
0.0
 11
194.724093695937
 21
15.34640572908006
 31
0.0
 11
194.8401107265044
 21
15.34640572908006
 31
0.0
 11
194.9665173418988
 21
15.34640572908006
 31
0.0
 11
195.0825343724662
 21
15.34640572908006
 31
0.0
 11
195.1673826485529
 21
15.34640572908006
 31
0.0
 11
195.2002830005048
 21
15.34640572908006
 31
0.0
 11
195.2002830005048
 21
15.37650011731366
 31
0.0
 11
195.2002830005048
 21
15.4571530777797
 31
0.0
 11
195.2002830005048
 21
15.57391930412605
 31
0.0
 11
195.2002830005048
 21
15.7123534900006
 31
0.0
 11
195.2002830005048
 21
15.85801032905121
 31
0.0
 11
195.2002830005048
 21
15.99644451492576
 31
0.0
 11
195.2002830005048
 21
16.11321074127211
 31
0.0
 11
195.2002830005048
 21
16.19386370173815
 31
0.0
 11
195.2002830005048
 21
16.22395808997175
 31
0.0
 11
195.2250405288618
 21
16.22228324219439
 31
0.0
 11
195.2840777118669
 21
16.21828937441762
 31
0.0
 11
195.3545414464214
 21
16.21352249997438
 31
0.0
 11
195.4135786294265
 21
16.20952863219761
 31
0.0
 11
195.4383361577835
 21
16.20785378442025
 31
0.0
 11
195.423306722403
 21
16.18415814206507
 31
0.0
 11
195.3821827564383
 21
16.17047697887401
 31
0.0
 11
195.3821827564383
 21
16.14221664794829
 31
0.0
 11
195.3821827564383
 21
16.06647896106736
 31
0.0
 11
195.3821827564383
 21
15.95682887707558
 31
0.0
 11
195.3821827564383
 21
15.82683135481727
 31
0.0
 11
195.3821827564383
 21
15.69005135313679
 31
0.0
 11
195.3821827564383
 21
15.56005383087849
 31
0.0
 11
195.3821827564383
 21
15.4504037468867
 31
0.0
 11
195.3821827564383
 21
15.37466606000578
 31
0.0
 11
195.3821827564383
 21
15.34640572908006
 31
0.0
 11
195.4149350096115
 21
15.34640572908006
 31
0.0
 11
195.4994013467422
 21
15.34640572908006
 31
0.0
 11
195.6148961342476
 21
15.34640572908006
 31
0.0
 11
195.7407337385445
 21
15.34640572908006
 31
0.0
 11
195.8562285260498
 21
15.34640572908006
 31
0.0
 11
195.9406948631806
 21
15.34640572908006
 31
0.0
 11
195.9734471163538
 21
15.34640572908006
 31
0.0
 11
195.9734471163538
 21
15.31924873038894
 31
0.0
 11
195.9734471163538
 21
15.25950333326847
 31
0.0
 11
195.9734471163538
 21
15.199757936148
 31
0.0
 11
195.9734471163538
 21
15.17260093745688
 31
0.0
 11
195.9406948631806
 21
15.17260093745688
 31
0.0
 11
195.8562285260498
 21
15.17260093745688
 31
0.0
 11
195.7407337385445
 21
15.17260093745688
 31
0.0
 11
195.6148961342476
 21
15.17260093745688
 31
0.0
 11
195.4994013467422
 21
15.17260093745688
 31
0.0
 11
195.4149350096114
 21
15.17260093745688
 31
0.0
 11
195.3821827564383
 21
15.17260093745688
 31
0.0
 11
195.3821827564383
 21
15.1401630560761
 31
0.0
 11
195.3821827564383
 21
15.05211737804255
 31
0.0
 11
195.3821827564383
 21
14.92236585251942
 31
0.0
 11
195.3821827564383
 21
14.76481042866991
 31
0.0
 11
195.3821827564383
 21
14.5933530556572
 31
0.0
 11
195.3821827564383
 21
14.4218956826445
 31
0.0
 11
195.3821827564383
 21
14.26434025879499
 31
0.0
 11
195.3821827564383
 21
14.13458873327186
 31
0.0
 11
195.3821827564383
 21
14.04654305523831
 31
0.0
 11
195.3821827564383
 21
14.01410517385753
 31
0.0
  0
SPLINE
  5
A4
102
{ACAD_REACTORS
330
C1
102
}
330
48
100
AcDbEntity
  8
_U_30EC_U_30A4_U_30E4_U_30FC_1
  6
Continuous
 62
     2
100
AcDbSpline
210
0.0
220
0.0
230
1.0
 70
    11
 71
     3
 72
   131
 73
   127
 74
   125
 42
0.000000001
 43
0.0000000001
 44
0.00000001
 40
0.0
 40
0.0
 40
0.0
 40
0.0
 40
0.0195577029826016
 40
0.0426490537461311
 40
0.2863607575856515
 40
0.534494843618921
 40
0.7842238845573107
 40
0.8737315789467293
 40
0.9803832810312789
 40
1.092842274517025
 40
1.199761146656783
 40
1.289788768186487
 40
1.351573580786183
 40
1.37072711756141
 40
1.416400936017825
 40
1.470914848355968
 40
1.516588666791762
 40
1.535742203552843
 40
1.634216592293198
 40
1.760283341175034
 40
1.897966686682095
 40
2.031216387368921
 40
2.049689751137914
 40
2.101115601646851
 40
2.179502577739968
 40
2.278859318314082
 40
2.393194462258738
 40
2.516516648383855
 40
2.642834515405981
 40
2.766156701983484
 40
2.880491846754597
 40
2.97984858835864
 40
3.058235565443817
 40
3.10966141666897
 40
3.128134780704147
 40
3.146783742386464
 40
3.191254343315324
 40
3.244332157315983
 40
3.288802758225887
 40
3.30745171989513
 40
3.327717853844741
 40
3.383747753580104
 40
3.468388665924496
 40
3.574487837698801
 40
3.694892515728907
 40
3.822449946852049
 40
3.950007377920438
 40
4.070412055800532
 40
4.176511227368088
 40
4.261152139501534
 40
4.317182039076727
 40
4.337448172964648
 40
4.620011002696263
 40
4.885096638397529
 40
4.945373043518339
 40
5.014107710488648
 40
5.070481727652052
 40
5.319246955636577
 40
5.584812164506047
 40
5.859000912056898
 40
6.133746937542081
 40
6.401732212968885
 40
6.420736683995476
 40
6.472845717451126
 40
6.550702743894054
 40
6.646951193874263
 40
6.754234497930587
 40
6.865196086587365
 40
6.972479390357823
 40
7.068727839771985
 40
7.146584865450994
 40
7.198693898189224
 40
7.217698368905364
 40
7.234950401630841
 40
7.276089864269884
 40
7.325191803515991
 40
7.366331266090374
 40
7.383583298769724
 40
7.402779163492101
 40
7.453386443254533
 40
7.524934666445534
 40
7.606953361405874
 40
7.688972056429026
 40
7.760520279784276
 40
7.811127559734518
 40
7.830323424546139
 40
7.847844055299768
 40
7.894799345666811
 40
7.9627793927445
 40
8.04337429356055
 40
8.128174145149458
 40
8.208769044817263
 40
8.276749090376967
 40
8.323704379669525
 40
8.34122501005626
 40
8.358497614800408
 40
8.401679126686613
 40
8.45781509218567
 40
8.513951057728075
 40
8.557132569708031
 40
8.574405174505074
 40
8.602340668616439
 40
8.643455660539978
 40
8.663225271966649
 40
8.715345156564293
 40
8.789031889628628
 40
8.873502045520363
 40
8.957972194323988
 40
9.031658925567882
 40
9.08377881123457
 40
9.103548423003033
 40
9.11955008312357
 40
9.160817522379872
 40
9.217244429110238
 40
9.278724491644724
 40
9.335151398295508
 40
9.376418837357804
 40
9.392420497300591
 40
9.40119630273481
 40
9.417494229384284
 40
9.426270027749556
 40
9.440875075477589
 40
9.47570249699877
 40
9.517270709865933
 40
9.552098131994102
 40
9.56670316988431
 40
9.56670316988431
 40
9.56670316988431
 40
9.56670316988431
 10
194.6170254148479
 20
15.67015871511023
 30
0.0
 10
194.6134345093371
 20
15.66453690702155
 30
0.0
 10
194.6056039123625
 20
15.65227754419109
 30
0.0
 10
194.5129968974546
 20
15.6160191604097
 30
0.0
 10
194.4887622233248
 20
15.40148444212712
 30
0.0
 10
194.3858709845938
 20
15.22197284509704
 30
0.0
 10
194.1220492364305
 20
15.03615573798143
 30
0.0
 10
194.284547156918
 20
14.95959336566078
 30
0.0
 10
194.3607225760838
 20
14.89856693195439
 30
0.0
 10
194.4492171072758
 20
14.83515804544756
 30
0.0
 10
194.538993023311
 20
14.77525634219558
 30
0.0
 10
194.5883817636046
 20
14.72102154849204
 30
0.0
 10
194.6745708157382
 20
14.69286240541831
 30
0.0
 10
194.6411260674229
 20
14.65713309652808
 30
0.0
 10
194.621467116631
 20
14.62550387991902
 30
0.0
 10
194.5919888217882
 20
14.58475872796066
 30
0.0
 10
194.5688989446031
 20
14.5550466348964
 30
0.0
 10
194.5380205968357
 20
14.5021142266849
 30
0.0
 10
194.472919336574
 20
14.62740334938899
 30
0.0
 10
194.3796000122415
 20
14.68213900233931
 30
0.0
 10
194.2950636285139
 20
14.7391642393934
 30
0.0
 10
194.1722498125743
 20
14.8967528742752
 30
0.0
 10
194.1764450847301
 20
14.82035806766833
 30
0.0
 10
194.1751478652677
 20
14.77361280161293
 30
0.0
 10
194.1758126448076
 20
14.69584785812598
 30
0.0
 10
194.1755549986957
 20
14.5990206832442
 30
0.0
 10
194.1756431239922
 20
14.48650279078806
 30
0.0
 10
194.1756077302282
 20
14.36524085945697
 30
0.0
 10
194.1756511758278
 20
14.24086897858958
 30
0.0
 10
194.1755199942406
 20
14.11967683631334
 30
0.0
 10
194.1759477562046
 20
14.0069114891974
 30
0.0
 10
194.174667820231
 20
13.91082913768741
 30
0.0
 10
194.1779759851044
 20
13.83113826468697
 30
0.0
 10
194.1715197740085
 20
13.78815175788781
 30
0.0
 10
194.1806208705556
 20
13.7495543237204
 30
0.0
 10
194.1447910339935
 20
13.75810887724067
 30
0.0
 10
194.1115223815252
 20
13.75342519985444
 30
0.0
 10
194.0604562576041
 20
13.75351298759782
 30
0.0
 10
194.0269723972812
 20
13.75794430283818
 30
0.0
 10
193.9907585408754
 20
13.74960793842507
 30
0.0
 10
194.0009782568665
 20
13.79145277179281
 30
0.0
 10
193.9936487887774
 20
13.83778560820171
 30
0.0
 10
193.9973633136102
 20
13.92374831106011
 30
0.0
 10
193.9959480554896
 20
14.02605142704847
 30
0.0
 10
193.9964105554637
 20
14.14453223931509
 30
0.0
 10
193.996277368623
 20
14.26957683153353
 30
0.0
 10
193.9963015910045
 20
14.39475828107048
 30
0.0
 10
193.9963354925551
 20
14.51286645379055
 30
0.0
 10
193.9962060293131
 20
14.61628748709514
 30
0.0
 10
193.9965507549082
 20
14.69932036153664
 30
0.0
 10
193.995869827869
 20
14.75143368521241
 30
0.0
 10
193.9994586600623
 20
14.87912907821359
 30
0.0
 10
193.7826171386437
 20
14.58048716819618
 30
0.0
 10
193.602135492195
 20
14.35263981511513
 30
0.0
 10
193.5490322295612
 20
14.49373443289811
 30
0.0
 10
193.5200429133149
 20
14.5432576756094
 30
0.0
 10
193.419664806282
 20
14.64641779790105
 30
0.0
 10
193.7405127723261
 20
14.72695035023776
 30
0.0
 10
193.868989700543
 20
14.91066283036432
 30
0.0
 10
194.0906454325359
 20
15.1193199577176
 30
0.0
 10
194.1770224894068
 20
15.29339211228342
 30
0.0
 10
194.4549394229075
 20
15.56967051342509
 30
0.0
 10
194.3346247839283
 20
15.56534559551111
 30
0.0
 10
194.2863197351349
 20
15.56614856202551
 30
0.0
 10
194.2102377454905
 20
15.56574582146582
 30
0.0
 10
194.116701000975
 20
15.56590275611607
 30
0.0
 10
194.0117594788557
 20
15.56582502576222
 30
0.0
 10
193.9033887738717
 20
15.56595464378552
 30
0.0
 10
193.7981454235897
 20
15.56554393490689
 30
0.0
 10
193.7056237819412
 20
15.56682073671589
 30
0.0
 10
193.6268130800707
 20
15.56340766534848
 30
0.0
 10
193.5839674565379
 20
15.57023350036318
 30
0.0
 10
193.5449499586516
 20
15.56065064201121
 30
0.0
 10
193.5526365271863
 20
15.5942077956554
 30
0.0
 10
193.5485464404312
 20
15.6252355032223
 30
0.0
 10
193.5485531368814
 20
15.67236529270898
 30
0.0
 10
193.5526239724911
 20
15.70340941646775
 30
0.0
 10
193.5449495574582
 20
15.73701861635898
 30
0.0
 10
193.5834819405495
 20
15.72748410420869
 30
0.0
 10
193.624122801448
 20
15.73397435498067
 30
0.0
 10
193.6951471850463
 20
15.73100150650251
 30
0.0
 10
193.7729318149633
 20
15.73174761399154
 30
0.0
 10
193.8507292246474
 20
15.73247814044523
 30
0.0
 10
193.9217232089908
 20
15.72954235514157
 30
0.0
 10
193.9624279791819
 20
15.73595468772948
 30
0.0
 10
194.0009853489909
 20
15.72650524176001
 30
0.0
 10
193.9927342754928
 20
15.76264692158782
 30
0.0
 10
193.9982346669358
 20
15.80129837613224
 30
0.0
 10
193.9955754206163
 20
15.86913528561836
 30
0.0
 10
193.9965815471533
 20
15.94591641538737
 30
0.0
 10
193.9960178018318
 20
16.02849393582754
 30
0.0
 10
193.9970714526593
 20
16.10517329229875
 30
0.0
 10
193.9942675863129
 20
16.17331990776697
 30
0.0
 10
194.0000702721304
 20
16.21132399809344
 30
0.0
 10
193.9915654551158
 20
16.24758448077644
 30
0.0
 10
194.0255610233125
 20
16.2375572377185
 30
0.0
 10
194.05945756831
 20
16.24073266813705
 30
0.0
 10
194.1126669060346
 20
16.23508965640606
 30
0.0
 10
194.1660768574482
 20
16.23434774436423
 30
0.0
 10
194.1995914649491
 20
16.22819223482977
 30
0.0
 10
194.2388086183039
 20
16.2334602977359
 30
0.0
 10
194.2120263698492
 20
16.19253380793486
 30
0.0
 10
194.1708111001723
 20
16.20371204538109
 30
0.0
 10
194.1782641540874
 20
16.15867056192121
 30
0.0
 10
194.1742227952184
 20
16.11412278028142
 30
0.0
 10
194.176171404964
 20
16.042235726217
 30
0.0
 10
194.1752364849758
 20
15.96168630588768
 30
0.0
 10
194.176510719003
 20
15.88173995404992
 30
0.0
 10
194.1732043793863
 20
15.8084183708318
 30
0.0
 10
194.1802106179962
 20
15.76688643002565
 30
0.0
 10
194.1701440380125
 20
15.7275241856811
 30
0.0
 10
194.2029814803921
 20
15.73468063430978
 30
0.0
 10
194.236457729648
 20
15.73027243137941
 30
0.0
 10
194.2915053476019
 20
15.73217943347894
 30
0.0
 10
194.3489502595314
 20
15.73185366407285
 30
0.0
 10
194.4023026248309
 20
15.73106308733079
 30
0.0
 10
194.4398540896638
 20
15.7331395911807
 30
0.0
 10
194.4623172523237
 20
15.73022338167106
 30
0.0
 10
194.4751678073731
 20
15.73572552644052
 30
0.0
 10
194.4858255685888
 20
15.73801118197786
 30
0.0
 10
194.4986635650144
 20
15.74494972588049
 30
0.0
 10
194.5145991033069
 20
15.72853046313666
 30
0.0
 10
194.5410623920892
 20
15.71709122319445
 30
0.0
 10
194.5726805253758
 20
15.69644687835186
 30
0.0
 10
194.5987255892151
 20
15.68116869628289
 30
0.0
 10
194.6128517723973
 20
15.6726697632318
 30
0.0
 10
194.6170254148479
 20
15.67015871511023
 30
0.0
 11
194.6170254148479
 21
15.67015871511023
 31
0.0
 11
194.6049990002243
 21
15.65473571164185
 31
0.0
 11
194.5848961795565
 21
15.64337406233915
 31
0.0
 11
194.4778986355813
 21
15.42440620231156
 31
0.0
 11
194.3477039934324
 21
15.21317201512158
 31
0.0
 11
194.1996540366071
 21
15.01206059027476
 31
0.0
 11
194.2734958253735
 21
14.96147384935376
 31
0.0
 11
194.36056643118
 21
14.89988411653736
 31
0.0
 11
194.4518003750404
 21
14.83413160594423
 31
0.0
 11
194.5381321779687
 21
14.77105653169302
 31
0.0
 11
194.6104963609787
 21
14.71749910790239
 31
0.0
 11
194.6598274450843
 21
14.68029954869101
 31
0.0
 11
194.6486940702213
 21
14.66471410869491
 31
0.0
 11
194.6221452532403
 21
14.6275488287042
 31
0.0
 11
194.5904579555533
 21
14.58319026871529
 31
0.0
 11
194.5639091385723
 21
14.54602498872458
 31
0.0
 11
194.5527757637093
 21
14.53043954872848
 31
0.0
 11
194.4807013362947
 21
14.59754008690614
 31
0.0
 11
194.385285698538
 21
14.67993354174666
 31
0.0
 11
194.279326415217
 21
14.76785017366913
 31
0.0
 11
194.175621051109
 21
14.85152024309264
 31
0.0
 11
194.175621051109
 21
14.8330468790086
 31
0.0
 11
194.175621051109
 21
14.78162102763952
 31
0.0
 11
194.175621051109
 21
14.70323405030996
 31
0.0
 11
194.175621051109
 21
14.60387730834446
 31
0.0
 11
194.175621051109
 21
14.48954216306757
 31
0.0
 11
194.175621051109
 21
14.36621997580386
 31
0.0
 11
194.175621051109
 21
14.23990210787787
 31
0.0
 11
194.175621051109
 21
14.11657992061416
 31
0.0
 11
194.175621051109
 21
14.00224477533727
 31
0.0
 11
194.175621051109
 21
13.90288803337177
 31
0.0
 11
194.175621051109
 21
13.82450105604221
 31
0.0
 11
194.175621051109
 21
13.77307520467313
 31
0.0
 11
194.175621051109
 21
13.75460184058909
 31
0.0
 11
194.1569720893626
 21
13.75460184058909
 31
0.0
 11
194.1125014882749
 21
13.75460184058909
 31
0.0
 11
194.0594236740736
 21
13.75460184058909
 31
0.0
 11
194.0149530729859
 21
13.75460184058909
 31
0.0
 11
193.9963041112395
 21
13.75460184058909
 31
0.0
 11
193.9963041112395
 21
13.77486797460216
 31
0.0
 11
193.9963041112395
 21
13.83089787452064
 31
0.0
 11
193.9963041112395
 21
13.91553878716345
 31
0.0
 11
193.9963041112395
 21
14.0216379593495
 31
0.0
 11
193.9963041112395
 21
14.14204263789773
 31
0.0
 11
193.9963041112395
 21
14.26960006962703
 31
0.0
 11
193.9963041112395
 21
14.39715750135633
 31
0.0
 11
193.9963041112395
 21
14.51756217990456
 31
0.0
 11
193.9963041112395
 21
14.62366135209061
 31
0.0
 11
193.9963041112395
 21
14.70830226473342
 31
0.0
 11
193.9963041112395
 21
14.7643321646519
 31
0.0
 11
193.9963041112395
 21
14.78459829866497
 31
0.0
 11
193.7883272849481
 21
14.59331998274054
 31
0.0
 11
193.5763486358425
 21
14.43414885430809
 31
0.0
 11
193.5495629014482
 21
14.48814671952092
 31
0.0
 11
193.5138765415024
 21
14.54689140572023
 31
0.0
 11
193.4799697494124
 21
14.59192871537974
 31
0.0
 11
193.6830287742319
 21
14.73563387201052
 31
0.0
 11
193.881853195826
 21
14.91168423529986
 31
0.0
 11
194.0677041444178
 21
15.11327514524947
 31
0.0
 11
194.2318427502303
 21
15.33360194186107
 31
0.0
 11
194.3655301434864
 21
15.56585996513633
 31
0.0
 11
194.3465256724482
 21
15.56585996513633
 31
0.0
 11
194.2944166389562
 21
15.56585996513633
 31
0.0
 11
194.2165596124447
 21
15.56585996513633
 31
0.0
 11
194.1203111623478
 21
15.56585996513633
 31
0.0
 11
194.0130278580997
 21
15.56585996513633
 31
0.0
 11
193.9020662691345
 21
15.56585996513633
 31
0.0
 11
193.7947829648864
 21
15.56585996513633
 31
0.0
 11
193.6985345147895
 21
15.56585996513633
 31
0.0
 11
193.620677488278
 21
15.56585996513633
 31
0.0
 11
193.568568454786
 21
15.56585996513633
 31
0.0
 11
193.5495639837478
 21
15.56585996513633
 31
0.0
 11
193.5495639837478
 21
15.58311199790979
 31
0.0
 11
193.5495639837478
 21
15.62425146067729
 31
0.0
 11
193.5495639837478
 21
15.67335340010946
 31
0.0
 11
193.5495639837478
 21
15.71449286287696
 31
0.0
 11
193.5495639837478
 21
15.73174489565042
 31
0.0
 11
193.5687598486009
 21
15.73174489565042
 31
0.0
 11
193.6193671286684
 21
15.73174489565042
 31
0.0
 11
193.690915352212
 21
15.73174489565042
 31
0.0
 11
193.7729340474937
 21
15.73174489565042
 31
0.0
 11
193.8549527427753
 21
15.73174489565042
 31
0.0
 11
193.9265009663189
 21
15.73174489565042
 31
0.0
 11
193.9771082463864
 21
15.73174489565042
 31
0.0
 11
193.9963041112395
 21
15.73174489565042
 31
0.0
 11
193.9963041112395
 21
15.74926552655215
 31
0.0
 11
193.9963041112395
 21
15.79622081736879
 31
0.0
 11
193.9963041112395
 21
15.8642008652675
 31
0.0
 11
193.9963041112395
 21
15.94479576741546
 31
0.0
 11
193.9963041112395
 21
16.02959562097984
 31
0.0
 11
193.9963041112395
 21
16.1101905231278
 31
0.0
 11
193.9963041112395
 21
16.17817057102651
 31
0.0
 11
193.9963041112395
 21
16.22512586184315
 31
0.0
 11
193.9963041112395
 21
16.24264649274488
 31
0.0
 11
194.0135484112111
 21
16.24165806167517
 31
0.0
 11
194.0566591611401
 21
16.23918698400089
 31
0.0
 11
194.1127031360477
 21
16.23597458302433
 31
0.0
 11
194.1687471109553
 21
16.23276218204777
 31
0.0
 11
194.2118578608843
 21
16.23029110437349
 31
0.0
 11
194.2291021608559
 21
16.22930267330378
 31
0.0
 11
194.2143774674851
 21
16.20556293372637
 31
0.0
 11
194.175621051109
 21
16.1918376733131
 31
0.0
 11
194.175621051109
 21
16.1720680617729
 31
0.0
 11
194.175621051109
 21
16.11994817680331
 31
0.0
 11
194.175621051109
 21
16.04626144288077
 31
0.0
 11
194.175621051109
 21
15.96179128448176
 31
0.0
 11
194.175621051109
 21
15.87732112608275
 31
0.0
 11
194.175621051109
 21
15.80363439216021
 31
0.0
 11
194.175621051109
 21
15.75151450719061
 31
0.0
 11
194.175621051109
 21
15.73174489565042
 31
0.0
 11
194.1916227112935
 21
15.73174489565042
 31
0.0
 11
194.232890150717
 21
15.73174489565042
 31
0.0
 11
194.2893170576837
 21
15.73174489565042
 31
0.0
 11
194.3507971204981
 21
15.73174489565042
 31
0.0
 11
194.4072240274648
 21
15.73174489565042
 31
0.0
 11
194.4484914668882
 21
15.73174489565042
 31
0.0
 11
194.4644931270728
 21
15.73174489565042
 31
0.0
 11
194.4728206422924
 21
15.73451387455918
 31
0.0
 11
194.4882860277004
 21
15.73965626396114
 31
0.0
 11
194.49661354292
 21
15.7424252428699
 31
0.0
 11
194.5091363776005
 21
15.73490952398289
 31
0.0
 11
194.5389985218386
 21
15.71698742509849
 31
0.0
 11
194.5746404359293
 21
15.69559653288163
 31
0.0
 11
194.6045025801674
 21
15.67767443399724
 31
0.0
 11
194.6170254148479
 21
15.67015871511023
 31
0.0
  0
SPLINE
  5
A5
102
{ACAD_REACTORS
330
C2
102
}
330
48
100
AcDbEntity
  8
_U_30EC_U_30A4_U_30E4_U_30FC_1
  6
Continuous
 62
     2
100
AcDbSpline
210
0.0
220
0.0
230
1.0
 70
    11
 71
     3
 72
    91
 73
    87
 74
    85
 42
0.000000001
 43
0.0000000001
 44
0.00000001
 40
0.0
 40
0.0
 40
0.0
 40
0.0
 40
0.0267532254356701
 40
0.0856103386464102
 40
0.1444674521996621
 40
0.1712206856618514
 40
0.2039416005642536
 40
0.2955601971652484
 40
0.4362601844616918
 40
0.616225284450725
 40
0.8256392189704698
 40
1.054685709844411
 40
1.293548478893531
 40
1.532411247938303
 40
1.761457738799568
 40
1.970871673298537
 40
2.150836773256732
 40
2.291536760495593
 40
2.3831553568367
 40
2.41587628410132
 40
2.442629517487963
 40
2.501486630949095
 40
2.560343744424242
 40
2.587096977826515
 40
2.617068194440942
 40
2.699247336756083
 40
2.822032643466396
 40
2.973822353257925
 40
3.143014704823368
 40
3.318007936879947
 40
3.48720028818678
 40
3.63898999754826
 40
3.761775303794759
 40
3.843954445753094
 40
3.87392566222979
 40
3.890812773500496
 40
3.907699884771674
 40
3.937960767857289
 40
3.980983618142322
 40
4.199085915228461
 40
4.439444339237255
 40
4.677588241260893
 40
5.050698317837779
 40
5.448212454763165
 40
5.85529121804469
 40
6.138575438885349
 40
6.417434507584194
 40
6.444551104393876
 40
6.504207617363174
 40
6.563864130314496
 40
6.590980727104089
 40
6.848609460381472
 40
7.109611990668433
 40
7.352910904446096
 40
7.557830220705474
 40
7.587518925913391
 40
7.652834077375811
 40
7.718149228845748
 40
7.747837934062051
 40
7.854880190301015
 40
7.976511257403553
 40
8.369487896592354
 40
8.757514959223647
 40
9.12607241933111
 40
9.460639380392172
 40
9.746695593035913
 40
9.777569943118694
 40
9.807050320931788
 40
9.83037733612892
 40
9.886003295435993
 40
9.9523955694299
 40
10.00802152870625
 40
10.03134854388217
 40
10.21356951009588
 40
10.42203479292871
 40
10.66154556731063
 40
10.91693789564304
 40
11.15832906556565
 40
11.18982674596622
 40
11.27286608520406
 40
11.39026653033348
 40
11.52484752840885
 40
11.65942852648447
 40
11.77682897161483
 40
11.85986831085682
 40
11.89136598230427
 40
11.89136598230427
 40
11.89136598230427
 40
11.89136598230427
 10
190.7027885008196
 20
14.70699600701769
 30
0.0
 10
190.7028237765288
 20
14.71587847311982
 30
0.0
 10
190.7029366710796
 20
14.74430237047343
 30
0.0
 10
190.7012984568489
 20
14.794096391698
 30
0.0
 10
190.7069750292911
 20
14.83657564478151
 30
0.0
 10
190.6956928731706
 20
14.88730154856844
 30
0.0
 10
190.7632296979031
 20
14.87012900740105
 30
0.0
 10
190.83880292107
 20
14.88290227165993
 30
0.0
 10
190.9828357056
 20
14.87629729457378
 30
0.0
 10
191.1569419185427
 20
14.87888462206463
 30
0.0
 10
191.3639599611003
 20
14.8780059195555
 30
0.0
 10
191.5894688172378
 20
14.87828207920024
 30
0.0
 10
191.8251162293406
 20
14.87818339658659
 30
0.0
 10
192.0607640531348
 20
14.87828184412765
 30
0.0
 10
192.2862717580626
 20
14.87800678190785
 30
0.0
 10
192.4932934632805
 20
14.87888186270732
 30
0.0
 10
192.6673888915288
 20
14.87630522678443
 30
0.0
 10
192.8114492071986
 20
14.8828829044921
 30
0.0
 10
192.8869691915292
 20
14.87016243405601
 30
0.0
 10
192.954577603703
 20
14.88726400191684
 30
0.0
 10
192.9430840140676
 20
14.83674785802937
 30
0.0
 10
192.9505104581733
 20
14.79253252226498
 30
0.0
 10
192.9428838927986
 20
14.74867966503606
 30
0.0
 10
192.9546489459425
 20
14.69878374479325
 30
0.0
 10
192.8930788491983
 20
14.71393227712508
 30
0.0
 10
192.8256791738672
 20
14.7031066535067
 30
0.0
 10
192.7013004056221
 20
14.70852031626233
 30
0.0
 10
192.555442823657
 20
14.70649205390782
 30
0.0
 10
192.3893576440085
 20
14.70715777578384
 30
0.0
 10
192.2188412621724
 20
14.70689643521239
 30
0.0
 10
192.0519790855388
 20
14.70721553391091
 30
0.0
 10
191.9087346827105
 20
14.70635302590759
 30
0.0
 10
191.7773313869834
 20
14.70863300482986
 30
0.0
 10
191.7239859134656
 20
14.70407704374198
 30
0.0
 10
191.6485188456913
 20
14.70999914992874
 30
0.0
 10
191.6769075779232
 20
14.7009416934335
 30
0.0
 10
191.7033652409542
 20
14.69725912268927
 30
0.0
 10
191.6633522907701
 20
14.6665427196827
 30
0.0
 10
191.5713663691868
 20
14.6766759117463
 30
0.0
 10
191.543939620707
 20
14.43032502247782
 30
0.0
 10
191.4478793967234
 20
14.27499558764372
 30
0.0
 10
191.1917277964474
 20
13.94525417931566
 30
0.0
 10
191.7627537732762
 20
14.08430022210449
 30
0.0
 10
192.0173656320517
 20
14.08291779973361
 30
0.0
 10
192.6279647048617
 20
13.99790569242085
 30
0.0
 10
192.3340698578084
 20
14.29685417558201
 30
0.0
 10
192.0133304286514
 20
14.44330856901779
 30
0.0
 10
192.1313543360434
 20
14.50025540818285
 30
0.0
 10
192.1724716466261
 20
14.52420099873345
 30
0.0
 10
192.2156812394411
 20
14.54599758811228
 30
0.0
 10
192.3174574094451
 20
14.60928721253899
 30
0.0
 10
192.4328867625247
 20
14.35147151408777
 30
0.0
 10
192.6329591642277
 20
14.21616041113679
 30
0.0
 10
192.7269077387228
 20
14.03792795138879
 30
0.0
 10
192.9558829746393
 20
13.87997821027044
 30
0.0
 10
192.8596031846708
 20
13.82915972576296
 30
0.0
 10
192.8167959763779
 20
13.7988129252305
 30
0.0
 10
192.7718243528779
 20
13.77466130281454
 30
0.0
 10
192.7121720925214
 20
13.72552146747564
 30
0.0
 10
192.6789731061325
 20
13.85997475673606
 30
0.0
 10
192.5582013350796
 20
14.01594265286576
 30
0.0
 10
192.1970976005979
 20
13.88569928059553
 30
0.0
 10
191.838506195554
 20
13.90224694409481
 30
0.0
 10
191.4570920450081
 20
13.89331229351864
 30
0.0
 10
191.170345528289
 20
13.82882671672405
 30
0.0
 10
190.8592055599715
 20
13.94230668192826
 30
0.0
 10
190.8268737818788
 20
13.83122259927765
 30
0.0
 10
190.7896178253317
 20
13.81196313850011
 30
0.0
 10
190.7865737632753
 20
13.85874784087295
 30
0.0
 10
190.7679892860608
 20
13.89806853919133
 30
0.0
 10
190.7512436616777
 20
13.9576598347823
 30
0.0
 10
190.7383730915753
 20
14.00201969871281
 30
0.0
 10
190.7042327806428
 20
14.09106331120198
 30
0.0
 10
190.9482714457754
 20
14.02181042943768
 30
0.0
 10
191.1441394486671
 20
14.00030369057741
 30
0.0
 10
191.2395426381277
 20
14.28226484478461
 30
0.0
 10
191.2945135769596
 20
14.44363045421119
 30
0.0
 10
191.5159619357156
 20
14.71391177589735
 30
0.0
 10
191.3849239381216
 20
14.70548446853731
 30
0.0
 10
191.3110026555854
 20
14.70779008496967
 30
0.0
 10
191.1977459876244
 20
14.70671378321655
 30
0.0
 10
191.0694251807484
 20
14.70707639076507
 30
0.0
 10
190.9404252030415
 20
14.70697724466083
 30
0.0
 10
190.828784094629
 20
14.70699932712569
 30
0.0
 10
190.7514663970026
 20
14.70699579189667
 30
0.0
 10
190.713287653201
 20
14.70699595845078
 30
0.0
 10
190.7027885008196
 20
14.70699600701769
 30
0.0
 11
190.7027885008196
 21
14.70699600701769
 31
0.0
 11
190.7027885008196
 21
14.73374924051794
 31
0.0
 11
190.7027885008196
 21
14.7926063542185
 31
0.0
 11
190.7027885008196
 21
14.85146346791906
 31
0.0
 11
190.7027885008196
 21
14.87821670141932
 31
0.0
 11
190.7355094280989
 21
14.87821670141932
 31
0.0
 11
190.8271280244809
 21
14.87821670141932
 31
0.0
 11
190.9678280117818
 21
14.87821670141932
 31
0.0
 11
191.1477931118179
 21
14.87821670141932
 31
0.0
 11
191.3572070464054
 21
14.87821670141932
 31
0.0
 11
191.5862535373604
 21
14.87821670141932
 31
0.0
 11
191.8251163064992
 21
14.87821670141932
 31
0.0
 11
192.0639790756381
 21
14.87821670141932
 31
0.0
 11
192.2930255665931
 21
14.87821670141932
 31
0.0
 11
192.5024395011806
 21
14.87821670141932
 31
0.0
 11
192.6824046012167
 21
14.87821670141932
 31
0.0
 11
192.8231045885176
 21
14.87821670141932
 31
0.0
 11
192.9147231848996
 21
14.87821670141932
 31
0.0
 11
192.9474441121789
 21
14.87821670141932
 31
0.0
 11
192.9474441121789
 21
14.85146346791906
 31
0.0
 11
192.9474441121789
 21
14.7926063542185
 31
0.0
 11
192.9474441121789
 21
14.73374924051794
 31
0.0
 11
192.9474441121789
 21
14.70699600701769
 31
0.0
 11
192.9174728954758
 21
14.70699600701769
 31
0.0
 11
192.8352937529027
 21
14.70699600701769
 31
0.0
 11
192.7125084457639
 21
14.70699600701769
 31
0.0
 11
192.5607187353642
 21
14.70699600701769
 31
0.0
 11
192.3915263830077
 21
14.70699600701769
 31
0.0
 11
192.2165331499991
 21
14.70699600701769
 31
0.0
 11
192.0473407976426
 21
14.70699600701769
 31
0.0
 11
191.8955510872428
 21
14.70699600701769
 31
0.0
 11
191.7727657801042
 21
14.70699600701769
 31
0.0
 11
191.690586637531
 21
14.70699600701769
 31
0.0
 11
191.6606154208279
 21
14.70699600701769
 31
0.0
 11
191.6766359412525
 21
14.70165583340791
 31
0.0
 11
191.6926564616771
 21
14.69631565979813
 31
0.0
 11
191.670615568142
 21
14.67558114591439
 31
0.0
 11
191.6284861855363
 21
14.66685871536106
 31
0.0
 11
191.5365235541377
 21
14.46909247312654
 31
0.0
 11
191.4279078521763
 21
14.25467511978505
 31
0.0
 11
191.3127500824807
 21
14.04622559051617
 31
0.0
 11
191.685736667502
 21
14.05582441253026
 31
0.0
 11
192.083070003615
 21
14.06781232404992
 31
0.0
 11
192.4899342191145
 21
14.08102711828531
 31
0.0
 11
192.2983119496978
 21
14.28966761302478
 31
0.0
 11
192.0966752013698
 21
14.4822942015183
 31
0.0
 11
192.1204947794749
 21
14.49525327269562
 31
0.0
 11
192.1728978513061
 21
14.52376322928573
 31
0.0
 11
192.2253009231374
 21
14.55227318587585
 31
0.0
 11
192.2491205012425
 21
14.56523225705317
 31
0.0
 11
192.4387101558627
 21
14.39079508370265
 31
0.0
 11
192.6200310940435
 21
14.20305846374088
 31
0.0
 11
192.7777729231147
 21
14.01782380992433
 31
0.0
 11
192.8966252504058
 21
13.85089253500945
 31
0.0
 11
192.8715408217923
 21
13.83501202286065
 31
0.0
 11
192.8163550788425
 21
13.80007489613328
 31
0.0
 11
192.7611693358928
 21
13.76513776940591
 31
0.0
 11
192.7360849072793
 21
13.74925725725711
 31
0.0
 11
192.6775518151612
 21
13.83887824681806
 31
0.0
 11
192.6050015078457
 21
13.93650288221028
 31
0.0
 11
192.2125412924095
 21
13.91636286943756
 31
0.0
 11
191.824947406956
 21
13.89803302999771
 31
0.0
 11
191.4567378976213
 21
13.88202178722394
 31
0.0
 11
191.1224308105412
 21
13.86883756444946
 31
0.0
 11
190.8365441918518
 21
13.85898878500748
 31
0.0
 11
190.821186232174
 21
13.83220523466692
 31
0.0
 11
190.7937434290546
 21
13.82143559057244
 31
0.0
 11
190.7867927192319
 21
13.84370299445576
 31
0.0
 11
190.7702179496548
 21
13.89680218833137
 31
0.0
 11
190.7504351601596
 21
13.96017864553774
 31
0.0
 11
190.7338603905825
 21
14.01327783941335
 31
0.0
 11
190.7269096807598
 21
14.03554524329667
 31
0.0
 11
190.9091199859153
 21
14.0375163891295
 31
0.0
 11
191.1174975848588
 21
14.04356211829469
 31
0.0
 11
191.2303203127216
 21
14.25483550301551
 31
0.0
 11
191.3407936722035
 21
14.48509813155876
 31
0.0
 11
191.4358254265627
 21
14.70699600701769
 31
0.0
 11
191.4043277461597
 21
14.70699600701769
 31
0.0
 11
191.3212884069153
 21
14.70699600701769
 31
0.0
 11
191.2038879617768
 21
14.70699600701769
 31
0.0
 11
191.0693069636912
 21
14.70699600701769
 31
0.0
 11
190.9347259656055
 21
14.70699600701769
 31
0.0
 11
190.817325520467
 21
14.70699600701769
 31
0.0
 11
190.7342861812226
 21
14.70699600701769
 31
0.0
 11
190.7027885008196
 21
14.70699600701769
 31
0.0
  0
SPLINE
  5
A6
102
{ACAD_REACTORS
330
C3
102
}
330
48
100
AcDbEntity
  8
_U_30EC_U_30A4_U_30E4_U_30FC_1
  6
Continuous
 62
     2
100
AcDbSpline
210
0.0
220
0.0
230
1.0
 70
    11
 71
     3
 72
    35
 73
    31
 74
    29
 42
0.000000001
 43
0.0000000001
 44
0.00000001
 40
0.0
 40
0.0
 40
0.0
 40
0.0
 40
0.0335231036620673
 40
0.0713218571712039
 40
0.4278866681487111
 40
0.8116865841964156
 40
1.198190238000073
 40
1.561379546812701
 40
1.659983174622061
 40
1.759315573807206
 40
2.132719617231092
 40
2.525233363588845
 40
2.910815397779715
 40
3.265244364303306
 40
3.592606723582052
 40
3.964386154604001
 40
4.359942131737826
 40
4.75815411863934
 40
4.843846538699965
 40
4.936650065543273
 40
5.256616602537357
 40
5.581707404416094
 40
5.899719158308189
 40
6.198363494280791
 40
6.466301046615821
 40
6.493895311537142
 40
6.559697020196935
 40
6.638234543442509
 40
6.704036252154262
 40
6.731630508423068
 40
6.731630508423068
 40
6.731630508423068
 40
6.731630508423068
 10
191.9736010568669
 20
16.23463843719131
 30
0.0
 10
191.9676006097789
 20
16.2248069054232
 30
0.0
 10
191.9548344099156
 20
16.20388988579795
 30
0.0
 10
191.7949362006555
 20
16.17127126532691
 30
0.0
 10
192.2322025842337
 20
15.88206680336697
 30
0.0
 10
192.4345394828261
 20
15.68041138358435
 30
0.0
 10
192.6819564267973
 20
15.43749387603273
 30
0.0
 10
193.1831513624606
 20
15.36047662757772
 30
0.0
 10
193.012556219897
 20
15.21876939174654
 30
0.0
 10
192.9383299463202
 20
15.01710366209104
 30
0.0
 10
192.6131432248187
 20
15.36956287174724
 30
0.0
 10
192.3277741670664
 20
15.53175212559559
 30
0.0
 10
192.0337604077658
 20
15.73687130053046
 30
0.0
 10
191.8084452691134
 20
16.21827488595454
 30
0.0
 10
191.5993085055521
 20
15.7534304660922
 30
0.0
 10
191.3207873674834
 20
15.54350952252909
 30
0.0
 10
191.0371383177209
 20
15.37424456359982
 30
0.0
 10
190.707863952783
 20
15.0014236090793
 30
0.0
 10
190.6277012318224
 20
15.19708014458998
 30
0.0
 10
190.4759724909744
 20
15.3249110419059
 30
0.0
 10
190.9083395826795
 20
15.40454031765933
 30
0.0
 10
191.0962565329765
 20
15.60026634915469
 30
0.0
 10
191.3468477420502
 20
15.81632996916752
 30
0.0
 10
191.5714350470161
 20
15.98190992300055
 30
0.0
 10
191.6259775409712
 20
16.26133964636822
 30
0.0
 10
191.7494661029011
 20
16.24737950408075
 30
0.0
 10
191.806027334452
 20
16.24521268867644
 30
0.0
 10
191.8761870984944
 20
16.24046859881356
 30
0.0
 10
191.9333414022105
 20
16.23709429350538
 30
0.0
 10
191.9644190320838
 20
16.23519854711116
 30
0.0
 10
191.9736010568669
 20
16.23463843719131
 30
0.0
 11
191.9736010568669
 21
16.23463843719131
 31
0.0
 11
191.9525319069884
 21
16.20856374969782
 31
0.0
 11
191.9174464559425
 21
16.19450114553467
 31
0.0
 11
192.1512374769094
 21
15.92527961131379
 31
0.0
 11
192.4414585957566
 21
15.67413407969256
 31
0.0
 11
192.7612797483684
 21
15.45710987618781
 31
0.0
 11
193.0838708706289
 21
15.29025232631634
 31
0.0
 11
193.0213299868076
 21
15.21402035584926
 31
0.0
 11
192.9688035818975
 21
15.12971197913421
 31
0.0
 11
192.6436279095814
 21
15.31326404831577
 31
0.0
 11
192.3237227768436
 21
15.54070139743426
 31
0.0
 11
192.0354200158608
 21
15.79673855123308
 31
0.0
 11
191.8050514588095
 21
16.06609003445564
 31
0.0
 11
191.5995531719516
 21
15.81126348721033
 31
0.0
 11
191.3288301341535
 21
15.55645182277753
 31
0.0
 11
191.0119538423246
 21
15.31969466354852
 31
0.0
 11
190.6679957933741
 21
15.11903163191462
 31
0.0
 11
190.6218855341338
 21
15.1912606770355
 31
0.0
 11
190.5636970460348
 21
15.26355586798962
 31
0.0
 11
190.8433040489015
 21
15.41911456961741
 31
0.0
 11
191.1093004621154
 21
15.60601009790402
 31
0.0
 11
191.3499997459746
 21
15.81384496285205
 31
0.0
 11
191.5537153607774
 21
16.03222167446412
 31
0.0
 11
191.7087607668218
 21
16.25074274274283
 31
0.0
 11
191.7363041569865
 21
16.24906789496547
 31
0.0
 11
191.8019845489177
 21
16.2450740271887
 31
0.0
 11
191.880377274771
 21
16.24030715274545
 31
0.0
 11
191.9460576667022
 21
16.23631328496867
 31
0.0
 11
191.9736010568669
 21
16.23463843719131
 31
0.0
  0
SPLINE
  5
A7
102
{ACAD_REACTORS
330
C4
102
}
330
48
100
AcDbEntity
  8
_U_30EC_U_30A4_U_30E4_U_30FC_1
  6
Continuous
 62
     2
100
AcDbSpline
210
0.0
220
0.0
230
1.0
 70
    11
 71
     3
 72
    15
 73
    11
 74
     9
 42
0.000000001
 43
0.0000000001
 44
0.00000001
 40
0.0
 40
0.0
 40
0.0
 40
0.0
 40
0.2785535985096574
 40
0.5215624748198886
 40
0.6076917376040522
 40
0.6938210001741244
 40
0.940501914645512
 40
1.221691403489128
 40
1.300471877081052
 40
1.379252341684824
 40
1.379252341684824
 40
1.379252341684824
 40
1.379252341684824
 10
189.5681493630999
 20
16.22930267330378
 30
0.0
 10
189.6296017794178
 20
16.17691646592712
 30
0.0
 10
189.7446649974113
 20
16.07882876798219
 30
0.0
 10
190.0397348497244
 20
15.92889785897219
 30
0.0
 10
189.9025147631857
 20
15.84343227515011
 30
0.0
 10
189.8041227843778
 20
15.71085785201552
 30
0.0
 10
189.713003359065
 20
16.01616985781418
 30
0.0
 10
189.3636839480655
 20
16.07967869465369
 30
0.0
 10
189.511925837657
 20
16.17896509880874
 30
0.0
 10
189.5494081874236
 20
16.21252348402379
 30
0.0
 10
189.5681493630999
 20
16.22930267330378
 30
0.0
 11
189.5681493630999
 21
16.22930267330378
 31
0.0
 11
189.7919222440596
 21
16.0634177427897
 31
0.0
 11
189.9695046306383
 21
15.89753281227561
 31
0.0
 11
189.9066308127979
 21
15.83866743034589
 31
0.0
 11
189.8437569949575
 21
15.77980204841617
 31
0.0
 11
189.6688535117725
 21
15.95375677059489
 31
0.0
 11
189.447825685614
 21
16.12757920110698
 31
0.0
 11
189.507987524357
 21
16.17844093720538
 31
0.0
 11
189.5681493630999
 21
16.22930267330378
 31
0.0
  0
SPLINE
  5
A8
102
{ACAD_REACTORS
330
C5
102
}
330
48
100
AcDbEntity
  8
_U_30EC_U_30A4_U_30E4_U_30FC_1
  6
Continuous
 62
     2
100
AcDbSpline
210
0.0
220
0.0
230
1.0
 70
    11
 71
     3
 72
    75
 73
    71
 74
    69
 42
0.000000001
 43
0.0000000001
 44
0.00000001
 40
0.0
 40
0.0
 40
0.0
 40
0.0
 40
0.0342546099129691
 40
0.1245622414432346
 40
0.2522385480897518
 40
0.3985991922940662
 40
0.5449598364980839
 40
0.6726361431438852
 40
0.7629437746736942
 40
0.7971983935297973
 40
1.101723623449658
 40
1.408591244036661
 40
1.433332471690367
 40
1.487763172450163
 40
1.542193873081992
 40
1.566935100592542
 40
1.923523931821851
 40
2.271755704953649
 40
2.590579755100892
 40
2.858943305581149
 40
2.889120339309171
 40
2.918305855191121
 40
2.941366645531244
 40
2.996357760973133
 40
3.061992318140675
 40
3.116983433626869
 40
3.140044223997548
 40
3.411273122936472
 40
3.732441619741137
 40
3.761068217532837
 40
3.837787499630397
 40
3.948858699126036
 40
4.080541049104412
 40
4.219093782625797
 40
4.350776132722346
 40
4.46184733240568
 40
4.538566614678413
 40
4.56719321254466
 40
4.594907573998918
 40
4.666381453557457
 40
4.764111044011067
 40
4.87059253812587
 40
4.968322128642321
 40
5.039796008287007
 40
5.067510369784466
 40
5.094263603185678
 40
5.153120716668311
 40
5.211977830150755
 40
5.238731063551758
 40
5.272290535138997
 40
5.363380529444858
 40
5.497618415781536
 40
5.660621563453778
 40
5.838007341749479
 40
6.01539311991083
 40
6.178396267038456
 40
6.312634151842407
 40
6.403724143059397
 40
6.437283612672492
 40
6.464036846261107
 40
6.52289396000472
 40
6.581751071483983
 40
6.608504301590927
 40
6.637253941281075
 40
6.711397748902926
 40
6.812778057283539
 40
6.923237199249315
 40
7.024617507623959
 40
7.098761315207612
 40
7.127510946007562
 40
7.127510946007562
 40
7.127510946007562
 40
7.127510946007562
 10
188.4418622390564
 20
14.95849128473262
 30
0.0
 10
188.4418622819707
 20
14.94707313408718
 30
0.0
 10
188.4418624481129
 20
14.90555257842627
 30
0.0
 10
188.4418593081786
 20
14.82146922003769
 30
0.0
 10
188.4418788279801
 20
14.70004497322327
 30
0.0
 10
188.4417912187737
 20
14.55980494047446
 30
0.0
 10
188.442111623523
 20
14.42006556794574
 30
0.0
 10
188.4411605909741
 20
14.29745038894927
 30
0.0
 10
188.4431978595967
 20
14.21587074438041
 30
0.0
 10
188.4349433178746
 20
14.06271267077696
 30
0.0
 10
188.7430797940901
 20
14.22560236054717
 30
0.0
 10
189.0350645173736
 20
14.39482938687999
 30
0.0
 10
189.0408354448707
 20
14.25973235781907
 30
0.0
 10
189.0455471719891
 20
14.2161722116044
 30
0.0
 10
189.0482535411918
 20
14.17211249350541
 30
0.0
 10
189.0672545672958
 20
14.02272590363129
 30
0.0
 10
188.6583942247303
 20
14.08681172241259
 30
0.0
 10
188.3793710348832
 20
13.97296341411014
 30
0.0
 10
188.1018081587166
 20
13.8736409581114
 30
0.0
 10
187.8099837184401
 20
13.91630687596354
 30
0.0
 10
187.7869144678657
 20
13.81321679744538
 30
0.0
 10
187.7537474383333
 20
13.78691091244466
 30
0.0
 10
187.7480653962738
 20
13.83455309036301
 30
0.0
 10
187.7284214559044
 20
13.87180336115066
 30
0.0
 10
187.7095089485623
 20
13.9300738784756
 30
0.0
 10
187.6942849867707
 20
13.97385201007801
 30
0.0
 10
187.6477246372935
 20
14.08759421046308
 30
0.0
 10
187.989089731245
 20
14.05576301120045
 30
0.0
 10
188.2679649367388
 20
14.02161435106477
 30
0.0
 10
188.2617753034907
 20
14.1691397647965
 30
0.0
 10
188.2630935452773
 20
14.2401315090883
 30
0.0
 10
188.2624831689948
 20
14.34719767958659
 30
0.0
 10
188.2625871570724
 20
14.47398529785995
 30
0.0
 10
188.2629987964055
 20
14.60849243496048
 30
0.0
 10
188.2613907841969
 20
14.73395549951182
 30
0.0
 10
188.2659902567925
 20
14.84505246719115
 30
0.0
 10
188.256418650221
 20
14.90761886800686
 30
0.0
 10
188.2704001783691
 20
14.96595388294999
 30
0.0
 10
188.2147384386704
 20
14.95289710582235
 30
0.0
 10
188.1575655197821
 20
14.96136307749496
 30
0.0
 10
188.0616048925648
 20
14.95729976080634
 30
0.0
 10
187.963376752282
 20
14.95970889852472
 30
0.0
 10
187.8672582457561
 20
14.95551600613386
 30
0.0
 10
187.8104648525811
 20
14.96429346441161
 30
0.0
 10
187.7550356873384
 20
14.95094936850118
 30
0.0
 10
187.7670679427917
 20
15.00036910959254
 30
0.0
 10
187.7592003173937
 20
15.04393988030393
 30
0.0
 10
187.7666295563828
 20
15.08830469118522
 30
0.0
 10
187.7551930564144
 20
15.13902297763988
 30
0.0
 10
187.8232102370132
 20
15.1216246075774
 30
0.0
 10
187.8968496879747
 20
15.13417450237186
 30
0.0
 10
188.0325064058211
 20
15.12799677011094
 30
0.0
 10
188.1884909024525
 20
15.13029203093081
 30
0.0
 10
188.3615926358143
 20
15.12940968262527
 30
0.0
 10
188.5346942964181
 20
15.13029207142405
 30
0.0
 10
188.6906789811216
 20
15.12799662955547
 30
0.0
 10
188.8263351889797
 20
15.13417486262428
 30
0.0
 10
188.8999756705652
 20
15.12162394218332
 30
0.0
 10
188.9679914174724
 20
15.1390237301214
 30
0.0
 10
188.9565590885922
 20
15.08830130414552
 30
0.0
 10
188.9639539458298
 20
15.04397060811106
 30
0.0
 10
188.956203991227
 20
15.00028307550193
 30
0.0
 10
188.9681203741877
 20
14.95063590098475
 30
0.0
 10
188.9108170223616
 20
14.96461411338423
 30
0.0
 10
188.8520145789772
 20
14.95539755673252
 30
0.0
 10
188.7525293633199
 20
14.95952268164927
 30
0.0
 10
188.649428009835
 20
14.95822760025886
 30
0.0
 10
188.5537846354573
 20
14.95854077077638
 30
0.0
 10
188.4857467971617
 20
14.95848776697143
 30
0.0
 10
188.4514462213443
 20
14.95849051871654
 30
0.0
 10
188.4418622390564
 20
14.95849128473262
 30
0.0
 11
188.4418622390564
 21
14.95849128473262
 31
0.0
 11
188.4418622390564
 21
14.92423666587183
 31
0.0
 11
188.4418622390564
 21
14.83392903432973
 31
0.0
 11
188.4418622390564
 21
14.70625272766677
 31
0.0
 11
188.4418622390564
 21
14.55989208344338
 31
0.0
 11
188.4418622390564
 21
14.41353143921998
 31
0.0
 11
188.4418622390564
 21
14.28585513255702
 31
0.0
 11
188.4418622390564
 21
14.19554750101493
 31
0.0
 11
188.4418622390564
 21
14.16129288215413
 31
0.0
 11
188.7391932644567
 21
14.22709475713765
 31
0.0
 11
189.0384623627245
 21
14.29496038212068
 31
0.0
 11
189.0405487124976
 21
14.27030727882823
 31
0.0
 11
189.0451386819987
 21
14.21607045158486
 31
0.0
 11
189.0497286514996
 21
14.16183362434148
 31
0.0
 11
189.0518150012728
 21
14.13718052104903
 31
0.0
 11
188.705639688924
 21
14.05163370140895
 31
0.0
 11
188.3669653138838
 21
13.97060877629899
 31
0.0
 11
188.0563731516688
 21
13.89862764024927
 31
0.0
 11
187.7944444777955
 21
13.84021218778989
 31
0.0
 11
187.7817515029292
 21
13.81283442738011
 31
0.0
 11
187.7569794787513
 21
13.79740260446732
 31
0.0
 11
187.7491867589501
 21
13.81910683390633
 31
0.0
 11
187.7306041194242
 21
13.87086307333783
 31
0.0
 11
187.70842483999
 21
13.93263664943348
 31
0.0
 11
187.689842200464
 21
13.98439288886497
 31
0.0
 11
187.6820494806628
 21
14.00609711830398
 31
0.0
 11
187.9482776335931
 21
14.05794001759663
 31
0.0
 11
188.2626334936289
 21
14.12373968771908
 31
0.0
 11
188.2626334936289
 21
14.15236628569623
 31
0.0
 11
188.2626334936289
 21
14.22908556827497
 31
0.0
 11
188.2626334936289
 21
14.34015676842629
 31
0.0
 11
188.2626334936289
 21
14.47183911912116
 31
0.0
 11
188.2626334936289
 21
14.61039185333054
 31
0.0
 11
188.2626334936289
 21
14.74207420402541
 31
0.0
 11
188.2626334936289
 21
14.85314540417673
 31
0.0
 11
188.2626334936289
 21
14.92986468675548
 31
0.0
 11
188.2626334936289
 21
14.95849128473262
 31
0.0
 11
188.2349191321108
 21
14.95849128473262
 31
0.0
 11
188.1634452524063
 21
14.95849128473262
 31
0.0
 11
188.06571566179
 21
14.95849128473262
 31
0.0
 11
187.9592341675364
 21
14.95849128473262
 31
0.0
 11
187.8615045769201
 21
14.95849128473262
 31
0.0
 11
187.7900306972156
 21
14.95849128473262
 31
0.0
 11
187.7623163356975
 21
14.95849128473262
 31
0.0
 11
187.7623163356975
 21
14.98524451823287
 31
0.0
 11
187.7623163356975
 21
15.04410163193342
 31
0.0
 11
187.7623163356975
 21
15.10295874563396
 31
0.0
 11
187.7623163356975
 21
15.12971197913421
 31
0.0
 11
187.7958758072874
 21
15.12971197913421
 31
0.0
 11
187.8869658016031
 21
15.12971197913421
 31
0.0
 11
188.0212036879629
 21
15.12971197913421
 31
0.0
 11
188.1842068356856
 21
15.12971197913421
 31
0.0
 11
188.3615926140897
 21
15.12971197913421
 31
0.0
 11
188.5389783924938
 21
15.12971197913421
 31
0.0
 11
188.7019815402164
 21
15.12971197913421
 31
0.0
 11
188.8362194265763
 21
15.12971197913421
 31
0.0
 11
188.9273094208918
 21
15.12971197913421
 31
0.0
 11
188.9608688924818
 21
15.12971197913421
 31
0.0
 11
188.9608688924818
 21
15.10295874563396
 31
0.0
 11
188.9608688924818
 21
15.04410163193342
 31
0.0
 11
188.9608688924818
 21
14.98524451823287
 31
0.0
 11
188.9608688924818
 21
14.95849128473262
 31
0.0
 11
188.9321192527877
 21
14.95849128473262
 31
0.0
 11
188.8579754451555
 21
14.95849128473262
 31
0.0
 11
188.7565951367604
 21
14.95849128473262
 31
0.0
 11
188.6461359947778
 21
14.95849128473262
 31
0.0
 11
188.5447556863827
 21
14.95849128473262
 31
0.0
 11
188.4706118787505
 21
14.95849128473262
 31
0.0
 11
188.4418622390564
 21
14.95849128473262
 31
0.0
  0
SPLINE
  5
A9
102
{ACAD_REACTORS
330
C6
102
}
330
48
100
AcDbEntity
  8
_U_30EC_U_30A4_U_30E4_U_30FC_1
  6
Continuous
 62
     2
100
AcDbSpline
210
0.0
220
0.0
230
1.0
 70
    11
 71
     3
 72
    91
 73
    87
 74
    85
 42
0.000000001
 43
0.0000000001
 44
0.00000001
 40
0.0
 40
0.0
 40
0.0
 40
0.0
 40
0.0345987051695718
 40
0.1258134969461369
 40
0.2547723404888987
 40
0.4026032099154125
 40
0.5504340793416704
 40
0.679392922883608
 40
0.7706077146571035
 40
0.8052064287780925
 40
1.124852390615279
 40
1.427402236308874
 40
1.706356627453512
 40
1.955541417875197
 40
2.169485938566342
 40
2.344350786664796
 40
2.480568411561947
 40
2.590440557428969
 40
2.649189927151123
 40
2.749320643306329
 40
2.912632739880035
 40
3.147745656000239
 40
3.244827496385136
 40
3.338490056946723
 40
3.583815413207161
 40
3.761423943238528
 40
3.886956104362692
 40
3.985855451886853
 40
4.091766255337738
 40
4.250186473811931
 40
4.422734315084577
 40
4.628285684838675
 40
4.872093227758509
 40
5.152549652145623
 40
5.464967135837603
 40
5.80320147785252
 40
6.160362988813993
 40
6.193449448276048
 40
6.284170385501702
 40
6.419718138764572
 40
6.587285046385822
 40
6.774063446723736
 40
6.967245678113719
 40
7.154024078817705
 40
7.321590987026091
 40
7.457138740890449
 40
7.547859678556185
 40
7.580946138182745
 40
7.608533084714799
 40
7.669224367077777
 40
7.729915649429997
 40
7.75750259595005
 40
7.790278062553504
 40
7.880146277431002
 40
8.014419963180465
 40
8.180411842397966
 40
8.365434637679435
 40
8.556801071622736
 40
8.741823866830849
 40
8.90781574591636
 40
9.042089431507513
 40
9.131957646249639
 40
9.164733112797215
 40
9.415425063140134
 40
9.667986180958613
 40
9.69416980746278
 40
9.75660768604774
 40
9.831130315322547
 40
9.89356819390001
 40
9.919751820398828
 40
9.950967964690655
 40
9.996421631210763
 40
10.22087981037465
 40
10.44341866197554
 40
10.47847970788866
 40
10.57091337438767
 40
10.70159545461241
 40
10.85140174170372
 40
11.00120802880489
 40
11.13189010907395
 40
11.22432377583023
 40
11.25938480938969
 40
11.28697175596157
 40
11.34766303835931
 40
11.40835432042082
 40
11.43594125892117
 40
11.43594125892117
 40
11.43594125892117
 40
11.43594125892117
 10
190.0818114333289
 20
15.55242795125074
 30
0.0
 10
190.0702785844941
 20
15.55242790287913
 30
0.0
 10
190.0283409444998
 20
15.5524277370416
 30
0.0
 10
189.9434129719026
 20
15.55243125800906
 30
0.0
 10
189.8207688553128
 20
15.55240926435875
 30
0.0
 10
189.6791206916993
 20
15.55250801177051
 30
0.0
 10
189.537975369849
 20
15.55214686232418
 30
0.0
 10
189.4141351317904
 20
15.55321883609086
 30
0.0
 10
189.3317217825382
 20
15.55092249091265
 30
0.0
 10
189.1727791229692
 20
15.56048569373417
 30
0.0
 10
189.3503402353376
 20
15.19785394311368
 30
0.0
 10
189.3379739205452
 20
14.95243127723111
 30
0.0
 10
189.4064519473864
 20
14.66862501324832
 30
0.0
 10
189.469302432097
 20
14.43250999939032
 30
0.0
 10
189.5452253431728
 20
14.23326740396126
 30
0.0
 10
189.6303189577016
 20
14.0774534745137
 30
0.0
 10
189.7244607592935
 20
13.97657857781389
 30
0.0
 10
189.8282648207727
 20
13.92465852638962
 30
0.0
 10
189.9125872030773
 20
13.97606484379614
 30
0.0
 10
189.9351322179452
 20
14.09144544037515
 30
0.0
 10
189.9745730975371
 20
14.21885149702377
 30
0.0
 10
189.9202919734941
 20
14.53622328086755
 30
0.0
 10
190.0451218072473
 20
14.38982180140902
 30
0.0
 10
190.2019291513603
 20
14.3579530033117
 30
0.0
 10
190.0947720007057
 20
14.12421357767625
 30
0.0
 10
190.0808711209867
 20
13.95972776583653
 30
0.0
 10
190.0234709467226
 20
13.8313086912248
 30
0.0
 10
189.9335020145008
 20
13.76018802352822
 30
0.0
 10
189.8095274657878
 20
13.7443232414225
 30
0.0
 10
189.663427319686
 20
13.77993797554167
 30
0.0
 10
189.5243894320284
 20
13.90000570500274
 30
0.0
 10
189.4102003962144
 20
14.07435682550317
 30
0.0
 10
189.3146141301486
 20
14.29946603111237
 30
0.0
 10
189.2318652572626
 20
14.56388246006439
 30
0.0
 10
189.1807179256411
 20
14.8818793309854
 30
0.0
 10
189.0770189207337
 20
15.15543728488909
 30
0.0
 10
189.2042841208523
 20
15.56005818612866
 30
0.0
 10
189.0357890623018
 20
15.55112367849675
 30
0.0
 10
188.9511995787077
 20
15.5531596141836
 30
0.0
 10
188.8189876387627
 20
15.55213937388403
 30
0.0
 10
188.6560505094104
 20
15.55253230318426
 30
0.0
 10
188.4733759170532
 20
15.55235696313365
 30
0.0
 10
188.2847057373383
 20
15.55260105307465
 30
0.0
 10
188.1014469020189
 20
15.55185657906233
 30
0.0
 10
187.9404746832718
 20
15.55416360522422
 30
0.0
 10
187.8029808335276
 20
15.5479980488366
 30
0.0
 10
187.728959037231
 20
15.56032838458208
 30
0.0
 10
187.6613215186857
 20
15.54329323723553
 30
0.0
 10
187.6732373719269
 20
15.59524438447525
 30
0.0
 10
187.6655677285694
 20
15.64071424966526
 30
0.0
 10
187.6732592225115
 20
15.68614453703702
 30
0.0
 10
187.6613141797762
 20
15.73802395984567
 30
0.0
 10
187.7283588305866
 20
15.72119143490261
 30
0.0
 10
187.8017375665676
 20
15.73335409092667
 30
0.0
 10
187.9379128305272
 20
15.72727231074956
 30
0.0
 10
188.0973811801512
 20
15.72954834315055
 30
0.0
 10
188.2789173085836
 20
15.72881233998959
 30
0.0
 10
188.4658034862179
 20
15.7290595419613
 30
0.0
 10
188.6468012316836
 20
15.72886400799251
 30
0.0
 10
188.8080802578878
 20
15.72932234714836
 30
0.0
 10
188.9393882124887
 20
15.72812673751203
 30
0.0
 10
189.0225051322596
 20
15.7305134731974
 30
0.0
 10
189.1556236547814
 20
15.7223060572546
 30
0.0
 10
189.0645893502659
 20
15.97752868952653
 30
0.0
 10
188.9789633074417
 20
16.24164358328245
 30
0.0
 10
189.0990589003456
 20
16.22904442969163
 30
0.0
 10
189.1514264948543
 20
16.22694235763073
 30
0.0
 10
189.2214497569715
 20
16.22535399889653
 30
0.0
 10
189.2671922337817
 20
16.2160256753811
 30
0.0
 10
189.3220812646933
 20
16.22545966915423
 30
0.0
 10
189.2963574785681
 20
16.1773302865517
 30
0.0
 10
189.1825397571453
 20
16.18266829744166
 30
0.0
 10
189.3159346621135
 20
15.95449174576774
 30
0.0
 10
189.1943658735471
 20
15.7215685659592
 30
0.0
 10
189.3223188769413
 20
15.73087258884436
 30
0.0
 10
189.4049048406461
 20
15.72801001754677
 30
0.0
 10
189.5307214850824
 20
15.72923437412299
 30
0.0
 10
189.6741469838057
 20
15.72932431888961
 30
0.0
 10
189.8157420951728
 20
15.7274616318385
 30
0.0
 10
189.9459127249967
 20
15.7333307593716
 30
0.0
 10
190.0193452286191
 20
15.720703408232
 30
0.0
 10
190.0891112922096
 20
15.73877563110409
 30
0.0
 10
190.0775772605396
 20
15.68612850546323
 30
0.0
 10
190.0833184346681
 20
15.64221317686544
 30
0.0
 10
190.0816615770911
 20
15.59089982676547
 30
0.0
 10
190.081775756167
 20
15.56158792021631
 30
0.0
 10
190.0818114333289
 20
15.55242795125074
 30
0.0
 11
190.0818114333289
 21
15.55242795125074
 31
0.0
 11
190.0472127192051
 21
15.55242795125074
 31
0.0
 11
189.9559979274241
 21
15.55242795125074
 31
0.0
 11
189.8270390838717
 21
15.55242795125074
 31
0.0
 11
189.6792082144335
 21
15.55242795125074
 31
0.0
 11
189.5313773449954
 21
15.55242795125074
 31
0.0
 11
189.402418501443
 21
15.55242795125074
 31
0.0
 11
189.311203709662
 21
15.55242795125074
 31
0.0
 11
189.2766049955382
 21
15.55242795125074
 31
0.0
 11
189.3083140497693
 21
15.23435864930118
 31
0.0
 11
189.3527866656865
 21
14.93509522788077
 31
0.0
 11
189.4092389118319
 21
14.66191269512573
 31
0.0
 11
189.4768868567478
 21
14.42208605917224
 31
0.0
 11
189.5549465689761
 21
14.22289032815651
 31
0.0
 11
189.6426341170591
 21
14.07160051021475
 31
0.0
 11
189.7391655695388
 21
13.97549161348314
 31
0.0
 11
189.8437569949575
 21
13.94183864609789
 31
0.0
 11
189.8943077302786
 21
13.97177376978832
 31
0.0
 11
189.9310588991551
 21
14.06491619815045
 31
0.0
 11
189.9562640977528
 21
14.22627151712052
 31
0.0
 11
189.9721769222368
 21
14.4608453126348
 31
0.0
 11
190.0494082682583
 21
14.40202182306615
 31
0.0
 11
190.1327184184385
 21
14.35921885432688
 31
0.0
 11
190.1066365811217
 21
14.11528388661007
 31
0.0
 11
190.0673317805105
 21
13.94207902887558
 31
0.0
 11
190.0105702596765
 21
13.83011272445913
 31
0.0
 11
189.932118261691
 21
13.76989341669642
 31
0.0
 11
189.8277420296256
 21
13.75192954892313
 31
0.0
 11
189.6738595065097
 21
13.78957440012357
 31
0.0
 11
189.5388902376747
 21
13.89707348877399
 31
0.0
 11
189.4221739916163
 21
14.06627361744805
 31
0.0
 11
189.32305053683
 21
14.2890215887194
 31
0.0
 11
189.2408596418113
 21
14.55716420516169
 31
0.0
 11
189.1749410750559
 21
14.86254826934857
 31
0.0
 11
189.1246346050593
 21
15.19702058385371
 31
0.0
 11
189.0892800003171
 21
15.55242795125074
 31
0.0
 11
189.0561935405844
 21
15.55242795125074
 31
0.0
 11
188.9654726026075
 21
15.55242795125074
 31
0.0
 11
188.8299248482185
 21
15.55242795125074
 31
0.0
 11
188.6623579392495
 21
15.55242795125074
 31
0.0
 11
188.4755795375324
 21
15.55242795125074
 31
0.0
 11
188.2823973048992
 21
15.55242795125074
 31
0.0
 11
188.0956189031822
 21
15.55242795125074
 31
0.0
 11
187.9280519942131
 21
15.55242795125074
 31
0.0
 11
187.7925042398241
 21
15.55242795125074
 31
0.0
 11
187.7017833018473
 21
15.55242795125074
 31
0.0
 11
187.6686968421145
 21
15.55242795125074
 31
0.0
 11
187.6686968421145
 21
15.58001489785843
 31
0.0
 11
187.6686968421145
 21
15.64070618039534
 31
0.0
 11
187.6686968421145
 21
15.70139746293226
 31
0.0
 11
187.6686968421145
 21
15.72898440953995
 31
0.0
 11
187.7014723087631
 21
15.72898440953995
 31
0.0
 11
187.7913405237673
 21
15.72898440953995
 31
0.0
 11
187.9256142097148
 21
15.72898440953995
 31
0.0
 11
188.0916060891932
 21
15.72898440953995
 31
0.0
 11
188.2766288847901
 21
15.72898440953995
 31
0.0
 11
188.4679953190932
 21
15.72898440953995
 31
0.0
 11
188.6530181146902
 21
15.72898440953995
 31
0.0
 11
188.8190099941685
 21
15.72898440953995
 31
0.0
 11
188.953283680116
 21
15.72898440953995
 31
0.0
 11
189.0431518951202
 21
15.72898440953995
 31
0.0
 11
189.0759273617688
 21
15.72898440953995
 31
0.0
 11
189.0659183950103
 21
15.97947647544955
 31
0.0
 11
189.0599112510663
 21
16.23196614552529
 31
0.0
 11
189.0860575870659
 21
16.2305692160812
 31
0.0
 11
189.1484065421419
 21
16.22723807663758
 31
0.0
 11
189.2228230369099
 21
16.22326220052747
 31
0.0
 11
189.2851719919859
 21
16.21993106108386
 31
0.0
 11
189.3113183279855
 21
16.21853413163976
 31
0.0
 11
189.298293111304
 21
16.19016528616077
 31
0.0
 11
189.2551649266405
 21
16.17581274276162
 31
0.0
 11
189.2574991961821
 21
15.95136670115105
 31
0.0
 11
189.2658452735903
 21
15.72898440953995
 31
0.0
 11
189.3009063195165
 21
15.72898440953995
 31
0.0
 11
189.3933399860495
 21
15.72898440953995
 31
0.0
 11
189.5240220663201
 21
15.72898440953995
 31
0.0
 11
189.6738283534596
 21
15.72898440953995
 31
0.0
 11
189.8236346405991
 21
15.72898440953995
 31
0.0
 11
189.9543167208697
 21
15.72898440953995
 31
0.0
 11
190.0467503874027
 21
15.72898440953995
 31
0.0
 11
190.0818114333289
 21
15.72898440953995
 31
0.0
 11
190.0818114333289
 21
15.70139746293226
 31
0.0
 11
190.0818114333289
 21
15.64070618039534
 31
0.0
 11
190.0818114333289
 21
15.58001489785843
 31
0.0
 11
190.0818114333289
 21
15.55242795125074
 31
0.0
  0
SPLINE
  5
AA
102
{ACAD_REACTORS
330
C7
102
}
330
48
100
AcDbEntity
  8
_U_30EC_U_30A4_U_30E4_U_30FC_1
  6
Continuous
 62
     2
100
AcDbSpline
210
0.0
220
0.0
230
1.0
 70
    11
 71
     3
 72
   118
 73
   114
 74
   112
 42
0.000000001
 43
0.0000000001
 44
0.00000001
 40
0.0
 40
0.0
 40
0.0
 40
0.0
 40
0.105470816297341
 40
0.2466098270051896
 40
0.3965912874591219
 40
0.5285525069753888
 40
0.6156245055642026
 40
0.6431434105797338
 40
0.7036850037986028
 40
0.7642265984504425
 40
0.7917455052354743
 40
0.9287404319989726
 40
1.106572819088023
 40
1.287544879681012
 40
1.317578308030529
 40
1.399928030857166
 40
1.522968204799942
 40
1.675072986590563
 40
1.844616533180642
 40
2.019973001638705
 40
2.189516548880017
 40
2.341621331585356
 40
2.46466150632049
 40
2.547011229647056
 40
2.57704465816802
 40
2.60379789089309
 40
2.662655002908777
 40
2.721512114949589
 40
2.748265347702769
 40
2.774215307344845
 40
2.845959313407175
 40
2.954338556588376
 40
3.090194227585555
 40
3.24436751710052
 40
3.40769961584428
 40
3.571031714539429
 40
3.725205003920109
 40
3.86106067472961
 40
3.969439917716303
 40
4.041183923628977
 40
4.06713388321297
 40
4.311886746012158
 40
4.547897258335524
 40
4.764747083043963
 40
4.952749679951766
 40
5.045772974195889
 40
5.137862019644976
 40
5.330543169793018
 40
5.553448265244009
 40
5.795083855888168
 40
6.043293412177232
 40
6.285761695541176
 40
6.313902908752659
 40
6.384255941793249
 40
6.475714884766838
 40
6.5671738277589
 40
6.637526860839678
 40
6.665668074074041
 40
6.692018920328016
 40
6.749990782071091
 40
6.807962643790463
 40
6.834313490017937
 40
6.856393084245216
 40
6.913335195649839
 40
6.991194817302503
 40
7.076026942283764
 40
7.153886563725255
 40
7.210828674844837
 40
7.232908268931173
 40
7.258199334923694
 40
7.32487578159234
 40
7.419142481924997
 40
7.527204308841934
 40
7.635266135230509
 40
7.729532834168495
 40
7.796209279292814
 40
7.82150034459476
 40
7.844652988850831
 40
7.899863140541609
 40
7.965759128053775
 40
8.020969279771059
 40
8.044121924046525
 40
8.069356610160618
 40
8.109134395441385
 40
8.132238100191097
 40
8.193147867786463
 40
8.279261678876635
 40
8.377977512673848
 40
8.47669334714663
 40
8.562807160411683
 40
8.62371693082647
 40
8.646820636853423
 40
8.671988793774236
 40
8.734909185828148
 40
8.816705695188862
 40
8.898502204815433
 40
8.961422597377894
 40
8.986590754551006
 40
9.012941600733162
 40
9.070913462380252
 40
9.128885324081748
 40
9.155236170325072
 40
9.180404327929114
 40
9.243324721948188
 40
9.32512123421198
 40
9.406917746637635
 40
9.46983814197809
 40
9.495006288270865
 40
9.517811184379006
 40
9.572192090487011
 40
9.637098333281244
 40
9.691479239515447
 40
9.714284125643486
 40
9.714284125643486
 40
9.714284125643486
 40
9.714284125643486
 10
185.2874469028653
 20
15.26889163187715
 30
0.0
 10
185.3090990569037
 20
15.24111869242807
 30
0.0
 10
185.3597257109473
 20
15.17618054561232
 30
0.0
 10
185.4349383202591
 20
15.06891060312893
 30
0.0
 10
185.5248482274346
 20
14.95377438266621
 30
0.0
 10
185.5709169676673
 20
14.85357045748316
 30
0.0
 10
185.6655825294655
 20
14.7843400681494
 30
0.0
 10
185.6204439320412
 20
14.73771639678272
 30
0.0
 10
185.594704778579
 20
14.69660308866037
 30
0.0
 10
185.5645196708012
 20
14.66065971727937
 30
0.0
 10
185.5193684730562
 20
14.58579782596092
 30
0.0
 10
185.4710504458562
 20
14.80782524253603
 30
0.0
 10
185.3968539713073
 20
14.84510677337708
 30
0.0
 10
185.2836047324606
 20
15.11610202130597
 30
0.0
 10
185.288513357817
 20
15.00095328446226
 30
0.0
 10
185.2868486556306
 20
14.92836675781624
 30
0.0
 10
185.2876830076713
 20
14.80625588483983
 30
0.0
 10
185.2873609540264
 20
14.65913800810458
 30
0.0
 10
185.2875076912455
 20
14.49307063956553
 30
0.0
 10
185.2872950092722
 20
14.32187554608599
 30
0.0
 10
185.2879497252034
 20
14.15552828635495
 30
0.0
 10
185.2859192461139
 20
14.0093517305569
 30
0.0
 10
185.291346039993
 20
13.88471047474608
 30
0.0
 10
185.2804930868708
 20
13.81718656540623
 30
0.0
 10
185.2956739155555
 20
13.7554906141702
 30
0.0
 10
185.2457895108134
 20
13.76727503896998
 30
0.0
 10
185.2017150342522
 20
13.75943822779966
 30
0.0
 10
185.15823716302
 20
13.767604413727
 30
0.0
 10
185.1092346786489
 20
13.75538056738465
 30
0.0
 10
185.1218731234825
 20
13.8096066724931
 30
0.0
 10
185.113018296845
 20
13.86936918907554
 30
0.0
 10
185.1175058770314
 20
13.97922029044368
 30
0.0
 10
185.115796013599
 20
14.11029975405676
 30
0.0
 10
185.1163550915987
 20
14.26198011444325
 30
0.0
 10
185.1161928768694
 20
14.42211074929951
 30
0.0
 10
185.1162269924674
 20
14.58236865674564
 30
0.0
 10
185.1162514960128
 20
14.73370247520437
 30
0.0
 10
185.1161453543224
 20
14.86582156338599
 30
0.0
 10
185.1164299141932
 20
14.97294802533192
 30
0.0
 10
185.1158675547567
 20
15.03808619579471
 30
0.0
 10
185.118076508369
 20
15.16618957858674
 30
0.0
 10
185.0319435998601
 20
14.79097610391572
 30
0.0
 10
184.9555140818499
 20
14.63918193123393
 30
0.0
 10
184.8660040767833
 20
14.47766206446304
 30
0.0
 10
184.7640413217327
 20
14.2047184882017
 30
0.0
 10
184.7187976491038
 20
14.36717346596508
 30
0.0
 10
184.6102355941671
 20
14.45605432058118
 30
0.0
 10
184.7995791751752
 20
14.60549794961406
 30
0.0
 10
184.8565340545701
 20
14.79749136974923
 30
0.0
 10
184.9717520993352
 20
15.02899622906754
 30
0.0
 10
184.9940151630132
 20
15.2179725975906
 30
0.0
 10
185.177190515214
 20
15.49454089325927
 30
0.0
 10
185.0538033597552
 20
15.48698978832091
 30
0.0
 10
184.9925684166834
 20
15.48856772366116
 30
0.0
 10
184.9081999617064
 20
15.48882592573669
 30
0.0
 10
184.8204235085966
 20
15.48544845751203
 30
0.0
 10
184.7656768696122
 20
15.49394814982016
 30
0.0
 10
184.7104703026025
 20
15.48048561049785
 30
0.0
 10
184.7222823035536
 20
15.52931442126761
 30
0.0
 10
184.7142496151794
 20
15.57269004896706
 30
0.0
 10
184.7228186104678
 20
15.61509438309571
 30
0.0
 10
184.7102943409157
 20
15.66267796552117
 30
0.0
 10
184.7555101538735
 20
15.65267212995107
 30
0.0
 10
184.8014815562723
 20
15.65894105174059
 30
0.0
 10
184.877722204771
 20
15.6559356140587
 30
0.0
 10
184.9561296131993
 20
15.65770448278539
 30
0.0
 10
185.0323992648932
 20
15.65464793981658
 30
0.0
 10
185.0783009459475
 20
15.66103971376175
 30
0.0
 10
185.1231733965399
 20
15.65093822978894
 30
0.0
 10
185.1105552275634
 20
15.70157201581897
 30
0.0
 10
185.1191936582707
 20
15.75501261882068
 30
0.0
 10
185.1152361595442
 20
15.84863255131678
 30
0.0
 10
185.1162325068335
 20
15.95112606688921
 30
0.0
 10
185.1171927413073
 20
16.0535327024816
 30
0.0
 10
185.1133211458005
 20
16.14735929609318
 30
0.0
 10
185.1217789814365
 20
16.2003654284035
 30
0.0
 10
185.1093075932835
 20
16.25211435651185
 30
0.0
 10
185.154210638985
 20
16.23850747226754
 30
0.0
 10
185.1955083836772
 20
16.24100480320582
 30
0.0
 10
185.259534428105
 20
16.23648060574485
 30
0.0
 10
185.2986111148786
 20
16.22781003043306
 30
0.0
 10
185.3476543498742
 20
16.23515102070684
 30
0.0
 10
185.3225080030591
 20
16.19602896051754
 30
0.0
 10
185.2815901333723
 20
16.20563842455806
 30
0.0
 10
185.2910109616604
 20
16.15540148169776
 30
0.0
 10
185.2855647318746
 20
16.10385945639488
 30
0.0
 10
185.2881699601803
 20
16.01959707584518
 30
0.0
 10
185.2870102202153
 20
15.92559135583406
 30
0.0
 10
185.2883591064231
 20
15.83196865395523
 30
0.0
 10
185.2849970101509
 20
15.74679517552221
 30
0.0
 10
185.2920959917769
 20
15.69716856072042
 30
0.0
 10
185.2812569154545
 20
15.64993694969987
 30
0.0
 10
185.3304010225245
 20
15.6620167493685
 30
0.0
 10
185.3794877630147
 20
15.65447393363009
 30
0.0
 10
185.4573714280641
 20
15.65686070361431
 30
0.0
 10
185.5350365172896
 20
15.65899381905412
 30
0.0
 10
185.5845393931355
 20
15.65193391922453
 30
0.0
 10
185.6344594750639
 20
15.66360151936212
 30
0.0
 10
185.6223198516881
 20
15.6154023537139
 30
0.0
 10
185.6305838229144
 20
15.57249219801233
 30
0.0
 10
185.6223198650783
 20
15.52958201851382
 30
0.0
 10
185.6344594549855
 20
15.48138288754862
 30
0.0
 10
185.5845395158746
 20
15.49305034471507
 30
0.0
 10
185.5350350651202
 20
15.48599202435042
 30
0.0
 10
185.4573784382973
 20
15.488116652286
 30
0.0
 10
185.379464386576
 20
15.49053389365757
 30
0.0
 10
185.3304500352716
 20
15.48291848194482
 30
0.0
 10
185.2813246108943
 20
15.49507952557589
 30
0.0
 10
185.2915559988571
 20
15.45073013424155
 30
0.0
 10
185.2856677678053
 20
15.40925436202908
 30
0.0
 10
185.2878788305569
 20
15.34915394315299
 30
0.0
 10
185.2874109346146
 20
15.30225782762884
 30
0.0
 10
185.2874386992913
 20
15.27650146418192
 30
0.0
 10
185.2874469028653
 20
15.26889163187715
 30
0.0
 11
185.2874469028653
 21
15.26889163187715
 31
0.0
 11
185.3516977534484
 21
15.18524999634252
 31
0.0
 11
185.4348258835499
 21
15.07118889748217
 31
0.0
 11
185.5216831568896
 21
14.94891767195719
 31
0.0
 11
185.5971214371872
 21
14.84064565642873
 31
0.0
 11
185.6459925881626
 21
14.76858218755788
 31
0.0
 11
185.6296821285093
 21
14.74641782124397
 31
0.0
 11
185.5937991172719
 21
14.69765621535338
 31
0.0
 11
185.5579161060346
 21
14.64889460946278
 31
0.0
 11
185.5416056463813
 21
14.62673024314887
 31
0.0
 11
185.4763067109446
 21
14.74716139023811
 31
0.0
 11
185.3848434243234
 21
14.89966983670205
 31
0.0
 11
185.2874469028653
 21
15.05219788193139
 31
0.0
 11
185.2874469028653
 21
15.0221644532825
 31
0.0
 11
185.2874469028653
 21
14.9398147295678
 31
0.0
 11
185.2874469028653
 21
14.81677455413525
 31
0.0
 11
185.2874469028653
 21
14.6646697703328
 31
0.0
 11
185.2874469028653
 21
14.49512622150842
 31
0.0
 11
185.2874469028653
 21
14.31976975101006
 31
0.0
 11
185.2874469028653
 21
14.15022620218568
 31
0.0
 11
185.2874469028653
 21
13.99812141838323
 31
0.0
 11
185.2874469028653
 21
13.87508124295068
 31
0.0
 11
185.2874469028653
 21
13.79273151923598
 31
0.0
 11
185.2874469028653
 21
13.76269809058709
 31
0.0
 11
185.2606936700409
 21
13.76269809058709
 31
0.0
 11
185.2018365578272
 21
13.76269809058709
 31
0.0
 11
185.1429794456134
 21
13.76269809058709
 31
0.0
 11
185.116226212789
 21
13.76269809058709
 31
0.0
 11
185.116226212789
 21
13.78864805031247
 31
0.0
 11
185.116226212789
 21
13.86039205661205
 31
0.0
 11
185.116226212789
 21
13.96877130017099
 31
0.0
 11
185.116226212789
 21
14.10462697167445
 31
0.0
 11
185.116226212789
 21
14.25880026180758
 31
0.0
 11
185.116226212789
 21
14.42213236125556
 31
0.0
 11
185.116226212789
 21
14.58546446070354
 31
0.0
 11
185.116226212789
 21
14.73963775083668
 31
0.0
 11
185.116226212789
 21
14.87549342234013
 31
0.0
 11
185.116226212789
 21
14.98387266589907
 31
0.0
 11
185.116226212789
 21
15.05561667219865
 31
0.0
 11
185.116226212789
 21
15.08156663192403
 31
0.0
 11
185.0379865861721
 21
14.8496560330237
 31
0.0
 11
184.9497110789303
 21
14.63077616328676
 31
0.0
 11
184.8544106930045
 21
14.43598991333545
 31
0.0
 11
184.7550964303356
 21
14.276360173792
 31
0.0
 11
184.7109198342406
 21
14.35822446196597
 31
0.0
 11
184.658805738348
 21
14.43414885430809
 31
0.0
 11
184.7627302590299
 21
14.59640087926754
 31
0.0
 11
184.8629319864735
 21
14.79551465421778
 31
0.0
 11
184.9550446607901
 21
15.01890447916193
 31
0.0
 11
185.0347020220912
 21
15.25398465410317
 31
0.0
 11
185.097537810488
 21
15.48816947904462
 31
0.0
 11
185.0693965972142
 21
15.48816947904462
 31
0.0
 11
184.9990435640297
 21
15.48816947904462
 31
0.0
 11
184.9075846208898
 21
15.48816947904462
 31
0.0
 11
184.8161256777499
 21
15.48816947904462
 31
0.0
 11
184.7457726445654
 21
15.48816947904462
 31
0.0
 11
184.7176314312916
 21
15.48816947904462
 31
0.0
 11
184.7176314312916
 21
15.51452032539219
 31
0.0
 11
184.7176314312916
 21
15.57249218735686
 31
0.0
 11
184.7176314312916
 21
15.63046404932153
 31
0.0
 11
184.7176314312916
 21
15.6568148956691
 31
0.0
 11
184.739711025602
 21
15.6568148956691
 31
0.0
 11
184.7966531372444
 21
15.6568148956691
 31
0.0
 11
184.8745127592862
 21
15.6568148956691
 31
0.0
 11
184.9593448847944
 21
15.6568148956691
 31
0.0
 11
185.0372045068361
 21
15.6568148956691
 31
0.0
 11
185.0941466184786
 21
15.6568148956691
 31
0.0
 11
185.116226212789
 21
15.6568148956691
 31
0.0
 11
185.116226212789
 21
15.68210596174351
 31
0.0
 11
185.116226212789
 21
15.74878240866695
 31
0.0
 11
185.116226212789
 21
15.84304910948974
 31
0.0
 11
185.116226212789
 21
15.95111093726221
 31
0.0
 11
185.116226212789
 21
16.05917276503468
 31
0.0
 11
185.116226212789
 21
16.15343946585748
 31
0.0
 11
185.116226212789
 21
16.22011591278092
 31
0.0
 11
185.116226212789
 21
16.24540697885533
 31
0.0
 11
185.1393181988665
 21
16.24373213107797
 31
0.0
 11
185.1943837041284
 21
16.23973826330118
 31
0.0
 11
185.2601070491184
 21
16.23497138885793
 31
0.0
 11
185.3151725543802
 21
16.23097752108114
 31
0.0
 11
185.3382645404578
 21
16.22930267330378
 31
0.0
 11
185.3249012644362
 21
16.20789677921188
 31
0.0
 11
185.2874469028653
 21
16.19450114553467
 31
0.0
 11
185.2874469028653
 21
16.17139743948576
 31
0.0
 11
185.2874469028653
 21
16.11048766899317
 31
0.0
 11
185.2874469028653
 21
16.02437385553814
 31
0.0
 11
185.2874469028653
 21
15.92565802060188
 31
0.0
 11
185.2874469028653
 21
15.82694218566563
 31
0.0
 11
185.2874469028653
 21
15.7408283722106
 31
0.0
 11
185.2874469028653
 21
15.67991860171801
 31
0.0
 11
185.2874469028653
 21
15.6568148956691
 31
0.0
 11
185.3126150604809
 21
15.6568148956691
 31
0.0
 11
185.3755354545199
 21
15.6568148956691
 31
0.0
 11
185.4573319667706
 21
15.6568148956691
 31
0.0
 11
185.5391284790212
 21
15.6568148956691
 31
0.0
 11
185.6020488730602
 21
15.6568148956691
 31
0.0
 11
185.6272170306758
 21
15.6568148956691
 31
0.0
 11
185.6272170306758
 21
15.63046404932153
 31
0.0
 11
185.6272170306758
 21
15.57249218735686
 31
0.0
 11
185.6272170306758
 21
15.5145203253922
 31
0.0
 11
185.6272170306758
 21
15.48816947904462
 31
0.0
 11
185.6020488730602
 21
15.48816947904462
 31
0.0
 11
185.5391284790212
 21
15.48816947904462
 31
0.0
 11
185.4573319667705
 21
15.48816947904462
 31
0.0
 11
185.3755354545199
 21
15.48816947904462
 31
0.0
 11
185.3126150604809
 21
15.48816947904462
 31
0.0
 11
185.2874469028653
 21
15.48816947904462
 31
0.0
 11
185.2874469028653
 21
15.46536458293921
 31
0.0
 11
185.2874469028653
 21
15.41098367684167
 31
0.0
 11
185.2874469028653
 21
15.3460774340801
 31
0.0
 11
185.2874469028653
 21
15.29169652798257
 31
0.0
 11
185.2874469028653
 21
15.26889163187715
 31
0.0
  0
SPLINE
  5
AB
102
{ACAD_REACTORS
330
C8
102
}
330
48
100
AcDbEntity
  8
_U_30EC_U_30A4_U_30E4_U_30FC_1
  6
Continuous
 62
     2
100
AcDbSpline
210
0.0
220
0.0
230
1.0
 70
    11
 71
     3
 72
    47
 73
    43
 74
    41
 42
0.000000001
 43
0.0000000001
 44
0.00000001
 40
0.0
 40
0.0
 40
0.0
 40
0.0
 40
0.220791280995723
 40
0.4459404186302953
 40
0.4902387190459152
 40
0.5327473892722129
 40
0.574226045122544
 40
0.6155432630560735
 40
0.6568164066315656
 40
0.6982511618780567
 40
0.7407663929317099
 40
0.7851366743175143
 40
1.010288833836303
 40
1.231080507002155
 40
1.451765243652378
 40
1.676638205891679
 40
1.720461045359649
 40
1.83001814404351
 40
1.972442372353134
 40
2.114866600677498
 40
2.224423699395121
 40
2.268246538883359
 40
2.493628801207195
 40
2.715602830286592
 40
2.93421133070635
 40
3.149502369855357
 40
3.231387784851003
 40
3.318231873854038
 40
3.405143198198026
 40
3.486970301720463
 40
3.702258172493918
 40
3.920866283534154
 40
4.14283932593194
 40
4.368221903865408
 40
4.412044743359886
 40
4.521601842095897
 40
4.664026070452373
 40
4.806450298809075
 40
4.916007397546764
 40
4.959830237043086
 40
5.184703515847135
 40
5.405387250767505
 40
5.405387250767505
 40
5.405387250767505
 40
5.405387250767505
 10
182.6507427258645
 20
15.73406440953869
 30
0.0
 10
182.6568139420002
 20
15.79758482501207
 30
0.0
 10
182.6690762107242
 20
15.92587938689624
 30
0.0
 10
182.5604706879412
 20
16.2016622017407
 30
0.0
 10
182.6761985896604
 20
16.17188133432051
 30
0.0
 10
182.7171842509015
 20
16.16765556262814
 30
0.0
 10
182.7591205797518
 20
16.16310446389605
 30
0.0
 10
182.800419662571
 20
16.1620198292948
 30
0.0
 10
182.8417032115555
 20
16.16310338195225
 30
0.0
 10
182.8836148270647
 20
16.16766112711338
 30
0.0
 10
182.9245983549019
 20
16.17187430209726
 30
0.0
 10
183.0404922843489
 20
16.20177611317526
 30
0.0
 10
182.9295652727456
 20
15.92339806609887
 30
0.0
 10
182.9574856365267
 20
15.7428314082495
 30
0.0
 10
182.940426734697
 20
15.50961042346468
 30
0.0
 10
182.9414637282103
 20
15.34906622543143
 30
0.0
 10
182.9414099399404
 20
15.22284817558717
 30
0.0
 10
182.9414277372481
 20
15.12428963336238
 30
0.0
 10
182.941418858108
 20
14.9928070244296
 30
0.0
 10
182.9414263928034
 20
14.86132844968647
 30
0.0
 10
182.9414129405127
 20
14.76276222694088
 30
0.0
 10
182.9414531717493
 20
14.6363973562415
 30
0.0
 10
182.9406746403816
 20
14.47482068822867
 30
0.0
 10
182.9565958319267
 20
14.24361821892912
 30
0.0
 10
182.9333468885407
 20
14.05874351971999
 30
0.0
 10
183.0360183444366
 20
13.7893560277005
 30
0.0
 10
182.8820238362836
 20
13.82660112685814
 30
0.0
 10
182.8004129802832
 20
13.82137994680529
 30
0.0
 10
182.7188192292583
 20
13.82660620378348
 30
0.0
 10
182.5648513666842
 20
13.78937069885381
 30
0.0
 10
182.6674183421917
 20
14.05875129862878
 30
0.0
 10
182.6442045316087
 20
14.24361585325411
 30
0.0
 10
182.6600444655139
 20
14.47482218565636
 30
0.0
 10
182.6593296313426
 20
14.636397123085
 30
0.0
 10
182.6593664569907
 20
14.76276231210518
 30
0.0
 10
182.659354900027
 20
14.86132756635979
 30
0.0
 10
182.6593575019214
 20
14.99281127417216
 30
0.0
 10
182.6593648531779
 20
15.12427548031196
 30
0.0
 10
182.6593442541351
 20
15.22287786275322
 30
0.0
 10
182.6594082192028
 20
15.34896149354424
 30
0.0
 10
182.658173394759
 20
15.51210091383768
 30
0.0
 10
182.6532040396745
 20
15.66054183777547
 30
0.0
 10
182.6507427258645
 20
15.73406440953869
 30
0.0
 11
182.6507427258645
 21
15.73406440953869
 31
0.0
 11
182.6417328200379
 21
15.95467178795574
 31
0.0
 11
182.6318769706146
 21
16.17960510387175
 31
0.0
 11
182.6756985840801
 21
16.17312391463726
 31
0.0
 11
182.7178400934215
 21
16.1675489233192
 31
0.0
 11
182.759137140979
 21
16.16367167505627
 31
0.0
 11
182.8004341885365
 21
16.16238072887603
 31
0.0
 11
182.841687138873
 21
16.16367167505627
 31
0.0
 11
182.8829400892097
 21
16.1675489233192
 31
0.0
 11
182.9250882131343
 21
16.17312391463726
 31
0.0
 11
182.9689825870145
 21
16.17960510387175
 31
0.0
 11
182.9590577693891
 21
15.95467178795574
 31
0.0
 11
182.950038420831
 21
15.73406440953869
 31
0.0
 11
182.9435638463435
 21
15.51347467001052
 31
0.0
 11
182.9414218238286
 21
15.28861190965003
 31
0.0
 11
182.9414218238286
 21
15.24478907015482
 31
0.0
 11
182.9414218238286
 21
15.13523197141678
 31
0.0
 11
182.9414218238286
 21
14.99280774305734
 31
0.0
 11
182.9414218238286
 21
14.8503835146979
 31
0.0
 11
182.9414218238286
 21
14.74082641595986
 31
0.0
 11
182.9414218238286
 21
14.69700357646465
 31
0.0
 11
182.9435638463435
 21
14.47163149318764
 31
0.0
 11
182.950038420831
 21
14.24975190990978
 31
0.0
 11
182.9590577693891
 21
14.03132954885326
 31
0.0
 11
182.9689825870145
 21
13.81626739612923
 31
0.0
 11
182.887261616877
 21
13.82145433189182
 31
0.0
 11
182.8004341885365
 21
13.82315538223858
 31
0.0
 11
182.7135395119339
 21
13.82145433189182
 31
0.0
 11
182.6318769706146
 21
13.81626739612923
 31
0.0
 11
182.6417328200379
 21
14.03132954885326
 31
0.0
 11
182.6507427258645
 21
14.24975190990978
 31
0.0
 11
182.6571833838798
 21
14.47163149318764
 31
0.0
 11
182.6593583588023
 21
14.69700357646465
 31
0.0
 11
182.6593583588023
 21
14.74082641595986
 31
0.0
 11
182.6593583588023
 21
14.8503835146979
 31
0.0
 11
182.6593583588023
 21
14.99280774305734
 31
0.0
 11
182.6593583588023
 21
15.13523197141678
 31
0.0
 11
182.6593583588023
 21
15.24478907015482
 31
0.0
 11
182.6593583588023
 21
15.28861190965003
 31
0.0
 11
182.6571833838798
 21
15.51347467001052
 31
0.0
 11
182.6507427258645
 21
15.73406440953869
 31
0.0
  0
SPLINE
  5
AC
102
{ACAD_REACTORS
330
C9
102
}
330
48
100
AcDbEntity
  8
_U_30EC_U_30A4_U_30E4_U_30FC_1
  6
Continuous
 62
     2
100
AcDbSpline
210
0.0
220
0.0
230
1.0
 70
    11
 71
     3
 72
   110
 73
   106
 74
   104
 42
0.000000001
 43
0.0000000001
 44
0.00000001
 40
0.0
 40
0.0
 40
0.0
 40
0.0
 40
0.2203406257277826
 40
0.4407808782838109
 40
0.5952494494615082
 40
0.7488431659393092
 40
0.9023581831309073
 40
1.056801968670406
 40
1.210736449099906
 40
1.363041386539784
 40
1.515315729683128
 40
1.669377239148078
 40
1.721611652756558
 40
1.773199502942938
 40
1.824933793209984
 40
1.877110426487961
 40
1.982682281206724
 40
2.078781667087533
 40
2.172809640822255
 40
2.271937807378908
 40
2.378349933379301
 40
2.49413155773649
 40
2.626681683943623
 40
2.783145050796051
 40
2.890701232940906
 40
2.9931303124548
 40
3.09986973069178
 40
3.220237816691271
 40
3.352695482737562
 40
3.481732806389822
 40
3.593499473690349
 40
3.674323013331858
 40
3.817951711952807
 40
3.946167120793805
 40
4.06140505345349
 40
4.166480796003131
 40
4.262478775059169
 40
4.350736673551124
 40
4.43307199125401
 40
4.511216293814613
 40
4.564262454117935
 40
4.618474415571557
 40
4.67012848875416
 40
4.722296879126369
 40
4.819540945314239
 40
4.931194984128097
 40
5.049996040257739
 40
5.168643755415284
 40
5.283970811762496
 40
5.392260784910321
 40
5.486512254876396
 40
5.559178233949795
 40
5.591425852853471
 40
5.626215969637849
 40
5.667155838674402
 40
5.717449290214222
 40
5.738402360944831
 40
5.784499116553792
 40
5.830595872164754
 40
5.851548942897609
 40
5.873019280661722
 40
5.924217778408264
 40
5.985325662817639
 40
6.036524160567651
 40
6.057994498334179
 40
6.236847789607444
 40
6.381409928945624
 40
6.493190424178644
 40
6.574067534230473
 40
6.691018086205567
 40
6.814881554220484
 40
6.944307823240437
 40
7.07126671606606
 40
7.193488604461905
 40
7.309042773128132
 40
7.414007203170759
 40
7.505140441886513
 40
7.531150360599658
 40
7.559221645322237
 40
7.587202218920899
 40
7.612569159499128
 40
7.662550809480996
 40
7.702878875764134
 40
7.857328205230949
 40
8.010799568088594
 40
8.165256399657544
 40
8.322232698713883
 40
8.47956485501657
 40
8.635216230290773
 40
8.79088255092569
 40
8.948305154947256
 40
9.168271839032961
 40
9.387358980987218
 40
9.608047961033469
 40
9.83291423479268
 40
9.858338694963015
 40
9.925366817230023
 40
10.0201307142276
 40
10.12876249858999
 40
10.23739428295249
 40
10.33215817995191
 40
10.39918630222394
 40
10.42461076239783
 40
10.64992019336943
 40
10.87188524531186
 40
10.87188524531186
 40
10.87188524531186
 40
10.87188524531186
 10
179.9057788376618
 20
15.73923260398186
 30
0.0
 10
179.9092864933542
 20
15.806164620738
 30
0.0
 10
179.9163033987663
 20
15.94005891915855
 30
0.0
 10
179.8198027599072
 20
16.22548554971464
 30
0.0
 10
180.0510134726108
 20
16.16284386190282
 30
0.0
 10
180.1919290057156
 20
16.17001554055985
 30
0.0
 10
180.3490417757588
 20
16.16235883078243
 30
0.0
 10
180.5025913427287
 20
16.16252752283035
 30
0.0
 10
180.6545104935081
 20
16.1618204053543
 30
0.0
 10
180.8142214813231
 20
16.17210158351633
 30
0.0
 10
180.9408972601117
 20
16.15496511080749
 30
0.0
 10
181.1370821122081
 20
16.22727260107142
 30
0.0
 10
181.1034395279078
 20
16.12640699080114
 30
0.0
 10
181.1052011317184
 20
16.07619253947668
 30
0.0
 10
181.1027342073457
 20
16.02712335586463
 30
0.0
 10
181.1347076966011
 20
15.94063490846997
 30
0.0
 10
181.0010399903256
 20
15.98997438608334
 30
0.0
 10
180.9172208688056
 20
15.98430634314164
 30
0.0
 10
180.8173861139324
 20
15.99465516706296
 30
0.0
 10
180.7186576720146
 20
16.00086450411084
 30
0.0
 10
180.612153277111
 20
16.00697763816774
 30
0.0
 10
180.4910511698059
 20
16.01588883484584
 30
0.0
 10
180.3703381502453
 20
16.00521605912379
 30
0.0
 10
180.1812553843437
 20
16.06468503080364
 30
0.0
 10
180.2129028505311
 20
15.90558320077537
 30
0.0
 10
180.1995563316833
 20
15.80839128339902
 30
0.0
 10
180.197495842645
 20
15.69634065110101
 30
0.0
 10
180.195818804467
 20
15.57699685629348
 30
0.0
 10
180.1973336794233
 20
15.45032592155108
 30
0.0
 10
180.195658247867
 20
15.32301588016114
 30
0.0
 10
180.2058844271657
 20
15.22451566404461
 30
0.0
 10
180.1779006596583
 20
15.08388702625628
 30
0.0
 10
180.3508029999304
 20
15.13989551134091
 30
0.0
 10
180.4645020202772
 20
15.12719951478496
 30
0.0
 10
180.5840151672239
 20
15.13448377051252
 30
0.0
 10
180.6888491425071
 20
15.13878017056752
 30
0.0
 10
180.7843084898612
 20
15.14330568258975
 30
0.0
 10
180.8763823507032
 20
15.15149201146195
 30
0.0
 10
180.9476551782438
 20
15.14643850638109
 30
0.0
 10
181.0544931705685
 20
15.18536425031672
 30
0.0
 10
181.0226603598036
 20
15.10517122005877
 30
0.0
 10
181.0266164503929
 20
15.05562936846031
 30
0.0
 10
181.0234502392013
 20
15.00557478039816
 30
0.0
 10
181.0550791490584
 20
14.92128847612018
 30
0.0
 10
180.9210133677691
 20
14.97425365495155
 30
0.0
 10
180.82923227932
 20
14.96540080890439
 30
0.0
 10
180.7079729189603
 20
14.97570049965152
 30
0.0
 10
180.5914113119771
 20
14.97748911767497
 30
0.0
 10
180.4783375745879
 20
14.97787017109691
 30
0.0
 10
180.3679246308471
 20
14.98415449472177
 30
0.0
 10
180.289812406784
 20
14.9718913325536
 30
0.0
 10
180.1913625833644
 20
15.00453887616124
 30
0.0
 10
180.2012355173561
 20
14.94769748054204
 30
0.0
 10
180.1973923244402
 20
14.91392130557981
 30
0.0
 10
180.1966789884269
 20
14.87119604709408
 30
0.0
 10
180.1963369642975
 20
14.83401607262149
 30
0.0
 10
180.1963834255346
 20
14.79487237370767
 30
0.0
 10
180.1963649429927
 20
14.75716849497683
 30
0.0
 10
180.1963703431806
 20
14.719449552324
 30
0.0
 10
180.19636972142
 20
14.68994324745147
 30
0.0
 10
180.1963698151545
 20
14.65873577699299
 30
0.0
 10
180.1963704287921
 20
14.61414424908083
 30
0.0
 10
180.1963671499337
 20
14.5596395650885
 30
0.0
 10
180.196375962348
 20
14.51505540201446
 30
0.0
 10
180.1963359653419
 20
14.43117808585739
 30
0.0
 10
180.1976024270253
 20
14.31737520677675
 30
0.0
 10
180.1950274117843
 20
14.16830395933707
 30
0.0
 10
180.2065009381719
 20
14.06597203813902
 30
0.0
 10
180.1823506222264
 20
13.9333890388583
 30
0.0
 10
180.3332993946476
 20
13.97895732272017
 30
0.0
 10
180.4428436671556
 20
13.96427012162345
 30
0.0
 10
180.573397047392
 20
13.9692043512506
 30
0.0
 10
180.6990312209513
 20
13.97257705323357
 30
0.0
 10
180.8188730625601
 20
13.9771149749877
 30
0.0
 10
180.9391362611426
 20
13.99048536182
 30
0.0
 10
181.0222761663515
 20
13.98068712782593
 30
0.0
 10
181.1456080421075
 20
14.04126214623315
 30
0.0
 10
181.1244269203956
 20
13.98532460134018
 30
0.0
 10
181.1235950270117
 20
13.95939249372344
 30
0.0
 10
181.1218963707558
 20
13.93197256190936
 30
0.0
 10
181.121797488883
 20
13.89738195206382
 30
0.0
 10
181.1203659301329
 20
13.86050408220763
 30
0.0
 10
181.153280419219
 20
13.76846841021803
 30
0.0
 10
180.9551306988107
 20
13.84132015974829
 30
0.0
 10
180.8300548294891
 20
13.81825726508601
 30
0.0
 10
180.6673071295156
 20
13.82454021985781
 30
0.0
 10
180.5129366450001
 20
13.82260943909922
 30
0.0
 10
180.3566670436943
 20
13.82393762599264
 30
0.0
 10
180.1970544465282
 20
13.82059872487858
 30
0.0
 10
180.0540326342237
 20
13.83265795728237
 30
0.0
 10
179.8197144881628
 20
13.76952001976913
 30
0.0
 10
179.9173810751197
 20
14.05620527466314
 30
0.0
 10
179.9006868780059
 20
14.24988308142657
 30
0.0
 10
179.9146296709684
 20
14.47848242880292
 30
0.0
 10
179.9142987846632
 20
14.63384593955046
 30
0.0
 10
179.9143078119263
 20
14.73966336444123
 30
0.0
 10
179.9143055876316
 20
14.80205784124212
 30
0.0
 10
179.9143065551889
 20
14.89220425248325
 30
0.0
 10
179.9143065473261
 20
14.99621167157436
 30
0.0
 10
179.9143053861102
 20
15.10022131375293
 30
0.0
 10
179.9143090971502
 20
15.19036243688765
 30
0.0
 10
179.9143011051052
 20
15.25276803097212
 30
0.0
 10
179.9143334275018
 20
15.35868835961116
 30
0.0
 10
179.9131440788319
 20
15.51626716544737
 30
0.0
 10
179.9082216489256
 20
15.66528219822062
 30
0.0
 10
179.9057788376618
 20
15.73923260398186
 30
0.0
 11
179.9057788376618
 21
15.73923260398186
 31
0.0
 11
179.896691822374
 21
15.95938578101014
 31
0.0
 11
179.8868249573133
 21
16.17960510387175
 31
0.0
 11
180.04115751414
 21
16.17312391463726
 31
0.0
 11
180.1946500189046
 21
16.1675489233192
 31
0.0
 11
180.3481160653366
 21
16.16367167505627
 31
0.0
 11
180.5025544554939
 21
16.16238072887603
 31
0.0
 11
180.6564835227473
 21
16.16367167505627
 31
0.0
 11
180.80873910046
 21
16.1675489233192
 31
0.0
 11
180.9609113551074
 21
16.17312391463726
 31
0.0
 11
181.1148364762483
 21
16.17960510387175
 31
0.0
 11
181.1070811703123
 21
16.12794961777355
 31
0.0
 11
181.1044991623591
 21
16.07642642334201
 31
0.0
 11
181.1070811703123
 21
16.02475660564657
 31
0.0
 11
181.1148364762483
 21
15.97315954836782
 31
0.0
 11
181.0094874054411
 21
15.98001446156055
 31
0.0
 11
180.913637570006
 21
15.98693552058654
 31
0.0
 11
180.8198593171903
 21
15.99378381919596
 31
0.0
 11
180.7209679915881
 21
16.00063211780537
 31
0.0
 11
180.6147532199924
 21
16.00710999974821
 31
0.0
 11
180.4991060528038
 21
16.01268829835792
 31
0.0
 11
180.3666126447258
 21
16.01656554662085
 31
0.0
 11
180.2101546018423
 21
16.01785649280109
 31
0.0
 11
180.2062663293721
 21
15.91037061609184
 31
0.0
 11
180.20153800484
 21
15.80805072896462
 31
0.0
 11
180.1976607566749
 21
15.70138175329685
 31
0.0
 11
180.1963698105272
 21
15.58102059013248
 31
0.0
 11
180.1967799146836
 21
15.44856355891562
 31
0.0
 11
180.1980896021502
 21
15.31953288186452
 31
0.0
 11
180.1994074577049
 21
15.20777398432306
 31
0.0
 11
180.199819115366
 21
15.12695149302382
 31
0.0
 11
180.3434452935874
 21
15.12780256941247
 31
0.0
 11
180.4716343930758
 21
15.13039989580074
 31
0.0
 11
180.5868078221795
 21
15.13425509545251
 31
0.0
 11
180.691775631222
 21
15.13901649302073
 31
0.0
 11
180.7876346289421
 21
15.14418027774173
 31
0.0
 11
180.8757413374193
 21
15.14934406246263
 31
0.0
 11
180.9578881438496
 21
15.15491243919736
 31
0.0
 11
181.0357692335571
 21
15.16132086801522
 31
0.0
 11
181.0280180445186
 21
15.10884407115334
 31
0.0
 11
181.0254328449317
 21
15.05469378470855
 31
0.0
 11
181.0280180445186
 21
15.00310444444364
 31
0.0
 11
181.0357692335571
 21
14.95151510417878
 31
0.0
 11
180.9389813454014
 21
14.96092324653754
 31
0.0
 11
180.8275950722015
 21
14.9686512847301
 31
0.0
 11
180.7089261429373
 21
14.97425273438143
 31
0.0
 11
180.5903167449213
 21
14.97726788195007
 31
0.0
 11
180.4750025117521
 21
14.97898767361634
 31
0.0
 11
180.36672619507
 21
14.98070746528254
 31
0.0
 11
180.2724839317708
 21
14.98202486979614
 31
0.0
 11
180.199819115366
 21
14.98243607639327
 31
0.0
 11
180.199407457705
 21
14.95019108508188
 31
0.0
 11
180.1980896021502
 21
14.91542593752115
 31
0.0
 11
180.1967799146836
 21
14.87450702260081
 31
0.0
 11
180.1963698105272
 21
14.82421524309947
 31
0.0
 11
180.1963698105272
 21
14.80326217235818
 31
0.0
 11
180.1963698105272
 21
14.75716541672733
 31
0.0
 11
180.1963698105272
 21
14.71106866109648
 31
0.0
 11
180.1963698105272
 21
14.69011559035519
 31
0.0
 11
180.1963698105272
 21
14.66864525258278
 31
0.0
 11
180.1963698105272
 21
14.61744675481782
 31
0.0
 11
180.1963698105272
 21
14.55633887038866
 31
0.0
 11
180.1963698105272
 21
14.5051403726237
 31
0.0
 11
180.1963698105272
 21
14.48367003485129
 31
0.0
 11
180.1967799146836
 21
14.30481721371545
 31
0.0
 11
180.1980896021502
 21
14.16026100715439
 31
0.0
 11
180.2002868589709
 21
14.04850210961287
 31
0.0
 11
180.2032586986985
 21
13.96767961831361
 31
0.0
 11
180.3202092517447
 21
13.96767961831361
 31
0.0
 11
180.4440727208746
 21
13.96767961831361
 31
0.0
 11
180.5734925526422
 21
13.96897056449387
 31
0.0
 11
180.7003922282244
 21
13.97284781275678
 31
0.0
 11
180.8224658067973
 21
13.97886708358861
 31
0.0
 11
180.9377587499463
 21
13.98663260441998
 31
0.0
 11
181.0421754573518
 21
13.99734161483399
 31
0.0
 11
181.1320599255448
 21
14.01237656274688
 31
0.0
 11
181.1264254031191
 21
13.98698427976712
 31
0.0
 11
181.1234433285423
 21
13.959071840538
 31
0.0
 11
181.12213398812
 21
13.93112191867
 31
0.0
 11
181.1217235369195
 21
13.90575829888468
 31
0.0
 11
181.1243087365064
 21
13.85584355063322
 31
0.0
 11
181.1320599255448
 21
13.81626739612923
 31
0.0
 11
180.9776977178344
 21
13.82145433189182
 31
0.0
 11
180.8242357818765
 21
13.82315538223858
 31
0.0
 11
180.6697789496483
 21
13.82315538223858
 31
0.0
 11
180.5128026496768
 21
13.82315538223858
 31
0.0
 11
180.3554704921536
 21
13.82315538223858
 31
0.0
 11
180.199819115366
 21
13.82315538223858
 31
0.0
 11
180.0441620874241
 21
13.82145433189182
 31
0.0
 11
179.8868249573133
 21
13.81626739612923
 31
0.0
 11
179.896691822374
 21
14.03601267385208
 31
0.0
 11
179.9057788376618
 21
14.25491128490847
 31
0.0
 11
179.91217215184
 21
14.47550763901999
 31
0.0
 11
179.9143063455009
 21
14.70036378479713
 31
0.0
 11
179.9143063455009
 21
14.72578824496872
 31
0.0
 11
179.9143063455009
 21
14.79281636723929
 31
0.0
 11
179.9143063455009
 21
14.88758026424251
 31
0.0
 11
179.9143063455009
 21
14.99621204861205
 31
0.0
 11
179.9143063455009
 21
15.10484383298159
 31
0.0
 11
179.9143063455009
 21
15.19960772998481
 31
0.0
 11
179.9143063455009
 21
15.26663585225538
 31
0.0
 11
179.9143063455009
 21
15.29206031242697
 31
0.0
 11
179.91217215184
 21
15.51735963528732
 31
0.0
 11
179.9057788376618
 21
15.73923260398186
 31
0.0
  0
SPLINE
  5
AD
102
{ACAD_REACTORS
330
CA
102
}
330
48
100
AcDbEntity
  8
_U_30EC_U_30A4_U_30E4_U_30FC_1
  6
Continuous
 62
     2
100
AcDbSpline
210
0.0
220
0.0
230
1.0
 70
    11
 71
     3
 72
    95
 73
    91
 74
    89
 42
0.000000001
 43
0.0000000001
 44
0.00000001
 40
0.0
 40
0.0
 40
0.0
 40
0.0
 40
0.6550406656911534
 40
1.308087289031932
 40
1.4208037398358
 40
1.566130759770792
 40
1.757067341888471
 40
2.006513545026453
 40
2.087328263121553
 40
2.185328872295633
 40
2.294612454748384
 40
2.408936380534816
 40
2.526802767798566
 40
2.646360524615613
 40
2.76253572397158
 40
2.870057342870153
 40
2.96688344843166
 40
3.050803243518302
 40
3.115818222436606
 40
3.156030057150259
 40
3.213914225080161
 40
3.276689026450561
 40
3.342960320981339
 40
3.404230667150588
 40
3.453822809493409
 40
3.532499827188453
 40
3.63477518850721
 40
3.754909333008218
 40
3.889736761660703
 40
4.035769602175263
 40
4.187256681197647
 40
4.338733685675995
 40
4.488478734676158
 40
4.634708317831634
 40
4.77149318992131
 40
4.892686571561257
 40
5.199775528944492
 40
5.460353566929694
 40
5.667603142345551
 40
5.814722905404531
 40
5.828990806219829
 40
5.855488336304526
 40
5.869756237118858
 40
6.189796507762859
 40
6.531890469873042
 40
6.88305363701704
 40
7.230512024911516
 40
7.566966656764624
 40
7.885203559707444
 40
8.172887439719249
 40
8.418011594062804
 40
8.443926721190726
 40
8.510760470613212
 40
8.602145393795718
 40
8.701714041647156
 40
8.793098965075385
 40
8.859932715057957
 40
8.885847842603605
 40
9.242301256612826
 40
9.589275455016795
 40
9.921808543164197
 40
10.23479624298469
 40
10.29968150889179
 40
10.35323493887767
 40
10.40154625355152
 40
10.46482922477828
 40
10.55973900668407
 40
10.69239545985619
 40
10.84920353475673
 40
11.01626328594783
 40
11.18672024367446
 40
11.35372582577213
 40
11.50257442292429
 40
11.61866495023294
 40
11.71329869152877
 40
11.8251105057391
 40
11.94464880845718
 40
12.06929242642508
 40
12.19707290435178
 40
12.32562632860531
 40
12.45034565331281
 40
12.5664659517033
 40
12.67099007414637
 40
12.76077625936783
 40
12.82703233506696
 40
12.87429132785993
 40
12.89831990323333
 40
12.92234847860021
 40
13.53984767410319
 40
14.18294284359365
 40
14.18294284359365
 40
14.18294284359365
 40
14.18294284359365
 10
177.3067935648021
 20
14.70898038201722
 30
0.0
 10
177.175201975855
 20
14.82265058603229
 30
0.0
 10
176.9124193802728
 20
15.04964496316155
 30
0.0
 10
176.399739344102
 20
15.89214462956284
 30
0.0
 10
176.4106654595363
 20
15.53423377577017
 30
0.0
 10
176.4041226527991
 20
15.3926739227213
 30
0.0
 10
176.4028026631772
 20
15.19421305299278
 30
0.0
 10
176.4018117602538
 20
15.02150296045979
 30
0.0
 10
176.4024101751974
 20
14.87865373257578
 30
0.0
 10
176.4038994301883
 20
14.78265005413354
 30
0.0
 10
176.4055683588471
 20
14.67545503263138
 30
0.0
 10
176.4071934954618
 20
14.56164211517579
 30
0.0
 10
176.4092429501684
 20
14.44441572604585
 30
0.0
 10
176.4123165501927
 20
14.32656411232967
 30
0.0
 10
176.4156339697042
 20
14.21228087320618
 30
0.0
 10
176.419360534028
 20
14.10521401867274
 30
0.0
 10
176.4217338161424
 20
14.01007408766918
 30
0.0
 10
176.4278718888357
 20
13.92558557205692
 30
0.0
 10
176.4239784495946
 20
13.86923087298138
 30
0.0
 10
176.4455230443077
 20
13.79825022472351
 30
0.0
 10
176.3680940058618
 20
13.8290267760448
 30
0.0
 10
176.3116353240191
 20
13.82011242517609
 30
0.0
 10
176.2540495896806
 20
13.82896218398272
 30
0.0
 10
176.1690163478473
 20
13.79738225225941
 30
0.0
 10
176.2009714146382
 20
13.88095155992186
 30
0.0
 10
176.1990705282539
 20
13.94882608968306
 30
0.0
 10
176.21079600473
 20
14.05233256764416
 30
0.0
 10
176.2164241053
 20
14.17002125616693
 30
0.0
 10
176.2237902178941
 20
14.30388609164421
 30
0.0
 10
176.2320759701611
 20
14.44764152872629
 30
0.0
 10
176.2398851897426
 20
14.59714022843442
 30
0.0
 10
176.2457571222657
 20
14.74792549402075
 30
0.0
 10
176.2503667817969
 20
14.89699943878435
 30
0.0
 10
176.2542632117542
 20
15.0412291316302
 30
0.0
 10
176.2570715126564
 20
15.17583905213015
 30
0.0
 10
176.2576698755022
 20
15.36469614347352
 30
0.0
 10
176.261602386715
 20
15.58975494313152
 30
0.0
 10
176.2442175378498
 20
15.86367091125705
 30
0.0
 10
176.2850417342583
 20
16.02787112098595
 30
0.0
 10
176.1995153256002
 20
16.22749661465093
 30
0.0
 10
176.2660558907688
 20
16.22385458403976
 30
0.0
 10
176.283872427323
 20
16.2241344716085
 30
0.0
 10
176.4056801797509
 20
16.22632927398614
 30
0.0
 10
176.5080770335459
 20
15.9467511872151
 30
0.0
 10
176.7580021509356
 20
15.74563008536001
 30
0.0
 10
176.9870035331111
 20
15.47792614987914
 30
0.0
 10
177.2245151213108
 20
15.22646413862373
 30
0.0
 10
177.4486090740772
 20
14.98969974061355
 30
0.0
 10
177.6750716283009
 20
14.73218692583077
 30
0.0
 10
177.8325687886514
 20
14.61649335056919
 30
0.0
 10
178.0472129612673
 20
14.2799715253879
 30
0.0
 10
178.0422645974618
 20
14.40464754091601
 30
0.0
 10
178.0433931602546
 20
14.46327691935734
 30
0.0
 10
178.0428877841517
 20
14.55043662371974
 30
0.0
 10
178.0430475158113
 20
14.64416143182869
 30
0.0
 10
178.0430054891318
 20
14.73018971297031
 30
0.0
 10
178.0430202040373
 20
14.79153891945491
 30
0.0
 10
178.0429706255983
 20
14.94135231520989
 30
0.0
 10
178.0458811522811
 20
15.17989612510101
 30
0.0
 10
178.0259521041162
 20
15.54486509868698
 30
0.0
 10
178.0750433936248
 20
15.80799631993411
 30
0.0
 10
177.9177951509179
 20
16.21928904947745
 30
0.0
 10
178.0762112872421
 20
16.16398282551745
 30
0.0
 10
178.1311680478628
 20
16.1619968650017
 30
0.0
 10
178.182788776674
 20
16.16264778248249
 30
0.0
 10
178.2713198965366
 20
16.20369527738241
 30
0.0
 10
178.2204898303169
 20
16.05696326622984
 30
0.0
 10
178.2313389930283
 20
15.9501997195443
 30
0.0
 10
178.2166036994847
 20
15.79085705414109
 30
0.0
 10
178.2099976446205
 20
15.62853061652871
 30
0.0
 10
178.2014961399914
 20
15.45992521892392
 30
0.0
 10
178.1943227202199
 20
15.29814814703537
 30
0.0
 10
178.1889063215388
 20
15.15422331457929
 30
0.0
 10
178.1871713967648
 20
15.03437493466921
 30
0.0
 10
178.1875440672319
 20
14.92686101590511
 30
0.0
 10
178.1873656126262
 20
14.81820024645583
 30
0.0
 10
178.187701086314
 20
14.69953570165528
 30
0.0
 10
178.1890040622184
 20
14.57555163512738
 30
0.0
 10
178.1908887351574
 20
14.44858294171102
 30
0.0
 10
178.1925004454851
 20
14.32153861551029
 30
0.0
 10
178.194140313743
 20
14.19854884492174
 30
0.0
 10
178.1962570745751
 20
14.08300931383756
 30
0.0
 10
178.1963848422364
 20
13.98090903955834
 30
0.0
 10
178.2006514396554
 20
13.89009848838154
 30
0.0
 10
178.1908440085289
 20
13.83213621208785
 30
0.0
 10
178.2118474771689
 20
13.76517130132028
 30
0.0
 10
178.1725639739897
 20
13.77291153966686
 30
0.0
 10
177.9595307117741
 20
13.75755254145194
 30
0.0
 10
177.7636297943188
 20
14.31403058094466
 30
0.0
 10
177.4611197631544
 20
14.57556035348507
 30
0.0
 10
177.3067935648021
 20
14.70898038201722
 30
0.0
 11
177.3067935648021
 21
14.70898038201722
 31
0.0
 11
176.8595529338511
 21
15.18757635411975
 31
0.0
 11
176.4124049070643
 21
15.66352649288967
 31
0.0
 11
176.4089664262494
 21
15.55086249986229
 31
0.0
 11
176.40556101835
 21
15.40557538184308
 31
0.0
 11
176.4029636920274
 21
15.21465645827964
 31
0.0
 11
176.4021126156603
 21
14.96521170139755
 31
0.0
 11
176.4025239230289
 21
14.88439802954277
 31
0.0
 11
176.4038420329817
 21
14.78640628477558
 31
0.0
 11
176.4055192267718
 21
14.67713557299735
 31
0.0
 11
176.4072367127518
 21
14.56282454872036
 31
0.0
 11
176.4094007838772
 21
14.44497802965262
 31
0.0
 11
176.4124049070643
 21
14.32545802100196
 31
0.0
 11
176.4158359733138
 21
14.20933349846154
 31
0.0
 11
176.4192928929998
 21
14.10186746550227
 31
0.0
 11
176.4227085253088
 21
14.0051016235126
 31
0.0
 11
176.4261896983793
 21
13.92125406276969
 31
0.0
 11
176.4296006184313
 21
13.85632862007757
 31
0.0
 11
176.4330776843148
 21
13.81626739612923
 31
0.0
 11
176.3754263821571
 21
13.82145433189182
 31
0.0
 11
176.3126746318309
 21
13.82315538223858
 31
0.0
 11
176.2464251717157
 21
13.82145433189182
 31
0.0
 11
176.1853747739675
 21
13.81626739612923
 31
0.0
 11
176.1926772737812
 21
13.86531894125587
 31
0.0
 11
176.2008793569054
 21
13.94356725720851
 31
0.0
 11
176.2090098822348
 21
14.04551893253027
 31
0.0
 11
176.2163406441397
 21
14.16542920159751
 31
0.0
 11
176.2236358280421
 21
14.30005912343887
 31
0.0
 11
176.2318444255596
 21
14.44586107652742
 31
0.0
 11
176.2395504149465
 21
14.5971520313507
 31
0.0
 11
176.2455763002093
 21
14.74850913200731
 31
0.0
 11
176.2503046247416
 21
14.89817951391433
 31
0.0
 11
176.254192897212
 21
15.0443573958222
 31
0.0
 11
176.2567527408965
 21
15.18111831592693
 31
0.0
 11
176.2576324804574
 21
15.30230850686888
 31
0.0
 11
176.257192610677
 21
15.60939715262542
 31
0.0
 11
176.2559126888347
 21
15.86997204839364
 31
0.0
 11
176.2528658717893
 21
16.07719922716122
 31
0.0
 11
176.2473049112763
 21
16.22421385386059
 31
0.0
 11
176.2615728121469
 21
16.22421385386059
 31
0.0
 11
176.2880703423352
 21
16.22421385386059
 31
0.0
 11
176.3023382432058
 21
16.22421385386059
 31
0.0
 11
176.5194743650277
 21
15.9891017966277
 31
0.0
 11
176.7512744123079
 21
15.7375128123156
 31
0.0
 11
176.9894816018839
 21
15.47949555543568
 31
0.0
 11
177.2260074557521
 21
15.22497079855486
 31
0.0
 11
177.4555698717705
 21
14.97899759549134
 31
0.0
 11
177.6731797360103
 21
14.74678934034105
 31
0.0
 11
177.8713724913707
 21
14.53826680567097
 31
0.0
 11
178.0430143099086
 21
14.36326697932586
 31
0.0
 11
178.0430143099086
 21
14.3891821068704
 31
0.0
 11
178.0430143099086
 21
14.45601585685368
 31
0.0
 11
178.0430143099086
 21
14.54740078030021
 31
0.0
 11
178.0430143099086
 21
14.6469694282345
 31
0.0
 11
178.0430143099086
 21
14.73835435168103
 31
0.0
 11
178.0430143099086
 21
14.80518810166431
 31
0.0
 11
178.0430143099086
 21
14.83110322920885
 31
0.0
 11
178.0417233637609
 21
15.18755430550864
 31
0.0
 11
178.0378461155958
 21
15.53450684014413
 31
0.0
 11
178.0296197790002
 21
15.86693815950549
 31
0.0
 11
178.0154535467228
 21
16.17960510387175
 31
0.0
 11
178.0790351249618
 21
16.16666367158331
 31
0.0
 11
178.1324170159611
 21
16.16238072887603
 31
0.0
 11
178.1805381084833
 21
16.16666367158331
 31
0.0
 11
178.2424836798197
 21
16.17960510387175
 31
0.0
 11
178.2351216487575
 21
16.08498128445097
 31
0.0
 11
178.2269790968818
 21
15.95257496503962
 31
0.0
 11
178.2183705364004
 21
15.79600336785653
 31
0.0
 11
178.2097547223215
 21
15.62916593734266
 31
0.0
 11
178.2016187850288
 21
15.45890325509357
 31
0.0
 11
178.1942501393835
 21
15.29206031242697
 31
0.0
 11
178.1891406931522
 21
15.14329943572806
 31
0.0
 11
178.1874503478904
 21
15.02722121527097
 31
0.0
 11
178.1874503478904
 21
14.93258747397516
 31
0.0
 11
178.1874503478904
 21
14.82077565976704
 31
0.0
 11
178.1878461204497
 21
14.70123801222746
 31
0.0
 11
178.1890819450708
 21
14.57660052093917
 31
0.0
 11
178.1908392193317
 21
14.44883212687389
 31
0.0
 11
178.1925303477608
 21
14.32028982655876
 31
0.0
 11
178.1942876220214
 21
14.19558288214552
 31
0.0
 11
178.1959787504505
 21
14.07947489606346
 31
0.0
 11
178.1972884379172
 21
13.97495896727015
 31
0.0
 11
178.1976985420735
 21
13.88517371555651
 31
0.0
 11
178.1976985420735
 21
13.81891763918414
 31
0.0
 11
178.1976985420735
 21
13.7716586461404
 31
0.0
 11
178.1736699662976
 21
13.7716586461404
 31
0.0
 11
178.1496413905217
 21
13.7716586461404
 31
0.0
 11
177.7410729200423
 21
14.23466735262188
 31
0.0
 11
177.3067935648021
 21
14.70898038201722
 31
0.0
  0
SPLINE
  5
AE
102
{ACAD_REACTORS
330
CB
102
}
330
48
100
AcDbEntity
  8
_U_30EC_U_30A4_U_30E4_U_30FC_1
  6
Continuous
 62
     2
100
AcDbSpline
210
0.0
220
0.0
230
1.0
 70
    11
 71
     3
 72
    25
 73
    21
 74
    19
 42
0.000000001
 43
0.0000000001
 44
0.00000001
 40
0.0
 40
0.0
 40
0.0
 40
0.0
 40
0.0911479969064821
 40
0.1858117896204662
 40
0.2804128399734491
 40
0.3715889190714511
 40
0.4679080494218709
 40
0.5642683809229232
 40
0.6605683222644991
 40
0.7569653015810255
 40
0.8561348172522771
 40
1.092615965104302
 40
1.374867658141893
 40
1.611348812011622
 40
1.710518328425275
 40
1.809403163726597
 40
2.045205463294107
 40
2.326646917622172
 40
2.562449217190641
 40
2.661334043833963
 40
2.661334043833963
 40
2.661334043833963
 40
2.661334043833963
 10
173.2683700567199
 20
14.88614538197288
 30
0.0
 10
173.2987525917923
 20
14.88598079714551
 30
0.0
 10
173.3606895889112
 20
14.88564528689918
 30
0.0
 10
173.4541356960329
 20
14.88269055451999
 30
0.0
 10
173.5475095236357
 20
14.87977752877147
 30
0.0
 10
173.6417760753476
 20
14.87894201643412
 30
0.0
 10
173.7354964790967
 20
14.87996644658044
 30
0.0
 10
173.8352040303205
 20
14.87916977470969
 30
0.0
 10
173.9188949546312
 20
14.88921410235216
 30
0.0
 10
174.0637996315045
 20
14.86234617674161
 30
0.0
 10
173.93961324448
 20
15.03665530280045
 30
0.0
 10
173.8965867286282
 20
15.19651711006088
 30
0.0
 10
173.780892214221
 20
15.45518458550214
 30
0.0
 10
173.7017565431257
 20
15.59231052861857
 30
0.0
 10
173.6431576621816
 20
15.80937033134076
 30
0.0
 10
173.5864803939438
 20
15.59266134213427
 30
0.0
 10
173.5052809900477
 20
15.45327012438234
 30
0.0
 10
173.4063701281488
 20
15.20406969370191
 30
0.0
 10
173.325362509426
 20
15.0192583022607
 30
0.0
 10
173.2813683325838
 20
14.91650446856113
 30
0.0
 10
173.2683700567199
 20
14.88614538197288
 30
0.0
 11
173.2683700567199
 21
14.88614538197288
 31
0.0
 11
173.359513773782
 21
14.88526123266756
 31
0.0
 11
173.4541428297581
 21
14.88269697919597
 31
0.0
 11
173.5487082179706
 21
14.88009965280774
 31
0.0
 11
173.6398803250196
 21
14.87924857641906
 31
0.0
 11
173.7361985777706
 21
14.87965978301618
 31
0.0
 11
173.8325499034376
 21
14.88097718752968
 31
0.0
 11
173.9288262638286
 21
14.88310818579309
 31
0.0
 11
174.0251753846343
 21
14.88614538197288
 31
0.0
 11
173.9854633323141
 21
14.97701642195016
 31
0.0
 11
173.8907653613968
 21
15.19370890189599
 31
0.0
 11
173.7777387509471
 21
15.45234186183133
 31
0.0
 11
173.6830407800297
 21
15.66903434177716
 31
0.0
 11
173.6433287277095
 21
15.75990538175444
 31
0.0
 11
173.6043330259266
 21
15.66903434177716
 31
0.0
 11
173.5113432755212
 21
15.45234186183133
 31
0.0
 11
173.4003555089082
 21
15.19370890189599
 31
0.0
 11
173.3073657585028
 21
14.97701642195016
 31
0.0
 11
173.2683700567199
 21
14.88614538197288
 31
0.0
  0
SPLINE
  5
AF
102
{ACAD_REACTORS
330
CB
102
}
330
48
100
AcDbEntity
  8
_U_30EC_U_30A4_U_30E4_U_30FC_1
  6
Continuous
 62
     2
100
AcDbSpline
210
0.0
220
0.0
230
1.0
 70
    11
 71
     3
 72
    57
 73
    53
 74
    51
 42
0.000000001
 43
0.0000000001
 44
0.00000001
 40
0.0
 40
0.0
 40
0.0
 40
0.0
 40
0.047163208280924
 40
0.0914861054632156
 40
0.1357762519702392
 40
0.1826527001610687
 40
0.2295203288572596
 40
0.2737751972220765
 40
0.3181310461543072
 40
0.3652607198398521
 40
0.457100728631456
 40
0.5671851029165388
 40
0.6894623283868425
 40
0.8181758272546078
 40
0.95100872292741
 40
1.085852229674066
 40
1.218126164475325
 40
1.343545131142385
 40
1.454537202956802
 40
1.567187607530811
 40
1.680710966642429
 40
1.794226869736794
 40
1.900009184247593
 40
2.004085860447872
 40
2.10816267445176
 40
2.214000150155305
 40
2.496038577352133
 40
2.762350745479262
 40
2.997275353279401
 40
3.185110082137736
 40
3.246407890063963
 40
3.312607550212694
 40
3.378877742711596
 40
3.440140399651451
 40
4.100501696006479
 40
4.754913085563535
 40
5.411331693423945
 40
6.077890432568723
 40
6.110575292671002
 40
6.143260152775782
 40
6.367989363395171
 40
6.610525374951581
 40
6.863389136467328
 40
7.119380025547608
 40
7.376036605091111
 40
7.631164770966303
 40
7.876722425456442
 40
8.10495373585599
 40
8.312916685924318
 40
8.497730294941313
 40
8.651018984313868
 40
8.764738853624616
 40
8.764738853624616
 40
8.764738853624616
 40
8.764738853624616
 10
174.7922649500513
 20
13.81626739612923
 30
0.0
 10
174.7766616726931
 20
13.81826231079074
 30
0.0
 10
174.7463947960302
 20
13.82213201360296
 30
0.0
 10
174.7010994202252
 20
13.82341984967264
 30
0.0
 10
174.6559553129349
 20
13.82308683554047
 30
0.0
 10
174.6099017123399
 20
13.8231465867422
 30
0.0
 10
174.5640496172096
 20
13.82325813649997
 30
0.0
 10
174.5183711648164
 20
13.82277833456586
 30
0.0
 10
174.4750811541609
 20
13.82461109618719
 30
0.0
 10
174.4039947951513
 20
13.80049556814652
 30
0.0
 10
174.4057477261441
 20
13.92184693977249
 30
0.0
 10
174.358619637057
 20
14.0072623975123
 30
0.0
 10
174.3191478251762
 20
14.12486929345133
 30
0.0
 10
174.2706635532645
 20
14.24232752540436
 30
0.0
 10
174.2201017402522
 20
14.36405935761507
 30
0.0
 10
174.1718634610477
 20
14.49075967862463
 30
0.0
 10
174.1135232947595
 20
14.59933687784949
 30
0.0
 10
174.0980892667261
 20
14.75620657134406
 30
0.0
 10
173.9566586330635
 20
14.72373446548319
 30
0.0
 10
173.8508397414904
 20
14.73512888682178
 30
0.0
 10
173.7358569725222
 20
14.73392591514612
 30
0.0
 10
173.625314225214
 20
14.73506945347407
 30
0.0
 10
173.5176583522783
 20
14.73418350037524
 30
0.0
 10
173.4121322529242
 20
14.73416602390516
 30
0.0
 10
173.3109192682012
 20
14.72714032472412
 30
0.0
 10
173.1266804827754
 20
14.75135859859862
 30
0.0
 10
173.1157393685411
 20
14.44741691121883
 30
0.0
 10
173.008769163475
 20
14.22353177253394
 30
0.0
 10
172.9098148604347
 20
14.03895314292495
 30
0.0
 10
172.9225090524007
 20
13.79530204804201
 30
0.0
 10
172.8050091716397
 20
13.82508046753194
 30
0.0
 10
172.742205586831
 20
13.82258089509599
 30
0.0
 10
172.67858720934
 20
13.82344075102802
 30
0.0
 10
172.3946014194073
 20
13.78098039941936
 30
0.0
 10
173.0251638499382
 20
14.50081952444785
 30
0.0
 10
173.108764528907
 20
15.01276539435725
 30
0.0
 10
173.492925278934
 20
15.5335374355004
 30
0.0
 10
173.4777208288563
 20
16.23519626253211
 30
0.0
 10
173.7239265722697
 20
16.22345633081254
 30
0.0
 10
173.8256346157561
 20
16.2322500445277
 30
0.0
 10
173.8249752035818
 20
15.98059650730344
 30
0.0
 10
173.9428317155828
 20
15.79818020733954
 30
0.0
 10
174.0315515260485
 20
15.55563740662863
 30
0.0
 10
174.1322292485259
 20
15.32340030530125
 30
0.0
 10
174.2311142712242
 20
15.0867464456691
 30
0.0
 10
174.3299676990669
 20
14.85461739170091
 30
0.0
 10
174.4256166390926
 20
14.63122222788785
 30
0.0
 10
174.5159904573271
 20
14.42272549049313
 30
0.0
 10
174.5989944568189
 20
14.23308448529317
 30
0.0
 10
174.6726088582798
 20
14.06663106068097
 30
0.0
 10
174.7342815895545
 20
13.92917699626094
 30
0.0
 10
174.7749458885604
 20
13.8499923943003
 30
0.0
 10
174.7922649500513
 20
13.81626739612923
 30
0.0
 11
174.7922649500513
 21
13.81626739612923
 31
0.0
 11
174.7453878317448
 21
13.82145433189182
 31
0.0
 11
174.7010975896125
 21
13.82315538223858
 31
0.0
 11
174.6568074431729
 21
13.82315538223858
 31
0.0
 11
174.6099309947159
 21
13.82315538223858
 31
0.0
 11
174.5630633657033
 21
13.82315538223858
 31
0.0
 11
174.5188084970408
 21
13.82315538223858
 31
0.0
 11
174.4744852776854
 21
13.82145433189182
 31
0.0
 11
174.4276419021443
 21
13.81626739612923
 31
0.0
 11
174.3992532136325
 21
13.90360966173241
 31
0.0
 11
174.3622721815898
 21
14.00729656274817
 31
0.0
 11
174.3188386236701
 21
14.12159987001124
 31
0.0
 11
174.2711055866936
 21
14.24113531268966
 31
0.0
 11
174.2208160133237
 21
14.36408057307562
 31
0.0
 11
174.1696467003932
 21
14.48883822929443
 31
0.0
 11
174.1197531801326
 21
14.61134141502769
 31
0.0
 11
174.0733119111841
 21
14.72784517367913
 31
0.0
 11
173.9623611907589
 21
14.73087465284503
 31
0.0
 11
173.8497309225089
 21
14.73300454867788
 31
0.0
 11
173.7362152069449
 21
14.73432195319138
 31
0.0
 11
173.62270004768
 21
14.73473315978851
 31
0.0
 11
173.5169185312816
 21
14.73432195319138
 31
0.0
 11
173.4128501919225
 21
14.73300454867788
 31
0.0
 11
173.3087951724045
 21
14.73087465284503
 31
0.0
 11
173.2030010615596
 21
14.72784517367913
 31
0.0
 11
173.0980914750139
 21
14.46604437513347
 31
0.0
 11
173.0034868690331
 21
14.21710232658458
 31
0.0
 11
172.9252231210298
 21
13.99559756969554
 31
0.0
 11
172.8693431224555
 21
13.81626739612923
 31
0.0
 11
172.8082651639442
 21
13.82145433189182
 31
0.0
 11
172.742087361813
 21
13.82315538223858
 31
0.0
 11
172.6758390041282
 21
13.82145433189182
 31
0.0
 11
172.6147963233938
 21
13.81626739612923
 31
0.0
 11
172.889968495193
 21
14.41656508695139
 31
0.0
 11
173.158294573417
 21
15.01343642360772
 31
0.0
 11
173.4240277350405
 21
15.61366245644379
 31
0.0
 11
173.6914740737033
 21
16.22421385386059
 31
0.0
 11
173.7241589339806
 21
16.22421385386059
 31
0.0
 11
173.7568437942579
 21
16.22421385386059
 31
0.0
 11
173.8428300681057
 21
16.01658539037081
 31
0.0
 11
173.9357285813609
 21
15.79254614563513
 31
0.0
 11
174.0328714521463
 21
15.55908663180466
 31
0.0
 11
174.1317936458031
 21
15.32298128464143
 31
0.0
 11
174.2315341249927
 21
15.08649780379781
 31
0.0
 11
174.3313071129353
 21
14.85168781253708
 31
0.0
 11
174.4280608257448
 21
14.62599492196846
 31
0.0
 11
174.5188084970408
 21
14.41658052097915
 31
0.0
 11
174.6022150834546
 21
14.22607611130458
 31
0.0
 11
174.6770293263377
 21
14.05708232662465
 31
0.0
 11
174.7410729186603
 21
13.91781337700665
 31
0.0
 11
174.7922649500513
 21
13.81626739612923
 31
0.0
  0
SPLINE
  5
B0
102
{ACAD_REACTORS
330
CC
102
}
330
48
100
AcDbEntity
  8
_U_30EC_U_30A4_U_30E4_U_30FC_1
  6
Continuous
 62
     2
100
AcDbSpline
210
0.0
220
0.0
230
1.0
 70
    11
 71
     3
 72
    99
 73
    95
 74
    93
 42
0.000000001
 43
0.0000000001
 44
0.00000001
 40
0.0
 40
0.0
 40
0.0
 40
0.0
 40
0.0796417172272386
 40
0.1621768542355943
 40
0.2486489160957578
 40
0.3404969668524557
 40
0.438191251116458
 40
0.543446366024489
 40
0.6518115192847217
 40
0.7530190937886831
 40
0.8492196919725102
 40
0.9419290312998155
 40
1.034249663570034
 40
1.129078600620192
 40
1.226697027573223
 40
1.327220425421681
 40
1.470572134938002
 40
1.595489863371205
 40
1.719934125348389
 40
1.850576620127397
 40
1.989059629987294
 40
2.134139054226913
 40
2.280698007207199
 40
2.424529739039467
 40
2.565929576985829
 40
2.708239260773529
 40
2.861717887443649
 40
3.04516854034736
 40
3.183798301138597
 40
3.314813961455448
 40
3.442083470447306
 40
3.569912708372958
 40
3.702177512509359
 40
3.842307559659522
 40
3.992872223245926
 40
4.156750662218315
 40
4.310981861107536
 40
4.44585990932258
 40
4.572393936131578
 40
4.701656719781982
 40
4.768279086008463
 40
4.835960697898396
 40
4.912788918729327
 40
5.006285208481547
 40
5.026909478751623
 40
5.047533749021188
 40
5.101808031471277
 40
5.162325165538558
 40
5.226919745995882
 40
5.294231806596752
 40
5.364544852554903
 40
5.438319055467952
 40
5.517877651324285
 40
5.607647714861597
 40
5.700449642544443
 40
5.788251142364173
 40
5.872714706039809
 40
5.955167292575324
 40
6.037192395190418
 40
6.120669181469153
 40
6.206848616686384
 40
6.296680855416795
 40
6.442558392872624
 40
6.568190371608314
 40
6.692904567360396
 40
6.824220446557174
 40
6.963121850329412
 40
7.107843738851192
 40
7.25343166390731
 40
7.395187468036737
 40
7.53314075323779
 40
7.670550457175267
 40
7.816236511769294
 40
7.987691657359268
 40
8.142277421969283
 40
8.293662615415046
 40
8.442962460879315
 40
8.591598316185358
 40
8.743678992361835
 40
8.903725323699215
 40
9.076307008890561
 40
9.265578604680615
 40
9.45920379536079
 40
9.617619810273574
 40
9.75360967136193
 40
9.874873300004106
 40
9.954520184977804
 40
10.02416413719247
 40
10.09769764405446
 40
10.18909955924974
 40
10.20974586420136
 40
10.23039218263381
 40
10.30057101881267
 40
10.37632012987548
 40
10.37632012987548
 40
10.37632012987548
 40
10.37632012987548
 10
170.1465954835851
 20
14.1379566321599
 30
0.0
 10
170.1632217851219
 20
14.11720608845309
 30
0.0
 10
170.1970784206577
 20
14.07495111711899
 30
0.0
 10
170.2599822541036
 20
14.02029811392069
 30
0.0
 10
170.3332500940392
 20
13.97299025121048
 30
0.0
 10
170.4175969238636
 20
13.93527231437931
 30
0.0
 10
170.513224061546
 20
13.91040619731949
 30
0.0
 10
170.6171853775346
 20
13.90309559345932
 30
0.0
 10
170.7224020220405
 20
13.91142322794049
 30
0.0
 10
170.8206626371334
 20
13.94149179651527
 30
0.0
 10
170.9058986427549
 20
13.98848822971874
 30
0.0
 10
170.9779220206102
 20
14.04952991250855
 30
0.0
 10
171.0350917709096
 20
14.1241296957858
 30
0.0
 10
171.076786874744
 20
14.21002464660172
 30
0.0
 10
171.1026952846292
 20
14.30485850432208
 30
0.0
 10
171.1118037332653
 20
14.41854979038363
 30
0.0
 10
171.0986864796487
 20
14.54332587770775
 30
0.0
 10
171.0325330334413
 20
14.6601471917189
 30
0.0
 10
170.9369370919569
 20
14.74512539577371
 30
0.0
 10
170.8249681022368
 20
14.81416684459156
 30
0.0
 10
170.6993659583269
 20
14.87204142045888
 30
0.0
 10
170.5656691620856
 20
14.92373723284338
 30
0.0
 10
170.4313122818831
 20
14.97899092397178
 30
0.0
 10
170.3051983986877
 20
15.04939770641646
 30
0.0
 10
170.1926579987535
 20
15.13785540731245
 30
0.0
 10
170.0969963064458
 20
15.24981067868469
 30
0.0
 10
170.0334157151826
 20
15.3994991010138
 30
0.0
 10
170.0200706505015
 20
15.55932794385138
 30
0.0
 10
170.0320510987448
 20
15.71048405306842
 30
0.0
 10
170.0712298928841
 20
15.83809244591536
 30
0.0
 10
170.135498775091
 20
15.95080874030842
 30
0.0
 10
170.223820499974
 20
16.04648609268683
 30
0.0
 10
170.3338091207627
 20
16.12354214985751
 30
0.0
 10
170.4632284401265
 20
16.18151396936274
 30
0.0
 10
170.6111838967793
 20
16.21739177588819
 30
0.0
 10
170.7682069455487
 20
16.22746719050561
 30
0.0
 10
170.917494046643
 20
16.21863637762587
 30
0.0
 10
171.059625361417
 20
16.19074899340351
 30
0.0
 10
171.1595922609625
 20
16.13413314701135
 30
0.0
 10
171.3125074736186
 20
16.08674602105503
 30
0.0
 10
171.2455131717167
 20
16.00197553001181
 30
0.0
 10
171.2296479120269
 20
15.93438901873482
 30
0.0
 10
171.1978750531297
 20
15.86926092793187
 30
0.0
 10
171.2150202209571
 20
15.76723453256949
 30
0.0
 10
171.1666427208232
 20
15.77493211681897
 30
0.0
 10
171.1315789440765
 20
15.76806771724803
 30
0.0
 10
171.1296697985718
 20
15.83263831158192
 30
0.0
 10
171.0985692931989
 20
15.87825639621392
 30
0.0
 10
171.0664551628456
 20
15.93561036628452
 30
0.0
 10
171.0208038475168
 20
15.98540462692556
 30
0.0
 10
170.9658508218386
 20
16.02994813718992
 30
0.0
 10
170.9010841173007
 20
16.06763988836549
 30
0.0
 10
170.8232377310596
 20
16.09283375791349
 30
0.0
 10
170.7355160553352
 20
16.09931230998108
 30
0.0
 10
170.6452903277806
 20
16.09235709285604
 30
0.0
 10
170.5594594694064
 20
16.0690919046092
 30
0.0
 10
170.4828343638596
 20
16.03131644107541
 30
0.0
 10
170.4165265636201
 20
15.9805164108957
 30
0.0
 10
170.3622560536964
 20
15.91731143407207
 30
0.0
 10
170.3224925345459
 20
15.84276455710364
 30
0.0
 10
170.2976775510587
 20
15.7591731399776
 30
0.0
 10
170.289212426287
 20
15.65192948382283
 30
0.0
 10
170.3019697987103
 20
15.52965457267556
 30
0.0
 10
170.3681548409273
 20
15.41149724291209
 30
0.0
 10
170.4640977399832
 20
15.32606325709525
 30
0.0
 10
170.5757914963182
 20
15.25583362306719
 30
0.0
 10
170.7010863668702
 20
15.196591623053
 30
0.0
 10
170.8349823941447
 20
15.14616708086131
 30
0.0
 10
170.9689930333149
 20
15.09322516984379
 30
0.0
 10
171.0950885316915
 20
15.02750170625171
 30
0.0
 10
171.2076216638417
 20
14.94480352537318
 30
0.0
 10
171.3031370284233
 20
14.83996006310071
 30
0.0
 10
171.3672706486963
 20
14.69937117251567
 30
0.0
 10
171.3811103725279
 20
14.54065409451589
 30
0.0
 10
171.3673954712229
 20
14.38153155217872
 30
0.0
 10
171.3244739153984
 20
14.23483828819208
 30
0.0
 10
171.2545906329066
 20
14.10119796587139
 30
0.0
 10
171.1574592213829
 20
13.98532387699289
 30
0.0
 10
171.0347806023657
 20
13.89089981770084
 30
0.0
 10
170.8874408413167
 20
13.82179270651979
 30
0.0
 10
170.7177132497125
 20
13.77953210858851
 30
0.0
 10
170.5317404979596
 20
13.76781736230406
 30
0.0
 10
170.3528955926183
 20
13.77809486683435
 30
0.0
 10
170.1881733753743
 20
13.81966573769152
 30
0.0
 10
170.0834410841057
 20
13.88797642883937
 30
0.0
 10
169.9350960790366
 20
13.93675219032105
 30
0.0
 10
169.9980378194729
 20
14.02976591290838
 30
0.0
 10
170.007227443006
 20
14.10296536248277
 30
0.0
 10
170.0303711301232
 20
14.16936294501343
 30
0.0
 10
170.0034588335316
 20
14.26974809527577
 30
0.0
 10
170.0521338956339
 20
14.26234033517376
 30
0.0
 10
170.0916530580696
 20
14.26894063620891
 30
0.0
 10
170.0996204944702
 20
14.19078703218928
 30
0.0
 10
170.1305436967923
 20
14.15600927375853
 30
0.0
 10
170.1465954835851
 20
14.1379566321599
 30
0.0
 11
170.1465954835851
 21
14.1379566321599
 31
0.0
 11
170.1982038075864
 21
14.07729869814733
 31
0.0
 11
170.2601105501335
 21
14.02271295163317
 31
0.0
 11
170.3327764009802
 21
13.9758398092838
 31
0.0
 11
170.4166468655843
 21
13.93839906276534
 31
0.0
 11
170.511221073241
 21
13.91390636311874
 31
0.0
 11
170.6161603327165
 21
13.90575829888468
 31
0.0
 11
170.7240739497552
 21
13.91564048638219
 31
0.0
 11
170.8208419941616
 21
13.9452870488748
 31
0.0
 11
170.9050776083319
 21
13.99175118948817
 31
0.0
 11
170.9756144207686
 21
14.05191413218148
 31
0.0
 11
171.031944210998
 21
14.12505819466317
 31
0.0
 11
171.0736690016003
 21
14.2102143404752
 31
0.0
 11
171.0994680808032
 21
14.30436190989609
 31
0.0
 11
171.1080824729446
 21
14.40451552098216
 31
0.0
 11
171.0878517703357
 21
14.54643250879394
 31
0.0
 11
171.0272522666731
 21
14.65566684036384
 31
0.0
 11
170.9364971286285
 21
14.74081306430092
 31
0.0
 11
170.826010188474
 21
14.81052746532512
 31
0.0
 11
170.7008523531254
 21
14.8697985416992
 31
0.0
 11
170.5662951950998
 21
14.92404253474118
 31
0.0
 11
170.4316884277007
 21
14.98201274306001
 31
0.0
 11
170.3065802017258
 21
15.05297399304229
 31
0.0
 11
170.196027609828
 21
15.1411331596869
 31
0.0
 11
170.1053381235265
 21
15.25080295132614
 31
0.0
 11
170.0447055469484
 21
15.39179720476312
 31
0.0
 11
170.0245079172553
 21
15.57413260402311
 31
0.0
 11
170.0374030471347
 21
15.71216131926638
 31
0.0
 11
170.0761016659391
 21
15.83733128451286
 31
0.0
 11
170.1393141731506
 21
15.94779262129082
 31
0.0
 11
170.2257499954545
 21
16.04196885390618
 31
0.0
 11
170.3336492808962
 21
16.11846540770648
 31
0.0
 11
170.4613526283328
 21
16.17615670109484
 31
0.0
 11
170.6075393259923
 21
16.2122006680997
 31
0.0
 11
170.770976856545
 21
16.22421385386059
 31
0.0
 11
170.9248918431289
 21
16.21434269066862
 31
0.0
 11
171.0564887242607
 21
16.18477329831495
 31
0.0
 11
171.172563634494
 21
16.13439993895249
 31
0.0
 11
171.2800792741122
 21
16.06264163167873
 31
0.0
 11
171.2516994050444
 21
16.00236624106883
 31
0.0
 11
171.2284855254283
 21
15.93879017337645
 31
0.0
 11
171.2078381040801
 21
15.86478841992266
 31
0.0
 11
171.1871840681487
 21
15.77360197897323
 31
0.0
 11
171.1665597978415
 21
15.77360197897323
 31
0.0
 11
171.1459355275343
 21
15.77360197897323
 31
0.0
 11
171.1256706495791
 21
15.82395108486344
 31
0.0
 11
171.0994658759421
 21
15.87850045116926
 31
0.0
 11
171.0650468924451
 21
15.93316116296112
 31
0.0
 11
171.0203554612937
 21
15.98349593725408
 31
0.0
 11
170.9657333359511
 21
16.02777175321526
 31
0.0
 11
170.9016722004326
 21
16.06436142334499
 31
0.0
 11
170.825968296114
 21
16.08882545979724
 31
0.0
 11
170.7365722046449
 21
16.09701100667019
 31
0.0
 11
170.6440937174207
 21
16.08926973931099
 31
0.0
 11
170.5594072091645
 21
16.06609003445564
 31
0.0
 11
170.483702448884
 21
16.02863495634005
 31
0.0
 11
170.4183754766516
 21
15.97832774281099
 31
0.0
 11
170.3650487887664
 21
15.91600293379876
 31
0.0
 11
170.3254809233901
 21
15.84249947895603
 31
0.0
 11
170.3009523754711
 21
15.75988443557388
 31
0.0
 11
170.2927954104108
 21
15.6704232984435
 31
0.0
 11
170.3130095765617
 21
15.52595308146571
 31
0.0
 11
170.373625616682
 21
15.41591177072934
 31
0.0
 11
170.4643479320758
 21
15.33033670130628
 31
0.0
 11
170.5748676948813
 21
15.25941954854622
 31
0.0
 11
170.7000089937719
 21
15.19914305550576
 31
0.0
 11
170.8345826882553
 21
15.1459044791302
 31
0.0
 11
170.9691729191968
 21
15.09039489581071
 31
0.0
 11
171.0942976816297
 21
15.02377281249406
 31
0.0
 11
171.204800907977
 21
14.94118863716746
 31
0.0
 11
171.2955397598288
 21
14.8380000347627
 31
0.0
 11
171.3561557999489
 21
14.70552315979581
 31
0.0
 11
171.3763699660998
 21
14.53526378483835
 31
0.0
 11
171.3621839747998
 21
14.3813303039741
 31
0.0
 11
171.3196087009193
 21
14.23605531269095
 31
0.0
 11
171.2499752884265
 21
14.10398854189065
 31
0.0
 11
171.1544992078713
 21
13.99007218775245
 31
0.0
 11
171.0341060772624
 21
13.89715272597014
 31
0.0
 11
170.8896160201846
 21
13.82832357668178
 31
0.0
 11
170.7223519532713
 21
13.78581275203965
 31
0.0
 11
170.5336103348226
 21
13.7716586461404
 31
0.0
 11
170.3405031726387
 21
13.78581275203965
 31
0.0
 11
170.1878975900911
 21
13.82832357668178
 31
0.0
 11
170.0661897942203
 21
13.88899033013887
 31
0.0
 11
169.9660261826363
 21
13.95734322942735
 31
0.0
 11
169.9922320587039
 21
14.03255545163074
 31
0.0
 11
170.0090121537618
 21
14.10014767383609
 31
0.0
 11
170.0206196447852
 21
14.17275926235958
 31
0.0
 11
170.0313606254139
 21
14.26352788212856
 31
0.0
 11
170.0520069443315
 21
14.26352788212856
 31
0.0
 11
170.0726532632492
 21
14.26352788212856
 31
0.0
 11
170.1048916391629
 21
14.2011920488108
 31
0.0
 11
170.1465954835851
 21
14.1379566321599
 31
0.0
  0
LWPOLYLINE
  5
B1
102
{ACAD_REACTORS
330
BE
102
}
330
48
100
AcDbEntity
  8
_U_30EC_U_30A4_U_30E4_U_30FC_1
  6
Continuous
 62
     2
100
AcDbPolyline
 90
        5
 70
     1
 43
0.0
 10
192.4578138032672
 20
15.39722336795623
 10
192.4578138032672
 20
15.22875434022055
 10
191.1602971697031
 20
15.22875434022055
 10
191.1602971697031
 20
15.39722336795623
 10
192.4578138032672
 20
15.39722336795623
  0
MTEXT
  5
B3
330
48
100
AcDbEntity
  8
1
 62
     2
100
AcDbMText
 10
32.5
 20
282.0000000000002
 30
0.0
 40
5.0
 41
0.0
 71
     5
 72
     1
  1
図番
  7
CONVERTER_11
 73
     1
 44
0.45454545454545
  0
MTEXT
  5
B4
330
48
100
AcDbEntity
  8
1
 62
     2
100
AcDbMText
 10
29.0
 20
33.99999999999997
 30
0.0
 40
3.5
 41
0.0
 71
     5
 72
     1
  1
備考
  7
CONVERTER_11
 73
     1
 44
0.45454545454545
  0
MTEXT
  5
B5
330
48
100
AcDbEntity
  8
1
 62
     2
100
AcDbMText
 10
29.0
 20
22.74999999999997
 30
0.0
 40
3.5
 41
0.0
 71
     5
 72
     1
  1
品名
  7
CONVERTER_11
 73
     1
 44
0.72727272727273
  0
MTEXT
  5
B6
330
48
100
AcDbEntity
  8
1
 62
     2
100
AcDbMText
 10
29.0
 20
14.24999999999997
 30
0.0
 40
3.5
 41
0.0
 71
     5
 72
     1
  1
品番
  7
CONVERTER_11
 73
     1
 44
0.72727272727273
  0
MTEXT
  5
B7
330
48
100
AcDbEntity
  8
1
 62
     2
100
AcDbMText
 10
101.5
 20
24.99999999999997
 30
0.0
 40
3.0
 41
0.0
 71
     5
 72
     1
  1
承認
  7
CONVERTER_11
 73
     1
 44
0.59090909090909
  0
MTEXT
  5
B8
330
48
100
AcDbEntity
  8
1
 62
     2
100
AcDbMText
 10
175.0
 20
23.49999999999997
 30
0.0
 40
3.5
 41
0.0
 71
     5
 72
     1
  1
第三角法
  7
CONVERTER_11
 73
     1
 44
0.54545454545455
  0
MTEXT
  5
B9
330
48
100
AcDbEntity
  8
1
 62
     2
100
AcDbMText
 10
118.5
 20
24.99999999999997
 30
0.0
 40
3.0
 41
0.0
 71
     5
 72
     1
  1
検図
  7
CONVERTER_11
 73
     1
 44
0.59090909090909
  0
MTEXT
  5
BA
330
48
100
AcDbEntity
  8
1
 62
     2
100
AcDbMText
 10
152.5
 20
24.99999999999997
 30
0.0
 40
3.0
 41
0.0
 71
     5
 72
     1
  1
設計
  7
CONVERTER_11
 73
     1
 44
0.59090909090909
  0
MTEXT
  5
BB
330
48
100
AcDbEntity
  8
1
 62
     2
100
AcDbMText
 10
135.5
 20
24.99999999999997
 30
0.0
 40
3.0
 41
0.0
 71
     5
 72
     1
  1
製図
  7
CONVERTER_11
 73
     1
 44
0.59090909090909
  0
MTEXT
  5
BC
330
48
100
AcDbEntity
  8
1
 62
     2
100
AcDbMText
 10
89.5
 20
23.99999999999997
 30
0.0
 40
3.5
 41
0.0
 71
     5
 72
     1
  1
尺度
  7
CONVERTER_11
 73
     1
 44
0.54545454545455
  0
MTEXT
  5
BD
330
48
100
AcDbEntity
  8
1
 62
   250
100
AcDbMText
 10
25.0
 20
4.99999999999997
 30
0.0
 40
3.5
 41
0.0
 71
     4
 72
     1
  1
備考欄の文字列 原点位置=4
  7
CONVERTER_11
 73
     1
 44
0.54545454545455
  0
HATCH
  5
BE
330
48
100
AcDbEntity
  8
1
  6
Continuous
 62
     2
100
AcDbHatch
 10
0.0
 20
0.0
 30
0.0
210
0.0
220
0.0
230
1.0
  2
CUSTOM0
 70
     0
 71
     1
 91
        1
 92
        1
 93
        4
 72
     1
 10
192.4578138032672
 20
15.39722336795623
 11
192.4578138032672
 21
15.22875434022055
 72
     1
 10
192.4578138032672
 20
15.22875434022055
 11
191.1602971697031
 21
15.22875434022055
 72
     1
 10
191.1602971697031
 20
15.22875434022055
 11
191.1602971697031
 21
15.39722336795623
 72
     1
 10
191.1602971697031
 20
15.39722336795623
 11
192.4578138032672
 21
15.39722336795623
 97
        1
330
B1
 75
     1
 76
     2
 52
45.0
 41
0.1
 77
     0
 78
     1
 53
45.0
 43
0.0
 44
0.0
 45
-0.282842712474619
 46
0.0
 79
     0
 98
        1
 10
0.0
 20
0.0
  0
HATCH
  5
BF
330
48
100
AcDbEntity
  8
1
  6
Continuous
 62
     2
100
AcDbHatch
 10
0.0
 20
0.0
 30
0.0
210
0.0
220
0.0
230
1.0
  2
CUSTOM1
 70
     0
 71
     1
 91
        1
 92
        1
 93
        3
 72
     4
 94
        3
 73
     0
 74
     0
 95
       24
 96
       20
 40
0.0
 40
0.0
 40
0.0
 40
0.0
 40
0.221107500875397
 40
0.4273218586245274
 40
0.5080174679239156
 40
0.5914835907870021
 40
0.81432656901926
 40
1.054651302686574
 40
1.295452694023163
 40
1.518109231328814
 40
1.540864321905429
 40
1.59512646062269
 40
1.659890947896003
 40
1.714153085187361
 40
1.73690817496166
 40
1.76495110073535
 40
1.801562291220939
 40
1.953914424543622
 40
2.126104167379705
 40
2.126104167379705
 40
2.126104167379705
 40
2.126104167379705
 10
185.9375369556889
 20
15.58989295113014
 10
185.9112579081811
 20
15.53097628234372
 10
185.8604698894425
 20
15.41711139679254
 10
185.8131784839111
 20
15.14441958233117
 10
185.7043482802618
 20
15.2444548257545
 10
185.5514800279637
 20
15.27118593367326
 10
185.7686155181199
 20
15.48518135017629
 10
185.7838483674381
 20
15.70332117782483
 10
185.8906889492001
 20
15.88451579066423
 10
185.8305380947076
 20
16.16913226311397
 10
185.9334317395402
 20
16.14114089222448
 10
185.9779933468149
 20
16.13243251602297
 10
186.0380842395397
 20
16.12139654183352
 10
186.0756619587438
 20
16.10767523055557
 10
186.1252466928606
 20
16.10756076160221
 10
186.0930158919325
 20
16.07306592398621
 10
186.017180222188
 20
16.08404104537961
 10
186.0429447159694
 20
15.89858969582447
 10
186.005589676385
 20
15.80702313549586
 10
185.9857704961609
 20
15.75844135397702
 72
     4
 94
        3
 73
     0
 74
     0
 95
       70
 96
       66
 40
0.0
 40
0.0
 40
0.0
 40
0.0
 40
0.0241731073021472
 40
0.0846058988987013
 40
0.1631685280353284
 40
0.2417311571789756
 40
0.3021639488292751
 40
0.3263370654895541
 40
0.3533118254248881
 40
0.4228783438922094
 40
0.5179999095313402
 40
0.6216398239466084
 40
0.7167613891499688
 40
0.7863279069649846
 40
0.8133026791761818
 40
0.8372943998771656
 40
0.8945054261372849
 40
0.9627895541962619
 40
1.020000580349072
 40
1.04399230097517
 40
1.071934345522903
 40
1.113121768772912
 40
1.145225199332237
 40
1.225483775412775
 40
1.329819923771486
 40
1.434156071994377
 40
1.5144146477958
 40
1.546518078208408
 40
1.578974764260182
 40
1.662678849314177
 40
1.777131373668397
 40
1.901833377474788
 40
2.016285900500578
 40
2.099989982527945
 40
2.132446666570304
 40
2.158782354486028
 40
2.216720867907816
 40
2.274659381334238
 40
2.300995069256174
 40
2.333451754066146
 40
2.417155836543826
 40
2.531608358985266
 40
2.656310362283761
 40
2.770762886388893
 40
2.854466971340059
 40
2.886923657363865
 40
2.913597976833299
 40
2.982389642875101
 40
3.076451716946962
 40
3.178937260458578
 40
3.272999334739976
 40
3.341791001059199
 40
3.36846532066351
 40
3.396976080738731
 40
3.472140811845967
 40
3.578408190308656
 40
3.700226892456093
 40
3.82204559463431
 40
3.928312973256417
 40
4.003477705314814
 40
4.03198845686688
 40
4.058324144797678
 40
4.116262658236839
 40
4.174201171400639
 40
4.200536849608571
 40
4.200536849608571
 40
4.200536849608571
 40
4.200536849608571
 10
185.9857704961609
 20
15.75844135397702
 10
185.9938259544679
 20
15.75844359811683
 10
186.0220200663241
 20
15.75845146032794
 10
186.0765534803672
 20
15.75830754828368
 10
186.1482891808604
 20
15.75909120499895
 10
186.2236240137062
 20
15.75627570463808
 10
186.2713052366438
 20
15.76298403400954
 10
186.3195071245616
 20
15.7519756369243
 10
186.3062571799873
 20
15.8054640299703
 10
186.3151093964538
 20
15.86049583543088
 10
186.3108698036285
 20
15.95419908726106
 10
186.313348348128
 20
16.04959482218529
 10
186.309093870606
 20
16.14356821983384
 10
186.3179818665846
 20
16.19795062438009
 10
186.3046977409946
 20
16.25233997691457
 10
186.3514119277108
 20
16.23842216335355
 10
186.3943254545737
 20
16.24103877374041
 10
186.4605443456685
 20
16.23648422450752
 10
186.5013342271799
 20
16.22778162134159
 10
186.5525145690819
 20
16.23531799890192
 10
186.52537204872
 20
16.19349970223282
 10
186.4803096055706
 20
16.20284992072594
 10
186.4942065045051
 20
16.13841207371835
 10
186.4858414431653
 20
16.07378219627396
 10
186.4903632178399
 20
15.97529141193885
 10
186.4854741311167
 20
15.87595932842567
 10
186.4950258992081
 20
15.81293115552965
 10
186.47997614552
 20
15.74964011499786
 10
186.5449159457209
 20
15.76515072944266
 10
186.6116246399496
 20
15.75499387697809
 10
186.7241435470828
 20
15.75988800099364
 10
186.8390235448954
 20
15.7569120473278
 10
186.9519871999747
 20
15.76221664184988
 10
187.0176267597678
 20
15.75107306472086
 10
187.0816276691053
 20
15.76744532319854
 10
187.0703142889189
 20
15.71761689905272
 10
187.0775339871509
 20
15.67416715212119
 10
187.0703142611269
 20
15.63071745587442
 10
187.0816277175994
 20
15.58088895196873
 10
187.0176263598972
 20
15.59726166091359
 10
186.9519921240459
 20
15.58611271661585
 10
186.838997431733
 20
15.59144857206851
 10
186.7242456548644
 20
15.58834345663819
 10
186.611318368686
 20
15.59364894682585
 10
186.5455220903585
 20
15.58257300019591
 10
186.4816097975358
 20
15.59887597847614
 10
186.4936015165126
 20
15.54423524395739
 10
186.4862104613006
 20
15.48854295047839
 10
186.4892684841983
 20
15.39649689140567
 10
186.4893422785683
 20
15.30179109873098
 10
186.4860313578359
 20
15.20952782902263
 10
186.4939505989904
 20
15.15435768736137
 10
186.4815076611617
 20
15.10058169100134
 10
186.5389116551632
 20
15.11453768862778
 10
186.5994708140383
 20
15.10511457884224
 10
186.7048680855081
 20
15.10942885928702
 10
186.8204294070622
 20
15.10835504612029
 10
186.9359688877797
 20
15.10725965900993
 10
187.0414181130841
 20
15.1116252577063
 10
187.1018680471804
 20
15.10209426030669
 10
187.159283773911
 20
15.11617289606377
 10
187.1477773876709
 20
15.06707153265681
 10
187.153756678175
 20
15.02564658018647
 10
187.1520311050801
 20
14.97651677966694
 10
187.1521500122971
 20
14.94854428447606
 10
187.1521871691833
 20
14.93980288195948
 72
     4
 94
        3
 73
     0
 74
     0
 95
       62
 96
       58
 40
0.0
 40
0.0
 40
0.0
 40
0.0
 40
0.0598250028308485
 40
0.2024846486897331
 40
0.3727558389221031
 40
0.515415484793607
 40
0.5752404975785339
 40
0.9332326775487276
 40
1.290451762839482
 40
1.602077253145884
 40
1.699931634112136
 40
1.799359756425049
 40
2.270120149657083
 40
2.804661928461534
 40
2.882342287383245
 40
3.076543185719095
 40
3.329004354835553
 40
3.581465524568379
 40
3.775666424543659
 40
3.853346784558279
 40
3.899120679595025
 40
3.984129341792022
 40
4.029903236817371
 40
4.105797496059526
 40
4.295533144152487
 40
4.542189486611734
 40
4.788845828875686
 40
4.97858147641007
 40
5.054475735244314
 40
5.621734664339338
 40
6.130867242037344
 40
6.225249780948585
 40
6.31891303972728
 40
6.663579954558899
 40
7.047498900224747
 40
7.435230791575687
 40
7.498943906668099
 40
7.650875181210092
 40
7.832212509001603
 40
7.984143783696989
 40
8.047856898903117
 40
8.091554632732622
 40
8.17270756696428
 40
8.216405300768002
 40
8.289021782160887
 40
8.46218416075726
 40
8.668861838005341
 40
8.842024215263933
 40
8.914640695475128
 40
8.989881580861331
 40
9.155411528827237
 40
9.320941477744018
 40
9.396182352487267
 40
9.454709011143814
 40
9.583467660170749
 40
9.712226309013028
 40
9.770752957989481
 40
9.770752957989481
 40
9.770752957989481
 40
9.770752957989481
 10
187.1521871691833
 20
14.93980288195948
 10
187.1322348171623
 20
14.93980875568669
 10
187.0647037716466
 20
14.93982863806155
 10
186.9410612161788
 20
14.93949362520324
 10
186.7863180150056
 20
14.9410767375051
 10
186.669734948248
 20
14.93686078860493
 10
186.455094263424
 20
14.95215205331624
 10
186.8518948407229
 20
14.5919872128619
 10
186.8945656069266
 20
14.37510503397163
 10
187.3189162146611
 20
14.19325062511443
 10
187.1439821496074
 20
14.0898519656807
 10
187.0194523925083
 20
13.87831523212722
 10
186.7666277235943
 20
14.34806081001559
 10
186.4797602893627
 20
14.99511516984517
 10
186.490633592666
 20
14.6878267215469
 10
186.488289277796
 20
14.52288616971775
 10
186.4861096126411
 20
14.2887967071169
 10
186.4980774396346
 20
14.0449807242178
 10
186.468798474063
 20
13.89855796860981
 10
186.511452262547
 20
13.75113490174535
 10
186.4239814005639
 20
13.76685797306217
 10
186.3768527606744
 20
13.76694303543452
 10
186.2898973207713
 20
13.75109425482906
 10
186.3313474021722
 20
13.89527771422759
 10
186.3029875004286
 20
14.03855052698452
 10
186.3145973775299
 20
14.27674947365262
 10
186.3124175648272
 20
14.50517235240344
 10
186.3103111127993
 20
14.66705729375993
 10
186.3208035438323
 20
14.98153709333749
 10
186.0128963252893
 20
14.29229470872432
 10
185.7055258267455
 20
13.81476750243052
 10
185.5851367066275
 20
14.03741112637424
 10
185.4074607910721
 20
14.15011034955565
 10
185.8853326362894
 20
14.32548143465458
 10
185.9353959057208
 20
14.56091929252028
 10
186.3583799621717
 20
14.95322989344605
 10
186.127675427354
 20
14.93655307029064
 10
186.004968585934
 20
14.94269518948768
 10
185.8325483095661
 20
14.93312822699571
 10
185.7213224694449
 20
14.95448818489664
 10
185.6025779627448
 20
14.92136265357418
 10
185.6183169706686
 20
15.00203900606882
 10
185.6178550933762
 20
15.04645414290852
 10
185.6027881889931
 20
15.12967081778531
 10
185.7372380935443
 20
15.0906265198388
 10
185.8619755545747
 20
15.1173972932842
 10
186.062875523728
 20
15.10063949044051
 10
186.1921540949353
 20
15.12204225913002
 10
186.3328419928295
 20
15.08868778853419
 10
186.2980927452614
 20
15.22651875785065
 10
186.3222185666713
 20
15.34963257349478
 10
186.2967086182392
 20
15.47024055670333
 10
186.3333251146685
 20
15.60539865141491
 10
186.2211417027769
 20
15.58094545781887
 10
186.1280356457136
 20
15.59307749842019
 10
186.0191547579819
 20
15.58957630069991
 10
185.9569697640964
 20
15.589817559516
 10
185.9375369557246
 20
15.58989295124141
 97
        3
330
A2
330
A0
330
A1
 75
     1
 76
     2
 52
45.0
 41
0.1
 77
     0
 78
     1
 53
45.0
 43
0.0
 44
0.0
 45
-0.282842712474619
 46
0.0
 79
     0
 98
        1
 10
0.0
 20
0.0
  0
HATCH
  5
C0
330
48
100
AcDbEntity
  8
1
  6
Continuous
 62
     2
100
AcDbHatch
 10
0.0
 20
0.0
 30
0.0
210
0.0
220
0.0
230
1.0
  2
CUSTOM2
 70
     0
 71
     1
 91
        1
 92
        1
 93
        1
 72
     4
 94
        3
 73
     0
 74
     0
 95
      124
 96
      120
 40
0.0
 40
0.0
 40
0.0
 40
0.0
 40
0.027818722962451
 40
0.1011590162384269
 40
0.2048470170590239
 40
0.3237088716559245
 40
0.4425707262522
 40
0.5462587270699547
 40
0.6195990203311798
 40
0.647417752257866
 40
0.6750060736115207
 40
0.7357003855242759
 40
0.7963946998054474
 40
0.8239830245571766
 40
0.854093381110286
 40
0.937339662940954
 40
1.063094687343235
 40
1.220731268638073
 40
1.399622220914748
 40
1.589140358637732
 40
1.778658496423898
 40
1.957549448940509
 40
2.115186030873159
 40
2.240941056914463
 40
2.324187341760532
 40
2.354297700109382
 40
2.381886024671888
 40
2.442580338710475
 40
2.503274652750499
 40
2.530862977314606
 40
2.560983949278559
 40
2.640393784452905
 40
2.752662861759128
 40
2.881361560118145
 40
3.010060258455192
 40
3.122329335705339
 40
3.201739170817953
 40
3.231860142753313
 40
3.264298024030368
 40
3.352343701778241
 40
3.482095226868766
 40
3.639650650173031
 40
3.811108022565487
 40
3.982565394927996
 40
4.140120818152581
 40
4.269872343141293
 40
4.357918020802356
 40
4.390355902043985
 40
4.423256253992554
 40
4.508104530073076
 40
4.624121560636843
 40
4.7505281760316
 40
4.866545206602047
 40
4.951393482692004
 40
4.984293834645405
 40
5.011450833242319
 40
5.071196230152096
 40
5.130941627057166
 40
5.158098625648829
 40
5.190998977601519
 40
5.275847253689345
 40
5.391864284256779
 40
5.518270899648324
 40
5.634287930209363
 40
5.719136206288037
 40
5.752036558235925
 40
5.78213094628295
 40
5.862783906229127
 40
5.979550131774995
 40
6.117984316640405
 40
6.263641154587954
 40
6.402075339414163
 40
6.51884156490796
 40
6.599494524815545
 40
6.629588912848782
 40
6.654403028226359
 40
6.713575149488126
 40
6.784199939329445
 40
6.843372060493548
 40
6.868186175802793
 40
6.896246243201865
 40
6.939586233758261
 40
6.967846564564892
 40
7.043584251089831
 40
7.153234334451689
 40
7.28323185573444
 40
7.420011856035476
 40
7.55000937657983
 40
7.659659458835231
 40
7.735397144417226
 40
7.763657474851398
 40
7.796409728011055
 40
7.880876065096329
 40
7.996370852465715
 40
8.12220844641861
 40
8.237703224799203
 40
8.322169562010897
 40
8.35492181520591
 40
8.38207881330769
 40
8.441824209206988
 40
8.501569605240132
 40
8.528726603485707
 40
8.561478856695755
 40
8.645945193877806
 40
8.761439980865317
 40
8.88727758076446
 40
9.00277236200098
 40
9.0872386966612
 40
9.119990949235655
 40
9.152428830613355
 40
9.240474508638572
 40
9.370226034149525
 40
9.52778145798441
 40
9.699238830981402
 40
9.870696203978595
 40
10.02825162781402
 40
10.15800315332564
 40
10.24604883135119
 40
10.27848670378521
 40
10.27848670378521
 40
10.27848670378521
 40
10.27848670378521
 10
195.3821827564383
 20
14.01410517385753
 10
195.3914554737523
 20
14.0141049851127
 10
195.4251744536861
 20
14.0141043087671
 10
195.4934706812465
 20
14.01411807243301
 10
195.592014171158
 20
14.0140322421954
 10
195.7062066464812
 20
14.01441755612247
 10
195.818589441707
 20
14.01300835897541
 10
195.9214376600118
 20
14.01719117422239
 10
195.9806839874849
 20
14.00823089251979
 10
196.0371265937032
 20
14.02164434526057
 10
196.0246255586956
 20
13.97087198613357
 10
196.0329549635703
 20
13.92589320939063
 10
196.024817084112
 20
13.88056752990484
 10
196.0370529214457
 20
13.82931932408462
 10
195.9747773490333
 20
13.84447955365272
 10
195.9060513026868
 20
13.83359750710738
 10
195.7782756749592
 20
13.83911304747969
 10
195.6262984511643
 20
13.83700851253694
 10
195.4502695972523
 20
13.8377100258847
 10
195.2644431934287
 20
13.83745237531287
 10
195.0786167437175
 20
13.83771005144599
 10
194.9025880142168
 20
13.83700841847727
 10
194.7506104154195
 20
13.83911332229985
 10
194.6228357664554
 20
13.83359680767636
 10
194.554107783658
 20
13.84448077125938
 10
194.4918349042883
 20
13.82931786684205
 10
194.5040616290017
 20
13.88057510805167
 10
194.4960004462597
 20
13.92582473272421
 10
194.5040675809892
 20
13.97106357955319
 10
194.4918238487084
 20
14.02234176909954
 10
194.5525017120697
 20
14.00749577363131
 10
194.6162810745736
 20
14.01756448170731
 10
194.7277314353502
 20
14.01294644211995
 10
194.8497533443824
 20
14.01413328905465
 10
194.9719538137823
 20
14.01515863900631
 10
195.0829794287392
 20
14.01092475623397
 10
195.1476517413959
 20
14.02018584521735
 10
195.2091162810501
 20
14.00604423049678
 10
195.1930065601337
 20
14.07235527884513
 10
195.2042980327358
 20
14.14447790121972
 10
195.1987400822561
 20
14.27513760888282
 10
195.200803506169
 20
14.42607323708238
 10
195.2000167127295
 20
14.59335873107883
 10
195.2007845215627
 20
14.76061110332299
 10
195.1988038785628
 20
14.91163289269912
 10
195.2041306156621
 20
15.04206069552992
 10
195.1933101388424
 20
15.11465442605897
 10
195.2090326429876
 20
15.18150469436796
 10
195.143270813249
 20
15.16580512490822
 10
195.0756367830764
 20
15.17609243083993
 10
194.9615885293809
 20
15.1711378684712
 10
194.8451242674902
 20
15.17414128030472
 10
194.7306554121477
 20
15.16880303143387
 10
194.6640324657812
 20
15.18001268074822
 10
194.5990769715185
 20
15.16349132665009
 10
194.6107989758707
 20
15.21473720477056
 10
194.6032830189121
 20
15.25950333784088
 10
194.6107989878835
 20
15.30426944897957
 10
194.5990769505347
 20
15.35551536129737
 10
194.66403263392
 20
15.3389938176681
 10
194.7306533339822
 20
15.3502057137394
 10
194.8451352858063
 20
15.3448543671066
 10
194.9615454436962
 20
15.34791188771113
 10
195.0757660174641
 20
15.34278499010704
 10
195.1430150439227
 20
15.35345733355594
 10
195.2083325941438
 20
15.33742082669073
 10
195.1941391448553
 20
15.3994968575005
 10
195.2036059462994
 20
15.46586761628759
 10
195.1990269004085
 20
15.58239972741963
 10
195.2007696555948
 20
15.71426685022372
 10
195.1997551495392
 20
15.8561596015027
 10
195.2017191344373
 20
15.98769050702577
 10
195.196466855385
 20
16.10524577282999
 10
195.2073408763474
 20
16.16947789001582
 10
195.1919536641853
 20
16.23108802545045
 10
195.24075915378
 20
16.21702407382108
 10
195.2853995564725
 20
16.21954742075311
 10
195.3538643946742
 20
16.21512797401707
 10
195.3959106169102
 20
16.20613025544031
 10
195.4487544758775
 20
16.21411714866506
 10
195.4207035002013
 20
16.17113917611671
 10
195.3749142248594
 20
16.18259552043834
 10
195.3869539073265
 20
16.12173520005134
 10
195.379608607064
 20
16.0576929946877
 10
195.3831195826162
 20
15.94909368863908
 10
195.3819806760173
 20
15.82494319144749
 10
195.3819174780263
 20
15.69189719829875
 10
195.3832872966868
 20
15.56797381249552
 10
195.3791638801313
 20
15.45868337849334
 10
195.3877763103564
 20
15.39608580094166
 10
195.3746757454402
 20
15.33740133296361
 10
195.4393884328198
 20
15.35362113810898
 10
195.5060405953156
 20
15.34270260383308
 10
195.6198779541102
 20
15.34793740173751
 10
195.7357259122097
 20
15.3448554751691
 10
195.8496924263279
 20
15.35018259812507
 10
195.91603410181
 20
15.33904208166539
 10
195.9807188525479
 20
15.35546979593174
 10
195.9689820772722
 20
15.30425925210047
 10
195.9765168063041
 20
15.25950334120998
 10
195.9689820992258
 20
15.21474739010024
 10
195.9807188140736
 20
15.16353690871038
 10
195.9160344075252
 20
15.17996427794218
 10
195.8496886430824
 20
15.16882784447266
 10
195.7357459487012
 20
15.17413115893118
 10
195.6197995623054
 20
15.17114764593542
 10
195.5062756882122
 20
15.17606892268391
 10
195.4389231318804
 20
15.16585087513517
 10
195.3734285122495
 20
15.18145996138813
 10
195.3891713619218
 20
15.11463851827409
 10
195.3783275998213
 20
15.04207057815876
 10
195.3836581629792
 20
14.91162247614414
 10
195.3817136151855
 20
14.76064558185223
 10
195.3823133683214
 20
14.59322243934155
 10
195.3821506559604
 20
14.42656176118368
 10
195.3821895488136
 20
14.27360142921632
 10
195.3821816413099
 20
14.14849178985701
 10
195.3821828382745
 20
14.06507890991416
 10
195.3821827716208
 20
14.02491778281972
 10
195.3821827564383
 20
14.01410517385753
 97
        1
330
A3
 75
     1
 76
     2
 52
45.0
 41
0.1
 77
     0
 78
     1
 53
45.0
 43
0.0
 44
0.0
 45
-0.282842712474619
 46
0.0
 79
     0
 98
        1
 10
0.0
 20
0.0
  0
HATCH
  5
C1
330
48
100
AcDbEntity
  8
1
  6
Continuous
 62
     2
100
AcDbHatch
 10
0.0
 20
0.0
 30
0.0
210
0.0
220
0.0
230
1.0
  2
CUSTOM3
 70
     0
 71
     1
 91
        1
 92
        1
 93
        1
 72
     4
 94
        3
 73
     0
 74
     0
 95
      131
 96
      127
 40
0.0
 40
0.0
 40
0.0
 40
0.0
 40
0.0195577029826016
 40
0.0426490537461311
 40
0.2863607575856515
 40
0.534494843618921
 40
0.7842238845573107
 40
0.8737315789467293
 40
0.9803832810312789
 40
1.092842274517025
 40
1.199761146656783
 40
1.289788768186487
 40
1.351573580786183
 40
1.37072711756141
 40
1.416400936017825
 40
1.470914848355968
 40
1.516588666791762
 40
1.535742203552843
 40
1.634216592293198
 40
1.760283341175034
 40
1.897966686682095
 40
2.031216387368921
 40
2.049689751137914
 40
2.101115601646851
 40
2.179502577739968
 40
2.278859318314082
 40
2.393194462258738
 40
2.516516648383855
 40
2.642834515405981
 40
2.766156701983484
 40
2.880491846754597
 40
2.97984858835864
 40
3.058235565443817
 40
3.10966141666897
 40
3.128134780704147
 40
3.146783742386464
 40
3.191254343315324
 40
3.244332157315983
 40
3.288802758225887
 40
3.30745171989513
 40
3.327717853844741
 40
3.383747753580104
 40
3.468388665924496
 40
3.574487837698801
 40
3.694892515728907
 40
3.822449946852049
 40
3.950007377920438
 40
4.070412055800532
 40
4.176511227368088
 40
4.261152139501534
 40
4.317182039076727
 40
4.337448172964648
 40
4.620011002696263
 40
4.885096638397529
 40
4.945373043518339
 40
5.014107710488648
 40
5.070481727652052
 40
5.319246955636577
 40
5.584812164506047
 40
5.859000912056898
 40
6.133746937542081
 40
6.401732212968885
 40
6.420736683995476
 40
6.472845717451126
 40
6.550702743894054
 40
6.646951193874263
 40
6.754234497930587
 40
6.865196086587365
 40
6.972479390357823
 40
7.068727839771985
 40
7.146584865450994
 40
7.198693898189224
 40
7.217698368905364
 40
7.234950401630841
 40
7.276089864269884
 40
7.325191803515991
 40
7.366331266090374
 40
7.383583298769724
 40
7.402779163492101
 40
7.453386443254533
 40
7.524934666445534
 40
7.606953361405874
 40
7.688972056429026
 40
7.760520279784276
 40
7.811127559734518
 40
7.830323424546139
 40
7.847844055299768
 40
7.894799345666811
 40
7.9627793927445
 40
8.04337429356055
 40
8.128174145149458
 40
8.208769044817263
 40
8.276749090376967
 40
8.323704379669525
 40
8.34122501005626
 40
8.358497614800408
 40
8.401679126686613
 40
8.45781509218567
 40
8.513951057728075
 40
8.557132569708031
 40
8.574405174505074
 40
8.602340668616439
 40
8.643455660539978
 40
8.663225271966649
 40
8.715345156564293
 40
8.789031889628628
 40
8.873502045520363
 40
8.957972194323988
 40
9.031658925567882
 40
9.08377881123457
 40
9.103548423003033
 40
9.11955008312357
 40
9.160817522379872
 40
9.217244429110238
 40
9.278724491644724
 40
9.335151398295508
 40
9.376418837357804
 40
9.392420497300591
 40
9.40119630273481
 40
9.417494229384284
 40
9.426270027749556
 40
9.440875075477589
 40
9.47570249699877
 40
9.517270709865933
 40
9.552098131994102
 40
9.56670316988431
 40
9.56670316988431
 40
9.56670316988431
 40
9.56670316988431
 10
194.6170254148479
 20
15.67015871511023
 10
194.6134345093371
 20
15.66453690702155
 10
194.6056039123625
 20
15.65227754419109
 10
194.5129968974546
 20
15.6160191604097
 10
194.4887622233248
 20
15.40148444212712
 10
194.3858709845938
 20
15.22197284509704
 10
194.1220492364305
 20
15.03615573798143
 10
194.284547156918
 20
14.95959336566078
 10
194.3607225760838
 20
14.89856693195439
 10
194.4492171072758
 20
14.83515804544756
 10
194.538993023311
 20
14.77525634219558
 10
194.5883817636046
 20
14.72102154849204
 10
194.6745708157382
 20
14.69286240541831
 10
194.6411260674229
 20
14.65713309652808
 10
194.621467116631
 20
14.62550387991902
 10
194.5919888217882
 20
14.58475872796066
 10
194.5688989446031
 20
14.5550466348964
 10
194.5380205968357
 20
14.5021142266849
 10
194.472919336574
 20
14.62740334938899
 10
194.3796000122415
 20
14.68213900233931
 10
194.2950636285139
 20
14.7391642393934
 10
194.1722498125743
 20
14.8967528742752
 10
194.1764450847301
 20
14.82035806766833
 10
194.1751478652677
 20
14.77361280161293
 10
194.1758126448076
 20
14.69584785812598
 10
194.1755549986957
 20
14.5990206832442
 10
194.1756431239922
 20
14.48650279078806
 10
194.1756077302282
 20
14.36524085945697
 10
194.1756511758278
 20
14.24086897858958
 10
194.1755199942406
 20
14.11967683631334
 10
194.1759477562046
 20
14.0069114891974
 10
194.174667820231
 20
13.91082913768741
 10
194.1779759851044
 20
13.83113826468697
 10
194.1715197740085
 20
13.78815175788781
 10
194.1806208705556
 20
13.7495543237204
 10
194.1447910339935
 20
13.75810887724067
 10
194.1115223815252
 20
13.75342519985444
 10
194.0604562576041
 20
13.75351298759782
 10
194.0269723972812
 20
13.75794430283818
 10
193.9907585408754
 20
13.74960793842507
 10
194.0009782568665
 20
13.79145277179281
 10
193.9936487887774
 20
13.83778560820171
 10
193.9973633136102
 20
13.92374831106011
 10
193.9959480554896
 20
14.02605142704847
 10
193.9964105554637
 20
14.14453223931509
 10
193.996277368623
 20
14.26957683153353
 10
193.9963015910045
 20
14.39475828107048
 10
193.9963354925551
 20
14.51286645379055
 10
193.9962060293131
 20
14.61628748709514
 10
193.9965507549082
 20
14.69932036153664
 10
193.995869827869
 20
14.75143368521241
 10
193.9994586600623
 20
14.87912907821359
 10
193.7826171386437
 20
14.58048716819618
 10
193.602135492195
 20
14.35263981511513
 10
193.5490322295612
 20
14.49373443289811
 10
193.5200429133149
 20
14.5432576756094
 10
193.419664806282
 20
14.64641779790105
 10
193.7405127723261
 20
14.72695035023776
 10
193.868989700543
 20
14.91066283036432
 10
194.0906454325359
 20
15.1193199577176
 10
194.1770224894068
 20
15.29339211228342
 10
194.4549394229075
 20
15.56967051342509
 10
194.3346247839283
 20
15.56534559551111
 10
194.2863197351349
 20
15.56614856202551
 10
194.2102377454905
 20
15.56574582146582
 10
194.116701000975
 20
15.56590275611607
 10
194.0117594788557
 20
15.56582502576222
 10
193.9033887738717
 20
15.56595464378552
 10
193.7981454235897
 20
15.56554393490689
 10
193.7056237819412
 20
15.56682073671589
 10
193.6268130800707
 20
15.56340766534848
 10
193.5839674565379
 20
15.57023350036318
 10
193.5449499586516
 20
15.56065064201121
 10
193.5526365271863
 20
15.5942077956554
 10
193.5485464404312
 20
15.6252355032223
 10
193.5485531368814
 20
15.67236529270898
 10
193.5526239724911
 20
15.70340941646775
 10
193.5449495574582
 20
15.73701861635898
 10
193.5834819405495
 20
15.72748410420869
 10
193.624122801448
 20
15.73397435498067
 10
193.6951471850463
 20
15.73100150650251
 10
193.7729318149633
 20
15.73174761399154
 10
193.8507292246474
 20
15.73247814044523
 10
193.9217232089908
 20
15.72954235514157
 10
193.9624279791819
 20
15.73595468772948
 10
194.0009853489909
 20
15.72650524176001
 10
193.9927342754928
 20
15.76264692158782
 10
193.9982346669358
 20
15.80129837613224
 10
193.9955754206163
 20
15.86913528561836
 10
193.9965815471533
 20
15.94591641538737
 10
193.9960178018318
 20
16.02849393582754
 10
193.9970714526593
 20
16.10517329229875
 10
193.9942675863129
 20
16.17331990776697
 10
194.0000702721304
 20
16.21132399809344
 10
193.9915654551158
 20
16.24758448077644
 10
194.0255610233125
 20
16.2375572377185
 10
194.05945756831
 20
16.24073266813705
 10
194.1126669060346
 20
16.23508965640606
 10
194.1660768574482
 20
16.23434774436423
 10
194.1995914649491
 20
16.22819223482977
 10
194.2388086183039
 20
16.2334602977359
 10
194.2120263698492
 20
16.19253380793486
 10
194.1708111001723
 20
16.20371204538109
 10
194.1782641540874
 20
16.15867056192121
 10
194.1742227952184
 20
16.11412278028142
 10
194.176171404964
 20
16.042235726217
 10
194.1752364849758
 20
15.96168630588768
 10
194.176510719003
 20
15.88173995404992
 10
194.1732043793863
 20
15.8084183708318
 10
194.1802106179962
 20
15.76688643002565
 10
194.1701440380125
 20
15.7275241856811
 10
194.2029814803921
 20
15.73468063430978
 10
194.236457729648
 20
15.73027243137941
 10
194.2915053476019
 20
15.73217943347894
 10
194.3489502595314
 20
15.73185366407285
 10
194.4023026248309
 20
15.73106308733079
 10
194.4398540896638
 20
15.7331395911807
 10
194.4623172523237
 20
15.73022338167106
 10
194.4751678073731
 20
15.73572552644052
 10
194.4858255685888
 20
15.73801118197786
 10
194.4986635650144
 20
15.74494972588049
 10
194.5145991033069
 20
15.72853046313666
 10
194.5410623920892
 20
15.71709122319445
 10
194.5726805253758
 20
15.69644687835186
 10
194.5987255892151
 20
15.68116869628289
 10
194.6128517723973
 20
15.6726697632318
 10
194.6170254148479
 20
15.67015871511023
 97
        1
330
A4
 75
     1
 76
     2
 52
45.0
 41
0.1
 77
     0
 78
     1
 53
45.0
 43
0.0
 44
0.0
 45
-0.282842712474619
 46
0.0
 79
     0
 98
        1
 10
0.0
 20
0.0
  0
HATCH
  5
C2
330
48
100
AcDbEntity
  8
1
  6
Continuous
 62
     2
100
AcDbHatch
 10
0.0
 20
0.0
 30
0.0
210
0.0
220
0.0
230
1.0
  2
CUSTOM4
 70
     0
 71
     1
 91
        1
 92
        1
 93
        1
 72
     4
 94
        3
 73
     0
 74
     0
 95
       91
 96
       87
 40
0.0
 40
0.0
 40
0.0
 40
0.0
 40
0.0267532254356701
 40
0.0856103386464102
 40
0.1444674521996621
 40
0.1712206856618514
 40
0.2039416005642536
 40
0.2955601971652484
 40
0.4362601844616918
 40
0.616225284450725
 40
0.8256392189704698
 40
1.054685709844411
 40
1.293548478893531
 40
1.532411247938303
 40
1.761457738799568
 40
1.970871673298537
 40
2.150836773256732
 40
2.291536760495593
 40
2.3831553568367
 40
2.41587628410132
 40
2.442629517487963
 40
2.501486630949095
 40
2.560343744424242
 40
2.587096977826515
 40
2.617068194440942
 40
2.699247336756083
 40
2.822032643466396
 40
2.973822353257925
 40
3.143014704823368
 40
3.318007936879947
 40
3.48720028818678
 40
3.63898999754826
 40
3.761775303794759
 40
3.843954445753094
 40
3.87392566222979
 40
3.890812773500496
 40
3.907699884771674
 40
3.937960767857289
 40
3.980983618142322
 40
4.199085915228461
 40
4.439444339237255
 40
4.677588241260893
 40
5.050698317837779
 40
5.448212454763165
 40
5.85529121804469
 40
6.138575438885349
 40
6.417434507584194
 40
6.444551104393876
 40
6.504207617363174
 40
6.563864130314496
 40
6.590980727104089
 40
6.848609460381472
 40
7.109611990668433
 40
7.352910904446096
 40
7.557830220705474
 40
7.587518925913391
 40
7.652834077375811
 40
7.718149228845748
 40
7.747837934062051
 40
7.854880190301015
 40
7.976511257403553
 40
8.369487896592354
 40
8.757514959223647
 40
9.12607241933111
 40
9.460639380392172
 40
9.746695593035913
 40
9.777569943118694
 40
9.807050320931788
 40
9.83037733612892
 40
9.886003295435993
 40
9.9523955694299
 40
10.00802152870625
 40
10.03134854388217
 40
10.21356951009588
 40
10.42203479292871
 40
10.66154556731063
 40
10.91693789564304
 40
11.15832906556565
 40
11.18982674596622
 40
11.27286608520406
 40
11.39026653033348
 40
11.52484752840885
 40
11.65942852648447
 40
11.77682897161483
 40
11.85986831085682
 40
11.89136598230427
 40
11.89136598230427
 40
11.89136598230427
 40
11.89136598230427
 10
190.7027885008196
 20
14.70699600701769
 10
190.7028237765288
 20
14.71587847311982
 10
190.7029366710796
 20
14.74430237047343
 10
190.7012984568489
 20
14.794096391698
 10
190.7069750292911
 20
14.83657564478151
 10
190.6956928731706
 20
14.88730154856844
 10
190.7632296979031
 20
14.87012900740105
 10
190.83880292107
 20
14.88290227165993
 10
190.9828357056
 20
14.87629729457378
 10
191.1569419185427
 20
14.87888462206463
 10
191.3639599611003
 20
14.8780059195555
 10
191.5894688172378
 20
14.87828207920024
 10
191.8251162293406
 20
14.87818339658659
 10
192.0607640531348
 20
14.87828184412765
 10
192.2862717580626
 20
14.87800678190785
 10
192.4932934632805
 20
14.87888186270732
 10
192.6673888915288
 20
14.87630522678443
 10
192.8114492071986
 20
14.8828829044921
 10
192.8869691915292
 20
14.87016243405601
 10
192.954577603703
 20
14.88726400191684
 10
192.9430840140676
 20
14.83674785802937
 10
192.9505104581733
 20
14.79253252226498
 10
192.9428838927986
 20
14.74867966503606
 10
192.9546489459425
 20
14.69878374479325
 10
192.8930788491983
 20
14.71393227712508
 10
192.8256791738672
 20
14.7031066535067
 10
192.7013004056221
 20
14.70852031626233
 10
192.555442823657
 20
14.70649205390782
 10
192.3893576440085
 20
14.70715777578384
 10
192.2188412621724
 20
14.70689643521239
 10
192.0519790855388
 20
14.70721553391091
 10
191.9087346827105
 20
14.70635302590759
 10
191.7773313869834
 20
14.70863300482986
 10
191.7239859134656
 20
14.70407704374198
 10
191.6485188456913
 20
14.70999914992874
 10
191.6769075779232
 20
14.7009416934335
 10
191.7033652409542
 20
14.69725912268927
 10
191.6633522907701
 20
14.6665427196827
 10
191.5713663691868
 20
14.6766759117463
 10
191.543939620707
 20
14.43032502247782
 10
191.4478793967234
 20
14.27499558764372
 10
191.1917277964474
 20
13.94525417931566
 10
191.7627537732762
 20
14.08430022210449
 10
192.0173656320517
 20
14.08291779973361
 10
192.6279647048617
 20
13.99790569242085
 10
192.3340698578084
 20
14.29685417558201
 10
192.0133304286514
 20
14.44330856901779
 10
192.1313543360434
 20
14.50025540818285
 10
192.1724716466261
 20
14.52420099873345
 10
192.2156812394411
 20
14.54599758811228
 10
192.3174574094451
 20
14.60928721253899
 10
192.4328867625247
 20
14.35147151408777
 10
192.6329591642277
 20
14.21616041113679
 10
192.7269077387228
 20
14.03792795138879
 10
192.9558829746393
 20
13.87997821027044
 10
192.8596031846708
 20
13.82915972576296
 10
192.8167959763779
 20
13.7988129252305
 10
192.7718243528779
 20
13.77466130281454
 10
192.7121720925214
 20
13.72552146747564
 10
192.6789731061325
 20
13.85997475673606
 10
192.5582013350796
 20
14.01594265286576
 10
192.1970976005979
 20
13.88569928059553
 10
191.838506195554
 20
13.90224694409481
 10
191.4570920450081
 20
13.89331229351864
 10
191.170345528289
 20
13.82882671672405
 10
190.8592055599715
 20
13.94230668192826
 10
190.8268737818788
 20
13.83122259927765
 10
190.7896178253317
 20
13.81196313850011
 10
190.7865737632753
 20
13.85874784087295
 10
190.7679892860608
 20
13.89806853919133
 10
190.7512436616777
 20
13.9576598347823
 10
190.7383730915753
 20
14.00201969871281
 10
190.7042327806428
 20
14.09106331120198
 10
190.9482714457754
 20
14.02181042943768
 10
191.1441394486671
 20
14.00030369057741
 10
191.2395426381277
 20
14.28226484478461
 10
191.2945135769596
 20
14.44363045421119
 10
191.5159619357156
 20
14.71391177589735
 10
191.3849239381216
 20
14.70548446853731
 10
191.3110026555854
 20
14.70779008496967
 10
191.1977459876244
 20
14.70671378321655
 10
191.0694251807484
 20
14.70707639076507
 10
190.9404252030415
 20
14.70697724466083
 10
190.828784094629
 20
14.70699932712569
 10
190.7514663970026
 20
14.70699579189667
 10
190.713287653201
 20
14.70699595845078
 10
190.7027885008196
 20
14.70699600701769
 97
        1
330
A5
 75
     1
 76
     2
 52
45.0
 41
0.1
 77
     0
 78
     1
 53
45.0
 43
0.0
 44
0.0
 45
-0.282842712474619
 46
0.0
 79
     0
 98
        1
 10
0.0
 20
0.0
  0
HATCH
  5
C3
330
48
100
AcDbEntity
  8
1
  6
Continuous
 62
     2
100
AcDbHatch
 10
0.0
 20
0.0
 30
0.0
210
0.0
220
0.0
230
1.0
  2
CUSTOM5
 70
     0
 71
     1
 91
        1
 92
        1
 93
        1
 72
     4
 94
        3
 73
     0
 74
     0
 95
       35
 96
       31
 40
0.0
 40
0.0
 40
0.0
 40
0.0
 40
0.0335231036620673
 40
0.0713218571712039
 40
0.4278866681487111
 40
0.8116865841964156
 40
1.198190238000073
 40
1.561379546812701
 40
1.659983174622061
 40
1.759315573807206
 40
2.132719617231092
 40
2.525233363588845
 40
2.910815397779715
 40
3.265244364303306
 40
3.592606723582052
 40
3.964386154604001
 40
4.359942131737826
 40
4.75815411863934
 40
4.843846538699965
 40
4.936650065543273
 40
5.256616602537357
 40
5.581707404416094
 40
5.899719158308189
 40
6.198363494280791
 40
6.466301046615821
 40
6.493895311537142
 40
6.559697020196935
 40
6.638234543442509
 40
6.704036252154262
 40
6.731630508423068
 40
6.731630508423068
 40
6.731630508423068
 40
6.731630508423068
 10
191.9736010568669
 20
16.23463843719131
 10
191.9676006097789
 20
16.2248069054232
 10
191.9548344099156
 20
16.20388988579795
 10
191.7949362006555
 20
16.17127126532691
 10
192.2322025842337
 20
15.88206680336697
 10
192.4345394828261
 20
15.68041138358435
 10
192.6819564267973
 20
15.43749387603273
 10
193.1831513624606
 20
15.36047662757772
 10
193.012556219897
 20
15.21876939174654
 10
192.9383299463202
 20
15.01710366209104
 10
192.6131432248187
 20
15.36956287174724
 10
192.3277741670664
 20
15.53175212559559
 10
192.0337604077658
 20
15.73687130053046
 10
191.8084452691134
 20
16.21827488595454
 10
191.5993085055521
 20
15.7534304660922
 10
191.3207873674834
 20
15.54350952252909
 10
191.0371383177209
 20
15.37424456359982
 10
190.707863952783
 20
15.0014236090793
 10
190.6277012318224
 20
15.19708014458998
 10
190.4759724909744
 20
15.3249110419059
 10
190.9083395826795
 20
15.40454031765933
 10
191.0962565329765
 20
15.60026634915469
 10
191.3468477420502
 20
15.81632996916752
 10
191.5714350470161
 20
15.98190992300055
 10
191.6259775409712
 20
16.26133964636822
 10
191.7494661029011
 20
16.24737950408075
 10
191.806027334452
 20
16.24521268867644
 10
191.8761870984944
 20
16.24046859881356
 10
191.9333414022105
 20
16.23709429350538
 10
191.9644190320838
 20
16.23519854711116
 10
191.9736010568669
 20
16.23463843719131
 97
        1
330
A6
 75
     1
 76
     2
 52
45.0
 41
0.1
 77
     0
 78
     1
 53
45.0
 43
0.0
 44
0.0
 45
-0.282842712474619
 46
0.0
 79
     0
 98
        1
 10
0.0
 20
0.0
  0
HATCH
  5
C4
330
48
100
AcDbEntity
  8
1
  6
Continuous
 62
     2
100
AcDbHatch
 10
0.0
 20
0.0
 30
0.0
210
0.0
220
0.0
230
1.0
  2
CUSTOM6
 70
     0
 71
     1
 91
        1
 92
        1
 93
        1
 72
     4
 94
        3
 73
     0
 74
     0
 95
       15
 96
       11
 40
0.0
 40
0.0
 40
0.0
 40
0.0
 40
0.2785535985096574
 40
0.5215624748198886
 40
0.6076917376040522
 40
0.6938210001741244
 40
0.940501914645512
 40
1.221691403489128
 40
1.300471877081052
 40
1.379252341684824
 40
1.379252341684824
 40
1.379252341684824
 40
1.379252341684824
 10
189.5681493630999
 20
16.22930267330378
 10
189.6296017794178
 20
16.17691646592712
 10
189.7446649974113
 20
16.07882876798219
 10
190.0397348497244
 20
15.92889785897219
 10
189.9025147631857
 20
15.84343227515011
 10
189.8041227843778
 20
15.71085785201552
 10
189.713003359065
 20
16.01616985781418
 10
189.3636839480655
 20
16.07967869465369
 10
189.511925837657
 20
16.17896509880874
 10
189.5494081874236
 20
16.21252348402379
 10
189.5681493630999
 20
16.22930267330378
 97
        1
330
A7
 75
     1
 76
     2
 52
45.0
 41
0.1
 77
     0
 78
     1
 53
45.0
 43
0.0
 44
0.0
 45
-0.282842712474619
 46
0.0
 79
     0
 98
        1
 10
0.0
 20
0.0
  0
HATCH
  5
C5
330
48
100
AcDbEntity
  8
1
  6
Continuous
 62
     2
100
AcDbHatch
 10
0.0
 20
0.0
 30
0.0
210
0.0
220
0.0
230
1.0
  2
CUSTOM7
 70
     0
 71
     1
 91
        1
 92
        1
 93
        1
 72
     4
 94
        3
 73
     0
 74
     0
 95
       75
 96
       71
 40
0.0
 40
0.0
 40
0.0
 40
0.0
 40
0.0342546099129691
 40
0.1245622414432346
 40
0.2522385480897518
 40
0.3985991922940662
 40
0.5449598364980839
 40
0.6726361431438852
 40
0.7629437746736942
 40
0.7971983935297973
 40
1.101723623449658
 40
1.408591244036661
 40
1.433332471690367
 40
1.487763172450163
 40
1.542193873081992
 40
1.566935100592542
 40
1.923523931821851
 40
2.271755704953649
 40
2.590579755100892
 40
2.858943305581149
 40
2.889120339309171
 40
2.918305855191121
 40
2.941366645531244
 40
2.996357760973133
 40
3.061992318140675
 40
3.116983433626869
 40
3.140044223997548
 40
3.411273122936472
 40
3.732441619741137
 40
3.761068217532837
 40
3.837787499630397
 40
3.948858699126036
 40
4.080541049104412
 40
4.219093782625797
 40
4.350776132722346
 40
4.46184733240568
 40
4.538566614678413
 40
4.56719321254466
 40
4.594907573998918
 40
4.666381453557457
 40
4.764111044011067
 40
4.87059253812587
 40
4.968322128642321
 40
5.039796008287007
 40
5.067510369784466
 40
5.094263603185678
 40
5.153120716668311
 40
5.211977830150755
 40
5.238731063551758
 40
5.272290535138997
 40
5.363380529444858
 40
5.497618415781536
 40
5.660621563453778
 40
5.838007341749479
 40
6.01539311991083
 40
6.178396267038456
 40
6.312634151842407
 40
6.403724143059397
 40
6.437283612672492
 40
6.464036846261107
 40
6.52289396000472
 40
6.581751071483983
 40
6.608504301590927
 40
6.637253941281075
 40
6.711397748902926
 40
6.812778057283539
 40
6.923237199249315
 40
7.024617507623959
 40
7.098761315207612
 40
7.127510946007562
 40
7.127510946007562
 40
7.127510946007562
 40
7.127510946007562
 10
188.4418622390564
 20
14.95849128473262
 10
188.4418622819707
 20
14.94707313408718
 10
188.4418624481129
 20
14.90555257842627
 10
188.4418593081786
 20
14.82146922003769
 10
188.4418788279801
 20
14.70004497322327
 10
188.4417912187737
 20
14.55980494047446
 10
188.442111623523
 20
14.42006556794574
 10
188.4411605909741
 20
14.29745038894927
 10
188.4431978595967
 20
14.21587074438041
 10
188.4349433178746
 20
14.06271267077696
 10
188.7430797940901
 20
14.22560236054717
 10
189.0350645173736
 20
14.39482938687999
 10
189.0408354448707
 20
14.25973235781907
 10
189.0455471719891
 20
14.2161722116044
 10
189.0482535411918
 20
14.17211249350541
 10
189.0672545672958
 20
14.02272590363129
 10
188.6583942247303
 20
14.08681172241259
 10
188.3793710348832
 20
13.97296341411014
 10
188.1018081587166
 20
13.8736409581114
 10
187.8099837184401
 20
13.91630687596354
 10
187.7869144678657
 20
13.81321679744538
 10
187.7537474383333
 20
13.78691091244466
 10
187.7480653962738
 20
13.83455309036301
 10
187.7284214559044
 20
13.87180336115066
 10
187.7095089485623
 20
13.9300738784756
 10
187.6942849867707
 20
13.97385201007801
 10
187.6477246372935
 20
14.08759421046308
 10
187.989089731245
 20
14.05576301120045
 10
188.2679649367388
 20
14.02161435106477
 10
188.2617753034907
 20
14.1691397647965
 10
188.2630935452773
 20
14.2401315090883
 10
188.2624831689948
 20
14.34719767958659
 10
188.2625871570724
 20
14.47398529785995
 10
188.2629987964055
 20
14.60849243496048
 10
188.2613907841969
 20
14.73395549951182
 10
188.2659902567925
 20
14.84505246719115
 10
188.256418650221
 20
14.90761886800686
 10
188.2704001783691
 20
14.96595388294999
 10
188.2147384386704
 20
14.95289710582235
 10
188.1575655197821
 20
14.96136307749496
 10
188.0616048925648
 20
14.95729976080634
 10
187.963376752282
 20
14.95970889852472
 10
187.8672582457561
 20
14.95551600613386
 10
187.8104648525811
 20
14.96429346441161
 10
187.7550356873384
 20
14.95094936850118
 10
187.7670679427917
 20
15.00036910959254
 10
187.7592003173937
 20
15.04393988030393
 10
187.7666295563828
 20
15.08830469118522
 10
187.7551930564144
 20
15.13902297763988
 10
187.8232102370132
 20
15.1216246075774
 10
187.8968496879747
 20
15.13417450237186
 10
188.0325064058211
 20
15.12799677011094
 10
188.1884909024525
 20
15.13029203093081
 10
188.3615926358143
 20
15.12940968262527
 10
188.5346942964181
 20
15.13029207142405
 10
188.6906789811216
 20
15.12799662955547
 10
188.8263351889797
 20
15.13417486262428
 10
188.8999756705652
 20
15.12162394218332
 10
188.9679914174724
 20
15.1390237301214
 10
188.9565590885922
 20
15.08830130414552
 10
188.9639539458298
 20
15.04397060811106
 10
188.956203991227
 20
15.00028307550193
 10
188.9681203741877
 20
14.95063590098475
 10
188.9108170223616
 20
14.96461411338423
 10
188.8520145789772
 20
14.95539755673252
 10
188.7525293633199
 20
14.95952268164927
 10
188.649428009835
 20
14.95822760025886
 10
188.5537846354573
 20
14.95854077077638
 10
188.4857467971617
 20
14.95848776697143
 10
188.4514462213443
 20
14.95849051871654
 10
188.4418622390564
 20
14.95849128473262
 97
        1
330
A8
 75
     1
 76
     2
 52
45.0
 41
0.1
 77
     0
 78
     1
 53
45.0
 43
0.0
 44
0.0
 45
-0.282842712474619
 46
0.0
 79
     0
 98
        1
 10
0.0
 20
0.0
  0
HATCH
  5
C6
330
48
100
AcDbEntity
  8
1
  6
Continuous
 62
     2
100
AcDbHatch
 10
0.0
 20
0.0
 30
0.0
210
0.0
220
0.0
230
1.0
  2
CUSTOM8
 70
     0
 71
     1
 91
        1
 92
        1
 93
        1
 72
     4
 94
        3
 73
     0
 74
     0
 95
       91
 96
       87
 40
0.0
 40
0.0
 40
0.0
 40
0.0
 40
0.0345987051695718
 40
0.1258134969461369
 40
0.2547723404888987
 40
0.4026032099154125
 40
0.5504340793416704
 40
0.679392922883608
 40
0.7706077146571035
 40
0.8052064287780925
 40
1.124852390615279
 40
1.427402236308874
 40
1.706356627453512
 40
1.955541417875197
 40
2.169485938566342
 40
2.344350786664796
 40
2.480568411561947
 40
2.590440557428969
 40
2.649189927151123
 40
2.749320643306329
 40
2.912632739880035
 40
3.147745656000239
 40
3.244827496385136
 40
3.338490056946723
 40
3.583815413207161
 40
3.761423943238528
 40
3.886956104362692
 40
3.985855451886853
 40
4.091766255337738
 40
4.250186473811931
 40
4.422734315084577
 40
4.628285684838675
 40
4.872093227758509
 40
5.152549652145623
 40
5.464967135837603
 40
5.80320147785252
 40
6.160362988813993
 40
6.193449448276048
 40
6.284170385501702
 40
6.419718138764572
 40
6.587285046385822
 40
6.774063446723736
 40
6.967245678113719
 40
7.154024078817705
 40
7.321590987026091
 40
7.457138740890449
 40
7.547859678556185
 40
7.580946138182745
 40
7.608533084714799
 40
7.669224367077777
 40
7.729915649429997
 40
7.75750259595005
 40
7.790278062553504
 40
7.880146277431002
 40
8.014419963180465
 40
8.180411842397966
 40
8.365434637679435
 40
8.556801071622736
 40
8.741823866830849
 40
8.90781574591636
 40
9.042089431507513
 40
9.131957646249639
 40
9.164733112797215
 40
9.415425063140134
 40
9.667986180958613
 40
9.69416980746278
 40
9.75660768604774
 40
9.831130315322547
 40
9.89356819390001
 40
9.919751820398828
 40
9.950967964690655
 40
9.996421631210763
 40
10.22087981037465
 40
10.44341866197554
 40
10.47847970788866
 40
10.57091337438767
 40
10.70159545461241
 40
10.85140174170372
 40
11.00120802880489
 40
11.13189010907395
 40
11.22432377583023
 40
11.25938480938969
 40
11.28697175596157
 40
11.34766303835931
 40
11.40835432042082
 40
11.43594125892117
 40
11.43594125892117
 40
11.43594125892117
 40
11.43594125892117
 10
190.0818114333289
 20
15.55242795125074
 10
190.0702785844941
 20
15.55242790287913
 10
190.0283409444998
 20
15.5524277370416
 10
189.9434129719026
 20
15.55243125800906
 10
189.8207688553128
 20
15.55240926435875
 10
189.6791206916993
 20
15.55250801177051
 10
189.537975369849
 20
15.55214686232418
 10
189.4141351317904
 20
15.55321883609086
 10
189.3317217825382
 20
15.55092249091265
 10
189.1727791229692
 20
15.56048569373417
 10
189.3503402353376
 20
15.19785394311368
 10
189.3379739205452
 20
14.95243127723111
 10
189.4064519473864
 20
14.66862501324832
 10
189.469302432097
 20
14.43250999939032
 10
189.5452253431728
 20
14.23326740396126
 10
189.6303189577016
 20
14.0774534745137
 10
189.7244607592935
 20
13.97657857781389
 10
189.8282648207727
 20
13.92465852638962
 10
189.9125872030773
 20
13.97606484379614
 10
189.9351322179452
 20
14.09144544037515
 10
189.9745730975371
 20
14.21885149702377
 10
189.9202919734941
 20
14.53622328086755
 10
190.0451218072473
 20
14.38982180140902
 10
190.2019291513603
 20
14.3579530033117
 10
190.0947720007057
 20
14.12421357767625
 10
190.0808711209867
 20
13.95972776583653
 10
190.0234709467226
 20
13.8313086912248
 10
189.9335020145008
 20
13.76018802352822
 10
189.8095274657878
 20
13.7443232414225
 10
189.663427319686
 20
13.77993797554167
 10
189.5243894320284
 20
13.90000570500274
 10
189.4102003962144
 20
14.07435682550317
 10
189.3146141301486
 20
14.29946603111237
 10
189.2318652572626
 20
14.56388246006439
 10
189.1807179256411
 20
14.8818793309854
 10
189.0770189207337
 20
15.15543728488909
 10
189.2042841208523
 20
15.56005818612866
 10
189.0357890623018
 20
15.55112367849675
 10
188.9511995787077
 20
15.5531596141836
 10
188.8189876387627
 20
15.55213937388403
 10
188.6560505094104
 20
15.55253230318426
 10
188.4733759170532
 20
15.55235696313365
 10
188.2847057373383
 20
15.55260105307465
 10
188.1014469020189
 20
15.55185657906233
 10
187.9404746832718
 20
15.55416360522422
 10
187.8029808335276
 20
15.5479980488366
 10
187.728959037231
 20
15.56032838458208
 10
187.6613215186857
 20
15.54329323723553
 10
187.6732373719269
 20
15.59524438447525
 10
187.6655677285694
 20
15.64071424966526
 10
187.6732592225115
 20
15.68614453703702
 10
187.6613141797762
 20
15.73802395984567
 10
187.7283588305866
 20
15.72119143490261
 10
187.8017375665676
 20
15.73335409092667
 10
187.9379128305272
 20
15.72727231074956
 10
188.0973811801512
 20
15.72954834315055
 10
188.2789173085836
 20
15.72881233998959
 10
188.4658034862179
 20
15.7290595419613
 10
188.6468012316836
 20
15.72886400799251
 10
188.8080802578878
 20
15.72932234714836
 10
188.9393882124887
 20
15.72812673751203
 10
189.0225051322596
 20
15.7305134731974
 10
189.1556236547814
 20
15.7223060572546
 10
189.0645893502659
 20
15.97752868952653
 10
188.9789633074417
 20
16.24164358328245
 10
189.0990589003456
 20
16.22904442969163
 10
189.1514264948543
 20
16.22694235763073
 10
189.2214497569715
 20
16.22535399889653
 10
189.2671922337817
 20
16.2160256753811
 10
189.3220812646933
 20
16.22545966915423
 10
189.2963574785681
 20
16.1773302865517
 10
189.1825397571453
 20
16.18266829744166
 10
189.3159346621135
 20
15.95449174576774
 10
189.1943658735471
 20
15.7215685659592
 10
189.3223188769413
 20
15.73087258884436
 10
189.4049048406461
 20
15.72801001754677
 10
189.5307214850824
 20
15.72923437412299
 10
189.6741469838057
 20
15.72932431888961
 10
189.8157420951728
 20
15.7274616318385
 10
189.9459127249967
 20
15.7333307593716
 10
190.0193452286191
 20
15.720703408232
 10
190.0891112922096
 20
15.73877563110409
 10
190.0775772605396
 20
15.68612850546323
 10
190.0833184346681
 20
15.64221317686544
 10
190.0816615770911
 20
15.59089982676547
 10
190.081775756167
 20
15.56158792021631
 10
190.0818114333289
 20
15.55242795125074
 97
        1
330
A9
 75
     1
 76
     2
 52
45.0
 41
0.1
 77
     0
 78
     1
 53
45.0
 43
0.0
 44
0.0
 45
-0.282842712474619
 46
0.0
 79
     0
 98
        1
 10
0.0
 20
0.0
  0
HATCH
  5
C7
330
48
100
AcDbEntity
  8
1
  6
Continuous
 62
     2
100
AcDbHatch
 10
0.0
 20
0.0
 30
0.0
210
0.0
220
0.0
230
1.0
  2
CUSTOM9
 70
     0
 71
     1
 91
        1
 92
        1
 93
        1
 72
     4
 94
        3
 73
     0
 74
     0
 95
      118
 96
      114
 40
0.0
 40
0.0
 40
0.0
 40
0.0
 40
0.105470816297341
 40
0.2466098270051896
 40
0.3965912874591219
 40
0.5285525069753888
 40
0.6156245055642026
 40
0.6431434105797338
 40
0.7036850037986028
 40
0.7642265984504425
 40
0.7917455052354743
 40
0.9287404319989726
 40
1.106572819088023
 40
1.287544879681012
 40
1.317578308030529
 40
1.399928030857166
 40
1.522968204799942
 40
1.675072986590563
 40
1.844616533180642
 40
2.019973001638705
 40
2.189516548880017
 40
2.341621331585356
 40
2.46466150632049
 40
2.547011229647056
 40
2.57704465816802
 40
2.60379789089309
 40
2.662655002908777
 40
2.721512114949589
 40
2.748265347702769
 40
2.774215307344845
 40
2.845959313407175
 40
2.954338556588376
 40
3.090194227585555
 40
3.24436751710052
 40
3.40769961584428
 40
3.571031714539429
 40
3.725205003920109
 40
3.86106067472961
 40
3.969439917716303
 40
4.041183923628977
 40
4.06713388321297
 40
4.311886746012158
 40
4.547897258335524
 40
4.764747083043963
 40
4.952749679951766
 40
5.045772974195889
 40
5.137862019644976
 40
5.330543169793018
 40
5.553448265244009
 40
5.795083855888168
 40
6.043293412177232
 40
6.285761695541176
 40
6.313902908752659
 40
6.384255941793249
 40
6.475714884766838
 40
6.5671738277589
 40
6.637526860839678
 40
6.665668074074041
 40
6.692018920328016
 40
6.749990782071091
 40
6.807962643790463
 40
6.834313490017937
 40
6.856393084245216
 40
6.913335195649839
 40
6.991194817302503
 40
7.076026942283764
 40
7.153886563725255
 40
7.210828674844837
 40
7.232908268931173
 40
7.258199334923694
 40
7.32487578159234
 40
7.419142481924997
 40
7.527204308841934
 40
7.635266135230509
 40
7.729532834168495
 40
7.796209279292814
 40
7.82150034459476
 40
7.844652988850831
 40
7.899863140541609
 40
7.965759128053775
 40
8.020969279771059
 40
8.044121924046525
 40
8.069356610160618
 40
8.109134395441385
 40
8.132238100191097
 40
8.193147867786463
 40
8.279261678876635
 40
8.377977512673848
 40
8.47669334714663
 40
8.562807160411683
 40
8.62371693082647
 40
8.646820636853423
 40
8.671988793774236
 40
8.734909185828148
 40
8.816705695188862
 40
8.898502204815433
 40
8.961422597377894
 40
8.986590754551006
 40
9.012941600733162
 40
9.070913462380252
 40
9.128885324081748
 40
9.155236170325072
 40
9.180404327929114
 40
9.243324721948188
 40
9.32512123421198
 40
9.406917746637635
 40
9.46983814197809
 40
9.495006288270865
 40
9.517811184379006
 40
9.572192090487011
 40
9.637098333281244
 40
9.691479239515447
 40
9.714284125643486
 40
9.714284125643486
 40
9.714284125643486
 40
9.714284125643486
 10
185.2874469028653
 20
15.26889163187715
 10
185.3090990569037
 20
15.24111869242807
 10
185.3597257109473
 20
15.17618054561232
 10
185.4349383202591
 20
15.06891060312893
 10
185.5248482274346
 20
14.95377438266621
 10
185.5709169676673
 20
14.85357045748316
 10
185.6655825294655
 20
14.7843400681494
 10
185.6204439320412
 20
14.73771639678272
 10
185.594704778579
 20
14.69660308866037
 10
185.5645196708012
 20
14.66065971727937
 10
185.5193684730562
 20
14.58579782596092
 10
185.4710504458562
 20
14.80782524253603
 10
185.3968539713073
 20
14.84510677337708
 10
185.2836047324606
 20
15.11610202130597
 10
185.288513357817
 20
15.00095328446226
 10
185.2868486556306
 20
14.92836675781624
 10
185.2876830076713
 20
14.80625588483983
 10
185.2873609540264
 20
14.65913800810458
 10
185.2875076912455
 20
14.49307063956553
 10
185.2872950092722
 20
14.32187554608599
 10
185.2879497252034
 20
14.15552828635495
 10
185.2859192461139
 20
14.0093517305569
 10
185.291346039993
 20
13.88471047474608
 10
185.2804930868708
 20
13.81718656540623
 10
185.2956739155555
 20
13.7554906141702
 10
185.2457895108134
 20
13.76727503896998
 10
185.2017150342522
 20
13.75943822779966
 10
185.15823716302
 20
13.767604413727
 10
185.1092346786489
 20
13.75538056738465
 10
185.1218731234825
 20
13.8096066724931
 10
185.113018296845
 20
13.86936918907554
 10
185.1175058770314
 20
13.97922029044368
 10
185.115796013599
 20
14.11029975405676
 10
185.1163550915987
 20
14.26198011444325
 10
185.1161928768694
 20
14.42211074929951
 10
185.1162269924674
 20
14.58236865674564
 10
185.1162514960128
 20
14.73370247520437
 10
185.1161453543224
 20
14.86582156338599
 10
185.1164299141932
 20
14.97294802533192
 10
185.1158675547567
 20
15.03808619579471
 10
185.118076508369
 20
15.16618957858674
 10
185.0319435998601
 20
14.79097610391572
 10
184.9555140818499
 20
14.63918193123393
 10
184.8660040767833
 20
14.47766206446304
 10
184.7640413217327
 20
14.2047184882017
 10
184.7187976491038
 20
14.36717346596508
 10
184.6102355941671
 20
14.45605432058118
 10
184.7995791751752
 20
14.60549794961406
 10
184.8565340545701
 20
14.79749136974923
 10
184.9717520993352
 20
15.02899622906754
 10
184.9940151630132
 20
15.2179725975906
 10
185.177190515214
 20
15.49454089325927
 10
185.0538033597552
 20
15.48698978832091
 10
184.9925684166834
 20
15.48856772366116
 10
184.9081999617064
 20
15.48882592573669
 10
184.8204235085966
 20
15.48544845751203
 10
184.7656768696122
 20
15.49394814982016
 10
184.7104703026025
 20
15.48048561049785
 10
184.7222823035536
 20
15.52931442126761
 10
184.7142496151794
 20
15.57269004896706
 10
184.7228186104678
 20
15.61509438309571
 10
184.7102943409157
 20
15.66267796552117
 10
184.7555101538735
 20
15.65267212995107
 10
184.8014815562723
 20
15.65894105174059
 10
184.877722204771
 20
15.6559356140587
 10
184.9561296131993
 20
15.65770448278539
 10
185.0323992648932
 20
15.65464793981658
 10
185.0783009459475
 20
15.66103971376175
 10
185.1231733965399
 20
15.65093822978894
 10
185.1105552275634
 20
15.70157201581897
 10
185.1191936582707
 20
15.75501261882068
 10
185.1152361595442
 20
15.84863255131678
 10
185.1162325068335
 20
15.95112606688921
 10
185.1171927413073
 20
16.0535327024816
 10
185.1133211458005
 20
16.14735929609318
 10
185.1217789814365
 20
16.2003654284035
 10
185.1093075932835
 20
16.25211435651185
 10
185.154210638985
 20
16.23850747226754
 10
185.1955083836772
 20
16.24100480320582
 10
185.259534428105
 20
16.23648060574485
 10
185.2986111148786
 20
16.22781003043306
 10
185.3476543498742
 20
16.23515102070684
 10
185.3225080030591
 20
16.19602896051754
 10
185.2815901333723
 20
16.20563842455806
 10
185.2910109616604
 20
16.15540148169776
 10
185.2855647318746
 20
16.10385945639488
 10
185.2881699601803
 20
16.01959707584518
 10
185.2870102202153
 20
15.92559135583406
 10
185.2883591064231
 20
15.83196865395523
 10
185.2849970101509
 20
15.74679517552221
 10
185.2920959917769
 20
15.69716856072042
 10
185.2812569154545
 20
15.64993694969987
 10
185.3304010225245
 20
15.6620167493685
 10
185.3794877630147
 20
15.65447393363009
 10
185.4573714280641
 20
15.65686070361431
 10
185.5350365172896
 20
15.65899381905412
 10
185.5845393931355
 20
15.65193391922453
 10
185.6344594750639
 20
15.66360151936212
 10
185.6223198516881
 20
15.6154023537139
 10
185.6305838229144
 20
15.57249219801233
 10
185.6223198650783
 20
15.52958201851382
 10
185.6344594549855
 20
15.48138288754862
 10
185.5845395158746
 20
15.49305034471507
 10
185.5350350651202
 20
15.48599202435042
 10
185.4573784382973
 20
15.488116652286
 10
185.379464386576
 20
15.49053389365757
 10
185.3304500352716
 20
15.48291848194482
 10
185.2813246108943
 20
15.49507952557589
 10
185.2915559988571
 20
15.45073013424155
 10
185.2856677678053
 20
15.40925436202908
 10
185.2878788305569
 20
15.34915394315299
 10
185.2874109346146
 20
15.30225782762884
 10
185.2874386992913
 20
15.27650146418192
 10
185.2874469028653
 20
15.26889163187715
 97
        1
330
AA
 75
     1
 76
     2
 52
45.0
 41
0.1
 77
     0
 78
     1
 53
45.0
 43
0.0
 44
0.0
 45
-0.282842712474619
 46
0.0
 79
     0
 98
        1
 10
0.0
 20
0.0
  0
HATCH
  5
C8
330
48
100
AcDbEntity
  8
1
  6
Continuous
 62
     2
100
AcDbHatch
 10
0.0
 20
0.0
 30
0.0
210
0.0
220
0.0
230
1.0
  2
CUSTOM10
 70
     0
 71
     1
 91
        1
 92
        1
 93
        1
 72
     4
 94
        3
 73
     0
 74
     0
 95
       47
 96
       43
 40
0.0
 40
0.0
 40
0.0
 40
0.0
 40
0.220791280995723
 40
0.4459404186302953
 40
0.4902387190459152
 40
0.5327473892722129
 40
0.574226045122544
 40
0.6155432630560735
 40
0.6568164066315656
 40
0.6982511618780567
 40
0.7407663929317099
 40
0.7851366743175143
 40
1.010288833836303
 40
1.231080507002155
 40
1.451765243652378
 40
1.676638205891679
 40
1.720461045359649
 40
1.83001814404351
 40
1.972442372353134
 40
2.114866600677498
 40
2.224423699395121
 40
2.268246538883359
 40
2.493628801207195
 40
2.715602830286592
 40
2.93421133070635
 40
3.149502369855357
 40
3.231387784851003
 40
3.318231873854038
 40
3.405143198198026
 40
3.486970301720463
 40
3.702258172493918
 40
3.920866283534154
 40
4.14283932593194
 40
4.368221903865408
 40
4.412044743359886
 40
4.521601842095897
 40
4.664026070452373
 40
4.806450298809075
 40
4.916007397546764
 40
4.959830237043086
 40
5.184703515847135
 40
5.405387250767505
 40
5.405387250767505
 40
5.405387250767505
 40
5.405387250767505
 10
182.6507427258645
 20
15.73406440953869
 10
182.6568139420002
 20
15.79758482501207
 10
182.6690762107242
 20
15.92587938689624
 10
182.5604706879412
 20
16.2016622017407
 10
182.6761985896604
 20
16.17188133432051
 10
182.7171842509015
 20
16.16765556262814
 10
182.7591205797518
 20
16.16310446389605
 10
182.800419662571
 20
16.1620198292948
 10
182.8417032115555
 20
16.16310338195225
 10
182.8836148270647
 20
16.16766112711338
 10
182.9245983549019
 20
16.17187430209726
 10
183.0404922843489
 20
16.20177611317526
 10
182.9295652727456
 20
15.92339806609887
 10
182.9574856365267
 20
15.7428314082495
 10
182.940426734697
 20
15.50961042346468
 10
182.9414637282103
 20
15.34906622543143
 10
182.9414099399404
 20
15.22284817558717
 10
182.9414277372481
 20
15.12428963336238
 10
182.941418858108
 20
14.9928070244296
 10
182.9414263928034
 20
14.86132844968647
 10
182.9414129405127
 20
14.76276222694088
 10
182.9414531717493
 20
14.6363973562415
 10
182.9406746403816
 20
14.47482068822867
 10
182.9565958319267
 20
14.24361821892912
 10
182.9333468885407
 20
14.05874351971999
 10
183.0360183444366
 20
13.7893560277005
 10
182.8820238362836
 20
13.82660112685814
 10
182.8004129802832
 20
13.82137994680529
 10
182.7188192292583
 20
13.82660620378348
 10
182.5648513666842
 20
13.78937069885381
 10
182.6674183421917
 20
14.05875129862878
 10
182.6442045316087
 20
14.24361585325411
 10
182.6600444655139
 20
14.47482218565636
 10
182.6593296313426
 20
14.636397123085
 10
182.6593664569907
 20
14.76276231210518
 10
182.659354900027
 20
14.86132756635979
 10
182.6593575019214
 20
14.99281127417216
 10
182.6593648531779
 20
15.12427548031196
 10
182.6593442541351
 20
15.22287786275322
 10
182.6594082192028
 20
15.34896149354424
 10
182.658173394759
 20
15.51210091383768
 10
182.6532040396745
 20
15.66054183777547
 10
182.6507427258645
 20
15.73406440953869
 97
        1
330
AB
 75
     1
 76
     2
 52
45.0
 41
0.1
 77
     0
 78
     1
 53
45.0
 43
0.0
 44
0.0
 45
-0.282842712474619
 46
0.0
 79
     0
 98
        1
 10
0.0
 20
0.0
  0
HATCH
  5
C9
330
48
100
AcDbEntity
  8
1
  6
Continuous
 62
     2
100
AcDbHatch
 10
0.0
 20
0.0
 30
0.0
210
0.0
220
0.0
230
1.0
  2
CUSTOM11
 70
     0
 71
     1
 91
        1
 92
        1
 93
        1
 72
     4
 94
        3
 73
     0
 74
     0
 95
      110
 96
      106
 40
0.0
 40
0.0
 40
0.0
 40
0.0
 40
0.2203406257277826
 40
0.4407808782838109
 40
0.5952494494615082
 40
0.7488431659393092
 40
0.9023581831309073
 40
1.056801968670406
 40
1.210736449099906
 40
1.363041386539784
 40
1.515315729683128
 40
1.669377239148078
 40
1.721611652756558
 40
1.773199502942938
 40
1.824933793209984
 40
1.877110426487961
 40
1.982682281206724
 40
2.078781667087533
 40
2.172809640822255
 40
2.271937807378908
 40
2.378349933379301
 40
2.49413155773649
 40
2.626681683943623
 40
2.783145050796051
 40
2.890701232940906
 40
2.9931303124548
 40
3.09986973069178
 40
3.220237816691271
 40
3.352695482737562
 40
3.481732806389822
 40
3.593499473690349
 40
3.674323013331858
 40
3.817951711952807
 40
3.946167120793805
 40
4.06140505345349
 40
4.166480796003131
 40
4.262478775059169
 40
4.350736673551124
 40
4.43307199125401
 40
4.511216293814613
 40
4.564262454117935
 40
4.618474415571557
 40
4.67012848875416
 40
4.722296879126369
 40
4.819540945314239
 40
4.931194984128097
 40
5.049996040257739
 40
5.168643755415284
 40
5.283970811762496
 40
5.392260784910321
 40
5.486512254876396
 40
5.559178233949795
 40
5.591425852853471
 40
5.626215969637849
 40
5.667155838674402
 40
5.717449290214222
 40
5.738402360944831
 40
5.784499116553792
 40
5.830595872164754
 40
5.851548942897609
 40
5.873019280661722
 40
5.924217778408264
 40
5.985325662817639
 40
6.036524160567651
 40
6.057994498334179
 40
6.236847789607444
 40
6.381409928945624
 40
6.493190424178644
 40
6.574067534230473
 40
6.691018086205567
 40
6.814881554220484
 40
6.944307823240437
 40
7.07126671606606
 40
7.193488604461905
 40
7.309042773128132
 40
7.414007203170759
 40
7.505140441886513
 40
7.531150360599658
 40
7.559221645322237
 40
7.587202218920899
 40
7.612569159499128
 40
7.662550809480996
 40
7.702878875764134
 40
7.857328205230949
 40
8.010799568088594
 40
8.165256399657544
 40
8.322232698713883
 40
8.47956485501657
 40
8.635216230290773
 40
8.79088255092569
 40
8.948305154947256
 40
9.168271839032961
 40
9.387358980987218
 40
9.608047961033469
 40
9.83291423479268
 40
9.858338694963015
 40
9.925366817230023
 40
10.0201307142276
 40
10.12876249858999
 40
10.23739428295249
 40
10.33215817995191
 40
10.39918630222394
 40
10.42461076239783
 40
10.64992019336943
 40
10.87188524531186
 40
10.87188524531186
 40
10.87188524531186
 40
10.87188524531186
 10
179.9057788376618
 20
15.73923260398186
 10
179.9092864933542
 20
15.806164620738
 10
179.9163033987663
 20
15.94005891915855
 10
179.8198027599072
 20
16.22548554971464
 10
180.0510134726108
 20
16.16284386190282
 10
180.1919290057156
 20
16.17001554055985
 10
180.3490417757588
 20
16.16235883078243
 10
180.5025913427287
 20
16.16252752283035
 10
180.6545104935081
 20
16.1618204053543
 10
180.8142214813231
 20
16.17210158351633
 10
180.9408972601117
 20
16.15496511080749
 10
181.1370821122081
 20
16.22727260107142
 10
181.1034395279078
 20
16.12640699080114
 10
181.1052011317184
 20
16.07619253947668
 10
181.1027342073457
 20
16.02712335586463
 10
181.1347076966011
 20
15.94063490846997
 10
181.0010399903256
 20
15.98997438608334
 10
180.9172208688056
 20
15.98430634314164
 10
180.8173861139324
 20
15.99465516706296
 10
180.7186576720146
 20
16.00086450411084
 10
180.612153277111
 20
16.00697763816774
 10
180.4910511698059
 20
16.01588883484584
 10
180.3703381502453
 20
16.00521605912379
 10
180.1812553843437
 20
16.06468503080364
 10
180.2129028505311
 20
15.90558320077537
 10
180.1995563316833
 20
15.80839128339902
 10
180.197495842645
 20
15.69634065110101
 10
180.195818804467
 20
15.57699685629348
 10
180.1973336794233
 20
15.45032592155108
 10
180.195658247867
 20
15.32301588016114
 10
180.2058844271657
 20
15.22451566404461
 10
180.1779006596583
 20
15.08388702625628
 10
180.3508029999304
 20
15.13989551134091
 10
180.4645020202772
 20
15.12719951478496
 10
180.5840151672239
 20
15.13448377051252
 10
180.6888491425071
 20
15.13878017056752
 10
180.7843084898612
 20
15.14330568258975
 10
180.8763823507032
 20
15.15149201146195
 10
180.9476551782438
 20
15.14643850638109
 10
181.0544931705685
 20
15.18536425031672
 10
181.0226603598036
 20
15.10517122005877
 10
181.0266164503929
 20
15.05562936846031
 10
181.0234502392013
 20
15.00557478039816
 10
181.0550791490584
 20
14.92128847612018
 10
180.9210133677691
 20
14.97425365495155
 10
180.82923227932
 20
14.96540080890439
 10
180.7079729189603
 20
14.97570049965152
 10
180.5914113119771
 20
14.97748911767497
 10
180.4783375745879
 20
14.97787017109691
 10
180.3679246308471
 20
14.98415449472177
 10
180.289812406784
 20
14.9718913325536
 10
180.1913625833644
 20
15.00453887616124
 10
180.2012355173561
 20
14.94769748054204
 10
180.1973923244402
 20
14.91392130557981
 10
180.1966789884269
 20
14.87119604709408
 10
180.1963369642975
 20
14.83401607262149
 10
180.1963834255346
 20
14.79487237370767
 10
180.1963649429927
 20
14.75716849497683
 10
180.1963703431806
 20
14.719449552324
 10
180.19636972142
 20
14.68994324745147
 10
180.1963698151545
 20
14.65873577699299
 10
180.1963704287921
 20
14.61414424908083
 10
180.1963671499337
 20
14.5596395650885
 10
180.196375962348
 20
14.51505540201446
 10
180.1963359653419
 20
14.43117808585739
 10
180.1976024270253
 20
14.31737520677675
 10
180.1950274117843
 20
14.16830395933707
 10
180.2065009381719
 20
14.06597203813902
 10
180.1823506222264
 20
13.9333890388583
 10
180.3332993946476
 20
13.97895732272017
 10
180.4428436671556
 20
13.96427012162345
 10
180.573397047392
 20
13.9692043512506
 10
180.6990312209513
 20
13.97257705323357
 10
180.8188730625601
 20
13.9771149749877
 10
180.9391362611426
 20
13.99048536182
 10
181.0222761663515
 20
13.98068712782593
 10
181.1456080421075
 20
14.04126214623315
 10
181.1244269203956
 20
13.98532460134018
 10
181.1235950270117
 20
13.95939249372344
 10
181.1218963707558
 20
13.93197256190936
 10
181.121797488883
 20
13.89738195206382
 10
181.1203659301329
 20
13.86050408220763
 10
181.153280419219
 20
13.76846841021803
 10
180.9551306988107
 20
13.84132015974829
 10
180.8300548294891
 20
13.81825726508601
 10
180.6673071295156
 20
13.82454021985781
 10
180.5129366450001
 20
13.82260943909922
 10
180.3566670436943
 20
13.82393762599264
 10
180.1970544465282
 20
13.82059872487858
 10
180.0540326342237
 20
13.83265795728237
 10
179.8197144881628
 20
13.76952001976913
 10
179.9173810751197
 20
14.05620527466314
 10
179.9006868780059
 20
14.24988308142657
 10
179.9146296709684
 20
14.47848242880292
 10
179.9142987846632
 20
14.63384593955046
 10
179.9143078119263
 20
14.73966336444123
 10
179.9143055876316
 20
14.80205784124212
 10
179.9143065551889
 20
14.89220425248325
 10
179.9143065473261
 20
14.99621167157436
 10
179.9143053861102
 20
15.10022131375293
 10
179.9143090971502
 20
15.19036243688765
 10
179.9143011051052
 20
15.25276803097212
 10
179.9143334275018
 20
15.35868835961116
 10
179.9131440788319
 20
15.51626716544737
 10
179.9082216489256
 20
15.66528219822062
 10
179.9057788376618
 20
15.73923260398186
 97
        1
330
AC
 75
     1
 76
     2
 52
45.0
 41
0.1
 77
     0
 78
     1
 53
45.0
 43
0.0
 44
0.0
 45
-0.282842712474619
 46
0.0
 79
     0
 98
        1
 10
0.0
 20
0.0
  0
HATCH
  5
CA
330
48
100
AcDbEntity
  8
1
  6
Continuous
 62
     2
100
AcDbHatch
 10
0.0
 20
0.0
 30
0.0
210
0.0
220
0.0
230
1.0
  2
CUSTOM12
 70
     0
 71
     1
 91
        1
 92
        1
 93
        1
 72
     4
 94
        3
 73
     0
 74
     0
 95
       95
 96
       91
 40
0.0
 40
0.0
 40
0.0
 40
0.0
 40
0.6550406656911534
 40
1.308087289031932
 40
1.4208037398358
 40
1.566130759770792
 40
1.757067341888471
 40
2.006513545026453
 40
2.087328263121553
 40
2.185328872295633
 40
2.294612454748384
 40
2.408936380534816
 40
2.526802767798566
 40
2.646360524615613
 40
2.76253572397158
 40
2.870057342870153
 40
2.96688344843166
 40
3.050803243518302
 40
3.115818222436606
 40
3.156030057150259
 40
3.213914225080161
 40
3.276689026450561
 40
3.342960320981339
 40
3.404230667150588
 40
3.453822809493409
 40
3.532499827188453
 40
3.63477518850721
 40
3.754909333008218
 40
3.889736761660703
 40
4.035769602175263
 40
4.187256681197647
 40
4.338733685675995
 40
4.488478734676158
 40
4.634708317831634
 40
4.77149318992131
 40
4.892686571561257
 40
5.199775528944492
 40
5.460353566929694
 40
5.667603142345551
 40
5.814722905404531
 40
5.828990806219829
 40
5.855488336304526
 40
5.869756237118858
 40
6.189796507762859
 40
6.531890469873042
 40
6.88305363701704
 40
7.230512024911516
 40
7.566966656764624
 40
7.885203559707444
 40
8.172887439719249
 40
8.418011594062804
 40
8.443926721190726
 40
8.510760470613212
 40
8.602145393795718
 40
8.701714041647156
 40
8.793098965075385
 40
8.859932715057957
 40
8.885847842603605
 40
9.242301256612826
 40
9.589275455016795
 40
9.921808543164197
 40
10.23479624298469
 40
10.29968150889179
 40
10.35323493887767
 40
10.40154625355152
 40
10.46482922477828
 40
10.55973900668407
 40
10.69239545985619
 40
10.84920353475673
 40
11.01626328594783
 40
11.18672024367446
 40
11.35372582577213
 40
11.50257442292429
 40
11.61866495023294
 40
11.71329869152877
 40
11.8251105057391
 40
11.94464880845718
 40
12.06929242642508
 40
12.19707290435178
 40
12.32562632860531
 40
12.45034565331281
 40
12.5664659517033
 40
12.67099007414637
 40
12.76077625936783
 40
12.82703233506696
 40
12.87429132785993
 40
12.89831990323333
 40
12.92234847860021
 40
13.53984767410319
 40
14.18294284359365
 40
14.18294284359365
 40
14.18294284359365
 40
14.18294284359365
 10
177.3067935648021
 20
14.70898038201722
 10
177.175201975855
 20
14.82265058603229
 10
176.9124193802728
 20
15.04964496316155
 10
176.399739344102
 20
15.89214462956284
 10
176.4106654595363
 20
15.53423377577017
 10
176.4041226527991
 20
15.3926739227213
 10
176.4028026631772
 20
15.19421305299278
 10
176.4018117602538
 20
15.02150296045979
 10
176.4024101751974
 20
14.87865373257578
 10
176.4038994301883
 20
14.78265005413354
 10
176.4055683588471
 20
14.67545503263138
 10
176.4071934954618
 20
14.56164211517579
 10
176.4092429501684
 20
14.44441572604585
 10
176.4123165501927
 20
14.32656411232967
 10
176.4156339697042
 20
14.21228087320618
 10
176.419360534028
 20
14.10521401867274
 10
176.4217338161424
 20
14.01007408766918
 10
176.4278718888357
 20
13.92558557205692
 10
176.4239784495946
 20
13.86923087298138
 10
176.4455230443077
 20
13.79825022472351
 10
176.3680940058618
 20
13.8290267760448
 10
176.3116353240191
 20
13.82011242517609
 10
176.2540495896806
 20
13.82896218398272
 10
176.1690163478473
 20
13.79738225225941
 10
176.2009714146382
 20
13.88095155992186
 10
176.1990705282539
 20
13.94882608968306
 10
176.21079600473
 20
14.05233256764416
 10
176.2164241053
 20
14.17002125616693
 10
176.2237902178941
 20
14.30388609164421
 10
176.2320759701611
 20
14.44764152872629
 10
176.2398851897426
 20
14.59714022843442
 10
176.2457571222657
 20
14.74792549402075
 10
176.2503667817969
 20
14.89699943878435
 10
176.2542632117542
 20
15.0412291316302
 10
176.2570715126564
 20
15.17583905213015
 10
176.2576698755022
 20
15.36469614347352
 10
176.261602386715
 20
15.58975494313152
 10
176.2442175378498
 20
15.86367091125705
 10
176.2850417342583
 20
16.02787112098595
 10
176.1995153256002
 20
16.22749661465093
 10
176.2660558907688
 20
16.22385458403976
 10
176.283872427323
 20
16.2241344716085
 10
176.4056801797509
 20
16.22632927398614
 10
176.5080770335459
 20
15.9467511872151
 10
176.7580021509356
 20
15.74563008536001
 10
176.9870035331111
 20
15.47792614987914
 10
177.2245151213108
 20
15.22646413862373
 10
177.4486090740772
 20
14.98969974061355
 10
177.6750716283009
 20
14.73218692583077
 10
177.8325687886514
 20
14.61649335056919
 10
178.0472129612673
 20
14.2799715253879
 10
178.0422645974618
 20
14.40464754091601
 10
178.0433931602546
 20
14.46327691935734
 10
178.0428877841517
 20
14.55043662371974
 10
178.0430475158113
 20
14.64416143182869
 10
178.0430054891318
 20
14.73018971297031
 10
178.0430202040373
 20
14.79153891945491
 10
178.0429706255983
 20
14.94135231520989
 10
178.0458811522811
 20
15.17989612510101
 10
178.0259521041162
 20
15.54486509868698
 10
178.0750433936248
 20
15.80799631993411
 10
177.9177951509179
 20
16.21928904947745
 10
178.0762112872421
 20
16.16398282551745
 10
178.1311680478628
 20
16.1619968650017
 10
178.182788776674
 20
16.16264778248249
 10
178.2713198965366
 20
16.20369527738241
 10
178.2204898303169
 20
16.05696326622984
 10
178.2313389930283
 20
15.9501997195443
 10
178.2166036994847
 20
15.79085705414109
 10
178.2099976446205
 20
15.62853061652871
 10
178.2014961399914
 20
15.45992521892392
 10
178.1943227202199
 20
15.29814814703537
 10
178.1889063215388
 20
15.15422331457929
 10
178.1871713967648
 20
15.03437493466921
 10
178.1875440672319
 20
14.92686101590511
 10
178.1873656126262
 20
14.81820024645583
 10
178.187701086314
 20
14.69953570165528
 10
178.1890040622184
 20
14.57555163512738
 10
178.1908887351574
 20
14.44858294171102
 10
178.1925004454851
 20
14.32153861551029
 10
178.194140313743
 20
14.19854884492174
 10
178.1962570745751
 20
14.08300931383756
 10
178.1963848422364
 20
13.98090903955834
 10
178.2006514396554
 20
13.89009848838154
 10
178.1908440085289
 20
13.83213621208785
 10
178.2118474771689
 20
13.76517130132028
 10
178.1725639739897
 20
13.77291153966686
 10
177.9595307117741
 20
13.75755254145194
 10
177.7636297943188
 20
14.31403058094466
 10
177.4611197631544
 20
14.57556035348507
 10
177.3067935648021
 20
14.70898038201722
 97
        1
330
AD
 75
     1
 76
     2
 52
45.0
 41
0.1
 77
     0
 78
     1
 53
45.0
 43
0.0
 44
0.0
 45
-0.282842712474619
 46
0.0
 79
     0
 98
        1
 10
0.0
 20
0.0
  0
HATCH
  5
CB
330
48
100
AcDbEntity
  8
1
  6
Continuous
 62
     2
100
AcDbHatch
 10
0.0
 20
0.0
 30
0.0
210
0.0
220
0.0
230
1.0
  2
CUSTOM13
 70
     0
 71
     1
 91
        2
 92
        1
 93
        1
 72
     4
 94
        3
 73
     0
 74
     0
 95
       57
 96
       53
 40
0.0
 40
0.0
 40
0.0
 40
0.0
 40
0.047163208280924
 40
0.0914861054632156
 40
0.1357762519702392
 40
0.1826527001610687
 40
0.2295203288572596
 40
0.2737751972220765
 40
0.3181310461543072
 40
0.3652607198398521
 40
0.457100728631456
 40
0.5671851029165388
 40
0.6894623283868425
 40
0.8181758272546078
 40
0.95100872292741
 40
1.085852229674066
 40
1.218126164475325
 40
1.343545131142385
 40
1.454537202956802
 40
1.567187607530811
 40
1.680710966642429
 40
1.794226869736794
 40
1.900009184247593
 40
2.004085860447872
 40
2.10816267445176
 40
2.214000150155305
 40
2.496038577352133
 40
2.762350745479262
 40
2.997275353279401
 40
3.185110082137736
 40
3.246407890063963
 40
3.312607550212694
 40
3.378877742711596
 40
3.440140399651451
 40
4.100501696006479
 40
4.754913085563535
 40
5.411331693423945
 40
6.077890432568723
 40
6.110575292671002
 40
6.143260152775782
 40
6.367989363395171
 40
6.610525374951581
 40
6.863389136467328
 40
7.119380025547608
 40
7.376036605091111
 40
7.631164770966303
 40
7.876722425456442
 40
8.10495373585599
 40
8.312916685924318
 40
8.497730294941313
 40
8.651018984313868
 40
8.764738853624616
 40
8.764738853624616
 40
8.764738853624616
 40
8.764738853624616
 10
174.7922649500513
 20
13.81626739612923
 10
174.7766616726931
 20
13.81826231079074
 10
174.7463947960302
 20
13.82213201360296
 10
174.7010994202252
 20
13.82341984967264
 10
174.6559553129349
 20
13.82308683554047
 10
174.6099017123399
 20
13.8231465867422
 10
174.5640496172096
 20
13.82325813649997
 10
174.5183711648164
 20
13.82277833456586
 10
174.4750811541609
 20
13.82461109618719
 10
174.4039947951513
 20
13.80049556814652
 10
174.4057477261441
 20
13.92184693977249
 10
174.358619637057
 20
14.0072623975123
 10
174.3191478251762
 20
14.12486929345133
 10
174.2706635532645
 20
14.24232752540436
 10
174.2201017402522
 20
14.36405935761507
 10
174.1718634610477
 20
14.49075967862463
 10
174.1135232947595
 20
14.59933687784949
 10
174.0980892667261
 20
14.75620657134406
 10
173.9566586330635
 20
14.72373446548319
 10
173.8508397414904
 20
14.73512888682178
 10
173.7358569725222
 20
14.73392591514612
 10
173.625314225214
 20
14.73506945347407
 10
173.5176583522783
 20
14.73418350037524
 10
173.4121322529242
 20
14.73416602390516
 10
173.3109192682012
 20
14.72714032472412
 10
173.1266804827754
 20
14.75135859859862
 10
173.1157393685411
 20
14.44741691121883
 10
173.008769163475
 20
14.22353177253394
 10
172.9098148604347
 20
14.03895314292495
 10
172.9225090524007
 20
13.79530204804201
 10
172.8050091716397
 20
13.82508046753194
 10
172.742205586831
 20
13.82258089509599
 10
172.67858720934
 20
13.82344075102802
 10
172.3946014194073
 20
13.78098039941936
 10
173.0251638499382
 20
14.50081952444785
 10
173.108764528907
 20
15.01276539435725
 10
173.492925278934
 20
15.5335374355004
 10
173.4777208288563
 20
16.23519626253211
 10
173.7239265722697
 20
16.22345633081254
 10
173.8256346157561
 20
16.2322500445277
 10
173.8249752035818
 20
15.98059650730344
 10
173.9428317155828
 20
15.79818020733954
 10
174.0315515260485
 20
15.55563740662863
 10
174.1322292485259
 20
15.32340030530125
 10
174.2311142712242
 20
15.0867464456691
 10
174.3299676990669
 20
14.85461739170091
 10
174.4256166390926
 20
14.63122222788785
 10
174.5159904573271
 20
14.42272549049313
 10
174.5989944568189
 20
14.23308448529317
 10
174.6726088582798
 20
14.06663106068097
 10
174.7342815895545
 20
13.92917699626094
 10
174.7749458885604
 20
13.8499923943003
 10
174.7922649500513
 20
13.81626739612923
 97
        1
330
AF
 92
       16
 93
        1
 72
     4
 94
        3
 73
     0
 74
     0
 95
       25
 96
       21
 40
0.0
 40
0.0
 40
0.0
 40
0.0
 40
0.0911479969064821
 40
0.1858117896204662
 40
0.2804128399734491
 40
0.3715889190714511
 40
0.4679080494218709
 40
0.5642683809229232
 40
0.6605683222644991
 40
0.7569653015810255
 40
0.8561348172522771
 40
1.092615965104302
 40
1.374867658141893
 40
1.611348812011622
 40
1.710518328425275
 40
1.809403163726597
 40
2.045205463294107
 40
2.326646917622172
 40
2.562449217190641
 40
2.661334043833963
 40
2.661334043833963
 40
2.661334043833963
 40
2.661334043833963
 10
173.2683700567199
 20
14.88614538197288
 10
173.2987525917923
 20
14.88598079714551
 10
173.3606895889112
 20
14.88564528689918
 10
173.4541356960329
 20
14.88269055451999
 10
173.5475095236357
 20
14.87977752877147
 10
173.6417760753476
 20
14.87894201643412
 10
173.7354964790967
 20
14.87996644658044
 10
173.8352040303205
 20
14.87916977470969
 10
173.9188949546312
 20
14.88921410235216
 10
174.0637996315045
 20
14.86234617674161
 10
173.93961324448
 20
15.03665530280045
 10
173.8965867286282
 20
15.19651711006088
 10
173.780892214221
 20
15.45518458550214
 10
173.7017565431257
 20
15.59231052861857
 10
173.6431576621816
 20
15.80937033134076
 10
173.5864803939438
 20
15.59266134213427
 10
173.5052809900477
 20
15.45327012438234
 10
173.4063701281488
 20
15.20406969370191
 10
173.325362509426
 20
15.0192583022607
 10
173.2813683325838
 20
14.91650446856113
 10
173.2683700567199
 20
14.88614538197288
 97
        1
330
AE
 75
     1
 76
     2
 52
45.0
 41
0.1
 77
     0
 78
     1
 53
45.0
 43
0.0
 44
0.0
 45
-0.282842712474619
 46
0.0
 79
     0
 98
        1
 10
0.0
 20
0.0
  0
HATCH
  5
CC
330
48
100
AcDbEntity
  8
1
  6
Continuous
 62
     2
100
AcDbHatch
 10
0.0
 20
0.0
 30
0.0
210
0.0
220
0.0
230
1.0
  2
CUSTOM14
 70
     0
 71
     1
 91
        1
 92
        1
 93
        1
 72
     4
 94
        3
 73
     0
 74
     0
 95
       99
 96
       95
 40
0.0
 40
0.0
 40
0.0
 40
0.0
 40
0.0796417172272386
 40
0.1621768542355943
 40
0.2486489160957578
 40
0.3404969668524557
 40
0.438191251116458
 40
0.543446366024489
 40
0.6518115192847217
 40
0.7530190937886831
 40
0.8492196919725102
 40
0.9419290312998155
 40
1.034249663570034
 40
1.129078600620192
 40
1.226697027573223
 40
1.327220425421681
 40
1.470572134938002
 40
1.595489863371205
 40
1.719934125348389
 40
1.850576620127397
 40
1.989059629987294
 40
2.134139054226913
 40
2.280698007207199
 40
2.424529739039467
 40
2.565929576985829
 40
2.708239260773529
 40
2.861717887443649
 40
3.04516854034736
 40
3.183798301138597
 40
3.314813961455448
 40
3.442083470447306
 40
3.569912708372958
 40
3.702177512509359
 40
3.842307559659522
 40
3.992872223245926
 40
4.156750662218315
 40
4.310981861107536
 40
4.44585990932258
 40
4.572393936131578
 40
4.701656719781982
 40
4.768279086008463
 40
4.835960697898396
 40
4.912788918729327
 40
5.006285208481547
 40
5.026909478751623
 40
5.047533749021188
 40
5.101808031471277
 40
5.162325165538558
 40
5.226919745995882
 40
5.294231806596752
 40
5.364544852554903
 40
5.438319055467952
 40
5.517877651324285
 40
5.607647714861597
 40
5.700449642544443
 40
5.788251142364173
 40
5.872714706039809
 40
5.955167292575324
 40
6.037192395190418
 40
6.120669181469153
 40
6.206848616686384
 40
6.296680855416795
 40
6.442558392872624
 40
6.568190371608314
 40
6.692904567360396
 40
6.824220446557174
 40
6.963121850329412
 40
7.107843738851192
 40
7.25343166390731
 40
7.395187468036737
 40
7.53314075323779
 40
7.670550457175267
 40
7.816236511769294
 40
7.987691657359268
 40
8.142277421969283
 40
8.293662615415046
 40
8.442962460879315
 40
8.591598316185358
 40
8.743678992361835
 40
8.903725323699215
 40
9.076307008890561
 40
9.265578604680615
 40
9.45920379536079
 40
9.617619810273574
 40
9.75360967136193
 40
9.874873300004106
 40
9.954520184977804
 40
10.02416413719247
 40
10.09769764405446
 40
10.18909955924974
 40
10.20974586420136
 40
10.23039218263381
 40
10.30057101881267
 40
10.37632012987548
 40
10.37632012987548
 40
10.37632012987548
 40
10.37632012987548
 10
170.1465954835851
 20
14.1379566321599
 10
170.1632217851219
 20
14.11720608845309
 10
170.1970784206577
 20
14.07495111711899
 10
170.2599822541036
 20
14.02029811392069
 10
170.3332500940392
 20
13.97299025121048
 10
170.4175969238636
 20
13.93527231437931
 10
170.513224061546
 20
13.91040619731949
 10
170.6171853775346
 20
13.90309559345932
 10
170.7224020220405
 20
13.91142322794049
 10
170.8206626371334
 20
13.94149179651527
 10
170.9058986427549
 20
13.98848822971874
 10
170.9779220206102
 20
14.04952991250855
 10
171.0350917709096
 20
14.1241296957858
 10
171.076786874744
 20
14.21002464660172
 10
171.1026952846292
 20
14.30485850432208
 10
171.1118037332653
 20
14.41854979038363
 10
171.0986864796487
 20
14.54332587770775
 10
171.0325330334413
 20
14.6601471917189
 10
170.9369370919569
 20
14.74512539577371
 10
170.8249681022368
 20
14.81416684459156
 10
170.6993659583269
 20
14.87204142045888
 10
170.5656691620856
 20
14.92373723284338
 10
170.4313122818831
 20
14.97899092397178
 10
170.3051983986877
 20
15.04939770641646
 10
170.1926579987535
 20
15.13785540731245
 10
170.0969963064458
 20
15.24981067868469
 10
170.0334157151826
 20
15.3994991010138
 10
170.0200706505015
 20
15.55932794385138
 10
170.0320510987448
 20
15.71048405306842
 10
170.0712298928841
 20
15.83809244591536
 10
170.135498775091
 20
15.95080874030842
 10
170.223820499974
 20
16.04648609268683
 10
170.3338091207627
 20
16.12354214985751
 10
170.4632284401265
 20
16.18151396936274
 10
170.6111838967793
 20
16.21739177588819
 10
170.7682069455487
 20
16.22746719050561
 10
170.917494046643
 20
16.21863637762587
 10
171.059625361417
 20
16.19074899340351
 10
171.1595922609625
 20
16.13413314701135
 10
171.3125074736186
 20
16.08674602105503
 10
171.2455131717167
 20
16.00197553001181
 10
171.2296479120269
 20
15.93438901873482
 10
171.1978750531297
 20
15.86926092793187
 10
171.2150202209571
 20
15.76723453256949
 10
171.1666427208232
 20
15.77493211681897
 10
171.1315789440765
 20
15.76806771724803
 10
171.1296697985718
 20
15.83263831158192
 10
171.0985692931989
 20
15.87825639621392
 10
171.0664551628456
 20
15.93561036628452
 10
171.0208038475168
 20
15.98540462692556
 10
170.9658508218386
 20
16.02994813718992
 10
170.9010841173007
 20
16.06763988836549
 10
170.8232377310596
 20
16.09283375791349
 10
170.7355160553352
 20
16.09931230998108
 10
170.6452903277806
 20
16.09235709285604
 10
170.5594594694064
 20
16.0690919046092
 10
170.4828343638596
 20
16.03131644107541
 10
170.4165265636201
 20
15.9805164108957
 10
170.3622560536964
 20
15.91731143407207
 10
170.3224925345459
 20
15.84276455710364
 10
170.2976775510587
 20
15.7591731399776
 10
170.289212426287
 20
15.65192948382283
 10
170.3019697987103
 20
15.52965457267556
 10
170.3681548409273
 20
15.41149724291209
 10
170.4640977399832
 20
15.32606325709525
 10
170.5757914963182
 20
15.25583362306719
 10
170.7010863668702
 20
15.196591623053
 10
170.8349823941447
 20
15.14616708086131
 10
170.9689930333149
 20
15.09322516984379
 10
171.0950885316915
 20
15.02750170625171
 10
171.2076216638417
 20
14.94480352537318
 10
171.3031370284233
 20
14.83996006310071
 10
171.3672706486963
 20
14.69937117251567
 10
171.3811103725279
 20
14.54065409451589
 10
171.3673954712229
 20
14.38153155217872
 10
171.3244739153984
 20
14.23483828819208
 10
171.2545906329066
 20
14.10119796587139
 10
171.1574592213829
 20
13.98532387699289
 10
171.0347806023657
 20
13.89089981770084
 10
170.8874408413167
 20
13.82179270651979
 10
170.7177132497125
 20
13.77953210858851
 10
170.5317404979596
 20
13.76781736230406
 10
170.3528955926183
 20
13.77809486683435
 10
170.1881733753743
 20
13.81966573769152
 10
170.0834410841057
 20
13.88797642883937
 10
169.9350960790366
 20
13.93675219032105
 10
169.9980378194729
 20
14.02976591290838
 10
170.007227443006
 20
14.10296536248277
 10
170.0303711301232
 20
14.16936294501343
 10
170.0034588335316
 20
14.26974809527577
 10
170.0521338956339
 20
14.26234033517376
 10
170.0916530580696
 20
14.26894063620891
 10
170.0996204944702
 20
14.19078703218928
 10
170.1305436967923
 20
14.15600927375853
 10
170.1465954835851
 20
14.1379566321599
 97
        1
330
B0
 75
     1
 76
     2
 52
45.0
 41
0.1
 77
     0
 78
     1
 53
45.0
 43
0.0
 44
0.0
 45
-0.282842712474619
 46
0.0
 79
     0
 98
        1
 10
0.0
 20
0.0
  0
ENDBLK
  5
4A
330
48
100
AcDbEntity
  8
0
100
AcDbBlockEnd
  0
BLOCK
  5
4D
330
4B
100
AcDbEntity
  8
0
100
AcDbBlockBegin
  2
開示A4枠
 70
     0
 10
0.0
 20
-0.00000000000003
 30
0.0
  3
開示A4枠
  1

  0
INSERT
  5
4C
330
4B
100
AcDbEntity
  8
1
100
AcDbBlockReference
  2
開示A4
 10
0.0
 20
-0.00000000000003
 30
0.0
  0
ENDBLK
  5
4E
330
4B
100
AcDbEntity
  8
0
100
AcDbBlockEnd
  0
BLOCK
  5
F4
330
ED
100
AcDbEntity
  8
0
100
AcDbBlockBegin
  2
*D3
 70
     1
 10
0.0
 20
0.0
 30
0.0
  3
*D3
  1

  0
LINE
  5
EE
330
ED
100
AcDbEntity
  8
1
  6
Continuous
 62
     2
100
AcDbLine
 10
148.5
 20
142.5158153913519
 30
0.0
 11
76.5
 21
142.5158153913519
 31
0.0
  0
LINE
  5
EF
330
ED
100
AcDbEntity
  8
1
  6
Continuous
 62
     2
100
AcDbLine
 10
148.5
 20
152.5158153913519
 30
0.0
 11
148.5
 21
141.5158153913519
 31
0.0
  0
LINE
  5
F0
330
ED
100
AcDbEntity
  8
1
  6
Continuous
 62
     2
100
AcDbLine
 10
76.5
 20
152.5158153913519
 30
0.0
 11
76.5
 21
141.5158153913519
 31
0.0
  0
SOLID
  5
F1
330
ED
100
AcDbEntity
  8
1
 62
     2
100
AcDbTrace
 10
145.0
 20
142.055031649796
 30
0.0
 11
145.0
 21
142.9765991329078
 31
0.0
 12
148.5
 22
142.5158153913519
 32
0.0
 13
148.5
 23
142.5158153913519
 33
0.0
  0
SOLID
  5
F2
330
ED
100
AcDbEntity
  8
1
 62
     2
100
AcDbTrace
 10
80.0
 20
142.9765991329078
 30
0.0
 11
80.0
 21
142.055031649796
 31
0.0
 12
76.5
 22
142.5158153913519
 32
0.0
 13
76.5
 23
142.5158153913519
 33
0.0
  0
MTEXT
  5
F3
330
ED
100
AcDbEntity
  8
1
 62
     7
100
AcDbMText
 10
109.1050000000084
 20
143.5158084342756
 30
0.0
 40
3.5
 41
0.0
 71
     7
 72
     1
  1
\C7;{\Fgdt;n}\C7;72
  7
CONVERTER_12
 11
0.9999999999970619
 21
2.424068405545306E-6
 31
0.0
 73
     1
 44
0.60024009603842
  0
ENDBLK
  5
F5
330
ED
100
AcDbEntity
  8
0
100
AcDbBlockEnd
  0
BLOCK
  5
FF
330
F8
100
AcDbEntity
  8
0
100
AcDbBlockBegin
  2
*D4
 70
     1
 10
0.0
 20
0.0
 30
0.0
  3
*D4
  1

  0
LINE
  5
F9
330
F8
100
AcDbEntity
  8
1
  6
Continuous
 62
     2
100
AcDbLine
 10
158.5
 20
152.5158153913519
 30
0.0
 11
158.5
 21
167.5158153913519
 31
0.0
  0
LINE
  5
FA
330
F8
100
AcDbEntity
  8
1
  6
Continuous
 62
     2
100
AcDbLine
 10
148.5
 20
152.5158153913519
 30
0.0
 11
159.5
 21
152.5158153913519
 31
0.0
  0
LINE
  5
FB
330
F8
100
AcDbEntity
  8
1
  6
Continuous
 62
     2
100
AcDbLine
 10
133.5
 20
167.5158153913519
 30
0.0
 11
159.5
 21
167.5158153913519
 31
0.0
  0
SOLID
  5
FC
330
F8
100
AcDbEntity
  8
1
 62
     2
100
AcDbTrace
 10
158.0392162584441
 20
156.0158153913519
 30
0.0
 11
158.9607837415559
 21
156.0158153913519
 31
0.0
 12
158.5
 22
152.5158153913519
 32
0.0
 13
158.5
 23
152.5158153913519
 33
0.0
  0
SOLID
  5
FD
330
F8
100
AcDbEntity
  8
1
 62
     2
100
AcDbTrace
 10
158.9607837415559
 20
164.0158153913519
 30
0.0
 11
158.0392162584441
 21
164.0158153913519
 31
0.0
 12
158.5
 22
167.5158153913519
 32
0.0
 13
158.5
 23
167.5158153913519
 33
0.0
  0
MTEXT
  5
FE
330
F8
100
AcDbEntity
  8
1
 62
     7
100
AcDbMText
 10
157.5
 20
157.9158153913519
 30
0.0
 40
3.5
 41
0.0
 71
     7
 72
     1
  1
15
  7
CONVERTER_12
 11
0.0
 21
1.0
 31
0.0
 73
     1
 44
0.60024009603842
  0
ENDBLK
  5
100
330
F8
100
AcDbEntity
  8
0
100
AcDbBlockEnd
  0
BLOCK
  5
108
330
103
100
AcDbEntity
  8
0
100
AcDbBlockBegin
  2
*D5
 70
     1
 10
0.0
 20
0.0
 30
0.0
  3
*D5
  1

  0
LINE
  5
104
330
103
100
AcDbEntity
  8
1
  6
Continuous
 62
     2
100
AcDbLine
 10
125.3554264350636
 20
228.4433120172643
 30
0.0
 11
73.2463993001686
 21
187.8220035317538
 31
0.0
  0
SOLID
  5
105
330
103
100
AcDbEntity
  8
1
 62
     2
100
AcDbTrace
 10
102.1216474671905
 20
210.9157954638988
 30
0.0
 11
102.688234941544
 21
210.1889768759178
 31
0.0
 12
99.64457356493644
 22
208.4005566006387
 32
0.0
 13
99.64457356493644
 23
208.4005566006387
 33
0.0
  0
SOLID
  5
106
330
103
100
AcDbEntity
  8
1
 62
     2
100
AcDbTrace
 10
122.8783525328095
 20
225.9280731540042
 30
0.0
 11
122.311765058456
 21
226.6548917419852
 31
0.0
 12
125.3554264350636
 22
228.4433120172643
 32
0.0
 13
125.3554264350636
 23
228.4433120172643
 33
0.0
  0
MTEXT
  5
107
330
103
100
AcDbEntity
  8
1
 62
     7
100
AcDbMText
 10
72.73143104292033
 20
190.3368410402276
 30
0.0
 40
3.0
 41
0.0
 71
     7
 72
     1
  1
\C7;{\Fgdt;n}\C7;32,6
  7
CONVERTER_12
 11
0.7886764684088073
 21
0.6148084483627495
 31
0.0
 73
     1
 44
0.60024009603842
  0
ENDBLK
  5
109
330
103
100
AcDbEntity
  8
0
100
AcDbBlockEnd
  0
ENDSEC
  0
SECTION
  2
ENTITIES
  0
INSERT
  5
4F
330
1F
100
AcDbEntity
  8
0
100
AcDbBlockReference
  2
開示A4枠
 10
0.0
 20
-0.00000000000003
 30
0.0
  0
LINE
  5
CD
330
1F
100
AcDbEntity
  8
1
  6
Continuous
 62
     7
100
AcDbLine
 10
76.50000000000001
 20
152.5158153913519
 30
0.0
 11
148.5
 21
152.5158153913519
 31
0.0
  0
LINE
  5
CE
330
1F
100
AcDbEntity
  8
1
  6
DASH_CENTER
 62
     2
100
AcDbLine
 10
128.8
 20
218.4219343089515
 30
0.0
 11
150.5
 21
218.4219343089515
 31
0.0
  0
LINE
  5
CF
330
1F
100
AcDbEntity
  8
1
  6
DASH_CENTER
 62
     2
100
AcDbLine
 10
112.5
 20
180.4219343089515
 30
0.0
 11
112.5
 21
256.4219343089515
 31
0.0
  0
LINE
  5
D0
330
1F
100
AcDbEntity
  8
1
  6
DASH_CENTER
 62
     2
100
AcDbLine
 10
74.5
 20
218.4219343089515
 30
0.0
 11
128.8
 21
218.4219343089515
 31
0.0
  0
LINE
  5
D1
330
1F
100
AcDbEntity
  8
1
  6
DASH_CENTER
 62
     2
100
AcDbLine
 10
112.5
 20
149.6403102464774
 30
0.0
 11
112.5
 21
173.1403102464774
 31
0.0
  0
LINE
  5
D2
330
1F
100
AcDbEntity
  8
1
  6
Continuous
 62
     7
100
AcDbLine
 10
133.5
 20
167.5158153913519
 30
0.0
 11
91.50000000000001
 21
167.5158153913519
 31
0.0
  0
LINE
  5
D3
330
1F
100
AcDbEntity
  8
1
  6
Continuous
 62
     7
100
AcDbLine
 10
76.50000000000001
 20
152.6403102464774
 30
0.0
 11
76.50000000000001
 21
153.463134532782
 31
0.0
  0
LINE
  5
D4
330
1F
100
AcDbEntity
  8
1
  6
Continuous
 62
     7
100
AcDbLine
 10
148.5
 20
152.6403102464774
 30
0.0
 11
148.5
 21
152.463134532782
 31
0.0
  0
LINE
  5
D5
330
1F
100
AcDbEntity
  8
1
  6
Continuous
 62
     7
100
AcDbLine
 10
148.5
 20
152.463134532782
 30
0.0
 11
148.5
 21
152.5158153913519
 31
0.0
  0
LINE
  5
D6
330
1F
100
AcDbEntity
  8
1
  6
Continuous
 62
     7
100
AcDbLine
 10
76.50000000000001
 20
153.463134532782
 30
0.0
 11
76.50000000000001
 21
152.5158153913519
 31
0.0
  0
ARC
  5
D7
330
1F
100
AcDbEntity
  8
1
  6
Continuous
 62
     7
100
AcDbCircle
 10
91.50765081793502
 20
152.5075795867652
 30
0.0
 40
15.00823775468305
100
AcDbArc
 50
90.02920793258008
 51
179.4932779000437
  0
ARC
  5
D8
330
1F
100
AcDbEntity
  8
1
  6
Continuous
 62
     7
100
AcDbCircle
 10
133.492349182065
 20
152.5075795867652
 30
0.0
 40
15.00823775468302
100
AcDbArc
 50
0.5067220999563
 51
89.97079206741992
  0
CIRCLE
  5
D9
330
1F
100
AcDbEntity
  8
1
  6
Continuous
 62
     7
100
AcDbCircle
 10
112.5
 20
218.4219343089515
 30
0.0
 40
16.80000000000001
  0
CIRCLE
  5
DA
330
1F
100
AcDbEntity
  8
1
  6
Continuous
 62
     7
100
AcDbCircle
 10
112.5
 20
218.4219343089515
 30
0.0
 40
16.30000000000001
  0
CIRCLE
  5
DB
330
1F
100
AcDbEntity
  8
1
  6
Continuous
 62
     7
100
AcDbCircle
 10
112.5
 20
218.4219343089515
 30
0.0
 40
36.00000000000011
  0
MTEXT
  5
DD
330
1F
100
AcDbEntity
  8
1
 62
     7
100
AcDbMText
 10
117.75
 20
12.49999999999997
 30
0.0
 40
2.5
 41
0.0
 71
     5
 72
     1
  1
22
  7
CONVERTER_12
 73
     1
 44
0.7202881152461
  0
MTEXT
  5
DE
330
1F
100
AcDbEntity
  8
1
 62
     7
100
AcDbMText
 10
129.25
 20
12.49999999999997
 30
0.0
 40
2.5
 41
0.0
 71
     5
 72
     1
  1
18
  7
CONVERTER_12
 73
     1
 44
0.7202881152461
  0
MTEXT
  5
DF
330
1F
100
AcDbEntity
  8
1
 62
     7
100
AcDbMText
 10
123.5
 20
12.49999999999997
 30
0.0
 40
2.5
 41
0.0
 71
     5
 72
     1
  1
5
  7
CONVERTER_12
 73
     1
 44
0.7202881152461
  0
MTEXT
  5
E0
330
1F
100
AcDbEntity
  8
1
 62
     7
100
AcDbMText
 10
100.75
 20
12.49999999999997
 30
0.0
 40
2.5
 41
0.0
 71
     5
 72
     1
  1
22
  7
CONVERTER_12
 73
     1
 44
0.7202881152461
  0
MTEXT
  5
E1
330
1F
100
AcDbEntity
  8
1
 62
     7
100
AcDbMText
 10
112.25
 20
12.49999999999997
 30
0.0
 40
2.5
 41
0.0
 71
     5
 72
     1
  1
18
  7
CONVERTER_12
 73
     1
 44
0.7202881152461
  0
MTEXT
  5
E2
330
1F
100
AcDbEntity
  8
1
 62
     7
100
AcDbMText
 10
106.5
 20
12.49999999999997
 30
0.0
 40
2.5
 41
0.0
 71
     5
 72
     1
  1
5
  7
CONVERTER_12
 73
     1
 44
0.7202881152461
  0
MTEXT
  5
E3
330
1F
100
AcDbEntity
  8
1
 62
     7
100
AcDbMText
 10
134.75
 20
12.49999999999997
 30
0.0
 40
2.5
 41
0.0
 71
     5
 72
     1
  1
22
  7
CONVERTER_12
 73
     1
 44
0.7202881152461
  0
MTEXT
  5
E4
330
1F
100
AcDbEntity
  8
1
 62
     7
100
AcDbMText
 10
146.25
 20
12.49999999999997
 30
0.0
 40
2.5
 41
0.0
 71
     5
 72
     1
  1
13
  7
CONVERTER_12
 73
     1
 44
0.7202881152461
  0
MTEXT
  5
E5
330
1F
100
AcDbEntity
  8
1
 62
     7
100
AcDbMText
 10
140.5
 20
12.49999999999997
 30
0.0
 40
2.5
 41
0.0
 71
     5
 72
     1
  1
5
  7
CONVERTER_12
 73
     1
 44
0.7202881152461
  0
MTEXT
  5
E6
330
1F
100
AcDbEntity
  8
0
 62
     7
100
AcDbMText
 10
57.0
 20
16.24999999999997
 30
0.0
 40
3.5
 41
0.0
 71
     5
 72
     1
  1
H70-57
  7
CONVERTER_12
 73
     1
 44
0.84033613445378
  0
MTEXT
  5
E7
330
1F
100
AcDbEntity
  8
1
 62
     7
100
AcDbMText
 10
85.25
 20
16.99999999999996
 30
0.0
 40
3.5
 41
0.0
 71
     5
 72
     1
  1
1
  7
CONVERTER_12
 73
     1
 44
0.7202881152461
  0
MTEXT
  5
E8
330
1F
100
AcDbEntity
  8
1
 62
     7
100
AcDbMText
 10
57.0
 20
22.74999999999999
 30
0.0
 40
3.5
 41
0.0
 71
     5
 72
     1
  1
ワン座金
  7
CONVERTER_11
 73
     1
 44
0.54545454545455
  0
MTEXT
  5
E9
330
1F
100
AcDbEntity
  8
1
 62
     7
100
AcDbMText
 10
57.0
 20
12.24999999999997
 30
0.0
 40
3.5
 41
0.0
 71
     5
 72
     1
  1
-32X72X15
  7
CONVERTER_12
 73
     1
 44
0.7202881152461
  0
MTEXT
  5
EA
330
1F
100
AcDbEntity
  8
1
 62
     7
100
AcDbMText
 10
93.75
 20
16.99999999999996
 30
0.0
 40
3.5
 41
0.0
 71
     5
 72
     1
  1
1
  7
CONVERTER_12
 73
     1
 44
0.7202881152461
  0
MTEXT
  5
EB
330
1F
100
AcDbEntity
  8
1
 62
     7
100
AcDbMText
 10
151.75
 20
12.49999999999996
 30
0.0
 40
2.5
 41
0.0
 71
     5
 72
     1
  1
06
  7
CONVERTER_12
 73
     1
 44
0.7202881152461
  0
MTEXT
  5
EC
330
1F
100
AcDbEntity
  8
1
 62
     7
100
AcDbMText
 10
157.5
 20
12.49999999999996
 30
0.0
 40
2.5
 41
0.0
 71
     5
 72
     1
  1
5
  7
CONVERTER_12
 73
     1
 44
0.7202881152461
  0
DIMENSION
  5
F7
330
1F
100
AcDbEntity
  8
1
100
AcDbDimension
  2
*D3
 10
148.5
 20
142.5158153913519
 30
0.0
 11
112.5
 21
145.2658153913519
 31
0.0
 70
    32
  1
<>
 71
     5
 42
-1.0
 53
0.00013888888889
  3
ME10_DIM_10
100
AcDbAlignedDimension
 13
76.50000000000001
 23
152.5158153913519
 33
0.0
 14
148.5
 24
152.5158153913519
 34
0.0
100
AcDbRotatedDimension
  0
DIMENSION
  5
102
330
1F
100
AcDbEntity
  8
1
100
AcDbDimension
  2
*D4
 10
158.5
 20
152.5158153913519
 30
0.0
 11
155.75
 21
160.0158153913519
 31
0.0
 70
    32
  1
<>
 71
     5
 42
-1.0
 53
90.0
  3
ME10_DIM_11
100
AcDbAlignedDimension
 13
133.5
 23
167.5158153913519
 33
0.0
 14
148.5
 24
152.5158153913519
 34
0.0
 50
90.0
100
AcDbRotatedDimension
  0
INSERT
  5
10A
330
1F
100
AcDbEntity
  8
1
100
AcDbBlockReference
  2
*D5
 10
0.0
 20
0.0
 30
0.0
  0
ENDSEC
  0
SECTION
  2
OBJECTS
  0
DICTIONARY
  5
C
330
0
100
AcDbDictionary
281
     1
  3
ACAD_GROUP
350
D
  3
ACAD_LAYOUT
350
1A
  3
ACAD_MATERIAL
350
3B
  3
ACAD_MLEADERSTYLE
350
10D
  3
ACAD_MLINESTYLE
350
17
  3
ACAD_PLOTSETTINGS
350
19
  3
ACAD_PLOTSTYLENAME
350
E
  3
ACAD_VISUALSTYLE
350
2A
  3
AcDbVariableDictionary
350
10B
  0
DICTIONARY
  5
D
102
{ACAD_REACTORS
330
C
102
}
330
C
100
AcDbDictionary
281
     1
  0
DICTIONARY
  5
1A
102
{ACAD_REACTORS
330
C
102
}
330
C
100
AcDbDictionary
281
     1
  3
Layout1
350
1E
  3
Layout2
350
26
  3
Model
350
22
  0
DICTIONARY
  5
3B
102
{ACAD_REACTORS
330
C
102
}
330
C
100
AcDbDictionary
281
     1
  3
ByBlock
350
3D
  3
ByLayer
350
3C
  3
Global
350
3E
  0
DICTIONARY
  5
10D
102
{ACAD_REACTORS
330
C
102
}
330
C
100
AcDbDictionary
281
     1
  0
DICTIONARY
  5
17
102
{ACAD_REACTORS
330
C
102
}
330
C
100
AcDbDictionary
281
     1
  3
Standard
350
18
  0
DICTIONARY
  5
19
102
{ACAD_REACTORS
330
C
102
}
330
C
100
AcDbDictionary
281
     1
  0
ACDBDICTIONARYWDFLT
  5
E
102
{ACAD_REACTORS
330
C
102
}
330
C
100
AcDbDictionary
281
     1
  3
Normal
350
F
100
AcDbDictionaryWithDefault
340
F
  0
DICTIONARY
  5
2A
102
{ACAD_REACTORS
330
C
102
}
330
C
100
AcDbDictionary
281
     1
  3
2dWireframe
350
2F
  3
3D Hidden
350
31
  3
3dWireframe
350
30
  3
Basic
350
32
  3
Brighten
350
36
  3
ColorChange
350
3A
  3
Conceptual
350
34
  3
Dim
350
35
  3
Facepattern
350
39
  3
Flat
350
2B
  3
FlatWithEdges
350
2C
  3
Gouraud
350
2D
  3
GouraudWithEdges
350
2E
  3
Linepattern
350
38
  3
Realistic
350
33
  3
Thicken
350
37
  0
DICTIONARY
  5
10B
102
{ACAD_REACTORS
330
C
102
}
330
C
100
AcDbDictionary
281
     1
  3
DIMASSOC
350
10E
  3
HIDETEXT
350
10F
  0
LAYOUT
  5
1E
102
{ACAD_REACTORS
330
1A
102
}
330
1A
100
AcDbPlotSettings
  1

  2
none_device
  4

  6

 40
0.0
 41
0.0
 42
0.0
 43
0.0
 44
0.0
 45
0.0
 46
0.0
 47
0.0
 48
0.0
 49
0.0
140
0.0
141
0.0
142
1.0
143
1.0
 70
   688
 72
     0
 73
     0
 74
     5
  7

 75
    16
147
1.0
148
0.0
149
0.0
100
AcDbLayout
  1
Layout1
 70
     1
 71
     1
 10
0.0
 20
0.0
 11
12.0
 21
9.0
 12
0.0
 22
0.0
 32
0.0
 14
1.00000000000000E+20
 24
1.00000000000000E+20
 34
1.00000000000000E+20
 15
-1.00000000000000E+20
 25
-1.00000000000000E+20
 35
-1.00000000000000E+20
146
0.0
 13
0.0
 23
0.0
 33
0.0
 16
1.0
 26
0.0
 36
0.0
 17
0.0
 27
1.0
 37
0.0
 76
     0
330
1B
  0
LAYOUT
  5
26
102
{ACAD_REACTORS
330
1A
102
}
330
1A
100
AcDbPlotSettings
  1

  2
none_device
  4

  6

 40
0.0
 41
0.0
 42
0.0
 43
0.0
 44
0.0
 45
0.0
 46
0.0
 47
0.0
 48
0.0
 49
0.0
140
0.0
141
0.0
142
1.0
143
1.0
 70
   688
 72
     0
 73
     0
 74
     5
  7

 75
    16
147
1.0
148
0.0
149
0.0
100
AcDbLayout
  1
Layout2
 70
     1
 71
     2
 10
0.0
 20
0.0
 11
0.0
 21
0.0
 12
0.0
 22
0.0
 32
0.0
 14
0.0
 24
0.0
 34
0.0
 15
0.0
 25
0.0
 35
0.0
146
0.0
 13
0.0
 23
0.0
 33
0.0
 16
1.0
 26
0.0
 36
0.0
 17
0.0
 27
1.0
 37
0.0
 76
     0
330
23
  0
LAYOUT
  5
22
102
{ACAD_REACTORS
330
1A
102
}
330
1A
100
AcDbPlotSettings
  1

  2
none_device
  4

  6

 40
0.0
 41
0.0
 42
0.0
 43
0.0
 44
0.0
 45
0.0
 46
0.0
 47
0.0
 48
0.0
 49
0.0
140
0.0
141
0.0
142
1.0
143
1.0
 70
  1712
 72
     0
 73
     0
 74
     0
  7

 75
     0
147
1.0
148
0.0
149
0.0
100
AcDbLayout
  1
Model
 70
     1
 71
     0
 10
0.0
 20
0.0
 11
12.0
 21
9.0
 12
0.0
 22
0.0
 32
0.0
 14
0.0
 24
-0.00000000000003
 34
0.0
 15
210.0
 25
297.0
 35
0.0
146
0.0
 13
0.0
 23
0.0
 33
0.0
 16
1.0
 26
0.0
 36
0.0
 17
0.0
 27
1.0
 37
0.0
 76
     0
330
1F
331
29
  0
MATERIAL
  5
3D
102
{ACAD_REACTORS
330
3B
102
}
102
{ACAD_XDICTIONARY
360
132
102
}
330
3B
100
AcDbMaterial
  1
ByBlock
  0
MATERIAL
  5
3C
102
{ACAD_REACTORS
330
3B
102
}
102
{ACAD_XDICTIONARY
360
130
102
}
330
3B
100
AcDbMaterial
  1
ByLayer
  0
MATERIAL
  5
3E
102
{ACAD_REACTORS
330
3B
102
}
102
{ACAD_XDICTIONARY
360
134
102
}
330
3B
100
AcDbMaterial
  1
Global
  0
MLINESTYLE
  5
18
102
{ACAD_REACTORS
330
17
102
}
330
17
100
AcDbMlineStyle
  2
Standard
 70
     0
  3

 62
   256
 51
90.0
 52
90.0
 71
     2
 49
0.5
 62
   256
  6
BYLAYER
 49
-0.5
 62
   256
  6
BYLAYER
  0
ACDBPLACEHOLDER
  5
F
102
{ACAD_REACTORS
330
E
102
}
330
E
  0
VISUALSTYLE
  5
2F
102
{ACAD_REACTORS
330
2A
102
}
102
{ACAD_XDICTIONARY
360
118
102
}
330
2A
100
AcDbVisualStyle
  2
2dWireframe
 70
     4
 71
     0
 72
     2
 73
     0
 90
        0
 40
-0.6
 41
-30.0
 62
     5
 63
     7
 74
     1
 91
        4
 64
     7
 65
   257
 75
     1
175
     1
 42
1.0
 92
        0
 66
   257
 43
1.0
 76
     1
 77
     6
 78
     2
 67
     7
 79
     5
170
     0
171
     0
290
     0
174
     0
 93
        1
 44
0.0
173
     0
291
     0
 45
0.0
1001
ACAD
1000
AcDbSavedByObjectVersion
1070
     0
  0
VISUALSTYLE
  5
31
102
{ACAD_REACTORS
330
2A
102
}
102
{ACAD_XDICTIONARY
360
11C
102
}
330
2A
100
AcDbVisualStyle
  2
3D Hidden
 70
     6
 71
     1
 72
     2
 73
     2
 90
        0
 40
-0.6
 41
-30.0
 62
     5
 63
     7
 74
     2
 91
        2
 64
     7
 65
   257
 75
     2
175
     1
 42
40.0
 92
        0
 66
   257
 43
1.0
 76
     1
 77
     6
 78
     2
 67
     7
 79
     3
170
     0
171
     0
290
     0
174
     0
 93
        1
 44
0.0
173
     0
291
     0
 45
0.0
1001
ACAD
1000
AcDbSavedByObjectVersion
1070
     0
  0
VISUALSTYLE
  5
30
102
{ACAD_REACTORS
330
2A
102
}
102
{ACAD_XDICTIONARY
360
11A
102
}
330
2A
100
AcDbVisualStyle
  2
3dWireframe
 70
     5
 71
     0
 72
     2
 73
     0
 90
        0
 40
-0.6
 41
-30.0
 62
     5
 63
     7
 74
     1
 91
        4
 64
     7
 65
   257
 75
     1
175
     1
 42
1.0
 92
        0
 66
   257
 43
1.0
 76
     1
 77
     6
 78
     2
 67
     7
 79
     5
170
     0
171
     0
290
     0
174
     0
 93
        1
 44
0.0
173
     0
291
     0
 45
0.0
1001
ACAD
1000
AcDbSavedByObjectVersion
1070
     0
  0
VISUALSTYLE
  5
32
102
{ACAD_REACTORS
330
2A
102
}
102
{ACAD_XDICTIONARY
360
11E
102
}
330
2A
100
AcDbVisualStyle
  2
Basic
 70
     7
 71
     1
 72
     0
 73
     1
 90
        0
 40
-0.6
 41
-30.0
 62
     5
 63
     7
 74
     0
 91
        4
 64
     7
 65
   257
 75
     1
175
     1
 42
1.0
 92
        8
 66
     7
 43
1.0
 76
     1
 77
     6
 78
     2
 67
     7
 79
     5
170
     0
171
     0
290
     0
174
     0
 93
        1
 44
0.0
173
     0
291
     1
 45
0.0
1001
ACAD
1000
AcDbSavedByObjectVersion
1070
     0
  0
VISUALSTYLE
  5
36
102
{ACAD_REACTORS
330
2A
102
}
102
{ACAD_XDICTIONARY
360
126
102
}
330
2A
100
AcDbVisualStyle
  2
Brighten
 70
    12
 71
     2
 72
     2
 73
     0
 90
        0
 40
-0.6
 41
-30.0
 62
     5
 63
     7
 74
     1
 91
        4
 64
     7
 65
   257
 75
     1
175
     1
 42
1.0
 92
        8
 66
     7
 43
1.0
 76
     1
 77
     6
 78
     2
 67
     7
 79
     5
170
     0
171
     0
290
     0
174
     0
 93
        1
 44
50.0
173
     0
291
     1
 45
0.0
1001
ACAD
1000
AcDbSavedByObjectVersion
1070
     0
  0
VISUALSTYLE
  5
3A
102
{ACAD_REACTORS
330
2A
102
}
102
{ACAD_XDICTIONARY
360
12E
102
}
330
2A
100
AcDbVisualStyle
  2
ColorChange
 70
    16
 71
     2
 72
     2
 73
     3
 90
        0
 40
-0.6
 41
-30.0
 62
     5
 63
     8
 74
     1
 91
        4
 64
     7
 65
   257
 75
     1
175
     1
 42
1.0
 92
        8
 66
     8
 43
1.0
 76
     1
 77
     6
 78
     2
 67
     7
 79
     5
170
     0
171
     0
290
     0
174
     0
 93
        1
 44
0.0
173
     0
291
     1
 45
0.0
1001
ACAD
1000
AcDbSavedByObjectVersion
1070
     0
  0
VISUALSTYLE
  5
34
102
{ACAD_REACTORS
330
2A
102
}
102
{ACAD_XDICTIONARY
360
122
102
}
330
2A
100
AcDbVisualStyle
  2
Conceptual
 70
     9
 71
     3
 72
     2
 73
     0
 90
        0
 40
-0.6
 41
-30.0
 62
     5
 63
     7
 74
     2
 91
        2
 64
     7
 65
   257
 75
     1
175
     1
 42
40.0
 92
        8
 66
     7
 43
1.0
 76
     1
 77
     6
 78
     2
 67
     7
 79
     3
170
     0
171
     0
290
     0
174
     0
 93
        1
 44
0.0
173
     0
291
     0
 45
0.0
1001
ACAD
1000
AcDbSavedByObjectVersion
1070
     0
  0
VISUALSTYLE
  5
35
102
{ACAD_REACTORS
330
2A
102
}
102
{ACAD_XDICTIONARY
360
124
102
}
330
2A
100
AcDbVisualStyle
  2
Dim
 70
    11
 71
     2
 72
     2
 73
     0
 90
        0
 40
-0.6
 41
-30.0
 62
     5
 63
     7
 74
     1
 91
        4
 64
     7
 65
   257
 75
     1
175
     1
 42
1.0
 92
        8
 66
     7
 43
1.0
 76
     1
 77
     6
 78
     2
 67
     7
 79
     5
170
     0
171
     0
290
     0
174
     0
 93
        1
 44
-50.0
173
     0
291
     1
 45
0.0
1001
ACAD
1000
AcDbSavedByObjectVersion
1070
     0
  0
VISUALSTYLE
  5
39
102
{ACAD_REACTORS
330
2A
102
}
102
{ACAD_XDICTIONARY
360
12C
102
}
330
2A
100
AcDbVisualStyle
  2
Facepattern
 70
    15
 71
     2
 72
     2
 73
     0
 90
        0
 40
-0.6
 41
-30.0
 62
     5
 63
     7
 74
     1
 91
        4
 64
     7
 65
   257
 75
     1
175
     1
 42
1.0
 92
        8
 66
     7
 43
1.0
 76
     1
 77
     6
 78
     2
 67
     7
 79
     5
170
     0
171
     0
290
     0
174
     0
 93
        1
 44
0.0
173
     0
291
     1
 45
0.0
1001
ACAD
1000
AcDbSavedByObjectVersion
1070
     0
  0
VISUALSTYLE
  5
2B
102
{ACAD_REACTORS
330
2A
102
}
102
{ACAD_XDICTIONARY
360
110
102
}
330
2A
100
AcDbVisualStyle
  2
Flat
 70
     0
 71
     2
 72
     1
 73
     1
 90
        2
 40
-0.6
 41
30.0
 62
     5
 63
     7
 74
     0
 91
        4
 64
     7
 65
   257
 75
     1
175
     1
 42
1.0
 92
        8
 66
     7
 43
1.0
 76
     1
 77
     6
 78
     2
 67
     7
 79
     5
170
     0
171
     0
290
     0
174
     0
 93
       13
 44
0.0
173
     0
291
     1
 45
0.0
1001
ACAD
1000
AcDbSavedByObjectVersion
1070
     0
  0
VISUALSTYLE
  5
2C
102
{ACAD_REACTORS
330
2A
102
}
102
{ACAD_XDICTIONARY
360
112
102
}
330
2A
100
AcDbVisualStyle
  2
FlatWithEdges
 70
     1
 71
     2
 72
     1
 73
     1
 90
        2
 40
-0.6
 41
30.0
 62
     5
 63
     7
 74
     1
 91
        4
 64
     7
 65
   257
 75
     1
175
     1
 42
1.0
 92
        0
 66
   257
 43
1.0
 76
     1
 77
     6
 78
     2
 67
     7
 79
     5
170
     0
171
     0
290
     0
174
     0
 93
       13
 44
0.0
173
     0
291
     1
 45
0.0
1001
ACAD
1000
AcDbSavedByObjectVersion
1070
     0
  0
VISUALSTYLE
  5
2D
102
{ACAD_REACTORS
330
2A
102
}
102
{ACAD_XDICTIONARY
360
114
102
}
330
2A
100
AcDbVisualStyle
  2
Gouraud
 70
     2
 71
     2
 72
     2
 73
     1
 90
        2
 40
-0.6
 41
30.0
 62
     5
 63
     7
 74
     0
 91
        4
 64
     7
 65
   257
 75
     1
175
     1
 42
1.0
 92
        0
 66
     7
 43
1.0
 76
     1
 77
     6
 78
     2
 67
     7
 79
     5
170
     0
171
     0
290
     0
174
     0
 93
       13
 44
0.0
173
     0
291
     1
 45
0.0
1001
ACAD
1000
AcDbSavedByObjectVersion
1070
     0
  0
VISUALSTYLE
  5
2E
102
{ACAD_REACTORS
330
2A
102
}
102
{ACAD_XDICTIONARY
360
116
102
}
330
2A
100
AcDbVisualStyle
  2
GouraudWithEdges
 70
     3
 71
     2
 72
     2
 73
     1
 90
        2
 40
-0.6
 41
30.0
 62
     5
 63
     7
 74
     1
 91
        4
 64
     7
 65
   257
 75
     1
175
     1
 42
1.0
 92
        0
 66
   257
 43
1.0
 76
     1
 77
     6
 78
     2
 67
     7
 79
     5
170
     0
171
     0
290
     0
174
     0
 93
       13
 44
0.0
173
     0
291
     1
 45
0.0
1001
ACAD
1000
AcDbSavedByObjectVersion
1070
     0
  0
VISUALSTYLE
  5
38
102
{ACAD_REACTORS
330
2A
102
}
102
{ACAD_XDICTIONARY
360
12A
102
}
330
2A
100
AcDbVisualStyle
  2
Linepattern
 70
    14
 71
     2
 72
     2
 73
     0
 90
        0
 40
-0.6
 41
-30.0
 62
     5
 63
     7
 74
     1
 91
        4
 64
     7
 65
   257
 75
     7
175
     7
 42
1.0
 92
        8
 66
     7
 43
1.0
 76
     1
 77
     6
 78
     2
 67
     7
 79
     5
170
     0
171
     0
290
     0
174
     0
 93
        1
 44
0.0
173
     0
291
     1
 45
0.0
1001
ACAD
1000
AcDbSavedByObjectVersion
1070
     0
  0
VISUALSTYLE
  5
33
102
{ACAD_REACTORS
330
2A
102
}
102
{ACAD_XDICTIONARY
360
120
102
}
330
2A
100
AcDbVisualStyle
  2
Realistic
 70
     8
 71
     2
 72
     2
 73
     0
 90
        0
 40
-0.6
 41
-30.0
 62
     5
 63
     7
 74
     1
 91
        0
 64
     7
 65
   257
 75
     1
175
     1
 42
1.0
 92
        8
 66
     8
 43
1.0
 76
     1
 77
     6
 78
     2
 67
     7
 79
     5
170
     0
171
     0
290
     0
174
     0
 93
       13
 44
0.0
173
     0
291
     0
 45
0.0
1001
ACAD
1000
AcDbSavedByObjectVersion
1070
     0
  0
VISUALSTYLE
  5
37
102
{ACAD_REACTORS
330
2A
102
}
102
{ACAD_XDICTIONARY
360
128
102
}
330
2A
100
AcDbVisualStyle
  2
Thicken
 70
    13
 71
     2
 72
     2
 73
     0
 90
        0
 40
-0.6
 41
-30.0
 62
     5
 63
     7
 74
     1
 91
        4
 64
     7
 65
   257
 75
     1
175
     1
 42
1.0
 92
       12
 66
     7
 43
1.0
 76
     1
 77
     6
 78
     2
 67
     7
 79
     5
170
     0
171
     0
290
     0
174
     0
 93
        1
 44
0.0
173
     0
291
     1
 45
0.0
1001
ACAD
1000
AcDbSavedByObjectVersion
1070
     0
  0
DICTIONARYVAR
  5
10E
102
{ACAD_REACTORS
330
10B
102
}
330
10B
100
DictionaryVariables
280
     0
  1
2
  0
DICTIONARYVAR
  5
10F
102
{ACAD_REACTORS
330
10B
102
}
330
10B
100
DictionaryVariables
280
     0
  1
1
  0
DICTIONARY
  5
132
330
3D
100
AcDbDictionary
280
     1
281
     1
  3
ACAD_XREC_ROUNDTRIP
360
133
  0
DICTIONARY
  5
130
330
3C
100
AcDbDictionary
280
     1
281
     1
  3
ACAD_XREC_ROUNDTRIP
360
131
  0
DICTIONARY
  5
134
330
3E
100
AcDbDictionary
280
     1
281
     1
  3
ACAD_XREC_ROUNDTRIP
360
135
  0
DICTIONARY
  5
118
330
2F
100
AcDbDictionary
280
     1
281
     1
  3
ACAD_XREC_ROUNDTRIP
360
119
  0
DICTIONARY
  5
11C
330
31
100
AcDbDictionary
280
     1
281
     1
  3
ACAD_XREC_ROUNDTRIP
360
11D
  0
DICTIONARY
  5
11A
330
30
100
AcDbDictionary
280
     1
281
     1
  3
ACAD_XREC_ROUNDTRIP
360
11B
  0
DICTIONARY
  5
11E
330
32
100
AcDbDictionary
280
     1
281
     1
  3
ACAD_XREC_ROUNDTRIP
360
11F
  0
DICTIONARY
  5
126
330
36
100
AcDbDictionary
280
     1
281
     1
  3
ACAD_XREC_ROUNDTRIP
360
127
  0
DICTIONARY
  5
12E
330
3A
100
AcDbDictionary
280
     1
281
     1
  3
ACAD_XREC_ROUNDTRIP
360
12F
  0
DICTIONARY
  5
122
330
34
100
AcDbDictionary
280
     1
281
     1
  3
ACAD_XREC_ROUNDTRIP
360
123
  0
DICTIONARY
  5
124
330
35
100
AcDbDictionary
280
     1
281
     1
  3
ACAD_XREC_ROUNDTRIP
360
125
  0
DICTIONARY
  5
12C
330
39
100
AcDbDictionary
280
     1
281
     1
  3
ACAD_XREC_ROUNDTRIP
360
12D
  0
DICTIONARY
  5
110
330
2B
100
AcDbDictionary
280
     1
281
     1
  3
ACAD_XREC_ROUNDTRIP
360
111
  0
DICTIONARY
  5
112
330
2C
100
AcDbDictionary
280
     1
281
     1
  3
ACAD_XREC_ROUNDTRIP
360
113
  0
DICTIONARY
  5
114
330
2D
100
AcDbDictionary
280
     1
281
     1
  3
ACAD_XREC_ROUNDTRIP
360
115
  0
DICTIONARY
  5
116
330
2E
100
AcDbDictionary
280
     1
281
     1
  3
ACAD_XREC_ROUNDTRIP
360
117
  0
DICTIONARY
  5
12A
330
38
100
AcDbDictionary
280
     1
281
     1
  3
ACAD_XREC_ROUNDTRIP
360
12B
  0
DICTIONARY
  5
120
330
33
100
AcDbDictionary
280
     1
281
     1
  3
ACAD_XREC_ROUNDTRIP
360
121
  0
DICTIONARY
  5
128
330
37
100
AcDbDictionary
280
     1
281
     1
  3
ACAD_XREC_ROUNDTRIP
360
129
  0
XRECORD
  5
133
102
{ACAD_REACTORS
330
132
102
}
330
132
100
AcDbXrecord
280
     1
102
MATERIAL
148
0.0
149
0.0
149
0.0
 93
        0
 94
      127
282
     0
 72
     1
 77
     1
171
     1
175
     1
179
     1
273
     0
  0
XRECORD
  5
131
102
{ACAD_REACTORS
330
130
102
}
330
130
100
AcDbXrecord
280
     1
102
MATERIAL
148
0.0
149
0.0
149
0.0
 93
        0
 94
      127
282
     0
 72
     1
 77
     1
171
     1
175
     1
179
     1
273
     0
  0
XRECORD
  5
135
102
{ACAD_REACTORS
330
134
102
}
330
134
100
AcDbXrecord
280
     1
102
MATERIAL
148
0.0
149
0.0
149
0.0
 93
        0
 94
      127
282
     0
 72
     1
 77
     1
171
     1
175
     1
179
     1
273
     0
  0
XRECORD
  5
119
102
{ACAD_REACTORS
330
118
102
}
330
118
100
AcDbXrecord
280
     1
102
RTVSPropertyOp0
 70
     1
102
RTVSPropertyOp1
 70
     1
102
RTVSPropertyOp2
 70
     1
102
RTVSPropertyOp3
 70
     1
102
RTVSPropertyOp4
 70
     1
102
RTVSPropertyOp5
 70
     1
102
RTVSPropertyOp6
 70
     1
102
RTVSPropertyOp7
 70
     1
102
RTVSPropertyOp8
 70
     1
102
RTVSPropertyOp9
 70
     1
102
RTVSPropertyOp10
 70
     1
102
RTVSPropertyOp11
 70
     1
102
RTVSPropertyOp12
 70
     1
102
RTVSPropertyOp13
 70
     1
102
RTVSPropertyOp14
 70
     1
102
RTVSPropertyOp15
 70
     1
102
RTVSPropertyOp16
 70
     1
102
RTVSPropertyOp17
 70
     1
102
RTVSPropertyOp18
 70
     1
102
RTVSPropertyOp19
 70
     1
102
RTVSPropertyOp20
 70
     1
102
RTVSPropertyOp21
 70
     1
102
RTVSPropertyOp22
 70
     1
102
RTVSPropertyOp23
 70
     1
102
RTVSPropertyOp24
 70
     1
102
RTVSPropertyOp25
 70
     1
102
RTVSPropertyOp26
 70
     1
102
RTVSPropertyOp27
 70
     1
102
RTVSPropertyOp28
 70
     1
102
RTVSPropertyOp29
 70
     1
102
RTVSPropertyOp30
 70
     1
102
RTVSPropertyOp31
 70
     1
102
RTVSPropertyOp32
 70
     1
  0
XRECORD
  5
11D
102
{ACAD_REACTORS
330
11C
102
}
330
11C
100
AcDbXrecord
280
     1
102
RTVSPropertyOp0
 70
     1
102
RTVSPropertyOp1
 70
     1
102
RTVSPropertyOp2
 70
     1
102
RTVSPropertyOp3
 70
     1
102
RTVSPropertyOp4
 70
     1
102
RTVSPropertyOp5
 70
     1
102
RTVSPropertyOp6
 70
     1
102
RTVSPropertyOp7
 70
     1
102
RTVSPropertyOp8
 70
     1
102
RTVSPropertyOp9
 70
     1
102
RTVSPropertyOp10
 70
     1
102
RTVSPropertyOp11
 70
     1
102
RTVSPropertyOp12
 70
     1
102
RTVSPropertyOp13
 70
     1
102
RTVSPropertyOp14
 70
     1
102
RTVSPropertyOp15
 70
     1
102
RTVSPropertyOp16
 70
     1
102
RTVSPropertyOp17
 70
     1
102
RTVSPropertyOp18
 70
     1
102
RTVSPropertyOp19
 70
     1
102
RTVSPropertyOp20
 70
     1
102
RTVSPropertyOp21
 70
     1
102
RTVSPropertyOp22
 70
     1
102
RTVSPropertyOp23
 70
     1
102
RTVSPropertyOp24
 70
     1
102
RTVSPropertyOp25
 70
     1
102
RTVSPropertyOp26
 70
     1
102
RTVSPropertyOp27
 70
     1
102
RTVSPropertyOp28
 70
     1
102
RTVSPropertyOp29
 70
     1
102
RTVSPropertyOp30
 70
     1
102
RTVSPropertyOp31
 70
     1
102
RTVSPropertyOp32
 70
     1
  0
XRECORD
  5
11B
102
{ACAD_REACTORS
330
11A
102
}
330
11A
100
AcDbXrecord
280
     1
102
RTVSPropertyOp0
 70
     1
102
RTVSPropertyOp1
 70
     1
102
RTVSPropertyOp2
 70
     1
102
RTVSPropertyOp3
 70
     1
102
RTVSPropertyOp4
 70
     1
102
RTVSPropertyOp5
 70
     1
102
RTVSPropertyOp6
 70
     1
102
RTVSPropertyOp7
 70
     1
102
RTVSPropertyOp8
 70
     1
102
RTVSPropertyOp9
 70
     1
102
RTVSPropertyOp10
 70
     1
102
RTVSPropertyOp11
 70
     1
102
RTVSPropertyOp12
 70
     1
102
RTVSPropertyOp13
 70
     1
102
RTVSPropertyOp14
 70
     1
102
RTVSPropertyOp15
 70
     1
102
RTVSPropertyOp16
 70
     1
102
RTVSPropertyOp17
 70
     1
102
RTVSPropertyOp18
 70
     1
102
RTVSPropertyOp19
 70
     1
102
RTVSPropertyOp20
 70
     1
102
RTVSPropertyOp21
 70
     1
102
RTVSPropertyOp22
 70
     1
102
RTVSPropertyOp23
 70
     1
102
RTVSPropertyOp24
 70
     1
102
RTVSPropertyOp25
 70
     1
102
RTVSPropertyOp26
 70
     1
102
RTVSPropertyOp27
 70
     1
102
RTVSPropertyOp28
 70
     1
102
RTVSPropertyOp29
 70
     1
102
RTVSPropertyOp30
 70
     1
102
RTVSPropertyOp31
 70
     1
102
RTVSPropertyOp32
 70
     1
  0
XRECORD
  5
11F
102
{ACAD_REACTORS
330
11E
102
}
330
11E
100
AcDbXrecord
280
     1
102
RTVSPropertyOp0
 70
     1
102
RTVSPropertyOp1
 70
     1
102
RTVSPropertyOp2
 70
     1
102
RTVSPropertyOp3
 70
     1
102
RTVSPropertyOp4
 70
     1
102
RTVSPropertyOp5
 70
     1
102
RTVSPropertyOp6
 70
     1
102
RTVSPropertyOp7
 70
     1
102
RTVSPropertyOp8
 70
     1
102
RTVSPropertyOp9
 70
     1
102
RTVSPropertyOp10
 70
     1
102
RTVSPropertyOp11
 70
     1
102
RTVSPropertyOp12
 70
     1
102
RTVSPropertyOp13
 70
     1
102
RTVSPropertyOp14
 70
     1
102
RTVSPropertyOp15
 70
     1
102
RTVSPropertyOp16
 70
     1
102
RTVSPropertyOp17
 70
     1
102
RTVSPropertyOp18
 70
     1
102
RTVSPropertyOp19
 70
     1
102
RTVSPropertyOp20
 70
     1
102
RTVSPropertyOp21
 70
     1
102
RTVSPropertyOp22
 70
     1
102
RTVSPropertyOp23
 70
     1
102
RTVSPropertyOp24
 70
     1
102
RTVSPropertyOp25
 70
     1
102
RTVSPropertyOp26
 70
     1
102
RTVSPropertyOp27
 70
     1
102
RTVSPropertyOp28
 70
     1
102
RTVSPropertyOp29
 70
     1
102
RTVSPropertyOp30
 70
     1
102
RTVSPropertyOp31
 70
     1
102
RTVSPropertyOp32
 70
     1
  0
XRECORD
  5
127
102
{ACAD_REACTORS
330
126
102
}
330
126
100
AcDbXrecord
280
     1
102
RTVSPropertyOp0
 70
     1
102
RTVSPropertyOp1
 70
     1
102
RTVSPropertyOp2
 70
     1
102
RTVSPropertyOp3
 70
     1
102
RTVSPropertyOp4
 70
     1
102
RTVSPropertyOp5
 70
     1
102
RTVSPropertyOp6
 70
     1
102
RTVSPropertyOp7
 70
     1
102
RTVSPropertyOp8
 70
     1
102
RTVSPropertyOp9
 70
     1
102
RTVSPropertyOp10
 70
     1
102
RTVSPropertyOp11
 70
     1
102
RTVSPropertyOp12
 70
     1
102
RTVSPropertyOp13
 70
     1
102
RTVSPropertyOp14
 70
     1
102
RTVSPropertyOp15
 70
     1
102
RTVSPropertyOp16
 70
     1
102
RTVSPropertyOp17
 70
     1
102
RTVSPropertyOp18
 70
     1
102
RTVSPropertyOp19
 70
     1
102
RTVSPropertyOp20
 70
     1
102
RTVSPropertyOp21
 70
     1
102
RTVSPropertyOp22
 70
     1
102
RTVSPropertyOp23
 70
     1
102
RTVSPropertyOp24
 70
     1
102
RTVSPropertyOp25
 70
     1
102
RTVSPropertyOp26
 70
     1
102
RTVSPropertyOp27
 70
     1
102
RTVSPropertyOp28
 70
     1
102
RTVSPropertyOp29
 70
     1
102
RTVSPropertyOp30
 70
     1
102
RTVSPropertyOp31
 70
     1
102
RTVSPropertyOp32
 70
     1
  0
XRECORD
  5
12F
102
{ACAD_REACTORS
330
12E
102
}
330
12E
100
AcDbXrecord
280
     1
102
RTVSPropertyOp0
 70
     1
102
RTVSPropertyOp1
 70
     1
102
RTVSPropertyOp2
 70
     1
102
RTVSPropertyOp3
 70
     1
102
RTVSPropertyOp4
 70
     1
102
RTVSPropertyOp5
 70
     1
102
RTVSPropertyOp6
 70
     1
102
RTVSPropertyOp7
 70
     1
102
RTVSPropertyOp8
 70
     1
102
RTVSPropertyOp9
 70
     1
102
RTVSPropertyOp10
 70
     1
102
RTVSPropertyOp11
 70
     1
102
RTVSPropertyOp12
 70
     1
102
RTVSPropertyOp13
 70
     1
102
RTVSPropertyOp14
 70
     1
102
RTVSPropertyOp15
 70
     1
102
RTVSPropertyOp16
 70
     1
102
RTVSPropertyOp17
 70
     1
102
RTVSPropertyOp18
 70
     1
102
RTVSPropertyOp19
 70
     1
102
RTVSPropertyOp20
 70
     1
102
RTVSPropertyOp21
 70
     1
102
RTVSPropertyOp22
 70
     1
102
RTVSPropertyOp23
 70
     1
102
RTVSPropertyOp24
 70
     1
102
RTVSPropertyOp25
 70
     1
102
RTVSPropertyOp26
 70
     1
102
RTVSPropertyOp27
 70
     1
102
RTVSPropertyOp28
 70
     1
102
RTVSPropertyOp29
 70
     1
102
RTVSPropertyOp30
 70
     1
102
RTVSPropertyOp31
 70
     1
102
RTVSPropertyOp32
 70
     1
  0
XRECORD
  5
123
102
{ACAD_REACTORS
330
122
102
}
330
122
100
AcDbXrecord
280
     1
102
RTVSPropertyOp0
 70
     1
102
RTVSPropertyOp1
 70
     1
102
RTVSPropertyOp2
 70
     1
102
RTVSPropertyOp3
 70
     1
102
RTVSPropertyOp4
 70
     1
102
RTVSPropertyOp5
 70
     1
102
RTVSPropertyOp6
 70
     1
102
RTVSPropertyOp7
 70
     1
102
RTVSPropertyOp8
 70
     1
102
RTVSPropertyOp9
 70
     1
102
RTVSPropertyOp10
 70
     1
102
RTVSPropertyOp11
 70
     1
102
RTVSPropertyOp12
 70
     1
102
RTVSPropertyOp13
 70
     1
102
RTVSPropertyOp14
 70
     1
102
RTVSPropertyOp15
 70
     1
102
RTVSPropertyOp16
 70
     1
102
RTVSPropertyOp17
 70
     1
102
RTVSPropertyOp18
 70
     1
102
RTVSPropertyOp19
 70
     1
102
RTVSPropertyOp20
 70
     1
102
RTVSPropertyOp21
 70
     1
102
RTVSPropertyOp22
 70
     1
102
RTVSPropertyOp23
 70
     1
102
RTVSPropertyOp24
 70
     1
102
RTVSPropertyOp25
 70
     1
102
RTVSPropertyOp26
 70
     1
102
RTVSPropertyOp27
 70
     1
102
RTVSPropertyOp28
 70
     1
102
RTVSPropertyOp29
 70
     1
102
RTVSPropertyOp30
 70
     1
102
RTVSPropertyOp31
 70
     1
102
RTVSPropertyOp32
 70
     1
  0
XRECORD
  5
125
102
{ACAD_REACTORS
330
124
102
}
330
124
100
AcDbXrecord
280
     1
102
RTVSPropertyOp0
 70
     1
102
RTVSPropertyOp1
 70
     1
102
RTVSPropertyOp2
 70
     1
102
RTVSPropertyOp3
 70
     1
102
RTVSPropertyOp4
 70
     1
102
RTVSPropertyOp5
 70
     1
102
RTVSPropertyOp6
 70
     1
102
RTVSPropertyOp7
 70
     1
102
RTVSPropertyOp8
 70
     1
102
RTVSPropertyOp9
 70
     1
102
RTVSPropertyOp10
 70
     1
102
RTVSPropertyOp11
 70
     1
102
RTVSPropertyOp12
 70
     1
102
RTVSPropertyOp13
 70
     1
102
RTVSPropertyOp14
 70
     1
102
RTVSPropertyOp15
 70
     1
102
RTVSPropertyOp16
 70
     1
102
RTVSPropertyOp17
 70
     1
102
RTVSPropertyOp18
 70
     1
102
RTVSPropertyOp19
 70
     1
102
RTVSPropertyOp20
 70
     1
102
RTVSPropertyOp21
 70
     1
102
RTVSPropertyOp22
 70
     1
102
RTVSPropertyOp23
 70
     1
102
RTVSPropertyOp24
 70
     1
102
RTVSPropertyOp25
 70
     1
102
RTVSPropertyOp26
 70
     1
102
RTVSPropertyOp27
 70
     1
102
RTVSPropertyOp28
 70
     1
102
RTVSPropertyOp29
 70
     1
102
RTVSPropertyOp30
 70
     1
102
RTVSPropertyOp31
 70
     1
102
RTVSPropertyOp32
 70
     1
  0
XRECORD
  5
12D
102
{ACAD_REACTORS
330
12C
102
}
330
12C
100
AcDbXrecord
280
     1
102
RTVSPropertyOp0
 70
     1
102
RTVSPropertyOp1
 70
     1
102
RTVSPropertyOp2
 70
     1
102
RTVSPropertyOp3
 70
     1
102
RTVSPropertyOp4
 70
     1
102
RTVSPropertyOp5
 70
     1
102
RTVSPropertyOp6
 70
     1
102
RTVSPropertyOp7
 70
     1
102
RTVSPropertyOp8
 70
     1
102
RTVSPropertyOp9
 70
     1
102
RTVSPropertyOp10
 70
     1
102
RTVSPropertyOp11
 70
     1
102
RTVSPropertyOp12
 70
     1
102
RTVSPropertyOp13
 70
     1
102
RTVSPropertyOp14
 70
     1
102
RTVSPropertyOp15
 70
     1
102
RTVSPropertyOp16
 70
     1
102
RTVSPropertyOp17
 70
     1
102
RTVSPropertyOp18
 70
     1
102
RTVSPropertyOp19
 70
     1
102
RTVSPropertyOp20
 70
     1
102
RTVSPropertyOp21
 70
     1
102
RTVSPropertyOp22
 70
     1
102
RTVSPropertyOp23
 70
     1
102
RTVSPropertyOp24
 70
     1
102
RTVSPropertyOp25
 70
     1
102
RTVSPropertyOp26
 70
     1
102
RTVSPropertyOp27
 70
     1
102
RTVSPropertyOp28
 70
     1
102
RTVSPropertyOp29
 70
     1
102
RTVSPropertyOp30
 70
     1
102
RTVSPropertyOp31
 70
     1
102
RTVSPropertyOp32
 70
     1
  0
XRECORD
  5
111
102
{ACAD_REACTORS
330
110
102
}
330
110
100
AcDbXrecord
280
     1
102
RTVSPropertyOp0
 70
     1
102
RTVSPropertyOp1
 70
     1
102
RTVSPropertyOp2
 70
     1
102
RTVSPropertyOp3
 70
     1
102
RTVSPropertyOp4
 70
     1
102
RTVSPropertyOp5
 70
     1
102
RTVSPropertyOp6
 70
     1
102
RTVSPropertyOp7
 70
     1
102
RTVSPropertyOp8
 70
     1
102
RTVSPropertyOp9
 70
     1
102
RTVSPropertyOp10
 70
     1
102
RTVSPropertyOp11
 70
     1
102
RTVSPropertyOp12
 70
     1
102
RTVSPropertyOp13
 70
     1
102
RTVSPropertyOp14
 70
     1
102
RTVSPropertyOp15
 70
     1
102
RTVSPropertyOp16
 70
     1
102
RTVSPropertyOp17
 70
     1
102
RTVSPropertyOp18
 70
     1
102
RTVSPropertyOp19
 70
     1
102
RTVSPropertyOp20
 70
     1
102
RTVSPropertyOp21
 70
     1
102
RTVSPropertyOp22
 70
     1
102
RTVSPropertyOp23
 70
     1
102
RTVSPropertyOp24
 70
     1
102
RTVSPropertyOp25
 70
     1
102
RTVSPropertyOp26
 70
     1
102
RTVSPropertyOp27
 70
     1
102
RTVSPropertyOp28
 70
     1
102
RTVSPropertyOp29
 70
     1
102
RTVSPropertyOp30
 70
     1
102
RTVSPropertyOp31
 70
     1
102
RTVSPropertyOp32
 70
     1
  0
XRECORD
  5
113
102
{ACAD_REACTORS
330
112
102
}
330
112
100
AcDbXrecord
280
     1
102
RTVSPropertyOp0
 70
     1
102
RTVSPropertyOp1
 70
     1
102
RTVSPropertyOp2
 70
     1
102
RTVSPropertyOp3
 70
     1
102
RTVSPropertyOp4
 70
     1
102
RTVSPropertyOp5
 70
     1
102
RTVSPropertyOp6
 70
     1
102
RTVSPropertyOp7
 70
     1
102
RTVSPropertyOp8
 70
     1
102
RTVSPropertyOp9
 70
     1
102
RTVSPropertyOp10
 70
     1
102
RTVSPropertyOp11
 70
     1
102
RTVSPropertyOp12
 70
     1
102
RTVSPropertyOp13
 70
     1
102
RTVSPropertyOp14
 70
     1
102
RTVSPropertyOp15
 70
     1
102
RTVSPropertyOp16
 70
     1
102
RTVSPropertyOp17
 70
     1
102
RTVSPropertyOp18
 70
     1
102
RTVSPropertyOp19
 70
     1
102
RTVSPropertyOp20
 70
     1
102
RTVSPropertyOp21
 70
     1
102
RTVSPropertyOp22
 70
     1
102
RTVSPropertyOp23
 70
     1
102
RTVSPropertyOp24
 70
     1
102
RTVSPropertyOp25
 70
     1
102
RTVSPropertyOp26
 70
     1
102
RTVSPropertyOp27
 70
     1
102
RTVSPropertyOp28
 70
     1
102
RTVSPropertyOp29
 70
     1
102
RTVSPropertyOp30
 70
     1
102
RTVSPropertyOp31
 70
     1
102
RTVSPropertyOp32
 70
     1
  0
XRECORD
  5
115
102
{ACAD_REACTORS
330
114
102
}
330
114
100
AcDbXrecord
280
     1
102
RTVSPropertyOp0
 70
     1
102
RTVSPropertyOp1
 70
     1
102
RTVSPropertyOp2
 70
     1
102
RTVSPropertyOp3
 70
     1
102
RTVSPropertyOp4
 70
     1
102
RTVSPropertyOp5
 70
     1
102
RTVSPropertyOp6
 70
     1
102
RTVSPropertyOp7
 70
     1
102
RTVSPropertyOp8
 70
     1
102
RTVSPropertyOp9
 70
     1
102
RTVSPropertyOp10
 70
     1
102
RTVSPropertyOp11
 70
     1
102
RTVSPropertyOp12
 70
     1
102
RTVSPropertyOp13
 70
     1
102
RTVSPropertyOp14
 70
     1
102
RTVSPropertyOp15
 70
     1
102
RTVSPropertyOp16
 70
     1
102
RTVSPropertyOp17
 70
     1
102
RTVSPropertyOp18
 70
     1
102
RTVSPropertyOp19
 70
     1
102
RTVSPropertyOp20
 70
     1
102
RTVSPropertyOp21
 70
     1
102
RTVSPropertyOp22
 70
     1
102
RTVSPropertyOp23
 70
     1
102
RTVSPropertyOp24
 70
     1
102
RTVSPropertyOp25
 70
     1
102
RTVSPropertyOp26
 70
     1
102
RTVSPropertyOp27
 70
     1
102
RTVSPropertyOp28
 70
     1
102
RTVSPropertyOp29
 70
     1
102
RTVSPropertyOp30
 70
     1
102
RTVSPropertyOp31
 70
     1
102
RTVSPropertyOp32
 70
     1
  0
XRECORD
  5
117
102
{ACAD_REACTORS
330
116
102
}
330
116
100
AcDbXrecord
280
     1
102
RTVSPropertyOp0
 70
     1
102
RTVSPropertyOp1
 70
     1
102
RTVSPropertyOp2
 70
     1
102
RTVSPropertyOp3
 70
     1
102
RTVSPropertyOp4
 70
     1
102
RTVSPropertyOp5
 70
     1
102
RTVSPropertyOp6
 70
     1
102
RTVSPropertyOp7
 70
     1
102
RTVSPropertyOp8
 70
     1
102
RTVSPropertyOp9
 70
     1
102
RTVSPropertyOp10
 70
     1
102
RTVSPropertyOp11
 70
     1
102
RTVSPropertyOp12
 70
     1
102
RTVSPropertyOp13
 70
     1
102
RTVSPropertyOp14
 70
     1
102
RTVSPropertyOp15
 70
     1
102
RTVSPropertyOp16
 70
     1
102
RTVSPropertyOp17
 70
     1
102
RTVSPropertyOp18
 70
     1
102
RTVSPropertyOp19
 70
     1
102
RTVSPropertyOp20
 70
     1
102
RTVSPropertyOp21
 70
     1
102
RTVSPropertyOp22
 70
     1
102
RTVSPropertyOp23
 70
     1
102
RTVSPropertyOp24
 70
     1
102
RTVSPropertyOp25
 70
     1
102
RTVSPropertyOp26
 70
     1
102
RTVSPropertyOp27
 70
     1
102
RTVSPropertyOp28
 70
     1
102
RTVSPropertyOp29
 70
     1
102
RTVSPropertyOp30
 70
     1
102
RTVSPropertyOp31
 70
     1
102
RTVSPropertyOp32
 70
     1
  0
XRECORD
  5
12B
102
{ACAD_REACTORS
330
12A
102
}
330
12A
100
AcDbXrecord
280
     1
102
RTVSPropertyOp0
 70
     1
102
RTVSPropertyOp1
 70
     1
102
RTVSPropertyOp2
 70
     1
102
RTVSPropertyOp3
 70
     1
102
RTVSPropertyOp4
 70
     1
102
RTVSPropertyOp5
 70
     1
102
RTVSPropertyOp6
 70
     1
102
RTVSPropertyOp7
 70
     1
102
RTVSPropertyOp8
 70
     1
102
RTVSPropertyOp9
 70
     1
102
RTVSPropertyOp10
 70
     1
102
RTVSPropertyOp11
 70
     1
102
RTVSPropertyOp12
 70
     1
102
RTVSPropertyOp13
 70
     1
102
RTVSPropertyOp14
 70
     1
102
RTVSPropertyOp15
 70
     1
102
RTVSPropertyOp16
 70
     1
102
RTVSPropertyOp17
 70
     1
102
RTVSPropertyOp18
 70
     1
102
RTVSPropertyOp19
 70
     1
102
RTVSPropertyOp20
 70
     1
102
RTVSPropertyOp21
 70
     1
102
RTVSPropertyOp22
 70
     1
102
RTVSPropertyOp23
 70
     1
102
RTVSPropertyOp24
 70
     1
102
RTVSPropertyOp25
 70
     1
102
RTVSPropertyOp26
 70
     1
102
RTVSPropertyOp27
 70
     1
102
RTVSPropertyOp28
 70
     1
102
RTVSPropertyOp29
 70
     1
102
RTVSPropertyOp30
 70
     1
102
RTVSPropertyOp31
 70
     1
102
RTVSPropertyOp32
 70
     1
  0
XRECORD
  5
121
102
{ACAD_REACTORS
330
120
102
}
330
120
100
AcDbXrecord
280
     1
102
RTVSPropertyOp0
 70
     1
102
RTVSPropertyOp1
 70
     1
102
RTVSPropertyOp2
 70
     1
102
RTVSPropertyOp3
 70
     1
102
RTVSPropertyOp4
 70
     1
102
RTVSPropertyOp5
 70
     1
102
RTVSPropertyOp6
 70
     1
102
RTVSPropertyOp7
 70
     1
102
RTVSPropertyOp8
 70
     1
102
RTVSPropertyOp9
 70
     1
102
RTVSPropertyOp10
 70
     1
102
RTVSPropertyOp11
 70
     1
102
RTVSPropertyOp12
 70
     1
102
RTVSPropertyOp13
 70
     1
102
RTVSPropertyOp14
 70
     1
102
RTVSPropertyOp15
 70
     1
102
RTVSPropertyOp16
 70
     1
102
RTVSPropertyOp17
 70
     1
102
RTVSPropertyOp18
 70
     1
102
RTVSPropertyOp19
 70
     1
102
RTVSPropertyOp20
 70
     1
102
RTVSPropertyOp21
 70
     1
102
RTVSPropertyOp22
 70
     1
102
RTVSPropertyOp23
 70
     1
102
RTVSPropertyOp24
 70
     1
102
RTVSPropertyOp25
 70
     1
102
RTVSPropertyOp26
 70
     1
102
RTVSPropertyOp27
 70
     1
102
RTVSPropertyOp28
 70
     1
102
RTVSPropertyOp29
 70
     1
102
RTVSPropertyOp30
 70
     1
102
RTVSPropertyOp31
 70
     1
102
RTVSPropertyOp32
 70
     1
  0
XRECORD
  5
129
102
{ACAD_REACTORS
330
128
102
}
330
128
100
AcDbXrecord
280
     1
102
RTVSPropertyOp0
 70
     1
102
RTVSPropertyOp1
 70
     1
102
RTVSPropertyOp2
 70
     1
102
RTVSPropertyOp3
 70
     1
102
RTVSPropertyOp4
 70
     1
102
RTVSPropertyOp5
 70
     1
102
RTVSPropertyOp6
 70
     1
102
RTVSPropertyOp7
 70
     1
102
RTVSPropertyOp8
 70
     1
102
RTVSPropertyOp9
 70
     1
102
RTVSPropertyOp10
 70
     1
102
RTVSPropertyOp11
 70
     1
102
RTVSPropertyOp12
 70
     1
102
RTVSPropertyOp13
 70
     1
102
RTVSPropertyOp14
 70
     1
102
RTVSPropertyOp15
 70
     1
102
RTVSPropertyOp16
 70
     1
102
RTVSPropertyOp17
 70
     1
102
RTVSPropertyOp18
 70
     1
102
RTVSPropertyOp19
 70
     1
102
RTVSPropertyOp20
 70
     1
102
RTVSPropertyOp21
 70
     1
102
RTVSPropertyOp22
 70
     1
102
RTVSPropertyOp23
 70
     1
102
RTVSPropertyOp24
 70
     1
102
RTVSPropertyOp25
 70
     1
102
RTVSPropertyOp26
 70
     1
102
RTVSPropertyOp27
 70
     1
102
RTVSPropertyOp28
 70
     1
102
RTVSPropertyOp29
 70
     1
102
RTVSPropertyOp30
 70
     1
102
RTVSPropertyOp31
 70
     1
102
RTVSPropertyOp32
 70
     1
  0
ENDSEC
  0
EOF
