  0
SECTION
  2
HEADER
  9
$ACADVER
  1
AC1015
  9
$ACADMAINTVER
 70
     6
  9
$DWGCODEPAGE
  3
ANSI_932
  9
$INSBASE
 10
0.0
 20
0.0
 30
0.0
  9
$EXTMIN
 10
419.8622914389966
 20
-13.9067535787656
 30
0.0
  9
$EXTMAX
 10
629.8622914389966
 20
283.0932464212344
 30
0.0
  9
$LIMMIN
 10
0.0
 20
0.0
  9
$LIMMAX
 10
12.0
 20
9.0
  9
$ORTHOMODE
 70
     0
  9
$REGENMODE
 70
     1
  9
$FILLMODE
 70
     1
  9
$QTEXTMODE
 70
     0
  9
$MIRRTEXT
 70
     1
  9
$LTSCALE
 40
1.0
  9
$ATTMODE
 70
     1
  9
$TEXTSIZE
 40
0.2
  9
$TRACEWID
 40
0.05
  9
$TEXTSTYLE
  7
Standard
  9
$CLAYER
  8
0
  9
$CELTYPE
  6
ByLayer
  9
$CECOLOR
 62
   256
  9
$CELTSCALE
 40
1.0
  9
$DISPSILH
 70
     0
  9
$DIMSCALE
 40
1.0
  9
$DIMASZ
 40
0.18
  9
$DIMEXO
 40
0.0625
  9
$DIMDLI
 40
0.38
  9
$DIMRND
 40
0.0
  9
$DIMDLE
 40
0.0
  9
$DIMEXE
 40
0.18
  9
$DIMTP
 40
0.0
  9
$DIMTM
 40
0.0
  9
$DIMTXT
 40
0.18
  9
$DIMCEN
 40
0.09
  9
$DIMTSZ
 40
0.0
  9
$DIMTOL
 70
     0
  9
$DIMLIM
 70
     0
  9
$DIMTIH
 70
     1
  9
$DIMTOH
 70
     1
  9
$DIMSE1
 70
     0
  9
$DIMSE2
 70
     0
  9
$DIMTAD
 70
     0
  9
$DIMZIN
 70
     0
  9
$DIMBLK
  1

  9
$DIMASO
 70
     1
  9
$DIMSHO
 70
     1
  9
$DIMPOST
  1

  9
$DIMAPOST
  1

  9
$DIMALT
 70
     0
  9
$DIMALTD
 70
     2
  9
$DIMALTF
 40
25.4
  9
$DIMLFAC
 40
1.0
  9
$DIMTOFL
 70
     0
  9
$DIMTVP
 40
0.0
  9
$DIMTIX
 70
     0
  9
$DIMSOXD
 70
     0
  9
$DIMSAH
 70
     0
  9
$DIMBLK1
  1

  9
$DIMBLK2
  1

  9
$DIMSTYLE
  2
Standard
  9
$DIMCLRD
 70
     0
  9
$DIMCLRE
 70
     0
  9
$DIMCLRT
 70
     0
  9
$DIMTFAC
 40
1.0
  9
$DIMGAP
 40
0.09
  9
$DIMJUST
 70
     0
  9
$DIMSD1
 70
     0
  9
$DIMSD2
 70
     0
  9
$DIMTOLJ
 70
     1
  9
$DIMTZIN
 70
     0
  9
$DIMALTZ
 70
     0
  9
$DIMALTTZ
 70
     0
  9
$DIMUPT
 70
     0
  9
$DIMDEC
 70
     4
  9
$DIMTDEC
 70
     4
  9
$DIMALTU
 70
     2
  9
$DIMALTTD
 70
     2
  9
$DIMTXSTY
  7
Standard
  9
$DIMAUNIT
 70
     0
  9
$DIMADEC
 70
     0
  9
$DIMALTRND
 40
0.0
  9
$DIMAZIN
 70
     0
  9
$DIMDSEP
 70
    46
  9
$DIMATFIT
 70
     3
  9
$DIMFRAC
 70
     0
  9
$DIMLDRBLK
  1

  9
$DIMLUNIT
 70
     2
  9
$DIMLWD
 70
    -2
  9
$DIMLWE
 70
    -2
  9
$DIMTMOVE
 70
     0
  9
$LUNITS
 70
     2
  9
$LUPREC
 70
     4
  9
$SKETCHINC
 40
0.1
  9
$FILLETRAD
 40
0.5
  9
$AUNITS
 70
     0
  9
$AUPREC
 70
     0
  9
$MENU
  1
.
  9
$ELEVATION
 40
0.0
  9
$PELEVATION
 40
0.0
  9
$THICKNESS
 40
0.0
  9
$LIMCHECK
 70
     0
  9
$CHAMFERA
 40
0.5
  9
$CHAMFERB
 40
0.5
  9
$CHAMFERC
 40
1.0
  9
$CHAMFERD
 40
0.0
  9
$SKPOLY
 70
     0
  9
$TDCREATE
 40
2459639.436113692
  9
$TDUCREATE
 40
2459639.061113692
  9
$TDUPDATE
 40
2459639.436116042
  9
$TDUUPDATE
 40
2459639.061116042
  9
$TDINDWG
 40
0.0000000116
  9
$TDUSRTIMER
 40
0.0000000116
  9
$USRTIMER
 70
     1
  9
$ANGBASE
 50
0.0
  9
$ANGDIR
 70
     0
  9
$PDMODE
 70
     0
  9
$PDSIZE
 40
0.0
  9
$PLINEWID
 40
0.0
  9
$SPLFRAME
 70
     0
  9
$SPLINETYPE
 70
     6
  9
$SPLINESEGS
 70
     8
  9
$HANDSEED
  5
19F
  9
$SURFTAB1
 70
     6
  9
$SURFTAB2
 70
     6
  9
$SURFTYPE
 70
     6
  9
$SURFU
 70
     6
  9
$SURFV
 70
     6
  9
$UCSBASE
  2

  9
$UCSNAME
  2

  9
$UCSORG
 10
0.0
 20
0.0
 30
0.0
  9
$UCSXDIR
 10
1.0
 20
0.0
 30
0.0
  9
$UCSYDIR
 10
0.0
 20
1.0
 30
0.0
  9
$UCSORTHOREF
  2

  9
$UCSORTHOVIEW
 70
     0
  9
$UCSORGTOP
 10
0.0
 20
0.0
 30
0.0
  9
$UCSORGBOTTOM
 10
0.0
 20
0.0
 30
0.0
  9
$UCSORGLEFT
 10
0.0
 20
0.0
 30
0.0
  9
$UCSORGRIGHT
 10
0.0
 20
0.0
 30
0.0
  9
$UCSORGFRONT
 10
0.0
 20
0.0
 30
0.0
  9
$UCSORGBACK
 10
0.0
 20
0.0
 30
0.0
  9
$PUCSBASE
  2

  9
$PUCSNAME
  2

  9
$PUCSORG
 10
0.0
 20
0.0
 30
0.0
  9
$PUCSXDIR
 10
1.0
 20
0.0
 30
0.0
  9
$PUCSYDIR
 10
0.0
 20
1.0
 30
0.0
  9
$PUCSORTHOREF
  2

  9
$PUCSORTHOVIEW
 70
     0
  9
$PUCSORGTOP
 10
0.0
 20
0.0
 30
0.0
  9
$PUCSORGBOTTOM
 10
0.0
 20
0.0
 30
0.0
  9
$PUCSORGLEFT
 10
0.0
 20
0.0
 30
0.0
  9
$PUCSORGRIGHT
 10
0.0
 20
0.0
 30
0.0
  9
$PUCSORGFRONT
 10
0.0
 20
0.0
 30
0.0
  9
$PUCSORGBACK
 10
0.0
 20
0.0
 30
0.0
  9
$USERI1
 70
     0
  9
$USERI2
 70
     0
  9
$USERI3
 70
     0
  9
$USERI4
 70
     0
  9
$USERI5
 70
     0
  9
$USERR1
 40
18.1
  9
$USERR2
 40
0.0
  9
$USERR3
 40
0.0
  9
$USERR4
 40
0.0
  9
$USERR5
 40
0.0
  9
$WORLDVIEW
 70
     1
  9
$SHADEDGE
 70
     3
  9
$SHADEDIF
 70
    70
  9
$TILEMODE
 70
     1
  9
$MAXACTVP
 70
    64
  9
$PINSBASE
 10
0.0
 20
0.0
 30
0.0
  9
$PLIMCHECK
 70
     0
  9
$PEXTMIN
 10
1.00000000000000E+20
 20
1.00000000000000E+20
 30
1.00000000000000E+20
  9
$PEXTMAX
 10
-1.00000000000000E+20
 20
-1.00000000000000E+20
 30
-1.00000000000000E+20
  9
$PLIMMIN
 10
0.0
 20
0.0
  9
$PLIMMAX
 10
12.0
 20
9.0
  9
$UNITMODE
 70
     0
  9
$VISRETAIN
 70
     1
  9
$PLINEGEN
 70
     0
  9
$PSLTSCALE
 70
     1
  9
$TREEDEPTH
 70
  3020
  9
$CMLSTYLE
  2
Standard
  9
$CMLJUST
 70
     0
  9
$CMLSCALE
 40
1.0
  9
$PROXYGRAPHICS
 70
     1
  9
$MEASUREMENT
 70
     1
  9
$CELWEIGHT
370
    -1
  9
$ENDCAPS
280
     0
  9
$JOINSTYLE
280
     0
  9
$LWDISPLAY
290
     0
  9
$INSUNITS
 70
     4
  9
$HYPERLINKBASE
  1

  9
$STYLESHEET
  1

  9
$XEDIT
290
     1
  9
$CEPSNTYPE
380
     0
  9
$PSTYLEMODE
290
     1
  9
$FINGERPRINTGUID
  2
{8EFC6C61-DF17-4553-9E87-5A18B7844898}
  9
$VERSIONGUID
  2
{FAEB1C32-E019-11D5-929B-00C0DF256EC4}
  9
$EXTNAMES
290
     1
  9
$PSVPSCALE
 40
0.0
  9
$OLESTARTUP
290
     0
  0
ENDSEC
  0
SECTION
  2
CLASSES
  0
CLASS
  1
ACDBDICTIONARYWDFLT
  2
AcDbDictionaryWithDefault
  3
ObjectDBX Classes
 90
        0
280
     0
281
     0
  0
CLASS
  1
VISUALSTYLE
  2
AcDbVisualStyle
  3
ObjectDBX Classes
 90
     4095
280
     0
281
     0
  0
CLASS
  1
MATERIAL
  2
AcDbMaterial
  3
ObjectDBX Classes
 90
     1153
280
     0
281
     0
  0
CLASS
  1
DICTIONARYVAR
  2
AcDbDictionaryVar
  3
ObjectDBX Classes
 90
        0
280
     0
281
     0
  0
CLASS
  1
ACDBPLACEHOLDER
  2
AcDbPlaceHolder
  3
ObjectDBX Classes
 90
        0
280
     0
281
     0
  0
CLASS
  1
LAYOUT
  2
AcDbLayout
  3
ObjectDBX Classes
 90
        0
280
     0
281
     0
  0
ENDSEC
  0
SECTION
  2
TABLES
  0
TABLE
  2
VPORT
  5
8
330
0
100
AcDbSymbolTable
 70
     1
  0
VPORT
  5
29
330
8
100
AcDbSymbolTableRecord
100
AcDbViewportTableRecord
  2
*Active
 70
     0
 10
0.0
 20
0.0
 11
1.0
 21
1.0
 12
524.8622914389966
 22
134.5932464212344
 13
0.0
 23
0.0
 14
0.5
 24
0.5
 15
0.5
 25
0.5
 16
0.0
 26
0.0
 36
1.0
 17
0.0
 27
0.0
 37
0.0
 40
326.7
 41
1.60267857142857
 42
50.0
 43
0.0
 44
0.0
 50
0.0
 51
0.0
 71
     0
 72
   100
 73
     1
 74
     3
 75
     0
 76
     0
 77
     0
 78
     0
281
     0
 65
     1
110
0.0
120
0.0
130
0.0
111
1.0
121
0.0
131
0.0
112
0.0
122
1.0
132
0.0
 79
     0
146
0.0
  0
ENDTAB
  0
TABLE
  2
LTYPE
  5
5
330
0
100
AcDbSymbolTable
 70
     8
  0
LTYPE
  5
14
330
5
100
AcDbSymbolTableRecord
100
AcDbLinetypeTableRecord
  2
ByBlock
 70
     0
  3

 72
    65
 73
     0
 40
0.0
  0
LTYPE
  5
15
330
5
100
AcDbSymbolTableRecord
100
AcDbLinetypeTableRecord
  2
ByLayer
 70
     0
  3

 72
    65
 73
     0
 40
0.0
  0
LTYPE
  5
16
330
5
100
AcDbSymbolTableRecord
100
AcDbLinetypeTableRecord
  2
Continuous
 70
     0
  3
Solid line
 72
    65
 73
     0
 40
0.0
  0
LTYPE
  5
3F
330
5
100
AcDbSymbolTableRecord
100
AcDbLinetypeTableRecord
  2
DASHED
 70
     0
  3
Dashed
 72
    65
 73
     2
 40
15.0
 49
7.0
 74
     0
 49
-8.0
 74
     0
  0
LTYPE
  5
40
330
5
100
AcDbSymbolTableRecord
100
AcDbLinetypeTableRecord
  2
DOTTED
 70
     0
  3
Dotted
 72
    65
 73
     2
 40
1.0
 49
0.0
 74
     0
 49
-1.0
 74
     0
  0
LTYPE
  5
41
330
5
100
AcDbSymbolTableRecord
100
AcDbLinetypeTableRecord
  2
DOT_CENTER
 70
     0
  3
Dot_Center
 72
    65
 73
     4
 40
14.0
 49
12.0
 74
     0
 49
-1.0
 74
     0
 49
0.0
 74
     0
 49
-1.0
 74
     0
  0
LTYPE
  5
42
330
5
100
AcDbSymbolTableRecord
100
AcDbLinetypeTableRecord
  2
LONG_DASHED
 70
     0
  3
Long_Dashed
 72
    65
 73
     2
 40
15.0
 49
10.0
 74
     0
 49
-5.0
 74
     0
  0
LTYPE
  5
43
330
5
100
AcDbSymbolTableRecord
100
AcDbLinetypeTableRecord
  2
DASH_CENTER
 70
     0
  3
Dash_Center
 72
    65
 73
     4
 40
14.0
 49
11.0
 74
     0
 49
-1.0
 74
     0
 49
1.0
 74
     0
 49
-1.0
 74
     0
  0
LTYPE
  5
44
330
5
100
AcDbSymbolTableRecord
100
AcDbLinetypeTableRecord
  2
PHANTOM
 70
     0
  3
Phantom
 72
    65
 73
     6
 40
13.0
 49
10.0
 74
     0
 49
-1.0
 74
     0
 49
0.0
 74
     0
 49
-1.0
 74
     0
 49
0.0
 74
     0
 49
-1.0
 74
     0
  0
LTYPE
  5
45
330
5
100
AcDbSymbolTableRecord
100
AcDbLinetypeTableRecord
  2
CENTER_DASH_DASH
 70
     0
  3
Center_Dash_Dash
 72
    65
 73
     6
 40
14.0
 49
9.0
 74
     0
 49
-1.0
 74
     0
 49
1.0
 74
     0
 49
-1.0
 74
     0
 49
1.0
 74
     0
 49
-1.0
 74
     0
  0
ENDTAB
  0
TABLE
  2
LAYER
  5
2
330
0
100
AcDbSymbolTable
 70
     5
  0
LAYER
  5
10
330
2
100
AcDbSymbolTableRecord
100
AcDbLayerTableRecord
  2
0
 70
     0
 62
     7
  6
Continuous
370
    -3
390
F
  0
LAYER
  5
46
330
2
100
AcDbSymbolTableRecord
100
AcDbLayerTableRecord
  2
1
 70
     0
 62
     7
  6
Continuous
370
    -3
390
F
  0
LAYER
  5
47
330
2
100
AcDbSymbolTableRecord
100
AcDbLayerTableRecord
  2
_U_30EC_U_30A4_U_30E4_U_30FC_1
 70
     0
 62
     7
  6
Continuous
370
    -3
390
F
  0
LAYER
  5
48
330
2
100
AcDbSymbolTableRecord
100
AcDbLayerTableRecord
  2
センター
 70
     0
 62
     7
  6
Continuous
370
    -3
390
F
  0
LAYER
  5
49
330
2
100
AcDbSymbolTableRecord
100
AcDbLayerTableRecord
  2
文字
 70
     0
 62
     7
  6
Continuous
370
    -3
390
F
  0
ENDTAB
  0
TABLE
  2
STYLE
  5
3
330
0
100
AcDbSymbolTable
 70
     5
  0
STYLE
  5
11
330
3
100
AcDbSymbolTableRecord
100
AcDbTextStyleTableRecord
  2
Standard
 70
     0
 40
0.0
 41
1.0
 50
0.0
 71
     0
 42
0.2
  3
txt
  4

  0
STYLE
  5
B4
330
3
100
AcDbSymbolTableRecord
100
AcDbTextStyleTableRecord
  2
CONVERTER_11
 70
     0
 40
0.0
 41
0.89
 50
0.0
 71
     0
 42
0.2
  3
MS Mincho.ttf
  4

1001
ACAD
1000
MS Mincho
1071
    32785
  0
STYLE
  5
119
330
3
100
AcDbSymbolTableRecord
100
AcDbTextStyleTableRecord
  2
CONVERTER_12
 70
     0
 40
0.0
 41
0.9
 50
0.0
 71
     0
 42
0.2
  3
txt.shx
  4

  0
STYLE
  5
11E
330
3
100
AcDbSymbolTableRecord
100
AcDbTextStyleTableRecord
  2
CONVERTER_13
 70
     0
 40
0.0
 41
0.979
 50
0.0
 71
     0
 42
0.2
  3
msmincho.ttc
  4

1001
ACAD
1000
MS Mincho
1071
    32785
  0
STYLE
  5
120
330
3
100
AcDbSymbolTableRecord
100
AcDbTextStyleTableRecord
  2
CONVERTER_14
 70
     0
 40
0.0
 41
0.99
 50
0.0
 71
     0
 42
0.2
  3
txt.shx
  4

  0
ENDTAB
  0
TABLE
  2
VIEW
  5
6
330
0
100
AcDbSymbolTable
 70
     0
  0
ENDTAB
  0
TABLE
  2
UCS
  5
7
330
0
100
AcDbSymbolTable
 70
     0
  0
ENDTAB
  0
TABLE
  2
APPID
  5
9
330
0
100
AcDbSymbolTable
 70
     1
  0
APPID
  5
12
330
9
100
AcDbSymbolTableRecord
100
AcDbRegAppTableRecord
  2
ACAD
 70
     0
  0
ENDTAB
  0
TABLE
  2
DIMSTYLE
  5
A
330
0
100
AcDbSymbolTable
 70
     5
100
AcDbDimStyleTable
  0
DIMSTYLE
105
27
330
A
100
AcDbSymbolTableRecord
100
AcDbDimStyleTableRecord
  2
Standard
 70
     0
178
     0
340
11
  0
DIMSTYLE
105
14A
102
{ACAD_REACTORS
330
14B
102
}
330
A
100
AcDbSymbolTableRecord
100
AcDbDimStyleTableRecord
  2
ME10_DIM_10
 70
     0
 41
3.5
 42
0.0
 44
2.0
 73
     0
 74
     0
 77
     1
 78
     8
140
3.0
147
2.0
172
     1
173
     1
174
     1
175
     1
176
     2
177
     2
271
     2
178
     7
271
     2
340
119
  0
DIMSTYLE
105
155
102
{ACAD_REACTORS
330
156
102
}
330
A
100
AcDbSymbolTableRecord
100
AcDbDimStyleTableRecord
  2
ME10_DIM_11
 70
     0
 41
3.5
 42
0.0
 44
2.0
 73
     0
 74
     0
 77
     1
 78
     8
140
3.0
147
2.0
172
     1
173
     1
174
     1
175
     1
176
     2
177
     2
271
     2
178
     7
271
     2
340
119
  0
DIMSTYLE
105
160
102
{ACAD_REACTORS
330
161
102
}
330
A
100
AcDbSymbolTableRecord
100
AcDbDimStyleTableRecord
  2
ME10_DIM_12
 70
     0
 41
3.5
 42
0.0
 44
2.0
 73
     0
 74
     0
 77
     1
 78
     8
140
3.0
147
2.0
172
     1
173
     1
174
     1
175
     1
176
     2
177
     2
271
     2
178
     7
271
     2
340
119
  0
DIMSTYLE
105
16B
102
{ACAD_REACTORS
330
16C
102
}
330
A
100
AcDbSymbolTableRecord
100
AcDbDimStyleTableRecord
  2
ME10_DIM_13
 70
     0
  3
{\Fgdt;n}<>
 41
3.5
 42
0.0
 44
2.0
 73
     0
 74
     0
 77
     1
 78
     8
140
3.0
147
2.0
172
     1
173
     1
174
     1
175
     1
176
     2
177
     2
271
     2
178
     7
271
     2
340
119
  0
ENDTAB
  0
TABLE
  2
BLOCK_RECORD
  5
1
330
0
100
AcDbSymbolTable
 70
     8
  0
BLOCK_RECORD
  5
1F
330
1
100
AcDbSymbolTableRecord
100
AcDbBlockTableRecord
  2
*Model_Space
340
22
  0
BLOCK_RECORD
  5
1B
330
1
100
AcDbSymbolTableRecord
100
AcDbBlockTableRecord
  2
*Paper_Space
340
1E
  0
BLOCK_RECORD
  5
23
330
1
100
AcDbSymbolTableRecord
100
AcDbBlockTableRecord
  2
*Paper_Space0
340
26
  0
BLOCK_RECORD
  5
4A
330
1
100
AcDbSymbolTableRecord
100
AcDbBlockTableRecord
  2
開示A4
340
0
102
{BLKREFS
331
4E
102
}
  0
BLOCK_RECORD
  5
4D
330
1
100
AcDbSymbolTableRecord
100
AcDbBlockTableRecord
  2
開示A4枠
340
0
102
{BLKREFS
331
51
102
}
  0
BLOCK_RECORD
  5
141
330
1
100
AcDbSymbolTableRecord
100
AcDbBlockTableRecord
  2
*D3
340
0
  0
BLOCK_RECORD
  5
14C
330
1
100
AcDbSymbolTableRecord
100
AcDbBlockTableRecord
  2
*D4
340
0
  0
BLOCK_RECORD
  5
157
330
1
100
AcDbSymbolTableRecord
100
AcDbBlockTableRecord
  2
*D5
340
0
  0
BLOCK_RECORD
  5
162
330
1
100
AcDbSymbolTableRecord
100
AcDbBlockTableRecord
  2
*D6
340
0
  0
BLOCK_RECORD
  5
16D
330
1
100
AcDbSymbolTableRecord
100
AcDbBlockTableRecord
  2
*D7
340
0
102
{BLKREFS
331
173
102
}
  0
ENDTAB
  0
ENDSEC
  0
SECTION
  2
BLOCKS
  0
BLOCK
  5
20
330
1F
100
AcDbEntity
  8
0
100
AcDbBlockBegin
  2
*Model_Space
 70
     0
 10
0.0
 20
0.0
 30
0.0
  3
*Model_Space
  1

  0
ENDBLK
  5
21
330
1F
100
AcDbEntity
  8
0
100
AcDbBlockEnd
  0
BLOCK
  5
1C
330
1B
100
AcDbEntity
 67
     1
  8
0
100
AcDbBlockBegin
  2
*Paper_Space
 70
     0
 10
0.0
 20
0.0
 30
0.0
  3
*Paper_Space
  1

  0
ENDBLK
  5
1D
330
1B
100
AcDbEntity
 67
     1
  8
0
100
AcDbBlockEnd
  0
BLOCK
  5
24
330
23
100
AcDbEntity
  8
0
100
AcDbBlockBegin
  2
*Paper_Space0
 70
     0
 10
0.0
 20
0.0
 30
0.0
  3
*Paper_Space0
  1

  0
ENDBLK
  5
25
330
23
100
AcDbEntity
  8
0
100
AcDbBlockEnd
  0
BLOCK
  5
4B
330
4A
100
AcDbEntity
  8
0
100
AcDbBlockBegin
  2
開示A4
 70
     0
 10
419.8622914389966
 20
-13.9067535787656
 30
0.0
  3
開示A4
  1

  0
POINT
  5
52
330
4A
100
AcDbEntity
  8
1
 62
     4
100
AcDbPoint
 10
602.8622914389966
 20
1.0932464212344
 30
0.0
  0
POINT
  5
53
330
4A
100
AcDbEntity
  8
1
 62
     4
100
AcDbPoint
 10
513.6122914389966
 20
3.0932464212344
 30
0.0
  0
POINT
  5
54
330
4A
100
AcDbEntity
  8
1
 62
     4
100
AcDbPoint
 10
505.1122914389966
 20
3.0932464212344
 30
0.0
  0
POINT
  5
55
330
4A
100
AcDbEntity
  8
1
 62
     4
100
AcDbPoint
 10
526.3622914389966
 20
5.0932464212344
 30
0.0
  0
POINT
  5
56
330
4A
100
AcDbEntity
  8
1
 62
     4
100
AcDbPoint
 10
526.3622914389966
 20
-1.4067535787656
 30
0.0
  0
POINT
  5
57
330
4A
100
AcDbEntity
  8
1
 62
     4
100
AcDbPoint
 10
532.1122914389966
 20
-1.4067535787656
 30
0.0
  0
POINT
  5
58
330
4A
100
AcDbEntity
  8
1
 62
     4
100
AcDbPoint
 10
520.6122914389966
 20
-1.4067535787656
 30
0.0
  0
POINT
  5
59
330
4A
100
AcDbEntity
  8
1
 62
     4
100
AcDbPoint
 10
543.3622914389966
 20
5.0932464212344
 30
0.0
  0
POINT
  5
5A
330
4A
100
AcDbEntity
  8
1
 62
     4
100
AcDbPoint
 10
543.3622914389966
 20
-1.4067535787656
 30
0.0
  0
POINT
  5
5B
330
4A
100
AcDbEntity
  8
1
 62
     4
100
AcDbPoint
 10
549.1122914389966
 20
-1.4067535787656
 30
0.0
  0
POINT
  5
5C
330
4A
100
AcDbEntity
  8
1
 62
     4
100
AcDbPoint
 10
537.6122914389966
 20
-1.4067535787656
 30
0.0
  0
POINT
  5
5D
330
4A
100
AcDbEntity
  8
1
 62
     4
100
AcDbPoint
 10
560.3622914389966
 20
5.0932464212344
 30
0.0
  0
POINT
  5
5E
330
4A
100
AcDbEntity
  8
1
 62
     4
100
AcDbPoint
 10
560.3622914389966
 20
-1.4067535787656
 30
0.0
  0
POINT
  5
5F
330
4A
100
AcDbEntity
  8
1
 62
     4
100
AcDbPoint
 10
566.1122914389966
 20
-1.4067535787656
 30
0.0
  0
POINT
  5
60
330
4A
100
AcDbEntity
  8
1
 62
     4
100
AcDbPoint
 10
554.6122914389966
 20
-1.4067535787656
 30
0.0
  0
POINT
  5
61
330
4A
100
AcDbEntity
  8
1
 62
     4
100
AcDbPoint
 10
571.6122914389966
 20
-1.4067535787656
 30
0.0
  0
POINT
  5
62
330
4A
100
AcDbEntity
  8
1
 62
     4
100
AcDbPoint
 10
583.1122914389966
 20
-1.4067535787656
 30
0.0
  0
POINT
  5
63
330
4A
100
AcDbEntity
  8
1
 62
     4
100
AcDbPoint
 10
577.3622914389966
 20
-1.4067535787656
 30
0.0
  0
POINT
  5
64
330
4A
100
AcDbEntity
  8
1
 62
     4
100
AcDbPoint
 10
476.8622914389966
 20
0.3432464212344
 30
0.0
  0
POINT
  5
65
330
4A
100
AcDbEntity
  8
1
 62
     4
100
AcDbPoint
 10
476.8622914389966
 20
8.8432464212344
 30
0.0
  0
POINT
  5
66
330
4A
100
AcDbEntity
  8
1
 62
     4
100
AcDbPoint
 10
467.3622914389966
 20
268.0932464212347
 30
0.0
  0
POINT
  5
67
330
4A
100
AcDbEntity
  8
1
 62
     4
100
AcDbPoint
 10
577.3622914389966
 20
5.0932464212344
 30
0.0
  0
POINT
  5
68
330
4A
100
AcDbEntity
  8
1
 62
     4
100
AcDbPoint
 10
476.8622914389966
 20
2.3432464212344
 30
0.0
  0
POINT
  5
69
330
4A
100
AcDbEntity
  8
1
 62
     4
100
AcDbPoint
 10
476.8622914389966
 20
10.8432464212344
 30
0.0
  0
POINT
  5
6A
330
4A
100
AcDbEntity
  8
1
 62
     4
100
AcDbPoint
 10
476.8622914389966
 20
6.8432464212344
 30
0.0
  0
POINT
  5
6B
330
4A
100
AcDbEntity
  8
1
 62
     4
100
AcDbPoint
 10
476.8622914389966
 20
-1.6567535787656
 30
0.0
  0
POINT
  5
6C
330
4A
100
AcDbEntity
  8
1
 62
     4
100
AcDbPoint
 10
453.8622914389966
 20
20.0932464212344
 30
0.0
  0
LINE
  5
71
330
4A
100
AcDbEntity
  8
1
  6
Continuous
 62
     7
100
AcDbLine
 10
524.8622914389966
 20
-3.9067535787656
 30
0.0
 11
619.8622914389966
 21
-3.9067535787656
 31
0.0
  0
LINE
  5
72
330
4A
100
AcDbEntity
  8
1
  6
Continuous
 62
     2
100
AcDbLine
 10
524.8622914389966
 20
-3.9067535787656
 30
0.0
 11
524.8622914389966
 21
-8.9067535787656
 31
0.0
  0
LINE
  5
73
330
4A
100
AcDbEntity
  8
1
  6
Continuous
 62
     7
100
AcDbLine
 10
619.8622914389966
 20
134.5932464212344
 30
0.0
 11
619.8622914389966
 21
273.0932464212347
 31
0.0
  0
LINE
  5
74
330
4A
100
AcDbEntity
  8
1
  6
Continuous
 62
     2
100
AcDbLine
 10
619.8622914389966
 20
134.5932464212344
 30
0.0
 11
624.8622914389966
 21
134.5932464212344
 31
0.0
  0
LINE
  5
75
330
4A
100
AcDbEntity
  8
1
  6
Continuous
 62
     7
100
AcDbLine
 10
444.8622914389966
 20
134.5932464212344
 30
0.0
 11
444.8622914389966
 21
273.0932464212347
 31
0.0
  0
LINE
  5
76
330
4A
100
AcDbEntity
  8
1
  6
Continuous
 62
     2
100
AcDbLine
 10
444.8622914389966
 20
134.5932464212344
 30
0.0
 11
439.8622914389966
 21
134.5932464212344
 31
0.0
  0
LINE
  5
77
330
4A
100
AcDbEntity
  8
1
  6
Continuous
 62
     7
100
AcDbLine
 10
524.8622914389966
 20
273.0932464212347
 30
0.0
 11
444.8622914389966
 21
273.0932464212347
 31
0.0
  0
LINE
  5
78
330
4A
100
AcDbEntity
  8
1
  6
Continuous
 62
     2
100
AcDbLine
 10
524.8622914389966
 20
273.0932464212347
 30
0.0
 11
524.8622914389966
 21
278.0932464212347
 31
0.0
  0
LINE
  5
79
330
4A
100
AcDbEntity
  8
1
  6
Continuous
 62
     2
100
AcDbLine
 10
585.8622914389966
 20
6.0932464212344
 30
0.0
 11
619.8622914389966
 21
6.0932464212344
 31
0.0
  0
LINE
  5
7A
330
4A
100
AcDbEntity
  8
1
  6
Continuous
 62
     2
100
AcDbLine
 10
517.8622914389966
 20
13.0932464212344
 30
0.0
 11
517.8622914389966
 21
-3.9067535787656
 31
0.0
  0
LINE
  5
7B
330
4A
100
AcDbEntity
  8
1
  6
Continuous
 62
     2
100
AcDbLine
 10
534.8622914389966
 20
13.0932464212344
 30
0.0
 11
534.8622914389966
 21
-3.9067535787656
 31
0.0
  0
LINE
  5
7C
330
4A
100
AcDbEntity
  8
1
  6
Continuous
 62
     2
100
AcDbLine
 10
568.8622914389966
 20
13.0932464212344
 30
0.0
 11
568.8622914389966
 21
-3.9067535787656
 31
0.0
  0
LINE
  5
7D
330
4A
100
AcDbEntity
  8
1
  6
Continuous
 62
     2
100
AcDbLine
 10
551.8622914389966
 20
13.0932464212344
 30
0.0
 11
551.8622914389966
 21
-3.9067535787656
 31
0.0
  0
LINE
  5
7E
330
4A
100
AcDbEntity
  8
1
  6
Continuous
 62
     2
100
AcDbLine
 10
585.8622914389966
 20
13.0932464212344
 30
0.0
 11
585.8622914389966
 21
-3.9067535787656
 31
0.0
  0
LINE
  5
7F
330
4A
100
AcDbEntity
  8
1
  6
Continuous
 62
     2
100
AcDbLine
 10
474.8622914389966
 20
263.0932464212347
 30
0.0
 11
444.8622914389966
 21
263.0932464212347
 31
0.0
  0
LINE
  5
80
330
4A
100
AcDbEntity
  8
1
  6
Continuous
 62
     7
100
AcDbLine
 10
444.8622914389966
 20
-3.9067535787656
 30
0.0
 11
444.8622914389966
 21
134.5932464212344
 31
0.0
  0
LINE
  5
81
330
4A
100
AcDbEntity
  8
1
  6
Continuous
 62
     2
100
AcDbLine
 10
459.8622914389966
 20
273.0932464212347
 30
0.0
 11
459.8622914389966
 21
263.0932464212347
 31
0.0
  0
LINE
  5
82
330
4A
100
AcDbEntity
  8
1
  6
Continuous
 62
     2
100
AcDbLine
 10
474.8622914389966
 20
273.0932464212347
 30
0.0
 11
474.8622914389966
 21
263.0932464212347
 31
0.0
  0
LINE
  5
83
330
4A
100
AcDbEntity
  8
1
  6
Continuous
 62
     2
100
AcDbLine
 10
452.8622914389966
 20
27.0932464212344
 30
0.0
 11
452.8622914389966
 21
13.0932464212344
 31
0.0
  0
LINE
  5
84
330
4A
100
AcDbEntity
  8
1
  6
Continuous
 62
     7
100
AcDbLine
 10
619.8622914389966
 20
13.0932464212344
 30
0.0
 11
444.8622914389966
 21
13.0932464212344
 31
0.0
  0
LINE
  5
85
330
4A
100
AcDbEntity
  8
1
  6
Continuous
 62
     7
100
AcDbLine
 10
444.8622914389966
 20
27.0932464212344
 30
0.0
 11
619.8622914389966
 21
27.0932464212344
 31
0.0
  0
LINE
  5
86
330
4A
100
AcDbEntity
  8
1
  6
PHANTOM
 62
     4
100
AcDbLine
 10
419.8622914389966
 20
-13.9067535787656
 30
0.0
 11
629.8622914389966
 21
-13.9067535787656
 31
0.0
  0
LINE
  5
87
330
4A
100
AcDbEntity
  8
1
  6
PHANTOM
 62
     4
100
AcDbLine
 10
629.8622914389966
 20
-13.9067535787656
 30
0.0
 11
629.8622914389966
 21
283.0932464212344
 31
0.0
  0
LINE
  5
88
330
4A
100
AcDbEntity
  8
1
  6
PHANTOM
 62
     4
100
AcDbLine
 10
629.8622914389966
 20
283.0932464212344
 30
0.0
 11
419.8622914389966
 21
283.0932464212344
 31
0.0
  0
LINE
  5
89
330
4A
100
AcDbEntity
  8
1
  6
PHANTOM
 62
     4
100
AcDbLine
 10
419.8622914389966
 20
283.0932464212344
 30
0.0
 11
419.8622914389966
 21
-13.9067535787656
 31
0.0
  0
LINE
  5
8A
330
4A
100
AcDbEntity
  8
1
  6
Continuous
 62
     7
100
AcDbLine
 10
444.8622914389966
 20
-3.9067535787656
 30
0.0
 11
524.8622914389966
 21
-3.9067535787656
 31
0.0
  0
LINE
  5
8B
330
4A
100
AcDbEntity
  8
1
  6
Continuous
 62
     7
100
AcDbLine
 10
619.8622914389966
 20
-3.9067535787656
 30
0.0
 11
619.8622914389966
 21
134.5932464212344
 31
0.0
  0
LINE
  5
8C
330
4A
100
AcDbEntity
  8
1
  6
Continuous
 62
     7
100
AcDbLine
 10
619.8622914389966
 20
273.0932464212347
 30
0.0
 11
524.8622914389966
 21
273.0932464212347
 31
0.0
  0
LINE
  5
8D
330
4A
100
AcDbEntity
  8
1
  6
Continuous
 62
     2
100
AcDbLine
 10
444.8622914389966
 20
4.5932464212344
 30
0.0
 11
500.8622914389966
 21
4.5932464212344
 31
0.0
  0
LINE
  5
8E
330
4A
100
AcDbEntity
  8
1
  6
Continuous
 62
     2
100
AcDbLine
 10
452.8622914389966
 20
13.0932464212344
 30
0.0
 11
452.8622914389966
 21
-3.9067535787656
 31
0.0
  0
LINE
  5
8F
330
4A
100
AcDbEntity
  8
1
  6
Continuous
 62
     7
100
AcDbLine
 10
610.8622914389966
 20
10.79324642123441
 30
0.0
 11
610.8622914389966
 21
8.39324642123441
 31
0.0
  0
LINE
  5
90
330
4A
100
AcDbEntity
  8
1
  6
Continuous
 62
     7
100
AcDbLine
 10
610.8622914389966
 20
10.79324642123441
 30
0.0
 11
615.8622914389966
 21
11.5932464212344
 31
0.0
  0
LINE
  5
91
330
4A
100
AcDbEntity
  8
1
  6
Continuous
 62
     7
100
AcDbLine
 10
615.8622914389966
 20
11.5932464212344
 30
0.0
 11
615.8622914389966
 21
7.5932464212344
 31
0.0
  0
LINE
  5
92
330
4A
100
AcDbEntity
  8
1
  6
Continuous
 62
     7
100
AcDbLine
 10
615.8622914389966
 20
7.5932464212344
 30
0.0
 11
610.8622914389966
 21
8.39324642123441
 31
0.0
  0
LINE
  5
93
330
4A
100
AcDbEntity
  8
1
  6
DOT_CENTER
 62
     2
100
AcDbLine
 10
603.8622914389966
 20
9.5932464212344
 30
0.0
 11
616.8622914389966
 21
9.5932464212344
 31
0.0
  0
LINE
  5
94
330
4A
100
AcDbEntity
  8
1
  6
DOT_CENTER
 62
     2
100
AcDbLine
 10
606.8622914389966
 20
12.5932464212344
 30
0.0
 11
606.8622914389966
 21
6.5932464212344
 31
0.0
  0
LINE
  5
95
330
4A
100
AcDbEntity
  8
1
  6
Continuous
 62
     2
100
AcDbLine
 10
500.8622914389966
 20
13.0932464212344
 30
0.0
 11
500.8622914389966
 21
-3.9067535787656
 31
0.0
  0
CIRCLE
  5
96
330
4A
100
AcDbEntity
  8
1
  6
Continuous
 62
     7
100
AcDbCircle
 10
523.3622914389966
 20
-1.4067535787656
 30
0.0
 40
0.2999999999999545
  0
CIRCLE
  5
97
330
4A
100
AcDbEntity
  8
1
  6
Continuous
 62
     7
100
AcDbCircle
 10
529.3622914389966
 20
-1.4067535787656
 30
0.0
 40
0.2999999999999545
  0
CIRCLE
  5
98
330
4A
100
AcDbEntity
  8
1
  6
Continuous
 62
     7
100
AcDbCircle
 10
540.3622914389966
 20
-1.4067535787656
 30
0.0
 40
0.2999999999999545
  0
CIRCLE
  5
99
330
4A
100
AcDbEntity
  8
1
  6
Continuous
 62
     7
100
AcDbCircle
 10
546.3622914389966
 20
-1.4067535787656
 30
0.0
 40
0.2999999999999545
  0
CIRCLE
  5
9A
330
4A
100
AcDbEntity
  8
1
  6
Continuous
 62
     7
100
AcDbCircle
 10
557.3622914389966
 20
-1.4067535787656
 30
0.0
 40
0.2999999999999545
  0
CIRCLE
  5
9B
330
4A
100
AcDbEntity
  8
1
  6
Continuous
 62
     7
100
AcDbCircle
 10
563.3622914389966
 20
-1.4067535787656
 30
0.0
 40
0.2999999999999545
  0
CIRCLE
  5
9C
330
4A
100
AcDbEntity
  8
1
  6
Continuous
 62
     7
100
AcDbCircle
 10
580.3622914389966
 20
-1.4067535787656
 30
0.0
 40
0.2999999999999545
  0
CIRCLE
  5
9D
330
4A
100
AcDbEntity
  8
1
  6
Continuous
 62
     7
100
AcDbCircle
 10
574.3622914389966
 20
-1.4067535787656
 30
0.0
 40
0.2999999999999545
  0
CIRCLE
  5
9E
330
4A
100
AcDbEntity
  8
1
  6
Continuous
 62
     7
100
AcDbCircle
 10
606.8622914389966
 20
9.5932464212344
 30
0.0
 40
1.200000000000045
  0
CIRCLE
  5
9F
330
4A
100
AcDbEntity
  8
1
  6
Continuous
 62
     7
100
AcDbCircle
 10
606.8622914389966
 20
9.5932464212344
 30
0.0
 40
2.0
  0
CIRCLE
  5
A0
330
4A
100
AcDbEntity
  8
1
  6
DOT_CENTER
 62
     7
100
AcDbCircle
 10
509.3622914389966
 20
2.0932464212344
 30
0.0
 40
0.1000000000000227
  0
CIRCLE
  5
A1
330
4A
100
AcDbEntity
  8
1
  6
DOT_CENTER
 62
     7
100
AcDbCircle
 10
509.3622914389966
 20
4.0932464212344
 30
0.0
 40
0.1000000000000227
  0
SPLINE
  5
A2
102
{ACAD_REACTORS
330
C1
102
}
330
4A
100
AcDbEntity
  8
_U_30EC_U_30A4_U_30E4_U_30FC_1
  6
Continuous
 62
     2
100
AcDbSpline
210
0.0
220
0.0
230
1.0
 70
     8
 71
     3
 72
    24
 73
    20
 74
    18
 42
0.000000001
 43
0.0000000001
 44
0.00000001
 40
0.0
 40
0.0
 40
0.0
 40
0.0
 40
0.2211075008753765
 40
0.427321858624537
 40
0.5080174679239038
 40
0.5914835907868872
 40
0.8143265690191444
 40
1.05465130268645
 40
1.295452694023001
 40
1.518109231328656
 40
1.540864321905271
 40
1.595126460622504
 40
1.659890947895984
 40
1.714153085187314
 40
1.736908174961614
 40
1.764951100735356
 40
1.801562291221001
 40
1.953914424543693
 40
2.126104167379705
 40
2.126104167379705
 40
2.126104167379705
 40
2.126104167379705
 10
605.7998283946854
 20
1.683139372364565
 30
0.0
 10
605.7735493471777
 20
1.624222703578143
 30
0.0
 10
605.722761328439
 20
1.510357818026936
 30
0.0
 10
605.6754699229077
 20
1.237666003565584
 30
0.0
 10
605.5666397192583
 20
1.337701246988895
 30
0.0
 10
605.4137714669604
 20
1.364432354907769
 30
0.0
 10
605.6309069571165
 20
1.578427771410702
 30
0.0
 10
605.6461398064348
 20
1.796567599059248
 30
0.0
 10
605.7529803881964
 20
1.977762211898691
 30
0.0
 10
605.6928295337043
 20
2.262378684348398
 30
0.0
 10
605.7957231785366
 20
2.234387313458907
 30
0.0
 10
605.8402847858116
 20
2.225678937257367
 30
0.0
 10
605.9003756785362
 20
2.214642963067971
 30
0.0
 10
605.9379533977403
 20
2.20092165179
 30
0.0
 10
605.9875381318573
 20
2.20080718283661
 30
0.0
 10
605.9553073309289
 20
2.166312345220634
 30
0.0
 10
605.8794716611848
 20
2.177287466614046
 30
0.0
 10
605.9052361549653
 20
1.991836117058956
 30
0.0
 10
605.8678811153817
 20
1.900269556730296
 30
0.0
 10
605.8480619351576
 20
1.851687775211445
 30
0.0
 11
605.7998283946854
 21
1.683139372364565
 31
0.0
 11
605.7239385718517
 21
1.475463504419988
 31
0.0
 11
605.6340316628398
 21
1.28988034479633
 31
0.0
 11
605.5634408313075
 21
1.328979146869894
 31
0.0
 11
605.4868439582617
 21
1.362138053111579
 31
0.0
 11
605.5836941337421
 21
1.562834433269773
 31
0.0
 11
605.6617555857437
 21
1.790128053004636
 31
0.0
 11
605.7212631319685
 21
2.02346078732131
 31
0.0
 11
605.7624515901191
 21
2.242274511224935
 31
0.0
 11
605.7847098212179
 21
2.237545313448342
 31
0.0
 11
605.8377871415305
 21
2.226267995673389
 31
0.0
 11
605.901137491581
 21
2.212807971232316
 31
0.0
 11
605.9542148118936
 21
2.201530653457363
 31
0.0
 11
605.9764730429924
 21
2.19680145568077
 31
0.0
 11
605.9587011547426
 21
2.175108929644495
 31
0.0
 11
605.9229037388036
 21
2.167432705688071
 31
0.0
 11
605.8904867691444
 21
2.01856930294753
 31
0.0
 11
605.8480619351576
 21
1.851687775211445
 31
0.0
  0
SPLINE
  5
A3
102
{ACAD_REACTORS
330
C1
102
}
330
4A
100
AcDbEntity
  8
_U_30EC_U_30A4_U_30E4_U_30FC_1
  6
Continuous
 62
     2
100
AcDbSpline
210
0.0
220
0.0
230
1.0
 70
     8
 71
     3
 72
    70
 73
    66
 74
    64
 42
0.000000001
 43
0.0000000001
 44
0.00000001
 40
0.0
 40
0.0
 40
0.0
 40
0.0
 40
0.0241731073020904
 40
0.0846058988986445
 40
0.1631685280352715
 40
0.2417311571787198
 40
0.3021639488290477
 40
0.3263370654893836
 40
0.3533118254247202
 40
0.4228783438920415
 40
0.5179999095311706
 40
0.6216398239464379
 40
0.7167613891498023
 40
0.7863279069648171
 40
0.8133026791760144
 40
0.8372943998770552
 40
0.8945054261370894
 40
0.9627895541961797
 40
1.020000580348962
 40
1.043992300975201
 40
1.071934345523035
 40
1.113121768772937
 40
1.145225199332259
 40
1.225483775412799
 40
1.329819923771513
 40
1.434156071994407
 40
1.514414647795828
 40
1.546518078208437
 40
1.578974764260211
 40
1.66267884931412
 40
1.777131373668313
 40
1.901833377474845
 40
2.016285900500379
 40
2.099989982527832
 40
2.13244666657019
 40
2.158782354485914
 40
2.216720867907703
 40
2.274659381334125
 40
2.30099506925606
 40
2.333451754066146
 40
2.417155836543798
 40
2.531608358985095
 40
2.656310362283562
 40
2.770762886388666
 40
2.854466971339803
 40
2.886923657363609
 40
2.913597976833041
 40
2.982389642874844
 40
3.07645171694671
 40
3.178937260458323
 40
3.272999334739724
 40
3.341791001058946
 40
3.368465320663258
 40
3.396976080738423
 40
3.472140811845716
 40
3.578408190308291
 40
3.700226892455785
 40
3.822045594633973
 40
3.928312973255938
 40
4.003477705314449
 40
4.031988456866515
 40
4.058324144797313
 40
4.116262658236471
 40
4.174201171400269
 40
4.200536849608201
 40
4.200536849608201
 40
4.200536849608201
 40
4.200536849608201
 10
605.8480619351576
 20
1.851687775211445
 30
0.0
 10
605.8561173934645
 20
1.851690019351262
 30
0.0
 10
605.8843115053206
 20
1.85169788156237
 30
0.0
 10
605.9388449193639
 20
1.851553969518111
 30
0.0
 10
606.0105806198569
 20
1.852337626233374
 30
0.0
 10
606.0859154527029
 20
1.849522125872507
 30
0.0
 10
606.1335966756402
 20
1.856230455243977
 30
0.0
 10
606.1817985635582
 20
1.8452220581587
 30
0.0
 10
606.1685486189838
 20
1.898710451204723
 30
0.0
 10
606.1774008354503
 20
1.953742256665312
 30
0.0
 10
606.1731612426249
 20
2.047445508495481
 30
0.0
 10
606.1756397871247
 20
2.14284124341972
 30
0.0
 10
606.1713853096024
 20
2.23681464106826
 30
0.0
 10
606.1802733055811
 20
2.291197045614524
 30
0.0
 10
606.1669891799911
 20
2.345586398149016
 30
0.0
 10
606.2137033667073
 20
2.331668584587975
 30
0.0
 10
606.2566168935701
 20
2.334285194974824
 30
0.0
 10
606.3228357846651
 20
2.329730645741948
 30
0.0
 10
606.3636256661764
 20
2.321028042576008
 30
0.0
 10
606.4148060080787
 20
2.328564420136364
 30
0.0
 10
606.3876634877164
 20
2.286746123467355
 30
0.0
 10
606.3426010445673
 20
2.29609634196031
 30
0.0
 10
606.3564979435017
 20
2.231658494952789
 30
0.0
 10
606.3481328821621
 20
2.167028617508386
 30
0.0
 10
606.3526546568364
 20
2.068537833173277
 30
0.0
 10
606.3477655701136
 20
1.9692057496601
 30
0.0
 10
606.3573173382047
 20
1.906177576764082
 30
0.0
 10
606.3422675845168
 20
1.842886536232281
 30
0.0
 10
606.4072073847175
 20
1.858397150677081
 30
0.0
 10
606.4739160789461
 20
1.848240298212521
 30
0.0
 10
606.5864349860793
 20
1.853134422228064
 30
0.0
 10
606.7013149838918
 20
1.850158468562233
 30
0.0
 10
606.8142786389712
 20
1.855463063084296
 30
0.0
 10
606.8799181987641
 20
1.844319485955276
 30
0.0
 10
606.9439191081019
 20
1.860691744432967
 30
0.0
 10
606.9326057279154
 20
1.810863320287142
 30
0.0
 10
606.9398254261475
 20
1.767413573355625
 30
0.0
 10
606.9326057001233
 20
1.723963877108836
 30
0.0
 10
606.9439191565959
 20
1.674135373203123
 30
0.0
 10
606.8799177988935
 20
1.69050808214803
 30
0.0
 10
606.8142835630424
 20
1.679359137850277
 30
0.0
 10
606.7012888707296
 20
1.684694993302938
 30
0.0
 10
606.5865370938609
 20
1.681589877872605
 30
0.0
 10
606.4736098076826
 20
1.686895368060286
 30
0.0
 10
606.4078135293552
 20
1.675819421430331
 30
0.0
 10
606.3439012365325
 20
1.692122399710573
 30
0.0
 10
606.3558929555094
 20
1.637481665191812
 30
0.0
 10
606.3485019002969
 20
1.581789371712815
 30
0.0
 10
606.3515599231952
 20
1.489743312640097
 30
0.0
 10
606.3516337175649
 20
1.395037519965408
 30
0.0
 10
606.3483227968326
 20
1.302774250257048
 30
0.0
 10
606.3562420379867
 20
1.247604108595799
 30
0.0
 10
606.3437991001585
 20
1.19382811223578
 30
0.0
 10
606.4012030941597
 20
1.207784109862207
 30
0.0
 10
606.461762253035
 20
1.198361000076673
 30
0.0
 10
606.5671595245044
 20
1.202675280521445
 30
0.0
 10
606.6827208460589
 20
1.201601467354717
 30
0.0
 10
606.7982603267761
 20
1.200506080244349
 30
0.0
 10
606.9037095520805
 20
1.20487167894072
 30
0.0
 10
606.9641594861769
 20
1.195340681541099
 30
0.0
 10
607.0215752129076
 20
1.209419317298196
 30
0.0
 10
607.0100688266674
 20
1.160317953891228
 30
0.0
 10
607.0160481171715
 20
1.118893001420893
 30
0.0
 10
607.0143225440765
 20
1.069763200901362
 30
0.0
 10
607.0144414512938
 20
1.041790705710485
 30
0.0
 10
607.0144786081798
 20
1.033049303193906
 30
0.0
 11
605.8480619351576
 21
1.851687775211445
 31
0.0
 11
605.8722350518248
 21
1.851687775211445
 31
0.0
 11
605.9326678434929
 21
1.851687775211445
 31
0.0
 11
606.0112304726614
 21
1.851687775211445
 31
0.0
 11
606.0897931018299
 21
1.851687775211445
 31
0.0
 11
606.1502258934979
 21
1.851687775211445
 31
0.0
 11
606.1743990101652
 21
1.851687775211445
 31
0.0
 11
606.1743990101651
 21
1.878662547435025
 31
0.0
 11
606.1743990101652
 21
1.948229065274782
 31
0.0
 11
606.1743990101652
 21
2.043350630484248
 31
0.0
 11
606.1743990101652
 21
2.146990544816951
 31
0.0
 11
606.1743990101652
 21
2.242112110026416
 31
0.0
 11
606.1743990101652
 21
2.311678627866174
 31
0.0
 11
606.1743990101652
 21
2.338653400089754
 31
0.0
 11
606.1983321994858
 21
2.336978552312393
 31
0.0
 11
606.2554036509423
 21
2.332984684535608
 31
0.0
 11
606.3235211897777
 21
2.328217810092349
 31
0.0
 11
606.3805926412342
 21
2.324223942315565
 31
0.0
 11
606.4045258305548
 21
2.322549094538204
 31
0.0
 11
606.3897887121194
 21
2.298809354960795
 31
0.0
 11
606.3509554639943
 21
2.285084094547528
 31
0.0
 11
606.3509554639942
 21
2.252980663485595
 31
0.0
 11
606.3509554639943
 21
2.172722085830767
 31
0.0
 11
606.3509554639943
 21
2.068385934879486
 31
0.0
 11
606.3509554639943
 21
1.964049783928207
 31
0.0
 11
606.3509554639942
 21
1.883791206273377
 31
0.0
 11
606.3509554639943
 21
1.851687775211445
 31
0.0
 11
606.383412150079
 21
1.851687775211445
 31
0.0
 11
606.4671162352452
 21
1.851687775211445
 31
0.0
 11
606.58156875986
 21
1.851687775211445
 31
0.0
 11
606.7062707642913
 21
1.851687775211445
 31
0.0
 11
606.8207232889059
 21
1.851687775211445
 31
0.0
 11
606.904427374072
 21
1.851687775211445
 31
0.0
 11
606.9368840601569
 21
1.851687775211445
 31
0.0
 11
606.9368840601569
 21
1.825352087284006
 31
0.0
 11
606.9368840601569
 21
1.767413573843641
 31
0.0
 11
606.9368840601569
 21
1.709475060403275
 31
0.0
 11
606.9368840601569
 21
1.683139372475836
 31
0.0
 11
606.904427374072
 21
1.683139372475836
 31
0.0
 11
606.8207232889059
 21
1.683139372475836
 31
0.0
 11
606.7062707642912
 21
1.683139372475836
 31
0.0
 11
606.58156875986
 21
1.683139372475836
 31
0.0
 11
606.4671162352452
 21
1.683139372475836
 31
0.0
 11
606.383412150079
 21
1.683139372475836
 31
0.0
 11
606.3509554639943
 21
1.683139372475836
 31
0.0
 11
606.3509554639942
 21
1.656465052754614
 31
0.0
 11
606.3509554639942
 21
1.587673386105148
 31
0.0
 11
606.3509554639943
 21
1.493611311298736
 31
0.0
 11
606.3509554639943
 21
1.391125767106672
 31
0.0
 11
606.3509554639942
 21
1.297063692300259
 31
0.0
 11
606.3509554639942
 21
1.228272025650793
 31
0.0
 11
606.3509554639943
 21
1.201597705929572
 31
0.0
 11
606.379466224096
 21
1.201597705929572
 31
0.0
 11
606.4546309552733
 21
1.201597705929572
 31
0.0
 11
606.5608983338342
 21
1.201597705929572
 31
0.0
 11
606.6827170360871
 21
1.201597705929572
 31
0.0
 11
606.8045357383398
 21
1.201597705929572
 31
0.0
 11
606.9108031169008
 21
1.201597705929572
 31
0.0
 11
606.9859678480781
 21
1.201597705929572
 31
0.0
 11
607.0144786081798
 21
1.201597705929572
 31
0.0
 11
607.0144786081798
 21
1.175262018002124
 31
0.0
 11
607.0144786081798
 21
1.117323504561739
 31
0.0
 11
607.0144786081798
 21
1.059384991121354
 31
0.0
 11
607.0144786081798
 21
1.033049303193906
 31
0.0
  0
SPLINE
  5
A4
102
{ACAD_REACTORS
330
C1
102
}
330
4A
100
AcDbEntity
  8
_U_30EC_U_30A4_U_30E4_U_30FC_1
  6
Continuous
 62
     2
100
AcDbSpline
210
0.0
220
0.0
230
1.0
 70
     8
 71
     3
 72
    62
 73
    58
 74
    56
 42
0.000000001
 43
0.0000000001
 44
0.00000001
 40
0.0
 40
0.0
 40
0.0
 40
0.0
 40
0.0598250028308485
 40
0.2024846486897331
 40
0.3727558389221031
 40
0.515415484793607
 40
0.5752404975785339
 40
0.9332326775487298
 40
1.290451762839448
 40
1.60207725314585
 40
1.699931634112038
 40
1.799359756424966
 40
2.270120149657
 40
2.804661928461359
 40
2.882342287383071
 40
3.076543185718919
 40
3.329004354835379
 40
3.581465524568203
 40
3.775666424543484
 40
3.853346784558104
 40
3.899120679594964
 40
3.984129341791933
 40
4.029903236817423
 40
4.105797496059582
 40
4.29553314415254
 40
4.542189486611786
 40
4.788845828875737
 40
4.978581476410124
 40
5.054475735244368
 40
5.621734664339455
 40
6.13086724203742
 40
6.225249780948503
 40
6.318913039727319
 40
6.663579954558983
 40
7.047498900224812
 40
7.435230791575753
 40
7.498943906668222
 40
7.650875181210102
 40
7.832212509001755
 40
7.984143783697112
 40
8.047856898903268
 40
8.091554632732771
 40
8.172707566964426
 40
8.21640530076815
 40
8.289021782161006
 40
8.462184160757323
 40
8.66886183800563
 40
8.84202421526408
 40
8.914640695475276
 40
8.98988158086148
 40
9.155411528827386
 40
9.320941477744169
 40
9.396182352487418
 40
9.454709011143851
 40
9.583467660170928
 40
9.71222630901315
 40
9.770752957989604
 40
9.770752957989604
 40
9.770752957989604
 40
9.770752957989604
 10
607.0144786081798
 20
1.033049303193906
 30
0.0
 10
606.9945262561589
 20
1.033055176921119
 30
0.0
 10
606.9269952106431
 20
1.033075059295984
 30
0.0
 10
606.8033526551754
 20
1.032740046437662
 30
0.0
 10
606.6486094540021
 20
1.034323158739523
 30
0.0
 10
606.5320263872447
 20
1.030107209839357
 30
0.0
 10
606.3173857024202
 20
1.045398474550667
 30
0.0
 10
606.7141862797193
 20
0.6852336340963514
 30
0.0
 10
606.7568570459233
 20
0.4683514552060151
 30
0.0
 10
607.1812076536575
 20
0.2864970463489273
 30
0.0
 10
607.006273588604
 20
0.1830983869150813
 30
0.0
 10
606.8817438315047
 20
-0.0284383466383052
 30
0.0
 10
606.6289191625908
 20
0.441307231249927
 30
0.0
 10
606.3420517283597
 20
1.088361591079575
 30
0.0
 10
606.3529250316626
 20
0.7810731427813299
 30
0.0
 10
606.3505807167929
 20
0.6161325909521762
 30
0.0
 10
606.3484010516377
 20
0.3820431283513255
 30
0.0
 10
606.3603688786313
 20
0.1382271454522352
 30
0.0
 10
606.3310899130597
 20
-0.0081956101557736
 30
0.0
 10
606.3737437015437
 20
-0.1556186770202516
 30
0.0
 10
606.2862728395605
 20
-0.1398956057034009
 30
0.0
 10
606.239144199671
 20
-0.1398105433310534
 30
0.0
 10
606.1521887597677
 20
-0.155659323936551
 30
0.0
 10
606.1936388411688
 20
-0.0114758645379979
 30
0.0
 10
606.1652789394249
 20
0.1317969482189649
 30
0.0
 10
606.1768888165263
 20
0.3699958948870471
 30
0.0
 10
606.1747090038236
 20
0.5984187736378679
 30
0.0
 10
606.1726025517959
 20
0.7603037149943552
 30
0.0
 10
606.1830949828288
 20
1.074783514571946
 30
0.0
 10
605.8751877642859
 20
0.3855411299590067
 30
0.0
 10
605.5678172657418
 20
-0.09198607633533
 30
0.0
 10
605.447428145624
 20
0.1306575476087981
 30
0.0
 10
605.2697522300688
 20
0.2433567707898887
 30
0.0
 10
605.7476240752859
 20
0.4187278558890456
 30
0.0
 10
605.7976873447174
 20
0.6541657137547041
 30
0.0
 10
606.220671401168
 20
1.046476314680494
 30
0.0
 10
605.9899668663508
 20
1.029799491525061
 30
0.0
 10
605.8672600249307
 20
1.035941610722115
 30
0.0
 10
605.6948397485626
 20
1.026374648230137
 30
0.0
 10
605.5836139084415
 20
1.047734606131061
 30
0.0
 10
605.4648694017411
 20
1.014609074808595
 30
0.0
 10
605.4806084096653
 20
1.095285427303237
 30
0.0
 10
605.4801465323728
 20
1.139700564142939
 30
0.0
 10
605.4650796279898
 20
1.222917239019724
 30
0.0
 10
605.5995295325406
 20
1.183872941073237
 30
0.0
 10
605.7242669935713
 20
1.210643714518626
 30
0.0
 10
605.9251669627245
 20
1.193885911674919
 30
0.0
 10
606.0544455339317
 20
1.215288680364425
 30
0.0
 10
606.195133431826
 20
1.181934209768607
 30
0.0
 10
606.1603841842579
 20
1.319765179085075
 30
0.0
 10
606.1845100056678
 20
1.442878994729212
 30
0.0
 10
606.1590000572361
 20
1.563486977937737
 30
0.0
 10
606.1956165536649
 20
1.698645072649308
 30
0.0
 10
606.0834331417734
 20
1.674191879053302
 30
0.0
 10
605.9903270847099
 20
1.686323919654615
 30
0.0
 10
605.8814461969786
 20
1.682822721934333
 30
0.0
 10
605.8192612030928
 20
1.683063980750419
 30
0.0
 10
605.7998283947211
 20
1.683139372475836
 30
0.0
 11
607.0144786081798
 21
1.033049303193906
 31
0.0
 11
606.9546535953948
 21
1.033049303193906
 31
0.0
 11
606.8119939495225
 21
1.033049303193906
 31
0.0
 11
606.6417227592879
 21
1.033049303193906
 31
0.0
 11
606.4990631134157
 21
1.033049303193906
 31
0.0
 11
606.4392381006305
 21
1.033049303193906
 31
0.0
 11
606.6302875144808
 21
0.7302977009033089
 31
0.0
 11
606.8564187175594
 21
0.4537653270012388
 31
0.0
 11
607.0867440563336
 21
0.2438589561689639
 31
0.0
 11
607.0144510720669
 21
0.1779104579215627
 31
0.0
 11
606.9502278792609
 21
0.1020070117600085
 31
0.0
 11
606.6355732605523
 21
0.4521610047280298
 31
0.0
 11
606.3509554639943
 21
0.9046293726703993
 31
0.0
 11
606.3509554639943
 21
0.8269490126075191
 31
0.0
 11
606.3509554639944
 21
0.6327481124503197
 31
0.0
 11
606.3509554639943
 21
0.3802869422459594
 31
0.0
 11
606.3509554639943
 21
0.127825772041599
 31
0.0
 11
606.3509554639943
 21
-0.0663751281156003
 31
0.0
 11
606.3509554639943
 21
-0.1440554881784806
 31
0.0
 11
606.3051815685571
 21
-0.1440554881784806
 31
0.0
 11
606.2201729056025
 21
-0.1440554881784806
 31
0.0
 11
606.1743990101652
 21
-0.1440554881784806
 31
0.0
 11
606.1743990101652
 21
-0.0681612289381959
 31
0.0
 11
606.1743990101652
 21
0.1215744191625146
 31
0.0
 11
606.1743990101652
 21
0.3682307616934395
 31
0.0
 11
606.1743990101652
 21
0.6148871042243643
 31
0.0
 11
606.1743990101652
 21
0.8046227523250749
 31
0.0
 11
606.1743990101652
 21
0.8805170115653596
 31
0.0
 11
605.8610540789231
 21
0.4076558832113335
 31
0.0
 11
605.4975243052113
 21
0.0511981923282292
 31
0.0
 11
605.4396841851594
 21
0.1257809266846231
 31
0.0
 11
605.3717766695306
 21
0.1902896506268235
 31
0.0
 11
605.6373636288286
 21
0.4099686191932964
 31
0.0
 11
605.8856679362027
 21
0.7027803809513689
 31
0.0
 11
606.0887897195225
 21
1.033049303193906
 31
0.0
 11
606.0250766042686
 21
1.033049303193906
 31
0.0
 11
605.8731453294325
 21
1.033049303193906
 31
0.0
 11
605.691808001402
 21
1.033049303193906
 31
0.0
 11
605.5398767265658
 21
1.033049303193906
 31
0.0
 11
605.4761636113119
 21
1.033049303193906
 31
0.0
 11
605.476163611312
 21
1.076747037236486
 31
0.0
 11
605.4761636113119
 21
1.157899971886992
 31
0.0
 11
605.4761636113119
 21
1.201597705929572
 31
0.0
 11
605.5487800927926
 21
1.201597705929572
 31
0.0
 11
605.7219424717082
 21
1.201597705929572
 31
0.0
 11
605.9286201497689
 21
1.201597705929572
 31
0.0
 11
606.1017825286845
 21
1.201597705929572
 31
0.0
 11
606.1743990101652
 21
1.201597705929572
 31
0.0
 11
606.1743990101652
 21
1.276838591327426
 31
0.0
 11
606.1743990101652
 21
1.442368539202704
 31
0.0
 11
606.1743990101652
 21
1.607898487077982
 31
0.0
 11
606.1743990101652
 21
1.683139372475836
 31
0.0
 11
606.115872351502
 21
1.683139372475836
 31
0.0
 11
605.9871137024431
 21
1.683139372475836
 31
0.0
 11
605.8583550533842
 21
1.683139372475836
 31
0.0
 11
605.7998283947211
 21
1.683139372475836
 31
0.0
  0
SPLINE
  5
A5
102
{ACAD_REACTORS
330
C2
102
}
330
4A
100
AcDbEntity
  8
_U_30EC_U_30A4_U_30E4_U_30FC_1
  6
Continuous
 62
     2
100
AcDbSpline
210
0.0
220
0.0
230
1.0
 70
    11
 71
     3
 72
   124
 73
   120
 74
   118
 42
0.000000001
 43
0.0000000001
 44
0.00000001
 40
0.0
 40
0.0
 40
0.0
 40
0.0
 40
0.0278187229623658
 40
0.1011590162383985
 40
0.2048470170591375
 40
0.3237088716559814
 40
0.4425707262521431
 40
0.5462587270701537
 40
0.6195990203312934
 40
0.6474177522579797
 40
0.6750060736116378
 40
0.7357003855243895
 40
0.7963946998055617
 40
0.8239830245572924
 40
0.8540933811105155
 40
0.9373396629411267
 40
1.063094687343351
 40
1.220731268638274
 40
1.399622220914948
 40
1.589140358637819
 40
1.778658496424128
 40
1.957549448940795
 40
2.115186030873388
 40
2.240941056914635
 40
2.32418734176079
 40
2.354297700109696
 40
2.381886024672203
 40
2.442580338710791
 40
2.503274652750815
 40
2.530862977314922
 40
2.560983949278846
 40
2.640393784453221
 40
2.75266286175933
 40
2.881361560118461
 40
3.010060258455536
 40
3.122329335705598
 40
3.20173917081824
 40
3.231860142753629
 40
3.264298024030686
 40
3.352343701778556
 40
3.482095226869083
 40
3.639650650173344
 40
3.811108022565803
 40
3.982565394928311
 40
4.140120818152894
 40
4.269872343141605
 40
4.35791802080267
 40
4.390355902044297
 40
4.423256253993094
 40
4.508104530073473
 40
4.624121560637213
 40
4.750528176031998
 40
4.866545206602445
 40
4.951393482692487
 40
4.984293834645832
 40
5.011450833242744
 40
5.071196230152523
 40
5.130941627057593
 40
5.158098625649257
 40
5.190998977601805
 40
5.275847253689574
 40
5.391864284257292
 40
5.518270899648781
 40
5.634287930209791
 40
5.719136206288465
 40
5.752036558236353
 40
5.782130946283378
 40
5.862783906229552
 40
5.979550131775422
 40
6.117984316640832
 40
6.26364115458838
 40
6.402075339414585
 40
6.518841564908381
 40
6.599494524815967
 40
6.629588912849204
 40
6.654403028226781
 40
6.713575149488577
 40
6.784199939329979
 40
6.843372060494081
 40
6.868186175803242
 40
6.89624624320233
 40
6.9395862337587
 40
6.967846564565331
 40
7.043584251090266
 40
7.153234334452127
 40
7.283231855734877
 40
7.420011856035911
 40
7.550009376580265
 40
7.659659458835666
 40
7.735397144417659
 40
7.763657474851831
 40
7.79640972801146
 40
7.880876065096819
 40
7.99637085246629
 40
8.122208446419128
 40
8.237703224799722
 40
8.322169562011501
 40
8.354921815206486
 40
8.382078813308265
 40
8.441824209207565
 40
8.50156960524071
 40
8.528726603486286
 40
8.561478856696278
 40
8.645945193878385
 40
8.761439980865982
 40
8.887277580765096
 40
9.002772362001616
 40
9.087238696661922
 40
9.119990949236291
 40
9.15242883061399
 40
9.240474508639208
 40
9.37022603415016
 40
9.527781457985045
 40
9.699238830982036
 40
9.87069620397923
 40
10.02825162781465
 40
10.15800315332627
 40
10.24604883135182
 40
10.27848670378585
 40
10.27848670378585
 40
10.27848670378585
 40
10.27848670378585
 10
615.2444741954348
 20
0.1073515950919557
 30
0.0
 10
615.2537469127487
 20
0.1073514063471266
 30
0.0
 10
615.2874658926826
 20
0.1073507300015288
 30
0.0
 10
615.3557621202431
 20
0.1073644936674302
 30
0.0
 10
615.4543056101546
 20
0.1072786634298313
 30
0.0
 10
615.5684980854776
 20
0.1076639773568888
 30
0.0
 10
615.6808808807039
 20
0.1062547802098361
 30
0.0
 10
615.783729099008
 20
0.1104375954568206
 30
0.0
 10
615.8429754264818
 20
0.1014773137542203
 30
0.0
 10
615.8994180326998
 20
0.1148907664949951
 30
0.0
 10
615.8869169976921
 20
0.0641184073679954
 30
0.0
 10
615.8952464025671
 20
0.0191396306250552
 30
0.0
 10
615.8871085231086
 20
-0.0261860488607436
 30
0.0
 10
615.8993443604422
 20
-0.0774342546809913
 30
0.0
 10
615.8370687880299
 20
-0.0622740251128494
 30
0.0
 10
615.7683427416835
 20
-0.0731560716581845
 30
0.0
 10
615.6405671139556
 20
-0.0676405312858964
 30
0.0
 10
615.4885898901609
 20
-0.0697450662286311
 30
0.0
 10
615.3125610362489
 20
-0.0690435528808831
 30
0.0
 10
615.1267346324253
 20
-0.0693012034527014
 30
0.0
 10
614.9409081827141
 20
-0.0690435273195835
 30
0.0
 10
614.7648794532132
 20
-0.0697451602883083
 30
0.0
 10
614.6129018544161
 20
-0.0676402564657323
 30
0.0
 10
614.485127205452
 20
-0.073156771089216
 30
0.0
 10
614.4163992226545
 20
-0.0622728075061797
 30
0.0
 10
614.3541263432847
 20
-0.0774357119235426
 30
0.0
 10
614.3663530679983
 20
-0.0261784707139044
 30
0.0
 10
614.3582918852562
 20
0.019071153958638
 30
0.0
 10
614.3663590199857
 20
0.0643100007876115
 30
0.0
 10
614.3541152877049
 20
0.1155881903339516
 30
0.0
 10
614.4147931510663
 20
0.1007421948657373
 30
0.0
 10
614.4785725135698
 20
0.1108109029417233
 30
0.0
 10
614.5900228743469
 20
0.1061928633543809
 30
0.0
 10
614.7120447833786
 20
0.1073797102890695
 30
0.0
 10
614.8342452527788
 20
0.1084050602407321
 30
0.0
 10
614.9452708677356
 20
0.1041711774684007
 30
0.0
 10
615.0099431803922
 20
0.1134322664517769
 30
0.0
 10
615.0714077200465
 20
0.0992906517312012
 30
0.0
 10
615.0552979991304
 20
0.1656017000795498
 30
0.0
 10
615.066589471732
 20
0.237724322454146
 30
0.0
 10
615.0610315212526
 20
0.3683840301172461
 30
0.0
 10
615.0630949451655
 20
0.5193196583168007
 30
0.0
 10
615.0623081517258
 20
0.6866051523132509
 30
0.0
 10
615.0630759605592
 20
0.8538575245574189
 30
0.0
 10
615.0610953175592
 20
1.004879313933542
 30
0.0
 10
615.0664220546583
 20
1.135307116764335
 30
0.0
 10
615.0556015778393
 20
1.207900847293415
 30
0.0
 10
615.0713240819839
 20
1.274751115602451
 30
0.0
 10
615.0055622522456
 20
1.25905154614264
 30
0.0
 10
614.9379282220729
 20
1.269338852074355
 30
0.0
 10
614.8238799683772
 20
1.264384289705617
 30
0.0
 10
614.7074157064867
 20
1.267387701539152
 30
0.0
 10
614.5929468511442
 20
1.262049452668291
 30
0.0
 10
614.5263239047777
 20
1.273259101982647
 30
0.0
 10
614.461368410515
 20
1.256737747884532
 30
0.0
 10
614.4730904148672
 20
1.30798362600499
 30
0.0
 10
614.4655744579087
 20
1.352749759075304
 30
0.0
 10
614.4730904268802
 20
1.397515870213992
 30
0.0
 10
614.4613683895311
 20
1.44876178253175
 30
0.0
 10
614.5263240729164
 20
1.432240238902558
 30
0.0
 10
614.5929447729784
 20
1.443452134973829
 30
0.0
 10
614.7074267248029
 20
1.438100788341029
 30
0.0
 10
614.8238368826928
 20
1.441158308945555
 30
0.0
 10
614.9380574564607
 20
1.43603141134147
 30
0.0
 10
615.0053064829192
 20
1.44670375479037
 30
0.0
 10
615.0706240331402
 20
1.430667247925158
 30
0.0
 10
615.0564305838516
 20
1.492743278734922
 30
0.0
 10
615.0658973852961
 20
1.559114037522015
 30
0.0
 10
615.061318339405
 20
1.67564614865405
 30
0.0
 10
615.063061094591
 20
1.807513271458151
 30
0.0
 10
615.0620465885357
 20
1.949406022737125
 30
0.0
 10
615.0640105734337
 20
2.080936928260198
 30
0.0
 10
615.0587582943816
 20
2.198492194064418
 30
0.0
 10
615.0696323153437
 20
2.262724311250238
 30
0.0
 10
615.0542451031819
 20
2.324334446684871
 30
0.0
 10
615.1030505927766
 20
2.3102704950555
 30
0.0
 10
615.147690995469
 20
2.312793841987536
 30
0.0
 10
615.2161558336709
 20
2.308374395251487
 30
0.0
 10
615.2582020559068
 20
2.299376676674752
 30
0.0
 10
615.3110459148738
 20
2.307363569899461
 30
0.0
 10
615.2829949391979
 20
2.264385597351147
 30
0.0
 10
615.2372056638558
 20
2.275841941672749
 30
0.0
 10
615.2492453463229
 20
2.214981621285763
 30
0.0
 10
615.2419000460608
 20
2.150939415922121
 30
0.0
 10
615.2454110216125
 20
2.042340109873503
 30
0.0
 10
615.244272115014
 20
1.918189612681918
 30
0.0
 10
615.2442089170225
 20
1.785143619533168
 30
0.0
 10
615.2455787356834
 20
1.661220233729944
 30
0.0
 10
615.2414553191277
 20
1.551929799727768
 30
0.0
 10
615.250067749353
 20
1.489332222176087
 30
0.0
 10
615.2369671844366
 20
1.430647754198051
 30
0.0
 10
615.3016798718163
 20
1.446867559343414
 30
0.0
 10
615.368332034312
 20
1.435949025067497
 30
0.0
 10
615.4821693931068
 20
1.441183822971944
 30
0.0
 10
615.5980173512062
 20
1.43810189640352
 30
0.0
 10
615.7119838653247
 20
1.443429019359511
 30
0.0
 10
615.7783255408066
 20
1.432288502899809
 30
0.0
 10
615.8430102915445
 20
1.448716217166159
 30
0.0
 10
615.8312735162688
 20
1.397505673334894
 30
0.0
 10
615.8388082453005
 20
1.352749762444401
 30
0.0
 10
615.8312735382224
 20
1.307993811334674
 30
0.0
 10
615.8430102530702
 20
1.25678332994482
 30
0.0
 10
615.7783258465216
 20
1.273210699176601
 30
0.0
 10
615.7119800820792
 20
1.262074265707097
 30
0.0
 10
615.5980373876977
 20
1.267377580165599
 30
0.0
 10
615.4820910013021
 20
1.264394067169844
 30
0.0
 10
615.3685671272087
 20
1.269315343918332
 30
0.0
 10
615.3012145708772
 20
1.259097296369602
 30
0.0
 10
615.2357199512459
 20
1.274706382622526
 30
0.0
 10
615.2514628009185
 20
1.207884939508505
 30
0.0
 10
615.2406190388174
 20
1.135316999393188
 30
0.0
 10
615.2459496019757
 20
1.004868897378559
 30
0.0
 10
615.244005054182
 20
0.8538920030866497
 30
0.0
 10
615.2446048073177
 20
0.6864688605759771
 30
0.0
 10
615.2444420949569
 20
0.5198081824181056
 30
0.0
 10
615.2444809878101
 20
0.3668478504507452
 30
0.0
 10
615.2444730803063
 20
0.2417382110914381
 30
0.0
 10
615.2444742772711
 20
0.1583253311485801
 30
0.0
 10
615.2444742106175
 20
0.1181642040541444
 30
0.0
 10
615.2444741954348
 20
0.1073515950919557
 30
0.0
 11
615.2444741954348
 21
0.1073515950919557
 31
0.0
 11
615.2722929273639
 21
0.1073515950919557
 31
0.0
 11
615.3456332206317
 21
0.1073515950919557
 31
0.0
 11
615.4493212214588
 21
0.1073515950919557
 31
0.0
 11
615.5681830760652
 21
0.1073515950919557
 31
0.0
 11
615.6870449306716
 21
0.1073515950919557
 31
0.0
 11
615.7907329314987
 21
0.1073515950919557
 31
0.0
 11
615.8640732247665
 21
0.1073515950919557
 31
0.0
 11
615.8918919566956
 21
0.1073515950919557
 31
0.0
 11
615.8918919566956
 21
0.0797632704460805
 31
0.0
 11
615.8918919566956
 21
0.0190689562251549
 31
0.0
 11
615.8918919566956
 21
-0.0416253579957706
 31
0.0
 11
615.8918919566956
 21
-0.0692136826416458
 31
0.0
 11
615.8617815983459
 21
-0.0692136826416458
 31
0.0
 11
615.7785353134971
 21
-0.0692136826416458
 31
0.0
 11
615.6527802874488
 21
-0.0692136826416458
 31
0.0
 11
615.4951437055007
 21
-0.0692136826416458
 31
0.0
 11
615.316252752953
 21
-0.0692136826416458
 31
0.0
 11
615.1267346151055
 21
-0.0692136826416458
 31
0.0
 11
614.9372164772578
 21
-0.0692136826416458
 31
0.0
 11
614.7583255247101
 21
-0.0692136826416458
 31
0.0
 11
614.6006889427622
 21
-0.0692136826416458
 31
0.0
 11
614.4749339167138
 21
-0.0692136826416458
 31
0.0
 11
614.3916876318648
 21
-0.0692136826416458
 31
0.0
 11
614.3615772735152
 21
-0.0692136826416458
 31
0.0
 11
614.3615772735152
 21
-0.0416253579957706
 31
0.0
 11
614.3615772735152
 21
0.0190689562251549
 31
0.0
 11
614.3615772735152
 21
0.0797632704460805
 31
0.0
 11
614.3615772735152
 21
0.1073515950919557
 31
0.0
 11
614.3916982454912
 21
0.1073515950919557
 31
0.0
 11
614.4711080807004
 21
0.1073515950919557
 31
0.0
 11
614.5833771580654
 21
0.1073515950919557
 31
0.0
 11
614.7120758565082
 21
0.1073515950919557
 31
0.0
 11
614.840774554951
 21
0.1073515950919557
 31
0.0
 11
614.9530436323159
 21
0.1073515950919557
 31
0.0
 11
615.0324534675253
 21
0.1073515950919557
 31
0.0
 11
615.0625744395013
 21
0.1073515950919557
 31
0.0
 11
615.0625744395014
 21
0.1397894764727372
 31
0.0
 11
615.0625744395013
 21
0.227835154506288
 31
0.0
 11
615.0625744395013
 21
0.3575866800294145
 31
0.0
 11
615.0625744395013
 21
0.5151421038789266
 31
0.0
 11
615.0625744395013
 21
0.6865994768916294
 31
0.0
 11
615.0625744395013
 21
0.8580568499043323
 31
0.0
 11
615.0625744395013
 21
1.015612273753844
 31
0.0
 11
615.0625744395013
 21
1.145363799276971
 31
0.0
 11
615.0625744395013
 21
1.233409477310522
 31
0.0
 11
615.0625744395013
 21
1.265847358691303
 31
0.0
 11
615.0296740875492
 21
1.265847358691303
 31
0.0
 11
614.9448258114627
 21
1.265847358691303
 31
0.0
 11
614.8288087808953
 21
1.265847358691303
 31
0.0
 11
614.7024021655009
 21
1.265847358691303
 31
0.0
 11
614.5863851349335
 21
1.265847358691303
 31
0.0
 11
614.5015368588467
 21
1.265847358691303
 31
0.0
 11
614.4686365068949
 21
1.265847358691303
 31
0.0
 11
614.4686365068949
 21
1.293004357382425
 31
0.0
 11
614.4686365068949
 21
1.352749754502895
 31
0.0
 11
614.4686365068949
 21
1.412495151623365
 31
0.0
 11
614.4686365068949
 21
1.439652150314487
 31
0.0
 11
614.5015368588467
 21
1.439652150314487
 31
0.0
 11
614.5863851349334
 21
1.439652150314487
 31
0.0
 11
614.702402165501
 21
1.439652150314487
 31
0.0
 11
614.8288087808953
 21
1.439652150314487
 31
0.0
 11
614.9448258114627
 21
1.439652150314487
 31
0.0
 11
615.0296740875493
 21
1.439652150314487
 31
0.0
 11
615.0625744395013
 21
1.439652150314487
 31
0.0
 11
615.0625744395013
 21
1.469746538548084
 31
0.0
 11
615.0625744395013
 21
1.550399499014123
 31
0.0
 11
615.0625744395013
 21
1.66716572536048
 31
0.0
 11
615.0625744395012
 21
1.805599911235025
 31
0.0
 11
615.0625744395013
 21
1.951256750285633
 31
0.0
 11
615.0625744395013
 21
2.089690936160178
 31
0.0
 11
615.0625744395013
 21
2.206457162506535
 31
0.0
 11
615.0625744395013
 21
2.287110122972575
 31
0.0
 11
615.0625744395013
 21
2.317204511206171
 31
0.0
 11
615.0873319678583
 21
2.315529663428816
 31
0.0
 11
615.1463691508634
 21
2.311535795652045
 31
0.0
 11
615.216832885418
 21
2.306768921208803
 31
0.0
 11
615.275870068423
 21
2.302775053432033
 31
0.0
 11
615.30062759678
 21
2.301100205654677
 31
0.0
 11
615.2855981613995
 21
2.277404563299494
 31
0.0
 11
615.2444741954348
 21
2.263723400108432
 31
0.0
 11
615.2444741954348
 21
2.235463069182714
 31
0.0
 11
615.2444741954348
 21
2.159725382301789
 31
0.0
 11
615.2444741954348
 21
2.050075298310001
 31
0.0
 11
615.2444741954348
 21
1.920077776051697
 31
0.0
 11
615.2444741954347
 21
1.783297774371221
 31
0.0
 11
615.2444741954348
 21
1.653300252112918
 31
0.0
 11
615.2444741954348
 21
1.54365016812113
 31
0.0
 11
615.2444741954348
 21
1.467912481240205
 31
0.0
 11
615.2444741954348
 21
1.439652150314487
 31
0.0
 11
615.277226448608
 21
1.439652150314487
 31
0.0
 11
615.3616927857388
 21
1.439652150314487
 31
0.0
 11
615.4771875732442
 21
1.439652150314487
 31
0.0
 11
615.6030251775411
 21
1.439652150314487
 31
0.0
 11
615.7185199650464
 21
1.439652150314487
 31
0.0
 11
615.8029863021773
 21
1.439652150314487
 31
0.0
 11
615.8357385553504
 21
1.439652150314487
 31
0.0
 11
615.8357385553504
 21
1.412495151623365
 31
0.0
 11
615.8357385553504
 21
1.352749754502895
 31
0.0
 11
615.8357385553504
 21
1.293004357382425
 31
0.0
 11
615.8357385553504
 21
1.265847358691303
 31
0.0
 11
615.8029863021773
 21
1.265847358691303
 31
0.0
 11
615.7185199650464
 21
1.265847358691303
 31
0.0
 11
615.6030251775411
 21
1.265847358691303
 31
0.0
 11
615.4771875732442
 21
1.265847358691303
 31
0.0
 11
615.3616927857388
 21
1.265847358691303
 31
0.0
 11
615.277226448608
 21
1.265847358691303
 31
0.0
 11
615.2444741954348
 21
1.265847358691303
 31
0.0
 11
615.2444741954348
 21
1.23340947731052
 31
0.0
 11
615.2444741954347
 21
1.145363799276972
 31
0.0
 11
615.2444741954348
 21
1.015612273753843
 31
0.0
 11
615.2444741954348
 21
0.8580568499043352
 31
0.0
 11
615.2444741954348
 21
0.6865994768916294
 31
0.0
 11
615.2444741954348
 21
0.5151421038789236
 31
0.0
 11
615.2444741954348
 21
0.3575866800294158
 31
0.0
 11
615.2444741954348
 21
0.2278351545062871
 31
0.0
 11
615.2444741954348
 21
0.1397894764727383
 31
0.0
 11
615.2444741954348
 21
0.1073515950919557
 31
0.0
  0
SPLINE
  5
A6
102
{ACAD_REACTORS
330
C3
102
}
330
4A
100
AcDbEntity
  8
_U_30EC_U_30A4_U_30E4_U_30FC_1
  6
Continuous
 62
     2
100
AcDbSpline
210
0.0
220
0.0
230
1.0
 70
    11
 71
     3
 72
   131
 73
   127
 74
   125
 42
0.000000001
 43
0.0000000001
 44
0.00000001
 40
0.0
 40
0.0
 40
0.0
 40
0.0
 40
0.0195577029827097
 40
0.0426490537460915
 40
0.2863607575856133
 40
0.5344948436189434
 40
0.7842238845573156
 40
0.8737315789467801
 40
0.9803832810314452
 40
1.092842274517007
 40
1.199761146656811
 40
1.289788768186515
 40
1.351573580786165
 40
1.370727117561408
 40
1.41640093601779
 40
1.470914848355934
 40
1.516588666791694
 40
1.535742203552807
 40
1.634216592293015
 40
1.760283341174786
 40
1.897966686682001
 40
2.031216387368803
 40
2.049689751137798
 40
2.101115601646732
 40
2.179502577739851
 40
2.278859318313965
 40
2.393194462258623
 40
2.516516648383736
 40
2.642834515405862
 40
2.766156701983367
 40
2.880491846754479
 40
2.97984858835852
 40
3.058235565443697
 40
3.109661416668851
 40
3.128134780704028
 40
3.146783742386202
 40
3.191254343315092
 40
3.244332157315836
 40
3.288802758225626
 40
3.307451719894954
 40
3.327717853844566
 40
3.383747753579929
 40
3.468388665924322
 40
3.574487837698629
 40
3.694892515728735
 40
3.822449946851876
 40
3.950007377920267
 40
4.070412055800361
 40
4.176511227367918
 40
4.261152139501366
 40
4.317182039076557
 40
4.337448172964478
 40
4.620011002696097
 40
4.885096638397384
 40
4.945373043518139
 40
5.014107710488464
 40
5.070481727651917
 40
5.319246955636418
 40
5.584812164506016
 40
5.859000912056906
 40
6.133746937542038
 40
6.401732212968898
 40
6.420736683995404
 40
6.472845717451026
 40
6.550702743894238
 40
6.646951193874305
 40
6.754234497930714
 40
6.865196086587492
 40
6.972479390357979
 40
7.068727839772112
 40
7.146584865451235
 40
7.198693898189379
 40
7.21769836890552
 40
7.234950401630998
 40
7.276089864270041
 40
7.325191803516148
 40
7.366331266090535
 40
7.383583298769888
 40
7.40277916349218
 40
7.453386443254582
 40
7.524934666445726
 40
7.606953361406037
 40
7.688972056429217
 40
7.760520279784411
 40
7.811127559734625
 40
7.830323424546275
 40
7.847844055299904
 40
7.894799345666946
 40
7.962779392744634
 40
8.043374293560685
 40
8.128174145149593
 40
8.208769044817396
 40
8.2767490903771
 40
8.323704379669666
 40
8.341225010056398
 40
8.358497614800603
 40
8.401679126686751
 40
8.45781509218578
 40
8.513951057728242
 40
8.557132569708056
 40
8.574405174505241
 40
8.602340668616616
 40
8.643455660540127
 40
8.663225271966798
 40
8.71534515656444
 40
8.789031889628781
 40
8.873502045520512
 40
8.957972194324137
 40
9.031658925568031
 40
9.083778811234723
 40
9.103548423003186
 40
9.119550083123723
 40
9.160817522380054
 40
9.217244429110448
 40
9.278724491644876
 40
9.33515139829569
 40
9.376418837357843
 40
9.392420497300687
 40
9.40119630273496
 40
9.41749422938446
 40
9.426270027749704
 40
9.440875075477638
 40
9.475702496998965
 40
9.517270709866079
 40
9.552098131994223
 40
9.566703169884455
 40
9.566703169884455
 40
9.566703169884455
 40
9.566703169884455
 10
614.4793168538445
 20
1.763405136344659
 30
0.0
 10
614.4757259483337
 20
1.757783328255988
 30
0.0
 10
614.4678953513588
 20
1.745523965425616
 30
0.0
 10
614.3752883364516
 20
1.709265581643642
 30
0.0
 10
614.351053662321
 20
1.49473086336168
 30
0.0
 10
614.2481624235904
 20
1.315219266331467
 30
0.0
 10
613.984340675427
 20
1.129402159215825
 30
0.0
 10
614.1468385959145
 20
1.052839786895173
 30
0.0
 10
614.2230140150805
 20
0.9918133531889384
 30
0.0
 10
614.3115085462725
 20
0.9284044666818939
 30
0.0
 10
614.4012844623076
 20
0.8685027634300219
 30
0.0
 10
614.4506732026011
 20
0.8142679697265071
 30
0.0
 10
614.5368622547345
 20
0.7861088266526982
 30
0.0
 10
614.5034175064194
 20
0.7503795177625376
 30
0.0
 10
614.4837585556276
 20
0.7187503011534186
 30
0.0
 10
614.4542802607846
 20
0.6780051491951178
 30
0.0
 10
614.4311903835999
 20
0.6482930561307844
 30
0.0
 10
614.4003120358318
 20
0.5953606479194092
 30
0.0
 10
614.335210775571
 20
0.7206497706234148
 30
0.0
 10
614.2418914512383
 20
0.775385423573811
 30
0.0
 10
614.1573550675105
 20
0.8324106606277026
 30
0.0
 10
614.0345412515709
 20
0.9899992955096142
 30
0.0
 10
614.0387365237267
 20
0.9136044889027548
 30
0.0
 10
614.0374393042646
 20
0.8668592228473497
 30
0.0
 10
614.0381040838043
 20
0.7890942793604021
 30
0.0
 10
614.0378464376919
 20
0.6922671044786192
 30
0.0
 10
614.0379345629889
 20
0.5797492120224835
 30
0.0
 10
614.0378991692246
 20
0.4584872806913867
 30
0.0
 10
614.0379426148245
 20
0.3341153998240053
 30
0.0
 10
614.0378114332369
 20
0.2129232575477567
 30
0.0
 10
614.0382391952012
 20
0.1001579104318267
 30
0.0
 10
614.0369592592276
 20
0.0040755589218389
 30
0.0
 10
614.0402674241006
 20
-0.0756153140786138
 30
0.0
 10
614.0338112130055
 20
-0.1186018208777494
 30
0.0
 10
614.0429123095521
 20
-0.1571992550451347
 30
0.0
 10
614.0070824729901
 20
-0.1486447015249075
 30
0.0
 10
613.9738138205219
 20
-0.1533283789111414
 30
0.0
 10
613.9227476966007
 20
-0.1532405911677672
 30
0.0
 10
613.8892638362779
 20
-0.1488092759274001
 30
0.0
 10
613.8530499798719
 20
-0.1571456403405359
 30
0.0
 10
613.8632696958634
 20
-0.1153008069727705
 30
0.0
 10
613.8559402277733
 20
-0.0689679705638608
 30
0.0
 10
613.8596547526068
 20
0.0169947322945378
 30
0.0
 10
613.858239494486
 20
0.1192978482828906
 30
0.0
 10
613.8587019944605
 20
0.237778660549515
 30
0.0
 10
613.8585688076196
 20
0.3628232527679612
 30
0.0
 10
613.858593030001
 20
0.4880047023049008
 30
0.0
 10
613.8586269315517
 20
0.6061128750249828
 30
0.0
 10
613.8584974683097
 20
0.7095339083295662
 30
0.0
 10
613.8588421939047
 20
0.7925667827710726
 30
0.0
 10
613.8581612668653
 20
0.8446801064468393
 30
0.0
 10
613.8617500990595
 20
0.972375499448021
 30
0.0
 10
613.6449085776401
 20
0.6737335894306249
 30
0.0
 10
613.464426931191
 20
0.445886236349486
 30
0.0
 10
613.4113236685579
 20
0.5869808541325677
 30
0.0
 10
613.3823343523113
 20
0.6365040968438443
 30
0.0
 10
613.2819562452785
 20
0.7396642191353839
 30
0.0
 10
613.6028042113227
 20
0.8201967714722724
 30
0.0
 10
613.7312811395395
 20
1.003909251598694
 30
0.0
 10
613.9529368715325
 20
1.212566378951982
 30
0.0
 10
614.0393139284033
 20
1.386638533517897
 30
0.0
 10
614.3172308619039
 20
1.662916934659508
 30
0.0
 10
614.1969162229252
 20
1.65859201674554
 30
0.0
 10
614.1486111741316
 20
1.659394983259933
 30
0.0
 10
614.0725291844872
 20
1.658992242700239
 30
0.0
 10
613.9789924399715
 20
1.659149177350495
 30
0.0
 10
613.8740509178522
 20
1.659071446996642
 30
0.0
 10
613.7656802128683
 20
1.659201065019945
 30
0.0
 10
613.660436862586
 20
1.658790356141318
 30
0.0
 10
613.567915220938
 20
1.660067157950313
 30
0.0
 10
613.4891045190673
 20
1.656654086582897
 30
0.0
 10
613.4462588955345
 20
1.663479921597594
 30
0.0
 10
613.4072413976481
 20
1.653897063245635
 30
0.0
 10
613.414927966183
 20
1.687454216889825
 30
0.0
 10
613.4108378794276
 20
1.718481924456727
 30
0.0
 10
613.4108445758778
 20
1.765611713943402
 30
0.0
 10
613.4149154114878
 20
1.796655837702174
 30
0.0
 10
613.4072409964549
 20
1.830265037593386
 30
0.0
 10
613.4457733795459
 20
1.820730525443126
 30
0.0
 10
613.4864142404446
 20
1.827220776215105
 30
0.0
 10
613.5574386240428
 20
1.824247927736939
 30
0.0
 10
613.63522325396
 20
1.824994035225971
 30
0.0
 10
613.7130206636441
 20
1.825724561679654
 30
0.0
 10
613.7840146479871
 20
1.822788776376
 30
0.0
 10
613.8247194181786
 20
1.829201108963917
 30
0.0
 10
613.8632767879876
 20
1.819751662994427
 30
0.0
 10
613.8550257144892
 20
1.855893342822237
 30
0.0
 10
613.8605261059324
 20
1.894544797366666
 30
0.0
 10
613.857866859613
 20
1.962381706852788
 30
0.0
 10
613.85887298615
 20
2.0391628366218
 30
0.0
 10
613.8583092408284
 20
2.121740357061971
 30
0.0
 10
613.8593628916556
 20
2.198419713533183
 30
0.0
 10
613.8565590253095
 20
2.266566329001398
 30
0.0
 10
613.8623617111269
 20
2.30457041932788
 30
0.0
 10
613.8538568941125
 20
2.340830902010885
 30
0.0
 10
613.887852462309
 20
2.330803658952927
 30
0.0
 10
613.9217490073065
 20
2.333979089371468
 30
0.0
 10
613.9749583450309
 20
2.328336077640484
 30
0.0
 10
614.028368296445
 20
2.327594165598661
 30
0.0
 10
614.0618829039454
 20
2.321438656064185
 30
0.0
 10
614.1011000573005
 20
2.326706718970364
 30
0.0
 10
614.0743178088459
 20
2.28578022916932
 30
0.0
 10
614.0331025391689
 20
2.296958466615501
 30
0.0
 10
614.0405555930839
 20
2.251916983155644
 30
0.0
 10
614.0365142342152
 20
2.207369201515845
 30
0.0
 10
614.0384628439602
 20
2.135482147451433
 30
0.0
 10
614.0375279239727
 20
2.054932727122109
 30
0.0
 10
614.0388021579993
 20
1.974986375284346
 30
0.0
 10
614.035495818383
 20
1.901664792066226
 30
0.0
 10
614.0425020569927
 20
1.860132851260079
 30
0.0
 10
614.0324354770092
 20
1.820770606915526
 30
0.0
 10
614.0652729193888
 20
1.827927055544209
 30
0.0
 10
614.0987491686446
 20
1.823518852613841
 30
0.0
 10
614.1537967865984
 20
1.825425854713367
 30
0.0
 10
614.2112416985282
 20
1.825100085307279
 30
0.0
 10
614.2645940638274
 20
1.824309508565221
 30
0.0
 10
614.3021455286605
 20
1.826386012415122
 30
0.0
 10
614.3246086913201
 20
1.823469802905493
 30
0.0
 10
614.3374592463698
 20
1.828971947674942
 30
0.0
 10
614.3481170075852
 20
1.83125760321227
 30
0.0
 10
614.360955004011
 20
1.838196147114912
 30
0.0
 10
614.3768905423033
 20
1.821776884370987
 30
0.0
 10
614.403353831086
 20
1.81033764442897
 30
0.0
 10
614.4349719643724
 20
1.78969329958627
 30
0.0
 10
614.4610170282117
 20
1.774415117517314
 30
0.0
 10
614.4751432113939
 20
1.765916184466215
 30
0.0
 10
614.4793168538445
 20
1.763405136344659
 30
0.0
 11
614.4793168538445
 21
1.763405136344659
 31
0.0
 11
614.4672904392207
 21
1.747982132876277
 31
0.0
 11
614.447187618553
 21
1.736620483573574
 31
0.0
 11
614.3401900745779
 21
1.517652623545981
 31
0.0
 11
614.2099954324289
 21
1.306418436355997
 31
0.0
 11
614.0619454756036
 21
1.105307011509183
 31
0.0
 11
614.13578726437
 21
1.054720270588184
 31
0.0
 11
614.2228578701767
 21
0.9931305377717861
 31
0.0
 11
614.3140918140369
 21
0.9273780271786516
 31
0.0
 11
614.4004236169653
 21
0.8643029529274411
 31
0.0
 11
614.4727877999752
 21
0.8107455291368157
 31
0.0
 11
614.5221188840808
 21
0.7735459699254363
 31
0.0
 11
614.5109855092178
 21
0.7579605299293333
 31
0.0
 11
614.4844366922367
 21
0.7207952499386259
 31
0.0
 11
614.4527493945498
 21
0.676436689949717
 31
0.0
 11
614.4262005775688
 21
0.6392714099590097
 31
0.0
 11
614.4150672027058
 21
0.6236859699629065
 31
0.0
 11
614.3429927752915
 21
0.6907865081405653
 31
0.0
 11
614.2475771375348
 21
0.7731799629810823
 31
0.0
 11
614.1416178542136
 21
0.8610965949035503
 31
0.0
 11
614.0379124901056
 21
0.9447666643270622
 31
0.0
 11
614.0379124901056
 21
0.9262933002430244
 31
0.0
 11
614.0379124901057
 21
0.8748674488739455
 31
0.0
 11
614.0379124901057
 21
0.7964804715443796
 31
0.0
 11
614.0379124901054
 21
0.6971237295788789
 31
0.0
 11
614.0379124901056
 21
0.5827885843019948
 31
0.0
 11
614.0379124901056
 21
0.4594663970382828
 31
0.0
 11
614.0379124901056
 21
0.3331485291122943
 31
0.0
 11
614.0379124901056
 21
0.2098263418485823
 31
0.0
 11
614.0379124901056
 21
0.0954911965716982
 31
0.0
 11
614.0379124901056
 21
-0.0038655453938026
 31
0.0
 11
614.0379124901054
 21
-0.0822525227233693
 31
0.0
 11
614.0379124901056
 21
-0.1336783740924474
 31
0.0
 11
614.0379124901056
 21
-0.1521517381764852
 31
0.0
 11
614.0192635283593
 21
-0.1521517381764852
 31
0.0
 11
613.9747929272716
 21
-0.1521517381764852
 31
0.0
 11
613.9217151130701
 21
-0.1521517381764852
 31
0.0
 11
613.8772445119826
 21
-0.1521517381764852
 31
0.0
 11
613.858595550236
 21
-0.1521517381764852
 31
0.0
 11
613.8585955502361
 21
-0.1318856041634182
 31
0.0
 11
613.8585955502359
 21
-0.0758557042449379
 31
0.0
 11
613.8585955502359
 21
0.0087852083978719
 31
0.0
 11
613.858595550236
 21
0.1148843805839291
 31
0.0
 11
613.858595550236
 21
0.2352890591321526
 31
0.0
 11
613.858595550236
 21
0.3628464908614575
 31
0.0
 11
613.858595550236
 21
0.4904039225907623
 31
0.0
 11
613.858595550236
 21
0.6108086011389859
 31
0.0
 11
613.858595550236
 21
0.7169077733250431
 31
0.0
 11
613.858595550236
 21
0.8015486859678528
 31
0.0
 11
613.858595550236
 21
0.8575785858863332
 31
0.0
 11
613.858595550236
 21
0.8778447198994002
 31
0.0
 11
613.6506187239446
 21
0.6865664039749646
 31
0.0
 11
613.438640074839
 21
0.5273952755425171
 31
0.0
 11
613.4118543404448
 21
0.5813931407553463
 31
0.0
 11
613.376167980499
 21
0.6401378269546537
 31
0.0
 11
613.3422611884089
 21
0.6851751366141627
 31
0.0
 11
613.5453202132284
 21
0.828880293244936
 31
0.0
 11
613.7441446348225
 21
1.004930656534281
 31
0.0
 11
613.9299955834144
 21
1.206521566483897
 31
0.0
 11
614.0941341892269
 21
1.426848363095488
 31
0.0
 11
614.2278215824831
 21
1.659106386370752
 31
0.0
 11
614.2088171114449
 21
1.659106386370752
 31
0.0
 11
614.156708077953
 21
1.659106386370752
 31
0.0
 11
614.0788510514412
 21
1.659106386370752
 31
0.0
 11
613.9826026013445
 21
1.659106386370752
 31
0.0
 11
613.8753192970962
 21
1.659106386370752
 31
0.0
 11
613.7643577081311
 21
1.659106386370752
 31
0.0
 11
613.6570744038829
 21
1.659106386370752
 31
0.0
 11
613.560825953786
 21
1.659106386370752
 31
0.0
 11
613.4829689272744
 21
1.659106386370752
 31
0.0
 11
613.4308598937826
 21
1.659106386370752
 31
0.0
 11
613.4118554227443
 21
1.659106386370752
 31
0.0
 11
613.4118554227443
 21
1.676358419144218
 31
0.0
 11
613.4118554227443
 21
1.717497881911714
 31
0.0
 11
613.4118554227443
 21
1.766599821343886
 31
0.0
 11
613.4118554227443
 21
1.807739284111382
 31
0.0
 11
613.4118554227443
 21
1.824991316884848
 31
0.0
 11
613.4310512875975
 21
1.824991316884848
 31
0.0
 11
613.4816585676648
 21
1.824991316884848
 31
0.0
 11
613.5532067912086
 21
1.824991316884848
 31
0.0
 11
613.6352254864902
 21
1.824991316884848
 31
0.0
 11
613.7172441817719
 21
1.824991316884848
 31
0.0
 11
613.7887924053155
 21
1.824991316884848
 31
0.0
 11
613.8393996853829
 21
1.824991316884848
 31
0.0
 11
613.858595550236
 21
1.824991316884848
 31
0.0
 11
613.858595550236
 21
1.842511947786578
 31
0.0
 11
613.858595550236
 21
1.889467238603215
 31
0.0
 11
613.8585955502361
 21
1.957447286501931
 31
0.0
 11
613.858595550236
 21
2.03804218864989
 31
0.0
 11
613.858595550236
 21
2.122842042214265
 31
0.0
 11
613.858595550236
 21
2.203436944362226
 31
0.0
 11
613.858595550236
 21
2.27141699226094
 31
0.0
 11
613.858595550236
 21
2.318372283077578
 31
0.0
 11
613.858595550236
 21
2.335892913979308
 31
0.0
 11
613.8758398502076
 21
2.334904482909597
 31
0.0
 11
613.9189506001366
 21
2.332433405235319
 31
0.0
 11
613.9749945750442
 21
2.329221004258756
 31
0.0
 11
614.0310385499519
 21
2.326008603282194
 31
0.0
 11
614.0741492998808
 21
2.323537525607915
 31
0.0
 11
614.0913935998524
 21
2.322549094538204
 31
0.0
 11
614.0766689064817
 21
2.298809354960795
 31
0.0
 11
614.0379124901056
 21
2.285084094547528
 31
0.0
 11
614.0379124901056
 21
2.265314483007335
 31
0.0
 11
614.0379124901057
 21
2.213194598037734
 31
0.0
 11
614.0379124901056
 21
2.139507864115195
 31
0.0
 11
614.0379124901056
 21
2.055037705716188
 31
0.0
 11
614.0379124901056
 21
1.97056754731718
 31
0.0
 11
614.0379124901056
 21
1.896880813394642
 31
0.0
 11
614.0379124901056
 21
1.844760928425041
 31
0.0
 11
614.0379124901056
 21
1.824991316884848
 31
0.0
 11
614.0539141502901
 21
1.824991316884848
 31
0.0
 11
614.0951815897135
 21
1.824991316884848
 31
0.0
 11
614.1516084966803
 21
1.824991316884848
 31
0.0
 11
614.2130885594947
 21
1.824991316884848
 31
0.0
 11
614.2695154664614
 21
1.824991316884848
 31
0.0
 11
614.3107829058847
 21
1.824991316884848
 31
0.0
 11
614.3267845660694
 21
1.824991316884848
 31
0.0
 11
614.335112081289
 21
1.827760295793601
 31
0.0
 11
614.3505774666969
 21
1.832902685195572
 31
0.0
 11
614.3589049819166
 21
1.835671664104325
 31
0.0
 11
614.371427816597
 21
1.82815594521732
 31
0.0
 11
614.4012899608352
 21
1.810233846332923
 31
0.0
 11
614.4369318749259
 21
1.788842954116061
 31
0.0
 11
614.4667940191639
 21
1.770920855231664
 31
0.0
 11
614.4793168538445
 21
1.763405136344659
 31
0.0
  0
SPLINE
  5
A7
102
{ACAD_REACTORS
330
C4
102
}
330
4A
100
AcDbEntity
  8
_U_30EC_U_30A4_U_30E4_U_30FC_1
  6
Continuous
 62
     2
100
AcDbSpline
210
0.0
220
0.0
230
1.0
 70
    11
 71
     3
 72
    91
 73
    87
 74
    85
 42
0.000000001
 43
0.0000000001
 44
0.00000001
 40
0.0
 40
0.0
 40
0.0
 40
0.0
 40
0.026753225435669
 40
0.0856103386464078
 40
0.1444674521996586
 40
0.171220685661848
 40
0.2039416005643355
 40
0.2955601971652734
 40
0.4362601844617168
 40
0.6162252844506932
 40
0.8256392189705233
 40
1.054685709844407
 40
1.293548478893499
 40
1.532411247938271
 40
1.761457738799536
 40
1.970871673298562
 40
2.150836773256729
 40
2.291536760495647
 40
2.383155356836697
 40
2.415876284101373
 40
2.442629517488016
 40
2.501486630949146
 40
2.560343744424293
 40
2.587096977826565
 40
2.617068194441078
 40
2.699247336756191
 40
2.822032643466361
 40
2.97382235325809
 40
3.143014704823447
 40
3.318007936879969
 40
3.487200288186802
 40
3.63898999754834
 40
3.761775303794895
 40
3.843954445753145
 40
3.873925662229869
 40
3.890812773500467
 40
3.907699884771699
 40
3.937960767857336
 40
3.980983618142174
 40
4.199085915228265
 40
4.439444339237121
 40
4.677588241260716
 40
5.05069831783746
 40
5.448212454762846
 40
5.855291218044485
 40
6.138575438885221
 40
6.417434507583946
 40
6.444551104393702
 40
6.504207617362876
 40
6.563864130314096
 40
6.590980727103764
 40
6.848609460381187
 40
7.109611990668086
 40
7.352910904445771
 40
7.557830220705132
 40
7.587518925913002
 40
7.652834077375541
 40
7.718149228845429
 40
7.747837934061661
 40
7.854880190300686
 40
7.97651125740322
 40
8.369487896591936
 40
8.757514959223258
 40
9.126072419330777
 40
9.460639380391896
 40
9.746695593035495
 40
9.777569943118353
 40
9.80705032093142
 40
9.830377336128544
 40
9.886003295435616
 40
9.952395569429552
 40
10.00802152870589
 40
10.03134854388178
 40
10.21356951009532
 40
10.4220347929282
 40
10.66154556731018
 40
10.91693789564258
 40
11.15832906556517
 40
11.18982674596584
 40
11.27286608520359
 40
11.39026653033301
 40
11.52484752840843
 40
11.65942852648408
 40
11.77682897161441
 40
11.85986831085649
 40
11.89136598230386
 40
11.89136598230386
 40
11.89136598230386
 40
11.89136598230386
 10
610.5650799398161
 20
0.800242428252119
 30
0.0
 10
610.5651152155251
 20
0.8091248943542507
 30
0.0
 10
610.5652281100762
 20
0.8375487917078607
 30
0.0
 10
610.5635898958453
 20
0.8873428129324243
 30
0.0
 10
610.5692664682877
 20
0.9298220660159442
 30
0.0
 10
610.557984312167
 20
0.9805479698028916
 30
0.0
 10
610.6255211368998
 20
0.9633754286354823
 30
0.0
 10
610.7010943600666
 20
0.9761486928943527
 30
0.0
 10
610.8451271445965
 20
0.9695437158082152
 30
0.0
 10
611.019233357539
 20
0.9721310432990516
 30
0.0
 10
611.2262514000968
 20
0.9712523407899231
 30
0.0
 10
611.4517602562343
 20
0.9715285004346675
 30
0.0
 10
611.6874076683371
 20
0.9714298178210173
 30
0.0
 10
611.9230554921312
 20
0.9715282653620698
 30
0.0
 10
612.148563197059
 20
0.971253203142278
 30
0.0
 10
612.3555849022771
 20
0.9721282839417441
 30
0.0
 10
612.5296803305255
 20
0.9695516480188566
 30
0.0
 10
612.6737406461949
 20
0.9761293257265281
 30
0.0
 10
612.7492606305259
 20
0.9634088552904382
 30
0.0
 10
612.8168690426995
 20
0.980510423151277
 30
0.0
 10
612.8053754530642
 20
0.9299942792638036
 30
0.0
 10
612.8128018971697
 20
0.885778943499409
 30
0.0
 10
612.8051753317952
 20
0.8419260862704901
 30
0.0
 10
612.8169403849389
 20
0.7920301660276466
 30
0.0
 10
612.7553702881949
 20
0.8071786983595267
 30
0.0
 10
612.6879706128636
 20
0.7963530747411344
 30
0.0
 10
612.5635918446186
 20
0.8017667374967642
 30
0.0
 10
612.4177342626537
 20
0.7997384751422479
 30
0.0
 10
612.251649083005
 20
0.8004041970182666
 30
0.0
 10
612.0811327011692
 20
0.800142856446817
 30
0.0
 10
611.9142705245351
 20
0.8004619551453387
 30
0.0
 10
611.7710261217072
 20
0.7995994471420149
 30
0.0
 10
611.6396228259797
 20
0.8018794260642937
 30
0.0
 10
611.5862773524624
 20
0.7973234649763946
 30
0.0
 10
611.5108102846876
 20
0.8032455711631977
 30
0.0
 10
611.5391990169197
 20
0.7941881146679006
 30
0.0
 10
611.5656566799507
 20
0.7905055439237284
 30
0.0
 10
611.5256437297668
 20
0.7597891409171934
 30
0.0
 10
611.4336578081832
 20
0.7699223329805638
 30
0.0
 10
611.4062310597038
 20
0.5235714437121869
 30
0.0
 10
611.3101708357199
 20
0.3682420088782125
 30
0.0
 10
611.0540192354442
 20
0.0385006005500962
 30
0.0
 10
611.6250452122729
 20
0.1775466433389336
 30
0.0
 10
611.8796570710482
 20
0.1761642209680094
 30
0.0
 10
612.4902561438585
 20
0.0911521136553188
 30
0.0
 10
612.196361296805
 20
0.3901005968162509
 30
0.0
 10
611.8756218676481
 20
0.536554990252406
 30
0.0
 10
611.9936457750401
 20
0.593501829417211
 30
0.0
 10
612.0347630856227
 20
0.6174474199678904
 30
0.0
 10
612.0779726784376
 20
0.6392440093467551
 30
0.0
 10
612.1797488484419
 20
0.7025336337733037
 30
0.0
 10
612.2951782015214
 20
0.4447179353223311
 30
0.0
 10
612.4952506032242
 20
0.3094068323711701
 30
0.0
 10
612.5891991777196
 20
0.1311743726232051
 30
0.0
 10
612.8181744136355
 20
-0.0267753684950393
 30
0.0
 10
612.7218946236675
 20
-0.0775938530026725
 30
0.0
 10
612.6790874153745
 20
-0.1079406535350071
 30
0.0
 10
612.6341157918744
 20
-0.132092275951012
 30
0.0
 10
612.5744635315182
 20
-0.1812321112899739
 30
0.0
 10
612.5412645451287
 20
-0.0467788220295304
 30
0.0
 10
612.4204927740764
 20
0.1091890741001609
 30
0.0
 10
612.0593890395945
 20
-0.0210542981700432
 30
0.0
 10
611.7007976345504
 20
-0.0045066346707589
 30
0.0
 10
611.3193834840046
 20
-0.0134412852469781
 30
0.0
 10
611.0326369672853
 20
-0.077926862041396
 30
0.0
 10
610.7214969989686
 20
0.0355531031624006
 30
0.0
 10
610.6891652208752
 20
-0.0755309794878816
 30
0.0
 10
610.6519092643284
 20
-0.0947904402654612
 30
0.0
 10
610.6488652022717
 20
-0.0480057378926152
 30
0.0
 10
610.6302807250574
 20
-0.0086850395742342
 30
0.0
 10
610.6135351006742
 20
0.0509062560167019
 30
0.0
 10
610.6006645305719
 20
0.0952661199472151
 30
0.0
 10
610.5665242196394
 20
0.1843097324364137
 30
0.0
 10
610.8105628847717
 20
0.1150568506720426
 30
0.0
 10
611.0064308876638
 20
0.0935501118118468
 30
0.0
 10
611.1018340771244
 20
0.3755112660189802
 30
0.0
 10
611.1568050159558
 20
0.5368768754456422
 30
0.0
 10
611.3782533747127
 20
0.8071581971318043
 30
0.0
 10
611.2472153771179
 20
0.7987308897717402
 30
0.0
 10
611.173294094582
 20
0.8010365062041004
 30
0.0
 10
611.0600374266209
 20
0.7999602044509738
 30
0.0
 10
610.931716619745
 20
0.8003228119994948
 30
0.0
 10
610.802716642038
 20
0.8002236658952562
 30
0.0
 10
610.6910755336255
 20
0.8002457483601202
 30
0.0
 10
610.6137578359991
 20
0.8002422131310984
 30
0.0
 10
610.5755790921975
 20
0.8002423796852091
 30
0.0
 10
610.5650799398161
 20
0.800242428252119
 30
0.0
 11
610.5650799398161
 21
0.800242428252119
 31
0.0
 11
610.5650799398161
 21
0.826995661752373
 31
0.0
 11
610.5650799398161
 21
0.885852775452932
 31
0.0
 11
610.5650799398161
 21
0.9447098891534909
 31
0.0
 11
610.5650799398161
 21
0.9714631226537449
 31
0.0
 11
610.5978008670954
 21
0.9714631226537449
 31
0.0
 11
610.6894194634774
 21
0.971463122653745
 31
0.0
 11
610.8301194507784
 21
0.9714631226537449
 31
0.0
 11
611.0100845508144
 21
0.9714631226537449
 31
0.0
 11
611.2194984854019
 21
0.9714631226537449
 31
0.0
 11
611.4485449763569
 21
0.9714631226537449
 31
0.0
 11
611.6874077454958
 21
0.9714631226537449
 31
0.0
 11
611.9262705146346
 21
0.9714631226537449
 31
0.0
 11
612.1553170055896
 21
0.9714631226537449
 31
0.0
 11
612.3647309401771
 21
0.9714631226537449
 31
0.0
 11
612.5446960402132
 21
0.971463122653745
 31
0.0
 11
612.6853960275141
 21
0.9714631226537449
 31
0.0
 11
612.7770146238961
 21
0.9714631226537449
 31
0.0
 11
612.8097355511754
 21
0.9714631226537449
 31
0.0
 11
612.8097355511755
 21
0.9447098891534909
 31
0.0
 11
612.8097355511754
 21
0.885852775452932
 31
0.0
 11
612.8097355511754
 21
0.826995661752373
 31
0.0
 11
612.8097355511754
 21
0.800242428252119
 31
0.0
 11
612.7797643344722
 21
0.8002424282521191
 31
0.0
 11
612.6975851918992
 21
0.800242428252119
 31
0.0
 11
612.5747998847605
 21
0.8002424282521189
 31
0.0
 11
612.4230101743607
 21
0.8002424282521191
 31
0.0
 11
612.2538178220043
 21
0.800242428252119
 31
0.0
 11
612.0788245889956
 21
0.8002424282521191
 31
0.0
 11
611.9096322366391
 21
0.800242428252119
 31
0.0
 11
611.7578425262393
 21
0.800242428252119
 31
0.0
 11
611.6350572191006
 21
0.800242428252119
 31
0.0
 11
611.5528780765276
 21
0.800242428252119
 31
0.0
 11
611.5229068598244
 21
0.800242428252119
 31
0.0
 11
611.5389273802489
 21
0.7949022546423379
 31
0.0
 11
611.5549479006736
 21
0.7895620810325568
 31
0.0
 11
611.5329070071385
 21
0.7688275671488185
 31
0.0
 11
611.4907776245329
 21
0.7601051365954845
 31
0.0
 11
611.3988149931345
 21
0.5623388943609623
 31
0.0
 11
611.2901992911729
 21
0.3479215410194791
 31
0.0
 11
611.1750415214774
 21
0.1394720117505983
 31
0.0
 11
611.5480281064986
 21
0.1490708337646896
 31
0.0
 11
611.9453614426116
 21
0.1610587452843525
 31
0.0
 11
612.3522256581111
 21
0.1742735395197315
 31
0.0
 11
612.1606033886944
 21
0.3829140342592012
 31
0.0
 11
611.9589666403665
 21
0.575540622752726
 31
0.0
 11
611.9827862184717
 21
0.5884996939300491
 31
0.0
 11
612.0351892903028
 21
0.6170096505201599
 31
0.0
 11
612.0875923621339
 21
0.6455196071102707
 31
0.0
 11
612.1114119402391
 21
0.6584786782875938
 31
0.0
 11
612.3010015948594
 21
0.4840415049370761
 31
0.0
 11
612.4823225330401
 21
0.29630488497531
 31
0.0
 11
612.6400643621114
 21
0.1110702311587564
 31
0.0
 11
612.7589166894024
 21
-0.0558610437561242
 31
0.0
 11
612.733832260789
 21
-0.0717415559049268
 31
0.0
 11
612.6786465178391
 21
-0.1066786826322925
 31
0.0
 11
612.6234607748894
 21
-0.1416158093596582
 31
0.0
 11
612.5983763462759
 21
-0.1574963215084608
 31
0.0
 11
612.5398432541577
 21
-0.0678753319475156
 31
0.0
 11
612.4672929468422
 21
0.0297493034447029
 31
0.0
 11
612.0748327314061
 21
0.0096092906719862
 31
0.0
 11
611.6872388459526
 21
-0.0087205487678662
 31
0.0
 11
611.3190293366179
 21
-0.0247317915416395
 31
0.0
 11
610.9847222495378
 21
-0.0379160143161194
 31
0.0
 11
610.6988356308484
 21
-0.0477647937580912
 31
0.0
 11
610.6834776711705
 21
-0.0745483440986519
 31
0.0
 11
610.6560348680512
 21
-0.0853179881931396
 31
0.0
 11
610.6490841582284
 21
-0.0630505843098196
 31
0.0
 11
610.6325093886514
 21
-0.0099513904342097
 31
0.0
 11
610.6127265991561
 21
0.0534250667721629
 31
0.0
 11
610.5961518295791
 21
0.1065242606477728
 31
0.0
 11
610.5892011197564
 21
0.1287916645310929
 31
0.0
 11
610.7714114249118
 21
0.1307628103639189
 31
0.0
 11
610.9797890238553
 21
0.1368085395291132
 31
0.0
 11
611.0926117517182
 21
0.3480819242499317
 31
0.0
 11
611.2030851112
 21
0.5783445527931909
 31
0.0
 11
611.2981168655592
 21
0.800242428252119
 31
0.0
 11
611.2666191851562
 21
0.800242428252119
 31
0.0
 11
611.1835798459118
 21
0.800242428252119
 31
0.0
 11
611.0661794007733
 21
0.800242428252119
 31
0.0
 11
610.9315984026877
 21
0.800242428252119
 31
0.0
 11
610.797017404602
 21
0.800242428252119
 31
0.0
 11
610.6796169594635
 21
0.800242428252119
 31
0.0
 11
610.596577620219
 21
0.800242428252119
 31
0.0
 11
610.5650799398161
 21
0.800242428252119
 31
0.0
  0
SPLINE
  5
A8
102
{ACAD_REACTORS
330
C5
102
}
330
4A
100
AcDbEntity
  8
_U_30EC_U_30A4_U_30E4_U_30FC_1
  6
Continuous
 62
     2
100
AcDbSpline
210
0.0
220
0.0
230
1.0
 70
    11
 71
     3
 72
    35
 73
    31
 74
    29
 42
0.000000001
 43
0.0000000001
 44
0.00000001
 40
0.0
 40
0.0
 40
0.0
 40
0.0
 40
0.0335231036620112
 40
0.0713218571711983
 40
0.4278866681486513
 40
0.8116865841965278
 40
1.19819023800007
 40
1.561379546812801
 40
1.659983174622139
 40
1.759315573807355
 40
2.132719617231238
 40
2.525233363588875
 40
2.910815397779725
 40
3.26524436430339
 40
3.592606723582117
 40
3.964386154604129
 40
4.359942131737863
 40
4.7581541186394
 40
4.843846538700005
 40
4.936650065543335
 40
5.256616602537393
 40
5.581707404416199
 40
5.8997191583084
 40
6.198363494280884
 40
6.466301046615916
 40
6.493895311537238
 40
6.559697020197031
 40
6.638234543442605
 40
6.704036252154159
 40
6.731630508423022
 40
6.731630508423022
 40
6.731630508423022
 40
6.731630508423022
 10
611.8358924958634
 20
2.327884858425733
 30
0.0
 10
611.8298920487754
 20
2.318053326657613
 30
0.0
 10
611.8171258489123
 20
2.297136307032336
 30
0.0
 10
611.6572276396511
 20
2.264517686561498
 30
0.0
 10
612.0944940232305
 20
1.975313224601197
 30
0.0
 10
612.2968309218228
 20
1.773657804818941
 30
0.0
 10
612.5442478657939
 20
1.530740297267047
 30
0.0
 10
613.0454428014574
 20
1.453723048812221
 30
0.0
 10
612.8748476588936
 20
1.312015812980916
 30
0.0
 10
612.8006213853166
 20
1.110350083325562
 30
0.0
 10
612.4754346638156
 20
1.462809292981548
 30
0.0
 10
612.1900656060628
 20
1.624998546830059
 30
0.0
 10
611.8960518467627
 20
1.830117721764924
 30
0.0
 10
611.6707367081099
 20
2.311521307188966
 30
0.0
 10
611.4615999445488
 20
1.846676887326589
 30
0.0
 10
611.1830788064799
 20
1.636755943763577
 30
0.0
 10
610.8994297567175
 20
1.467490984834185
 30
0.0
 10
610.5701553917798
 20
1.094670030313711
 30
0.0
 10
610.489992670819
 20
1.290326565824425
 30
0.0
 10
610.338263929971
 20
1.418157463140302
 30
0.0
 10
610.7706310216761
 20
1.497786738893785
 30
0.0
 10
610.9585479719731
 20
1.693512770389147
 30
0.0
 10
611.209139181047
 20
1.909576390401845
 30
0.0
 10
611.4337264860128
 20
2.075156344235051
 30
0.0
 10
611.4882689799679
 20
2.354586067602655
 30
0.0
 10
611.6117575418978
 20
2.34062592531517
 30
0.0
 10
611.6683187734486
 20
2.33845910991086
 30
0.0
 10
611.738478537491
 20
2.333715020048001
 30
0.0
 10
611.795632841207
 20
2.330340714739794
 30
0.0
 10
611.8267104710804
 20
2.328444968345581
 30
0.0
 10
611.8358924958634
 20
2.327884858425733
 30
0.0
 11
611.8358924958634
 21
2.327884858425733
 31
0.0
 11
611.814823345985
 21
2.301810170932246
 31
0.0
 11
611.779737894939
 21
2.287747566769099
 31
0.0
 11
612.0135289159059
 21
2.018526032548217
 31
0.0
 11
612.3037500347533
 21
1.76738050092699
 31
0.0
 11
612.623571187365
 21
1.550356297422232
 31
0.0
 11
612.9461623096256
 21
1.38349874755076
 31
0.0
 11
612.8836214258042
 21
1.307266777083687
 31
0.0
 11
612.831095020894
 21
1.22295840036864
 31
0.0
 11
612.5059193485779
 21
1.406510469550195
 31
0.0
 11
612.1860142158403
 21
1.633947818668681
 31
0.0
 11
611.8977114548575
 21
1.889984972467503
 31
0.0
 11
611.6673428978061
 21
2.159336455690067
 31
0.0
 11
611.4618446109482
 21
1.904509908444761
 31
0.0
 11
611.1911215731501
 21
1.649698244011955
 31
0.0
 11
610.8742452813212
 21
1.41294108478295
 31
0.0
 11
610.5302872323707
 21
1.212278053149049
 31
0.0
 11
610.4841769731304
 21
1.28450709826993
 31
0.0
 11
610.4259884850314
 21
1.356802289224049
 31
0.0
 11
610.7055954878981
 21
1.512360990851836
 31
0.0
 11
610.9715919011121
 21
1.699256519138444
 31
0.0
 11
611.2122911849714
 21
1.907091384086478
 31
0.0
 11
611.4160067997741
 21
2.125468095698546
 31
0.0
 11
611.5710522058184
 21
2.343989163977255
 31
0.0
 11
611.5985955959832
 21
2.342314316199896
 31
0.0
 11
611.6642759879143
 21
2.338320448423119
 31
0.0
 11
611.7426687137677
 21
2.333553573979869
 31
0.0
 11
611.8083491056987
 21
2.329559706203091
 31
0.0
 11
611.8358924958634
 21
2.327884858425733
 31
0.0
  0
SPLINE
  5
A9
102
{ACAD_REACTORS
330
C6
102
}
330
4A
100
AcDbEntity
  8
_U_30EC_U_30A4_U_30E4_U_30FC_1
  6
Continuous
 62
     2
100
AcDbSpline
210
0.0
220
0.0
230
1.0
 70
    11
 71
     3
 72
    15
 73
    11
 74
     9
 42
0.000000001
 43
0.0000000001
 44
0.00000001
 40
0.0
 40
0.0
 40
0.0
 40
0.0
 40
0.2785535985097458
 40
0.5215624748200172
 40
0.6076917376042843
 40
0.6938210001743584
 40
0.9405019146457843
 40
1.22169140348938
 40
1.300471877081347
 40
1.379252341685073
 40
1.379252341685073
 40
1.379252341685073
 40
1.379252341685073
 10
609.4304408020964
 20
2.322549094538204
 30
0.0
 10
609.4918932184144
 20
2.270162887161557
 30
0.0
 10
609.606956436408
 20
2.172075189216667
 30
0.0
 10
609.9020262887211
 20
2.022144280206529
 30
0.0
 10
609.7648062021822
 20
1.936678696384588
 30
0.0
 10
609.6664142233744
 20
1.804104273249922
 30
0.0
 10
609.5752947980615
 20
2.109416279048561
 30
0.0
 10
609.2259753870619
 20
2.172925115888188
 30
0.0
 10
609.3742172766536
 20
2.272211520043128
 30
0.0
 10
609.4116996264203
 20
2.305769905258227
 30
0.0
 10
609.4304408020964
 20
2.322549094538204
 30
0.0
 11
609.4304408020964
 21
2.322549094538204
 31
0.0
 11
609.6542136830562
 21
2.156664164024122
 31
0.0
 11
609.831796069635
 21
1.99077923351004
 31
0.0
 11
609.7689222517945
 21
1.931913851580319
 31
0.0
 11
609.706048433954
 21
1.873048469650598
 31
0.0
 11
609.531144950769
 21
2.047003191829315
 31
0.0
 11
609.3101171246105
 21
2.220825622341408
 31
0.0
 11
609.3702789633535
 21
2.271687358439806
 31
0.0
 11
609.4304408020964
 21
2.322549094538204
 31
0.0
  0
SPLINE
  5
AA
102
{ACAD_REACTORS
330
C7
102
}
330
4A
100
AcDbEntity
  8
_U_30EC_U_30A4_U_30E4_U_30FC_1
  6
Continuous
 62
     2
100
AcDbSpline
210
0.0
220
0.0
230
1.0
 70
    11
 71
     3
 72
    75
 73
    71
 74
    69
 42
0.000000001
 43
0.0000000001
 44
0.00000001
 40
0.0
 40
0.0
 40
0.0
 40
0.0
 40
0.0342546099129687
 40
0.1245622414432346
 40
0.2522385480897524
 40
0.3985991922940668
 40
0.5449598364980814
 40
0.6726361431438819
 40
0.762943774673692
 40
0.7971983935297948
 40
1.101723623449657
 40
1.408591244036742
 40
1.43333247169045
 40
1.487763172450242
 40
1.542193873082073
 40
1.566935100592611
 40
1.923523931821809
 40
2.271755704953497
 40
2.590579755100877
 40
2.858943305581108
 40
2.889120339309139
 40
2.918305855191089
 40
2.941366645531201
 40
2.996357760973099
 40
3.061992318140661
 40
3.116983433626799
 40
3.140044223997497
 40
3.411273122936336
 40
3.732441619741002
 40
3.761068217532699
 40
3.837787499630262
 40
3.948858699125901
 40
4.080541049104278
 40
4.21909378262566
 40
4.350776132722208
 40
4.461847332405543
 40
4.538566614678273
 40
4.56719321254452
 40
4.59490757399892
 40
4.666381453557346
 40
4.764111044010814
 40
4.870592538125674
 40
4.968322128642125
 40
5.039796008286725
 40
5.067510369784213
 40
5.094263603185425
 40
5.15312071666806
 40
5.211977830150507
 40
5.238731063551511
 40
5.272290535138693
 40
5.363380529444583
 40
5.49761841578126
 40
5.660621563453645
 40
5.83800734174926
 40
6.015393119910612
 40
6.178396267038095
 40
6.312634151842047
 40
6.403724143059065
 40
6.437283612672188
 40
6.464036846260805
 40
6.522893960004421
 40
6.581751071483686
 40
6.608504301590632
 40
6.637253941280836
 40
6.71139774890263
 40
6.812778057283243
 40
6.923237199248991
 40
7.024617507623805
 40
7.098761315207515
 40
7.127510946007408
 40
7.127510946007408
 40
7.127510946007408
 40
7.127510946007408
 10
608.3041536780529
 20
1.051737705967042
 30
0.0
 10
608.304153720967
 20
1.040319555321602
 30
0.0
 10
608.3041538871097
 20
0.9987989996606882
 30
0.0
 10
608.304150747175
 20
0.9147156412721196
 30
0.0
 10
608.3041702669768
 20
0.7932913944576834
 30
0.0
 10
608.3040826577701
 20
0.6530513617088796
 30
0.0
 10
608.3044030625198
 20
0.5133119891801635
 30
0.0
 10
608.3034520299702
 20
0.3906968101836881
 30
0.0
 10
608.3054892985934
 20
0.3091171656148317
 30
0.0
 10
608.2972347568705
 20
0.1559590920113783
 30
0.0
 10
608.6053712330865
 20
0.31884878178164
 30
0.0
 10
608.8973559563708
 20
0.4880758081144283
 30
0.0
 10
608.9031268838672
 20
0.3529787790534975
 30
0.0
 10
608.9078386109858
 20
0.3094186328388182
 30
0.0
 10
608.9105449801883
 20
0.2653589147398459
 30
0.0
 10
608.929546006292
 20
0.1159723248656883
 30
0.0
 10
608.520685663727
 20
0.1800581436470423
 30
0.0
 10
608.2416624738797
 20
0.0662098353445107
 30
0.0
 10
607.9640995977131
 20
-0.0331126206541314
 30
0.0
 10
607.6722751574371
 20
0.0095532971978968
 30
0.0
 10
607.6492059068622
 20
-0.09353678132018
 30
0.0
 10
607.6160388773299
 20
-0.1198426663209138
 30
0.0
 10
607.6103568352705
 20
-0.0722004884025483
 30
0.0
 10
607.5907128949009
 20
-0.0349502176149065
 30
0.0
 10
607.5718003875587
 20
0.0233202997099722
 30
0.0
 10
607.5565764257675
 20
0.0670984313124781
 30
0.0
 10
607.5100160762897
 20
0.1808406316973835
 30
0.0
 10
607.8513811702418
 20
0.1490094324349331
 30
0.0
 10
608.1302563757351
 20
0.1148607722991885
 30
0.0
 10
608.1240667424872
 20
0.2623861860309264
 30
0.0
 10
608.125384984274
 20
0.3333779303227265
 30
0.0
 10
608.1247746079911
 20
0.4404441008210207
 30
0.0
 10
608.1248785960688
 20
0.5672317190943815
 30
0.0
 10
608.1252902354021
 20
0.7017388561949025
 30
0.0
 10
608.1236822231933
 20
0.8272019207462489
 30
0.0
 10
608.1282816957888
 20
0.9382988884255635
 30
0.0
 10
608.1187100892176
 20
1.000865289241302
 30
0.0
 10
608.1326916173656
 20
1.059200304184454
 30
0.0
 10
608.077029877667
 20
1.046143527056777
 30
0.0
 10
608.0198569587785
 20
1.054609498729386
 30
0.0
 10
607.9238963315613
 20
1.05054618204076
 30
0.0
 10
607.8256681912786
 20
1.052955319759146
 30
0.0
 10
607.7295496847526
 20
1.04876242736828
 30
0.0
 10
607.6727562915778
 20
1.057539885646024
 30
0.0
 10
607.6173271263351
 20
1.044195789735601
 30
0.0
 10
607.6293593817883
 20
1.093615530826964
 30
0.0
 10
607.6214917563904
 20
1.137186301538357
 30
0.0
 10
607.6289209953795
 20
1.181551112419648
 30
0.0
 10
607.617484495411
 20
1.232269398874288
 30
0.0
 10
607.68550167601
 20
1.214871028811838
 30
0.0
 10
607.7591411269711
 20
1.227420923606278
 30
0.0
 10
607.8947978448178
 20
1.221243191345374
 30
0.0
 10
608.0507823414491
 20
1.223538452165235
 30
0.0
 10
608.2238840748112
 20
1.222656103859702
 30
0.0
 10
608.3969857354148
 20
1.223538492658479
 30
0.0
 10
608.5529704201181
 20
1.221243050789899
 30
0.0
 10
608.6886266279764
 20
1.227421283858714
 30
0.0
 10
608.7622671095617
 20
1.214870363417746
 30
0.0
 10
608.830282856469
 20
1.232270151355834
 30
0.0
 10
608.8188505275889
 20
1.181547725379952
 30
0.0
 10
608.8262453848264
 20
1.137217029345482
 30
0.0
 10
608.8184954302235
 20
1.093529496736356
 30
0.0
 10
608.8304118131845
 20
1.043882322219151
 30
0.0
 10
608.7731084613581
 20
1.057860534618656
 30
0.0
 10
608.7143060179739
 20
1.048643977966941
 30
0.0
 10
608.6148208023166
 20
1.052769102883693
 30
0.0
 10
608.5117194488316
 20
1.051474021493274
 30
0.0
 10
608.4160760744539
 20
1.051787192010809
 30
0.0
 10
608.3480382361581
 20
1.051734188205852
 30
0.0
 10
608.3137376603406
 20
1.051736939950959
 30
0.0
 10
608.3041536780529
 20
1.051737705967042
 30
0.0
 11
608.3041536780529
 21
1.051737705967042
 31
0.0
 11
608.3041536780529
 21
1.017483087106248
 31
0.0
 11
608.3041536780529
 21
0.9271754555641534
 31
0.0
 11
608.304153678053
 21
0.7994991489011927
 31
0.0
 11
608.3041536780529
 21
0.6531385046777983
 31
0.0
 11
608.3041536780529
 21
0.5067778604544042
 31
0.0
 11
608.3041536780529
 21
0.3791015537914433
 31
0.0
 11
608.3041536780529
 21
0.288793922249349
 31
0.0
 11
608.3041536780529
 21
0.2545393033885546
 31
0.0
 11
608.6014847034533
 21
0.3203411783720789
 31
0.0
 11
608.9007538017211
 21
0.3882068033551036
 31
0.0
 11
608.9028401514943
 21
0.363553700062659
 31
0.0
 11
608.9074301209952
 21
0.3093168728192808
 31
0.0
 11
608.9120200904962
 21
0.2550800455759026
 31
0.0
 11
608.9141064402693
 21
0.230426942283458
 31
0.0
 11
608.5679311279206
 21
0.1448801226433738
 31
0.0
 11
608.2292567528805
 21
0.0638551975334174
 31
0.0
 11
607.9186645906653
 21
-0.0081259385163048
 31
0.0
 11
607.6567359167921
 21
-0.0665413909756865
 31
0.0
 11
607.6440429419257
 21
-0.0939191513854674
 31
0.0
 11
607.6192709177478
 21
-0.1093509742982519
 31
0.0
 11
607.6114781979467
 21
-0.0876467448592391
 31
0.0
 11
607.5928955584208
 21
-0.0358905054277469
 31
0.0
 11
607.5707162789865
 21
0.0258830706679047
 31
0.0
 11
607.5521336394606
 21
0.0776393100993969
 31
0.0
 11
607.5443409196594
 21
0.0993435395384097
 31
0.0
 11
607.8105690725897
 21
0.1511864388310577
 31
0.0
 11
608.1249249326254
 21
0.2169861089535061
 31
0.0
 11
608.1249249326254
 21
0.2456127069306505
 31
0.0
 11
608.1249249326255
 21
0.3223319895093982
 31
0.0
 11
608.1249249326253
 21
0.4334031896607188
 31
0.0
 11
608.1249249326253
 21
0.5650855403555844
 31
0.0
 11
608.1249249326254
 21
0.7036382745649638
 31
0.0
 11
608.1249249326254
 21
0.8353206252598294
 31
0.0
 11
608.1249249326254
 21
0.9463918254111499
 31
0.0
 11
608.1249249326254
 21
1.023111107989898
 31
0.0
 11
608.1249249326254
 21
1.051737705967042
 31
0.0
 11
608.0972105711072
 21
1.051737705967042
 31
0.0
 11
608.0257366914028
 21
1.051737705967042
 31
0.0
 11
607.9280071007867
 21
1.051737705967042
 31
0.0
 11
607.821525606533
 21
1.051737705967042
 31
0.0
 11
607.7237960159166
 21
1.051737705967042
 31
0.0
 11
607.6523221362122
 21
1.051737705967042
 31
0.0
 11
607.6246077746941
 21
1.051737705967042
 31
0.0
 11
607.6246077746941
 21
1.078490939467292
 31
0.0
 11
607.6246077746941
 21
1.137348053167841
 31
0.0
 11
607.6246077746941
 21
1.19620516686839
 31
0.0
 11
607.6246077746941
 21
1.22295840036864
 31
0.0
 11
607.658167246284
 21
1.22295840036864
 31
0.0
 11
607.7492572405997
 21
1.22295840036864
 31
0.0
 11
607.8834951269596
 21
1.22295840036864
 31
0.0
 11
608.0464982746823
 21
1.22295840036864
 31
0.0
 11
608.2238840530863
 21
1.22295840036864
 31
0.0
 11
608.4012698314905
 21
1.22295840036864
 31
0.0
 11
608.564272979213
 21
1.22295840036864
 31
0.0
 11
608.6985108655729
 21
1.22295840036864
 31
0.0
 11
608.7896008598884
 21
1.22295840036864
 31
0.0
 11
608.8231603314784
 21
1.22295840036864
 31
0.0
 11
608.8231603314784
 21
1.19620516686839
 31
0.0
 11
608.8231603314784
 21
1.137348053167841
 31
0.0
 11
608.8231603314784
 21
1.078490939467292
 31
0.0
 11
608.8231603314784
 21
1.051737705967042
 31
0.0
 11
608.7944106917843
 21
1.051737705967042
 31
0.0
 11
608.7202668841521
 21
1.051737705967042
 31
0.0
 11
608.6188865757571
 21
1.051737705967042
 31
0.0
 11
608.5084274337744
 21
1.051737705967042
 31
0.0
 11
608.4070471253792
 21
1.051737705967042
 31
0.0
 11
608.332903317747
 21
1.051737705967042
 31
0.0
 11
608.3041536780529
 21
1.051737705967042
 31
0.0
  0
SPLINE
  5
AB
102
{ACAD_REACTORS
330
C8
102
}
330
4A
100
AcDbEntity
  8
_U_30EC_U_30A4_U_30E4_U_30FC_1
  6
Continuous
 62
     2
100
AcDbSpline
210
0.0
220
0.0
230
1.0
 70
    11
 71
     3
 72
    91
 73
    87
 74
    85
 42
0.000000001
 43
0.0000000001
 44
0.00000001
 40
0.0
 40
0.0
 40
0.0
 40
0.0
 40
0.0345987051696287
 40
0.1258134969461938
 40
0.254772340488785
 40
0.402603209915242
 40
0.5504340793415852
 40
0.6793929228834943
 40
0.7706077146568762
 40
0.8052064287778651
 40
1.124852390615036
 40
1.427402236308633
 40
1.706356627453267
 40
1.955541417874958
 40
2.169485938566113
 40
2.344350786664551
 40
2.480568411561641
 40
2.590440557428636
 40
2.649189927150815
 40
2.749320643306008
 40
2.912632739879724
 40
3.147745655999929
 40
3.244827496384829
 40
3.338490056946413
 40
3.583815413206851
 40
3.761423943238188
 40
3.886956104362391
 40
3.985855451886665
 40
4.091766255337438
 40
4.250186473811631
 40
4.422734315084367
 40
4.628285684838398
 40
4.872093227758199
 40
5.152549652145344
 40
5.464967135837331
 40
5.803201477852229
 40
6.160362988813708
 40
6.193449448275792
 40
6.284170385501361
 40
6.419718138764174
 40
6.587285046385509
 40
6.77406344672348
 40
6.96724567811335
 40
7.154024078817392
 40
7.321590987025806
 40
7.457138740890136
 40
7.547859678555787
 40
7.580946138182376
 40
7.608533084714429
 40
7.669224367077408
 40
7.72991564942963
 40
7.757502595949685
 40
7.79027806255311
 40
7.880146277430693
 40
8.014419963179929
 40
8.180411842397515
 40
8.365434637679012
 40
8.556801071622257
 40
8.741823866830313
 40
8.907815745915908
 40
9.042089431507005
 40
9.131957646249187
 40
9.164733112796679
 40
9.415425063139601
 40
9.667986180958074
 40
9.694169807461957
 40
9.756607686047087
 40
9.831130315321978
 40
9.893568193899386
 40
9.919751820398146
 40
9.950967964689971
 40
9.99642163121008
 40
10.22087981037397
 40
10.44341866197487
 40
10.47847970788802
 40
10.57091337438691
 40
10.70159545461171
 40
10.85140174170282
 40
11.00120802880416
 40
11.13189010907319
 40
11.22432377582935
 40
11.25938480938884
 40
11.28697175596073
 40
11.34766303835847
 40
11.40835432041998
 40
11.43594125892033
 40
11.43594125892033
 40
11.43594125892033
 40
11.43594125892033
 10
609.9441028723254
 20
1.645674372485161
 30
0.0
 10
609.9325700234907
 20
1.645674324113543
 30
0.0
 10
609.8906323834959
 20
1.645674158276033
 30
0.0
 10
609.8057044108991
 20
1.645677679243475
 30
0.0
 10
609.6830602943094
 20
1.645655685593175
 30
0.0
 10
609.5414121306959
 20
1.645754433004929
 30
0.0
 10
609.4002668088456
 20
1.645393283558598
 30
0.0
 10
609.276426570787
 20
1.646465257325273
 30
0.0
 10
609.1940132215349
 20
1.644168912147077
 30
0.0
 10
609.0350705619655
 20
1.65373211496859
 30
0.0
 10
609.2126316743343
 20
1.291100364348084
 30
0.0
 10
609.2002653595418
 20
1.045677698465543
 30
0.0
 10
609.268743386383
 20
0.7618714344827323
 30
0.0
 10
609.3315938710938
 20
0.5257564206247474
 30
0.0
 10
609.4075167821695
 20
0.3265138251956978
 30
0.0
 10
609.4926103966982
 20
0.1706998957481621
 30
0.0
 10
609.5867521982901
 20
0.0698249990483027
 30
0.0
 10
609.6905562597692
 20
0.0179049476240564
 30
0.0
 10
609.7748786420739
 20
0.0693112650305506
 30
0.0
 10
609.7974236569416
 20
0.1846918616095903
 30
0.0
 10
609.8368645365337
 20
0.3120979182581869
 30
0.0
 10
609.7825834124907
 20
0.6294697021019816
 30
0.0
 10
609.9074132462439
 20
0.4830682226434445
 30
0.0
 10
610.0642205903569
 20
0.451199424546131
 30
0.0
 10
609.9570634397021
 20
0.2174599989107015
 30
0.0
 10
609.9431625599835
 20
0.052974187070919
 30
0.0
 10
609.8857623857193
 20
-0.0754448875408249
 30
0.0
 10
609.7957934534973
 20
-0.1465655552372931
 30
0.0
 10
609.6718189047845
 20
-0.1624303373431001
 30
0.0
 10
609.5257187586824
 20
-0.1268156032238567
 30
0.0
 10
609.386680871025
 20
-0.006747873762917
 30
0.0
 10
609.272491835211
 20
0.1676032467376187
 30
0.0
 10
609.1769055691452
 20
0.3927124523468331
 30
0.0
 10
609.0941566962592
 20
0.6571288812988009
 30
0.0
 10
609.0430093646376
 20
0.9751257522198137
 30
0.0
 10
608.9393103597306
 20
1.248683706123542
 30
0.0
 10
609.0665755598486
 20
1.653304607363068
 30
0.0
 10
608.8980805012985
 20
1.644370099731175
 30
0.0
 10
608.8134910177043
 20
1.646406035418021
 30
0.0
 10
608.6812790777594
 20
1.645385795118452
 30
0.0
 10
608.5183419484069
 20
1.645778724418681
 30
0.0
 10
608.3356673560497
 20
1.645603384368078
 30
0.0
 10
608.1469971763349
 20
1.645847474309073
 30
0.0
 10
607.9637383410154
 20
1.645103000296752
 30
0.0
 10
607.8027661222686
 20
1.647410026458648
 30
0.0
 10
607.6652722725241
 20
1.641244470071014
 30
0.0
 10
607.5912504762279
 20
1.653574805816495
 30
0.0
 10
607.5236129576824
 20
1.636539658469941
 30
0.0
 10
607.5355288109232
 20
1.688490805709665
 30
0.0
 10
607.5278591675664
 20
1.733960670899684
 30
0.0
 10
607.535550661508
 20
1.779390958271444
 30
0.0
 10
607.5236056187728
 20
1.831270381080087
 30
0.0
 10
607.5906502695834
 20
1.81443785613703
 30
0.0
 10
607.6640290055642
 20
1.826600512161091
 30
0.0
 10
607.8002042695238
 20
1.820518731983981
 30
0.0
 10
607.9596726191477
 20
1.82279476438497
 30
0.0
 10
608.1412087475801
 20
1.822058761224016
 30
0.0
 10
608.3280949252144
 20
1.822305963195729
 30
0.0
 10
608.50909267068
 20
1.822110429226925
 30
0.0
 10
608.6703716968842
 20
1.822568768382784
 30
0.0
 10
608.8016796514851
 20
1.821373158746453
 30
0.0
 10
608.8847965712563
 20
1.823759894431817
 30
0.0
 10
609.0179150937774
 20
1.815552478489049
 30
0.0
 10
608.9268807892621
 20
2.070775110760888
 30
0.0
 10
608.8412547464388
 20
2.334890004516876
 30
0.0
 10
608.9613503393418
 20
2.322290850926038
 30
0.0
 10
609.013717933851
 20
2.320188778865161
 30
0.0
 10
609.0837411959682
 20
2.318600420130965
 30
0.0
 10
609.1294836727784
 20
2.30927209661553
 30
0.0
 10
609.1843727036897
 20
2.318706090388639
 30
0.0
 10
609.1586489175647
 20
2.270576707786126
 30
0.0
 10
609.0448311961416
 20
2.275914718676092
 30
0.0
 10
609.1782261011098
 20
2.047738167002143
 30
0.0
 10
609.0566573125442
 20
1.814814987193617
 30
0.0
 10
609.1846103159377
 20
1.824119010078778
 30
0.0
 10
609.2671962796428
 20
1.821256438781194
 30
0.0
 10
609.3930129240791
 20
1.822480795357417
 30
0.0
 10
609.5364384228021
 20
1.822570740124037
 30
0.0
 10
609.6780335341693
 20
1.820708053072924
 30
0.0
 10
609.8082041639931
 20
1.826577180606015
 30
0.0
 10
609.8816366676158
 20
1.813949829466436
 30
0.0
 10
609.9514027312059
 20
1.832022052338524
 30
0.0
 10
609.9398686995362
 20
1.779374926697654
 30
0.0
 10
609.9456098736647
 20
1.735459598099864
 30
0.0
 10
609.9439530160873
 20
1.68414624799988
 30
0.0
 10
609.9440671951635
 20
1.654834341450735
 30
0.0
 10
609.9441028723254
 20
1.645674372485161
 30
0.0
 11
609.9441028723254
 21
1.645674372485161
 31
0.0
 11
609.9095041582015
 21
1.645674372485161
 31
0.0
 11
609.8182893664206
 21
1.645674372485161
 31
0.0
 11
609.6893305228683
 21
1.645674372485161
 31
0.0
 11
609.5414996534302
 21
1.645674372485161
 31
0.0
 11
609.393668783992
 21
1.645674372485161
 31
0.0
 11
609.2647099404396
 21
1.645674372485161
 31
0.0
 11
609.1734951486587
 21
1.645674372485161
 31
0.0
 11
609.1388964345349
 21
1.645674372485161
 31
0.0
 11
609.1706054887659
 21
1.3276050705356
 31
0.0
 11
609.2150781046831
 21
1.028341649115197
 31
0.0
 11
609.2715303508286
 21
0.7551591163601523
 31
0.0
 11
609.3391782957444
 21
0.5153324804066665
 31
0.0
 11
609.4172380079727
 21
0.3161367493909396
 31
0.0
 11
609.5049255560557
 21
0.1648469314491723
 31
0.0
 11
609.6014570085354
 21
0.068738034717565
 31
0.0
 11
609.706048433954
 21
0.035085067332318
 31
0.0
 11
609.7565991692751
 21
0.065020191022747
 31
0.0
 11
609.7933503381516
 21
0.1581626193848713
 31
0.0
 11
609.8185555367493
 21
0.3195179383549465
 31
0.0
 11
609.8344683612333
 21
0.5540917338692282
 31
0.0
 11
609.9116997072549
 21
0.4952682443005756
 31
0.0
 11
609.995009857435
 21
0.452465275561309
 31
0.0
 11
609.9689280201183
 21
0.2085303078444936
 31
0.0
 11
609.9296232195072
 21
0.0353254501100096
 31
0.0
 11
609.8728616986731
 21
-0.0766408543064418
 31
0.0
 11
609.7944097006875
 21
-0.1368601620691604
 31
0.0
 11
609.6900334686222
 21
-0.1548240298424446
 31
0.0
 11
609.5361509455063
 21
-0.1171791786420041
 31
0.0
 11
609.4011816766712
 21
-0.0096800899915808
 31
0.0
 11
609.2844654306128
 21
0.1595200386824784
 31
0.0
 11
609.1853419758266
 21
0.3822680099538261
 31
0.0
 11
609.103151080808
 21
0.6504106263961154
 31
0.0
 11
609.0372325140524
 21
0.955794690582999
 31
0.0
 11
608.986926044056
 21
1.29026700508813
 31
0.0
 11
608.9515714393137
 21
1.645674372485161
 31
0.0
 11
608.918484979581
 21
1.645674372485161
 31
0.0
 11
608.8277640416042
 21
1.645674372485161
 31
0.0
 11
608.6922162872152
 21
1.645674372485161
 31
0.0
 11
608.5246493782461
 21
1.645674372485161
 31
0.0
 11
608.337870976529
 21
1.645674372485161
 31
0.0
 11
608.1446887438959
 21
1.645674372485161
 31
0.0
 11
607.9579103421788
 21
1.645674372485161
 31
0.0
 11
607.7903434332097
 21
1.645674372485161
 31
0.0
 11
607.6547956788207
 21
1.645674372485161
 31
0.0
 11
607.5640747408439
 21
1.645674372485161
 31
0.0
 11
607.5309882811111
 21
1.645674372485161
 31
0.0
 11
607.5309882811111
 21
1.67326131909285
 31
0.0
 11
607.5309882811111
 21
1.733952601629767
 31
0.0
 11
607.5309882811111
 21
1.794643884166684
 31
0.0
 11
607.5309882811111
 21
1.822230830774373
 31
0.0
 11
607.5637637477597
 21
1.822230830774373
 31
0.0
 11
607.653631962764
 21
1.822230830774373
 31
0.0
 11
607.7879056487113
 21
1.822230830774373
 31
0.0
 11
607.9538975281898
 21
1.822230830774373
 31
0.0
 11
608.1389203237867
 21
1.822230830774373
 31
0.0
 11
608.3302867580898
 21
1.822230830774373
 31
0.0
 11
608.5153095536866
 21
1.822230830774373
 31
0.0
 11
608.681301433165
 21
1.822230830774373
 31
0.0
 11
608.8155751191125
 21
1.822230830774373
 31
0.0
 11
608.9054433341167
 21
1.822230830774373
 31
0.0
 11
608.9382188007653
 21
1.822230830774373
 31
0.0
 11
608.9282098340068
 21
2.072722896683977
 31
0.0
 11
608.9222026900629
 21
2.325212566759717
 31
0.0
 11
608.9483490260624
 21
2.323815637315621
 31
0.0
 11
609.0106979811385
 21
2.320484497872009
 31
0.0
 11
609.0851144759066
 21
2.316508621761891
 31
0.0
 11
609.1474634309825
 21
2.313177482318278
 31
0.0
 11
609.173609766982
 21
2.311780552874183
 31
0.0
 11
609.1605845503005
 21
2.283411707395199
 31
0.0
 11
609.117456365637
 21
2.269059163996047
 31
0.0
 11
609.1197906351786
 21
2.044613122385481
 31
0.0
 11
609.1281367125869
 21
1.822230830774373
 31
0.0
 11
609.1631977585132
 21
1.822230830774373
 31
0.0
 11
609.255631425046
 21
1.822230830774373
 31
0.0
 11
609.3863135053167
 21
1.822230830774373
 31
0.0
 11
609.536119792456
 21
1.822230830774373
 31
0.0
 11
609.6859260795957
 21
1.822230830774373
 31
0.0
 11
609.8166081598663
 21
1.822230830774373
 31
0.0
 11
609.9090418263991
 21
1.822230830774373
 31
0.0
 11
609.9441028723254
 21
1.822230830774373
 31
0.0
 11
609.9441028723254
 21
1.794643884166684
 31
0.0
 11
609.9441028723254
 21
1.733952601629767
 31
0.0
 11
609.9441028723254
 21
1.67326131909285
 31
0.0
 11
609.9441028723254
 21
1.645674372485161
 31
0.0
  0
SPLINE
  5
AC
102
{ACAD_REACTORS
330
C9
102
}
330
4A
100
AcDbEntity
  8
_U_30EC_U_30A4_U_30E4_U_30FC_1
  6
Continuous
 62
     2
100
AcDbSpline
210
0.0
220
0.0
230
1.0
 70
    11
 71
     3
 72
   118
 73
   114
 74
   112
 42
0.000000001
 43
0.0000000001
 44
0.00000001
 40
0.0
 40
0.0
 40
0.0
 40
0.0
 40
0.1054708162973413
 40
0.2466098270052585
 40
0.3965912874592046
 40
0.5285525069754421
 40
0.6156245055641756
 40
0.6431434105796403
 40
0.7036850037985265
 40
0.764226598450384
 40
0.7917455052354151
 40
0.9287404319988729
 40
1.106572819087908
 40
1.287544879680945
 40
1.317578308030462
 40
1.399928030857098
 40
1.522968204799872
 40
1.675072986590495
 40
1.844616533180574
 40
2.019973001638636
 40
2.189516548879948
 40
2.341621331585284
 40
2.464661506320421
 40
2.547011229646984
 40
2.57704465816795
 40
2.603797890893077
 40
2.662655002908707
 40
2.721512114949576
 40
2.748265347702671
 40
2.774215307344746
 40
2.845959313407079
 40
2.954338556588278
 40
3.090194227585457
 40
3.244367517100422
 40
3.407699615844183
 40
3.571031714539334
 40
3.725205003920011
 40
3.861060674729512
 40
3.969439917716207
 40
4.041183923628879
 40
4.067133883212873
 40
4.311886746012069
 40
4.547897258335394
 40
4.76474708304386
 40
4.952749679951664
 40
5.045772974195799
 40
5.137862019644808
 40
5.330543169792865
 40
5.553448265243789
 40
5.795083855887937
 40
6.043293412177008
 40
6.285761695540952
 40
6.313902908752436
 40
6.384255941792969
 40
6.475714884766727
 40
6.567173827758676
 40
6.637526860839568
 40
6.665668074073903
 40
6.692018920327878
 40
6.749990782070955
 40
6.807962643790328
 40
6.834313490017805
 40
6.856393084244998
 40
6.913335195649849
 40
6.991194817302428
 40
7.076026942283717
 40
7.153886563725179
 40
7.210828674844676
 40
7.232908268931125
 40
7.258199334923646
 40
7.324875781592294
 40
7.41914248192495
 40
7.527204308841889
 40
7.635266135230463
 40
7.729532834168447
 40
7.796209279292767
 40
7.821500344594713
 40
7.844652988850812
 40
7.899863140541648
 40
7.965759128053615
 40
8.020969279770984
 40
8.044121924046394
 40
8.069356610160408
 40
8.109134395441256
 40
8.132238100190966
 40
8.19314786778633
 40
8.279261678876502
 40
8.377977512673718
 40
8.476693347146503
 40
8.562807160411557
 40
8.623716930826342
 40
8.646820636853295
 40
8.671988793774108
 40
8.73490918582802
 40
8.816705695188762
 40
8.898502204815305
 40
8.961422597377851
 40
8.986590754551049
 40
9.012941600733207
 40
9.070913462380297
 40
9.128885324081796
 40
9.15523617032512
 40
9.180404327929304
 40
9.243324721948406
 40
9.325121234212142
 40
9.406917746637882
 40
9.469838141978366
 40
9.495006288271055
 40
9.517811184379198
 40
9.572192090487196
 40
9.637098333281426
 40
9.691479239515626
 40
9.714284125643665
 40
9.714284125643665
 40
9.714284125643665
 40
9.714284125643665
 10
605.1497383418618
 20
1.362138053111579
 30
0.0
 10
605.1713904959
 20
1.334365113662488
 30
0.0
 10
605.2220171499442
 20
1.26942696684672
 30
0.0
 10
605.2972297592557
 20
1.162157024363393
 30
0.0
 10
605.3871396664314
 20
1.047020803900666
 30
0.0
 10
605.433208406664
 20
0.9468168787176013
 30
0.0
 10
605.527873968462
 20
0.8775864893838848
 30
0.0
 10
605.4827353710376
 20
0.8309628180170799
 30
0.0
 10
605.4569962175754
 20
0.7898495098948062
 30
0.0
 10
605.4268111097977
 20
0.7539061385138063
 30
0.0
 10
605.3816599120528
 20
0.6790442471953432
 30
0.0
 10
605.333341884853
 20
0.9010716637704717
 30
0.0
 10
605.2591454103039
 20
0.9383531946115329
 30
0.0
 10
605.1458961714574
 20
1.209348442540411
 30
0.0
 10
605.1508047968134
 20
1.094199705696683
 30
0.0
 10
605.149140094627
 20
1.02161317905067
 30
0.0
 10
605.1499744466678
 20
0.8995023060742595
 30
0.0
 10
605.1496523930231
 20
0.7523844293390024
 30
0.0
 10
605.1497991302422
 20
0.5863170607999652
 30
0.0
 10
605.1495864482686
 20
0.4151219673204165
 30
0.0
 10
605.1502411642
 20
0.2487747075893795
 30
0.0
 10
605.1482106851103
 20
0.1025981517913304
 30
0.0
 10
605.1536374789896
 20
-0.0220431040194903
 30
0.0
 10
605.1427845258675
 20
-0.0895670133593425
 30
0.0
 10
605.157965354552
 20
-0.1512629645953987
 30
0.0
 10
605.10808094981
 20
-0.1394785397955838
 30
0.0
 10
605.0640064732486
 20
-0.1473153509659096
 30
0.0
 10
605.0205286020165
 20
-0.1391491650385738
 30
0.0
 10
604.9715261176455
 20
-0.1513730113808978
 30
0.0
 10
604.9841645624789
 20
-0.097146906272463
 30
0.0
 10
604.9753097358414
 20
-0.0373843896900286
 30
0.0
 10
604.9797973160278
 20
0.0724667116781046
 30
0.0
 10
604.9780874525957
 20
0.2035461752911841
 30
0.0
 10
604.9786465305951
 20
0.3552265356776808
 30
0.0
 10
604.9784843158658
 20
0.5153571705339359
 30
0.0
 10
604.9785184314641
 20
0.6756150779800669
 30
0.0
 10
604.978542935009
 20
0.8269488964388026
 30
0.0
 10
604.978436793319
 20
0.9590679846204159
 30
0.0
 10
604.9787213531895
 20
1.06619444656634
 30
0.0
 10
604.9781589937535
 20
1.131332617029146
 30
0.0
 10
604.9803679473649
 20
1.259435999821163
 30
0.0
 10
604.8942350388569
 20
0.8842225251502089
 30
0.0
 10
604.8178055208464
 20
0.7324283524683196
 30
0.0
 10
604.72829551578
 20
0.5709084856974777
 30
0.0
 10
604.6263327607292
 20
0.2979649094361392
 30
0.0
 10
604.5810890881005
 20
0.4604198871994478
 30
0.0
 10
604.4725270331636
 20
0.5493007418156939
 30
0.0
 10
604.6618706141719
 20
0.6987443708484168
 30
0.0
 10
604.7188254935666
 20
0.8907377909836918
 30
0.0
 10
604.8340435383319
 20
1.122242650301966
 30
0.0
 10
604.8563066020095
 20
1.311219018825017
 30
0.0
 10
605.0394819542109
 20
1.587787314493692
 30
0.0
 10
604.9160947987516
 20
1.58023620955533
 30
0.0
 10
604.8548598556799
 20
1.58181414489557
 30
0.0
 10
604.7704914007029
 20
1.582072346971119
 30
0.0
 10
604.682714947593
 20
1.578694878746447
 30
0.0
 10
604.6279683086088
 20
1.587194571054599
 30
0.0
 10
604.5727617415989
 20
1.573732031732276
 30
0.0
 10
604.58457374255
 20
1.622560842502029
 30
0.0
 10
604.5765410541758
 20
1.665936470201486
 30
0.0
 10
604.5851100494647
 20
1.708340804330123
 30
0.0
 10
604.572585779912
 20
1.755924386755561
 30
0.0
 10
604.6178015928701
 20
1.745918551185487
 30
0.0
 10
604.6637729952688
 20
1.752187472975015
 30
0.0
 10
604.7400136437676
 20
1.749182035293126
 30
0.0
 10
604.8184210521958
 20
1.750950904019817
 30
0.0
 10
604.8946907038898
 20
1.747894361051003
 30
0.0
 10
604.9405923849438
 20
1.754286134996181
 30
0.0
 10
604.9854648355365
 20
1.744184651023334
 30
0.0
 10
604.9728466665599
 20
1.794818437053376
 30
0.0
 10
604.981485097267
 20
1.848259040055107
 30
0.0
 10
604.9775275985412
 20
1.941878972551202
 30
0.0
 10
604.9785239458298
 20
2.044372488123635
 30
0.0
 10
604.9794841803039
 20
2.146779123716029
 30
0.0
 10
604.9756125847972
 20
2.240605717327601
 30
0.0
 10
604.9840704204328
 20
2.293611849637927
 30
0.0
 10
604.9715990322801
 20
2.345360777746281
 30
0.0
 10
605.0165020779815
 20
2.331753893501953
 30
0.0
 10
605.0577998226737
 20
2.33425122444025
 30
0.0
 10
605.1218258671017
 20
2.329727026979255
 30
0.0
 10
605.1609025538751
 20
2.321056451667468
 30
0.0
 10
605.2099457888705
 20
2.328397441941263
 30
0.0
 10
605.1847994420557
 20
2.289275381751895
 30
0.0
 10
605.1438815723689
 20
2.298884845792529
 30
0.0
 10
605.153302400657
 20
2.248647902932184
 30
0.0
 10
605.1478561708713
 20
2.197105877629312
 30
0.0
 10
605.1504613991766
 20
2.112843497079612
 30
0.0
 10
605.149301659212
 20
2.018837777068489
 30
0.0
 10
605.1506505454197
 20
1.925215075189661
 30
0.0
 10
605.1472884491473
 20
1.840041596756636
 30
0.0
 10
605.1543874307738
 20
1.790414981954847
 30
0.0
 10
605.143548354451
 20
1.743183370934294
 30
0.0
 10
605.192692461521
 20
1.755263170602924
 30
0.0
 10
605.2417792020112
 20
1.747720354864517
 30
0.0
 10
605.3196628670607
 20
1.750107124848733
 30
0.0
 10
605.3973279562861
 20
1.75224024028855
 30
0.0
 10
605.4468308321324
 20
1.745180340458943
 30
0.0
 10
605.4967509140605
 20
1.756847940596569
 30
0.0
 10
605.4846112906848
 20
1.708648774948335
 30
0.0
 10
605.492875261911
 20
1.665738619246753
 30
0.0
 10
605.484611304075
 20
1.622828439748226
 30
0.0
 10
605.4967508939822
 20
1.574629308782991
 30
0.0
 10
605.4468309548712
 20
1.58629676594951
 30
0.0
 10
605.3973265041169
 20
1.579238445584846
 30
0.0
 10
605.3196698772937
 20
1.581363073520424
 30
0.0
 10
605.2417558255726
 20
1.583780314891988
 30
0.0
 10
605.1927414742681
 20
1.576164903179253
 30
0.0
 10
605.1436160498909
 20
1.588325946810285
 30
0.0
 10
605.1538474378538
 20
1.543976555475964
 30
0.0
 10
605.1479592068018
 20
1.502500783263504
 30
0.0
 10
605.1501702695533
 20
1.442400364387415
 30
0.0
 10
605.1497023736111
 20
1.395504248863276
 30
0.0
 10
605.1497301382877
 20
1.369747885416349
 30
0.0
 10
605.1497383418618
 20
1.362138053111579
 30
0.0
 11
605.1497383418618
 21
1.362138053111579
 31
0.0
 11
605.213989192445
 21
1.27849641757695
 31
0.0
 11
605.2971173225466
 21
1.164435318716593
 31
0.0
 11
605.3839745958862
 21
1.042164093191623
 31
0.0
 11
605.4594128761838
 21
0.9338920776631565
 31
0.0
 11
605.5082840271591
 21
0.8618286087923082
 31
0.0
 11
605.4919735675059
 21
0.8396642424784
 31
0.0
 11
605.4560905562685
 21
0.790902636587802
 31
0.0
 11
605.4202075450312
 21
0.742141030697204
 31
0.0
 11
605.4038970853778
 21
0.7199766643832959
 31
0.0
 11
605.3385981499412
 21
0.840407811472539
 31
0.0
 11
605.2471348633201
 21
0.992916257936473
 31
0.0
 11
605.1497383418618
 21
1.145444303165817
 31
0.0
 11
605.1497383418618
 21
1.115410874516927
 31
0.0
 11
605.1497383418617
 21
1.033061150802227
 31
0.0
 11
605.1497383418617
 21
0.9100209753696759
 31
0.0
 11
605.1497383418618
 21
0.75791619156723
 31
0.0
 11
605.1497383418618
 21
0.5883726427428484
 31
0.0
 11
605.1497383418618
 21
0.413016172244488
 31
0.0
 11
605.1497383418618
 21
0.2434726234201064
 31
0.0
 11
605.1497383418617
 21
0.0913678396176605
 31
0.0
 11
605.1497383418618
 21
-0.0316723358148906
 31
0.0
 11
605.1497383418618
 21
-0.1140220595295902
 31
0.0
 11
605.1497383418618
 21
-0.1440554881784806
 31
0.0
 11
605.1229851090374
 21
-0.1440554881784806
 31
0.0
 11
605.0641279968237
 21
-0.1440554881784806
 31
0.0
 11
605.0052708846099
 21
-0.1440554881784806
 31
0.0
 11
604.9785176517855
 21
-0.1440554881784806
 31
0.0
 11
604.9785176517855
 21
-0.1181055284531012
 31
0.0
 11
604.9785176517854
 21
-0.0463615221535218
 31
0.0
 11
604.9785176517854
 21
0.0620177214054162
 31
0.0
 11
604.9785176517855
 21
0.1978733929088736
 31
0.0
 11
604.9785176517855
 21
0.3520466830420123
 31
0.0
 11
604.9785176517855
 21
0.5153787824899893
 31
0.0
 11
604.9785176517855
 21
0.6787108819379661
 31
0.0
 11
604.9785176517855
 21
0.8328841720711049
 31
0.0
 11
604.9785176517855
 21
0.9687398435745622
 31
0.0
 11
604.9785176517855
 21
1.0771190871335
 31
0.0
 11
604.9785176517855
 21
1.14886309343308
 31
0.0
 11
604.9785176517855
 21
1.174813053158459
 31
0.0
 11
604.9002780251686
 21
0.942902454258128
 31
0.0
 11
604.8120025179269
 21
0.7240225845211867
 31
0.0
 11
604.716702132001
 21
0.5292363345698732
 31
0.0
 11
604.6173878693321
 21
0.3696065950264256
 31
0.0
 11
604.5732112732371
 21
0.4514708832003897
 31
0.0
 11
604.5210971773447
 21
0.5273952755425171
 31
0.0
 11
604.6250216980266
 21
0.6896473005019693
 31
0.0
 11
604.7252234254701
 21
0.8887610754522008
 31
0.0
 11
604.8173360997866
 21
1.112150900396356
 31
0.0
 11
604.8969934610877
 21
1.347231075337588
 31
0.0
 11
604.9598292494845
 21
1.58141590027904
 31
0.0
 11
604.9316880362107
 21
1.58141590027904
 31
0.0
 11
604.8613350030263
 21
1.58141590027904
 31
0.0
 11
604.7698760598863
 21
1.58141590027904
 31
0.0
 11
604.6784171167465
 21
1.58141590027904
 31
0.0
 11
604.6080640835619
 21
1.58141590027904
 31
0.0
 11
604.5799228702881
 21
1.58141590027904
 31
0.0
 11
604.5799228702881
 21
1.607766746626616
 31
0.0
 11
604.5799228702881
 21
1.665738608591283
 31
0.0
 11
604.5799228702881
 21
1.72371047055595
 31
0.0
 11
604.5799228702881
 21
1.750061316903526
 31
0.0
 11
604.6020024645983
 21
1.750061316903526
 31
0.0
 11
604.658944576241
 21
1.750061316903526
 31
0.0
 11
604.7368041982827
 21
1.750061316903526
 31
0.0
 11
604.8216363237909
 21
1.750061316903526
 31
0.0
 11
604.8994959458327
 21
1.750061316903526
 31
0.0
 11
604.9564380574751
 21
1.750061316903526
 31
0.0
 11
604.9785176517855
 21
1.750061316903526
 31
0.0
 11
604.9785176517855
 21
1.775352382977934
 31
0.0
 11
604.9785176517854
 21
1.842028829901374
 31
0.0
 11
604.9785176517856
 21
1.936295530724168
 31
0.0
 11
604.9785176517855
 21
2.04435735849664
 31
0.0
 11
604.9785176517855
 21
2.152419186269111
 31
0.0
 11
604.9785176517855
 21
2.246685887091906
 31
0.0
 11
604.9785176517855
 21
2.313362334015346
 31
0.0
 11
604.9785176517855
 21
2.338653400089754
 31
0.0
 11
605.0016096378631
 21
2.336978552312393
 31
0.0
 11
605.0566751431251
 21
2.332984684535608
 31
0.0
 11
605.1223984881149
 21
2.32821781009235
 31
0.0
 11
605.1774639933767
 21
2.324223942315565
 31
0.0
 11
605.2005559794543
 21
2.322549094538204
 31
0.0
 11
605.1871927034327
 21
2.301143200446305
 31
0.0
 11
605.1497383418618
 21
2.287747566769099
 31
0.0
 11
605.1497383418618
 21
2.264643860720188
 31
0.0
 11
605.1497383418618
 21
2.203734090227603
 31
0.0
 11
605.1497383418617
 21
2.11762027677257
 31
0.0
 11
605.1497383418618
 21
2.018904441836312
 31
0.0
 11
605.1497383418618
 21
1.920188606900055
 31
0.0
 11
605.1497383418618
 21
1.834074793445022
 31
0.0
 11
605.1497383418618
 21
1.773165022952437
 31
0.0
 11
605.1497383418618
 21
1.750061316903526
 31
0.0
 11
605.1749064994774
 21
1.750061316903525
 31
0.0
 11
605.2378268935164
 21
1.750061316903526
 31
0.0
 11
605.3196234057672
 21
1.750061316903526
 31
0.0
 11
605.4014199180178
 21
1.750061316903526
 31
0.0
 11
605.4643403120568
 21
1.750061316903526
 31
0.0
 11
605.4895084696725
 21
1.750061316903526
 31
0.0
 11
605.4895084696725
 21
1.72371047055595
 31
0.0
 11
605.4895084696725
 21
1.665738608591283
 31
0.0
 11
605.4895084696725
 21
1.607766746626616
 31
0.0
 11
605.4895084696725
 21
1.58141590027904
 31
0.0
 11
605.4643403120568
 21
1.58141590027904
 31
0.0
 11
605.4014199180178
 21
1.58141590027904
 31
0.0
 11
605.3196234057672
 21
1.58141590027904
 31
0.0
 11
605.2378268935164
 21
1.58141590027904
 31
0.0
 11
605.1749064994774
 21
1.58141590027904
 31
0.0
 11
605.1497383418618
 21
1.58141590027904
 31
0.0
 11
605.1497383418618
 21
1.558611004173624
 31
0.0
 11
605.1497383418618
 21
1.504230098076094
 31
0.0
 11
605.1497383418618
 21
1.439323855314525
 31
0.0
 11
605.1497383418618
 21
1.384942949216995
 31
0.0
 11
605.1497383418618
 21
1.362138053111579
 31
0.0
  0
SPLINE
  5
AD
102
{ACAD_REACTORS
330
CA
102
}
330
4A
100
AcDbEntity
  8
_U_30EC_U_30A4_U_30E4_U_30FC_1
  6
Continuous
 62
     2
100
AcDbSpline
210
0.0
220
0.0
230
1.0
 70
    11
 71
     3
 72
    47
 73
    43
 74
    41
 42
0.000000001
 43
0.0000000001
 44
0.00000001
 40
0.0
 40
0.0
 40
0.0
 40
0.0
 40
0.220791280995724
 40
0.445940418630296
 40
0.4902387190459728
 40
0.532747389272354
 40
0.5742260451225725
 40
0.6155432630561303
 40
0.6568164066315655
 40
0.6982511618780286
 40
0.7407663929317091
 40
0.7851366743175142
 40
1.010288833836293
 40
1.231080507002155
 40
1.451765243652373
 40
1.676638205891676
 40
1.720461045359645
 40
1.830018144043506
 40
1.972442372353132
 40
2.114866600677494
 40
2.224423699395115
 40
2.268246538883353
 40
2.493628801207193
 40
2.71560283028659
 40
2.934211330706348
 40
3.149502369855349
 40
3.231387784850824
 40
3.318231873853916
 40
3.405143198197904
 40
3.486970301720369
 40
3.702258172493817
 40
3.920866283534051
 40
4.142839325931844
 40
4.368221903865313
 40
4.412044743359791
 40
4.5216018420958
 40
4.664026070452276
 40
4.806450298808978
 40
4.916007397546668
 40
4.959830237042989
 40
5.184703515847039
 40
5.40538725076741
 40
5.40538725076741
 40
5.40538725076741
 40
5.40538725076741
 10
602.513034164861
 20
1.827310830773115
 30
0.0
 10
602.5191053809968
 20
1.890831246246501
 30
0.0
 10
602.531367649721
 20
2.019125808130684
 30
0.0
 10
602.4227621269374
 20
2.294908622975137
 30
0.0
 10
602.538490028657
 20
2.265127755554923
 30
0.0
 10
602.5794756898979
 20
2.260901983862595
 30
0.0
 10
602.6214120187485
 20
2.256350885130457
 30
0.0
 10
602.6627111015675
 20
2.255266250529229
 30
0.0
 10
602.7039946505519
 20
2.25634980318667
 30
0.0
 10
602.7459062660612
 20
2.260907548347814
 30
0.0
 10
602.7868897938985
 20
2.265120723331677
 30
0.0
 10
602.9027837233455
 20
2.295022534409702
 30
0.0
 10
602.7918567117423
 20
2.016644487333282
 30
0.0
 10
602.8197770755231
 20
1.83607782948393
 30
0.0
 10
602.8027181736936
 20
1.602856844699105
 30
0.0
 10
602.8037551672068
 20
1.442312646665848
 30
0.0
 10
602.8037013789369
 20
1.316094596821603
 30
0.0
 10
602.803719176245
 20
1.217536054596803
 30
0.0
 10
602.8037102971045
 20
1.086053445664024
 30
0.0
 10
602.8037178317999
 20
0.9545748709208982
 30
0.0
 10
602.8037043795093
 20
0.8560086481753074
 30
0.0
 10
602.8037446107456
 20
0.7296437774759245
 30
0.0
 10
602.8029660793782
 20
0.5680671094631042
 30
0.0
 10
602.8188872709233
 20
0.3368646401635364
 30
0.0
 10
602.7956383275373
 20
0.151989940954429
 30
0.0
 10
602.898309783433
 20
-0.1173975510650261
 30
0.0
 10
602.7443152752803
 20
-0.0801524519074317
 30
0.0
 10
602.6627044192797
 20
-0.0853736319602775
 30
0.0
 10
602.5811106682548
 20
-0.0801473749820986
 30
0.0
 10
602.4271428056809
 20
-0.1173828799117621
 30
0.0
 10
602.5297097811882
 20
0.151997719863193
 30
0.0
 10
602.5064959706053
 20
0.3368622744885476
 30
0.0
 10
602.5223359045103
 20
0.5680686068907824
 30
0.0
 10
602.52162107034
 20
0.7296435443194358
 30
0.0
 10
602.5216578959871
 20
0.856008733339609
 30
0.0
 10
602.521646339024
 20
0.9545739875942157
 30
0.0
 10
602.521648940918
 20
1.08605769540659
 30
0.0
 10
602.5216562921744
 20
1.217521901546385
 30
0.0
 10
602.5216356931317
 20
1.316124283987643
 30
0.0
 10
602.5216996581995
 20
1.44220791477866
 30
0.0
 10
602.5204648337556
 20
1.605347335072107
 30
0.0
 10
602.5154954786709
 20
1.753788259009893
 30
0.0
 10
602.513034164861
 20
1.827310830773115
 30
0.0
 11
602.513034164861
 21
1.827310830773115
 31
0.0
 11
602.5040242590344
 21
2.047918209190172
 31
0.0
 11
602.4941684096111
 21
2.272851525106177
 31
0.0
 11
602.5379900230766
 21
2.266370335871677
 31
0.0
 11
602.5801315324181
 21
2.260795344553628
 31
0.0
 11
602.6214285799756
 21
2.256918096290701
 31
0.0
 11
602.6627256275331
 21
2.255627150110456
 31
0.0
 11
602.7039785778695
 21
2.256918096290701
 31
0.0
 11
602.7452315282062
 21
2.260795344553628
 31
0.0
 11
602.7873796521308
 21
2.266370335871677
 31
0.0
 11
602.831274026011
 21
2.272851525106177
 31
0.0
 11
602.8213492083858
 21
2.047918209190172
 31
0.0
 11
602.8123298598275
 21
1.827310830773115
 31
0.0
 11
602.80585528534
 21
1.606721091244943
 31
0.0
 11
602.8037132628251
 21
1.381858330884455
 31
0.0
 11
602.8037132628251
 21
1.338035491389242
 31
0.0
 11
602.8037132628252
 21
1.228478392651209
 31
0.0
 11
602.8037132628251
 21
1.086054164291767
 31
0.0
 11
602.8037132628251
 21
0.9436299359323238
 31
0.0
 11
602.8037132628251
 21
0.8340728371942914
 31
0.0
 11
602.8037132628251
 21
0.7902499976990782
 31
0.0
 11
602.80585528534
 21
0.5648779144220626
 31
0.0
 11
602.8123298598275
 21
0.3429983311442015
 31
0.0
 11
602.8213492083856
 21
0.1245759700876868
 31
0.0
 11
602.831274026011
 21
-0.0904861826363401
 31
0.0
 11
602.7495530558737
 21
-0.0852992468737561
 31
0.0
 11
602.6627256275331
 21
-0.0835981965269923
 31
0.0
 11
602.5758309509305
 21
-0.0852992468737561
 31
0.0
 11
602.4941684096111
 21
-0.0904861826363401
 31
0.0
 11
602.5040242590344
 21
0.1245759700876868
 31
0.0
 11
602.513034164861
 21
0.3429983311442015
 31
0.0
 11
602.5194748228764
 21
0.5648779144220626
 31
0.0
 11
602.521649797799
 21
0.7902499976990782
 31
0.0
 11
602.521649797799
 21
0.8340728371942909
 31
0.0
 11
602.5216497977991
 21
0.9436299359323246
 31
0.0
 11
602.521649797799
 21
1.086054164291766
 31
0.0
 11
602.521649797799
 21
1.228478392651209
 31
0.0
 11
602.521649797799
 21
1.338035491389242
 31
0.0
 11
602.521649797799
 21
1.381858330884455
 31
0.0
 11
602.5194748228764
 21
1.606721091244943
 31
0.0
 11
602.513034164861
 21
1.827310830773115
 31
0.0
  0
SPLINE
  5
AE
102
{ACAD_REACTORS
330
CB
102
}
330
4A
100
AcDbEntity
  8
_U_30EC_U_30A4_U_30E4_U_30FC_1
  6
Continuous
 62
     2
100
AcDbSpline
210
0.0
220
0.0
230
1.0
 70
    11
 71
     3
 72
   110
 73
   106
 74
   104
 42
0.000000001
 43
0.0000000001
 44
0.00000001
 40
0.0
 40
0.0
 40
0.0
 40
0.0
 40
0.2203406257277837
 40
0.4407808782838031
 40
0.5952494494614156
 40
0.7488431659392731
 40
0.9023581831307008
 40
1.056801968670427
 40
1.210736449099643
 40
1.363041386539606
 40
1.515315729683007
 40
1.669377239147957
 40
1.72161165275642
 40
1.773199502942798
 40
1.824933793209835
 40
1.877110426487807
 40
1.9826822812064
 40
2.07878166708735
 40
2.172809640822129
 40
2.271937807378583
 40
2.378349933379146
 40
2.494131557736364
 40
2.626681683943469
 40
2.783145050795811
 40
2.890701232940668
 40
2.993130312454558
 40
3.09986973069154
 40
3.220237816691025
 40
3.352695482737316
 40
3.481732806389579
 40
3.593499473690106
 40
3.674323013331609
 40
3.817951711952644
 40
3.946167120793556
 40
4.061405053453327
 40
4.166480796002939
 40
4.262478775059119
 40
4.35073667355096
 40
4.433071991253875
 40
4.511216293814308
 40
4.564262454117608
 40
4.618474415571234
 40
4.670128488753836
 40
4.722296879126045
 40
4.819540945314028
 40
4.931194984127829
 40
5.04999604025747
 40
5.168643755415015
 40
5.283970811762227
 40
5.392260784909939
 40
5.486512254876099
 40
5.559178233949413
 40
5.59142585285309
 40
5.626215969637471
 40
5.667155838674017
 40
5.717449290213836
 40
5.738402360944446
 40
5.784499116553406
 40
5.830595872164372
 40
5.851548942897225
 40
5.87301928066134
 40
5.924217778407881
 40
5.985325662817258
 40
6.036524160567273
 40
6.057994498333802
 40
6.236847789607063
 40
6.381409928945241
 40
6.493190424178266
 40
6.574067534230086
 40
6.691018086205351
 40
6.814881554220325
 40
6.944307823240136
 40
7.071266716065645
 40
7.193488604461518
 40
7.309042773127774
 40
7.414007203170429
 40
7.50514044188624
 40
7.531150360599382
 40
7.55922164532196
 40
7.587202218920621
 40
7.612569159498851
 40
7.662550809480716
 40
7.702878875763838
 40
7.85732820523068
 40
8.010799568088268
 40
8.165256399657332
 40
8.322232698713501
 40
8.479564855016301
 40
8.635216230290562
 40
8.79088255092528
 40
8.94830515494679
 40
9.168271839032485
 40
9.387358980986743
 40
9.60804796103299
 40
9.832914234792208
 40
9.858338694962542
 40
9.925366817229548
 40
10.02013071422713
 40
10.12876249858951
 40
10.23739428295202
 40
10.33215817995143
 40
10.39918630222346
 40
10.42461076239735
 40
10.64992019336895
 40
10.87188524531139
 40
10.87188524531139
 40
10.87188524531139
 40
10.87188524531139
 10
599.7680702766584
 20
1.832479025216287
 30
0.0
 10
599.7715779323506
 20
1.899411041972425
 30
0.0
 10
599.7785948377626
 20
2.033305340392963
 30
0.0
 10
599.6820941989042
 20
2.318731970949058
 30
0.0
 10
599.9133049116073
 20
2.256090283137226
 30
0.0
 10
600.0542204447123
 20
2.263261961794284
 30
0.0
 10
600.2113332147553
 20
2.255605252016837
 30
0.0
 10
600.3648827817252
 20
2.255773944064778
 30
0.0
 10
600.5168019325047
 20
2.25506682658873
 30
0.0
 10
600.6765129203194
 20
2.265348004750772
 30
0.0
 10
600.8031886991087
 20
2.248211532041891
 30
0.0
 10
600.9993735512043
 20
2.320519022305871
 30
0.0
 10
600.9657309669047
 20
2.219653412035549
 30
0.0
 10
600.967492570715
 20
2.169438960711106
 30
0.0
 10
600.9650256463424
 20
2.120369777099063
 30
0.0
 10
600.9969991355975
 20
2.033881329704433
 30
0.0
 10
600.8633314293222
 20
2.0832208073178
 30
0.0
 10
600.7795123078022
 20
2.077552764376061
 30
0.0
 10
600.679677552929
 20
2.087901588297377
 30
0.0
 10
600.580949111011
 20
2.094110925345271
 30
0.0
 10
600.4744447161078
 20
2.100224059402162
 30
0.0
 10
600.3533426088023
 20
2.109135256080259
 30
0.0
 10
600.2326295892418
 20
2.098462480358224
 30
0.0
 10
600.0435468233403
 20
2.157931452038033
 30
0.0
 10
600.0751942895274
 20
1.998829622009797
 30
0.0
 10
600.0618477706802
 20
1.901637704633434
 30
0.0
 10
600.0597872816414
 20
1.789587072335434
 30
0.0
 10
600.0581102434637
 20
1.670243277527911
 30
0.0
 10
600.0596251184198
 20
1.543572342785502
 30
0.0
 10
600.0579496868633
 20
1.416262301395569
 30
0.0
 10
600.0681758661625
 20
1.317762085279037
 30
0.0
 10
600.0401920986544
 20
1.177133447490684
 30
0.0
 10
600.2130944389271
 20
1.233141932575338
 30
0.0
 10
600.3267934592736
 20
1.220445936019369
 30
0.0
 10
600.4463066062203
 20
1.227730191746945
 30
0.0
 10
600.5511405815039
 20
1.232026591801955
 30
0.0
 10
600.6465999288577
 20
1.236552103824166
 30
0.0
 10
600.7386737896998
 20
1.244738432696381
 30
0.0
 10
600.8099466172404
 20
1.239684927615497
 30
0.0
 10
600.9167846095648
 20
1.278610671551111
 30
0.0
 10
600.8849517988003
 20
1.198417641293173
 30
0.0
 10
600.8889078893895
 20
1.148875789694739
 30
0.0
 10
600.8857416781977
 20
1.098821201632574
 30
0.0
 10
600.9173705880551
 20
1.014534897354576
 30
0.0
 10
600.7833048067657
 20
1.06750007618595
 30
0.0
 10
600.6915237183164
 20
1.058647230138828
 30
0.0
 10
600.570264357957
 20
1.068946920885944
 30
0.0
 10
600.4537027509737
 20
1.070735538909404
 30
0.0
 10
600.3406290135842
 20
1.071116592331333
 30
0.0
 10
600.2302160698437
 20
1.077400915956185
 30
0.0
 10
600.1521038457806
 20
1.065137753788022
 30
0.0
 10
600.0536540223611
 20
1.097785297395638
 30
0.0
 10
600.0635269563527
 20
1.040943901776458
 30
0.0
 10
600.0596837634366
 20
1.00716772681424
 30
0.0
 10
600.0589704274233
 20
0.9644424683285001
 30
0.0
 10
600.0586284032943
 20
0.9272624938559217
 30
0.0
 10
600.0586748645311
 20
0.8881187949420959
 30
0.0
 10
600.0586563819892
 20
0.8504149162112531
 30
0.0
 10
600.0586617821774
 20
0.8126959735584278
 30
0.0
 10
600.0586611604165
 20
0.783189668685902
 30
0.0
 10
600.0586612541514
 20
0.751982198227416
 30
0.0
 10
600.0586618677884
 20
0.7073906703152554
 30
0.0
 10
600.0586585889303
 20
0.6528859863229183
 30
0.0
 10
600.0586674013448
 20
0.6083018232488876
 30
0.0
 10
600.0586274043382
 20
0.5244245070918055
 30
0.0
 10
600.0598938660221
 20
0.4106216280111835
 30
0.0
 10
600.0573188507806
 20
0.2615503805714893
 30
0.0
 10
600.0687923771688
 20
0.1592184593734486
 30
0.0
 10
600.0446420612226
 20
0.0266354600926644
 30
0.0
 10
600.1955908336442
 20
0.0722037439546097
 30
0.0
 10
600.3051351061522
 20
0.057516542857878
 30
0.0
 10
600.4356884863886
 20
0.0624507724850279
 30
0.0
 10
600.5613226599478
 20
0.065823474467996
 30
0.0
 10
600.6811645015564
 20
0.0703613962221198
 30
0.0
 10
600.8014277001391
 20
0.0837317830544317
 30
0.0
 10
600.8845676053481
 20
0.0739335490603482
 30
0.0
 10
601.0078994811039
 20
0.1345085674676057
 30
0.0
 10
600.9867183593922
 20
0.0785710225745969
 30
0.0
 10
600.9858864660082
 20
0.0526389149578696
 30
0.0
 10
600.9841878097525
 20
0.0252189831437823
 30
0.0
 10
600.9840889278797
 20
-0.0093716267017569
 30
0.0
 10
600.9826573691295
 20
-0.0462494965579305
 30
0.0
 10
601.0155718582158
 20
-0.1382851685475739
 30
0.0
 10
600.8174221378072
 20
-0.0654334190172908
 30
0.0
 10
600.6923462684856
 20
-0.0884963136795649
 30
0.0
 10
600.5295985685123
 20
-0.0822133589077565
 30
0.0
 10
600.3752280839967
 20
-0.0841441396663554
 30
0.0
 10
600.2189584826907
 20
-0.0828159527729353
 30
0.0
 10
600.0593458855249
 20
-0.0861548538869952
 30
0.0
 10
599.9163240732203
 20
-0.0740956214832194
 30
0.0
 10
599.6820059271595
 20
-0.1372335589964195
 30
0.0
 10
599.7796725141162
 20
0.1494516958975731
 30
0.0
 10
599.7629783170025
 20
0.3431295026609978
 30
0.0
 10
599.7769211099651
 20
0.5717288500373462
 30
0.0
 10
599.7765902236597
 20
0.7270923607848796
 30
0.0
 10
599.7765992509228
 20
0.8329097856756659
 30
0.0
 10
599.7765970266281
 20
0.8953042624765497
 30
0.0
 10
599.7765979941855
 20
0.9854506737176697
 30
0.0
 10
599.7765979863225
 20
1.089458092808782
 30
0.0
 10
599.7765968251069
 20
1.193467734987359
 30
0.0
 10
599.7766005361466
 20
1.283608858122074
 30
0.0
 10
599.7765925441016
 20
1.346014452206546
 30
0.0
 10
599.7766248664983
 20
1.451934780845587
 30
0.0
 10
599.7754355178287
 20
1.609513586681792
 30
0.0
 10
599.7705130879223
 20
1.758528619455044
 30
0.0
 10
599.7680702766584
 20
1.832479025216287
 30
0.0
 11
599.7680702766584
 21
1.832479025216287
 31
0.0
 11
599.7589832613705
 21
2.05263220224457
 31
0.0
 11
599.74911639631
 21
2.272851525106177
 31
0.0
 11
599.9034489531366
 21
2.266370335871677
 31
0.0
 11
600.0569414579013
 21
2.260795344553628
 31
0.0
 11
600.2104075043331
 21
2.256918096290701
 31
0.0
 11
600.3648458944906
 21
2.255627150110456
 31
0.0
 11
600.5187749617438
 21
2.256918096290701
 31
0.0
 11
600.6710305394565
 21
2.260795344553628
 31
0.0
 11
600.823202794104
 21
2.266370335871677
 31
0.0
 11
600.9771279152449
 21
2.272851525106177
 31
0.0
 11
600.9693726093091
 21
2.221196039007975
 31
0.0
 11
600.9667906013558
 21
2.169672844576439
 31
0.0
 11
600.969372609309
 21
2.118003026881003
 31
0.0
 11
600.9771279152449
 21
2.066405969602243
 31
0.0
 11
600.8717788444377
 21
2.073260882794976
 31
0.0
 11
600.7759290090025
 21
2.080181941820968
 31
0.0
 11
600.6821507561868
 21
2.087030240430391
 31
0.0
 11
600.5832594305848
 21
2.093878539039793
 31
0.0
 11
600.4770446589889
 21
2.100356420982635
 31
0.0
 11
600.3613974918003
 21
2.105934719592341
 31
0.0
 11
600.2289040837223
 21
2.109811967855268
 31
0.0
 11
600.0724460408389
 21
2.111102914035513
 31
0.0
 11
600.0685577683686
 21
2.003617037326261
 31
0.0
 11
600.0638294438365
 21
1.901297150199042
 31
0.0
 11
600.0599521956715
 21
1.794628174531272
 31
0.0
 11
600.0586612495238
 21
1.674267011366908
 31
0.0
 11
600.0590713536801
 21
1.541809980150052
 31
0.0
 11
600.0603810411467
 21
1.412779303098944
 31
0.0
 11
600.0616988967015
 21
1.301020405557484
 31
0.0
 11
600.0621105543626
 21
1.22019791425825
 31
0.0
 11
600.205736732584
 21
1.221048990646896
 31
0.0
 11
600.3339258320723
 21
1.223646317035161
 31
0.0
 11
600.4490992611761
 21
1.227501516686935
 31
0.0
 11
600.5540670702185
 21
1.232262914255159
 31
0.0
 11
600.6499260679387
 21
1.237426698976151
 31
0.0
 11
600.7380327764158
 21
1.242590483697057
 31
0.0
 11
600.8201795828462
 21
1.24815886043179
 31
0.0
 11
600.8980606725536
 21
1.25456728924965
 31
0.0
 11
600.8903094835151
 21
1.202090492387771
 31
0.0
 11
600.8877242839283
 21
1.147940205942973
 31
0.0
 11
600.8903094835151
 21
1.096350865678059
 31
0.0
 11
600.8980606725536
 21
1.044761525413207
 31
0.0
 11
600.8012727843978
 21
1.054169667771962
 31
0.0
 11
600.689886511198
 21
1.061897705964526
 31
0.0
 11
600.5712175819338
 21
1.067499155615852
 31
0.0
 11
600.4526081839178
 21
1.070514303184496
 31
0.0
 11
600.3372939507486
 21
1.072234094850771
 31
0.0
 11
600.2290176340666
 21
1.073953886516961
 31
0.0
 11
600.1347753707673
 21
1.075271291030564
 31
0.0
 11
600.0621105543626
 21
1.075682497627696
 31
0.0
 11
600.0616988967015
 21
1.043437506316305
 31
0.0
 11
600.0603810411467
 21
1.008672358755575
 31
0.0
 11
600.0590713536801
 21
0.9677534438352389
 31
0.0
 11
600.0586612495238
 21
0.9174616643338993
 31
0.0
 11
600.0586612495238
 21
0.8965085935926052
 31
0.0
 11
600.0586612495238
 21
0.850411837961758
 31
0.0
 11
600.0586612495238
 21
0.8043150823309109
 31
0.0
 11
600.0586612495238
 21
0.7833620115896167
 31
0.0
 11
600.0586612495238
 21
0.7618916738172109
 31
0.0
 11
600.0586612495238
 21
0.7106931760522427
 31
0.0
 11
600.0586612495238
 21
0.649585291623086
 31
0.0
 11
600.0586612495238
 21
0.598386793858118
 31
0.0
 11
600.0586612495238
 21
0.5769164560857121
 31
0.0
 11
600.0590713536801
 21
0.3980636349498745
 31
0.0
 11
600.0603810411467
 21
0.253507428388815
 31
0.0
 11
600.0625782979674
 21
0.1417485308472912
 31
0.0
 11
600.065550137695
 21
0.0609260395480362
 31
0.0
 11
600.1825006907413
 21
0.0609260395480362
 31
0.0
 11
600.3063641598712
 21
0.0609260395480362
 31
0.0
 11
600.4357839916387
 21
0.0622169857282913
 31
0.0
 11
600.5626836672209
 21
0.0660942339912083
 31
0.0
 11
600.6847572457938
 21
0.0721135048230401
 31
0.0
 11
600.8000501889428
 21
0.0798790256544066
 31
0.0
 11
600.9044668963484
 21
0.0905880360684144
 31
0.0
 11
600.9943513645414
 21
0.1056229839813057
 31
0.0
 11
600.9887168421157
 21
0.0802307010015468
 31
0.0
 11
600.9857347675388
 21
0.0523182617724274
 31
0.0
 11
600.9844254271165
 21
0.0243683399044237
 31
0.0
 11
600.9840149759161
 21
-0.0009952798808968
 31
0.0
 11
600.986600175503
 21
-0.0509100281323498
 31
0.0
 11
600.9943513645414
 21
-0.0904861826363401
 31
0.0
 11
600.8399891568309
 21
-0.0852992468737561
 31
0.0
 11
600.6865272208731
 21
-0.0835981965269923
 31
0.0
 11
600.5320703886448
 21
-0.0835981965269923
 31
0.0
 11
600.3750940886734
 21
-0.0835981965269923
 31
0.0
 11
600.2177619311502
 21
-0.0835981965269923
 31
0.0
 11
600.0621105543626
 21
-0.0835981965269923
 31
0.0
 11
599.9064535264208
 21
-0.0852992468737561
 31
0.0
 11
599.74911639631
 21
-0.0904861826363401
 31
0.0
 11
599.7589832613706
 21
0.1292590950864998
 31
0.0
 11
599.7680702766584
 21
0.3481577061428993
 31
0.0
 11
599.7744635908366
 21
0.5687540602544168
 31
0.0
 11
599.7765977844974
 21
0.7936102060315591
 31
0.0
 11
599.7765977844974
 21
0.8190346662031538
 31
0.0
 11
599.7765977844974
 21
0.8860627884737209
 31
0.0
 11
599.7765977844974
 21
0.9808266854769369
 31
0.0
 11
599.7765977844974
 21
1.089458469846477
 31
0.0
 11
599.7765977844974
 21
1.198090254216017
 31
0.0
 11
599.7765977844974
 21
1.292854151219233
 31
0.0
 11
599.7765977844974
 21
1.3598822734898
 31
0.0
 11
599.7765977844974
 21
1.385306733661395
 31
0.0
 11
599.7744635908366
 21
1.610606056521746
 31
0.0
 11
599.7680702766584
 21
1.832479025216287
 31
0.0
  0
SPLINE
  5
AF
102
{ACAD_REACTORS
330
CC
102
}
330
4A
100
AcDbEntity
  8
_U_30EC_U_30A4_U_30E4_U_30FC_1
  6
Continuous
 62
     2
100
AcDbSpline
210
0.0
220
0.0
230
1.0
 70
    11
 71
     3
 72
    95
 73
    91
 74
    89
 42
0.000000001
 43
0.0000000001
 44
0.00000001
 40
0.0
 40
0.0
 40
0.0
 40
0.0
 40
0.6550406656911556
 40
1.308087289031995
 40
1.420803739835869
 40
1.56613075977086
 40
1.757067341888539
 40
2.006513545026521
 40
2.087328263121621
 40
2.185328872295701
 40
2.29461245474845
 40
2.408936380534888
 40
2.52680276779864
 40
2.646360524615677
 40
2.762535723971655
 40
2.870057342870225
 40
2.966883448431735
 40
3.050803243518367
 40
3.115818222436677
 40
3.156030057150342
 40
3.213914225080442
 40
3.276689026450871
 40
3.342960320981477
 40
3.404230667150868
 40
3.453822809493683
 40
3.53249982718872
 40
3.634775188507483
 40
3.754909333008482
 40
3.889736761660967
 40
4.035769602175536
 40
4.187256681197922
 40
4.338733685676268
 40
4.48847873467643
 40
4.634708317831908
 40
4.771493189921583
 40
4.892686571561534
 40
5.199775528944764
 40
5.460353566929962
 40
5.667603142345826
 40
5.814722905404809
 40
5.82899080622022
 40
5.855488336304719
 40
5.869756237119107
 40
6.189796507763202
 40
6.53189046987333
 40
6.883053637017367
 40
7.230512024911839
 40
7.566966656764988
 40
7.885203559707806
 40
8.172887439719636
 40
8.418011594063112
 40
8.443926721191033
 40
8.510760470613521
 40
8.602145393796027
 40
8.701714041647463
 40
8.793098965075695
 40
8.859932715058266
 40
8.885847842603914
 40
9.242301256613137
 40
9.589275455017106
 40
9.921808543164506
 40
10.234796242985
 40
10.29968150889208
 40
10.35323493887796
 40
10.40154625355189
 40
10.46482922477867
 40
10.55973900668448
 40
10.6923954598566
 40
10.84920353475714
 40
11.01626328594823
 40
11.18672024367486
 40
11.35372582577253
 40
11.5025744229247
 40
11.61866495023335
 40
11.71329869152918
 40
11.82511050573951
 40
11.94464880845759
 40
12.06929242642549
 40
12.19707290435218
 40
12.32562632860571
 40
12.45034565331322
 40
12.56646595170371
 40
12.67099007414678
 40
12.76077625936824
 40
12.82703233506737
 40
12.87429132786035
 40
12.89831990323368
 40
12.92234847860054
 40
13.53984767410371
 40
14.18294284359405
 40
14.18294284359405
 40
14.18294284359405
 40
14.18294284359405
 10
597.1690850037987
 20
0.8022268032516422
 30
0.0
 10
597.0374934148515
 20
0.9158970072667335
 30
0.0
 10
596.7747108192697
 20
1.142891384396003
 30
0.0
 10
596.2620307830987
 20
1.985391050797285
 30
0.0
 10
596.2729568985327
 20
1.627480197004601
 30
0.0
 10
596.2664140917958
 20
1.485920343955724
 30
0.0
 10
596.2650941021737
 20
1.28745947422721
 30
0.0
 10
596.2641031992503
 20
1.114749381694224
 30
0.0
 10
596.2647016141939
 20
0.9719001538101972
 30
0.0
 10
596.2661908691848
 20
0.8758964753679701
 30
0.0
 10
596.2678597978438
 20
0.7687014538658057
 30
0.0
 10
596.2694849344582
 20
0.6548885364102073
 30
0.0
 10
596.2715343891651
 20
0.5376621472802823
 30
0.0
 10
596.274607989189
 20
0.4198105335640892
 30
0.0
 10
596.277925408701
 20
0.3055272944406066
 30
0.0
 10
596.2816519730244
 20
0.1984604399071532
 30
0.0
 10
596.2840252551392
 20
0.1033205089036172
 30
0.0
 10
596.2901633278323
 20
0.0188319932913476
 30
0.0
 10
596.286269888591
 20
-0.0375227057842159
 30
0.0
 10
596.3078144833047
 20
-0.1085033540421079
 30
0.0
 10
596.2303854448584
 20
-0.0777268027207772
 30
0.0
 10
596.1739267630157
 20
-0.0866411535894712
 30
0.0
 10
596.1163410286772
 20
-0.077791394782879
 30
0.0
 10
596.0313077868437
 20
-0.1093713265062102
 30
0.0
 10
596.0632628536348
 20
-0.0258020188437166
 30
0.0
 10
596.0613619672503
 20
0.042072510917505
 30
0.0
 10
596.0730874437268
 20
0.1455789888785674
 30
0.0
 10
596.0787155442961
 20
0.2632676774013573
 30
0.0
 10
596.0860816568908
 20
0.3971325128786353
 30
0.0
 10
596.0943674091574
 20
0.5408879499607144
 30
0.0
 10
596.1021766287395
 20
0.6903866496688366
 30
0.0
 10
596.1080485612622
 20
0.8411719152551814
 30
0.0
 10
596.1126582207934
 20
0.9902458600187751
 30
0.0
 10
596.1165546507508
 20
1.134475552864626
 30
0.0
 10
596.1193629516529
 20
1.269085473364576
 30
0.0
 10
596.119961314499
 20
1.457942564707945
 30
0.0
 10
596.1238938257118
 20
1.683001364365944
 30
0.0
 10
596.1065089768466
 20
1.956917332491472
 30
0.0
 10
596.1473331732549
 20
2.121117542220388
 30
0.0
 10
596.0618067645964
 20
2.320743035885387
 30
0.0
 10
596.1283473297653
 20
2.317101005274182
 30
0.0
 10
596.1461638663196
 20
2.31738089284294
 30
0.0
 10
596.2679716187457
 20
2.319575695220506
 30
0.0
 10
596.3703684725434
 20
2.039997608449666
 30
0.0
 10
596.620293589932
 20
1.838876506594359
 30
0.0
 10
596.8492949721076
 20
1.571172571113597
 30
0.0
 10
597.0868065603074
 20
1.319710559858131
 30
0.0
 10
597.3109005130736
 20
1.082946161848005
 30
0.0
 10
597.5373630672976
 20
0.8254333470651758
 30
0.0
 10
597.6948602276475
 20
0.7097397718036698
 30
0.0
 10
597.9095044002652
 20
0.3732179466223556
 30
0.0
 10
597.904556036458
 20
0.4978939621504275
 30
0.0
 10
597.9056845992515
 20
0.5565233405917593
 30
0.0
 10
597.9051792231479
 20
0.6436830449541593
 30
0.0
 10
597.9053389548078
 20
0.7374078530631091
 30
0.0
 10
597.9052969281286
 20
0.8234361342047359
 30
0.0
 10
597.9053116430339
 20
0.8847853406893395
 30
0.0
 10
597.9052620645947
 20
1.034598736444316
 30
0.0
 10
597.9081725912777
 20
1.273142546335435
 30
0.0
 10
597.8882435431129
 20
1.638111519921411
 30
0.0
 10
597.9373348326211
 20
1.901242741168519
 30
0.0
 10
597.7800865899147
 20
2.312535470711888
 30
0.0
 10
597.9385027262385
 20
2.257229246751874
 30
0.0
 10
597.9934594868595
 20
2.255243286236133
 30
0.0
 10
598.0450802156704
 20
2.255894203716903
 30
0.0
 10
598.1336113355333
 20
2.296941698616839
 30
0.0
 10
598.0827812693133
 20
2.150209687464271
 30
0.0
 10
598.0936304320247
 20
2.043446140778725
 30
0.0
 10
598.0788951384811
 20
1.884103475375517
 30
0.0
 10
598.0722890836171
 20
1.72177703776313
 30
0.0
 10
598.063787578988
 20
1.55317164015834
 30
0.0
 10
598.0566141592163
 20
1.391394568269796
 30
0.0
 10
598.0511977605354
 20
1.247469735813713
 30
0.0
 10
598.0494628357612
 20
1.127621355903639
 30
0.0
 10
598.0498355062283
 20
1.020107437139538
 30
0.0
 10
598.0496570516227
 20
0.9114466676902535
 30
0.0
 10
598.0499925253105
 20
0.7927821228896959
 30
0.0
 10
598.0512955012149
 20
0.6687980563618082
 30
0.0
 10
598.0531801741539
 20
0.5418293629454456
 30
0.0
 10
598.0547918844816
 20
0.4147850367447157
 30
0.0
 10
598.0564317527396
 20
0.2917952661561714
 30
0.0
 10
598.0585485135716
 20
0.176255735071988
 30
0.0
 10
598.058676281233
 20
0.0741554607927698
 30
0.0
 10
598.0629428786522
 20
-0.0166550903840352
 30
0.0
 10
598.0531354475254
 20
-0.0746173666777251
 30
0.0
 10
598.0741389161658
 20
-0.1415822774452866
 30
0.0
 10
598.0348554129863
 20
-0.1338420390987168
 30
0.0
 10
597.821822150772
 20
-0.1492010373136492
 30
0.0
 10
597.6259212333146
 20
0.4072770021789123
 30
0.0
 10
597.3234112021511
 20
0.6688067747194737
 30
0.0
 10
597.1690850037987
 20
0.8022268032516422
 30
0.0
 11
597.1690850037987
 21
0.8022268032516422
 31
0.0
 11
596.7218443728477
 21
1.280822775354174
 31
0.0
 11
596.2746963460609
 21
1.756772914124099
 31
0.0
 11
596.2712578652458
 21
1.64410892109672
 31
0.0
 11
596.2678524573466
 21
1.498821803077505
 31
0.0
 11
596.265255131024
 21
1.307902879514067
 31
0.0
 11
596.2644040546568
 21
1.058458122631976
 31
0.0
 11
596.2648153620255
 21
0.9776444507771983
 31
0.0
 11
596.2661334719783
 21
0.8796527060100061
 31
0.0
 11
596.2678106657684
 21
0.7703819942317764
 31
0.0
 11
596.2695281517483
 21
0.6560709699547829
 31
0.0
 11
596.2716922228738
 21
0.5382244508870464
 31
0.0
 11
596.2746963460609
 21
0.4187044422363897
 31
0.0
 11
596.2781274123104
 21
0.3025799196959582
 31
0.0
 11
596.2815843319963
 21
0.1951138867366922
 31
0.0
 11
596.2849999643055
 21
0.0983480447470306
 31
0.0
 11
596.2884811373758
 21
0.0145004840041167
 31
0.0
 11
596.2918920574278
 21
-0.050424958688005
 31
0.0
 11
596.2953691233115
 21
-0.0904861826363401
 31
0.0
 11
596.2377178211538
 21
-0.0852992468737561
 31
0.0
 11
596.1749660708274
 21
-0.0835981965269923
 31
0.0
 11
596.1087166107123
 21
-0.0852992468737561
 31
0.0
 11
596.047666212964
 21
-0.0904861826363401
 31
0.0
 11
596.0549687127777
 21
-0.0414346375097026
 31
0.0
 11
596.0631707959019
 21
0.0368136784429396
 31
0.0
 11
596.0713013212314
 21
0.1387653537646898
 31
0.0
 11
596.0786320831362
 21
0.2586756228319302
 31
0.0
 11
596.0859272670386
 21
0.393305544673293
 31
0.0
 11
596.0941358645562
 21
0.5391074977618473
 31
0.0
 11
596.1018418539433
 21
0.6903984525851214
 31
0.0
 11
596.1078677392059
 21
0.8417555532417396
 31
0.0
 11
596.1125960637381
 21
0.991425935148751
 31
0.0
 11
596.1164843362085
 21
1.137603817056629
 31
0.0
 11
596.1190441798931
 21
1.274364737161356
 31
0.0
 11
596.1199239194541
 21
1.395554928103309
 31
0.0
 11
596.1194840496737
 21
1.702643573859842
 31
0.0
 11
596.1182041278314
 21
1.96321846962806
 31
0.0
 11
596.1151573107858
 21
2.17044564839565
 31
0.0
 11
596.1095963502728
 21
2.317460275095016
 31
0.0
 11
596.1238642511435
 21
2.317460275095016
 31
0.0
 11
596.1503617813316
 21
2.317460275095017
 31
0.0
 11
596.1646296822023
 21
2.317460275095016
 31
0.0
 11
596.3817658040243
 21
2.082348217862133
 31
0.0
 11
596.6135658513044
 21
1.830759233550026
 31
0.0
 11
596.8517730408805
 21
1.572741976670102
 31
0.0
 11
597.0882988947487
 21
1.31821721978929
 31
0.0
 11
597.3178613107672
 21
1.072244016725769
 31
0.0
 11
597.5354711750069
 21
0.8400357615754785
 31
0.0
 11
597.7336639303674
 21
0.631513226905394
 31
0.0
 11
597.9053057489052
 21
0.4565134005602829
 31
0.0
 11
597.9053057489051
 21
0.4824285281048216
 31
0.0
 11
597.9053057489052
 21
0.5492622780881059
 31
0.0
 11
597.9053057489052
 21
0.6406472015346376
 31
0.0
 11
597.9053057489052
 21
0.7402158494689208
 31
0.0
 11
597.9053057489052
 21
0.8316007729154524
 31
0.0
 11
597.9053057489052
 21
0.8984345228987367
 31
0.0
 11
597.9053057489052
 21
0.9243496504432756
 31
0.0
 11
597.9040148027575
 21
1.280800726743063
 31
0.0
 11
597.9001375545924
 21
1.627753261378558
 31
0.0
 11
597.8919112179967
 21
1.960184580739916
 31
0.0
 11
597.8777449857193
 21
2.272851525106177
 31
0.0
 11
597.9413265639583
 21
2.259910092817734
 31
0.0
 11
597.9947084549576
 21
2.255627150110456
 31
0.0
 11
598.0428295474799
 21
2.259910092817734
 31
0.0
 11
598.1047751188164
 21
2.272851525106177
 31
0.0
 11
598.097413087754
 21
2.178227705685398
 31
0.0
 11
598.0892705358783
 21
2.045821386274042
 31
0.0
 11
598.080661975397
 21
1.889249789090957
 31
0.0
 11
598.072046161318
 21
1.722412358577088
 31
0.0
 11
598.0639102240254
 21
1.552149676327993
 31
0.0
 11
598.0565415783801
 21
1.385306733661395
 31
0.0
 11
598.0514321321486
 21
1.236545856962483
 31
0.0
 11
598.0497417868869
 21
1.120467636505396
 31
0.0
 11
598.0497417868869
 21
1.025833895209584
 31
0.0
 11
598.0497417868869
 21
0.9140220810014625
 31
0.0
 11
598.0501375594462
 21
0.7944844334618821
 31
0.0
 11
598.0513733840673
 21
0.6698469421735922
 31
0.0
 11
598.0531306583282
 21
0.5420785481083144
 31
0.0
 11
598.0548217867574
 21
0.4135362477931892
 31
0.0
 11
598.056579061018
 21
0.2888293033799485
 31
0.0
 11
598.0582701894471
 21
0.172721317297885
 31
0.0
 11
598.0595798769139
 21
0.0682053885045732
 31
0.0
 11
598.0599899810702
 21
-0.0215798632090696
 31
0.0
 11
598.0599899810702
 21
-0.0878359395814386
 31
0.0
 11
598.0599899810702
 21
-0.1350949326251794
 31
0.0
 11
598.0359614052943
 21
-0.1350949326251794
 31
0.0
 11
598.0119328295184
 21
-0.1350949326251794
 31
0.0
 11
597.6033643590388
 21
0.3279137738563023
 31
0.0
 11
597.1690850037987
 21
0.8022268032516422
 31
0.0
  0
SPLINE
  5
B0
102
{ACAD_REACTORS
330
CD
102
}
330
4A
100
AcDbEntity
  8
_U_30EC_U_30A4_U_30E4_U_30FC_1
  6
Continuous
 62
     2
100
AcDbSpline
210
0.0
220
0.0
230
1.0
 70
    11
 71
     3
 72
    25
 73
    21
 74
    19
 42
0.000000001
 43
0.0000000001
 44
0.00000001
 40
0.0
 40
0.0
 40
0.0
 40
0.0
 40
0.0911479969062547
 40
0.1858117896202956
 40
0.2804128399732786
 40
0.3715889190712806
 40
0.4679080494217572
 40
0.5642683809229516
 40
0.6605683222643571
 40
0.7569653015808835
 40
0.8561348172521339
 40
1.092615965104136
 40
1.374867658141716
 40
1.611348812011434
 40
1.710518328425073
 40
1.809403163726405
 40
2.045205463293868
 40
2.32664691762198
 40
2.56244921719046
 40
2.661334043833758
 40
2.661334043833758
 40
2.661334043833758
 40
2.661334043833758
 10
593.1306614957166
 20
0.9793918032073066
 30
0.0
 10
593.1610440307888
 20
0.9792272183799301
 30
0.0
 10
593.2229810279075
 20
0.9788917081336026
 30
0.0
 10
593.3164271350296
 20
0.9759369757544154
 30
0.0
 10
593.4098009626323
 20
0.9730239500058869
 30
0.0
 10
593.504067514344
 20
0.9721884376685483
 30
0.0
 10
593.5977879180932
 20
0.9732128678148588
 30
0.0
 10
593.6974954693171
 20
0.9724161959441099
 30
0.0
 10
593.7811863936278
 20
0.9824605235865731
 30
0.0
 10
593.9260910705011
 20
0.9555925979760336
 30
0.0
 10
593.8019046834763
 20
1.129901724034867
 30
0.0
 10
593.758878167625
 20
1.28976353129532
 30
0.0
 10
593.6431836532176
 20
1.548431006736557
 30
0.0
 10
593.5640479821222
 20
1.685556949852987
 30
0.0
 10
593.5054491011783
 20
1.90261675257518
 30
0.0
 10
593.4487718329403
 20
1.685907763368721
 30
0.0
 10
593.3675724290445
 20
1.546516545616705
 30
0.0
 10
593.2686615671454
 20
1.297316114936355
 30
0.0
 10
593.1876539484226
 20
1.112504723495154
 30
0.0
 10
593.1436597715805
 20
1.009750889795545
 30
0.0
 10
593.1306614957166
 20
0.9793918032073066
 30
0.0
 11
593.1306614957166
 21
0.9793918032073066
 31
0.0
 11
593.2218052127785
 21
0.978507653901989
 31
0.0
 11
593.3164342687546
 21
0.9759434004303955
 31
0.0
 11
593.4109996569671
 21
0.973346074042162
 31
0.0
 11
593.5021717640161
 21
0.9724949976534845
 31
0.0
 11
593.5984900167672
 21
0.9729062042506023
 31
0.0
 11
593.6948413424343
 21
0.9742236087641061
 31
0.0
 11
593.7911177028252
 21
0.9763546070275133
 31
0.0
 11
593.8874668236308
 21
0.9793918032073066
 31
0.0
 11
593.8477547713106
 21
1.070262843184589
 31
0.0
 11
593.7530568003934
 21
1.286955323130415
 31
0.0
 11
593.6400301899437
 21
1.545588283065754
 31
0.0
 11
593.5453322190264
 21
1.76228076301158
 31
0.0
 11
593.5056201667062
 21
1.853151802988862
 31
0.0
 11
593.4666244649233
 21
1.76228076301158
 31
0.0
 11
593.373634714518
 21
1.545588283065754
 31
0.0
 11
593.262646947905
 21
1.286955323130415
 31
0.0
 11
593.1696571974995
 21
1.070262843184588
 31
0.0
 11
593.1306614957166
 21
0.9793918032073066
 31
0.0
  0
SPLINE
  5
B1
102
{ACAD_REACTORS
330
CD
102
}
330
4A
100
AcDbEntity
  8
_U_30EC_U_30A4_U_30E4_U_30FC_1
  6
Continuous
 62
     2
100
AcDbSpline
210
0.0
220
0.0
230
1.0
 70
    11
 71
     3
 72
    57
 73
    53
 74
    51
 42
0.000000001
 43
0.0000000001
 44
0.00000001
 40
0.0
 40
0.0
 40
0.0
 40
0.0
 40
0.0471632082808954
 40
0.0914861054633859
 40
0.1357762519704094
 40
0.1826527001612105
 40
0.2295203288572877
 40
0.2737751972221615
 40
0.3181310461543638
 40
0.3652607198399648
 40
0.4571007286315489
 40
0.5671851029165794
 40
0.6894623283868869
 40
0.8181758272547498
 40
0.9510087229275684
 40
1.085852229674195
 40
1.218126164475414
 40
1.343545131142511
 40
1.454537202956927
 40
1.567187607530852
 40
1.680710966642413
 40
1.794226869736863
 40
1.900009184247662
 40
2.004085860447856
 40
2.108162674451744
 40
2.214000150155403
 40
2.496038577352198
 40
2.762350745479306
 40
2.997275353279493
 40
3.185110082137807
 40
3.24640789006409
 40
3.312607550212679
 40
3.37887774271161
 40
3.440140399651578
 40
4.100501696006637
 40
4.754913085563687
 40
5.41133169342408
 40
6.077890432568838
 40
6.110575292671173
 40
6.143260152775897
 40
6.367989363395328
 40
6.610525374951707
 40
6.863389136467509
 40
7.119380025547789
 40
7.376036605091262
 40
7.631164770966472
 40
7.876722425456688
 40
8.104953735856133
 40
8.312916685924499
 40
8.497730294941436
 40
8.651018984314005
 40
8.764738853624788
 40
8.764738853624788
 40
8.764738853624788
 40
8.764738853624788
 10
594.6545563890479
 20
-0.0904861826363401
 30
0.0
 10
594.6389531116896
 20
-0.0884912679748304
 30
0.0
 10
594.608686235027
 20
-0.0846215651626063
 30
0.0
 10
594.5633908592217
 20
-0.0833337290929394
 30
0.0
 10
594.5182467519312
 20
-0.0836667432251045
 30
0.0
 10
594.4721931513366
 20
-0.0836069920233755
 30
0.0
 10
594.4263410562061
 20
-0.0834954422656066
 30
0.0
 10
594.380662603813
 20
-0.0839752441997114
 30
0.0
 10
594.3373725931574
 20
-0.0821424825783956
 30
0.0
 10
594.2662862341477
 20
-0.106258010619061
 30
0.0
 10
594.2680391651405
 20
0.0150933610068826
 30
0.0
 10
594.2209110760537
 20
0.1005088187467552
 30
0.0
 10
594.1814392641729
 20
0.2181157146857996
 30
0.0
 10
594.1329549922609
 20
0.3355739466387351
 30
0.0
 10
594.0823931792486
 20
0.4573057788494719
 30
0.0
 10
594.0341549000441
 20
0.5840060998590355
 30
0.0
 10
593.9758147337561
 20
0.6925832990839704
 30
0.0
 10
593.9603807057225
 20
0.8494529925784639
 30
0.0
 10
593.81895007206
 20
0.8169808867176291
 30
0.0
 10
593.7131311804869
 20
0.828375308056209
 30
0.0
 10
593.5981484115187
 20
0.8271723363805432
 30
0.0
 10
593.487605664211
 20
0.8283158747084973
 30
0.0
 10
593.3799497912747
 20
0.8274299216096546
 30
0.0
 10
593.2744236919208
 20
0.8274124451396003
 30
0.0
 10
593.1732107071978
 20
0.8203867459585412
 30
0.0
 10
592.9889719217718
 20
0.8446050198330848
 30
0.0
 10
592.9780308075377
 20
0.5406633324532581
 30
0.0
 10
592.8710606024717
 20
0.3167781937683233
 30
0.0
 10
592.772106299431
 20
0.1321995641594113
 30
0.0
 10
592.7848004913975
 20
-0.1114515307235682
 30
0.0
 10
592.6673006106361
 20
-0.081673111233647
 30
0.0
 10
592.6044970258275
 20
-0.0841726836695808
 30
0.0
 10
592.5408786483367
 20
-0.0833128277375578
 30
0.0
 10
592.2568928584036
 20
-0.1257731793461619
 30
0.0
 10
592.8874552889349
 20
0.594065945682207
 30
0.0
 10
592.9710559679036
 20
1.106011815591681
 30
0.0
 10
593.3552167179312
 20
1.626783856734829
 30
0.0
 10
593.3400122678513
 20
2.328442683766557
 30
0.0
 10
593.5862180112663
 20
2.316702752046962
 30
0.0
 10
593.6879260547523
 20
2.325496465762107
 30
0.0
 10
593.6872666425786
 20
2.073842928537915
 30
0.0
 10
593.8051231545792
 20
1.891426628573911
 30
0.0
 10
593.8938429650452
 20
1.648883827863092
 30
0.0
 10
593.9945206875226
 20
1.416646726535689
 30
0.0
 10
594.0934057102206
 20
1.179992866903504
 30
0.0
 10
594.1922591380634
 20
0.9478638129352854
 30
0.0
 10
594.2879080780896
 20
0.7244686491223943
 30
0.0
 10
594.3782818963236
 20
0.5159719117274566
 30
0.0
 10
594.4612858958155
 20
0.3263309065276609
 30
0.0
 10
594.5349002972764
 20
0.1598774819153549
 30
0.0
 10
594.5965730285509
 20
0.0224234174953594
 30
0.0
 10
594.6372373275572
 20
-0.0567611844652787
 30
0.0
 10
594.6545563890479
 20
-0.0904861826363401
 30
0.0
 11
594.6545563890479
 21
-0.0904861826363401
 31
0.0
 11
594.6076792707414
 21
-0.0852992468737561
 31
0.0
 11
594.563389028609
 21
-0.0835981965269923
 31
0.0
 11
594.5190988821694
 21
-0.0835981965269923
 31
0.0
 11
594.4722224337124
 21
-0.0835981965269923
 31
0.0
 11
594.4253548047
 21
-0.0835981965269923
 31
0.0
 11
594.3810999360373
 21
-0.0835981965269923
 31
0.0
 11
594.3367767166819
 21
-0.0852992468737561
 31
0.0
 11
594.2899333411408
 21
-0.0904861826363401
 31
0.0
 11
594.261544652629
 21
-0.0031439170331637
 31
0.0
 11
594.2245636205864
 21
0.1005429839825922
 31
0.0
 11
594.1811300626667
 21
0.2148462912456637
 31
0.0
 11
594.1333970256901
 21
0.33438173392409
 31
0.0
 11
594.0831074523201
 21
0.4573269943100442
 31
0.0
 11
594.0319381393897
 21
0.5820846505288557
 31
0.0
 11
593.9820446191292
 21
0.7045878362621174
 31
0.0
 11
593.9356033501806
 21
0.821091594913554
 31
0.0
 11
593.8246526297554
 21
0.8241210740794571
 31
0.0
 11
593.7120223615054
 21
0.8262509699123086
 31
0.0
 11
593.5985066459415
 21
0.8275683744258018
 31
0.0
 11
593.4849914866766
 21
0.8279795810229302
 31
0.0
 11
593.3792099702781
 21
0.8275683744258018
 31
0.0
 11
593.275141630919
 21
0.8262509699123086
 31
0.0
 11
593.171086611401
 21
0.8241210740794571
 31
0.0
 11
593.0652925005561
 21
0.821091594913554
 31
0.0
 11
592.9603829140104
 21
0.5592907963679004
 31
0.0
 11
592.8657783080298
 21
0.3103487478190061
 31
0.0
 11
592.7875145600264
 21
0.0888439909299628
 31
0.0
 11
592.731634561452
 21
-0.0904861826363401
 31
0.0
 11
592.6705566029407
 21
-0.0852992468737561
 31
0.0
 11
592.6043788008096
 21
-0.0835981965269923
 31
0.0
 11
592.5381304431248
 21
-0.0852992468737561
 31
0.0
 11
592.4770877623903
 21
-0.0904861826363401
 31
0.0
 11
592.7522599341896
 21
0.5098115081858161
 31
0.0
 11
593.0205860124136
 21
1.10668284484214
 31
0.0
 11
593.286319174037
 21
1.706908877678213
 31
0.0
 11
593.5537655126998
 21
2.317460275095016
 31
0.0
 11
593.5864503729771
 21
2.317460275095016
 31
0.0
 11
593.6191352332544
 21
2.317460275095016
 31
0.0
 11
593.7051215071023
 21
2.109831811605236
 31
0.0
 11
593.7980200203574
 21
1.885792566869554
 31
0.0
 11
593.895162891143
 21
1.652333053039083
 31
0.0
 11
593.9940850847997
 21
1.416227705875855
 31
0.0
 11
594.0938255639892
 21
1.17974422503223
 31
0.0
 11
594.1935985519319
 21
0.9449342337715052
 31
0.0
 11
594.2903522647416
 21
0.7192413432028921
 31
0.0
 11
594.3810999360373
 21
0.5098269422135786
 31
0.0
 11
594.4645065224512
 21
0.319322532539001
 31
0.0
 11
594.5393207653342
 21
0.1503287478590778
 31
0.0
 11
594.6033643576568
 21
0.0110597982410745
 31
0.0
 11
594.6545563890479
 21
-0.0904861826363401
 31
0.0
  0
SPLINE
  5
B2
102
{ACAD_REACTORS
330
CE
102
}
330
4A
100
AcDbEntity
  8
_U_30EC_U_30A4_U_30E4_U_30FC_1
  6
Continuous
 62
     2
100
AcDbSpline
210
0.0
220
0.0
230
1.0
 70
    11
 71
     3
 72
    99
 73
    95
 74
    93
 42
0.000000001
 43
0.0000000001
 44
0.00000001
 40
0.0
 40
0.0
 40
0.0
 40
0.0
 40
0.0796417172272722
 40
0.1621768542356322
 40
0.2486489160956992
 40
0.3404969668523178
 40
0.4381912511164312
 40
0.5434463660244339
 40
0.65181151928461
 40
0.7530190937886273
 40
0.8492196919724528
 40
0.9419290312998012
 40
1.034249663569987
 40
1.129078600620195
 40
1.226697027573186
 40
1.327220425421639
 40
1.470572134937958
 40
1.595489863371157
 40
1.719934125348262
 40
1.850576620127344
 40
1.989059629987341
 40
2.13413905422696
 40
2.280698007207115
 40
2.424529739039259
 40
2.565929576985713
 40
2.708239260773373
 40
2.861717887443554
 40
3.045168540347245
 40
3.183798301138478
 40
3.314813961455309
 40
3.4420834704471
 40
3.569912708372831
 40
3.702177512509297
 40
3.842307559659592
 40
3.992872223245858
 40
4.156750662218133
 40
4.310981861107327
 40
4.445859909322453
 40
4.57239393613153
 40
4.701656719781957
 40
4.768279086008389
 40
4.835960697898336
 40
4.912788918729274
 40
5.006285208481528
 40
5.026909478751633
 40
5.047533749021169
 40
5.10180803147118
 40
5.162325165538475
 40
5.226919745995828
 40
5.294231806596789
 40
5.364544852554875
 40
5.438319055467926
 40
5.517877651324122
 40
5.607647714861688
 40
5.70044964254445
 40
5.788251142364124
 40
5.87271470603971
 40
5.955167292575269
 40
6.037192395190401
 40
6.120669181469085
 40
6.206848616686383
 40
6.296680855416791
 40
6.442558392872619
 40
6.568190371608334
 40
6.692904567360415
 40
6.824220446557193
 40
6.963121850329506
 40
7.107843738851262
 40
7.253431663907405
 40
7.395187468036883
 40
7.53314075323782
 40
7.670550457175223
 40
7.816236511769309
 40
7.987691657359273
 40
8.142277421969283
 40
8.29366261541508
 40
8.442962460879373
 40
8.591598316185218
 40
8.743678992361804
 40
8.903725323699158
 40
9.076307008890478
 40
9.265578604680645
 40
9.459203795360763
 40
9.617619810273494
 40
9.753609671361875
 40
9.874873300004003
 40
9.95452018497763
 40
10.02416413719231
 40
10.09769764405431
 40
10.18909955924957
 40
10.20974586420127
 40
10.23039218263373
 40
10.30057101881262
 40
10.37632012987543
 40
10.37632012987543
 40
10.37632012987543
 40
10.37632012987543
 10
590.0088869225817
 20
0.2312030533943243
 30
0.0
 10
590.0255132241185
 20
0.2104525096875221
 30
0.0
 10
590.0593698596543
 20
0.1681975383534252
 30
0.0
 10
590.1222736931002
 20
0.1135445351551432
 30
0.0
 10
590.1955415330358
 20
0.0662366724448939
 30
0.0
 10
590.2798883628602
 20
0.028518735613705
 30
0.0
 10
590.3755155005426
 20
0.0036526185539259
 30
0.0
 10
590.479476816531
 20
-0.0036579853062597
 30
0.0
 10
590.5846934610372
 20
0.0046696491749339
 30
0.0
 10
590.6829540761298
 20
0.0347382177496809
 30
0.0
 10
590.7681900817513
 20
0.0817346509531864
 30
0.0
 10
590.840213459607
 20
0.1427763337429374
 30
0.0
 10
590.8973832099061
 20
0.2173761170202891
 30
0.0
 10
590.9390783137408
 20
0.3032710678360827
 30
0.0
 10
590.9649867236258
 20
0.3981049255565329
 30
0.0
 10
590.9740951722617
 20
0.5117962116180487
 30
0.0
 10
590.9609779186453
 20
0.6365722989421854
 30
0.0
 10
590.894824472438
 20
0.7533936129532729
 30
0.0
 10
590.7992285309535
 20
0.838371817008196
 30
0.0
 10
590.6872595412333
 20
0.9074132658259925
 30
0.0
 10
590.5616573973235
 20
0.9652878416932846
 30
0.0
 10
590.4279606010821
 20
1.016983654077783
 30
0.0
 10
590.2936037208797
 20
1.072237345206192
 30
0.0
 10
590.1674898376845
 20
1.142644127650968
 30
0.0
 10
590.0549494377499
 20
1.231101828546813
 30
0.0
 10
589.9592877454425
 20
1.343057099919178
 30
0.0
 10
589.895707154179
 20
1.492745522248171
 30
0.0
 10
589.8823620894982
 20
1.652574365085817
 30
0.0
 10
589.8943425377414
 20
1.803730474302841
 30
0.0
 10
589.9335213318806
 20
1.931338867149742
 30
0.0
 10
589.9977902140873
 20
2.044055161542928
 30
0.0
 10
590.0861119389706
 20
2.139732513921244
 30
0.0
 10
590.1961005597592
 20
2.21678857109195
 30
0.0
 10
590.3255198791231
 20
2.274760390597112
 30
0.0
 10
590.4734753357757
 20
2.310638197122624
 30
0.0
 10
590.6304983845453
 20
2.320713611740039
 30
0.0
 10
590.7797854856396
 20
2.311882798860291
 30
0.0
 10
590.9219168004136
 20
2.283995414637942
 30
0.0
 10
591.0218836999592
 20
2.22737956824577
 30
0.0
 10
591.174798912615
 20
2.179992442289508
 30
0.0
 10
591.1078046107136
 20
2.0952219512462
 30
0.0
 10
591.0919393510235
 20
2.027635439969247
 30
0.0
 10
591.0601664921265
 20
1.96250734916627
 30
0.0
 10
591.0773116599536
 20
1.860480953803899
 30
0.0
 10
591.0289341598196
 20
1.868178538053404
 30
0.0
 10
590.9938703830732
 20
1.861314138482458
 30
0.0
 10
590.9919612375684
 20
1.925884732816408
 30
0.0
 10
590.9608607321957
 20
1.97150281744834
 30
0.0
 10
590.928746601842
 20
2.028856787518986
 30
0.0
 10
590.8830952865133
 20
2.078651048159901
 30
0.0
 10
590.8281422608351
 20
2.123194558424384
 30
0.0
 10
590.7633755562973
 20
2.160886309599873
 30
0.0
 10
590.6855291700565
 20
2.186080179147967
 30
0.0
 10
590.5978074943317
 20
2.192558731215484
 30
0.0
 10
590.5075817667771
 20
2.185603514090469
 30
0.0
 10
590.4217509084032
 20
2.162338325843623
 30
0.0
 10
590.3451258028563
 20
2.12456286230981
 30
0.0
 10
590.2788180026168
 20
2.073762832130129
 30
0.0
 10
590.2245474926927
 20
2.010557855306546
 30
0.0
 10
590.1847839735428
 20
1.936010978337975
 30
0.0
 10
590.159968990055
 20
1.852419561212087
 30
0.0
 10
590.1515038652835
 20
1.745175905057224
 30
0.0
 10
590.1642612377068
 20
1.62290099390997
 30
0.0
 10
590.2304462799239
 20
1.504743664146523
 30
0.0
 10
590.3263891789799
 20
1.41930967832967
 30
0.0
 10
590.4380829353146
 20
1.349080044301592
 30
0.0
 10
590.563377805867
 20
1.289838044287455
 30
0.0
 10
590.6972738331413
 20
1.239413502095718
 30
0.0
 10
590.8312844723116
 20
1.186471591078202
 30
0.0
 10
590.9573799706882
 20
1.12074812748619
 30
0.0
 10
591.0699131028384
 20
1.038049946607594
 30
0.0
 10
591.1654284674195
 20
0.9332064843350674
 30
0.0
 10
591.229562087693
 20
0.7926175937501414
 30
0.0
 10
591.2434018115242
 20
0.6339005157503098
 30
0.0
 10
591.2296869102196
 20
0.4747779734131286
 30
0.0
 10
591.186765354395
 20
0.3280847094264933
 30
0.0
 10
591.1168820719029
 20
0.1944443871059424
 30
0.0
 10
591.0197506603798
 20
0.0785702982271586
 30
0.0
 10
590.8970720413623
 20
-0.0158537610646609
 30
0.0
 10
590.7497322803134
 20
-0.0849608722457912
 30
0.0
 10
590.580004688709
 20
-0.1272214701770788
 30
0.0
 10
590.3940319369564
 20
-0.1389362164615099
 30
0.0
 10
590.2151870316147
 20
-0.1286587119312393
 30
0.0
 10
590.0504648143709
 20
-0.0870878410740351
 30
0.0
 10
589.9457325231022
 20
-0.0187771499262043
 30
0.0
 10
589.7973875180335
 20
0.0299986115554375
 30
0.0
 10
589.8603292584692
 20
0.1230123341428587
 30
0.0
 10
589.8695188820026
 20
0.196211783717178
 30
0.0
 10
589.8926625691197
 20
0.2626093662478642
 30
0.0
 10
589.8657502725282
 20
0.3629945165102187
 30
0.0
 10
589.9144253346304
 20
0.3555867564081731
 30
0.0
 10
589.9539444970661
 20
0.3621870574433339
 30
0.0
 10
589.9619119334668
 20
0.284033453423731
 30
0.0
 10
589.9928351357889
 20
0.249255694992967
 30
0.0
 10
590.0088869225817
 20
0.2312030533943243
 30
0.0
 11
590.0088869225817
 21
0.2312030533943243
 31
0.0
 11
590.0604952465831
 21
0.1705451193817602
 31
0.0
 11
590.1224019891301
 21
0.115959372867593
 31
0.0
 11
590.1950678399768
 21
0.0690862305182272
 31
0.0
 11
590.2789383045808
 21
0.0316454839997675
 31
0.0
 11
590.3735125122375
 21
0.0071527843531669
 31
0.0
 11
590.478451771713
 21
-0.0009952798808968
 31
0.0
 11
590.5863653887517
 21
0.0088869076166169
 31
0.0
 11
590.6831334331582
 21
0.038533470109229
 31
0.0
 11
590.7673690473284
 21
0.084997610722592
 31
0.0
 11
590.8379058597652
 21
0.1451605534159057
 31
0.0
 11
590.8942356499946
 21
0.2183046158975976
 31
0.0
 11
590.935960440597
 21
0.3034607617096299
 31
0.0
 11
590.9617595197998
 21
0.3976083311305167
 31
0.0
 11
590.9703739119411
 21
0.4977619422165844
 31
0.0
 11
590.9501432093323
 21
0.6396789300283672
 31
0.0
 11
590.8895437056697
 21
0.7489132615982612
 31
0.0
 11
590.7987885676251
 21
0.8340594855353451
 31
0.0
 11
590.6883016274705
 21
0.9037738865595486
 31
0.0
 11
590.5631437921219
 21
0.9630449629336226
 31
0.0
 11
590.4285866340963
 21
1.017288955975602
 31
0.0
 11
590.2939798666973
 21
1.075259164294433
 31
0.0
 11
590.1688716407225
 21
1.146220414276712
 31
0.0
 11
590.0583190488246
 21
1.234379580921331
 31
0.0
 11
589.9676295625231
 21
1.344049372560562
 31
0.0
 11
589.9069969859449
 21
1.485043625997551
 31
0.0
 11
589.8867993562519
 21
1.667379025257532
 31
0.0
 11
589.8996944861312
 21
1.805407740500808
 31
0.0
 11
589.9383931049356
 21
1.930577705747282
 31
0.0
 11
590.001605612147
 21
2.041039042525242
 31
0.0
 11
590.088041434451
 21
2.13521527514061
 31
0.0
 11
590.1959407198929
 21
2.211711828940903
 31
0.0
 11
590.3236440673295
 21
2.269403122329265
 31
0.0
 11
590.4698307649888
 21
2.305447089334127
 31
0.0
 11
590.6332682955415
 21
2.317460275095016
 31
0.0
 11
590.7871832821254
 21
2.307589111903042
 31
0.0
 11
590.9187801632572
 21
2.278019719549377
 31
0.0
 11
591.0348550734906
 21
2.227646360186917
 31
0.0
 11
591.1423707131089
 21
2.155888052913156
 31
0.0
 11
591.1139908440412
 21
2.095612662303253
 31
0.0
 11
591.090776964425
 21
2.032036594610872
 31
0.0
 11
591.0701295430767
 21
1.958034841157086
 31
0.0
 11
591.0494755071452
 21
1.866848400207658
 31
0.0
 11
591.028851236838
 21
1.866848400207658
 31
0.0
 11
591.0082269665309
 21
1.866848400207658
 31
0.0
 11
590.9879620885758
 21
1.917197506097864
 31
0.0
 11
590.9617573149387
 21
1.971746872403685
 31
0.0
 11
590.9273383314417
 21
2.026407584195546
 31
0.0
 11
590.8826469002902
 21
2.076742358488502
 31
0.0
 11
590.8280247749476
 21
2.121018174449688
 31
0.0
 11
590.7639636394292
 21
2.157607844579417
 31
0.0
 11
590.6882597351107
 21
2.182071881031664
 31
0.0
 11
590.5988636436414
 21
2.190257427904612
 31
0.0
 11
590.5063851564173
 21
2.182516160545415
 31
0.0
 11
590.421698648161
 21
2.159336455690067
 31
0.0
 11
590.3459938878806
 21
2.121881377574475
 31
0.0
 11
590.2806669156482
 21
2.071574164045416
 31
0.0
 11
590.227340227763
 21
2.009249355033187
 31
0.0
 11
590.1877723623868
 21
1.935745900190454
 31
0.0
 11
590.1632438144675
 21
1.85313085680831
 31
0.0
 11
590.1550868494073
 21
1.763669719677921
 31
0.0
 11
590.1753010155583
 21
1.61919950270013
 31
0.0
 11
590.2359170556786
 21
1.509158191963763
 31
0.0
 11
590.3266393710724
 21
1.423583122540709
 31
0.0
 11
590.4371591338779
 21
1.352665969780645
 31
0.0
 11
590.5623004327686
 21
1.292389476740184
 31
0.0
 11
590.6968741272519
 21
1.239150900364621
 31
0.0
 11
590.8314643581934
 21
1.183641317045133
 31
0.0
 11
590.9565891206264
 21
1.117019233728485
 31
0.0
 11
591.0670923469736
 21
1.034435058401886
 31
0.0
 11
591.1578311988253
 21
0.9312464559971261
 31
0.0
 11
591.2184472389455
 21
0.7987695810302391
 31
0.0
 11
591.2386614050963
 21
0.6285102060727752
 31
0.0
 11
591.2244754137964
 21
0.4745767252085251
 31
0.0
 11
591.1819001399158
 21
0.3293017339253765
 31
0.0
 11
591.1122667274229
 21
0.1972349631250729
 31
0.0
 11
591.016790646868
 21
0.0833186089868718
 31
0.0
 11
590.896397516259
 21
-0.0096008527954297
 31
0.0
 11
590.7519074591812
 21
-0.0784300020837918
 31
0.0
 11
590.5846433922679
 21
-0.1209408267259242
 31
0.0
 11
590.3959017738191
 21
-0.1350949326251794
 31
0.0
 11
590.2027946116353
 21
-0.1209408267259243
 31
0.0
 11
590.0501890290877
 21
-0.0784300020837918
 31
0.0
 11
589.9284812332169
 21
-0.0177632486267036
 31
0.0
 11
589.828317621633
 21
0.0505896506617773
 31
0.0
 11
589.8545234977004
 21
0.1258018728651606
 31
0.0
 11
589.8713035927583
 21
0.1933940950705164
 31
0.0
 11
589.8829110837817
 21
0.2660056835940097
 31
0.0
 11
589.8936520644104
 21
0.3567743033629824
 31
0.0
 11
589.9142983833281
 21
0.3567743033629824
 31
0.0
 11
589.9349447022457
 21
0.3567743033629824
 31
0.0
 11
589.9671830781596
 21
0.2944384700452325
 31
0.0
 11
590.0088869225817
 21
0.2312030533943243
 31
0.0
  0
LWPOLYLINE
  5
B3
102
{ACAD_REACTORS
330
C0
102
}
330
4A
100
AcDbEntity
  8
_U_30EC_U_30A4_U_30E4_U_30FC_1
  6
Continuous
 62
     2
100
AcDbPolyline
 90
        5
 70
     1
 43
0.0
 10
612.3201052422637
 20
1.49046978919066
 10
612.3201052422637
 20
1.32200076145497
 10
611.0225886086996
 20
1.32200076145497
 10
611.0225886086996
 20
1.49046978919066
 10
612.3201052422637
 20
1.49046978919066
  0
MTEXT
  5
B5
330
4A
100
AcDbEntity
  8
1
 62
     2
100
AcDbMText
 10
452.3622914389966
 20
268.0932464212347
 30
0.0
 40
5.0
 41
0.0
 71
     5
 72
     1
  1
図番
  7
CONVERTER_11
 73
     1
 44
0.45454545454545
  0
MTEXT
  5
B6
330
4A
100
AcDbEntity
  8
1
 62
     2
100
AcDbMText
 10
448.8622914389966
 20
20.0932464212344
 30
0.0
 40
3.5
 41
0.0
 71
     5
 72
     1
  1
備考
  7
CONVERTER_11
 73
     1
 44
0.45454545454545
  0
MTEXT
  5
B7
330
4A
100
AcDbEntity
  8
1
 62
     2
100
AcDbMText
 10
448.8622914389966
 20
8.8432464212344
 30
0.0
 40
3.5
 41
0.0
 71
     5
 72
     1
  1
品名
  7
CONVERTER_11
 73
     1
 44
0.72727272727273
  0
MTEXT
  5
B8
330
4A
100
AcDbEntity
  8
1
 62
     2
100
AcDbMText
 10
448.8622914389966
 20
0.3432464212344
 30
0.0
 40
3.5
 41
0.0
 71
     5
 72
     1
  1
品番
  7
CONVERTER_11
 73
     1
 44
0.72727272727273
  0
MTEXT
  5
B9
330
4A
100
AcDbEntity
  8
1
 62
     2
100
AcDbMText
 10
521.3622914389966
 20
11.0932464212344
 30
0.0
 40
3.0
 41
0.0
 71
     5
 72
     1
  1
承認
  7
CONVERTER_11
 73
     1
 44
0.59090909090909
  0
MTEXT
  5
BA
330
4A
100
AcDbEntity
  8
1
 62
     2
100
AcDbMText
 10
594.8622914389966
 20
9.5932464212344
 30
0.0
 40
3.5
 41
0.0
 71
     5
 72
     1
  1
第三角法
  7
CONVERTER_11
 73
     1
 44
0.54545454545455
  0
MTEXT
  5
BB
330
4A
100
AcDbEntity
  8
1
 62
     2
100
AcDbMText
 10
538.3622914389966
 20
11.0932464212344
 30
0.0
 40
3.0
 41
0.0
 71
     5
 72
     1
  1
検図
  7
CONVERTER_11
 73
     1
 44
0.59090909090909
  0
MTEXT
  5
BC
330
4A
100
AcDbEntity
  8
1
 62
     2
100
AcDbMText
 10
572.3622914389966
 20
11.0932464212344
 30
0.0
 40
3.0
 41
0.0
 71
     5
 72
     1
  1
設計
  7
CONVERTER_11
 73
     1
 44
0.59090909090909
  0
MTEXT
  5
BD
330
4A
100
AcDbEntity
  8
1
 62
     2
100
AcDbMText
 10
555.3622914389966
 20
11.0932464212344
 30
0.0
 40
3.0
 41
0.0
 71
     5
 72
     1
  1
製図
  7
CONVERTER_11
 73
     1
 44
0.59090909090909
  0
MTEXT
  5
BE
330
4A
100
AcDbEntity
  8
1
 62
     2
100
AcDbMText
 10
509.3622914389966
 20
10.0932464212344
 30
0.0
 40
3.5
 41
0.0
 71
     5
 72
     1
  1
尺度
  7
CONVERTER_11
 73
     1
 44
0.54545454545455
  0
MTEXT
  5
BF
330
4A
100
AcDbEntity
  8
1
 62
   250
100
AcDbMText
 10
444.8622914389966
 20
-8.9067535787656
 30
0.0
 40
3.5
 41
0.0
 71
     4
 72
     1
  1
備考欄の文字列 原点位置=4
  7
CONVERTER_11
 73
     1
 44
0.54545454545455
  0
HATCH
  5
C0
330
4A
100
AcDbEntity
  8
1
  6
Continuous
 62
     2
100
AcDbHatch
 10
0.0
 20
0.0
 30
0.0
210
0.0
220
0.0
230
1.0
  2
CUSTOM0
 70
     0
 71
     1
 91
        1
 92
        1
 93
        4
 72
     1
 10
612.3201052422637
 20
1.490469789190655
 11
612.3201052422637
 21
1.322000761454973
 72
     1
 10
612.3201052422637
 20
1.322000761454973
 11
611.0225886086996
 21
1.322000761454973
 72
     1
 10
611.0225886086996
 20
1.322000761454973
 11
611.0225886086996
 21
1.490469789190655
 72
     1
 10
611.0225886086996
 20
1.490469789190655
 11
612.3201052422637
 21
1.490469789190655
 97
        1
330
B3
 75
     1
 76
     2
 52
45.0
 41
0.1
 77
     0
 78
     1
 53
45.0
 43
0.0
 44
0.0
 45
-0.282842712474619
 46
0.0
 79
     0
 98
        1
 10
0.0
 20
0.0
  0
HATCH
  5
C1
330
4A
100
AcDbEntity
  8
1
  6
Continuous
 62
     2
100
AcDbHatch
 10
0.0
 20
0.0
 30
0.0
210
0.0
220
0.0
230
1.0
  2
CUSTOM1
 70
     0
 71
     1
 91
        1
 92
        1
 93
        3
 72
     4
 94
        3
 73
     0
 74
     0
 95
       24
 96
       20
 40
0.0
 40
0.0
 40
0.0
 40
0.0
 40
0.2211075008753765
 40
0.427321858624537
 40
0.5080174679239038
 40
0.5914835907868872
 40
0.8143265690191444
 40
1.05465130268645
 40
1.295452694023001
 40
1.518109231328656
 40
1.540864321905271
 40
1.595126460622504
 40
1.659890947895984
 40
1.714153085187314
 40
1.736908174961614
 40
1.764951100735356
 40
1.801562291221001
 40
1.953914424543693
 40
2.126104167379705
 40
2.126104167379705
 40
2.126104167379705
 40
2.126104167379705
 10
605.7998283946854
 20
1.683139372364565
 10
605.7735493471777
 20
1.624222703578143
 10
605.722761328439
 20
1.510357818026936
 10
605.6754699229077
 20
1.237666003565584
 10
605.5666397192583
 20
1.337701246988895
 10
605.4137714669604
 20
1.364432354907769
 10
605.6309069571165
 20
1.578427771410702
 10
605.6461398064348
 20
1.796567599059248
 10
605.7529803881964
 20
1.977762211898691
 10
605.6928295337043
 20
2.262378684348398
 10
605.7957231785366
 20
2.234387313458907
 10
605.8402847858116
 20
2.225678937257367
 10
605.9003756785362
 20
2.214642963067971
 10
605.9379533977403
 20
2.20092165179
 10
605.9875381318573
 20
2.20080718283661
 10
605.9553073309289
 20
2.166312345220634
 10
605.8794716611848
 20
2.177287466614046
 10
605.9052361549653
 20
1.991836117058956
 10
605.8678811153817
 20
1.900269556730296
 10
605.8480619351576
 20
1.851687775211445
 72
     4
 94
        3
 73
     0
 74
     0
 95
       70
 96
       66
 40
0.0
 40
0.0
 40
0.0
 40
0.0
 40
0.0241731073020904
 40
0.0846058988986445
 40
0.1631685280352715
 40
0.2417311571787198
 40
0.3021639488290477
 40
0.3263370654893836
 40
0.3533118254247202
 40
0.4228783438920415
 40
0.5179999095311706
 40
0.6216398239464379
 40
0.7167613891498023
 40
0.7863279069648171
 40
0.8133026791760144
 40
0.8372943998770552
 40
0.8945054261370894
 40
0.9627895541961797
 40
1.020000580348962
 40
1.043992300975201
 40
1.071934345523035
 40
1.113121768772937
 40
1.145225199332259
 40
1.225483775412799
 40
1.329819923771513
 40
1.434156071994407
 40
1.514414647795828
 40
1.546518078208437
 40
1.578974764260211
 40
1.66267884931412
 40
1.777131373668313
 40
1.901833377474845
 40
2.016285900500379
 40
2.099989982527832
 40
2.13244666657019
 40
2.158782354485914
 40
2.216720867907703
 40
2.274659381334125
 40
2.30099506925606
 40
2.333451754066146
 40
2.417155836543798
 40
2.531608358985095
 40
2.656310362283562
 40
2.770762886388666
 40
2.854466971339803
 40
2.886923657363609
 40
2.913597976833041
 40
2.982389642874844
 40
3.07645171694671
 40
3.178937260458323
 40
3.272999334739724
 40
3.341791001058946
 40
3.368465320663258
 40
3.396976080738423
 40
3.472140811845716
 40
3.578408190308291
 40
3.700226892455785
 40
3.822045594633973
 40
3.928312973255938
 40
4.003477705314449
 40
4.031988456866515
 40
4.058324144797313
 40
4.116262658236471
 40
4.174201171400269
 40
4.200536849608201
 40
4.200536849608201
 40
4.200536849608201
 40
4.200536849608201
 10
605.8480619351576
 20
1.851687775211445
 10
605.8561173934645
 20
1.851690019351262
 10
605.8843115053206
 20
1.85169788156237
 10
605.9388449193639
 20
1.851553969518111
 10
606.0105806198569
 20
1.852337626233374
 10
606.0859154527029
 20
1.849522125872507
 10
606.1335966756402
 20
1.856230455243977
 10
606.1817985635582
 20
1.8452220581587
 10
606.1685486189838
 20
1.898710451204723
 10
606.1774008354503
 20
1.953742256665312
 10
606.1731612426249
 20
2.047445508495481
 10
606.1756397871247
 20
2.14284124341972
 10
606.1713853096024
 20
2.23681464106826
 10
606.1802733055811
 20
2.291197045614524
 10
606.1669891799911
 20
2.345586398149016
 10
606.2137033667073
 20
2.331668584587975
 10
606.2566168935701
 20
2.334285194974824
 10
606.3228357846651
 20
2.329730645741948
 10
606.3636256661764
 20
2.321028042576008
 10
606.4148060080787
 20
2.328564420136364
 10
606.3876634877164
 20
2.286746123467355
 10
606.3426010445673
 20
2.29609634196031
 10
606.3564979435017
 20
2.231658494952789
 10
606.3481328821621
 20
2.167028617508386
 10
606.3526546568364
 20
2.068537833173277
 10
606.3477655701136
 20
1.9692057496601
 10
606.3573173382047
 20
1.906177576764082
 10
606.3422675845168
 20
1.842886536232281
 10
606.4072073847175
 20
1.858397150677081
 10
606.4739160789461
 20
1.848240298212521
 10
606.5864349860793
 20
1.853134422228064
 10
606.7013149838918
 20
1.850158468562233
 10
606.8142786389712
 20
1.855463063084296
 10
606.8799181987641
 20
1.844319485955276
 10
606.9439191081019
 20
1.860691744432967
 10
606.9326057279154
 20
1.810863320287142
 10
606.9398254261475
 20
1.767413573355625
 10
606.9326057001233
 20
1.723963877108836
 10
606.9439191565959
 20
1.674135373203123
 10
606.8799177988935
 20
1.69050808214803
 10
606.8142835630424
 20
1.679359137850277
 10
606.7012888707296
 20
1.684694993302938
 10
606.5865370938609
 20
1.681589877872605
 10
606.4736098076826
 20
1.686895368060286
 10
606.4078135293552
 20
1.675819421430331
 10
606.3439012365325
 20
1.692122399710573
 10
606.3558929555094
 20
1.637481665191812
 10
606.3485019002969
 20
1.581789371712815
 10
606.3515599231952
 20
1.489743312640097
 10
606.3516337175649
 20
1.395037519965408
 10
606.3483227968326
 20
1.302774250257048
 10
606.3562420379867
 20
1.247604108595799
 10
606.3437991001585
 20
1.19382811223578
 10
606.4012030941597
 20
1.207784109862207
 10
606.461762253035
 20
1.198361000076673
 10
606.5671595245044
 20
1.202675280521445
 10
606.6827208460589
 20
1.201601467354717
 10
606.7982603267761
 20
1.200506080244349
 10
606.9037095520805
 20
1.20487167894072
 10
606.9641594861769
 20
1.195340681541099
 10
607.0215752129076
 20
1.209419317298196
 10
607.0100688266674
 20
1.160317953891228
 10
607.0160481171715
 20
1.118893001420893
 10
607.0143225440765
 20
1.069763200901362
 10
607.0144414512938
 20
1.041790705710485
 10
607.0144786081798
 20
1.033049303193906
 72
     4
 94
        3
 73
     0
 74
     0
 95
       62
 96
       58
 40
0.0
 40
0.0
 40
0.0
 40
0.0
 40
0.0598250028308485
 40
0.2024846486897331
 40
0.3727558389221031
 40
0.515415484793607
 40
0.5752404975785339
 40
0.9332326775487298
 40
1.290451762839448
 40
1.60207725314585
 40
1.699931634112038
 40
1.799359756424966
 40
2.270120149657
 40
2.804661928461359
 40
2.882342287383071
 40
3.076543185718919
 40
3.329004354835379
 40
3.581465524568203
 40
3.775666424543484
 40
3.853346784558104
 40
3.899120679594964
 40
3.984129341791933
 40
4.029903236817423
 40
4.105797496059582
 40
4.29553314415254
 40
4.542189486611786
 40
4.788845828875737
 40
4.978581476410124
 40
5.054475735244368
 40
5.621734664339455
 40
6.13086724203742
 40
6.225249780948503
 40
6.318913039727319
 40
6.663579954558983
 40
7.047498900224812
 40
7.435230791575753
 40
7.498943906668222
 40
7.650875181210102
 40
7.832212509001755
 40
7.984143783697112
 40
8.047856898903268
 40
8.091554632732771
 40
8.172707566964426
 40
8.21640530076815
 40
8.289021782161006
 40
8.462184160757323
 40
8.66886183800563
 40
8.84202421526408
 40
8.914640695475276
 40
8.98988158086148
 40
9.155411528827386
 40
9.320941477744169
 40
9.396182352487418
 40
9.454709011143851
 40
9.583467660170928
 40
9.71222630901315
 40
9.770752957989604
 40
9.770752957989604
 40
9.770752957989604
 40
9.770752957989604
 10
607.0144786081798
 20
1.033049303193906
 10
606.9945262561589
 20
1.033055176921119
 10
606.9269952106431
 20
1.033075059295984
 10
606.8033526551754
 20
1.032740046437662
 10
606.6486094540021
 20
1.034323158739523
 10
606.5320263872447
 20
1.030107209839357
 10
606.3173857024202
 20
1.045398474550667
 10
606.7141862797193
 20
0.6852336340963514
 10
606.7568570459233
 20
0.4683514552060151
 10
607.1812076536575
 20
0.2864970463489273
 10
607.006273588604
 20
0.1830983869150813
 10
606.8817438315047
 20
-0.0284383466383052
 10
606.6289191625908
 20
0.441307231249927
 10
606.3420517283597
 20
1.088361591079575
 10
606.3529250316626
 20
0.7810731427813299
 10
606.3505807167929
 20
0.6161325909521762
 10
606.3484010516377
 20
0.3820431283513255
 10
606.3603688786313
 20
0.1382271454522352
 10
606.3310899130597
 20
-0.0081956101557736
 10
606.3737437015437
 20
-0.1556186770202516
 10
606.2862728395605
 20
-0.1398956057034009
 10
606.239144199671
 20
-0.1398105433310534
 10
606.1521887597677
 20
-0.155659323936551
 10
606.1936388411688
 20
-0.0114758645379979
 10
606.1652789394249
 20
0.1317969482189649
 10
606.1768888165263
 20
0.3699958948870471
 10
606.1747090038236
 20
0.5984187736378679
 10
606.1726025517959
 20
0.7603037149943552
 10
606.1830949828288
 20
1.074783514571946
 10
605.8751877642859
 20
0.3855411299590067
 10
605.5678172657418
 20
-0.09198607633533
 10
605.447428145624
 20
0.1306575476087981
 10
605.2697522300688
 20
0.2433567707898887
 10
605.7476240752859
 20
0.4187278558890456
 10
605.7976873447174
 20
0.6541657137547041
 10
606.220671401168
 20
1.046476314680494
 10
605.9899668663508
 20
1.029799491525061
 10
605.8672600249307
 20
1.035941610722115
 10
605.6948397485626
 20
1.026374648230137
 10
605.5836139084415
 20
1.047734606131061
 10
605.4648694017411
 20
1.014609074808595
 10
605.4806084096653
 20
1.095285427303237
 10
605.4801465323728
 20
1.139700564142939
 10
605.4650796279898
 20
1.222917239019724
 10
605.5995295325406
 20
1.183872941073237
 10
605.7242669935713
 20
1.210643714518626
 10
605.9251669627245
 20
1.193885911674919
 10
606.0544455339317
 20
1.215288680364425
 10
606.195133431826
 20
1.181934209768607
 10
606.1603841842579
 20
1.319765179085075
 10
606.1845100056678
 20
1.442878994729212
 10
606.1590000572361
 20
1.563486977937737
 10
606.1956165536649
 20
1.698645072649308
 10
606.0834331417734
 20
1.674191879053302
 10
605.9903270847099
 20
1.686323919654615
 10
605.8814461969786
 20
1.682822721934333
 10
605.8192612030928
 20
1.683063980750419
 10
605.7998283947211
 20
1.683139372475836
 97
        3
330
A4
330
A2
330
A3
 75
     1
 76
     2
 52
45.0
 41
0.1
 77
     0
 78
     1
 53
45.0
 43
0.0
 44
0.0
 45
-0.282842712474619
 46
0.0
 79
     0
 98
        1
 10
0.0
 20
0.0
  0
HATCH
  5
C2
330
4A
100
AcDbEntity
  8
1
  6
Continuous
 62
     2
100
AcDbHatch
 10
0.0
 20
0.0
 30
0.0
210
0.0
220
0.0
230
1.0
  2
CUSTOM2
 70
     0
 71
     1
 91
        1
 92
        1
 93
        1
 72
     4
 94
        3
 73
     0
 74
     0
 95
      124
 96
      120
 40
0.0
 40
0.0
 40
0.0
 40
0.0
 40
0.0278187229623658
 40
0.1011590162383985
 40
0.2048470170591375
 40
0.3237088716559814
 40
0.4425707262521431
 40
0.5462587270701537
 40
0.6195990203312934
 40
0.6474177522579797
 40
0.6750060736116378
 40
0.7357003855243895
 40
0.7963946998055617
 40
0.8239830245572924
 40
0.8540933811105155
 40
0.9373396629411267
 40
1.063094687343351
 40
1.220731268638274
 40
1.399622220914948
 40
1.589140358637819
 40
1.778658496424128
 40
1.957549448940795
 40
2.115186030873388
 40
2.240941056914635
 40
2.32418734176079
 40
2.354297700109696
 40
2.381886024672203
 40
2.442580338710791
 40
2.503274652750815
 40
2.530862977314922
 40
2.560983949278846
 40
2.640393784453221
 40
2.75266286175933
 40
2.881361560118461
 40
3.010060258455536
 40
3.122329335705598
 40
3.20173917081824
 40
3.231860142753629
 40
3.264298024030686
 40
3.352343701778556
 40
3.482095226869083
 40
3.639650650173344
 40
3.811108022565803
 40
3.982565394928311
 40
4.140120818152894
 40
4.269872343141605
 40
4.35791802080267
 40
4.390355902044297
 40
4.423256253993094
 40
4.508104530073473
 40
4.624121560637213
 40
4.750528176031998
 40
4.866545206602445
 40
4.951393482692487
 40
4.984293834645832
 40
5.011450833242744
 40
5.071196230152523
 40
5.130941627057593
 40
5.158098625649257
 40
5.190998977601805
 40
5.275847253689574
 40
5.391864284257292
 40
5.518270899648781
 40
5.634287930209791
 40
5.719136206288465
 40
5.752036558236353
 40
5.782130946283378
 40
5.862783906229552
 40
5.979550131775422
 40
6.117984316640832
 40
6.26364115458838
 40
6.402075339414585
 40
6.518841564908381
 40
6.599494524815967
 40
6.629588912849204
 40
6.654403028226781
 40
6.713575149488577
 40
6.784199939329979
 40
6.843372060494081
 40
6.868186175803242
 40
6.89624624320233
 40
6.9395862337587
 40
6.967846564565331
 40
7.043584251090266
 40
7.153234334452127
 40
7.283231855734877
 40
7.420011856035911
 40
7.550009376580265
 40
7.659659458835666
 40
7.735397144417659
 40
7.763657474851831
 40
7.79640972801146
 40
7.880876065096819
 40
7.99637085246629
 40
8.122208446419128
 40
8.237703224799722
 40
8.322169562011501
 40
8.354921815206486
 40
8.382078813308265
 40
8.441824209207565
 40
8.50156960524071
 40
8.528726603486286
 40
8.561478856696278
 40
8.645945193878385
 40
8.761439980865982
 40
8.887277580765096
 40
9.002772362001616
 40
9.087238696661922
 40
9.119990949236291
 40
9.15242883061399
 40
9.240474508639208
 40
9.37022603415016
 40
9.527781457985045
 40
9.699238830982036
 40
9.87069620397923
 40
10.02825162781465
 40
10.15800315332627
 40
10.24604883135182
 40
10.27848670378585
 40
10.27848670378585
 40
10.27848670378585
 40
10.27848670378585
 10
615.2444741954348
 20
0.1073515950919557
 10
615.2537469127487
 20
0.1073514063471266
 10
615.2874658926826
 20
0.1073507300015288
 10
615.3557621202431
 20
0.1073644936674302
 10
615.4543056101546
 20
0.1072786634298313
 10
615.5684980854776
 20
0.1076639773568888
 10
615.6808808807039
 20
0.1062547802098361
 10
615.783729099008
 20
0.1104375954568206
 10
615.8429754264818
 20
0.1014773137542203
 10
615.8994180326998
 20
0.1148907664949951
 10
615.8869169976921
 20
0.0641184073679954
 10
615.8952464025671
 20
0.0191396306250552
 10
615.8871085231086
 20
-0.0261860488607436
 10
615.8993443604422
 20
-0.0774342546809913
 10
615.8370687880299
 20
-0.0622740251128494
 10
615.7683427416835
 20
-0.0731560716581845
 10
615.6405671139556
 20
-0.0676405312858964
 10
615.4885898901609
 20
-0.0697450662286311
 10
615.3125610362489
 20
-0.0690435528808831
 10
615.1267346324253
 20
-0.0693012034527014
 10
614.9409081827141
 20
-0.0690435273195835
 10
614.7648794532132
 20
-0.0697451602883083
 10
614.6129018544161
 20
-0.0676402564657323
 10
614.485127205452
 20
-0.073156771089216
 10
614.4163992226545
 20
-0.0622728075061797
 10
614.3541263432847
 20
-0.0774357119235426
 10
614.3663530679983
 20
-0.0261784707139044
 10
614.3582918852562
 20
0.019071153958638
 10
614.3663590199857
 20
0.0643100007876115
 10
614.3541152877049
 20
0.1155881903339516
 10
614.4147931510663
 20
0.1007421948657373
 10
614.4785725135698
 20
0.1108109029417233
 10
614.5900228743469
 20
0.1061928633543809
 10
614.7120447833786
 20
0.1073797102890695
 10
614.8342452527788
 20
0.1084050602407321
 10
614.9452708677356
 20
0.1041711774684007
 10
615.0099431803922
 20
0.1134322664517769
 10
615.0714077200465
 20
0.0992906517312012
 10
615.0552979991304
 20
0.1656017000795498
 10
615.066589471732
 20
0.237724322454146
 10
615.0610315212526
 20
0.3683840301172461
 10
615.0630949451655
 20
0.5193196583168007
 10
615.0623081517258
 20
0.6866051523132509
 10
615.0630759605592
 20
0.8538575245574189
 10
615.0610953175592
 20
1.004879313933542
 10
615.0664220546583
 20
1.135307116764335
 10
615.0556015778393
 20
1.207900847293415
 10
615.0713240819839
 20
1.274751115602451
 10
615.0055622522456
 20
1.25905154614264
 10
614.9379282220729
 20
1.269338852074355
 10
614.8238799683772
 20
1.264384289705617
 10
614.7074157064867
 20
1.267387701539152
 10
614.5929468511442
 20
1.262049452668291
 10
614.5263239047777
 20
1.273259101982647
 10
614.461368410515
 20
1.256737747884532
 10
614.4730904148672
 20
1.30798362600499
 10
614.4655744579087
 20
1.352749759075304
 10
614.4730904268802
 20
1.397515870213992
 10
614.4613683895311
 20
1.44876178253175
 10
614.5263240729164
 20
1.432240238902558
 10
614.5929447729784
 20
1.443452134973829
 10
614.7074267248029
 20
1.438100788341029
 10
614.8238368826928
 20
1.441158308945555
 10
614.9380574564607
 20
1.43603141134147
 10
615.0053064829192
 20
1.44670375479037
 10
615.0706240331402
 20
1.430667247925158
 10
615.0564305838516
 20
1.492743278734922
 10
615.0658973852961
 20
1.559114037522015
 10
615.061318339405
 20
1.67564614865405
 10
615.063061094591
 20
1.807513271458151
 10
615.0620465885357
 20
1.949406022737125
 10
615.0640105734337
 20
2.080936928260198
 10
615.0587582943816
 20
2.198492194064418
 10
615.0696323153437
 20
2.262724311250238
 10
615.0542451031819
 20
2.324334446684871
 10
615.1030505927766
 20
2.3102704950555
 10
615.147690995469
 20
2.312793841987536
 10
615.2161558336709
 20
2.308374395251487
 10
615.2582020559068
 20
2.299376676674752
 10
615.3110459148738
 20
2.307363569899461
 10
615.2829949391979
 20
2.264385597351147
 10
615.2372056638558
 20
2.275841941672749
 10
615.2492453463229
 20
2.214981621285763
 10
615.2419000460608
 20
2.150939415922121
 10
615.2454110216125
 20
2.042340109873503
 10
615.244272115014
 20
1.918189612681918
 10
615.2442089170225
 20
1.785143619533168
 10
615.2455787356834
 20
1.661220233729944
 10
615.2414553191277
 20
1.551929799727768
 10
615.250067749353
 20
1.489332222176087
 10
615.2369671844366
 20
1.430647754198051
 10
615.3016798718163
 20
1.446867559343414
 10
615.368332034312
 20
1.435949025067497
 10
615.4821693931068
 20
1.441183822971944
 10
615.5980173512062
 20
1.43810189640352
 10
615.7119838653247
 20
1.443429019359511
 10
615.7783255408066
 20
1.432288502899809
 10
615.8430102915445
 20
1.448716217166159
 10
615.8312735162688
 20
1.397505673334894
 10
615.8388082453005
 20
1.352749762444401
 10
615.8312735382224
 20
1.307993811334674
 10
615.8430102530702
 20
1.25678332994482
 10
615.7783258465216
 20
1.273210699176601
 10
615.7119800820792
 20
1.262074265707097
 10
615.5980373876977
 20
1.267377580165599
 10
615.4820910013021
 20
1.264394067169844
 10
615.3685671272087
 20
1.269315343918332
 10
615.3012145708772
 20
1.259097296369602
 10
615.2357199512459
 20
1.274706382622526
 10
615.2514628009185
 20
1.207884939508505
 10
615.2406190388174
 20
1.135316999393188
 10
615.2459496019757
 20
1.004868897378559
 10
615.244005054182
 20
0.8538920030866497
 10
615.2446048073177
 20
0.6864688605759771
 10
615.2444420949569
 20
0.5198081824181056
 10
615.2444809878101
 20
0.3668478504507452
 10
615.2444730803063
 20
0.2417382110914381
 10
615.2444742772711
 20
0.1583253311485801
 10
615.2444742106175
 20
0.1181642040541444
 10
615.2444741954348
 20
0.1073515950919557
 97
        1
330
A5
 75
     1
 76
     2
 52
45.0
 41
0.1
 77
     0
 78
     1
 53
45.0
 43
0.0
 44
0.0
 45
-0.282842712474619
 46
0.0
 79
     0
 98
        1
 10
0.0
 20
0.0
  0
HATCH
  5
C3
330
4A
100
AcDbEntity
  8
1
  6
Continuous
 62
     2
100
AcDbHatch
 10
0.0
 20
0.0
 30
0.0
210
0.0
220
0.0
230
1.0
  2
CUSTOM3
 70
     0
 71
     1
 91
        1
 92
        1
 93
        1
 72
     4
 94
        3
 73
     0
 74
     0
 95
      131
 96
      127
 40
0.0
 40
0.0
 40
0.0
 40
0.0
 40
0.0195577029827097
 40
0.0426490537460915
 40
0.2863607575856133
 40
0.5344948436189434
 40
0.7842238845573156
 40
0.8737315789467801
 40
0.9803832810314452
 40
1.092842274517007
 40
1.199761146656811
 40
1.289788768186515
 40
1.351573580786165
 40
1.370727117561408
 40
1.41640093601779
 40
1.470914848355934
 40
1.516588666791694
 40
1.535742203552807
 40
1.634216592293015
 40
1.760283341174786
 40
1.897966686682001
 40
2.031216387368803
 40
2.049689751137798
 40
2.101115601646732
 40
2.179502577739851
 40
2.278859318313965
 40
2.393194462258623
 40
2.516516648383736
 40
2.642834515405862
 40
2.766156701983367
 40
2.880491846754479
 40
2.97984858835852
 40
3.058235565443697
 40
3.109661416668851
 40
3.128134780704028
 40
3.146783742386202
 40
3.191254343315092
 40
3.244332157315836
 40
3.288802758225626
 40
3.307451719894954
 40
3.327717853844566
 40
3.383747753579929
 40
3.468388665924322
 40
3.574487837698629
 40
3.694892515728735
 40
3.822449946851876
 40
3.950007377920267
 40
4.070412055800361
 40
4.176511227367918
 40
4.261152139501366
 40
4.317182039076557
 40
4.337448172964478
 40
4.620011002696097
 40
4.885096638397384
 40
4.945373043518139
 40
5.014107710488464
 40
5.070481727651917
 40
5.319246955636418
 40
5.584812164506016
 40
5.859000912056906
 40
6.133746937542038
 40
6.401732212968898
 40
6.420736683995404
 40
6.472845717451026
 40
6.550702743894238
 40
6.646951193874305
 40
6.754234497930714
 40
6.865196086587492
 40
6.972479390357979
 40
7.068727839772112
 40
7.146584865451235
 40
7.198693898189379
 40
7.21769836890552
 40
7.234950401630998
 40
7.276089864270041
 40
7.325191803516148
 40
7.366331266090535
 40
7.383583298769888
 40
7.40277916349218
 40
7.453386443254582
 40
7.524934666445726
 40
7.606953361406037
 40
7.688972056429217
 40
7.760520279784411
 40
7.811127559734625
 40
7.830323424546275
 40
7.847844055299904
 40
7.894799345666946
 40
7.962779392744634
 40
8.043374293560685
 40
8.128174145149593
 40
8.208769044817396
 40
8.2767490903771
 40
8.323704379669666
 40
8.341225010056398
 40
8.358497614800603
 40
8.401679126686751
 40
8.45781509218578
 40
8.513951057728242
 40
8.557132569708056
 40
8.574405174505241
 40
8.602340668616616
 40
8.643455660540127
 40
8.663225271966798
 40
8.71534515656444
 40
8.789031889628781
 40
8.873502045520512
 40
8.957972194324137
 40
9.031658925568031
 40
9.083778811234723
 40
9.103548423003186
 40
9.119550083123723
 40
9.160817522380054
 40
9.217244429110448
 40
9.278724491644876
 40
9.33515139829569
 40
9.376418837357843
 40
9.392420497300687
 40
9.40119630273496
 40
9.41749422938446
 40
9.426270027749704
 40
9.440875075477638
 40
9.475702496998965
 40
9.517270709866079
 40
9.552098131994223
 40
9.566703169884455
 40
9.566703169884455
 40
9.566703169884455
 40
9.566703169884455
 10
614.4793168538445
 20
1.763405136344659
 10
614.4757259483337
 20
1.757783328255988
 10
614.4678953513588
 20
1.745523965425616
 10
614.3752883364516
 20
1.709265581643642
 10
614.351053662321
 20
1.49473086336168
 10
614.2481624235904
 20
1.315219266331467
 10
613.984340675427
 20
1.129402159215825
 10
614.1468385959145
 20
1.052839786895173
 10
614.2230140150805
 20
0.9918133531889384
 10
614.3115085462725
 20
0.9284044666818939
 10
614.4012844623076
 20
0.8685027634300219
 10
614.4506732026011
 20
0.8142679697265071
 10
614.5368622547345
 20
0.7861088266526982
 10
614.5034175064194
 20
0.7503795177625376
 10
614.4837585556276
 20
0.7187503011534186
 10
614.4542802607846
 20
0.6780051491951178
 10
614.4311903835999
 20
0.6482930561307844
 10
614.4003120358318
 20
0.5953606479194092
 10
614.335210775571
 20
0.7206497706234148
 10
614.2418914512383
 20
0.775385423573811
 10
614.1573550675105
 20
0.8324106606277026
 10
614.0345412515709
 20
0.9899992955096142
 10
614.0387365237267
 20
0.9136044889027548
 10
614.0374393042646
 20
0.8668592228473497
 10
614.0381040838043
 20
0.7890942793604021
 10
614.0378464376919
 20
0.6922671044786192
 10
614.0379345629889
 20
0.5797492120224835
 10
614.0378991692246
 20
0.4584872806913867
 10
614.0379426148245
 20
0.3341153998240053
 10
614.0378114332369
 20
0.2129232575477567
 10
614.0382391952012
 20
0.1001579104318267
 10
614.0369592592276
 20
0.0040755589218389
 10
614.0402674241006
 20
-0.0756153140786138
 10
614.0338112130055
 20
-0.1186018208777494
 10
614.0429123095521
 20
-0.1571992550451347
 10
614.0070824729901
 20
-0.1486447015249075
 10
613.9738138205219
 20
-0.1533283789111414
 10
613.9227476966007
 20
-0.1532405911677672
 10
613.8892638362779
 20
-0.1488092759274001
 10
613.8530499798719
 20
-0.1571456403405359
 10
613.8632696958634
 20
-0.1153008069727705
 10
613.8559402277733
 20
-0.0689679705638608
 10
613.8596547526068
 20
0.0169947322945378
 10
613.858239494486
 20
0.1192978482828906
 10
613.8587019944605
 20
0.237778660549515
 10
613.8585688076196
 20
0.3628232527679612
 10
613.858593030001
 20
0.4880047023049008
 10
613.8586269315517
 20
0.6061128750249828
 10
613.8584974683097
 20
0.7095339083295662
 10
613.8588421939047
 20
0.7925667827710726
 10
613.8581612668653
 20
0.8446801064468393
 10
613.8617500990595
 20
0.972375499448021
 10
613.6449085776401
 20
0.6737335894306249
 10
613.464426931191
 20
0.445886236349486
 10
613.4113236685579
 20
0.5869808541325677
 10
613.3823343523113
 20
0.6365040968438443
 10
613.2819562452785
 20
0.7396642191353839
 10
613.6028042113227
 20
0.8201967714722724
 10
613.7312811395395
 20
1.003909251598694
 10
613.9529368715325
 20
1.212566378951982
 10
614.0393139284033
 20
1.386638533517897
 10
614.3172308619039
 20
1.662916934659508
 10
614.1969162229252
 20
1.65859201674554
 10
614.1486111741316
 20
1.659394983259933
 10
614.0725291844872
 20
1.658992242700239
 10
613.9789924399715
 20
1.659149177350495
 10
613.8740509178522
 20
1.659071446996642
 10
613.7656802128683
 20
1.659201065019945
 10
613.660436862586
 20
1.658790356141318
 10
613.567915220938
 20
1.660067157950313
 10
613.4891045190673
 20
1.656654086582897
 10
613.4462588955345
 20
1.663479921597594
 10
613.4072413976481
 20
1.653897063245635
 10
613.414927966183
 20
1.687454216889825
 10
613.4108378794276
 20
1.718481924456727
 10
613.4108445758778
 20
1.765611713943402
 10
613.4149154114878
 20
1.796655837702174
 10
613.4072409964549
 20
1.830265037593386
 10
613.4457733795459
 20
1.820730525443126
 10
613.4864142404446
 20
1.827220776215105
 10
613.5574386240428
 20
1.824247927736939
 10
613.63522325396
 20
1.824994035225971
 10
613.7130206636441
 20
1.825724561679654
 10
613.7840146479871
 20
1.822788776376
 10
613.8247194181786
 20
1.829201108963917
 10
613.8632767879876
 20
1.819751662994427
 10
613.8550257144892
 20
1.855893342822237
 10
613.8605261059324
 20
1.894544797366666
 10
613.857866859613
 20
1.962381706852788
 10
613.85887298615
 20
2.0391628366218
 10
613.8583092408284
 20
2.121740357061971
 10
613.8593628916556
 20
2.198419713533183
 10
613.8565590253095
 20
2.266566329001398
 10
613.8623617111269
 20
2.30457041932788
 10
613.8538568941125
 20
2.340830902010885
 10
613.887852462309
 20
2.330803658952927
 10
613.9217490073065
 20
2.333979089371468
 10
613.9749583450309
 20
2.328336077640484
 10
614.028368296445
 20
2.327594165598661
 10
614.0618829039454
 20
2.321438656064185
 10
614.1011000573005
 20
2.326706718970364
 10
614.0743178088459
 20
2.28578022916932
 10
614.0331025391689
 20
2.296958466615501
 10
614.0405555930839
 20
2.251916983155644
 10
614.0365142342152
 20
2.207369201515845
 10
614.0384628439602
 20
2.135482147451433
 10
614.0375279239727
 20
2.054932727122109
 10
614.0388021579993
 20
1.974986375284346
 10
614.035495818383
 20
1.901664792066226
 10
614.0425020569927
 20
1.860132851260079
 10
614.0324354770092
 20
1.820770606915526
 10
614.0652729193888
 20
1.827927055544209
 10
614.0987491686446
 20
1.823518852613841
 10
614.1537967865984
 20
1.825425854713367
 10
614.2112416985282
 20
1.825100085307279
 10
614.2645940638274
 20
1.824309508565221
 10
614.3021455286605
 20
1.826386012415122
 10
614.3246086913201
 20
1.823469802905493
 10
614.3374592463698
 20
1.828971947674942
 10
614.3481170075852
 20
1.83125760321227
 10
614.360955004011
 20
1.838196147114912
 10
614.3768905423033
 20
1.821776884370987
 10
614.403353831086
 20
1.81033764442897
 10
614.4349719643724
 20
1.78969329958627
 10
614.4610170282117
 20
1.774415117517314
 10
614.4751432113939
 20
1.765916184466215
 10
614.4793168538445
 20
1.763405136344659
 97
        1
330
A6
 75
     1
 76
     2
 52
45.0
 41
0.1
 77
     0
 78
     1
 53
45.0
 43
0.0
 44
0.0
 45
-0.282842712474619
 46
0.0
 79
     0
 98
        1
 10
0.0
 20
0.0
  0
HATCH
  5
C4
330
4A
100
AcDbEntity
  8
1
  6
Continuous
 62
     2
100
AcDbHatch
 10
0.0
 20
0.0
 30
0.0
210
0.0
220
0.0
230
1.0
  2
CUSTOM4
 70
     0
 71
     1
 91
        1
 92
        1
 93
        1
 72
     4
 94
        3
 73
     0
 74
     0
 95
       91
 96
       87
 40
0.0
 40
0.0
 40
0.0
 40
0.0
 40
0.026753225435669
 40
0.0856103386464078
 40
0.1444674521996586
 40
0.171220685661848
 40
0.2039416005643355
 40
0.2955601971652734
 40
0.4362601844617168
 40
0.6162252844506932
 40
0.8256392189705233
 40
1.054685709844407
 40
1.293548478893499
 40
1.532411247938271
 40
1.761457738799536
 40
1.970871673298562
 40
2.150836773256729
 40
2.291536760495647
 40
2.383155356836697
 40
2.415876284101373
 40
2.442629517488016
 40
2.501486630949146
 40
2.560343744424293
 40
2.587096977826565
 40
2.617068194441078
 40
2.699247336756191
 40
2.822032643466361
 40
2.97382235325809
 40
3.143014704823447
 40
3.318007936879969
 40
3.487200288186802
 40
3.63898999754834
 40
3.761775303794895
 40
3.843954445753145
 40
3.873925662229869
 40
3.890812773500467
 40
3.907699884771699
 40
3.937960767857336
 40
3.980983618142174
 40
4.199085915228265
 40
4.439444339237121
 40
4.677588241260716
 40
5.05069831783746
 40
5.448212454762846
 40
5.855291218044485
 40
6.138575438885221
 40
6.417434507583946
 40
6.444551104393702
 40
6.504207617362876
 40
6.563864130314096
 40
6.590980727103764
 40
6.848609460381187
 40
7.109611990668086
 40
7.352910904445771
 40
7.557830220705132
 40
7.587518925913002
 40
7.652834077375541
 40
7.718149228845429
 40
7.747837934061661
 40
7.854880190300686
 40
7.97651125740322
 40
8.369487896591936
 40
8.757514959223258
 40
9.126072419330777
 40
9.460639380391896
 40
9.746695593035495
 40
9.777569943118353
 40
9.80705032093142
 40
9.830377336128544
 40
9.886003295435616
 40
9.952395569429552
 40
10.00802152870589
 40
10.03134854388178
 40
10.21356951009532
 40
10.4220347929282
 40
10.66154556731018
 40
10.91693789564258
 40
11.15832906556517
 40
11.18982674596584
 40
11.27286608520359
 40
11.39026653033301
 40
11.52484752840843
 40
11.65942852648408
 40
11.77682897161441
 40
11.85986831085649
 40
11.89136598230386
 40
11.89136598230386
 40
11.89136598230386
 40
11.89136598230386
 10
610.5650799398161
 20
0.800242428252119
 10
610.5651152155251
 20
0.8091248943542507
 10
610.5652281100762
 20
0.8375487917078607
 10
610.5635898958453
 20
0.8873428129324243
 10
610.5692664682877
 20
0.9298220660159442
 10
610.557984312167
 20
0.9805479698028916
 10
610.6255211368998
 20
0.9633754286354823
 10
610.7010943600666
 20
0.9761486928943527
 10
610.8451271445965
 20
0.9695437158082152
 10
611.019233357539
 20
0.9721310432990516
 10
611.2262514000968
 20
0.9712523407899231
 10
611.4517602562343
 20
0.9715285004346675
 10
611.6874076683371
 20
0.9714298178210173
 10
611.9230554921312
 20
0.9715282653620698
 10
612.148563197059
 20
0.971253203142278
 10
612.3555849022771
 20
0.9721282839417441
 10
612.5296803305255
 20
0.9695516480188566
 10
612.6737406461949
 20
0.9761293257265281
 10
612.7492606305259
 20
0.9634088552904382
 10
612.8168690426995
 20
0.980510423151277
 10
612.8053754530642
 20
0.9299942792638036
 10
612.8128018971697
 20
0.885778943499409
 10
612.8051753317952
 20
0.8419260862704901
 10
612.8169403849389
 20
0.7920301660276466
 10
612.7553702881949
 20
0.8071786983595267
 10
612.6879706128636
 20
0.7963530747411344
 10
612.5635918446186
 20
0.8017667374967642
 10
612.4177342626537
 20
0.7997384751422479
 10
612.251649083005
 20
0.8004041970182666
 10
612.0811327011692
 20
0.800142856446817
 10
611.9142705245351
 20
0.8004619551453387
 10
611.7710261217072
 20
0.7995994471420149
 10
611.6396228259797
 20
0.8018794260642937
 10
611.5862773524624
 20
0.7973234649763946
 10
611.5108102846876
 20
0.8032455711631977
 10
611.5391990169197
 20
0.7941881146679006
 10
611.5656566799507
 20
0.7905055439237284
 10
611.5256437297668
 20
0.7597891409171934
 10
611.4336578081832
 20
0.7699223329805638
 10
611.4062310597038
 20
0.5235714437121869
 10
611.3101708357199
 20
0.3682420088782125
 10
611.0540192354442
 20
0.0385006005500962
 10
611.6250452122729
 20
0.1775466433389336
 10
611.8796570710482
 20
0.1761642209680094
 10
612.4902561438585
 20
0.0911521136553188
 10
612.196361296805
 20
0.3901005968162509
 10
611.8756218676481
 20
0.536554990252406
 10
611.9936457750401
 20
0.593501829417211
 10
612.0347630856227
 20
0.6174474199678904
 10
612.0779726784376
 20
0.6392440093467551
 10
612.1797488484419
 20
0.7025336337733037
 10
612.2951782015214
 20
0.4447179353223311
 10
612.4952506032242
 20
0.3094068323711701
 10
612.5891991777196
 20
0.1311743726232051
 10
612.8181744136355
 20
-0.0267753684950393
 10
612.7218946236675
 20
-0.0775938530026725
 10
612.6790874153745
 20
-0.1079406535350071
 10
612.6341157918744
 20
-0.132092275951012
 10
612.5744635315182
 20
-0.1812321112899739
 10
612.5412645451287
 20
-0.0467788220295304
 10
612.4204927740764
 20
0.1091890741001609
 10
612.0593890395945
 20
-0.0210542981700432
 10
611.7007976345504
 20
-0.0045066346707589
 10
611.3193834840046
 20
-0.0134412852469781
 10
611.0326369672853
 20
-0.077926862041396
 10
610.7214969989686
 20
0.0355531031624006
 10
610.6891652208752
 20
-0.0755309794878816
 10
610.6519092643284
 20
-0.0947904402654612
 10
610.6488652022717
 20
-0.0480057378926152
 10
610.6302807250574
 20
-0.0086850395742342
 10
610.6135351006742
 20
0.0509062560167019
 10
610.6006645305719
 20
0.0952661199472151
 10
610.5665242196394
 20
0.1843097324364137
 10
610.8105628847717
 20
0.1150568506720426
 10
611.0064308876638
 20
0.0935501118118468
 10
611.1018340771244
 20
0.3755112660189802
 10
611.1568050159558
 20
0.5368768754456422
 10
611.3782533747127
 20
0.8071581971318043
 10
611.2472153771179
 20
0.7987308897717402
 10
611.173294094582
 20
0.8010365062041004
 10
611.0600374266209
 20
0.7999602044509738
 10
610.931716619745
 20
0.8003228119994948
 10
610.802716642038
 20
0.8002236658952562
 10
610.6910755336255
 20
0.8002457483601202
 10
610.6137578359991
 20
0.8002422131310984
 10
610.5755790921975
 20
0.8002423796852091
 10
610.5650799398161
 20
0.800242428252119
 97
        1
330
A7
 75
     1
 76
     2
 52
45.0
 41
0.1
 77
     0
 78
     1
 53
45.0
 43
0.0
 44
0.0
 45
-0.282842712474619
 46
0.0
 79
     0
 98
        1
 10
0.0
 20
0.0
  0
HATCH
  5
C5
330
4A
100
AcDbEntity
  8
1
  6
Continuous
 62
     2
100
AcDbHatch
 10
0.0
 20
0.0
 30
0.0
210
0.0
220
0.0
230
1.0
  2
CUSTOM5
 70
     0
 71
     1
 91
        1
 92
        1
 93
        1
 72
     4
 94
        3
 73
     0
 74
     0
 95
       35
 96
       31
 40
0.0
 40
0.0
 40
0.0
 40
0.0
 40
0.0335231036620112
 40
0.0713218571711983
 40
0.4278866681486513
 40
0.8116865841965278
 40
1.19819023800007
 40
1.561379546812801
 40
1.659983174622139
 40
1.759315573807355
 40
2.132719617231238
 40
2.525233363588875
 40
2.910815397779725
 40
3.26524436430339
 40
3.592606723582117
 40
3.964386154604129
 40
4.359942131737863
 40
4.7581541186394
 40
4.843846538700005
 40
4.936650065543335
 40
5.256616602537393
 40
5.581707404416199
 40
5.8997191583084
 40
6.198363494280884
 40
6.466301046615916
 40
6.493895311537238
 40
6.559697020197031
 40
6.638234543442605
 40
6.704036252154159
 40
6.731630508423022
 40
6.731630508423022
 40
6.731630508423022
 40
6.731630508423022
 10
611.8358924958634
 20
2.327884858425733
 10
611.8298920487754
 20
2.318053326657613
 10
611.8171258489123
 20
2.297136307032336
 10
611.6572276396511
 20
2.264517686561498
 10
612.0944940232305
 20
1.975313224601197
 10
612.2968309218228
 20
1.773657804818941
 10
612.5442478657939
 20
1.530740297267047
 10
613.0454428014574
 20
1.453723048812221
 10
612.8748476588936
 20
1.312015812980916
 10
612.8006213853166
 20
1.110350083325562
 10
612.4754346638156
 20
1.462809292981548
 10
612.1900656060628
 20
1.624998546830059
 10
611.8960518467627
 20
1.830117721764924
 10
611.6707367081099
 20
2.311521307188966
 10
611.4615999445488
 20
1.846676887326589
 10
611.1830788064799
 20
1.636755943763577
 10
610.8994297567175
 20
1.467490984834185
 10
610.5701553917798
 20
1.094670030313711
 10
610.489992670819
 20
1.290326565824425
 10
610.338263929971
 20
1.418157463140302
 10
610.7706310216761
 20
1.497786738893785
 10
610.9585479719731
 20
1.693512770389147
 10
611.209139181047
 20
1.909576390401845
 10
611.4337264860128
 20
2.075156344235051
 10
611.4882689799679
 20
2.354586067602655
 10
611.6117575418978
 20
2.34062592531517
 10
611.6683187734486
 20
2.33845910991086
 10
611.738478537491
 20
2.333715020048001
 10
611.795632841207
 20
2.330340714739794
 10
611.8267104710804
 20
2.328444968345581
 10
611.8358924958634
 20
2.327884858425733
 97
        1
330
A8
 75
     1
 76
     2
 52
45.0
 41
0.1
 77
     0
 78
     1
 53
45.0
 43
0.0
 44
0.0
 45
-0.282842712474619
 46
0.0
 79
     0
 98
        1
 10
0.0
 20
0.0
  0
HATCH
  5
C6
330
4A
100
AcDbEntity
  8
1
  6
Continuous
 62
     2
100
AcDbHatch
 10
0.0
 20
0.0
 30
0.0
210
0.0
220
0.0
230
1.0
  2
CUSTOM6
 70
     0
 71
     1
 91
        1
 92
        1
 93
        1
 72
     4
 94
        3
 73
     0
 74
     0
 95
       15
 96
       11
 40
0.0
 40
0.0
 40
0.0
 40
0.0
 40
0.2785535985097458
 40
0.5215624748200172
 40
0.6076917376042843
 40
0.6938210001743584
 40
0.9405019146457843
 40
1.22169140348938
 40
1.300471877081347
 40
1.379252341685073
 40
1.379252341685073
 40
1.379252341685073
 40
1.379252341685073
 10
609.4304408020964
 20
2.322549094538204
 10
609.4918932184144
 20
2.270162887161557
 10
609.606956436408
 20
2.172075189216667
 10
609.9020262887211
 20
2.022144280206529
 10
609.7648062021822
 20
1.936678696384588
 10
609.6664142233744
 20
1.804104273249922
 10
609.5752947980615
 20
2.109416279048561
 10
609.2259753870619
 20
2.172925115888188
 10
609.3742172766536
 20
2.272211520043128
 10
609.4116996264203
 20
2.305769905258227
 10
609.4304408020964
 20
2.322549094538204
 97
        1
330
A9
 75
     1
 76
     2
 52
45.0
 41
0.1
 77
     0
 78
     1
 53
45.0
 43
0.0
 44
0.0
 45
-0.282842712474619
 46
0.0
 79
     0
 98
        1
 10
0.0
 20
0.0
  0
HATCH
  5
C7
330
4A
100
AcDbEntity
  8
1
  6
Continuous
 62
     2
100
AcDbHatch
 10
0.0
 20
0.0
 30
0.0
210
0.0
220
0.0
230
1.0
  2
CUSTOM7
 70
     0
 71
     1
 91
        1
 92
        1
 93
        1
 72
     4
 94
        3
 73
     0
 74
     0
 95
       75
 96
       71
 40
0.0
 40
0.0
 40
0.0
 40
0.0
 40
0.0342546099129687
 40
0.1245622414432346
 40
0.2522385480897524
 40
0.3985991922940668
 40
0.5449598364980814
 40
0.6726361431438819
 40
0.762943774673692
 40
0.7971983935297948
 40
1.101723623449657
 40
1.408591244036742
 40
1.43333247169045
 40
1.487763172450242
 40
1.542193873082073
 40
1.566935100592611
 40
1.923523931821809
 40
2.271755704953497
 40
2.590579755100877
 40
2.858943305581108
 40
2.889120339309139
 40
2.918305855191089
 40
2.941366645531201
 40
2.996357760973099
 40
3.061992318140661
 40
3.116983433626799
 40
3.140044223997497
 40
3.411273122936336
 40
3.732441619741002
 40
3.761068217532699
 40
3.837787499630262
 40
3.948858699125901
 40
4.080541049104278
 40
4.21909378262566
 40
4.350776132722208
 40
4.461847332405543
 40
4.538566614678273
 40
4.56719321254452
 40
4.59490757399892
 40
4.666381453557346
 40
4.764111044010814
 40
4.870592538125674
 40
4.968322128642125
 40
5.039796008286725
 40
5.067510369784213
 40
5.094263603185425
 40
5.15312071666806
 40
5.211977830150507
 40
5.238731063551511
 40
5.272290535138693
 40
5.363380529444583
 40
5.49761841578126
 40
5.660621563453645
 40
5.83800734174926
 40
6.015393119910612
 40
6.178396267038095
 40
6.312634151842047
 40
6.403724143059065
 40
6.437283612672188
 40
6.464036846260805
 40
6.522893960004421
 40
6.581751071483686
 40
6.608504301590632
 40
6.637253941280836
 40
6.71139774890263
 40
6.812778057283243
 40
6.923237199248991
 40
7.024617507623805
 40
7.098761315207515
 40
7.127510946007408
 40
7.127510946007408
 40
7.127510946007408
 40
7.127510946007408
 10
608.3041536780529
 20
1.051737705967042
 10
608.304153720967
 20
1.040319555321602
 10
608.3041538871097
 20
0.9987989996606882
 10
608.304150747175
 20
0.9147156412721196
 10
608.3041702669768
 20
0.7932913944576834
 10
608.3040826577701
 20
0.6530513617088796
 10
608.3044030625198
 20
0.5133119891801635
 10
608.3034520299702
 20
0.3906968101836881
 10
608.3054892985934
 20
0.3091171656148317
 10
608.2972347568705
 20
0.1559590920113783
 10
608.6053712330865
 20
0.31884878178164
 10
608.8973559563708
 20
0.4880758081144283
 10
608.9031268838672
 20
0.3529787790534975
 10
608.9078386109858
 20
0.3094186328388182
 10
608.9105449801883
 20
0.2653589147398459
 10
608.929546006292
 20
0.1159723248656883
 10
608.520685663727
 20
0.1800581436470423
 10
608.2416624738797
 20
0.0662098353445107
 10
607.9640995977131
 20
-0.0331126206541314
 10
607.6722751574371
 20
0.0095532971978968
 10
607.6492059068622
 20
-0.09353678132018
 10
607.6160388773299
 20
-0.1198426663209138
 10
607.6103568352705
 20
-0.0722004884025483
 10
607.5907128949009
 20
-0.0349502176149065
 10
607.5718003875587
 20
0.0233202997099722
 10
607.5565764257675
 20
0.0670984313124781
 10
607.5100160762897
 20
0.1808406316973835
 10
607.8513811702418
 20
0.1490094324349331
 10
608.1302563757351
 20
0.1148607722991885
 10
608.1240667424872
 20
0.2623861860309264
 10
608.125384984274
 20
0.3333779303227265
 10
608.1247746079911
 20
0.4404441008210207
 10
608.1248785960688
 20
0.5672317190943815
 10
608.1252902354021
 20
0.7017388561949025
 10
608.1236822231933
 20
0.8272019207462489
 10
608.1282816957888
 20
0.9382988884255635
 10
608.1187100892176
 20
1.000865289241302
 10
608.1326916173656
 20
1.059200304184454
 10
608.077029877667
 20
1.046143527056777
 10
608.0198569587785
 20
1.054609498729386
 10
607.9238963315613
 20
1.05054618204076
 10
607.8256681912786
 20
1.052955319759146
 10
607.7295496847526
 20
1.04876242736828
 10
607.6727562915778
 20
1.057539885646024
 10
607.6173271263351
 20
1.044195789735601
 10
607.6293593817883
 20
1.093615530826964
 10
607.6214917563904
 20
1.137186301538357
 10
607.6289209953795
 20
1.181551112419648
 10
607.617484495411
 20
1.232269398874288
 10
607.68550167601
 20
1.214871028811838
 10
607.7591411269711
 20
1.227420923606278
 10
607.8947978448178
 20
1.221243191345374
 10
608.0507823414491
 20
1.223538452165235
 10
608.2238840748112
 20
1.222656103859702
 10
608.3969857354148
 20
1.223538492658479
 10
608.5529704201181
 20
1.221243050789899
 10
608.6886266279764
 20
1.227421283858714
 10
608.7622671095617
 20
1.214870363417746
 10
608.830282856469
 20
1.232270151355834
 10
608.8188505275889
 20
1.181547725379952
 10
608.8262453848264
 20
1.137217029345482
 10
608.8184954302235
 20
1.093529496736356
 10
608.8304118131845
 20
1.043882322219151
 10
608.7731084613581
 20
1.057860534618656
 10
608.7143060179739
 20
1.048643977966941
 10
608.6148208023166
 20
1.052769102883693
 10
608.5117194488316
 20
1.051474021493274
 10
608.4160760744539
 20
1.051787192010809
 10
608.3480382361581
 20
1.051734188205852
 10
608.3137376603406
 20
1.051736939950959
 10
608.3041536780529
 20
1.051737705967042
 97
        1
330
AA
 75
     1
 76
     2
 52
45.0
 41
0.1
 77
     0
 78
     1
 53
45.0
 43
0.0
 44
0.0
 45
-0.282842712474619
 46
0.0
 79
     0
 98
        1
 10
0.0
 20
0.0
  0
HATCH
  5
C8
330
4A
100
AcDbEntity
  8
1
  6
Continuous
 62
     2
100
AcDbHatch
 10
0.0
 20
0.0
 30
0.0
210
0.0
220
0.0
230
1.0
  2
CUSTOM8
 70
     0
 71
     1
 91
        1
 92
        1
 93
        1
 72
     4
 94
        3
 73
     0
 74
     0
 95
       91
 96
       87
 40
0.0
 40
0.0
 40
0.0
 40
0.0
 40
0.0345987051696287
 40
0.1258134969461938
 40
0.254772340488785
 40
0.402603209915242
 40
0.5504340793415852
 40
0.6793929228834943
 40
0.7706077146568762
 40
0.8052064287778651
 40
1.124852390615036
 40
1.427402236308633
 40
1.706356627453267
 40
1.955541417874958
 40
2.169485938566113
 40
2.344350786664551
 40
2.480568411561641
 40
2.590440557428636
 40
2.649189927150815
 40
2.749320643306008
 40
2.912632739879724
 40
3.147745655999929
 40
3.244827496384829
 40
3.338490056946413
 40
3.583815413206851
 40
3.761423943238188
 40
3.886956104362391
 40
3.985855451886665
 40
4.091766255337438
 40
4.250186473811631
 40
4.422734315084367
 40
4.628285684838398
 40
4.872093227758199
 40
5.152549652145344
 40
5.464967135837331
 40
5.803201477852229
 40
6.160362988813708
 40
6.193449448275792
 40
6.284170385501361
 40
6.419718138764174
 40
6.587285046385509
 40
6.77406344672348
 40
6.96724567811335
 40
7.154024078817392
 40
7.321590987025806
 40
7.457138740890136
 40
7.547859678555787
 40
7.580946138182376
 40
7.608533084714429
 40
7.669224367077408
 40
7.72991564942963
 40
7.757502595949685
 40
7.79027806255311
 40
7.880146277430693
 40
8.014419963179929
 40
8.180411842397515
 40
8.365434637679012
 40
8.556801071622257
 40
8.741823866830313
 40
8.907815745915908
 40
9.042089431507005
 40
9.131957646249187
 40
9.164733112796679
 40
9.415425063139601
 40
9.667986180958074
 40
9.694169807461957
 40
9.756607686047087
 40
9.831130315321978
 40
9.893568193899386
 40
9.919751820398146
 40
9.950967964689971
 40
9.99642163121008
 40
10.22087981037397
 40
10.44341866197487
 40
10.47847970788802
 40
10.57091337438691
 40
10.70159545461171
 40
10.85140174170282
 40
11.00120802880416
 40
11.13189010907319
 40
11.22432377582935
 40
11.25938480938884
 40
11.28697175596073
 40
11.34766303835847
 40
11.40835432041998
 40
11.43594125892033
 40
11.43594125892033
 40
11.43594125892033
 40
11.43594125892033
 10
609.9441028723254
 20
1.645674372485161
 10
609.9325700234907
 20
1.645674324113543
 10
609.8906323834959
 20
1.645674158276033
 10
609.8057044108991
 20
1.645677679243475
 10
609.6830602943094
 20
1.645655685593175
 10
609.5414121306959
 20
1.645754433004929
 10
609.4002668088456
 20
1.645393283558598
 10
609.276426570787
 20
1.646465257325273
 10
609.1940132215349
 20
1.644168912147077
 10
609.0350705619655
 20
1.65373211496859
 10
609.2126316743343
 20
1.291100364348084
 10
609.2002653595418
 20
1.045677698465543
 10
609.268743386383
 20
0.7618714344827323
 10
609.3315938710938
 20
0.5257564206247474
 10
609.4075167821695
 20
0.3265138251956978
 10
609.4926103966982
 20
0.1706998957481621
 10
609.5867521982901
 20
0.0698249990483027
 10
609.6905562597692
 20
0.0179049476240564
 10
609.7748786420739
 20
0.0693112650305506
 10
609.7974236569416
 20
0.1846918616095903
 10
609.8368645365337
 20
0.3120979182581869
 10
609.7825834124907
 20
0.6294697021019816
 10
609.9074132462439
 20
0.4830682226434445
 10
610.0642205903569
 20
0.451199424546131
 10
609.9570634397021
 20
0.2174599989107015
 10
609.9431625599835
 20
0.052974187070919
 10
609.8857623857193
 20
-0.0754448875408249
 10
609.7957934534973
 20
-0.1465655552372931
 10
609.6718189047845
 20
-0.1624303373431001
 10
609.5257187586824
 20
-0.1268156032238567
 10
609.386680871025
 20
-0.006747873762917
 10
609.272491835211
 20
0.1676032467376187
 10
609.1769055691452
 20
0.3927124523468331
 10
609.0941566962592
 20
0.6571288812988009
 10
609.0430093646376
 20
0.9751257522198137
 10
608.9393103597306
 20
1.248683706123542
 10
609.0665755598486
 20
1.653304607363068
 10
608.8980805012985
 20
1.644370099731175
 10
608.8134910177043
 20
1.646406035418021
 10
608.6812790777594
 20
1.645385795118452
 10
608.5183419484069
 20
1.645778724418681
 10
608.3356673560497
 20
1.645603384368078
 10
608.1469971763349
 20
1.645847474309073
 10
607.9637383410154
 20
1.645103000296752
 10
607.8027661222686
 20
1.647410026458648
 10
607.6652722725241
 20
1.641244470071014
 10
607.5912504762279
 20
1.653574805816495
 10
607.5236129576824
 20
1.636539658469941
 10
607.5355288109232
 20
1.688490805709665
 10
607.5278591675664
 20
1.733960670899684
 10
607.535550661508
 20
1.779390958271444
 10
607.5236056187728
 20
1.831270381080087
 10
607.5906502695834
 20
1.81443785613703
 10
607.6640290055642
 20
1.826600512161091
 10
607.8002042695238
 20
1.820518731983981
 10
607.9596726191477
 20
1.82279476438497
 10
608.1412087475801
 20
1.822058761224016
 10
608.3280949252144
 20
1.822305963195729
 10
608.50909267068
 20
1.822110429226925
 10
608.6703716968842
 20
1.822568768382784
 10
608.8016796514851
 20
1.821373158746453
 10
608.8847965712563
 20
1.823759894431817
 10
609.0179150937774
 20
1.815552478489049
 10
608.9268807892621
 20
2.070775110760888
 10
608.8412547464388
 20
2.334890004516876
 10
608.9613503393418
 20
2.322290850926038
 10
609.013717933851
 20
2.320188778865161
 10
609.0837411959682
 20
2.318600420130965
 10
609.1294836727784
 20
2.30927209661553
 10
609.1843727036897
 20
2.318706090388639
 10
609.1586489175647
 20
2.270576707786126
 10
609.0448311961416
 20
2.275914718676092
 10
609.1782261011098
 20
2.047738167002143
 10
609.0566573125442
 20
1.814814987193617
 10
609.1846103159377
 20
1.824119010078778
 10
609.2671962796428
 20
1.821256438781194
 10
609.3930129240791
 20
1.822480795357417
 10
609.5364384228021
 20
1.822570740124037
 10
609.6780335341693
 20
1.820708053072924
 10
609.8082041639931
 20
1.826577180606015
 10
609.8816366676158
 20
1.813949829466436
 10
609.9514027312059
 20
1.832022052338524
 10
609.9398686995362
 20
1.779374926697654
 10
609.9456098736647
 20
1.735459598099864
 10
609.9439530160873
 20
1.68414624799988
 10
609.9440671951635
 20
1.654834341450735
 10
609.9441028723254
 20
1.645674372485161
 97
        1
330
AB
 75
     1
 76
     2
 52
45.0
 41
0.1
 77
     0
 78
     1
 53
45.0
 43
0.0
 44
0.0
 45
-0.282842712474619
 46
0.0
 79
     0
 98
        1
 10
0.0
 20
0.0
  0
HATCH
  5
C9
330
4A
100
AcDbEntity
  8
1
  6
Continuous
 62
     2
100
AcDbHatch
 10
0.0
 20
0.0
 30
0.0
210
0.0
220
0.0
230
1.0
  2
CUSTOM9
 70
     0
 71
     1
 91
        1
 92
        1
 93
        1
 72
     4
 94
        3
 73
     0
 74
     0
 95
      118
 96
      114
 40
0.0
 40
0.0
 40
0.0
 40
0.0
 40
0.1054708162973413
 40
0.2466098270052585
 40
0.3965912874592046
 40
0.5285525069754421
 40
0.6156245055641756
 40
0.6431434105796403
 40
0.7036850037985265
 40
0.764226598450384
 40
0.7917455052354151
 40
0.9287404319988729
 40
1.106572819087908
 40
1.287544879680945
 40
1.317578308030462
 40
1.399928030857098
 40
1.522968204799872
 40
1.675072986590495
 40
1.844616533180574
 40
2.019973001638636
 40
2.189516548879948
 40
2.341621331585284
 40
2.464661506320421
 40
2.547011229646984
 40
2.57704465816795
 40
2.603797890893077
 40
2.662655002908707
 40
2.721512114949576
 40
2.748265347702671
 40
2.774215307344746
 40
2.845959313407079
 40
2.954338556588278
 40
3.090194227585457
 40
3.244367517100422
 40
3.407699615844183
 40
3.571031714539334
 40
3.725205003920011
 40
3.861060674729512
 40
3.969439917716207
 40
4.041183923628879
 40
4.067133883212873
 40
4.311886746012069
 40
4.547897258335394
 40
4.76474708304386
 40
4.952749679951664
 40
5.045772974195799
 40
5.137862019644808
 40
5.330543169792865
 40
5.553448265243789
 40
5.795083855887937
 40
6.043293412177008
 40
6.285761695540952
 40
6.313902908752436
 40
6.384255941792969
 40
6.475714884766727
 40
6.567173827758676
 40
6.637526860839568
 40
6.665668074073903
 40
6.692018920327878
 40
6.749990782070955
 40
6.807962643790328
 40
6.834313490017805
 40
6.856393084244998
 40
6.913335195649849
 40
6.991194817302428
 40
7.076026942283717
 40
7.153886563725179
 40
7.210828674844676
 40
7.232908268931125
 40
7.258199334923646
 40
7.324875781592294
 40
7.41914248192495
 40
7.527204308841889
 40
7.635266135230463
 40
7.729532834168447
 40
7.796209279292767
 40
7.821500344594713
 40
7.844652988850812
 40
7.899863140541648
 40
7.965759128053615
 40
8.020969279770984
 40
8.044121924046394
 40
8.069356610160408
 40
8.109134395441256
 40
8.132238100190966
 40
8.19314786778633
 40
8.279261678876502
 40
8.377977512673718
 40
8.476693347146503
 40
8.562807160411557
 40
8.623716930826342
 40
8.646820636853295
 40
8.671988793774108
 40
8.73490918582802
 40
8.816705695188762
 40
8.898502204815305
 40
8.961422597377851
 40
8.986590754551049
 40
9.012941600733207
 40
9.070913462380297
 40
9.128885324081796
 40
9.15523617032512
 40
9.180404327929304
 40
9.243324721948406
 40
9.325121234212142
 40
9.406917746637882
 40
9.469838141978366
 40
9.495006288271055
 40
9.517811184379198
 40
9.572192090487196
 40
9.637098333281426
 40
9.691479239515626
 40
9.714284125643665
 40
9.714284125643665
 40
9.714284125643665
 40
9.714284125643665
 10
605.1497383418618
 20
1.362138053111579
 10
605.1713904959
 20
1.334365113662488
 10
605.2220171499442
 20
1.26942696684672
 10
605.2972297592557
 20
1.162157024363393
 10
605.3871396664314
 20
1.047020803900666
 10
605.433208406664
 20
0.9468168787176013
 10
605.527873968462
 20
0.8775864893838848
 10
605.4827353710376
 20
0.8309628180170799
 10
605.4569962175754
 20
0.7898495098948062
 10
605.4268111097977
 20
0.7539061385138063
 10
605.3816599120528
 20
0.6790442471953432
 10
605.333341884853
 20
0.9010716637704717
 10
605.2591454103039
 20
0.9383531946115329
 10
605.1458961714574
 20
1.209348442540411
 10
605.1508047968134
 20
1.094199705696683
 10
605.149140094627
 20
1.02161317905067
 10
605.1499744466678
 20
0.8995023060742595
 10
605.1496523930231
 20
0.7523844293390024
 10
605.1497991302422
 20
0.5863170607999652
 10
605.1495864482686
 20
0.4151219673204165
 10
605.1502411642
 20
0.2487747075893795
 10
605.1482106851103
 20
0.1025981517913304
 10
605.1536374789896
 20
-0.0220431040194903
 10
605.1427845258675
 20
-0.0895670133593425
 10
605.157965354552
 20
-0.1512629645953987
 10
605.10808094981
 20
-0.1394785397955838
 10
605.0640064732486
 20
-0.1473153509659096
 10
605.0205286020165
 20
-0.1391491650385738
 10
604.9715261176455
 20
-0.1513730113808978
 10
604.9841645624789
 20
-0.097146906272463
 10
604.9753097358414
 20
-0.0373843896900286
 10
604.9797973160278
 20
0.0724667116781046
 10
604.9780874525957
 20
0.2035461752911841
 10
604.9786465305951
 20
0.3552265356776808
 10
604.9784843158658
 20
0.5153571705339359
 10
604.9785184314641
 20
0.6756150779800669
 10
604.978542935009
 20
0.8269488964388026
 10
604.978436793319
 20
0.9590679846204159
 10
604.9787213531895
 20
1.06619444656634
 10
604.9781589937535
 20
1.131332617029146
 10
604.9803679473649
 20
1.259435999821163
 10
604.8942350388569
 20
0.8842225251502089
 10
604.8178055208464
 20
0.7324283524683196
 10
604.72829551578
 20
0.5709084856974777
 10
604.6263327607292
 20
0.2979649094361392
 10
604.5810890881005
 20
0.4604198871994478
 10
604.4725270331636
 20
0.5493007418156939
 10
604.6618706141719
 20
0.6987443708484168
 10
604.7188254935666
 20
0.8907377909836918
 10
604.8340435383319
 20
1.122242650301966
 10
604.8563066020095
 20
1.311219018825017
 10
605.0394819542109
 20
1.587787314493692
 10
604.9160947987516
 20
1.58023620955533
 10
604.8548598556799
 20
1.58181414489557
 10
604.7704914007029
 20
1.582072346971119
 10
604.682714947593
 20
1.578694878746447
 10
604.6279683086088
 20
1.587194571054599
 10
604.5727617415989
 20
1.573732031732276
 10
604.58457374255
 20
1.622560842502029
 10
604.5765410541758
 20
1.665936470201486
 10
604.5851100494647
 20
1.708340804330123
 10
604.572585779912
 20
1.755924386755561
 10
604.6178015928701
 20
1.745918551185487
 10
604.6637729952688
 20
1.752187472975015
 10
604.7400136437676
 20
1.749182035293126
 10
604.8184210521958
 20
1.750950904019817
 10
604.8946907038898
 20
1.747894361051003
 10
604.9405923849438
 20
1.754286134996181
 10
604.9854648355365
 20
1.744184651023334
 10
604.9728466665599
 20
1.794818437053376
 10
604.981485097267
 20
1.848259040055107
 10
604.9775275985412
 20
1.941878972551202
 10
604.9785239458298
 20
2.044372488123635
 10
604.9794841803039
 20
2.146779123716029
 10
604.9756125847972
 20
2.240605717327601
 10
604.9840704204328
 20
2.293611849637927
 10
604.9715990322801
 20
2.345360777746281
 10
605.0165020779815
 20
2.331753893501953
 10
605.0577998226737
 20
2.33425122444025
 10
605.1218258671017
 20
2.329727026979255
 10
605.1609025538751
 20
2.321056451667468
 10
605.2099457888705
 20
2.328397441941263
 10
605.1847994420557
 20
2.289275381751895
 10
605.1438815723689
 20
2.298884845792529
 10
605.153302400657
 20
2.248647902932184
 10
605.1478561708713
 20
2.197105877629312
 10
605.1504613991766
 20
2.112843497079612
 10
605.149301659212
 20
2.018837777068489
 10
605.1506505454197
 20
1.925215075189661
 10
605.1472884491473
 20
1.840041596756636
 10
605.1543874307738
 20
1.790414981954847
 10
605.143548354451
 20
1.743183370934294
 10
605.192692461521
 20
1.755263170602924
 10
605.2417792020112
 20
1.747720354864517
 10
605.3196628670607
 20
1.750107124848733
 10
605.3973279562861
 20
1.75224024028855
 10
605.4468308321324
 20
1.745180340458943
 10
605.4967509140605
 20
1.756847940596569
 10
605.4846112906848
 20
1.708648774948335
 10
605.492875261911
 20
1.665738619246753
 10
605.484611304075
 20
1.622828439748226
 10
605.4967508939822
 20
1.574629308782991
 10
605.4468309548712
 20
1.58629676594951
 10
605.3973265041169
 20
1.579238445584846
 10
605.3196698772937
 20
1.581363073520424
 10
605.2417558255726
 20
1.583780314891988
 10
605.1927414742681
 20
1.576164903179253
 10
605.1436160498909
 20
1.588325946810285
 10
605.1538474378538
 20
1.543976555475964
 10
605.1479592068018
 20
1.502500783263504
 10
605.1501702695533
 20
1.442400364387415
 10
605.1497023736111
 20
1.395504248863276
 10
605.1497301382877
 20
1.369747885416349
 10
605.1497383418618
 20
1.362138053111579
 97
        1
330
AC
 75
     1
 76
     2
 52
45.0
 41
0.1
 77
     0
 78
     1
 53
45.0
 43
0.0
 44
0.0
 45
-0.282842712474619
 46
0.0
 79
     0
 98
        1
 10
0.0
 20
0.0
  0
HATCH
  5
CA
330
4A
100
AcDbEntity
  8
1
  6
Continuous
 62
     2
100
AcDbHatch
 10
0.0
 20
0.0
 30
0.0
210
0.0
220
0.0
230
1.0
  2
CUSTOM10
 70
     0
 71
     1
 91
        1
 92
        1
 93
        1
 72
     4
 94
        3
 73
     0
 74
     0
 95
       47
 96
       43
 40
0.0
 40
0.0
 40
0.0
 40
0.0
 40
0.220791280995724
 40
0.445940418630296
 40
0.4902387190459728
 40
0.532747389272354
 40
0.5742260451225725
 40
0.6155432630561303
 40
0.6568164066315655
 40
0.6982511618780286
 40
0.7407663929317091
 40
0.7851366743175142
 40
1.010288833836293
 40
1.231080507002155
 40
1.451765243652373
 40
1.676638205891676
 40
1.720461045359645
 40
1.830018144043506
 40
1.972442372353132
 40
2.114866600677494
 40
2.224423699395115
 40
2.268246538883353
 40
2.493628801207193
 40
2.71560283028659
 40
2.934211330706348
 40
3.149502369855349
 40
3.231387784850824
 40
3.318231873853916
 40
3.405143198197904
 40
3.486970301720369
 40
3.702258172493817
 40
3.920866283534051
 40
4.142839325931844
 40
4.368221903865313
 40
4.412044743359791
 40
4.5216018420958
 40
4.664026070452276
 40
4.806450298808978
 40
4.916007397546668
 40
4.959830237042989
 40
5.184703515847039
 40
5.40538725076741
 40
5.40538725076741
 40
5.40538725076741
 40
5.40538725076741
 10
602.513034164861
 20
1.827310830773115
 10
602.5191053809968
 20
1.890831246246501
 10
602.531367649721
 20
2.019125808130684
 10
602.4227621269374
 20
2.294908622975137
 10
602.538490028657
 20
2.265127755554923
 10
602.5794756898979
 20
2.260901983862595
 10
602.6214120187485
 20
2.256350885130457
 10
602.6627111015675
 20
2.255266250529229
 10
602.7039946505519
 20
2.25634980318667
 10
602.7459062660612
 20
2.260907548347814
 10
602.7868897938985
 20
2.265120723331677
 10
602.9027837233455
 20
2.295022534409702
 10
602.7918567117423
 20
2.016644487333282
 10
602.8197770755231
 20
1.83607782948393
 10
602.8027181736936
 20
1.602856844699105
 10
602.8037551672068
 20
1.442312646665848
 10
602.8037013789369
 20
1.316094596821603
 10
602.803719176245
 20
1.217536054596803
 10
602.8037102971045
 20
1.086053445664024
 10
602.8037178317999
 20
0.9545748709208982
 10
602.8037043795093
 20
0.8560086481753074
 10
602.8037446107456
 20
0.7296437774759245
 10
602.8029660793782
 20
0.5680671094631042
 10
602.8188872709233
 20
0.3368646401635364
 10
602.7956383275373
 20
0.151989940954429
 10
602.898309783433
 20
-0.1173975510650261
 10
602.7443152752803
 20
-0.0801524519074317
 10
602.6627044192797
 20
-0.0853736319602775
 10
602.5811106682548
 20
-0.0801473749820986
 10
602.4271428056809
 20
-0.1173828799117621
 10
602.5297097811882
 20
0.151997719863193
 10
602.5064959706053
 20
0.3368622744885476
 10
602.5223359045103
 20
0.5680686068907824
 10
602.52162107034
 20
0.7296435443194358
 10
602.5216578959871
 20
0.856008733339609
 10
602.521646339024
 20
0.9545739875942157
 10
602.521648940918
 20
1.08605769540659
 10
602.5216562921744
 20
1.217521901546385
 10
602.5216356931317
 20
1.316124283987643
 10
602.5216996581995
 20
1.44220791477866
 10
602.5204648337556
 20
1.605347335072107
 10
602.5154954786709
 20
1.753788259009893
 10
602.513034164861
 20
1.827310830773115
 97
        1
330
AD
 75
     1
 76
     2
 52
45.0
 41
0.1
 77
     0
 78
     1
 53
45.0
 43
0.0
 44
0.0
 45
-0.282842712474619
 46
0.0
 79
     0
 98
        1
 10
0.0
 20
0.0
  0
HATCH
  5
CB
330
4A
100
AcDbEntity
  8
1
  6
Continuous
 62
     2
100
AcDbHatch
 10
0.0
 20
0.0
 30
0.0
210
0.0
220
0.0
230
1.0
  2
CUSTOM11
 70
     0
 71
     1
 91
        1
 92
        1
 93
        1
 72
     4
 94
        3
 73
     0
 74
     0
 95
      110
 96
      106
 40
0.0
 40
0.0
 40
0.0
 40
0.0
 40
0.2203406257277837
 40
0.4407808782838031
 40
0.5952494494614156
 40
0.7488431659392731
 40
0.9023581831307008
 40
1.056801968670427
 40
1.210736449099643
 40
1.363041386539606
 40
1.515315729683007
 40
1.669377239147957
 40
1.72161165275642
 40
1.773199502942798
 40
1.824933793209835
 40
1.877110426487807
 40
1.9826822812064
 40
2.07878166708735
 40
2.172809640822129
 40
2.271937807378583
 40
2.378349933379146
 40
2.494131557736364
 40
2.626681683943469
 40
2.783145050795811
 40
2.890701232940668
 40
2.993130312454558
 40
3.09986973069154
 40
3.220237816691025
 40
3.352695482737316
 40
3.481732806389579
 40
3.593499473690106
 40
3.674323013331609
 40
3.817951711952644
 40
3.946167120793556
 40
4.061405053453327
 40
4.166480796002939
 40
4.262478775059119
 40
4.35073667355096
 40
4.433071991253875
 40
4.511216293814308
 40
4.564262454117608
 40
4.618474415571234
 40
4.670128488753836
 40
4.722296879126045
 40
4.819540945314028
 40
4.931194984127829
 40
5.04999604025747
 40
5.168643755415015
 40
5.283970811762227
 40
5.392260784909939
 40
5.486512254876099
 40
5.559178233949413
 40
5.59142585285309
 40
5.626215969637471
 40
5.667155838674017
 40
5.717449290213836
 40
5.738402360944446
 40
5.784499116553406
 40
5.830595872164372
 40
5.851548942897225
 40
5.87301928066134
 40
5.924217778407881
 40
5.985325662817258
 40
6.036524160567273
 40
6.057994498333802
 40
6.236847789607063
 40
6.381409928945241
 40
6.493190424178266
 40
6.574067534230086
 40
6.691018086205351
 40
6.814881554220325
 40
6.944307823240136
 40
7.071266716065645
 40
7.193488604461518
 40
7.309042773127774
 40
7.414007203170429
 40
7.50514044188624
 40
7.531150360599382
 40
7.55922164532196
 40
7.587202218920621
 40
7.612569159498851
 40
7.662550809480716
 40
7.702878875763838
 40
7.85732820523068
 40
8.010799568088268
 40
8.165256399657332
 40
8.322232698713501
 40
8.479564855016301
 40
8.635216230290562
 40
8.79088255092528
 40
8.94830515494679
 40
9.168271839032485
 40
9.387358980986743
 40
9.60804796103299
 40
9.832914234792208
 40
9.858338694962542
 40
9.925366817229548
 40
10.02013071422713
 40
10.12876249858951
 40
10.23739428295202
 40
10.33215817995143
 40
10.39918630222346
 40
10.42461076239735
 40
10.64992019336895
 40
10.87188524531139
 40
10.87188524531139
 40
10.87188524531139
 40
10.87188524531139
 10
599.7680702766584
 20
1.832479025216287
 10
599.7715779323506
 20
1.899411041972425
 10
599.7785948377626
 20
2.033305340392963
 10
599.6820941989042
 20
2.318731970949058
 10
599.9133049116073
 20
2.256090283137226
 10
600.0542204447123
 20
2.263261961794284
 10
600.2113332147553
 20
2.255605252016837
 10
600.3648827817252
 20
2.255773944064778
 10
600.5168019325047
 20
2.25506682658873
 10
600.6765129203194
 20
2.265348004750772
 10
600.8031886991087
 20
2.248211532041891
 10
600.9993735512043
 20
2.320519022305871
 10
600.9657309669047
 20
2.219653412035549
 10
600.967492570715
 20
2.169438960711106
 10
600.9650256463424
 20
2.120369777099063
 10
600.9969991355975
 20
2.033881329704433
 10
600.8633314293222
 20
2.0832208073178
 10
600.7795123078022
 20
2.077552764376061
 10
600.679677552929
 20
2.087901588297377
 10
600.580949111011
 20
2.094110925345271
 10
600.4744447161078
 20
2.100224059402162
 10
600.3533426088023
 20
2.109135256080259
 10
600.2326295892418
 20
2.098462480358224
 10
600.0435468233403
 20
2.157931452038033
 10
600.0751942895274
 20
1.998829622009797
 10
600.0618477706802
 20
1.901637704633434
 10
600.0597872816414
 20
1.789587072335434
 10
600.0581102434637
 20
1.670243277527911
 10
600.0596251184198
 20
1.543572342785502
 10
600.0579496868633
 20
1.416262301395569
 10
600.0681758661625
 20
1.317762085279037
 10
600.0401920986544
 20
1.177133447490684
 10
600.2130944389271
 20
1.233141932575338
 10
600.3267934592736
 20
1.220445936019369
 10
600.4463066062203
 20
1.227730191746945
 10
600.5511405815039
 20
1.232026591801955
 10
600.6465999288577
 20
1.236552103824166
 10
600.7386737896998
 20
1.244738432696381
 10
600.8099466172404
 20
1.239684927615497
 10
600.9167846095648
 20
1.278610671551111
 10
600.8849517988003
 20
1.198417641293173
 10
600.8889078893895
 20
1.148875789694739
 10
600.8857416781977
 20
1.098821201632574
 10
600.9173705880551
 20
1.014534897354576
 10
600.7833048067657
 20
1.06750007618595
 10
600.6915237183164
 20
1.058647230138828
 10
600.570264357957
 20
1.068946920885944
 10
600.4537027509737
 20
1.070735538909404
 10
600.3406290135842
 20
1.071116592331333
 10
600.2302160698437
 20
1.077400915956185
 10
600.1521038457806
 20
1.065137753788022
 10
600.0536540223611
 20
1.097785297395638
 10
600.0635269563527
 20
1.040943901776458
 10
600.0596837634366
 20
1.00716772681424
 10
600.0589704274233
 20
0.9644424683285001
 10
600.0586284032943
 20
0.9272624938559217
 10
600.0586748645311
 20
0.8881187949420959
 10
600.0586563819892
 20
0.8504149162112531
 10
600.0586617821774
 20
0.8126959735584278
 10
600.0586611604165
 20
0.783189668685902
 10
600.0586612541514
 20
0.751982198227416
 10
600.0586618677884
 20
0.7073906703152554
 10
600.0586585889303
 20
0.6528859863229183
 10
600.0586674013448
 20
0.6083018232488876
 10
600.0586274043382
 20
0.5244245070918055
 10
600.0598938660221
 20
0.4106216280111835
 10
600.0573188507806
 20
0.2615503805714893
 10
600.0687923771688
 20
0.1592184593734486
 10
600.0446420612226
 20
0.0266354600926644
 10
600.1955908336442
 20
0.0722037439546097
 10
600.3051351061522
 20
0.057516542857878
 10
600.4356884863886
 20
0.0624507724850279
 10
600.5613226599478
 20
0.065823474467996
 10
600.6811645015564
 20
0.0703613962221198
 10
600.8014277001391
 20
0.0837317830544317
 10
600.8845676053481
 20
0.0739335490603482
 10
601.0078994811039
 20
0.1345085674676057
 10
600.9867183593922
 20
0.0785710225745969
 10
600.9858864660082
 20
0.0526389149578696
 10
600.9841878097525
 20
0.0252189831437823
 10
600.9840889278797
 20
-0.0093716267017569
 10
600.9826573691295
 20
-0.0462494965579305
 10
601.0155718582158
 20
-0.1382851685475739
 10
600.8174221378072
 20
-0.0654334190172908
 10
600.6923462684856
 20
-0.0884963136795649
 10
600.5295985685123
 20
-0.0822133589077565
 10
600.3752280839967
 20
-0.0841441396663554
 10
600.2189584826907
 20
-0.0828159527729353
 10
600.0593458855249
 20
-0.0861548538869952
 10
599.9163240732203
 20
-0.0740956214832194
 10
599.6820059271595
 20
-0.1372335589964195
 10
599.7796725141162
 20
0.1494516958975731
 10
599.7629783170025
 20
0.3431295026609978
 10
599.7769211099651
 20
0.5717288500373462
 10
599.7765902236597
 20
0.7270923607848796
 10
599.7765992509228
 20
0.8329097856756659
 10
599.7765970266281
 20
0.8953042624765497
 10
599.7765979941855
 20
0.9854506737176697
 10
599.7765979863225
 20
1.089458092808782
 10
599.7765968251069
 20
1.193467734987359
 10
599.7766005361466
 20
1.283608858122074
 10
599.7765925441016
 20
1.346014452206546
 10
599.7766248664983
 20
1.451934780845587
 10
599.7754355178287
 20
1.609513586681792
 10
599.7705130879223
 20
1.758528619455044
 10
599.7680702766584
 20
1.832479025216287
 97
        1
330
AE
 75
     1
 76
     2
 52
45.0
 41
0.1
 77
     0
 78
     1
 53
45.0
 43
0.0
 44
0.0
 45
-0.282842712474619
 46
0.0
 79
     0
 98
        1
 10
0.0
 20
0.0
  0
HATCH
  5
CC
330
4A
100
AcDbEntity
  8
1
  6
Continuous
 62
     2
100
AcDbHatch
 10
0.0
 20
0.0
 30
0.0
210
0.0
220
0.0
230
1.0
  2
CUSTOM12
 70
     0
 71
     1
 91
        1
 92
        1
 93
        1
 72
     4
 94
        3
 73
     0
 74
     0
 95
       95
 96
       91
 40
0.0
 40
0.0
 40
0.0
 40
0.0
 40
0.6550406656911556
 40
1.308087289031995
 40
1.420803739835869
 40
1.56613075977086
 40
1.757067341888539
 40
2.006513545026521
 40
2.087328263121621
 40
2.185328872295701
 40
2.29461245474845
 40
2.408936380534888
 40
2.52680276779864
 40
2.646360524615677
 40
2.762535723971655
 40
2.870057342870225
 40
2.966883448431735
 40
3.050803243518367
 40
3.115818222436677
 40
3.156030057150342
 40
3.213914225080442
 40
3.276689026450871
 40
3.342960320981477
 40
3.404230667150868
 40
3.453822809493683
 40
3.53249982718872
 40
3.634775188507483
 40
3.754909333008482
 40
3.889736761660967
 40
4.035769602175536
 40
4.187256681197922
 40
4.338733685676268
 40
4.48847873467643
 40
4.634708317831908
 40
4.771493189921583
 40
4.892686571561534
 40
5.199775528944764
 40
5.460353566929962
 40
5.667603142345826
 40
5.814722905404809
 40
5.82899080622022
 40
5.855488336304719
 40
5.869756237119107
 40
6.189796507763202
 40
6.53189046987333
 40
6.883053637017367
 40
7.230512024911839
 40
7.566966656764988
 40
7.885203559707806
 40
8.172887439719636
 40
8.418011594063112
 40
8.443926721191033
 40
8.510760470613521
 40
8.602145393796027
 40
8.701714041647463
 40
8.793098965075695
 40
8.859932715058266
 40
8.885847842603914
 40
9.242301256613137
 40
9.589275455017106
 40
9.921808543164506
 40
10.234796242985
 40
10.29968150889208
 40
10.35323493887796
 40
10.40154625355189
 40
10.46482922477867
 40
10.55973900668448
 40
10.6923954598566
 40
10.84920353475714
 40
11.01626328594823
 40
11.18672024367486
 40
11.35372582577253
 40
11.5025744229247
 40
11.61866495023335
 40
11.71329869152918
 40
11.82511050573951
 40
11.94464880845759
 40
12.06929242642549
 40
12.19707290435218
 40
12.32562632860571
 40
12.45034565331322
 40
12.56646595170371
 40
12.67099007414678
 40
12.76077625936824
 40
12.82703233506737
 40
12.87429132786035
 40
12.89831990323368
 40
12.92234847860054
 40
13.53984767410371
 40
14.18294284359405
 40
14.18294284359405
 40
14.18294284359405
 40
14.18294284359405
 10
597.1690850037987
 20
0.8022268032516422
 10
597.0374934148515
 20
0.9158970072667335
 10
596.7747108192697
 20
1.142891384396003
 10
596.2620307830987
 20
1.985391050797285
 10
596.2729568985327
 20
1.627480197004601
 10
596.2664140917958
 20
1.485920343955724
 10
596.2650941021737
 20
1.28745947422721
 10
596.2641031992503
 20
1.114749381694224
 10
596.2647016141939
 20
0.9719001538101972
 10
596.2661908691848
 20
0.8758964753679701
 10
596.2678597978438
 20
0.7687014538658057
 10
596.2694849344582
 20
0.6548885364102073
 10
596.2715343891651
 20
0.5376621472802823
 10
596.274607989189
 20
0.4198105335640892
 10
596.277925408701
 20
0.3055272944406066
 10
596.2816519730244
 20
0.1984604399071532
 10
596.2840252551392
 20
0.1033205089036172
 10
596.2901633278323
 20
0.0188319932913476
 10
596.286269888591
 20
-0.0375227057842159
 10
596.3078144833047
 20
-0.1085033540421079
 10
596.2303854448584
 20
-0.0777268027207772
 10
596.1739267630157
 20
-0.0866411535894712
 10
596.1163410286772
 20
-0.077791394782879
 10
596.0313077868437
 20
-0.1093713265062102
 10
596.0632628536348
 20
-0.0258020188437166
 10
596.0613619672503
 20
0.042072510917505
 10
596.0730874437268
 20
0.1455789888785674
 10
596.0787155442961
 20
0.2632676774013573
 10
596.0860816568908
 20
0.3971325128786353
 10
596.0943674091574
 20
0.5408879499607144
 10
596.1021766287395
 20
0.6903866496688366
 10
596.1080485612622
 20
0.8411719152551814
 10
596.1126582207934
 20
0.9902458600187751
 10
596.1165546507508
 20
1.134475552864626
 10
596.1193629516529
 20
1.269085473364576
 10
596.119961314499
 20
1.457942564707945
 10
596.1238938257118
 20
1.683001364365944
 10
596.1065089768466
 20
1.956917332491472
 10
596.1473331732549
 20
2.121117542220388
 10
596.0618067645964
 20
2.320743035885387
 10
596.1283473297653
 20
2.317101005274182
 10
596.1461638663196
 20
2.31738089284294
 10
596.2679716187457
 20
2.319575695220506
 10
596.3703684725434
 20
2.039997608449666
 10
596.620293589932
 20
1.838876506594359
 10
596.8492949721076
 20
1.571172571113597
 10
597.0868065603074
 20
1.319710559858131
 10
597.3109005130736
 20
1.082946161848005
 10
597.5373630672976
 20
0.8254333470651758
 10
597.6948602276475
 20
0.7097397718036698
 10
597.9095044002652
 20
0.3732179466223556
 10
597.904556036458
 20
0.4978939621504275
 10
597.9056845992515
 20
0.5565233405917593
 10
597.9051792231479
 20
0.6436830449541593
 10
597.9053389548078
 20
0.7374078530631091
 10
597.9052969281286
 20
0.8234361342047359
 10
597.9053116430339
 20
0.8847853406893395
 10
597.9052620645947
 20
1.034598736444316
 10
597.9081725912777
 20
1.273142546335435
 10
597.8882435431129
 20
1.638111519921411
 10
597.9373348326211
 20
1.901242741168519
 10
597.7800865899147
 20
2.312535470711888
 10
597.9385027262385
 20
2.257229246751874
 10
597.9934594868595
 20
2.255243286236133
 10
598.0450802156704
 20
2.255894203716903
 10
598.1336113355333
 20
2.296941698616839
 10
598.0827812693133
 20
2.150209687464271
 10
598.0936304320247
 20
2.043446140778725
 10
598.0788951384811
 20
1.884103475375517
 10
598.0722890836171
 20
1.72177703776313
 10
598.063787578988
 20
1.55317164015834
 10
598.0566141592163
 20
1.391394568269796
 10
598.0511977605354
 20
1.247469735813713
 10
598.0494628357612
 20
1.127621355903639
 10
598.0498355062283
 20
1.020107437139538
 10
598.0496570516227
 20
0.9114466676902535
 10
598.0499925253105
 20
0.7927821228896959
 10
598.0512955012149
 20
0.6687980563618082
 10
598.0531801741539
 20
0.5418293629454456
 10
598.0547918844816
 20
0.4147850367447157
 10
598.0564317527396
 20
0.2917952661561714
 10
598.0585485135716
 20
0.176255735071988
 10
598.058676281233
 20
0.0741554607927698
 10
598.0629428786522
 20
-0.0166550903840352
 10
598.0531354475254
 20
-0.0746173666777251
 10
598.0741389161658
 20
-0.1415822774452866
 10
598.0348554129863
 20
-0.1338420390987168
 10
597.821822150772
 20
-0.1492010373136492
 10
597.6259212333146
 20
0.4072770021789123
 10
597.3234112021511
 20
0.6688067747194737
 10
597.1690850037987
 20
0.8022268032516422
 97
        1
330
AF
 75
     1
 76
     2
 52
45.0
 41
0.1
 77
     0
 78
     1
 53
45.0
 43
0.0
 44
0.0
 45
-0.282842712474619
 46
0.0
 79
     0
 98
        1
 10
0.0
 20
0.0
  0
HATCH
  5
CD
330
4A
100
AcDbEntity
  8
1
  6
Continuous
 62
     2
100
AcDbHatch
 10
0.0
 20
0.0
 30
0.0
210
0.0
220
0.0
230
1.0
  2
CUSTOM13
 70
     0
 71
     1
 91
        2
 92
        1
 93
        1
 72
     4
 94
        3
 73
     0
 74
     0
 95
       57
 96
       53
 40
0.0
 40
0.0
 40
0.0
 40
0.0
 40
0.0471632082808954
 40
0.0914861054633859
 40
0.1357762519704094
 40
0.1826527001612105
 40
0.2295203288572877
 40
0.2737751972221615
 40
0.3181310461543638
 40
0.3652607198399648
 40
0.4571007286315489
 40
0.5671851029165794
 40
0.6894623283868869
 40
0.8181758272547498
 40
0.9510087229275684
 40
1.085852229674195
 40
1.218126164475414
 40
1.343545131142511
 40
1.454537202956927
 40
1.567187607530852
 40
1.680710966642413
 40
1.794226869736863
 40
1.900009184247662
 40
2.004085860447856
 40
2.108162674451744
 40
2.214000150155403
 40
2.496038577352198
 40
2.762350745479306
 40
2.997275353279493
 40
3.185110082137807
 40
3.24640789006409
 40
3.312607550212679
 40
3.37887774271161
 40
3.440140399651578
 40
4.100501696006637
 40
4.754913085563687
 40
5.41133169342408
 40
6.077890432568838
 40
6.110575292671173
 40
6.143260152775897
 40
6.367989363395328
 40
6.610525374951707
 40
6.863389136467509
 40
7.119380025547789
 40
7.376036605091262
 40
7.631164770966472
 40
7.876722425456688
 40
8.104953735856133
 40
8.312916685924499
 40
8.497730294941436
 40
8.651018984314005
 40
8.764738853624788
 40
8.764738853624788
 40
8.764738853624788
 40
8.764738853624788
 10
594.6545563890479
 20
-0.0904861826363401
 10
594.6389531116896
 20
-0.0884912679748304
 10
594.608686235027
 20
-0.0846215651626063
 10
594.5633908592217
 20
-0.0833337290929394
 10
594.5182467519312
 20
-0.0836667432251045
 10
594.4721931513366
 20
-0.0836069920233755
 10
594.4263410562061
 20
-0.0834954422656066
 10
594.380662603813
 20
-0.0839752441997114
 10
594.3373725931574
 20
-0.0821424825783956
 10
594.2662862341477
 20
-0.106258010619061
 10
594.2680391651405
 20
0.0150933610068826
 10
594.2209110760537
 20
0.1005088187467552
 10
594.1814392641729
 20
0.2181157146857996
 10
594.1329549922609
 20
0.3355739466387351
 10
594.0823931792486
 20
0.4573057788494719
 10
594.0341549000441
 20
0.5840060998590355
 10
593.9758147337561
 20
0.6925832990839704
 10
593.9603807057225
 20
0.8494529925784639
 10
593.81895007206
 20
0.8169808867176291
 10
593.7131311804869
 20
0.828375308056209
 10
593.5981484115187
 20
0.8271723363805432
 10
593.487605664211
 20
0.8283158747084973
 10
593.3799497912747
 20
0.8274299216096546
 10
593.2744236919208
 20
0.8274124451396003
 10
593.1732107071978
 20
0.8203867459585412
 10
592.9889719217718
 20
0.8446050198330848
 10
592.9780308075377
 20
0.5406633324532581
 10
592.8710606024717
 20
0.3167781937683233
 10
592.772106299431
 20
0.1321995641594113
 10
592.7848004913975
 20
-0.1114515307235682
 10
592.6673006106361
 20
-0.081673111233647
 10
592.6044970258275
 20
-0.0841726836695808
 10
592.5408786483367
 20
-0.0833128277375578
 10
592.2568928584036
 20
-0.1257731793461619
 10
592.8874552889349
 20
0.594065945682207
 10
592.9710559679036
 20
1.106011815591681
 10
593.3552167179312
 20
1.626783856734829
 10
593.3400122678513
 20
2.328442683766557
 10
593.5862180112663
 20
2.316702752046962
 10
593.6879260547523
 20
2.325496465762107
 10
593.6872666425786
 20
2.073842928537915
 10
593.8051231545792
 20
1.891426628573911
 10
593.8938429650452
 20
1.648883827863092
 10
593.9945206875226
 20
1.416646726535689
 10
594.0934057102206
 20
1.179992866903504
 10
594.1922591380634
 20
0.9478638129352854
 10
594.2879080780896
 20
0.7244686491223943
 10
594.3782818963236
 20
0.5159719117274566
 10
594.4612858958155
 20
0.3263309065276609
 10
594.5349002972764
 20
0.1598774819153549
 10
594.5965730285509
 20
0.0224234174953594
 10
594.6372373275572
 20
-0.0567611844652787
 10
594.6545563890479
 20
-0.0904861826363401
 97
        1
330
B1
 92
       16
 93
        1
 72
     4
 94
        3
 73
     0
 74
     0
 95
       25
 96
       21
 40
0.0
 40
0.0
 40
0.0
 40
0.0
 40
0.0911479969062547
 40
0.1858117896202956
 40
0.2804128399732786
 40
0.3715889190712806
 40
0.4679080494217572
 40
0.5642683809229516
 40
0.6605683222643571
 40
0.7569653015808835
 40
0.8561348172521339
 40
1.092615965104136
 40
1.374867658141716
 40
1.611348812011434
 40
1.710518328425073
 40
1.809403163726405
 40
2.045205463293868
 40
2.32664691762198
 40
2.56244921719046
 40
2.661334043833758
 40
2.661334043833758
 40
2.661334043833758
 40
2.661334043833758
 10
593.1306614957166
 20
0.9793918032073066
 10
593.1610440307888
 20
0.9792272183799301
 10
593.2229810279075
 20
0.9788917081336026
 10
593.3164271350296
 20
0.9759369757544154
 10
593.4098009626323
 20
0.9730239500058869
 10
593.504067514344
 20
0.9721884376685483
 10
593.5977879180932
 20
0.9732128678148588
 10
593.6974954693171
 20
0.9724161959441099
 10
593.7811863936278
 20
0.9824605235865731
 10
593.9260910705011
 20
0.9555925979760336
 10
593.8019046834763
 20
1.129901724034867
 10
593.758878167625
 20
1.28976353129532
 10
593.6431836532176
 20
1.548431006736557
 10
593.5640479821222
 20
1.685556949852987
 10
593.5054491011783
 20
1.90261675257518
 10
593.4487718329403
 20
1.685907763368721
 10
593.3675724290445
 20
1.546516545616705
 10
593.2686615671454
 20
1.297316114936355
 10
593.1876539484226
 20
1.112504723495154
 10
593.1436597715805
 20
1.009750889795545
 10
593.1306614957166
 20
0.9793918032073066
 97
        1
330
B0
 75
     1
 76
     2
 52
45.0
 41
0.1
 77
     0
 78
     1
 53
45.0
 43
0.0
 44
0.0
 45
-0.282842712474619
 46
0.0
 79
     0
 98
        1
 10
0.0
 20
0.0
  0
HATCH
  5
CE
330
4A
100
AcDbEntity
  8
1
  6
Continuous
 62
     2
100
AcDbHatch
 10
0.0
 20
0.0
 30
0.0
210
0.0
220
0.0
230
1.0
  2
CUSTOM14
 70
     0
 71
     1
 91
        1
 92
        1
 93
        1
 72
     4
 94
        3
 73
     0
 74
     0
 95
       99
 96
       95
 40
0.0
 40
0.0
 40
0.0
 40
0.0
 40
0.0796417172272722
 40
0.1621768542356322
 40
0.2486489160956992
 40
0.3404969668523178
 40
0.4381912511164312
 40
0.5434463660244339
 40
0.65181151928461
 40
0.7530190937886273
 40
0.8492196919724528
 40
0.9419290312998012
 40
1.034249663569987
 40
1.129078600620195
 40
1.226697027573186
 40
1.327220425421639
 40
1.470572134937958
 40
1.595489863371157
 40
1.719934125348262
 40
1.850576620127344
 40
1.989059629987341
 40
2.13413905422696
 40
2.280698007207115
 40
2.424529739039259
 40
2.565929576985713
 40
2.708239260773373
 40
2.861717887443554
 40
3.045168540347245
 40
3.183798301138478
 40
3.314813961455309
 40
3.4420834704471
 40
3.569912708372831
 40
3.702177512509297
 40
3.842307559659592
 40
3.992872223245858
 40
4.156750662218133
 40
4.310981861107327
 40
4.445859909322453
 40
4.57239393613153
 40
4.701656719781957
 40
4.768279086008389
 40
4.835960697898336
 40
4.912788918729274
 40
5.006285208481528
 40
5.026909478751633
 40
5.047533749021169
 40
5.10180803147118
 40
5.162325165538475
 40
5.226919745995828
 40
5.294231806596789
 40
5.364544852554875
 40
5.438319055467926
 40
5.517877651324122
 40
5.607647714861688
 40
5.70044964254445
 40
5.788251142364124
 40
5.87271470603971
 40
5.955167292575269
 40
6.037192395190401
 40
6.120669181469085
 40
6.206848616686383
 40
6.296680855416791
 40
6.442558392872619
 40
6.568190371608334
 40
6.692904567360415
 40
6.824220446557193
 40
6.963121850329506
 40
7.107843738851262
 40
7.253431663907405
 40
7.395187468036883
 40
7.53314075323782
 40
7.670550457175223
 40
7.816236511769309
 40
7.987691657359273
 40
8.142277421969283
 40
8.29366261541508
 40
8.442962460879373
 40
8.591598316185218
 40
8.743678992361804
 40
8.903725323699158
 40
9.076307008890478
 40
9.265578604680645
 40
9.459203795360763
 40
9.617619810273494
 40
9.753609671361875
 40
9.874873300004003
 40
9.95452018497763
 40
10.02416413719231
 40
10.09769764405431
 40
10.18909955924957
 40
10.20974586420127
 40
10.23039218263373
 40
10.30057101881262
 40
10.37632012987543
 40
10.37632012987543
 40
10.37632012987543
 40
10.37632012987543
 10
590.0088869225817
 20
0.2312030533943243
 10
590.0255132241185
 20
0.2104525096875221
 10
590.0593698596543
 20
0.1681975383534252
 10
590.1222736931002
 20
0.1135445351551432
 10
590.1955415330358
 20
0.0662366724448939
 10
590.2798883628602
 20
0.028518735613705
 10
590.3755155005426
 20
0.0036526185539259
 10
590.479476816531
 20
-0.0036579853062597
 10
590.5846934610372
 20
0.0046696491749339
 10
590.6829540761298
 20
0.0347382177496809
 10
590.7681900817513
 20
0.0817346509531864
 10
590.840213459607
 20
0.1427763337429374
 10
590.8973832099061
 20
0.2173761170202891
 10
590.9390783137408
 20
0.3032710678360827
 10
590.9649867236258
 20
0.3981049255565329
 10
590.9740951722617
 20
0.5117962116180487
 10
590.9609779186453
 20
0.6365722989421854
 10
590.894824472438
 20
0.7533936129532729
 10
590.7992285309535
 20
0.838371817008196
 10
590.6872595412333
 20
0.9074132658259925
 10
590.5616573973235
 20
0.9652878416932846
 10
590.4279606010821
 20
1.016983654077783
 10
590.2936037208797
 20
1.072237345206192
 10
590.1674898376845
 20
1.142644127650968
 10
590.0549494377499
 20
1.231101828546813
 10
589.9592877454425
 20
1.343057099919178
 10
589.895707154179
 20
1.492745522248171
 10
589.8823620894982
 20
1.652574365085817
 10
589.8943425377414
 20
1.803730474302841
 10
589.9335213318806
 20
1.931338867149742
 10
589.9977902140873
 20
2.044055161542928
 10
590.0861119389706
 20
2.139732513921244
 10
590.1961005597592
 20
2.21678857109195
 10
590.3255198791231
 20
2.274760390597112
 10
590.4734753357757
 20
2.310638197122624
 10
590.6304983845453
 20
2.320713611740039
 10
590.7797854856396
 20
2.311882798860291
 10
590.9219168004136
 20
2.283995414637942
 10
591.0218836999592
 20
2.22737956824577
 10
591.174798912615
 20
2.179992442289508
 10
591.1078046107136
 20
2.0952219512462
 10
591.0919393510235
 20
2.027635439969247
 10
591.0601664921265
 20
1.96250734916627
 10
591.0773116599536
 20
1.860480953803899
 10
591.0289341598196
 20
1.868178538053404
 10
590.9938703830732
 20
1.861314138482458
 10
590.9919612375684
 20
1.925884732816408
 10
590.9608607321957
 20
1.97150281744834
 10
590.928746601842
 20
2.028856787518986
 10
590.8830952865133
 20
2.078651048159901
 10
590.8281422608351
 20
2.123194558424384
 10
590.7633755562973
 20
2.160886309599873
 10
590.6855291700565
 20
2.186080179147967
 10
590.5978074943317
 20
2.192558731215484
 10
590.5075817667771
 20
2.185603514090469
 10
590.4217509084032
 20
2.162338325843623
 10
590.3451258028563
 20
2.12456286230981
 10
590.2788180026168
 20
2.073762832130129
 10
590.2245474926927
 20
2.010557855306546
 10
590.1847839735428
 20
1.936010978337975
 10
590.159968990055
 20
1.852419561212087
 10
590.1515038652835
 20
1.745175905057224
 10
590.1642612377068
 20
1.62290099390997
 10
590.2304462799239
 20
1.504743664146523
 10
590.3263891789799
 20
1.41930967832967
 10
590.4380829353146
 20
1.349080044301592
 10
590.563377805867
 20
1.289838044287455
 10
590.6972738331413
 20
1.239413502095718
 10
590.8312844723116
 20
1.186471591078202
 10
590.9573799706882
 20
1.12074812748619
 10
591.0699131028384
 20
1.038049946607594
 10
591.1654284674195
 20
0.9332064843350674
 10
591.229562087693
 20
0.7926175937501414
 10
591.2434018115242
 20
0.6339005157503098
 10
591.2296869102196
 20
0.4747779734131286
 10
591.186765354395
 20
0.3280847094264933
 10
591.1168820719029
 20
0.1944443871059424
 10
591.0197506603798
 20
0.0785702982271586
 10
590.8970720413623
 20
-0.0158537610646609
 10
590.7497322803134
 20
-0.0849608722457912
 10
590.580004688709
 20
-0.1272214701770788
 10
590.3940319369564
 20
-0.1389362164615099
 10
590.2151870316147
 20
-0.1286587119312393
 10
590.0504648143709
 20
-0.0870878410740351
 10
589.9457325231022
 20
-0.0187771499262043
 10
589.7973875180335
 20
0.0299986115554375
 10
589.8603292584692
 20
0.1230123341428587
 10
589.8695188820026
 20
0.196211783717178
 10
589.8926625691197
 20
0.2626093662478642
 10
589.8657502725282
 20
0.3629945165102187
 10
589.9144253346304
 20
0.3555867564081731
 10
589.9539444970661
 20
0.3621870574433339
 10
589.9619119334668
 20
0.284033453423731
 10
589.9928351357889
 20
0.249255694992967
 10
590.0088869225817
 20
0.2312030533943243
 97
        1
330
B2
 75
     1
 76
     2
 52
45.0
 41
0.1
 77
     0
 78
     1
 53
45.0
 43
0.0
 44
0.0
 45
-0.282842712474619
 46
0.0
 79
     0
 98
        1
 10
0.0
 20
0.0
  0
ENDBLK
  5
4C
330
4A
100
AcDbEntity
  8
0
100
AcDbBlockEnd
  0
BLOCK
  5
4F
330
4D
100
AcDbEntity
  8
0
100
AcDbBlockBegin
  2
開示A4枠
 70
     0
 10
419.8622914389966
 20
-13.9067535787656
 30
0.0
  3
開示A4枠
  1

  0
INSERT
  5
4E
330
4D
100
AcDbEntity
  8
1
100
AcDbBlockReference
  2
開示A4
 10
419.8622914389966
 20
-13.9067535787656
 30
0.0
  0
ENDBLK
  5
50
330
4D
100
AcDbEntity
  8
0
100
AcDbBlockEnd
  0
BLOCK
  5
148
330
141
100
AcDbEntity
  8
0
100
AcDbBlockBegin
  2
*D3
 70
     1
 10
0.0
 20
0.0
 30
0.0
  3
*D3
  1

  0
LINE
  5
142
330
141
100
AcDbEntity
  8
1
  6
Continuous
 62
     2
100
AcDbLine
 10
475.1973404350714
 20
238.5023133976092
 30
0.0
 11
573.1973404350714
 21
238.5023133976092
 31
0.0
  0
LINE
  5
143
330
141
100
AcDbEntity
  8
1
  6
Continuous
 62
     2
100
AcDbLine
 10
573.1973404350714
 20
166.1665137787618
 30
0.0
 11
573.1973404350714
 21
240.5023133976092
 31
0.0
  0
LINE
  5
144
330
141
100
AcDbEntity
  8
1
  6
Continuous
 62
     2
100
AcDbLine
 10
475.1973404350714
 20
224.0023133976092
 30
0.0
 11
475.1973404350714
 21
240.5023133976092
 31
0.0
  0
SOLID
  5
145
330
141
100
AcDbEntity
  8
1
 62
     2
100
AcDbTrace
 10
478.6973404350714
 20
238.9630971391651
 30
0.0
 11
478.6973404350714
 21
238.0415296560533
 31
0.0
 12
475.1973404350714
 22
238.5023133976092
 32
0.0
 13
475.1973404350714
 23
238.5023133976092
 33
0.0
  0
SOLID
  5
146
330
141
100
AcDbEntity
  8
1
 62
     2
100
AcDbTrace
 10
569.6973404350714
 20
238.0415296560533
 30
0.0
 11
569.6973404350714
 21
238.9630971391651
 31
0.0
 12
573.1973404350714
 22
238.5023133976092
 32
0.0
 13
573.1973404350714
 23
238.5023133976092
 33
0.0
  0
MTEXT
  5
147
330
141
100
AcDbEntity
  8
1
 62
     7
100
AcDbMText
 10
521.0838590929783
 20
240.5023133976092
 30
0.0
 40
3.0
 41
0.0
 71
     7
 72
     1
  1
D
  7
CONVERTER_12
 11
0.9999999999970619
 21
2.424068405545306E-6
 31
0.0
 73
     1
 44
0.60024009603842
  0
ENDBLK
  5
149
330
141
100
AcDbEntity
  8
0
100
AcDbBlockEnd
  0
BLOCK
  5
153
330
14C
100
AcDbEntity
  8
0
100
AcDbBlockBegin
  2
*D4
 70
     1
 10
0.0
 20
0.0
 30
0.0
  3
*D4
  1

  0
LINE
  5
14D
330
14C
100
AcDbEntity
  8
1
  6
Continuous
 62
     2
100
AcDbLine
 10
606.3553466038513
 20
103.7356419090362
 30
0.0
 11
606.3553466038513
 21
155.305837726253
 31
0.0
  0
LINE
  5
14E
330
14C
100
AcDbEntity
  8
1
  6
Continuous
 62
     2
100
AcDbLine
 10
596.3553466038513
 20
155.305837726253
 30
0.0
 11
608.3553466038513
 21
155.305837726253
 31
0.0
  0
LINE
  5
14F
330
14C
100
AcDbEntity
  8
1
  6
Continuous
 62
     2
100
AcDbLine
 10
524.1973404350714
 20
103.7356419090362
 30
0.0
 11
608.3553466038513
 21
103.7356419090362
 31
0.0
  0
SOLID
  5
150
330
14C
100
AcDbEntity
  8
1
 62
     2
100
AcDbTrace
 10
605.8945628622954
 20
107.2356419090362
 30
0.0
 11
606.8161303454073
 21
107.2356419090362
 31
0.0
 12
606.3553466038513
 22
103.7356419090362
 32
0.0
 13
606.3553466038513
 23
103.7356419090362
 33
0.0
  0
SOLID
  5
151
330
14C
100
AcDbEntity
  8
1
 62
     2
100
AcDbTrace
 10
606.8161303454073
 20
151.805837726253
 30
0.0
 11
605.8945628622954
 21
151.805837726253
 31
0.0
 12
606.3553466038513
 22
155.305837726253
 32
0.0
 13
606.3553466038513
 23
155.305837726253
 33
0.0
  0
MTEXT
  5
152
330
14C
100
AcDbEntity
  8
1
 62
     7
100
AcDbMText
 10
604.3553466038513
 20
127.755455102974
 30
0.0
 40
3.0
 41
0.0
 71
     7
 72
     1
  1
H1
  7
CONVERTER_12
 11
0.0
 21
1.0
 31
0.0
 73
     1
 44
0.60024009603842
  0
ENDBLK
  5
154
330
14C
100
AcDbEntity
  8
0
100
AcDbBlockEnd
  0
BLOCK
  5
15E
330
157
100
AcDbEntity
  8
0
100
AcDbBlockBegin
  2
*D5
 70
     1
 10
0.0
 20
0.0
 30
0.0
  3
*D5
  1

  0
LINE
  5
158
330
157
100
AcDbEntity
  8
1
  6
Continuous
 62
     2
100
AcDbLine
 10
614.3553466038513
 20
103.7356419090362
 30
0.0
 11
614.3553466038513
 21
213.1156419090361
 31
0.0
  0
LINE
  5
159
330
157
100
AcDbEntity
  8
1
  6
Continuous
 62
     2
100
AcDbLine
 10
498.3664318349789
 20
213.1156419090361
 30
0.0
 11
616.3553466038513
 21
213.1156419090361
 31
0.0
  0
LINE
  5
15A
330
157
100
AcDbEntity
  8
1
  6
Continuous
 62
     2
100
AcDbLine
 10
524.1973404350714
 20
103.7356419090362
 30
0.0
 11
616.3553466038513
 21
103.7356419090362
 31
0.0
  0
SOLID
  5
15B
330
157
100
AcDbEntity
  8
1
 62
     2
100
AcDbTrace
 10
613.8945628622954
 20
107.2356419090362
 30
0.0
 11
614.8161303454073
 21
107.2356419090362
 31
0.0
 12
614.3553466038513
 22
103.7356419090362
 32
0.0
 13
614.3553466038513
 23
103.7356419090362
 33
0.0
  0
SOLID
  5
15C
330
157
100
AcDbEntity
  8
1
 62
     2
100
AcDbTrace
 10
614.8161303454073
 20
209.6156419090361
 30
0.0
 11
613.8945628622954
 21
209.6156419090361
 31
0.0
 12
614.3553466038513
 22
213.1156419090361
 32
0.0
 13
614.3553466038513
 23
213.1156419090361
 33
0.0
  0
MTEXT
  5
15D
330
157
100
AcDbEntity
  8
1
 62
     7
100
AcDbMText
 10
612.3553466038513
 20
157.282509805564
 30
0.0
 40
3.0
 41
0.0
 71
     7
 72
     1
  1
H
  7
CONVERTER_12
 11
0.0
 21
1.0
 31
0.0
 73
     1
 44
0.60024009603842
  0
ENDBLK
  5
15F
330
157
100
AcDbEntity
  8
0
100
AcDbBlockEnd
  0
BLOCK
  5
169
330
162
100
AcDbEntity
  8
0
100
AcDbBlockBegin
  2
*D6
 70
     1
 10
0.0
 20
0.0
 30
0.0
  3
*D6
  1

  0
LINE
  5
163
330
162
100
AcDbEntity
  8
1
  6
Continuous
 62
     2
100
AcDbLine
 10
458.1973404350714
 20
175.826020608486
 30
0.0
 11
492.1973404350714
 21
175.826020608486
 31
0.0
  0
LINE
  5
164
330
162
100
AcDbEntity
  8
1
  6
Continuous
 62
     2
100
AcDbLine
 10
458.1973404350714
 20
205.1186546109283
 30
0.0
 11
458.1973404350714
 21
173.826020608486
 31
0.0
  0
LINE
  5
165
330
162
100
AcDbEntity
  8
1
  6
Continuous
 62
     2
100
AcDbLine
 10
492.1973404350714
 20
205.1186546109283
 30
0.0
 11
492.1973404350714
 21
173.826020608486
 31
0.0
  0
SOLID
  5
166
330
162
100
AcDbEntity
  8
1
 62
     2
100
AcDbTrace
 10
461.6973404350714
 20
176.2868043500419
 30
0.0
 11
461.6973404350714
 21
175.3652368669301
 31
0.0
 12
458.1973404350714
 22
175.826020608486
 32
0.0
 13
458.1973404350714
 23
175.826020608486
 33
0.0
  0
SOLID
  5
167
330
162
100
AcDbEntity
  8
1
 62
     2
100
AcDbTrace
 10
488.6973404350714
 20
175.3652368669301
 30
0.0
 11
488.6973404350714
 21
176.2868043500419
 31
0.0
 12
492.1973404350714
 22
175.826020608486
 32
0.0
 13
492.1973404350714
 23
175.826020608486
 33
0.0
  0
MTEXT
  5
168
330
162
100
AcDbEntity
  8
1
 62
     7
100
AcDbMText
 10
478.4082079499713
 20
177.8260146452777
 30
0.0
 40
3.0
 41
0.0
 71
     7
 72
     1
  1
\C7;{\Fgdt;n}\C7;34
  7
CONVERTER_12
 11
0.9999999999970619
 21
2.424068405545306E-6
 31
0.0
 73
     1
 44
0.60024009603842
  0
ENDBLK
  5
16A
330
162
100
AcDbEntity
  8
0
100
AcDbBlockEnd
  0
BLOCK
  5
171
330
16D
100
AcDbEntity
  8
0
100
AcDbBlockBegin
  2
*D7
 70
     1
 10
0.0
 20
0.0
 30
0.0
  3
*D7
  1

  0
LINE
  5
16E
330
16D
100
AcDbEntity
  8
1
  6
Continuous
 62
     2
100
AcDbLine
 10
524.1973404350714
 20
152.7356419090362
 30
0.0
 11
486.2378575793731
 21
121.7505219104313
 31
0.0
  0
SOLID
  5
16F
330
16D
100
AcDbEntity
  8
1
 62
     2
100
AcDbTrace
 10
488.6578728950757
 20
124.3207062478373
 30
0.0
 11
489.2406255287702
 21
123.6067832871118
 31
0.0
 12
486.2378575793731
 22
121.7505219104313
 32
0.0
 13
486.2378575793731
 23
121.7505219104313
 33
0.0
  0
MTEXT
  5
170
330
16D
100
AcDbEntity
  8
1
 62
     7
100
AcDbMText
 10
509.7872772423982
 20
143.5548651703946
 30
0.0
 40
3.0
 41
0.0
 71
     7
 72
     1
  1
A
  7
CONVERTER_12
 11
0.7746833235856802
 21
0.6323493877266304
 31
0.0
 73
     1
 44
0.60024009603842
  0
ENDBLK
  5
172
330
16D
100
AcDbEntity
  8
0
100
AcDbBlockEnd
  0
ENDSEC
  0
SECTION
  2
ENTITIES
  0
INSERT
  5
51
330
1F
100
AcDbEntity
  8
0
100
AcDbBlockReference
  2
開示A4枠
 10
419.8622914389966
 20
-13.9067535787656
 30
0.0
  0
POINT
  5
CF
330
1F
100
AcDbEntity
  8
0
 62
     7
100
AcDbPoint
 10
524.1973404350714
 20
103.7356419090362
 30
0.0
  0
LINE
  5
D0
330
1F
100
AcDbEntity
  8
1
  6
Continuous
 62
     7
100
AcDbLine
 10
613.3565171063647
 20
58.61039434114815
 30
0.0
 11
613.3565171063647
 21
65.61039434114815
 31
0.0
  0
LINE
  5
D1
330
1F
100
AcDbEntity
  8
1
  6
Continuous
 62
     7
100
AcDbLine
 10
613.3565171063647
 20
51.61039434114815
 30
0.0
 11
613.3565171063647
 21
58.61039434114815
 31
0.0
  0
LINE
  5
D2
330
1F
100
AcDbEntity
  8
1
  6
Continuous
 62
     7
100
AcDbLine
 10
613.3565171063647
 20
44.61039434114815
 30
0.0
 11
613.3565171063647
 21
51.61039434114815
 31
0.0
  0
LINE
  5
D3
330
1F
100
AcDbEntity
  8
1
  6
Continuous
 62
     2
100
AcDbLine
 10
555.3564637286374
 20
65.61039434114815
 30
0.0
 11
555.3564637286374
 21
30.61039434114815
 31
0.0
  0
LINE
  5
D4
330
1F
100
AcDbEntity
  8
1
  6
Continuous
 62
     7
100
AcDbLine
 10
552.8564637286374
 20
65.61039434114815
 30
0.0
 11
613.3565171063647
 21
65.61039434114815
 31
0.0
  0
LINE
  5
D5
330
1F
100
AcDbEntity
  8
1
  6
Continuous
 62
     7
100
AcDbLine
 10
613.3565171063647
 20
30.61039434114815
 30
0.0
 11
613.3565171063647
 21
44.61039434114815
 31
0.0
  0
LINE
  5
D6
330
1F
100
AcDbEntity
  8
1
  6
Continuous
 62
     2
100
AcDbLine
 10
552.8564637286374
 20
58.61039434114815
 30
0.0
 11
613.3565171063647
 21
58.61039434114815
 31
0.0
  0
LINE
  5
D7
330
1F
100
AcDbEntity
  8
1
  6
Continuous
 62
     2
100
AcDbLine
 10
552.8564637286374
 20
51.61039434114815
 30
0.0
 11
613.3565171063647
 21
51.61039434114815
 31
0.0
  0
LINE
  5
D8
330
1F
100
AcDbEntity
  8
1
  6
Continuous
 62
     2
100
AcDbLine
 10
552.8564637286374
 20
44.61039434114815
 30
0.0
 11
613.3565171063647
 21
44.61039434114815
 31
0.0
  0
LINE
  5
D9
330
1F
100
AcDbEntity
  8
1
  6
Continuous
 62
     2
100
AcDbLine
 10
552.8564637286374
 20
37.61039434114815
 30
0.0
 11
613.3565171063647
 21
37.61039434114815
 31
0.0
  0
LINE
  5
DA
330
1F
100
AcDbEntity
  8
1
  6
Continuous
 62
     2
100
AcDbLine
 10
569.8564459360616
 20
65.61039434114815
 30
0.0
 11
569.8564459360616
 21
30.61039434114815
 31
0.0
  0
LINE
  5
DB
330
1F
100
AcDbEntity
  8
1
  6
Continuous
 62
     2
100
AcDbLine
 10
584.3564281434858
 20
30.61039434114815
 30
0.0
 11
584.3564281434858
 21
65.61039434114815
 31
0.0
  0
LINE
  5
DC
330
1F
100
AcDbEntity
  8
1
  6
Continuous
 62
     2
100
AcDbLine
 10
598.8564281434858
 20
65.61039434114815
 30
0.0
 11
598.8564281434858
 21
30.61039434114815
 31
0.0
  0
LINE
  5
DD
330
1F
100
AcDbEntity
  8
1
  6
Continuous
 62
     7
100
AcDbLine
 10
536.8564637286374
 20
65.61039434114815
 30
0.0
 11
536.8564637286374
 21
30.61039434114815
 31
0.0
  0
LINE
  5
DE
330
1F
100
AcDbEntity
  8
1
  6
Continuous
 62
     7
100
AcDbLine
 10
536.8564637286374
 20
65.61039434114815
 30
0.0
 11
600.8564637286374
 21
65.61039434114815
 31
0.0
  0
LINE
  5
DF
330
1F
100
AcDbEntity
  8
1
  6
Continuous
 62
     2
100
AcDbLine
 10
536.8564637286374
 20
58.61039434114815
 30
0.0
 11
600.8564637286374
 21
58.61039434114815
 31
0.0
  0
LINE
  5
E0
330
1F
100
AcDbEntity
  8
1
  6
Continuous
 62
     2
100
AcDbLine
 10
536.8564637286374
 20
51.61039434114815
 30
0.0
 11
600.8564637286374
 21
51.61039434114815
 31
0.0
  0
LINE
  5
E1
330
1F
100
AcDbEntity
  8
1
  6
Continuous
 62
     2
100
AcDbLine
 10
536.8564637286374
 20
44.61039434114815
 30
0.0
 11
600.8564637286374
 21
44.61039434114815
 31
0.0
  0
LINE
  5
E2
330
1F
100
AcDbEntity
  8
1
  6
Continuous
 62
     2
100
AcDbLine
 10
536.8564637286374
 20
37.61039434114815
 30
0.0
 11
600.8564637286374
 21
37.61039434114815
 31
0.0
  0
LINE
  5
E3
330
1F
100
AcDbEntity
  8
1
  6
DASH_CENTER
 62
     2
100
AcDbLine
 10
573.1973404350714
 20
166.1665137787618
 30
0.0
 11
573.1973404350714
 21
152.7356419090362
 31
0.0
  0
LINE
  5
E4
330
1F
100
AcDbEntity
  8
1
  6
DASH_CENTER
 62
     2
100
AcDbLine
 10
475.1973404350714
 20
172.2915532946651
 30
0.0
 11
475.1973404350714
 21
152.7356419090362
 31
0.0
  0
LINE
  5
E5
330
1F
100
AcDbEntity
  8
1
  6
DASH_CENTER
 62
     2
100
AcDbLine
 10
475.1973404350714
 20
195.6933522595012
 30
0.0
 11
475.1973404350714
 21
193.8108261597011
 31
0.0
  0
LINE
  5
E6
330
1F
100
AcDbEntity
  8
1
  6
DASH_CENTER
 62
     2
100
AcDbLine
 10
475.1973404350714
 20
224.0023133976092
 30
0.0
 11
475.1973404350714
 21
172.2915532946651
 31
0.0
  0
LINE
  5
E7
330
1F
100
AcDbEntity
  8
1
  6
Continuous
 62
     7
100
AcDbLine
 10
552.8564637286374
 20
30.61039434114815
 30
0.0
 11
613.3565171063647
 21
30.61039434114815
 31
0.0
  0
LINE
  5
E8
330
1F
100
AcDbEntity
  8
1
  6
Continuous
 62
     7
100
AcDbLine
 10
536.8564637286374
 20
30.61039434114815
 30
0.0
 11
600.8564637286374
 21
30.61039434114815
 31
0.0
  0
LINE
  5
E9
330
1F
100
AcDbEntity
  8
1
  6
Continuous
 62
     7
100
AcDbLine
 10
492.1973404350714
 20
169.9272383772436
 30
0.0
 11
491.3098404350714
 21
168.1164845589838
 31
0.0
  0
LINE
  5
EA
330
1F
100
AcDbEntity
  8
1
  6
Continuous
 62
     7
100
AcDbLine
 10
458.1973404350714
 20
169.9054597869291
 30
0.0
 11
459.0745791577581
 21
168.1156419090362
 31
0.0
  0
LINE
  5
EB
330
1F
100
AcDbEntity
  8
1
  6
Continuous
 62
     7
100
AcDbLine
 10
459.0848407523187
 20
152.7338607652481
 30
0.0
 11
459.0745791577581
 21
168.1156419090362
 31
0.0
  0
LINE
  5
EC
330
1F
100
AcDbEntity
  8
1
  6
Continuous
 62
     7
100
AcDbLine
 10
491.3098404350714
 20
152.7356419090362
 30
0.0
 11
491.3098404350714
 21
168.1164845589838
 31
0.0
  0
LINE
  5
ED
330
1F
100
AcDbEntity
  8
1
  6
Continuous
 62
     7
100
AcDbLine
 10
475.1973404350714
 20
208.2856419090361
 30
0.0
 11
454.4473404350715
 21
208.2856419090361
 31
0.0
  0
LINE
  5
EE
330
1F
100
AcDbEntity
  8
1
  6
Continuous
 62
     7
100
AcDbLine
 10
454.4265431456753
 20
208.2856419090361
 30
0.0
 11
454.4473404350715
 21
208.2856419090361
 31
0.0
  0
LINE
  5
EF
330
1F
100
AcDbEntity
  8
1
  6
Continuous
 62
     7
100
AcDbLine
 10
454.4265431456753
 20
220.2856419090361
 30
0.0
 11
462.1973404350715
 21
220.2856419090361
 31
0.0
  0
LINE
  5
F0
330
1F
100
AcDbEntity
  8
1
  6
Continuous
 62
     7
100
AcDbLine
 10
462.1973404350715
 20
220.2856419090361
 30
0.0
 11
475.1973404350714
 21
220.2856419090361
 31
0.0
  0
LINE
  5
F1
330
1F
100
AcDbEntity
  8
1
  6
Continuous
 62
     7
100
AcDbLine
 10
475.1973404350714
 20
220.2856419090361
 30
0.0
 11
488.1973404350713
 21
220.2856419090361
 31
0.0
  0
LINE
  5
F2
330
1F
100
AcDbEntity
  8
1
  6
Continuous
 62
     7
100
AcDbLine
 10
488.1973404350713
 20
220.2856419090361
 30
0.0
 11
495.9681377244675
 21
220.2856419090361
 31
0.0
  0
LINE
  5
F3
330
1F
100
AcDbEntity
  8
1
  6
Continuous
 62
     7
100
AcDbLine
 10
495.9473404350713
 20
208.2856419090361
 30
0.0
 11
495.9681377244675
 21
208.2856419090361
 31
0.0
  0
LINE
  5
F4
330
1F
100
AcDbEntity
  8
1
  6
Continuous
 62
     7
100
AcDbLine
 10
495.9473404350713
 20
208.2856419090361
 30
0.0
 11
475.1973404350714
 21
208.2856419090361
 31
0.0
  0
LINE
  5
F5
330
1F
100
AcDbEntity
  8
1
  6
Continuous
 62
     7
100
AcDbLine
 10
593.9362552039436
 20
150.475837726253
 30
0.0
 11
573.1862552039437
 21
150.475837726253
 31
0.0
  0
LINE
  5
F6
330
1F
100
AcDbEntity
  8
1
  6
Continuous
 62
     7
100
AcDbLine
 10
593.9362552039436
 20
150.475837726253
 30
0.0
 11
593.9570524933398
 21
150.475837726253
 31
0.0
  0
LINE
  5
F7
330
1F
100
AcDbEntity
  8
1
  6
Continuous
 62
     7
100
AcDbLine
 10
586.1862552039436
 20
162.475837726253
 30
0.0
 11
593.9570524933398
 21
162.475837726253
 31
0.0
  0
LINE
  5
F8
330
1F
100
AcDbEntity
  8
1
  6
Continuous
 62
     7
100
AcDbLine
 10
573.1862552039437
 20
162.475837726253
 30
0.0
 11
586.1862552039436
 21
162.475837726253
 31
0.0
  0
LINE
  5
F9
330
1F
100
AcDbEntity
  8
1
  6
Continuous
 62
     7
100
AcDbLine
 10
560.1862552039438
 20
162.475837726253
 30
0.0
 11
573.1862552039437
 21
162.475837726253
 31
0.0
  0
LINE
  5
FA
330
1F
100
AcDbEntity
  8
1
  6
Continuous
 62
     7
100
AcDbLine
 10
552.4154579145476
 20
162.475837726253
 30
0.0
 11
560.1862552039438
 21
162.475837726253
 31
0.0
  0
LINE
  5
FB
330
1F
100
AcDbEntity
  8
1
  6
Continuous
 62
     7
100
AcDbLine
 10
552.4154579145476
 20
150.475837726253
 30
0.0
 11
552.4362552039438
 21
150.475837726253
 31
0.0
  0
LINE
  5
FC
330
1F
100
AcDbEntity
  8
1
  6
Continuous
 62
     7
100
AcDbLine
 10
573.1862552039437
 20
150.475837726253
 30
0.0
 11
552.4362552039438
 21
150.475837726253
 31
0.0
  0
LINE
  5
FD
330
1F
100
AcDbEntity
  8
1
  6
DASH_CENTER
 62
     2
100
AcDbLine
 10
573.1862552039437
 20
166.1925092148261
 30
0.0
 11
573.1862552039437
 21
153.7778653822732
 31
0.0
  0
LINE
  5
FE
330
1F
100
AcDbEntity
  8
1
  6
Continuous
 62
     7
100
AcDbLine
 10
459.412387561901
 20
169.9054597869292
 30
0.0
 11
490.912387561901
 21
169.9054597869292
 31
0.0
  0
LINE
  5
FF
330
1F
100
AcDbEntity
  8
1
  6
Continuous
 62
     7
100
AcDbLine
 10
460.5377473651
 20
168.1156419090361
 30
0.0
 11
490.0745791577581
 21
168.1156419090361
 31
0.0
  0
LINE
  5
100
330
1F
100
AcDbEntity
  8
1
  6
Continuous
 62
     7
100
AcDbLine
 10
475.1973404350714
 20
205.9186546109283
 30
0.0
 11
455.9973404350715
 21
205.9186546109283
 31
0.0
  0
LINE
  5
101
330
1F
100
AcDbEntity
  8
1
  6
Continuous
 62
     7
100
AcDbLine
 10
455.1973404350714
 20
208.2856419090361
 30
0.0
 11
455.1973404350714
 21
205.9186546109283
 31
0.0
  0
LINE
  5
102
330
1F
100
AcDbEntity
  8
1
  6
Continuous
 62
     7
100
AcDbLine
 10
475.1973404350714
 20
205.1186546109283
 30
0.0
 11
455.9973404350715
 21
205.1186546109283
 31
0.0
  0
LINE
  5
103
330
1F
100
AcDbEntity
  8
1
  6
Continuous
 62
     7
100
AcDbLine
 10
455.9973404350715
 20
205.1186546109283
 30
0.0
 11
455.1973404350714
 21
205.9186546109283
 31
0.0
  0
LINE
  5
104
330
1F
100
AcDbEntity
  8
1
  6
Continuous
 62
     2
100
AcDbLine
 10
455.9973404350715
 20
208.2856419090361
 30
0.0
 11
455.9973404350715
 21
205.1186546109283
 31
0.0
  0
LINE
  5
105
330
1F
100
AcDbEntity
  8
1
  6
Continuous
 62
     7
100
AcDbLine
 10
455.9973404350715
 20
205.9186546109283
 30
0.0
 11
455.1973404350714
 21
205.9186546109283
 31
0.0
  0
LINE
  5
106
330
1F
100
AcDbEntity
  8
1
  6
Continuous
 62
     7
100
AcDbLine
 10
495.1973404350714
 20
205.9186546109283
 30
0.0
 11
494.3973404350713
 21
205.9186546109283
 31
0.0
  0
LINE
  5
107
330
1F
100
AcDbEntity
  8
1
  6
Continuous
 62
     2
100
AcDbLine
 10
494.3973404350713
 20
205.1186546109283
 30
0.0
 11
494.3973404350713
 21
208.2856419090361
 31
0.0
  0
LINE
  5
108
330
1F
100
AcDbEntity
  8
1
  6
Continuous
 62
     7
100
AcDbLine
 10
495.1973404350714
 20
205.9186546109283
 30
0.0
 11
494.3973404350713
 21
205.1186546109283
 31
0.0
  0
LINE
  5
109
330
1F
100
AcDbEntity
  8
1
  6
Continuous
 62
     7
100
AcDbLine
 10
495.1973404350714
 20
205.9186546109283
 30
0.0
 11
495.1973404350714
 21
208.2856419090361
 31
0.0
  0
LINE
  5
10A
330
1F
100
AcDbEntity
  8
1
  6
Continuous
 62
     7
100
AcDbLine
 10
495.9473404350713
 20
208.2856419090361
 30
0.0
 11
495.9681377244675
 21
208.2856419090361
 31
0.0
  0
LINE
  5
10B
330
1F
100
AcDbEntity
  8
1
  6
Continuous
 62
     7
100
AcDbLine
 10
494.3973404350713
 20
205.1186546109283
 30
0.0
 11
475.1973404350714
 21
205.1186546109283
 31
0.0
  0
LINE
  5
10C
330
1F
100
AcDbEntity
  8
1
  6
Continuous
 62
     7
100
AcDbLine
 10
494.3973404350713
 20
205.9186546109283
 30
0.0
 11
475.1973404350714
 21
205.9186546109283
 31
0.0
  0
LINE
  5
10D
330
1F
100
AcDbEntity
  8
1
  6
Continuous
 62
     7
100
AcDbLine
 10
492.1973404350714
 20
205.1186546109283
 30
0.0
 11
492.1973404350714
 21
169.9272383772436
 31
0.0
  0
LINE
  5
10E
330
1F
100
AcDbEntity
  8
1
  6
Continuous
 62
     7
100
AcDbLine
 10
458.1973404350714
 20
205.1186546109283
 30
0.0
 11
458.1973404350714
 21
169.9054597869291
 31
0.0
  0
ARC
  5
10F
330
1F
100
AcDbEntity
  8
センター
  6
DASH_CENTER
 62
     2
100
AcDbCircle
 10
524.1973404350714
 20
152.7356419090362
 30
0.0
 40
48.99999999999999
100
AcDbArc
 50
270.0
 51
1.21876550665949
  0
ARC
  5
110
330
1F
100
AcDbEntity
  8
センター
  6
DASH_CENTER
 62
     2
100
AcDbCircle
 10
524.1973404350714
 20
152.7356419090362
 30
0.0
 40
49.0
100
AcDbArc
 50
180.0
 51
270.0
  0
ARC
  5
111
330
1F
100
AcDbEntity
  8
1
  6
Continuous
 62
     7
100
AcDbCircle
 10
460.4473404350715
 20
214.2856419090361
 30
0.0
 40
8.500000000000057
100
AcDbArc
 50
135.0991278440277
 51
224.9008721559723
  0
ARC
  5
112
330
1F
100
AcDbEntity
  8
1
  6
Continuous
 62
     7
100
AcDbCircle
 10
489.9473404350713
 20
214.2856419090361
 30
0.0
 40
8.499999999999986
100
AcDbArc
 50
352.0882855307648
 51
44.90087215597233
  0
ARC
  5
113
330
1F
100
AcDbEntity
  8
1
  6
Continuous
 62
     7
100
AcDbCircle
 10
587.9362552039436
 20
156.475837726253
 30
0.0
 40
8.500000000000043
100
AcDbArc
 50
352.0882855307649
 51
44.90087215597233
  0
ARC
  5
114
330
1F
100
AcDbEntity
  8
1
  6
Continuous
 62
     7
100
AcDbCircle
 10
558.4362552039438
 20
156.475837726253
 30
0.0
 40
8.500000000000057
100
AcDbArc
 50
135.0991278440277
 51
224.9008721559723
  0
ARC
  5
115
330
1F
100
AcDbEntity
  8
1
  6
Continuous
 62
     7
100
AcDbCircle
 10
524.1973404350714
 20
152.7356419090362
 30
0.0
 40
65.11250000000007
100
AcDbArc
 50
180.0
 51
358.0110846731682
  0
ARC
  5
116
330
1F
100
AcDbEntity
  8
1
  6
Continuous
 62
     7
100
AcDbCircle
 10
524.1973404350714
 20
152.7356419090362
 30
0.0
 40
32.88749999999999
100
AcDbArc
 50
180.0
 51
356.0599210318628
  0
ARC
  5
117
330
1F
100
AcDbEntity
  8
1
  6
Continuous
 62
     7
100
AcDbCircle
 10
587.9362552039436
 20
156.475837726253
 30
0.0
 40
8.500000000000057
100
AcDbArc
 50
315.0991278440277
 51
352.0882855307649
  0
ARC
  5
118
330
1F
100
AcDbEntity
  8
1
  6
Continuous
 62
     7
100
AcDbCircle
 10
489.9473404350713
 20
214.2856419090361
 30
0.0
 40
8.500000000000057
100
AcDbArc
 50
315.0991278440277
 51
352.0882855307648
  0
MTEXT
  5
11A
330
1F
100
AcDbEntity
  8
1
 62
     7
100
AcDbMText
 10
543.3622914389966
 20
-1.40675357876562
 30
0.0
 40
2.5
 41
0.0
 71
     5
 72
     1
  1
2
  7
CONVERTER_12
 73
     1
 44
0.7202881152461
  0
MTEXT
  5
11B
330
1F
100
AcDbEntity
  8
1
 62
     7
100
AcDbMText
 10
537.6122914389966
 20
-1.40675357876562
 30
0.0
 40
2.5
 41
0.0
 71
     5
 72
     1
  1
06
  7
CONVERTER_12
 73
     1
 44
0.7202881152461
  0
MTEXT
  5
11C
330
1F
100
AcDbEntity
  8
1
 62
     7
100
AcDbMText
 10
526.3622914389966
 20
-1.40675357876562
 30
0.0
 40
2.5
 41
0.0
 71
     5
 72
     1
  1
2
  7
CONVERTER_12
 73
     1
 44
0.7202881152461
  0
MTEXT
  5
11D
330
1F
100
AcDbEntity
  8
1
 62
     7
100
AcDbMText
 10
520.6122914389966
 20
-1.40675357876562
 30
0.0
 40
2.5
 41
0.0
 71
     5
 72
     1
  1
06
  7
CONVERTER_12
 73
     1
 44
0.7202881152461
  0
TEXT
  5
11F
330
1F
100
AcDbEntity
  8
文字
 62
     2
100
AcDbText
 10
543.491892142668
 20
60.11039434114815
 30
0.0
 40
2.5
  1
呼び
 41
0.979
  7
CONVERTER_13
100
AcDbText
  0
TEXT
  5
121
330
1F
100
AcDbEntity
  8
文字
 62
     2
100
AcDbText
 10
561.00246493916
 20
60.11039434114815
 30
0.0
 40
3.0
  1
H
 41
0.99
  7
CONVERTER_14
100
AcDbText
  0
MTEXT
  5
122
330
1F
100
AcDbEntity
  8
文字
 62
     2
100
AcDbMText
 10
592.6058514546546
 20
60.11039434114858
 30
0.0
 40
3.0
 41
0.0
 71
     9
 72
     1
  1
D
  7
CONVERTER_14
 73
     1
 44
0.60024009603842
  0
MTEXT
  5
123
330
1F
100
AcDbEntity
  8
文字
 62
     2
100
AcDbMText
 10
579.4023170453866
 20
60.11039434114858
 30
0.0
 40
3.0
 41
0.0
 71
     9
 72
     1
  1
H1
  7
CONVERTER_14
 73
     1
 44
0.60024009603842
  0
TEXT
  5
124
330
1F
100
AcDbEntity
  8
文字
 62
     2
100
AcDbText
 10
605.0671802967355
 20
60.36038681330415
 30
0.0
 40
3.0
  1
A
 41
0.99
  7
CONVERTER_14
100
AcDbText
  0
TEXT
  5
125
330
1F
100
AcDbEntity
  8
文字
 62
     7
100
AcDbText
 10
538.0652527542434
 20
52.8461860317716
 30
0.0
 40
3.0
  1
32X100
 41
0.99
  7
CONVERTER_14
100
AcDbText
  0
TEXT
  5
126
330
1F
100
AcDbEntity
  8
文字
 62
     7
100
AcDbText
 10
538.0652527542434
 20
46.11039434114815
 30
0.0
 40
3.0
  1
32X140
 41
0.99
  7
CONVERTER_14
100
AcDbText
  0
TEXT
  5
127
330
1F
100
AcDbEntity
  8
文字
 62
     7
100
AcDbText
 10
538.0652527542434
 20
39.11039434114815
 30
0.0
 40
3.0
  1
32X180
 41
0.99
  7
CONVERTER_14
100
AcDbText
  0
TEXT
  5
128
330
1F
100
AcDbEntity
  8
文字
 62
     7
100
AcDbText
 10
559.9331504815162
 20
53.3461860317716
 30
0.0
 40
3.0
  1
135
 41
0.99
  7
CONVERTER_14
100
AcDbText
  0
TEXT
  5
129
330
1F
100
AcDbEntity
  8
文字
 62
     7
100
AcDbText
 10
559.9331504815162
 20
46.11039434114815
 30
0.0
 40
3.0
  1
150
 41
0.99
  7
CONVERTER_14
100
AcDbText
  0
TEXT
  5
12A
330
1F
100
AcDbEntity
  8
文字
 62
     7
100
AcDbText
 10
559.9331504815162
 20
39.11039434114815
 30
0.0
 40
3.0
  1
166
 41
0.99
  7
CONVERTER_14
100
AcDbText
  0
MTEXT
  5
12B
330
1F
100
AcDbEntity
  8
文字
 62
     7
100
AcDbMText
 10
595.21578535091
 20
53.36039057722658
 30
0.0
 40
3.0
 41
0.0
 71
     9
 72
     1
  1
100
  7
CONVERTER_14
 73
     1
 44
0.60024009603842
  0
MTEXT
  5
12C
330
1F
100
AcDbEntity
  8
文字
 62
     7
100
AcDbMText
 10
595.21578535091
 20
46.11039434114859
 30
0.0
 40
3.0
 41
0.0
 71
     9
 72
     1
  1
140
  7
CONVERTER_14
 73
     1
 44
0.60024009603842
  0
MTEXT
  5
12D
330
1F
100
AcDbEntity
  8
文字
 62
     7
100
AcDbMText
 10
595.21578535091
 20
39.11039434114859
 30
0.0
 40
3.0
 41
0.0
 71
     9
 72
     1
  1
180
  7
CONVERTER_14
 73
     1
 44
0.60024009603842
  0
MTEXT
  5
12E
330
1F
100
AcDbEntity
  8
文字
 62
     7
100
AcDbMText
 10
579.0794217145464
 20
53.36039057722657
 30
0.0
 40
3.0
 41
0.0
 71
     9
 72
     1
  1
56
  7
CONVERTER_14
 73
     1
 44
0.60024009603842
  0
MTEXT
  5
12F
330
1F
100
AcDbEntity
  8
文字
 62
     7
100
AcDbMText
 10
579.0794217145464
 20
46.11039434114858
 30
0.0
 40
3.0
 41
0.0
 71
     9
 72
     1
  1
80
  7
CONVERTER_14
 73
     1
 44
0.60024009603842
  0
MTEXT
  5
130
330
1F
100
AcDbEntity
  8
文字
 62
     7
100
AcDbMText
 10
579.0794217145464
 20
39.11039434114858
 30
0.0
 40
3.0
 41
0.0
 71
     9
 72
     1
  1
96
  7
CONVERTER_14
 73
     1
 44
0.60024009603842
  0
TEXT
  5
131
330
1F
100
AcDbEntity
  8
文字
 62
     7
100
AcDbText
 10
604.1192478195464
 20
53.36039057722614
 30
0.0
 40
3.0
  1
50
 41
0.99
  7
CONVERTER_14
100
AcDbText
  0
TEXT
  5
132
330
1F
100
AcDbEntity
  8
文字
 62
     7
100
AcDbText
 10
604.1192478195464
 20
46.11039434114815
 30
0.0
 40
3.0
  1
70
 41
0.99
  7
CONVERTER_14
100
AcDbText
  0
TEXT
  5
133
330
1F
100
AcDbEntity
  8
文字
 62
     7
100
AcDbText
 10
604.1192478195464
 20
39.11039434114815
 30
0.0
 40
3.0
  1
90
 41
0.99
  7
CONVERTER_14
100
AcDbText
  0
TEXT
  5
134
330
1F
100
AcDbEntity
  8
文字
 62
     7
100
AcDbText
 10
537.5652527542434
 20
32.11039434114815
 30
0.0
 40
3.0
  1
32X200
 41
0.99
  7
CONVERTER_14
100
AcDbText
  0
TEXT
  5
135
330
1F
100
AcDbEntity
  8
文字
 62
     7
100
AcDbText
 10
559.9331504815162
 20
32.11039434114815
 30
0.0
 40
3.0
  1
172
 41
0.99
  7
CONVERTER_14
100
AcDbText
  0
MTEXT
  5
136
330
1F
100
AcDbEntity
  8
文字
 62
     7
100
AcDbMText
 10
596.21578535091
 20
32.1103943411483
 30
0.0
 40
3.0
 41
0.0
 71
     9
 72
     1
  1
200
  7
CONVERTER_14
 73
     1
 44
0.60024009603842
  0
TEXT
  5
137
330
1F
100
AcDbEntity
  8
文字
 62
     7
100
AcDbText
 10
601.90502429585
 20
32.11039434114815
 30
0.0
 40
3.0
  1
100
 41
0.99
  7
CONVERTER_14
100
AcDbText
  0
MTEXT
  5
138
330
1F
100
AcDbEntity
  8
文字
 62
     7
100
AcDbMText
 10
580.2936452382428
 20
32.11039434114858
 30
0.0
 40
3.0
 41
0.0
 71
     9
 72
     1
  1
114
  7
CONVERTER_14
 73
     1
 44
0.60024009603842
  0
MTEXT
  5
139
330
1F
100
AcDbEntity
  8
1
 62
     7
100
AcDbMText
 10
505.1122914389966
 20
3.09324642123438
 30
0.0
 40
3.5
 41
0.0
 71
     5
 72
     1
  1
1
  7
CONVERTER_12
 73
     1
 44
0.7202881152461
  0
MTEXT
  5
13A
330
1F
100
AcDbEntity
  8
1
 62
     7
100
AcDbMText
 10
476.8622914389966
 20
8.8432464212344
 30
0.0
 40
3.5
 41
0.0
 71
     5
 72
     1
  1
幅広U管
  7
CONVERTER_11
 73
     1
 44
0.54545454545455
  0
MTEXT
  5
13B
330
1F
100
AcDbEntity
  8
1
 62
     7
100
AcDbMText
 10
476.8622914389966
 20
0.34324642123438
 30
0.0
 40
3.5
 41
0.0
 71
     5
 72
     1
  1
H70-670-32X(幅)
  7
CONVERTER_11
 73
     1
 44
0.54545454545455
  0
MTEXT
  5
13C
330
1F
100
AcDbEntity
  8
1
 62
     7
100
AcDbMText
 10
513.6122914389966
 20
3.09324642123438
 30
0.0
 40
3.5
 41
0.0
 71
     5
 72
     1
  1
1
  7
CONVERTER_12
 73
     1
 44
0.7202881152461
  0
MTEXT
  5
13D
330
1F
100
AcDbEntity
  8
1
 62
     7
100
AcDbMText
 10
554.6122914389966
 20
-1.40675357876562
 30
0.0
 40
2.5
 41
0.0
 71
     5
 72
     1
  1
06
  7
CONVERTER_12
 73
     1
 44
0.7202881152461
  0
MTEXT
  5
13E
330
1F
100
AcDbEntity
  8
1
 62
     7
100
AcDbMText
 10
560.3622914389966
 20
-1.40675357876562
 30
0.0
 40
2.5
 41
0.0
 71
     5
 72
     1
  1
2
  7
CONVERTER_12
 73
     1
 44
0.7202881152461
  0
MTEXT
  5
13F
330
1F
100
AcDbEntity
  8
1
 62
     7
100
AcDbMText
 10
571.6122914389966
 20
-1.40675357876562
 30
0.0
 40
2.5
 41
0.0
 71
     5
 72
     1
  1
06
  7
CONVERTER_12
 73
     1
 44
0.7202881152461
  0
MTEXT
  5
140
330
1F
100
AcDbEntity
  8
1
 62
     7
100
AcDbMText
 10
577.3622914389966
 20
-1.40675357876562
 30
0.0
 40
2.5
 41
0.0
 71
     5
 72
     1
  1
2
  7
CONVERTER_12
 73
     1
 44
0.7202881152461
  0
DIMENSION
  5
14B
330
1F
100
AcDbEntity
  8
1
100
AcDbDimension
  2
*D3
 10
475.1973404350714
 20
238.5023133976092
 30
0.0
 11
522.1338590929782
 21
242.0023133976092
 31
0.0
 70
    32
  1
D
 71
     5
 42
-1.0
 53
0.00013888888889
  3
ME10_DIM_10
100
AcDbAlignedDimension
 13
573.1973404350714
 23
166.1665137787618
 33
0.0
 14
475.1973404350714
 24
224.0023133976092
 34
0.0
100
AcDbRotatedDimension
  0
DIMENSION
  5
156
330
1F
100
AcDbEntity
  8
1
100
AcDbDimension
  2
*D4
 10
606.3553466038513
 20
103.7356419090362
 30
0.0
 11
602.8553466038513
 21
129.705455102974
 31
0.0
 70
    32
  1
H1
 71
     5
 42
-1.0
 53
90.0
  3
ME10_DIM_11
100
AcDbAlignedDimension
 13
596.3553466038513
 23
155.305837726253
 33
0.0
 14
524.1973404350714
 24
103.7356419090362
 34
0.0
 50
90.0
100
AcDbRotatedDimension
  0
DIMENSION
  5
161
330
1F
100
AcDbEntity
  8
1
100
AcDbDimension
  2
*D5
 10
614.3553466038513
 20
103.7356419090362
 30
0.0
 11
610.8553466038513
 21
158.332509805564
 31
0.0
 70
    32
  1
H
 71
     5
 42
-1.0
 53
90.0
  3
ME10_DIM_12
100
AcDbAlignedDimension
 13
498.366431834979
 23
213.1156419090361
 33
0.0
 14
524.1973404350714
 24
103.7356419090362
 34
0.0
 50
90.0
100
AcDbRotatedDimension
  0
DIMENSION
  5
16C
330
1F
100
AcDbEntity
  8
1
100
AcDbDimension
  2
*D6
 10
458.1973404350714
 20
175.826020608486
 30
0.0
 11
481.318207949964
 21
179.326020608486
 31
0.0
 70
    32
  1
<>
 71
     5
 42
-1.0
 53
0.00013888888889
  3
ME10_DIM_13
100
AcDbAlignedDimension
 13
492.1973404350714
 23
205.1186546109283
 33
0.0
 14
458.1973404350714
 24
205.1186546109283
 34
0.0
100
AcDbRotatedDimension
  0
INSERT
  5
173
330
1F
100
AcDbEntity
  8
1
100
AcDbBlockReference
  2
*D7
 10
0.0
 20
0.0
 30
0.0
  0
ENDSEC
  0
SECTION
  2
OBJECTS
  0
DICTIONARY
  5
C
330
0
100
AcDbDictionary
281
     1
  3
ACAD_GROUP
350
D
  3
ACAD_LAYOUT
350
1A
  3
ACAD_MATERIAL
350
3B
  3
ACAD_MLEADERSTYLE
350
176
  3
ACAD_MLINESTYLE
350
17
  3
ACAD_PLOTSETTINGS
350
19
  3
ACAD_PLOTSTYLENAME
350
E
  3
ACAD_VISUALSTYLE
350
2A
  3
AcDbVariableDictionary
350
174
  0
DICTIONARY
  5
D
102
{ACAD_REACTORS
330
C
102
}
330
C
100
AcDbDictionary
281
     1
  0
DICTIONARY
  5
1A
102
{ACAD_REACTORS
330
C
102
}
330
C
100
AcDbDictionary
281
     1
  3
Layout1
350
1E
  3
Layout2
350
26
  3
Model
350
22
  0
DICTIONARY
  5
3B
102
{ACAD_REACTORS
330
C
102
}
330
C
100
AcDbDictionary
281
     1
  3
ByBlock
350
3D
  3
ByLayer
350
3C
  3
Global
350
3E
  0
DICTIONARY
  5
176
102
{ACAD_REACTORS
330
C
102
}
330
C
100
AcDbDictionary
281
     1
  0
DICTIONARY
  5
17
102
{ACAD_REACTORS
330
C
102
}
330
C
100
AcDbDictionary
281
     1
  3
Standard
350
18
  0
DICTIONARY
  5
19
102
{ACAD_REACTORS
330
C
102
}
330
C
100
AcDbDictionary
281
     1
  0
ACDBDICTIONARYWDFLT
  5
E
102
{ACAD_REACTORS
330
C
102
}
330
C
100
AcDbDictionary
281
     1
  3
Normal
350
F
100
AcDbDictionaryWithDefault
340
F
  0
DICTIONARY
  5
2A
102
{ACAD_REACTORS
330
C
102
}
330
C
100
AcDbDictionary
281
     1
  3
2dWireframe
350
2F
  3
3D Hidden
350
31
  3
3dWireframe
350
30
  3
Basic
350
32
  3
Brighten
350
36
  3
ColorChange
350
3A
  3
Conceptual
350
34
  3
Dim
350
35
  3
Facepattern
350
39
  3
Flat
350
2B
  3
FlatWithEdges
350
2C
  3
Gouraud
350
2D
  3
GouraudWithEdges
350
2E
  3
Linepattern
350
38
  3
Realistic
350
33
  3
Thicken
350
37
  0
DICTIONARY
  5
174
102
{ACAD_REACTORS
330
C
102
}
330
C
100
AcDbDictionary
281
     1
  3
DIMASSOC
350
177
  3
HIDETEXT
350
178
  0
LAYOUT
  5
1E
102
{ACAD_REACTORS
330
1A
102
}
330
1A
100
AcDbPlotSettings
  1

  2
none_device
  4

  6

 40
0.0
 41
0.0
 42
0.0
 43
0.0
 44
0.0
 45
0.0
 46
0.0
 47
0.0
 48
0.0
 49
0.0
140
0.0
141
0.0
142
1.0
143
1.0
 70
   688
 72
     0
 73
     0
 74
     5
  7

 75
    16
147
1.0
148
0.0
149
0.0
100
AcDbLayout
  1
Layout1
 70
     1
 71
     1
 10
0.0
 20
0.0
 11
12.0
 21
9.0
 12
0.0
 22
0.0
 32
0.0
 14
1.00000000000000E+20
 24
1.00000000000000E+20
 34
1.00000000000000E+20
 15
-1.00000000000000E+20
 25
-1.00000000000000E+20
 35
-1.00000000000000E+20
146
0.0
 13
0.0
 23
0.0
 33
0.0
 16
1.0
 26
0.0
 36
0.0
 17
0.0
 27
1.0
 37
0.0
 76
     0
330
1B
  0
LAYOUT
  5
26
102
{ACAD_REACTORS
330
1A
102
}
330
1A
100
AcDbPlotSettings
  1

  2
none_device
  4

  6

 40
0.0
 41
0.0
 42
0.0
 43
0.0
 44
0.0
 45
0.0
 46
0.0
 47
0.0
 48
0.0
 49
0.0
140
0.0
141
0.0
142
1.0
143
1.0
 70
   688
 72
     0
 73
     0
 74
     5
  7

 75
    16
147
1.0
148
0.0
149
0.0
100
AcDbLayout
  1
Layout2
 70
     1
 71
     2
 10
0.0
 20
0.0
 11
0.0
 21
0.0
 12
0.0
 22
0.0
 32
0.0
 14
0.0
 24
0.0
 34
0.0
 15
0.0
 25
0.0
 35
0.0
146
0.0
 13
0.0
 23
0.0
 33
0.0
 16
1.0
 26
0.0
 36
0.0
 17
0.0
 27
1.0
 37
0.0
 76
     0
330
23
  0
LAYOUT
  5
22
102
{ACAD_REACTORS
330
1A
102
}
330
1A
100
AcDbPlotSettings
  1

  2
none_device
  4

  6

 40
0.0
 41
0.0
 42
0.0
 43
0.0
 44
0.0
 45
0.0
 46
0.0
 47
0.0
 48
0.0
 49
0.0
140
0.0
141
0.0
142
1.0
143
1.0
 70
  1712
 72
     0
 73
     0
 74
     0
  7

 75
     0
147
1.0
148
0.0
149
0.0
100
AcDbLayout
  1
Model
 70
     1
 71
     0
 10
0.0
 20
0.0
 11
12.0
 21
9.0
 12
0.0
 22
0.0
 32
0.0
 14
419.8622914389966
 24
-13.9067535787656
 34
0.0
 15
629.8622914389966
 25
283.0932464212344
 35
0.0
146
0.0
 13
0.0
 23
0.0
 33
0.0
 16
1.0
 26
0.0
 36
0.0
 17
0.0
 27
1.0
 37
0.0
 76
     0
330
1F
331
29
  0
MATERIAL
  5
3D
102
{ACAD_REACTORS
330
3B
102
}
102
{ACAD_XDICTIONARY
360
19B
102
}
330
3B
100
AcDbMaterial
  1
ByBlock
  0
MATERIAL
  5
3C
102
{ACAD_REACTORS
330
3B
102
}
102
{ACAD_XDICTIONARY
360
199
102
}
330
3B
100
AcDbMaterial
  1
ByLayer
  0
MATERIAL
  5
3E
102
{ACAD_REACTORS
330
3B
102
}
102
{ACAD_XDICTIONARY
360
19D
102
}
330
3B
100
AcDbMaterial
  1
Global
  0
MLINESTYLE
  5
18
102
{ACAD_REACTORS
330
17
102
}
330
17
100
AcDbMlineStyle
  2
Standard
 70
     0
  3

 62
   256
 51
90.0
 52
90.0
 71
     2
 49
0.5
 62
   256
  6
BYLAYER
 49
-0.5
 62
   256
  6
BYLAYER
  0
ACDBPLACEHOLDER
  5
F
102
{ACAD_REACTORS
330
E
102
}
330
E
  0
VISUALSTYLE
  5
2F
102
{ACAD_REACTORS
330
2A
102
}
102
{ACAD_XDICTIONARY
360
181
102
}
330
2A
100
AcDbVisualStyle
  2
2dWireframe
 70
     4
 71
     0
 72
     2
 73
     0
 90
        0
 40
-0.6
 41
-30.0
 62
     5
 63
     7
 74
     1
 91
        4
 64
     7
 65
   257
 75
     1
175
     1
 42
1.0
 92
        0
 66
   257
 43
1.0
 76
     1
 77
     6
 78
     2
 67
     7
 79
     5
170
     0
171
     0
290
     0
174
     0
 93
        1
 44
0.0
173
     0
291
     0
 45
0.0
1001
ACAD
1000
AcDbSavedByObjectVersion
1070
     0
  0
VISUALSTYLE
  5
31
102
{ACAD_REACTORS
330
2A
102
}
102
{ACAD_XDICTIONARY
360
185
102
}
330
2A
100
AcDbVisualStyle
  2
3D Hidden
 70
     6
 71
     1
 72
     2
 73
     2
 90
        0
 40
-0.6
 41
-30.0
 62
     5
 63
     7
 74
     2
 91
        2
 64
     7
 65
   257
 75
     2
175
     1
 42
40.0
 92
        0
 66
   257
 43
1.0
 76
     1
 77
     6
 78
     2
 67
     7
 79
     3
170
     0
171
     0
290
     0
174
     0
 93
        1
 44
0.0
173
     0
291
     0
 45
0.0
1001
ACAD
1000
AcDbSavedByObjectVersion
1070
     0
  0
VISUALSTYLE
  5
30
102
{ACAD_REACTORS
330
2A
102
}
102
{ACAD_XDICTIONARY
360
183
102
}
330
2A
100
AcDbVisualStyle
  2
3dWireframe
 70
     5
 71
     0
 72
     2
 73
     0
 90
        0
 40
-0.6
 41
-30.0
 62
     5
 63
     7
 74
     1
 91
        4
 64
     7
 65
   257
 75
     1
175
     1
 42
1.0
 92
        0
 66
   257
 43
1.0
 76
     1
 77
     6
 78
     2
 67
     7
 79
     5
170
     0
171
     0
290
     0
174
     0
 93
        1
 44
0.0
173
     0
291
     0
 45
0.0
1001
ACAD
1000
AcDbSavedByObjectVersion
1070
     0
  0
VISUALSTYLE
  5
32
102
{ACAD_REACTORS
330
2A
102
}
102
{ACAD_XDICTIONARY
360
187
102
}
330
2A
100
AcDbVisualStyle
  2
Basic
 70
     7
 71
     1
 72
     0
 73
     1
 90
        0
 40
-0.6
 41
-30.0
 62
     5
 63
     7
 74
     0
 91
        4
 64
     7
 65
   257
 75
     1
175
     1
 42
1.0
 92
        8
 66
     7
 43
1.0
 76
     1
 77
     6
 78
     2
 67
     7
 79
     5
170
     0
171
     0
290
     0
174
     0
 93
        1
 44
0.0
173
     0
291
     1
 45
0.0
1001
ACAD
1000
AcDbSavedByObjectVersion
1070
     0
  0
VISUALSTYLE
  5
36
102
{ACAD_REACTORS
330
2A
102
}
102
{ACAD_XDICTIONARY
360
18F
102
}
330
2A
100
AcDbVisualStyle
  2
Brighten
 70
    12
 71
     2
 72
     2
 73
     0
 90
        0
 40
-0.6
 41
-30.0
 62
     5
 63
     7
 74
     1
 91
        4
 64
     7
 65
   257
 75
     1
175
     1
 42
1.0
 92
        8
 66
     7
 43
1.0
 76
     1
 77
     6
 78
     2
 67
     7
 79
     5
170
     0
171
     0
290
     0
174
     0
 93
        1
 44
50.0
173
     0
291
     1
 45
0.0
1001
ACAD
1000
AcDbSavedByObjectVersion
1070
     0
  0
VISUALSTYLE
  5
3A
102
{ACAD_REACTORS
330
2A
102
}
102
{ACAD_XDICTIONARY
360
197
102
}
330
2A
100
AcDbVisualStyle
  2
ColorChange
 70
    16
 71
     2
 72
     2
 73
     3
 90
        0
 40
-0.6
 41
-30.0
 62
     5
 63
     8
 74
     1
 91
        4
 64
     7
 65
   257
 75
     1
175
     1
 42
1.0
 92
        8
 66
     8
 43
1.0
 76
     1
 77
     6
 78
     2
 67
     7
 79
     5
170
     0
171
     0
290
     0
174
     0
 93
        1
 44
0.0
173
     0
291
     1
 45
0.0
1001
ACAD
1000
AcDbSavedByObjectVersion
1070
     0
  0
VISUALSTYLE
  5
34
102
{ACAD_REACTORS
330
2A
102
}
102
{ACAD_XDICTIONARY
360
18B
102
}
330
2A
100
AcDbVisualStyle
  2
Conceptual
 70
     9
 71
     3
 72
     2
 73
     0
 90
        0
 40
-0.6
 41
-30.0
 62
     5
 63
     7
 74
     2
 91
        2
 64
     7
 65
   257
 75
     1
175
     1
 42
40.0
 92
        8
 66
     7
 43
1.0
 76
     1
 77
     6
 78
     2
 67
     7
 79
     3
170
     0
171
     0
290
     0
174
     0
 93
        1
 44
0.0
173
     0
291
     0
 45
0.0
1001
ACAD
1000
AcDbSavedByObjectVersion
1070
     0
  0
VISUALSTYLE
  5
35
102
{ACAD_REACTORS
330
2A
102
}
102
{ACAD_XDICTIONARY
360
18D
102
}
330
2A
100
AcDbVisualStyle
  2
Dim
 70
    11
 71
     2
 72
     2
 73
     0
 90
        0
 40
-0.6
 41
-30.0
 62
     5
 63
     7
 74
     1
 91
        4
 64
     7
 65
   257
 75
     1
175
     1
 42
1.0
 92
        8
 66
     7
 43
1.0
 76
     1
 77
     6
 78
     2
 67
     7
 79
     5
170
     0
171
     0
290
     0
174
     0
 93
        1
 44
-50.0
173
     0
291
     1
 45
0.0
1001
ACAD
1000
AcDbSavedByObjectVersion
1070
     0
  0
VISUALSTYLE
  5
39
102
{ACAD_REACTORS
330
2A
102
}
102
{ACAD_XDICTIONARY
360
195
102
}
330
2A
100
AcDbVisualStyle
  2
Facepattern
 70
    15
 71
     2
 72
     2
 73
     0
 90
        0
 40
-0.6
 41
-30.0
 62
     5
 63
     7
 74
     1
 91
        4
 64
     7
 65
   257
 75
     1
175
     1
 42
1.0
 92
        8
 66
     7
 43
1.0
 76
     1
 77
     6
 78
     2
 67
     7
 79
     5
170
     0
171
     0
290
     0
174
     0
 93
        1
 44
0.0
173
     0
291
     1
 45
0.0
1001
ACAD
1000
AcDbSavedByObjectVersion
1070
     0
  0
VISUALSTYLE
  5
2B
102
{ACAD_REACTORS
330
2A
102
}
102
{ACAD_XDICTIONARY
360
179
102
}
330
2A
100
AcDbVisualStyle
  2
Flat
 70
     0
 71
     2
 72
     1
 73
     1
 90
        2
 40
-0.6
 41
30.0
 62
     5
 63
     7
 74
     0
 91
        4
 64
     7
 65
   257
 75
     1
175
     1
 42
1.0
 92
        8
 66
     7
 43
1.0
 76
     1
 77
     6
 78
     2
 67
     7
 79
     5
170
     0
171
     0
290
     0
174
     0
 93
       13
 44
0.0
173
     0
291
     1
 45
0.0
1001
ACAD
1000
AcDbSavedByObjectVersion
1070
     0
  0
VISUALSTYLE
  5
2C
102
{ACAD_REACTORS
330
2A
102
}
102
{ACAD_XDICTIONARY
360
17B
102
}
330
2A
100
AcDbVisualStyle
  2
FlatWithEdges
 70
     1
 71
     2
 72
     1
 73
     1
 90
        2
 40
-0.6
 41
30.0
 62
     5
 63
     7
 74
     1
 91
        4
 64
     7
 65
   257
 75
     1
175
     1
 42
1.0
 92
        0
 66
   257
 43
1.0
 76
     1
 77
     6
 78
     2
 67
     7
 79
     5
170
     0
171
     0
290
     0
174
     0
 93
       13
 44
0.0
173
     0
291
     1
 45
0.0
1001
ACAD
1000
AcDbSavedByObjectVersion
1070
     0
  0
VISUALSTYLE
  5
2D
102
{ACAD_REACTORS
330
2A
102
}
102
{ACAD_XDICTIONARY
360
17D
102
}
330
2A
100
AcDbVisualStyle
  2
Gouraud
 70
     2
 71
     2
 72
     2
 73
     1
 90
        2
 40
-0.6
 41
30.0
 62
     5
 63
     7
 74
     0
 91
        4
 64
     7
 65
   257
 75
     1
175
     1
 42
1.0
 92
        0
 66
     7
 43
1.0
 76
     1
 77
     6
 78
     2
 67
     7
 79
     5
170
     0
171
     0
290
     0
174
     0
 93
       13
 44
0.0
173
     0
291
     1
 45
0.0
1001
ACAD
1000
AcDbSavedByObjectVersion
1070
     0
  0
VISUALSTYLE
  5
2E
102
{ACAD_REACTORS
330
2A
102
}
102
{ACAD_XDICTIONARY
360
17F
102
}
330
2A
100
AcDbVisualStyle
  2
GouraudWithEdges
 70
     3
 71
     2
 72
     2
 73
     1
 90
        2
 40
-0.6
 41
30.0
 62
     5
 63
     7
 74
     1
 91
        4
 64
     7
 65
   257
 75
     1
175
     1
 42
1.0
 92
        0
 66
   257
 43
1.0
 76
     1
 77
     6
 78
     2
 67
     7
 79
     5
170
     0
171
     0
290
     0
174
     0
 93
       13
 44
0.0
173
     0
291
     1
 45
0.0
1001
ACAD
1000
AcDbSavedByObjectVersion
1070
     0
  0
VISUALSTYLE
  5
38
102
{ACAD_REACTORS
330
2A
102
}
102
{ACAD_XDICTIONARY
360
193
102
}
330
2A
100
AcDbVisualStyle
  2
Linepattern
 70
    14
 71
     2
 72
     2
 73
     0
 90
        0
 40
-0.6
 41
-30.0
 62
     5
 63
     7
 74
     1
 91
        4
 64
     7
 65
   257
 75
     7
175
     7
 42
1.0
 92
        8
 66
     7
 43
1.0
 76
     1
 77
     6
 78
     2
 67
     7
 79
     5
170
     0
171
     0
290
     0
174
     0
 93
        1
 44
0.0
173
     0
291
     1
 45
0.0
1001
ACAD
1000
AcDbSavedByObjectVersion
1070
     0
  0
VISUALSTYLE
  5
33
102
{ACAD_REACTORS
330
2A
102
}
102
{ACAD_XDICTIONARY
360
189
102
}
330
2A
100
AcDbVisualStyle
  2
Realistic
 70
     8
 71
     2
 72
     2
 73
     0
 90
        0
 40
-0.6
 41
-30.0
 62
     5
 63
     7
 74
     1
 91
        0
 64
     7
 65
   257
 75
     1
175
     1
 42
1.0
 92
        8
 66
     8
 43
1.0
 76
     1
 77
     6
 78
     2
 67
     7
 79
     5
170
     0
171
     0
290
     0
174
     0
 93
       13
 44
0.0
173
     0
291
     0
 45
0.0
1001
ACAD
1000
AcDbSavedByObjectVersion
1070
     0
  0
VISUALSTYLE
  5
37
102
{ACAD_REACTORS
330
2A
102
}
102
{ACAD_XDICTIONARY
360
191
102
}
330
2A
100
AcDbVisualStyle
  2
Thicken
 70
    13
 71
     2
 72
     2
 73
     0
 90
        0
 40
-0.6
 41
-30.0
 62
     5
 63
     7
 74
     1
 91
        4
 64
     7
 65
   257
 75
     1
175
     1
 42
1.0
 92
       12
 66
     7
 43
1.0
 76
     1
 77
     6
 78
     2
 67
     7
 79
     5
170
     0
171
     0
290
     0
174
     0
 93
        1
 44
0.0
173
     0
291
     1
 45
0.0
1001
ACAD
1000
AcDbSavedByObjectVersion
1070
     0
  0
DICTIONARYVAR
  5
177
102
{ACAD_REACTORS
330
174
102
}
330
174
100
DictionaryVariables
280
     0
  1
2
  0
DICTIONARYVAR
  5
178
102
{ACAD_REACTORS
330
174
102
}
330
174
100
DictionaryVariables
280
     0
  1
1
  0
DICTIONARY
  5
19B
330
3D
100
AcDbDictionary
280
     1
281
     1
  3
ACAD_XREC_ROUNDTRIP
360
19C
  0
DICTIONARY
  5
199
330
3C
100
AcDbDictionary
280
     1
281
     1
  3
ACAD_XREC_ROUNDTRIP
360
19A
  0
DICTIONARY
  5
19D
330
3E
100
AcDbDictionary
280
     1
281
     1
  3
ACAD_XREC_ROUNDTRIP
360
19E
  0
DICTIONARY
  5
181
330
2F
100
AcDbDictionary
280
     1
281
     1
  3
ACAD_XREC_ROUNDTRIP
360
182
  0
DICTIONARY
  5
185
330
31
100
AcDbDictionary
280
     1
281
     1
  3
ACAD_XREC_ROUNDTRIP
360
186
  0
DICTIONARY
  5
183
330
30
100
AcDbDictionary
280
     1
281
     1
  3
ACAD_XREC_ROUNDTRIP
360
184
  0
DICTIONARY
  5
187
330
32
100
AcDbDictionary
280
     1
281
     1
  3
ACAD_XREC_ROUNDTRIP
360
188
  0
DICTIONARY
  5
18F
330
36
100
AcDbDictionary
280
     1
281
     1
  3
ACAD_XREC_ROUNDTRIP
360
190
  0
DICTIONARY
  5
197
330
3A
100
AcDbDictionary
280
     1
281
     1
  3
ACAD_XREC_ROUNDTRIP
360
198
  0
DICTIONARY
  5
18B
330
34
100
AcDbDictionary
280
     1
281
     1
  3
ACAD_XREC_ROUNDTRIP
360
18C
  0
DICTIONARY
  5
18D
330
35
100
AcDbDictionary
280
     1
281
     1
  3
ACAD_XREC_ROUNDTRIP
360
18E
  0
DICTIONARY
  5
195
330
39
100
AcDbDictionary
280
     1
281
     1
  3
ACAD_XREC_ROUNDTRIP
360
196
  0
DICTIONARY
  5
179
330
2B
100
AcDbDictionary
280
     1
281
     1
  3
ACAD_XREC_ROUNDTRIP
360
17A
  0
DICTIONARY
  5
17B
330
2C
100
AcDbDictionary
280
     1
281
     1
  3
ACAD_XREC_ROUNDTRIP
360
17C
  0
DICTIONARY
  5
17D
330
2D
100
AcDbDictionary
280
     1
281
     1
  3
ACAD_XREC_ROUNDTRIP
360
17E
  0
DICTIONARY
  5
17F
330
2E
100
AcDbDictionary
280
     1
281
     1
  3
ACAD_XREC_ROUNDTRIP
360
180
  0
DICTIONARY
  5
193
330
38
100
AcDbDictionary
280
     1
281
     1
  3
ACAD_XREC_ROUNDTRIP
360
194
  0
DICTIONARY
  5
189
330
33
100
AcDbDictionary
280
     1
281
     1
  3
ACAD_XREC_ROUNDTRIP
360
18A
  0
DICTIONARY
  5
191
330
37
100
AcDbDictionary
280
     1
281
     1
  3
ACAD_XREC_ROUNDTRIP
360
192
  0
XRECORD
  5
19C
102
{ACAD_REACTORS
330
19B
102
}
330
19B
100
AcDbXrecord
280
     1
102
MATERIAL
148
0.0
149
0.0
149
0.0
 93
        0
 94
      127
282
     0
 72
     1
 77
     1
171
     1
175
     1
179
     1
273
     0
  0
XRECORD
  5
19A
102
{ACAD_REACTORS
330
199
102
}
330
199
100
AcDbXrecord
280
     1
102
MATERIAL
148
0.0
149
0.0
149
0.0
 93
        0
 94
      127
282
     0
 72
     1
 77
     1
171
     1
175
     1
179
     1
273
     0
  0
XRECORD
  5
19E
102
{ACAD_REACTORS
330
19D
102
}
330
19D
100
AcDbXrecord
280
     1
102
MATERIAL
148
0.0
149
0.0
149
0.0
 93
        0
 94
      127
282
     0
 72
     1
 77
     1
171
     1
175
     1
179
     1
273
     0
  0
XRECORD
  5
182
102
{ACAD_REACTORS
330
181
102
}
330
181
100
AcDbXrecord
280
     1
102
RTVSPropertyOp0
 70
     1
102
RTVSPropertyOp1
 70
     1
102
RTVSPropertyOp2
 70
     1
102
RTVSPropertyOp3
 70
     1
102
RTVSPropertyOp4
 70
     1
102
RTVSPropertyOp5
 70
     1
102
RTVSPropertyOp6
 70
     1
102
RTVSPropertyOp7
 70
     1
102
RTVSPropertyOp8
 70
     1
102
RTVSPropertyOp9
 70
     1
102
RTVSPropertyOp10
 70
     1
102
RTVSPropertyOp11
 70
     1
102
RTVSPropertyOp12
 70
     1
102
RTVSPropertyOp13
 70
     1
102
RTVSPropertyOp14
 70
     1
102
RTVSPropertyOp15
 70
     1
102
RTVSPropertyOp16
 70
     1
102
RTVSPropertyOp17
 70
     1
102
RTVSPropertyOp18
 70
     1
102
RTVSPropertyOp19
 70
     1
102
RTVSPropertyOp20
 70
     1
102
RTVSPropertyOp21
 70
     1
102
RTVSPropertyOp22
 70
     1
102
RTVSPropertyOp23
 70
     1
102
RTVSPropertyOp24
 70
     1
102
RTVSPropertyOp25
 70
     1
102
RTVSPropertyOp26
 70
     1
102
RTVSPropertyOp27
 70
     1
102
RTVSPropertyOp28
 70
     1
102
RTVSPropertyOp29
 70
     1
102
RTVSPropertyOp30
 70
     1
102
RTVSPropertyOp31
 70
     1
102
RTVSPropertyOp32
 70
     1
  0
XRECORD
  5
186
102
{ACAD_REACTORS
330
185
102
}
330
185
100
AcDbXrecord
280
     1
102
RTVSPropertyOp0
 70
     1
102
RTVSPropertyOp1
 70
     1
102
RTVSPropertyOp2
 70
     1
102
RTVSPropertyOp3
 70
     1
102
RTVSPropertyOp4
 70
     1
102
RTVSPropertyOp5
 70
     1
102
RTVSPropertyOp6
 70
     1
102
RTVSPropertyOp7
 70
     1
102
RTVSPropertyOp8
 70
     1
102
RTVSPropertyOp9
 70
     1
102
RTVSPropertyOp10
 70
     1
102
RTVSPropertyOp11
 70
     1
102
RTVSPropertyOp12
 70
     1
102
RTVSPropertyOp13
 70
     1
102
RTVSPropertyOp14
 70
     1
102
RTVSPropertyOp15
 70
     1
102
RTVSPropertyOp16
 70
     1
102
RTVSPropertyOp17
 70
     1
102
RTVSPropertyOp18
 70
     1
102
RTVSPropertyOp19
 70
     1
102
RTVSPropertyOp20
 70
     1
102
RTVSPropertyOp21
 70
     1
102
RTVSPropertyOp22
 70
     1
102
RTVSPropertyOp23
 70
     1
102
RTVSPropertyOp24
 70
     1
102
RTVSPropertyOp25
 70
     1
102
RTVSPropertyOp26
 70
     1
102
RTVSPropertyOp27
 70
     1
102
RTVSPropertyOp28
 70
     1
102
RTVSPropertyOp29
 70
     1
102
RTVSPropertyOp30
 70
     1
102
RTVSPropertyOp31
 70
     1
102
RTVSPropertyOp32
 70
     1
  0
XRECORD
  5
184
102
{ACAD_REACTORS
330
183
102
}
330
183
100
AcDbXrecord
280
     1
102
RTVSPropertyOp0
 70
     1
102
RTVSPropertyOp1
 70
     1
102
RTVSPropertyOp2
 70
     1
102
RTVSPropertyOp3
 70
     1
102
RTVSPropertyOp4
 70
     1
102
RTVSPropertyOp5
 70
     1
102
RTVSPropertyOp6
 70
     1
102
RTVSPropertyOp7
 70
     1
102
RTVSPropertyOp8
 70
     1
102
RTVSPropertyOp9
 70
     1
102
RTVSPropertyOp10
 70
     1
102
RTVSPropertyOp11
 70
     1
102
RTVSPropertyOp12
 70
     1
102
RTVSPropertyOp13
 70
     1
102
RTVSPropertyOp14
 70
     1
102
RTVSPropertyOp15
 70
     1
102
RTVSPropertyOp16
 70
     1
102
RTVSPropertyOp17
 70
     1
102
RTVSPropertyOp18
 70
     1
102
RTVSPropertyOp19
 70
     1
102
RTVSPropertyOp20
 70
     1
102
RTVSPropertyOp21
 70
     1
102
RTVSPropertyOp22
 70
     1
102
RTVSPropertyOp23
 70
     1
102
RTVSPropertyOp24
 70
     1
102
RTVSPropertyOp25
 70
     1
102
RTVSPropertyOp26
 70
     1
102
RTVSPropertyOp27
 70
     1
102
RTVSPropertyOp28
 70
     1
102
RTVSPropertyOp29
 70
     1
102
RTVSPropertyOp30
 70
     1
102
RTVSPropertyOp31
 70
     1
102
RTVSPropertyOp32
 70
     1
  0
XRECORD
  5
188
102
{ACAD_REACTORS
330
187
102
}
330
187
100
AcDbXrecord
280
     1
102
RTVSPropertyOp0
 70
     1
102
RTVSPropertyOp1
 70
     1
102
RTVSPropertyOp2
 70
     1
102
RTVSPropertyOp3
 70
     1
102
RTVSPropertyOp4
 70
     1
102
RTVSPropertyOp5
 70
     1
102
RTVSPropertyOp6
 70
     1
102
RTVSPropertyOp7
 70
     1
102
RTVSPropertyOp8
 70
     1
102
RTVSPropertyOp9
 70
     1
102
RTVSPropertyOp10
 70
     1
102
RTVSPropertyOp11
 70
     1
102
RTVSPropertyOp12
 70
     1
102
RTVSPropertyOp13
 70
     1
102
RTVSPropertyOp14
 70
     1
102
RTVSPropertyOp15
 70
     1
102
RTVSPropertyOp16
 70
     1
102
RTVSPropertyOp17
 70
     1
102
RTVSPropertyOp18
 70
     1
102
RTVSPropertyOp19
 70
     1
102
RTVSPropertyOp20
 70
     1
102
RTVSPropertyOp21
 70
     1
102
RTVSPropertyOp22
 70
     1
102
RTVSPropertyOp23
 70
     1
102
RTVSPropertyOp24
 70
     1
102
RTVSPropertyOp25
 70
     1
102
RTVSPropertyOp26
 70
     1
102
RTVSPropertyOp27
 70
     1
102
RTVSPropertyOp28
 70
     1
102
RTVSPropertyOp29
 70
     1
102
RTVSPropertyOp30
 70
     1
102
RTVSPropertyOp31
 70
     1
102
RTVSPropertyOp32
 70
     1
  0
XRECORD
  5
190
102
{ACAD_REACTORS
330
18F
102
}
330
18F
100
AcDbXrecord
280
     1
102
RTVSPropertyOp0
 70
     1
102
RTVSPropertyOp1
 70
     1
102
RTVSPropertyOp2
 70
     1
102
RTVSPropertyOp3
 70
     1
102
RTVSPropertyOp4
 70
     1
102
RTVSPropertyOp5
 70
     1
102
RTVSPropertyOp6
 70
     1
102
RTVSPropertyOp7
 70
     1
102
RTVSPropertyOp8
 70
     1
102
RTVSPropertyOp9
 70
     1
102
RTVSPropertyOp10
 70
     1
102
RTVSPropertyOp11
 70
     1
102
RTVSPropertyOp12
 70
     1
102
RTVSPropertyOp13
 70
     1
102
RTVSPropertyOp14
 70
     1
102
RTVSPropertyOp15
 70
     1
102
RTVSPropertyOp16
 70
     1
102
RTVSPropertyOp17
 70
     1
102
RTVSPropertyOp18
 70
     1
102
RTVSPropertyOp19
 70
     1
102
RTVSPropertyOp20
 70
     1
102
RTVSPropertyOp21
 70
     1
102
RTVSPropertyOp22
 70
     1
102
RTVSPropertyOp23
 70
     1
102
RTVSPropertyOp24
 70
     1
102
RTVSPropertyOp25
 70
     1
102
RTVSPropertyOp26
 70
     1
102
RTVSPropertyOp27
 70
     1
102
RTVSPropertyOp28
 70
     1
102
RTVSPropertyOp29
 70
     1
102
RTVSPropertyOp30
 70
     1
102
RTVSPropertyOp31
 70
     1
102
RTVSPropertyOp32
 70
     1
  0
XRECORD
  5
198
102
{ACAD_REACTORS
330
197
102
}
330
197
100
AcDbXrecord
280
     1
102
RTVSPropertyOp0
 70
     1
102
RTVSPropertyOp1
 70
     1
102
RTVSPropertyOp2
 70
     1
102
RTVSPropertyOp3
 70
     1
102
RTVSPropertyOp4
 70
     1
102
RTVSPropertyOp5
 70
     1
102
RTVSPropertyOp6
 70
     1
102
RTVSPropertyOp7
 70
     1
102
RTVSPropertyOp8
 70
     1
102
RTVSPropertyOp9
 70
     1
102
RTVSPropertyOp10
 70
     1
102
RTVSPropertyOp11
 70
     1
102
RTVSPropertyOp12
 70
     1
102
RTVSPropertyOp13
 70
     1
102
RTVSPropertyOp14
 70
     1
102
RTVSPropertyOp15
 70
     1
102
RTVSPropertyOp16
 70
     1
102
RTVSPropertyOp17
 70
     1
102
RTVSPropertyOp18
 70
     1
102
RTVSPropertyOp19
 70
     1
102
RTVSPropertyOp20
 70
     1
102
RTVSPropertyOp21
 70
     1
102
RTVSPropertyOp22
 70
     1
102
RTVSPropertyOp23
 70
     1
102
RTVSPropertyOp24
 70
     1
102
RTVSPropertyOp25
 70
     1
102
RTVSPropertyOp26
 70
     1
102
RTVSPropertyOp27
 70
     1
102
RTVSPropertyOp28
 70
     1
102
RTVSPropertyOp29
 70
     1
102
RTVSPropertyOp30
 70
     1
102
RTVSPropertyOp31
 70
     1
102
RTVSPropertyOp32
 70
     1
  0
XRECORD
  5
18C
102
{ACAD_REACTORS
330
18B
102
}
330
18B
100
AcDbXrecord
280
     1
102
RTVSPropertyOp0
 70
     1
102
RTVSPropertyOp1
 70
     1
102
RTVSPropertyOp2
 70
     1
102
RTVSPropertyOp3
 70
     1
102
RTVSPropertyOp4
 70
     1
102
RTVSPropertyOp5
 70
     1
102
RTVSPropertyOp6
 70
     1
102
RTVSPropertyOp7
 70
     1
102
RTVSPropertyOp8
 70
     1
102
RTVSPropertyOp9
 70
     1
102
RTVSPropertyOp10
 70
     1
102
RTVSPropertyOp11
 70
     1
102
RTVSPropertyOp12
 70
     1
102
RTVSPropertyOp13
 70
     1
102
RTVSPropertyOp14
 70
     1
102
RTVSPropertyOp15
 70
     1
102
RTVSPropertyOp16
 70
     1
102
RTVSPropertyOp17
 70
     1
102
RTVSPropertyOp18
 70
     1
102
RTVSPropertyOp19
 70
     1
102
RTVSPropertyOp20
 70
     1
102
RTVSPropertyOp21
 70
     1
102
RTVSPropertyOp22
 70
     1
102
RTVSPropertyOp23
 70
     1
102
RTVSPropertyOp24
 70
     1
102
RTVSPropertyOp25
 70
     1
102
RTVSPropertyOp26
 70
     1
102
RTVSPropertyOp27
 70
     1
102
RTVSPropertyOp28
 70
     1
102
RTVSPropertyOp29
 70
     1
102
RTVSPropertyOp30
 70
     1
102
RTVSPropertyOp31
 70
     1
102
RTVSPropertyOp32
 70
     1
  0
XRECORD
  5
18E
102
{ACAD_REACTORS
330
18D
102
}
330
18D
100
AcDbXrecord
280
     1
102
RTVSPropertyOp0
 70
     1
102
RTVSPropertyOp1
 70
     1
102
RTVSPropertyOp2
 70
     1
102
RTVSPropertyOp3
 70
     1
102
RTVSPropertyOp4
 70
     1
102
RTVSPropertyOp5
 70
     1
102
RTVSPropertyOp6
 70
     1
102
RTVSPropertyOp7
 70
     1
102
RTVSPropertyOp8
 70
     1
102
RTVSPropertyOp9
 70
     1
102
RTVSPropertyOp10
 70
     1
102
RTVSPropertyOp11
 70
     1
102
RTVSPropertyOp12
 70
     1
102
RTVSPropertyOp13
 70
     1
102
RTVSPropertyOp14
 70
     1
102
RTVSPropertyOp15
 70
     1
102
RTVSPropertyOp16
 70
     1
102
RTVSPropertyOp17
 70
     1
102
RTVSPropertyOp18
 70
     1
102
RTVSPropertyOp19
 70
     1
102
RTVSPropertyOp20
 70
     1
102
RTVSPropertyOp21
 70
     1
102
RTVSPropertyOp22
 70
     1
102
RTVSPropertyOp23
 70
     1
102
RTVSPropertyOp24
 70
     1
102
RTVSPropertyOp25
 70
     1
102
RTVSPropertyOp26
 70
     1
102
RTVSPropertyOp27
 70
     1
102
RTVSPropertyOp28
 70
     1
102
RTVSPropertyOp29
 70
     1
102
RTVSPropertyOp30
 70
     1
102
RTVSPropertyOp31
 70
     1
102
RTVSPropertyOp32
 70
     1
  0
XRECORD
  5
196
102
{ACAD_REACTORS
330
195
102
}
330
195
100
AcDbXrecord
280
     1
102
RTVSPropertyOp0
 70
     1
102
RTVSPropertyOp1
 70
     1
102
RTVSPropertyOp2
 70
     1
102
RTVSPropertyOp3
 70
     1
102
RTVSPropertyOp4
 70
     1
102
RTVSPropertyOp5
 70
     1
102
RTVSPropertyOp6
 70
     1
102
RTVSPropertyOp7
 70
     1
102
RTVSPropertyOp8
 70
     1
102
RTVSPropertyOp9
 70
     1
102
RTVSPropertyOp10
 70
     1
102
RTVSPropertyOp11
 70
     1
102
RTVSPropertyOp12
 70
     1
102
RTVSPropertyOp13
 70
     1
102
RTVSPropertyOp14
 70
     1
102
RTVSPropertyOp15
 70
     1
102
RTVSPropertyOp16
 70
     1
102
RTVSPropertyOp17
 70
     1
102
RTVSPropertyOp18
 70
     1
102
RTVSPropertyOp19
 70
     1
102
RTVSPropertyOp20
 70
     1
102
RTVSPropertyOp21
 70
     1
102
RTVSPropertyOp22
 70
     1
102
RTVSPropertyOp23
 70
     1
102
RTVSPropertyOp24
 70
     1
102
RTVSPropertyOp25
 70
     1
102
RTVSPropertyOp26
 70
     1
102
RTVSPropertyOp27
 70
     1
102
RTVSPropertyOp28
 70
     1
102
RTVSPropertyOp29
 70
     1
102
RTVSPropertyOp30
 70
     1
102
RTVSPropertyOp31
 70
     1
102
RTVSPropertyOp32
 70
     1
  0
XRECORD
  5
17A
102
{ACAD_REACTORS
330
179
102
}
330
179
100
AcDbXrecord
280
     1
102
RTVSPropertyOp0
 70
     1
102
RTVSPropertyOp1
 70
     1
102
RTVSPropertyOp2
 70
     1
102
RTVSPropertyOp3
 70
     1
102
RTVSPropertyOp4
 70
     1
102
RTVSPropertyOp5
 70
     1
102
RTVSPropertyOp6
 70
     1
102
RTVSPropertyOp7
 70
     1
102
RTVSPropertyOp8
 70
     1
102
RTVSPropertyOp9
 70
     1
102
RTVSPropertyOp10
 70
     1
102
RTVSPropertyOp11
 70
     1
102
RTVSPropertyOp12
 70
     1
102
RTVSPropertyOp13
 70
     1
102
RTVSPropertyOp14
 70
     1
102
RTVSPropertyOp15
 70
     1
102
RTVSPropertyOp16
 70
     1
102
RTVSPropertyOp17
 70
     1
102
RTVSPropertyOp18
 70
     1
102
RTVSPropertyOp19
 70
     1
102
RTVSPropertyOp20
 70
     1
102
RTVSPropertyOp21
 70
     1
102
RTVSPropertyOp22
 70
     1
102
RTVSPropertyOp23
 70
     1
102
RTVSPropertyOp24
 70
     1
102
RTVSPropertyOp25
 70
     1
102
RTVSPropertyOp26
 70
     1
102
RTVSPropertyOp27
 70
     1
102
RTVSPropertyOp28
 70
     1
102
RTVSPropertyOp29
 70
     1
102
RTVSPropertyOp30
 70
     1
102
RTVSPropertyOp31
 70
     1
102
RTVSPropertyOp32
 70
     1
  0
XRECORD
  5
17C
102
{ACAD_REACTORS
330
17B
102
}
330
17B
100
AcDbXrecord
280
     1
102
RTVSPropertyOp0
 70
     1
102
RTVSPropertyOp1
 70
     1
102
RTVSPropertyOp2
 70
     1
102
RTVSPropertyOp3
 70
     1
102
RTVSPropertyOp4
 70
     1
102
RTVSPropertyOp5
 70
     1
102
RTVSPropertyOp6
 70
     1
102
RTVSPropertyOp7
 70
     1
102
RTVSPropertyOp8
 70
     1
102
RTVSPropertyOp9
 70
     1
102
RTVSPropertyOp10
 70
     1
102
RTVSPropertyOp11
 70
     1
102
RTVSPropertyOp12
 70
     1
102
RTVSPropertyOp13
 70
     1
102
RTVSPropertyOp14
 70
     1
102
RTVSPropertyOp15
 70
     1
102
RTVSPropertyOp16
 70
     1
102
RTVSPropertyOp17
 70
     1
102
RTVSPropertyOp18
 70
     1
102
RTVSPropertyOp19
 70
     1
102
RTVSPropertyOp20
 70
     1
102
RTVSPropertyOp21
 70
     1
102
RTVSPropertyOp22
 70
     1
102
RTVSPropertyOp23
 70
     1
102
RTVSPropertyOp24
 70
     1
102
RTVSPropertyOp25
 70
     1
102
RTVSPropertyOp26
 70
     1
102
RTVSPropertyOp27
 70
     1
102
RTVSPropertyOp28
 70
     1
102
RTVSPropertyOp29
 70
     1
102
RTVSPropertyOp30
 70
     1
102
RTVSPropertyOp31
 70
     1
102
RTVSPropertyOp32
 70
     1
  0
XRECORD
  5
17E
102
{ACAD_REACTORS
330
17D
102
}
330
17D
100
AcDbXrecord
280
     1
102
RTVSPropertyOp0
 70
     1
102
RTVSPropertyOp1
 70
     1
102
RTVSPropertyOp2
 70
     1
102
RTVSPropertyOp3
 70
     1
102
RTVSPropertyOp4
 70
     1
102
RTVSPropertyOp5
 70
     1
102
RTVSPropertyOp6
 70
     1
102
RTVSPropertyOp7
 70
     1
102
RTVSPropertyOp8
 70
     1
102
RTVSPropertyOp9
 70
     1
102
RTVSPropertyOp10
 70
     1
102
RTVSPropertyOp11
 70
     1
102
RTVSPropertyOp12
 70
     1
102
RTVSPropertyOp13
 70
     1
102
RTVSPropertyOp14
 70
     1
102
RTVSPropertyOp15
 70
     1
102
RTVSPropertyOp16
 70
     1
102
RTVSPropertyOp17
 70
     1
102
RTVSPropertyOp18
 70
     1
102
RTVSPropertyOp19
 70
     1
102
RTVSPropertyOp20
 70
     1
102
RTVSPropertyOp21
 70
     1
102
RTVSPropertyOp22
 70
     1
102
RTVSPropertyOp23
 70
     1
102
RTVSPropertyOp24
 70
     1
102
RTVSPropertyOp25
 70
     1
102
RTVSPropertyOp26
 70
     1
102
RTVSPropertyOp27
 70
     1
102
RTVSPropertyOp28
 70
     1
102
RTVSPropertyOp29
 70
     1
102
RTVSPropertyOp30
 70
     1
102
RTVSPropertyOp31
 70
     1
102
RTVSPropertyOp32
 70
     1
  0
XRECORD
  5
180
102
{ACAD_REACTORS
330
17F
102
}
330
17F
100
AcDbXrecord
280
     1
102
RTVSPropertyOp0
 70
     1
102
RTVSPropertyOp1
 70
     1
102
RTVSPropertyOp2
 70
     1
102
RTVSPropertyOp3
 70
     1
102
RTVSPropertyOp4
 70
     1
102
RTVSPropertyOp5
 70
     1
102
RTVSPropertyOp6
 70
     1
102
RTVSPropertyOp7
 70
     1
102
RTVSPropertyOp8
 70
     1
102
RTVSPropertyOp9
 70
     1
102
RTVSPropertyOp10
 70
     1
102
RTVSPropertyOp11
 70
     1
102
RTVSPropertyOp12
 70
     1
102
RTVSPropertyOp13
 70
     1
102
RTVSPropertyOp14
 70
     1
102
RTVSPropertyOp15
 70
     1
102
RTVSPropertyOp16
 70
     1
102
RTVSPropertyOp17
 70
     1
102
RTVSPropertyOp18
 70
     1
102
RTVSPropertyOp19
 70
     1
102
RTVSPropertyOp20
 70
     1
102
RTVSPropertyOp21
 70
     1
102
RTVSPropertyOp22
 70
     1
102
RTVSPropertyOp23
 70
     1
102
RTVSPropertyOp24
 70
     1
102
RTVSPropertyOp25
 70
     1
102
RTVSPropertyOp26
 70
     1
102
RTVSPropertyOp27
 70
     1
102
RTVSPropertyOp28
 70
     1
102
RTVSPropertyOp29
 70
     1
102
RTVSPropertyOp30
 70
     1
102
RTVSPropertyOp31
 70
     1
102
RTVSPropertyOp32
 70
     1
  0
XRECORD
  5
194
102
{ACAD_REACTORS
330
193
102
}
330
193
100
AcDbXrecord
280
     1
102
RTVSPropertyOp0
 70
     1
102
RTVSPropertyOp1
 70
     1
102
RTVSPropertyOp2
 70
     1
102
RTVSPropertyOp3
 70
     1
102
RTVSPropertyOp4
 70
     1
102
RTVSPropertyOp5
 70
     1
102
RTVSPropertyOp6
 70
     1
102
RTVSPropertyOp7
 70
     1
102
RTVSPropertyOp8
 70
     1
102
RTVSPropertyOp9
 70
     1
102
RTVSPropertyOp10
 70
     1
102
RTVSPropertyOp11
 70
     1
102
RTVSPropertyOp12
 70
     1
102
RTVSPropertyOp13
 70
     1
102
RTVSPropertyOp14
 70
     1
102
RTVSPropertyOp15
 70
     1
102
RTVSPropertyOp16
 70
     1
102
RTVSPropertyOp17
 70
     1
102
RTVSPropertyOp18
 70
     1
102
RTVSPropertyOp19
 70
     1
102
RTVSPropertyOp20
 70
     1
102
RTVSPropertyOp21
 70
     1
102
RTVSPropertyOp22
 70
     1
102
RTVSPropertyOp23
 70
     1
102
RTVSPropertyOp24
 70
     1
102
RTVSPropertyOp25
 70
     1
102
RTVSPropertyOp26
 70
     1
102
RTVSPropertyOp27
 70
     1
102
RTVSPropertyOp28
 70
     1
102
RTVSPropertyOp29
 70
     1
102
RTVSPropertyOp30
 70
     1
102
RTVSPropertyOp31
 70
     1
102
RTVSPropertyOp32
 70
     1
  0
XRECORD
  5
18A
102
{ACAD_REACTORS
330
189
102
}
330
189
100
AcDbXrecord
280
     1
102
RTVSPropertyOp0
 70
     1
102
RTVSPropertyOp1
 70
     1
102
RTVSPropertyOp2
 70
     1
102
RTVSPropertyOp3
 70
     1
102
RTVSPropertyOp4
 70
     1
102
RTVSPropertyOp5
 70
     1
102
RTVSPropertyOp6
 70
     1
102
RTVSPropertyOp7
 70
     1
102
RTVSPropertyOp8
 70
     1
102
RTVSPropertyOp9
 70
     1
102
RTVSPropertyOp10
 70
     1
102
RTVSPropertyOp11
 70
     1
102
RTVSPropertyOp12
 70
     1
102
RTVSPropertyOp13
 70
     1
102
RTVSPropertyOp14
 70
     1
102
RTVSPropertyOp15
 70
     1
102
RTVSPropertyOp16
 70
     1
102
RTVSPropertyOp17
 70
     1
102
RTVSPropertyOp18
 70
     1
102
RTVSPropertyOp19
 70
     1
102
RTVSPropertyOp20
 70
     1
102
RTVSPropertyOp21
 70
     1
102
RTVSPropertyOp22
 70
     1
102
RTVSPropertyOp23
 70
     1
102
RTVSPropertyOp24
 70
     1
102
RTVSPropertyOp25
 70
     1
102
RTVSPropertyOp26
 70
     1
102
RTVSPropertyOp27
 70
     1
102
RTVSPropertyOp28
 70
     1
102
RTVSPropertyOp29
 70
     1
102
RTVSPropertyOp30
 70
     1
102
RTVSPropertyOp31
 70
     1
102
RTVSPropertyOp32
 70
     1
  0
XRECORD
  5
192
102
{ACAD_REACTORS
330
191
102
}
330
191
100
AcDbXrecord
280
     1
102
RTVSPropertyOp0
 70
     1
102
RTVSPropertyOp1
 70
     1
102
RTVSPropertyOp2
 70
     1
102
RTVSPropertyOp3
 70
     1
102
RTVSPropertyOp4
 70
     1
102
RTVSPropertyOp5
 70
     1
102
RTVSPropertyOp6
 70
     1
102
RTVSPropertyOp7
 70
     1
102
RTVSPropertyOp8
 70
     1
102
RTVSPropertyOp9
 70
     1
102
RTVSPropertyOp10
 70
     1
102
RTVSPropertyOp11
 70
     1
102
RTVSPropertyOp12
 70
     1
102
RTVSPropertyOp13
 70
     1
102
RTVSPropertyOp14
 70
     1
102
RTVSPropertyOp15
 70
     1
102
RTVSPropertyOp16
 70
     1
102
RTVSPropertyOp17
 70
     1
102
RTVSPropertyOp18
 70
     1
102
RTVSPropertyOp19
 70
     1
102
RTVSPropertyOp20
 70
     1
102
RTVSPropertyOp21
 70
     1
102
RTVSPropertyOp22
 70
     1
102
RTVSPropertyOp23
 70
     1
102
RTVSPropertyOp24
 70
     1
102
RTVSPropertyOp25
 70
     1
102
RTVSPropertyOp26
 70
     1
102
RTVSPropertyOp27
 70
     1
102
RTVSPropertyOp28
 70
     1
102
RTVSPropertyOp29
 70
     1
102
RTVSPropertyOp30
 70
     1
102
RTVSPropertyOp31
 70
     1
102
RTVSPropertyOp32
 70
     1
  0
ENDSEC
  0
EOF
