  0
SECTION
  2
HEADER
  9
$ACADVER
  1
AC1015
  9
$ACADMAINTVER
 70
     6
  9
$DWGCODEPAGE
  3
ANSI_932
  9
$INSBASE
 10
0.0
 20
0.0
 30
0.0
  9
$EXTMIN
 10
-95.36574104057544
 20
-164.944845037912
 30
0.0
  9
$EXTMAX
 10
114.6342589594245
 20
132.055154962088
 30
0.0
  9
$LIMMIN
 10
0.0
 20
0.0
  9
$LIMMAX
 10
12.0
 20
9.0
  9
$ORTHOMODE
 70
     0
  9
$REGENMODE
 70
     1
  9
$FILLMODE
 70
     1
  9
$QTEXTMODE
 70
     0
  9
$MIRRTEXT
 70
     1
  9
$LTSCALE
 40
1.0
  9
$ATTMODE
 70
     1
  9
$TEXTSIZE
 40
0.2
  9
$TRACEWID
 40
0.05
  9
$TEXTSTYLE
  7
Standard
  9
$CLAYER
  8
0
  9
$CELTYPE
  6
ByLayer
  9
$CECOLOR
 62
   256
  9
$CELTSCALE
 40
1.0
  9
$DISPSILH
 70
     0
  9
$DIMSCALE
 40
1.0
  9
$DIMASZ
 40
0.18
  9
$DIMEXO
 40
0.0625
  9
$DIMDLI
 40
0.38
  9
$DIMRND
 40
0.0
  9
$DIMDLE
 40
0.0
  9
$DIMEXE
 40
0.18
  9
$DIMTP
 40
0.0
  9
$DIMTM
 40
0.0
  9
$DIMTXT
 40
0.18
  9
$DIMCEN
 40
0.09
  9
$DIMTSZ
 40
0.0
  9
$DIMTOL
 70
     0
  9
$DIMLIM
 70
     0
  9
$DIMTIH
 70
     1
  9
$DIMTOH
 70
     1
  9
$DIMSE1
 70
     0
  9
$DIMSE2
 70
     0
  9
$DIMTAD
 70
     0
  9
$DIMZIN
 70
     0
  9
$DIMBLK
  1

  9
$DIMASO
 70
     1
  9
$DIMSHO
 70
     1
  9
$DIMPOST
  1

  9
$DIMAPOST
  1

  9
$DIMALT
 70
     0
  9
$DIMALTD
 70
     2
  9
$DIMALTF
 40
25.4
  9
$DIMLFAC
 40
1.0
  9
$DIMTOFL
 70
     0
  9
$DIMTVP
 40
0.0
  9
$DIMTIX
 70
     0
  9
$DIMSOXD
 70
     0
  9
$DIMSAH
 70
     0
  9
$DIMBLK1
  1

  9
$DIMBLK2
  1

  9
$DIMSTYLE
  2
Standard
  9
$DIMCLRD
 70
     0
  9
$DIMCLRE
 70
     0
  9
$DIMCLRT
 70
     0
  9
$DIMTFAC
 40
1.0
  9
$DIMGAP
 40
0.09
  9
$DIMJUST
 70
     0
  9
$DIMSD1
 70
     0
  9
$DIMSD2
 70
     0
  9
$DIMTOLJ
 70
     1
  9
$DIMTZIN
 70
     0
  9
$DIMALTZ
 70
     0
  9
$DIMALTTZ
 70
     0
  9
$DIMUPT
 70
     0
  9
$DIMDEC
 70
     4
  9
$DIMTDEC
 70
     4
  9
$DIMALTU
 70
     2
  9
$DIMALTTD
 70
     2
  9
$DIMTXSTY
  7
Standard
  9
$DIMAUNIT
 70
     0
  9
$DIMADEC
 70
     0
  9
$DIMALTRND
 40
0.0
  9
$DIMAZIN
 70
     0
  9
$DIMDSEP
 70
    46
  9
$DIMATFIT
 70
     3
  9
$DIMFRAC
 70
     0
  9
$DIMLDRBLK
  1

  9
$DIMLUNIT
 70
     2
  9
$DIMLWD
 70
    -2
  9
$DIMLWE
 70
    -2
  9
$DIMTMOVE
 70
     0
  9
$LUNITS
 70
     2
  9
$LUPREC
 70
     4
  9
$SKETCHINC
 40
0.1
  9
$FILLETRAD
 40
0.5
  9
$AUNITS
 70
     0
  9
$AUPREC
 70
     0
  9
$MENU
  1
.
  9
$ELEVATION
 40
0.0
  9
$PELEVATION
 40
0.0
  9
$THICKNESS
 40
0.0
  9
$LIMCHECK
 70
     0
  9
$CHAMFERA
 40
0.5
  9
$CHAMFERB
 40
0.5
  9
$CHAMFERC
 40
1.0
  9
$CHAMFERD
 40
0.0
  9
$SKPOLY
 70
     0
  9
$TDCREATE
 40
2459639.442071412
  9
$TDUCREATE
 40
2459639.067071412
  9
$TDUPDATE
 40
2459639.442073403
  9
$TDUUPDATE
 40
2459639.067073403
  9
$TDINDWG
 40
0.0000000116
  9
$TDUSRTIMER
 40
0.0000000116
  9
$USRTIMER
 70
     1
  9
$ANGBASE
 50
0.0
  9
$ANGDIR
 70
     0
  9
$PDMODE
 70
     0
  9
$PDSIZE
 40
0.0
  9
$PLINEWID
 40
0.0
  9
$SPLFRAME
 70
     0
  9
$SPLINETYPE
 70
     6
  9
$SPLINESEGS
 70
     8
  9
$HANDSEED
  5
163
  9
$SURFTAB1
 70
     6
  9
$SURFTAB2
 70
     6
  9
$SURFTYPE
 70
     6
  9
$SURFU
 70
     6
  9
$SURFV
 70
     6
  9
$UCSBASE
  2

  9
$UCSNAME
  2

  9
$UCSORG
 10
0.0
 20
0.0
 30
0.0
  9
$UCSXDIR
 10
1.0
 20
0.0
 30
0.0
  9
$UCSYDIR
 10
0.0
 20
1.0
 30
0.0
  9
$UCSORTHOREF
  2

  9
$UCSORTHOVIEW
 70
     0
  9
$UCSORGTOP
 10
0.0
 20
0.0
 30
0.0
  9
$UCSORGBOTTOM
 10
0.0
 20
0.0
 30
0.0
  9
$UCSORGLEFT
 10
0.0
 20
0.0
 30
0.0
  9
$UCSORGRIGHT
 10
0.0
 20
0.0
 30
0.0
  9
$UCSORGFRONT
 10
0.0
 20
0.0
 30
0.0
  9
$UCSORGBACK
 10
0.0
 20
0.0
 30
0.0
  9
$PUCSBASE
  2

  9
$PUCSNAME
  2

  9
$PUCSORG
 10
0.0
 20
0.0
 30
0.0
  9
$PUCSXDIR
 10
1.0
 20
0.0
 30
0.0
  9
$PUCSYDIR
 10
0.0
 20
1.0
 30
0.0
  9
$PUCSORTHOREF
  2

  9
$PUCSORTHOVIEW
 70
     0
  9
$PUCSORGTOP
 10
0.0
 20
0.0
 30
0.0
  9
$PUCSORGBOTTOM
 10
0.0
 20
0.0
 30
0.0
  9
$PUCSORGLEFT
 10
0.0
 20
0.0
 30
0.0
  9
$PUCSORGRIGHT
 10
0.0
 20
0.0
 30
0.0
  9
$PUCSORGFRONT
 10
0.0
 20
0.0
 30
0.0
  9
$PUCSORGBACK
 10
0.0
 20
0.0
 30
0.0
  9
$USERI1
 70
     0
  9
$USERI2
 70
     0
  9
$USERI3
 70
     0
  9
$USERI4
 70
     0
  9
$USERI5
 70
     0
  9
$USERR1
 40
18.1
  9
$USERR2
 40
0.0
  9
$USERR3
 40
0.0
  9
$USERR4
 40
0.0
  9
$USERR5
 40
0.0
  9
$WORLDVIEW
 70
     1
  9
$SHADEDGE
 70
     3
  9
$SHADEDIF
 70
    70
  9
$TILEMODE
 70
     1
  9
$MAXACTVP
 70
    64
  9
$PINSBASE
 10
0.0
 20
0.0
 30
0.0
  9
$PLIMCHECK
 70
     0
  9
$PEXTMIN
 10
1.00000000000000E+20
 20
1.00000000000000E+20
 30
1.00000000000000E+20
  9
$PEXTMAX
 10
-1.00000000000000E+20
 20
-1.00000000000000E+20
 30
-1.00000000000000E+20
  9
$PLIMMIN
 10
0.0
 20
0.0
  9
$PLIMMAX
 10
12.0
 20
9.0
  9
$UNITMODE
 70
     0
  9
$VISRETAIN
 70
     1
  9
$PLINEGEN
 70
     0
  9
$PSLTSCALE
 70
     1
  9
$TREEDEPTH
 70
  3020
  9
$CMLSTYLE
  2
Standard
  9
$CMLJUST
 70
     0
  9
$CMLSCALE
 40
1.0
  9
$PROXYGRAPHICS
 70
     1
  9
$MEASUREMENT
 70
     1
  9
$CELWEIGHT
370
    -1
  9
$ENDCAPS
280
     0
  9
$JOINSTYLE
280
     0
  9
$LWDISPLAY
290
     0
  9
$INSUNITS
 70
     4
  9
$HYPERLINKBASE
  1

  9
$STYLESHEET
  1

  9
$XEDIT
290
     1
  9
$CEPSNTYPE
380
     0
  9
$PSTYLEMODE
290
     1
  9
$FINGERPRINTGUID
  2
{61CF7FDD-C6F9-4C31-8565-2A95228FED57}
  9
$VERSIONGUID
  2
{FAEB1C32-E019-11D5-929B-00C0DF256EC4}
  9
$EXTNAMES
290
     1
  9
$PSVPSCALE
 40
0.0
  9
$OLESTARTUP
290
     0
  0
ENDSEC
  0
SECTION
  2
CLASSES
  0
CLASS
  1
ACDBDICTIONARYWDFLT
  2
AcDbDictionaryWithDefault
  3
ObjectDBX Classes
 90
        0
280
     0
281
     0
  0
CLASS
  1
VISUALSTYLE
  2
AcDbVisualStyle
  3
ObjectDBX Classes
 90
     4095
280
     0
281
     0
  0
CLASS
  1
MATERIAL
  2
AcDbMaterial
  3
ObjectDBX Classes
 90
     1153
280
     0
281
     0
  0
CLASS
  1
DICTIONARYVAR
  2
AcDbDictionaryVar
  3
ObjectDBX Classes
 90
        0
280
     0
281
     0
  0
CLASS
  1
ACDBPLACEHOLDER
  2
AcDbPlaceHolder
  3
ObjectDBX Classes
 90
        0
280
     0
281
     0
  0
CLASS
  1
LAYOUT
  2
AcDbLayout
  3
ObjectDBX Classes
 90
        0
280
     0
281
     0
  0
ENDSEC
  0
SECTION
  2
TABLES
  0
TABLE
  2
VPORT
  5
8
330
0
100
AcDbSymbolTable
 70
     1
  0
VPORT
  5
29
330
8
100
AcDbSymbolTableRecord
100
AcDbViewportTableRecord
  2
*Active
 70
     0
 10
0.0
 20
0.0
 11
1.0
 21
1.0
 12
9.63425895942453
 22
-16.44484503791199
 13
0.0
 23
0.0
 14
0.5
 24
0.5
 15
0.5
 25
0.5
 16
0.0
 26
0.0
 36
1.0
 17
0.0
 27
0.0
 37
0.0
 40
326.7
 41
1.60267857142857
 42
50.0
 43
0.0
 44
0.0
 50
0.0
 51
0.0
 71
     0
 72
   100
 73
     1
 74
     3
 75
     0
 76
     0
 77
     0
 78
     0
281
     0
 65
     1
110
0.0
120
0.0
130
0.0
111
1.0
121
0.0
131
0.0
112
0.0
122
1.0
132
0.0
 79
     0
146
0.0
  0
ENDTAB
  0
TABLE
  2
LTYPE
  5
5
330
0
100
AcDbSymbolTable
 70
     8
  0
LTYPE
  5
14
330
5
100
AcDbSymbolTableRecord
100
AcDbLinetypeTableRecord
  2
ByBlock
 70
     0
  3

 72
    65
 73
     0
 40
0.0
  0
LTYPE
  5
15
330
5
100
AcDbSymbolTableRecord
100
AcDbLinetypeTableRecord
  2
ByLayer
 70
     0
  3

 72
    65
 73
     0
 40
0.0
  0
LTYPE
  5
16
330
5
100
AcDbSymbolTableRecord
100
AcDbLinetypeTableRecord
  2
Continuous
 70
     0
  3
Solid line
 72
    65
 73
     0
 40
0.0
  0
LTYPE
  5
3F
330
5
100
AcDbSymbolTableRecord
100
AcDbLinetypeTableRecord
  2
DASHED
 70
     0
  3
Dashed
 72
    65
 73
     2
 40
15.0
 49
7.0
 74
     0
 49
-8.0
 74
     0
  0
LTYPE
  5
40
330
5
100
AcDbSymbolTableRecord
100
AcDbLinetypeTableRecord
  2
DOTTED
 70
     0
  3
Dotted
 72
    65
 73
     2
 40
1.0
 49
0.0
 74
     0
 49
-1.0
 74
     0
  0
LTYPE
  5
41
330
5
100
AcDbSymbolTableRecord
100
AcDbLinetypeTableRecord
  2
DOT_CENTER
 70
     0
  3
Dot_Center
 72
    65
 73
     4
 40
14.0
 49
12.0
 74
     0
 49
-1.0
 74
     0
 49
0.0
 74
     0
 49
-1.0
 74
     0
  0
LTYPE
  5
42
330
5
100
AcDbSymbolTableRecord
100
AcDbLinetypeTableRecord
  2
LONG_DASHED
 70
     0
  3
Long_Dashed
 72
    65
 73
     2
 40
15.0
 49
10.0
 74
     0
 49
-5.0
 74
     0
  0
LTYPE
  5
43
330
5
100
AcDbSymbolTableRecord
100
AcDbLinetypeTableRecord
  2
DASH_CENTER
 70
     0
  3
Dash_Center
 72
    65
 73
     4
 40
14.0
 49
11.0
 74
     0
 49
-1.0
 74
     0
 49
1.0
 74
     0
 49
-1.0
 74
     0
  0
LTYPE
  5
44
330
5
100
AcDbSymbolTableRecord
100
AcDbLinetypeTableRecord
  2
PHANTOM
 70
     0
  3
Phantom
 72
    65
 73
     6
 40
13.0
 49
10.0
 74
     0
 49
-1.0
 74
     0
 49
0.0
 74
     0
 49
-1.0
 74
     0
 49
0.0
 74
     0
 49
-1.0
 74
     0
  0
LTYPE
  5
45
330
5
100
AcDbSymbolTableRecord
100
AcDbLinetypeTableRecord
  2
CENTER_DASH_DASH
 70
     0
  3
Center_Dash_Dash
 72
    65
 73
     6
 40
14.0
 49
9.0
 74
     0
 49
-1.0
 74
     0
 49
1.0
 74
     0
 49
-1.0
 74
     0
 49
1.0
 74
     0
 49
-1.0
 74
     0
  0
ENDTAB
  0
TABLE
  2
LAYER
  5
2
330
0
100
AcDbSymbolTable
 70
     3
  0
LAYER
  5
10
330
2
100
AcDbSymbolTableRecord
100
AcDbLayerTableRecord
  2
0
 70
     0
 62
     7
  6
Continuous
370
    -3
390
F
  0
LAYER
  5
46
330
2
100
AcDbSymbolTableRecord
100
AcDbLayerTableRecord
  2
1
 70
     0
 62
     7
  6
Continuous
370
    -3
390
F
  0
LAYER
  5
47
330
2
100
AcDbSymbolTableRecord
100
AcDbLayerTableRecord
  2
_U_30EC_U_30A4_U_30E4_U_30FC_1
 70
     0
 62
     7
  6
Continuous
370
    -3
390
F
  0
ENDTAB
  0
TABLE
  2
STYLE
  5
3
330
0
100
AcDbSymbolTable
 70
     3
  0
STYLE
  5
11
330
3
100
AcDbSymbolTableRecord
100
AcDbTextStyleTableRecord
  2
Standard
 70
     0
 40
0.0
 41
1.0
 50
0.0
 71
     0
 42
0.2
  3
txt
  4

  0
STYLE
  5
BA
330
3
100
AcDbSymbolTableRecord
100
AcDbTextStyleTableRecord
  2
CONVERTER_11
 70
     0
 40
0.0
 41
0.89
 50
0.0
 71
     0
 42
0.2
  3
MS Mincho.ttf
  4

1001
ACAD
1000
MS Mincho
1071
    32785
  0
STYLE
  5
102
330
3
100
AcDbSymbolTableRecord
100
AcDbTextStyleTableRecord
  2
CONVERTER_12
 70
     0
 40
0.0
 41
0.9
 50
0.0
 71
     0
 42
0.2
  3
txt.shx
  4

  0
ENDTAB
  0
TABLE
  2
VIEW
  5
6
330
0
100
AcDbSymbolTable
 70
     0
  0
ENDTAB
  0
TABLE
  2
UCS
  5
7
330
0
100
AcDbSymbolTable
 70
     0
  0
ENDTAB
  0
TABLE
  2
APPID
  5
9
330
0
100
AcDbSymbolTable
 70
     1
  0
APPID
  5
12
330
9
100
AcDbSymbolTableRecord
100
AcDbRegAppTableRecord
  2
ACAD
 70
     0
  0
ENDTAB
  0
TABLE
  2
DIMSTYLE
  5
A
330
0
100
AcDbSymbolTable
 70
     4
100
AcDbDimStyleTable
  0
DIMSTYLE
105
27
330
A
100
AcDbSymbolTableRecord
100
AcDbDimStyleTableRecord
  2
Standard
 70
     0
178
     0
340
11
  0
DIMSTYLE
105
118
102
{ACAD_REACTORS
330
119
102
}
330
A
100
AcDbSymbolTableRecord
100
AcDbDimStyleTableRecord
  2
ME10_DIM_10
 70
     0
 41
3.5
 42
0.0
 44
2.0
 73
     0
 74
     0
 77
     1
 78
     8
140
3.0
147
2.0
172
     1
173
     1
174
     1
175
     1
176
     2
177
     2
271
     2
178
     7
271
     2
340
102
  0
DIMSTYLE
105
123
102
{ACAD_REACTORS
330
124
102
}
330
A
100
AcDbSymbolTableRecord
100
AcDbDimStyleTableRecord
  2
ME10_DIM_11
 70
     0
  3
{\Fgdt;n}<>
 41
3.5
 42
0.0
 44
2.0
 73
     0
 74
     0
 77
     1
 78
     8
140
3.0
147
2.0
172
     1
173
     1
174
     1
175
     1
176
     2
177
     2
271
     2
178
     7
271
     2
340
102
  0
DIMSTYLE
105
12E
102
{ACAD_REACTORS
330
12F
102
}
330
A
100
AcDbSymbolTableRecord
100
AcDbDimStyleTableRecord
  2
ME10_DIM_12
 70
     0
  3
{\Fgdt;n}<>
 41
3.5
 42
0.0
 44
2.0
 73
     0
 74
     0
 77
     1
 78
     8
140
3.0
147
2.0
172
     1
173
     1
174
     1
175
     1
176
     2
177
     2
271
     2
178
     7
271
     2
340
102
  0
ENDTAB
  0
TABLE
  2
BLOCK_RECORD
  5
1
330
0
100
AcDbSymbolTable
 70
     9
  0
BLOCK_RECORD
  5
1F
330
1
100
AcDbSymbolTableRecord
100
AcDbBlockTableRecord
  2
*Model_Space
340
22
  0
BLOCK_RECORD
  5
1B
330
1
100
AcDbSymbolTableRecord
100
AcDbBlockTableRecord
  2
*Paper_Space
340
1E
  0
BLOCK_RECORD
  5
23
330
1
100
AcDbSymbolTableRecord
100
AcDbBlockTableRecord
  2
*Paper_Space0
340
26
  0
BLOCK_RECORD
  5
48
330
1
100
AcDbSymbolTableRecord
100
AcDbBlockTableRecord
  2
開示A4
340
0
102
{BLKREFS
331
4C
102
}
  0
BLOCK_RECORD
  5
4B
330
1
100
AcDbSymbolTableRecord
100
AcDbBlockTableRecord
  2
開示A4枠
340
0
102
{BLKREFS
331
55
102
}
  0
BLOCK_RECORD
  5
4F
330
1
100
AcDbSymbolTableRecord
100
AcDbBlockTableRecord
  2
H70-90-A
340
0
102
{BLKREFS
331
56
102
}
  0
BLOCK_RECORD
  5
52
330
1
100
AcDbSymbolTableRecord
100
AcDbBlockTableRecord
  2
H70-90-25A
340
0
102
{BLKREFS
331
57
102
}
  0
BLOCK_RECORD
  5
10F
330
1
100
AcDbSymbolTableRecord
100
AcDbBlockTableRecord
  2
*D5
340
0
  0
BLOCK_RECORD
  5
11A
330
1
100
AcDbSymbolTableRecord
100
AcDbBlockTableRecord
  2
*D6
340
0
  0
BLOCK_RECORD
  5
125
330
1
100
AcDbSymbolTableRecord
100
AcDbBlockTableRecord
  2
*D7
340
0
  0
BLOCK_RECORD
  5
130
330
1
100
AcDbSymbolTableRecord
100
AcDbBlockTableRecord
  2
*D8
340
0
102
{BLKREFS
331
137
102
}
  0
ENDTAB
  0
ENDSEC
  0
SECTION
  2
BLOCKS
  0
BLOCK
  5
20
330
1F
100
AcDbEntity
  8
0
100
AcDbBlockBegin
  2
*Model_Space
 70
     0
 10
0.0
 20
0.0
 30
0.0
  3
*Model_Space
  1

  0
ENDBLK
  5
21
330
1F
100
AcDbEntity
  8
0
100
AcDbBlockEnd
  0
BLOCK
  5
1C
330
1B
100
AcDbEntity
 67
     1
  8
0
100
AcDbBlockBegin
  2
*Paper_Space
 70
     0
 10
0.0
 20
0.0
 30
0.0
  3
*Paper_Space
  1

  0
ENDBLK
  5
1D
330
1B
100
AcDbEntity
 67
     1
  8
0
100
AcDbBlockEnd
  0
BLOCK
  5
24
330
23
100
AcDbEntity
  8
0
100
AcDbBlockBegin
  2
*Paper_Space0
 70
     0
 10
0.0
 20
0.0
 30
0.0
  3
*Paper_Space0
  1

  0
ENDBLK
  5
25
330
23
100
AcDbEntity
  8
0
100
AcDbBlockEnd
  0
BLOCK
  5
49
330
48
100
AcDbEntity
  8
0
100
AcDbBlockBegin
  2
開示A4
 70
     0
 10
-95.36574104057544
 20
-164.944845037912
 30
0.0
  3
開示A4
  1

  0
POINT
  5
58
330
48
100
AcDbEntity
  8
1
 62
     4
100
AcDbPoint
 10
87.63425895942453
 20
-149.944845037912
 30
0.0
  0
POINT
  5
59
330
48
100
AcDbEntity
  8
1
 62
     4
100
AcDbPoint
 10
-1.61574104057544
 20
-147.944845037912
 30
0.0
  0
POINT
  5
5A
330
48
100
AcDbEntity
  8
1
 62
     4
100
AcDbPoint
 10
-10.11574104057544
 20
-147.944845037912
 30
0.0
  0
POINT
  5
5B
330
48
100
AcDbEntity
  8
1
 62
     4
100
AcDbPoint
 10
11.13425895942453
 20
-145.944845037912
 30
0.0
  0
POINT
  5
5C
330
48
100
AcDbEntity
  8
1
 62
     4
100
AcDbPoint
 10
11.13425895942453
 20
-152.444845037912
 30
0.0
  0
POINT
  5
5D
330
48
100
AcDbEntity
  8
1
 62
     4
100
AcDbPoint
 10
16.88425895942453
 20
-152.444845037912
 30
0.0
  0
POINT
  5
5E
330
48
100
AcDbEntity
  8
1
 62
     4
100
AcDbPoint
 10
5.38425895942453
 20
-152.444845037912
 30
0.0
  0
POINT
  5
5F
330
48
100
AcDbEntity
  8
1
 62
     4
100
AcDbPoint
 10
28.13425895942453
 20
-145.944845037912
 30
0.0
  0
POINT
  5
60
330
48
100
AcDbEntity
  8
1
 62
     4
100
AcDbPoint
 10
28.13425895942453
 20
-152.444845037912
 30
0.0
  0
POINT
  5
61
330
48
100
AcDbEntity
  8
1
 62
     4
100
AcDbPoint
 10
33.88425895942453
 20
-152.444845037912
 30
0.0
  0
POINT
  5
62
330
48
100
AcDbEntity
  8
1
 62
     4
100
AcDbPoint
 10
22.38425895942453
 20
-152.444845037912
 30
0.0
  0
POINT
  5
63
330
48
100
AcDbEntity
  8
1
 62
     4
100
AcDbPoint
 10
45.13425895942453
 20
-145.944845037912
 30
0.0
  0
POINT
  5
64
330
48
100
AcDbEntity
  8
1
 62
     4
100
AcDbPoint
 10
45.13425895942453
 20
-152.444845037912
 30
0.0
  0
POINT
  5
65
330
48
100
AcDbEntity
  8
1
 62
     4
100
AcDbPoint
 10
50.88425895942453
 20
-152.444845037912
 30
0.0
  0
POINT
  5
66
330
48
100
AcDbEntity
  8
1
 62
     4
100
AcDbPoint
 10
39.38425895942453
 20
-152.444845037912
 30
0.0
  0
POINT
  5
67
330
48
100
AcDbEntity
  8
1
 62
     4
100
AcDbPoint
 10
56.38425895942453
 20
-152.444845037912
 30
0.0
  0
POINT
  5
68
330
48
100
AcDbEntity
  8
1
 62
     4
100
AcDbPoint
 10
67.88425895942453
 20
-152.444845037912
 30
0.0
  0
POINT
  5
69
330
48
100
AcDbEntity
  8
1
 62
     4
100
AcDbPoint
 10
62.13425895942453
 20
-152.444845037912
 30
0.0
  0
POINT
  5
6A
330
48
100
AcDbEntity
  8
1
 62
     4
100
AcDbPoint
 10
-38.36574104057544
 20
-150.694845037912
 30
0.0
  0
POINT
  5
6B
330
48
100
AcDbEntity
  8
1
 62
     4
100
AcDbPoint
 10
-38.36574104057544
 20
-142.194845037912
 30
0.0
  0
POINT
  5
6C
330
48
100
AcDbEntity
  8
1
 62
     4
100
AcDbPoint
 10
-47.86574104057544
 20
117.0551549620883
 30
0.0
  0
POINT
  5
6D
330
48
100
AcDbEntity
  8
1
 62
     4
100
AcDbPoint
 10
62.13425895942453
 20
-145.944845037912
 30
0.0
  0
POINT
  5
6E
330
48
100
AcDbEntity
  8
1
 62
     4
100
AcDbPoint
 10
-38.36574104057544
 20
-148.694845037912
 30
0.0
  0
POINT
  5
6F
330
48
100
AcDbEntity
  8
1
 62
     4
100
AcDbPoint
 10
-38.36574104057544
 20
-140.194845037912
 30
0.0
  0
POINT
  5
70
330
48
100
AcDbEntity
  8
1
 62
     4
100
AcDbPoint
 10
-38.36574104057544
 20
-144.194845037912
 30
0.0
  0
POINT
  5
71
330
48
100
AcDbEntity
  8
1
 62
     4
100
AcDbPoint
 10
-38.36574104057544
 20
-152.694845037912
 30
0.0
  0
POINT
  5
72
330
48
100
AcDbEntity
  8
1
 62
     4
100
AcDbPoint
 10
-61.36574104057544
 20
-130.944845037912
 30
0.0
  0
LINE
  5
77
330
48
100
AcDbEntity
  8
1
  6
Continuous
 62
     7
100
AcDbLine
 10
9.63425895942453
 20
-154.944845037912
 30
0.0
 11
104.6342589594245
 21
-154.944845037912
 31
0.0
  0
LINE
  5
78
330
48
100
AcDbEntity
  8
1
  6
Continuous
 62
     2
100
AcDbLine
 10
9.63425895942453
 20
-154.944845037912
 30
0.0
 11
9.63425895942453
 21
-159.944845037912
 31
0.0
  0
LINE
  5
79
330
48
100
AcDbEntity
  8
1
  6
Continuous
 62
     7
100
AcDbLine
 10
104.6342589594245
 20
-16.44484503791199
 30
0.0
 11
104.6342589594245
 21
122.0551549620883
 31
0.0
  0
LINE
  5
7A
330
48
100
AcDbEntity
  8
1
  6
Continuous
 62
     2
100
AcDbLine
 10
104.6342589594245
 20
-16.44484503791199
 30
0.0
 11
109.6342589594245
 21
-16.44484503791199
 31
0.0
  0
LINE
  5
7B
330
48
100
AcDbEntity
  8
1
  6
Continuous
 62
     7
100
AcDbLine
 10
-70.36574104057544
 20
-16.44484503791199
 30
0.0
 11
-70.36574104057544
 21
122.0551549620883
 31
0.0
  0
LINE
  5
7C
330
48
100
AcDbEntity
  8
1
  6
Continuous
 62
     2
100
AcDbLine
 10
-70.36574104057544
 20
-16.44484503791199
 30
0.0
 11
-75.36574104057544
 21
-16.44484503791199
 31
0.0
  0
LINE
  5
7D
330
48
100
AcDbEntity
  8
1
  6
Continuous
 62
     7
100
AcDbLine
 10
9.63425895942453
 20
122.0551549620883
 30
0.0
 11
-70.36574104057544
 21
122.0551549620883
 31
0.0
  0
LINE
  5
7E
330
48
100
AcDbEntity
  8
1
  6
Continuous
 62
     2
100
AcDbLine
 10
9.63425895942453
 20
122.0551549620883
 30
0.0
 11
9.63425895942453
 21
127.0551549620883
 31
0.0
  0
LINE
  5
7F
330
48
100
AcDbEntity
  8
1
  6
Continuous
 62
     2
100
AcDbLine
 10
70.63425895942453
 20
-144.944845037912
 30
0.0
 11
104.6342589594245
 21
-144.944845037912
 31
0.0
  0
LINE
  5
80
330
48
100
AcDbEntity
  8
1
  6
Continuous
 62
     2
100
AcDbLine
 10
2.63425895942453
 20
-137.944845037912
 30
0.0
 11
2.63425895942453
 21
-154.944845037912
 31
0.0
  0
LINE
  5
81
330
48
100
AcDbEntity
  8
1
  6
Continuous
 62
     2
100
AcDbLine
 10
19.63425895942453
 20
-137.944845037912
 30
0.0
 11
19.63425895942453
 21
-154.944845037912
 31
0.0
  0
LINE
  5
82
330
48
100
AcDbEntity
  8
1
  6
Continuous
 62
     2
100
AcDbLine
 10
53.63425895942453
 20
-137.944845037912
 30
0.0
 11
53.63425895942453
 21
-154.944845037912
 31
0.0
  0
LINE
  5
83
330
48
100
AcDbEntity
  8
1
  6
Continuous
 62
     2
100
AcDbLine
 10
36.63425895942453
 20
-137.944845037912
 30
0.0
 11
36.63425895942453
 21
-154.944845037912
 31
0.0
  0
LINE
  5
84
330
48
100
AcDbEntity
  8
1
  6
Continuous
 62
     2
100
AcDbLine
 10
70.63425895942453
 20
-137.944845037912
 30
0.0
 11
70.63425895942453
 21
-154.944845037912
 31
0.0
  0
LINE
  5
85
330
48
100
AcDbEntity
  8
1
  6
Continuous
 62
     2
100
AcDbLine
 10
-40.36574104057544
 20
112.0551549620883
 30
0.0
 11
-70.36574104057544
 21
112.0551549620883
 31
0.0
  0
LINE
  5
86
330
48
100
AcDbEntity
  8
1
  6
Continuous
 62
     7
100
AcDbLine
 10
-70.36574104057544
 20
-154.944845037912
 30
0.0
 11
-70.36574104057544
 21
-16.44484503791199
 31
0.0
  0
LINE
  5
87
330
48
100
AcDbEntity
  8
1
  6
Continuous
 62
     2
100
AcDbLine
 10
-55.36574104057544
 20
122.0551549620883
 30
0.0
 11
-55.36574104057544
 21
112.0551549620883
 31
0.0
  0
LINE
  5
88
330
48
100
AcDbEntity
  8
1
  6
Continuous
 62
     2
100
AcDbLine
 10
-40.36574104057544
 20
122.0551549620883
 30
0.0
 11
-40.36574104057544
 21
112.0551549620883
 31
0.0
  0
LINE
  5
89
330
48
100
AcDbEntity
  8
1
  6
Continuous
 62
     2
100
AcDbLine
 10
-62.36574104057544
 20
-123.944845037912
 30
0.0
 11
-62.36574104057544
 21
-137.944845037912
 31
0.0
  0
LINE
  5
8A
330
48
100
AcDbEntity
  8
1
  6
Continuous
 62
     7
100
AcDbLine
 10
104.6342589594245
 20
-137.944845037912
 30
0.0
 11
-70.36574104057544
 21
-137.944845037912
 31
0.0
  0
LINE
  5
8B
330
48
100
AcDbEntity
  8
1
  6
Continuous
 62
     7
100
AcDbLine
 10
-70.36574104057544
 20
-123.944845037912
 30
0.0
 11
104.6342589594245
 21
-123.944845037912
 31
0.0
  0
LINE
  5
8C
330
48
100
AcDbEntity
  8
1
  6
PHANTOM
 62
     4
100
AcDbLine
 10
-95.36574104057544
 20
-164.944845037912
 30
0.0
 11
114.6342589594245
 21
-164.944845037912
 31
0.0
  0
LINE
  5
8D
330
48
100
AcDbEntity
  8
1
  6
PHANTOM
 62
     4
100
AcDbLine
 10
114.6342589594245
 20
-164.944845037912
 30
0.0
 11
114.6342589594245
 21
132.055154962088
 31
0.0
  0
LINE
  5
8E
330
48
100
AcDbEntity
  8
1
  6
PHANTOM
 62
     4
100
AcDbLine
 10
114.6342589594245
 20
132.055154962088
 30
0.0
 11
-95.36574104057544
 21
132.055154962088
 31
0.0
  0
LINE
  5
8F
330
48
100
AcDbEntity
  8
1
  6
PHANTOM
 62
     4
100
AcDbLine
 10
-95.36574104057544
 20
132.055154962088
 30
0.0
 11
-95.36574104057544
 21
-164.944845037912
 31
0.0
  0
LINE
  5
90
330
48
100
AcDbEntity
  8
1
  6
Continuous
 62
     7
100
AcDbLine
 10
-70.36574104057544
 20
-154.944845037912
 30
0.0
 11
9.63425895942453
 21
-154.944845037912
 31
0.0
  0
LINE
  5
91
330
48
100
AcDbEntity
  8
1
  6
Continuous
 62
     7
100
AcDbLine
 10
104.6342589594245
 20
-154.944845037912
 30
0.0
 11
104.6342589594245
 21
-16.44484503791199
 31
0.0
  0
LINE
  5
92
330
48
100
AcDbEntity
  8
1
  6
Continuous
 62
     7
100
AcDbLine
 10
104.6342589594245
 20
122.0551549620883
 30
0.0
 11
9.63425895942453
 21
122.0551549620883
 31
0.0
  0
LINE
  5
93
330
48
100
AcDbEntity
  8
1
  6
Continuous
 62
     2
100
AcDbLine
 10
-70.36574104057544
 20
-146.444845037912
 30
0.0
 11
-14.36574104057544
 21
-146.444845037912
 31
0.0
  0
LINE
  5
94
330
48
100
AcDbEntity
  8
1
  6
Continuous
 62
     2
100
AcDbLine
 10
-62.36574104057544
 20
-137.944845037912
 30
0.0
 11
-62.36574104057544
 21
-154.944845037912
 31
0.0
  0
LINE
  5
95
330
48
100
AcDbEntity
  8
1
  6
Continuous
 62
     7
100
AcDbLine
 10
95.63425895942453
 20
-140.244845037912
 30
0.0
 11
95.63425895942453
 21
-142.644845037912
 31
0.0
  0
LINE
  5
96
330
48
100
AcDbEntity
  8
1
  6
Continuous
 62
     7
100
AcDbLine
 10
95.63425895942453
 20
-140.244845037912
 30
0.0
 11
100.6342589594245
 21
-139.444845037912
 31
0.0
  0
LINE
  5
97
330
48
100
AcDbEntity
  8
1
  6
Continuous
 62
     7
100
AcDbLine
 10
100.6342589594245
 20
-139.444845037912
 30
0.0
 11
100.6342589594245
 21
-143.444845037912
 31
0.0
  0
LINE
  5
98
330
48
100
AcDbEntity
  8
1
  6
Continuous
 62
     7
100
AcDbLine
 10
100.6342589594245
 20
-143.444845037912
 30
0.0
 11
95.63425895942453
 21
-142.644845037912
 31
0.0
  0
LINE
  5
99
330
48
100
AcDbEntity
  8
1
  6
DOT_CENTER
 62
     2
100
AcDbLine
 10
88.63425895942453
 20
-141.444845037912
 30
0.0
 11
101.6342589594245
 21
-141.444845037912
 31
0.0
  0
LINE
  5
9A
330
48
100
AcDbEntity
  8
1
  6
DOT_CENTER
 62
     2
100
AcDbLine
 10
91.63425895942453
 20
-138.444845037912
 30
0.0
 11
91.63425895942453
 21
-144.444845037912
 31
0.0
  0
LINE
  5
9B
330
48
100
AcDbEntity
  8
1
  6
Continuous
 62
     2
100
AcDbLine
 10
-14.36574104057544
 20
-137.944845037912
 30
0.0
 11
-14.36574104057544
 21
-154.944845037912
 31
0.0
  0
CIRCLE
  5
9C
330
48
100
AcDbEntity
  8
1
  6
Continuous
 62
     7
100
AcDbCircle
 10
8.13425895942453
 20
-152.444845037912
 30
0.0
 40
0.3000000000000114
  0
CIRCLE
  5
9D
330
48
100
AcDbEntity
  8
1
  6
Continuous
 62
     7
100
AcDbCircle
 10
14.13425895942453
 20
-152.444845037912
 30
0.0
 40
0.3000000000000096
  0
CIRCLE
  5
9E
330
48
100
AcDbEntity
  8
1
  6
Continuous
 62
     7
100
AcDbCircle
 10
25.13425895942453
 20
-152.444845037912
 30
0.0
 40
0.3000000000000114
  0
CIRCLE
  5
9F
330
48
100
AcDbEntity
  8
1
  6
Continuous
 62
     7
100
AcDbCircle
 10
31.13425895942453
 20
-152.444845037912
 30
0.0
 40
0.3000000000000114
  0
CIRCLE
  5
A0
330
48
100
AcDbEntity
  8
1
  6
Continuous
 62
     7
100
AcDbCircle
 10
42.13425895942453
 20
-152.444845037912
 30
0.0
 40
0.3000000000000682
  0
CIRCLE
  5
A1
330
48
100
AcDbEntity
  8
1
  6
Continuous
 62
     7
100
AcDbCircle
 10
48.13425895942453
 20
-152.444845037912
 30
0.0
 40
0.3000000000000682
  0
CIRCLE
  5
A2
330
48
100
AcDbEntity
  8
1
  6
Continuous
 62
     7
100
AcDbCircle
 10
65.13425895942453
 20
-152.444845037912
 30
0.0
 40
0.3000000000000682
  0
CIRCLE
  5
A3
330
48
100
AcDbEntity
  8
1
  6
Continuous
 62
     7
100
AcDbCircle
 10
59.13425895942453
 20
-152.444845037912
 30
0.0
 40
0.3000000000000682
  0
CIRCLE
  5
A4
330
48
100
AcDbEntity
  8
1
  6
Continuous
 62
     7
100
AcDbCircle
 10
91.63425895942453
 20
-141.444845037912
 30
0.0
 40
1.200000000000159
  0
CIRCLE
  5
A5
330
48
100
AcDbEntity
  8
1
  6
Continuous
 62
     7
100
AcDbCircle
 10
91.63425895942453
 20
-141.444845037912
 30
0.0
 40
2.0
  0
CIRCLE
  5
A6
330
48
100
AcDbEntity
  8
1
  6
DOT_CENTER
 62
     7
100
AcDbCircle
 10
-5.86574104057544
 20
-148.944845037912
 30
0.0
 40
0.1000000000000227
  0
CIRCLE
  5
A7
330
48
100
AcDbEntity
  8
1
  6
DOT_CENTER
 62
     7
100
AcDbCircle
 10
-5.86574104057544
 20
-146.944845037912
 30
0.0
 40
0.1000000000000227
  0
SPLINE
  5
A8
102
{ACAD_REACTORS
330
C7
102
}
330
48
100
AcDbEntity
  8
_U_30EC_U_30A4_U_30E4_U_30FC_1
  6
Continuous
 62
     2
100
AcDbSpline
210
0.0
220
0.0
230
1.0
 70
     8
 71
     3
 72
    70
 73
    66
 74
    64
 42
0.000000001
 43
0.0000000001
 44
0.00000001
 40
0.0
 40
0.0
 40
0.0
 40
0.0
 40
0.0241731073021472
 40
0.0846058988987013
 40
0.1631685280352999
 40
0.2417311571789329
 40
0.3021639488292467
 40
0.3263370654895399
 40
0.3533118254248828
 40
0.4228783438921809
 40
0.5179999095313278
 40
0.6216398239466102
 40
0.716761389149967
 40
0.7863279069649863
 40
0.8133026791761765
 40
0.8372943998771468
 40
0.8945054261372688
 40
0.9627895541962873
 40
1.020000580349085
 40
1.043992300975197
 40
1.071934345522962
 40
1.113121768772943
 40
1.145225199332232
 40
1.225483775412785
 40
1.329819923771483
 40
1.434156071994353
 40
1.514414647795776
 40
1.546518078208381
 40
1.578974764260168
 40
1.662678849314092
 40
1.777131373668355
 40
1.90183337747476
 40
2.01628590050055
 40
2.099989982527903
 40
2.132446666570248
 40
2.158782354485995
 40
2.216720867907812
 40
2.274659381334262
 40
2.300995069256205
 40
2.333451754066177
 40
2.417155836543857
 40
2.531608358985297
 40
2.656310362283792
 40
2.77076288638891
 40
2.854466971340061
 40
2.886923657363882
 40
2.913597976833289
 40
2.982389642875107
 40
3.076451716947007
 40
3.17893726045857
 40
3.272999334739938
 40
3.34179100105918
 40
3.368465320663477
 40
3.396976080738726
 40
3.472140811845934
 40
3.578408190308609
 40
3.700226892456088
 40
3.822045594634263
 40
3.928312973256341
 40
4.003477705314781
 40
4.031988456866832
 40
4.058324144797615
 40
4.116262658236797
 40
4.174201171400602
 40
4.200536849608545
 40
4.200536849608545
 40
4.200536849608545
 40
4.200536849608545
 10
90.6200294555855
 20
-149.1864036839349
 30
0.0
 10
90.62808491389254
 20
-149.1864014397951
 30
0.0
 10
90.65627902574863
 20
-149.186393577584
 30
0.0
 10
90.7108124397919
 20
-149.1865374896283
 30
0.0
 10
90.78254814028487
 20
-149.185753832913
 30
0.0
 10
90.85788297313081
 20
-149.1885693332739
 30
0.0
 10
90.90556419606841
 20
-149.1818610039024
 30
0.0
 10
90.95376608398617
 20
-149.1928694009877
 30
0.0
 10
90.94051613941183
 20
-149.1393810079416
 30
0.0
 10
90.9493683558784
 20
-149.0843492024811
 30
0.0
 10
90.9451287630531
 20
-148.9906459506509
 30
0.0
 10
90.94760730755257
 20
-148.8952502157267
 30
0.0
 10
90.94335283003056
 20
-148.8012768180781
 30
0.0
 10
90.95224082600923
 20
-148.7468944135319
 30
0.0
 10
90.93895670041906
 20
-148.6925050609973
 30
0.0
 10
90.98567088713544
 20
-148.7064228745584
 30
0.0
 10
91.02858441399819
 20
-148.7038062641716
 30
0.0
 10
91.09480330509305
 20
-148.7083608134045
 30
0.0
 10
91.13559318660441
 20
-148.7170634165704
 30
0.0
 10
91.18677352850646
 20
-148.7095270390101
 30
0.0
 10
91.15963100814457
 20
-148.7513453356792
 30
0.0
 10
91.11456856499528
 20
-148.7419951171861
 30
0.0
 10
91.12846546392964
 20
-148.8064329641936
 30
0.0
 10
91.12010040258998
 20
-148.871062841638
 30
0.0
 10
91.12462217726436
 20
-148.9695536259731
 30
0.0
 10
91.11973309054127
 20
-149.0688857094862
 30
0.0
 10
91.12928485863277
 20
-149.1319138823823
 30
0.0
 10
91.11423510494457
 20
-149.1952049229141
 30
0.0
 10
91.17917490514542
 20
-149.1796943084692
 30
0.0
 10
91.24588359937422
 20
-149.1898511609338
 30
0.0
 10
91.3584025065073
 20
-149.1849570369183
 30
0.0
 10
91.47328250431995
 20
-149.1879329905841
 30
0.0
 10
91.58624615939922
 20
-149.1826283960621
 30
0.0
 10
91.65188571919234
 20
-149.193771973191
 30
0.0
 10
91.71588662852986
 20
-149.1773997147134
 30
0.0
 10
91.70457324834348
 20
-149.2272281388593
 30
0.0
 10
91.71179294657551
 20
-149.2706778857908
 30
0.0
 10
91.70457322055145
 20
-149.3141275820376
 30
0.0
 10
91.71588667702397
 20
-149.3639560859433
 30
0.0
 10
91.65188531932169
 20
-149.3475833769984
 30
0.0
 10
91.58625108347047
 20
-149.3587323212963
 30
0.0
 10
91.47325639115766
 20
-149.3533964658434
 30
0.0
 10
91.35850461428885
 20
-149.3565015812738
 30
0.0
 10
91.2455773281107
 20
-149.3511960910862
 30
0.0
 10
91.179781049783
 20
-149.3622720377161
 30
0.0
 10
91.11586875696038
 20
-149.3459690594358
 30
0.0
 10
91.12786047593718
 20
-149.4006097939546
 30
0.0
 10
91.12046942072509
 20
-149.4563020874336
 30
0.0
 10
91.12352744362289
 20
-149.5483481465063
 30
0.0
 10
91.12360123799286
 20
-149.643053939181
 30
0.0
 10
91.12029031726058
 20
-149.7353172088894
 30
0.0
 10
91.12820955841494
 20
-149.7904873505506
 30
0.0
 10
91.1157666205863
 20
-149.8442633469107
 30
0.0
 10
91.17317061458773
 20
-149.8303073492841
 30
0.0
 10
91.23372977346287
 20
-149.8397304590697
 30
0.0
 10
91.33912704493267
 20
-149.8354161786249
 30
0.0
 10
91.45468836648678
 20
-149.8364899917916
 30
0.0
 10
91.57022784720431
 20
-149.8375853789021
 30
0.0
 10
91.67567707250862
 20
-149.8332197802056
 30
0.0
 10
91.73612700660495
 20
-149.8427507776053
 30
0.0
 10
91.79354273333556
 20
-149.8286721418482
 30
0.0
 10
91.78203634709543
 20
-149.8777735052552
 30
0.0
 10
91.78801563759949
 20
-149.9191984577255
 30
0.0
 10
91.78629006450475
 20
-149.9683282582451
 30
0.0
 10
91.78640897172167
 20
-149.9963007534359
 30
0.0
 10
91.78644612860785
 20
-150.0050421559525
 30
0.0
 11
90.6200294555855
 21
-149.1864036839349
 31
0.0
 11
90.64420257225274
 21
-149.1864036839349
 31
0.0
 11
90.70463536392084
 21
-149.1864036839349
 31
0.0
 11
90.78319799308937
 21
-149.1864036839349
 31
0.0
 11
90.8617606222579
 21
-149.1864036839349
 31
0.0
 11
90.92219341392601
 21
-149.1864036839349
 31
0.0
 11
90.94636653059325
 21
-149.1864036839349
 31
0.0
 11
90.94636653059324
 21
-149.1594289117113
 31
0.0
 11
90.94636653059325
 21
-149.0898623938716
 31
0.0
 11
90.94636653059327
 21
-148.9947408286621
 31
0.0
 11
90.94636653059327
 21
-148.8911009143294
 31
0.0
 11
90.94636653059325
 21
-148.7959793491199
 31
0.0
 11
90.94636653059325
 21
-148.7264128312802
 31
0.0
 11
90.94636653059325
 21
-148.6994380590566
 31
0.0
 11
90.97029971991375
 21
-148.701112906834
 31
0.0
 11
91.02737117137033
 21
-148.7051067746108
 31
0.0
 11
91.09548871020561
 21
-148.709873649054
 31
0.0
 11
91.1525601616622
 21
-148.7138675168308
 31
0.0
 11
91.1764933509827
 21
-148.7155423646082
 31
0.0
 11
91.16175623254749
 21
-148.7392821041856
 31
0.0
 11
91.12292298442219
 21
-148.7530073645989
 31
0.0
 11
91.12292298442216
 21
-148.7851107956608
 31
0.0
 11
91.12292298442219
 21
-148.8653693733156
 31
0.0
 11
91.12292298442219
 21
-148.9697055242669
 31
0.0
 11
91.12292298442219
 21
-149.0740416752182
 31
0.0
 11
91.12292298442219
 21
-149.154300252873
 31
0.0
 11
91.12292298442219
 21
-149.1864036839349
 31
0.0
 11
91.155379670507
 21
-149.1864036839349
 31
0.0
 11
91.2390837556731
 21
-149.1864036839349
 31
0.0
 11
91.35353628028801
 21
-149.1864036839349
 31
0.0
 11
91.47823828471915
 21
-149.1864036839349
 31
0.0
 11
91.59269080933403
 21
-149.1864036839349
 31
0.0
 11
91.67639489450013
 21
-149.1864036839349
 31
0.0
 11
91.70885158058496
 21
-149.1864036839349
 31
0.0
 11
91.70885158058496
 21
-149.2127393718624
 31
0.0
 11
91.70885158058496
 21
-149.2706778853028
 31
0.0
 11
91.70885158058496
 21
-149.3286163987432
 31
0.0
 11
91.70885158058496
 21
-149.3549520866706
 31
0.0
 11
91.67639489450015
 21
-149.3549520866706
 31
0.0
 11
91.59269080933403
 21
-149.3549520866706
 31
0.0
 11
91.47823828471917
 21
-149.3549520866706
 31
0.0
 11
91.35353628028801
 21
-149.3549520866706
 31
0.0
 11
91.23908375567311
 21
-149.3549520866706
 31
0.0
 11
91.15537967050699
 21
-149.3549520866706
 31
0.0
 11
91.12292298442219
 21
-149.3549520866706
 31
0.0
 11
91.12292298442219
 21
-149.3816264063918
 31
0.0
 11
91.12292298442217
 21
-149.4504180730413
 31
0.0
 11
91.12292298442219
 21
-149.5444801478477
 31
0.0
 11
91.12292298442219
 21
-149.6469656920397
 31
0.0
 11
91.12292298442219
 21
-149.7410277668461
 31
0.0
 11
91.12292298442219
 21
-149.8098194334956
 31
0.0
 11
91.12292298442219
 21
-149.8364937532168
 31
0.0
 11
91.15143374452391
 21
-149.8364937532168
 31
0.0
 11
91.22659847570121
 21
-149.8364937532168
 31
0.0
 11
91.33286585426218
 21
-149.8364937532168
 31
0.0
 11
91.45468455651502
 21
-149.8364937532168
 31
0.0
 11
91.57650325876786
 21
-149.8364937532168
 31
0.0
 11
91.68277063732883
 21
-149.8364937532168
 31
0.0
 11
91.75793536850612
 21
-149.8364937532168
 31
0.0
 11
91.78644612860785
 21
-149.8364937532168
 31
0.0
 11
91.78644612860785
 21
-149.8628294411442
 31
0.0
 11
91.78644612860785
 21
-149.9207679545846
 31
0.0
 11
91.78644612860785
 21
-149.9787064680251
 31
0.0
 11
91.78644612860785
 21
-150.0050421559525
 31
0.0
  0
SPLINE
  5
A9
102
{ACAD_REACTORS
330
C7
102
}
330
48
100
AcDbEntity
  8
_U_30EC_U_30A4_U_30E4_U_30FC_1
  6
Continuous
 62
     2
100
AcDbSpline
210
0.0
220
0.0
230
1.0
 70
     8
 71
     3
 72
    24
 73
    20
 74
    18
 42
0.000000001
 43
0.0000000001
 44
0.00000001
 40
0.0
 40
0.0
 40
0.0
 40
0.0
 40
0.2211075008753955
 40
0.4273218586245946
 40
0.5080174679240275
 40
0.5914835907871143
 40
0.8143265690193895
 40
1.054651302686704
 40
1.295452694023282
 40
1.518109231328858
 40
1.540864321905455
 40
1.59512646062268
 40
1.659890947896008
 40
1.714153085187344
 40
1.736908174961644
 40
1.764951100735322
 40
1.801562291220897
 40
1.953914424543601
 40
2.126104167379648
 40
2.126104167379648
 40
2.126104167379648
 40
2.126104167379648
 10
90.57179591511346
 20
-149.3549520867818
 30
0.0
 10
90.54551686760573
 20
-149.4138687555682
 30
0.0
 10
90.49472884886708
 20
-149.5277336411193
 30
0.0
 10
90.44743744333572
 20
-149.800425455581
 30
0.0
 10
90.33860723968635
 20
-149.7003902121574
 30
0.0
 10
90.18573898738823
 20
-149.6736591042387
 30
0.0
 10
90.40287447754451
 20
-149.4596636877357
 30
0.0
 10
90.41810732686257
 20
-149.2415238600871
 30
0.0
 10
90.5249479086247
 20
-149.0603292472478
 30
0.0
 10
90.46479705413222
 20
-148.7757127747981
 30
0.0
 10
90.56769069896475
 20
-148.8037041456876
 30
0.0
 10
90.61225230623951
 20
-148.812412521889
 30
0.0
 10
90.67234319896414
 20
-148.8234484960784
 30
0.0
 10
90.70992091816831
 20
-148.8371698073564
 30
0.0
 10
90.75950565228511
 20
-148.8372842763097
 30
0.0
 10
90.72727485135704
 20
-148.8717791139257
 30
0.0
 10
90.6514391816127
 20
-148.8608039925323
 30
0.0
 10
90.67720367539383
 20
-149.0462553420874
 30
0.0
 10
90.63984863580959
 20
-149.1378219024161
 30
0.0
 10
90.6200294555855
 20
-149.1864036839349
 30
0.0
 11
90.57179591511346
 21
-149.3549520867818
 31
0.0
 11
90.49590609227974
 21
-149.5626279547264
 31
0.0
 11
90.40599918326785
 21
-149.7482111143501
 31
0.0
 11
90.33540835173551
 21
-149.7091123122765
 31
0.0
 11
90.25881147868967
 21
-149.6759534060348
 31
0.0
 11
90.35566165417012
 21
-149.4752570258766
 31
0.0
 11
90.43372310617167
 21
-149.2479634061417
 31
0.0
 11
90.49323065239659
 21
-149.0146306718251
 31
0.0
 11
90.53441911054716
 21
-148.7958169479215
 31
0.0
 11
90.55667734164598
 21
-148.8005461456981
 31
0.0
 11
90.60975466195852
 21
-148.811823463473
 31
0.0
 11
90.67310501200896
 21
-148.8252834879141
 31
0.0
 11
90.72618233232151
 21
-148.836560805689
 31
0.0
 11
90.74844056342033
 21
-148.8412900034656
 31
0.0
 11
90.73066867517059
 21
-148.8629825295019
 31
0.0
 11
90.69487125923166
 21
-148.8706587534583
 31
0.0
 11
90.66245428957252
 21
-149.0195221561989
 31
0.0
 11
90.6200294555855
 21
-149.1864036839349
 31
0.0
  0
SPLINE
  5
AA
102
{ACAD_REACTORS
330
C7
102
}
330
48
100
AcDbEntity
  8
_U_30EC_U_30A4_U_30E4_U_30FC_1
  6
Continuous
 62
     2
100
AcDbSpline
210
0.0
220
0.0
230
1.0
 70
     8
 71
     3
 72
    62
 73
    58
 74
    56
 42
0.000000001
 43
0.0000000001
 44
0.00000001
 40
0.0
 40
0.0
 40
0.0
 40
0.0
 40
0.0598250028308769
 40
0.2024846486897331
 40
0.3727558389221173
 40
0.5154154847936354
 40
0.5752404975785765
 40
0.9332326775487838
 40
1.290451762839517
 40
1.60207725314592
 40
1.699931634112162
 40
1.799359756425071
 40
2.270120149657153
 40
2.804661928461591
 40
2.882342287383288
 40
3.076543185719167
 40
3.329004354835625
 40
3.581465524568464
 40
3.775666424543736
 40
3.853346784558361
 40
3.899120679595149
 40
3.984129341792133
 40
4.029903236817482
 40
4.105797496059658
 40
4.295533144152607
 40
4.542189486611868
 40
4.788845828875843
 40
4.978581476410248
 40
5.054475735244488
 40
5.621734664339558
 40
6.130867242037594
 40
6.225249780948862
 40
6.318913039727573
 40
6.663579954559209
 40
7.047498900225038
 40
7.435230791575997
 40
7.498943906668394
 40
7.650875181210388
 40
7.832212509001899
 40
7.984143783697299
 40
8.047856898903426
 40
8.09155463273293
 40
8.172707566964583
 40
8.216405300768336
 40
8.289021782161207
 40
8.462184160757566
 40
8.668861838005704
 40
8.842024215264253
 40
8.914640695475462
 40
8.989881580861656
 40
9.15541152882755
 40
9.32094147774432
 40
9.396182352487552
 40
9.45470901114407
 40
9.583467660171062
 40
9.71222630901327
 40
9.770752957989766
 40
9.770752957989766
 40
9.770752957989766
 40
9.770752957989766
 10
91.78644612860785
 20
-150.0050421559525
 30
0.0
 10
91.76649377658686
 20
-150.0050362822253
 30
0.0
 10
91.69896273107112
 20
-150.0050163998504
 30
0.0
 10
91.57532017560338
 20
-150.0053514127087
 30
0.0
 10
91.42057697443013
 20
-150.0037683004069
 30
0.0
 10
91.30399390767249
 20
-150.0079842493071
 30
0.0
 10
91.08935322284856
 20
-149.9926929845957
 30
0.0
 10
91.48615380014732
 20
-150.3528578250501
 30
0.0
 10
91.52882456635129
 20
-150.5697400039404
 30
0.0
 10
91.95317517408566
 20
-150.7515944127975
 30
0.0
 10
91.77824110903197
 20
-150.8549930722313
 30
0.0
 10
91.65371135193296
 20
-151.0665298057847
 30
0.0
 10
91.40088668301883
 20
-150.5967842278965
 30
0.0
 10
91.11401924878714
 20
-149.9497298680668
 30
0.0
 10
91.12489255209061
 20
-150.2570183163651
 30
0.0
 10
91.1225482372205
 20
-150.4219588681942
 30
0.0
 10
91.12036857206571
 20
-150.6560483307951
 30
0.0
 10
91.13233639905916
 20
-150.8998643136941
 30
0.0
 10
91.10305743348762
 20
-151.0462870693021
 30
0.0
 10
91.1457112219716
 20
-151.1937101361667
 30
0.0
 10
91.05824035998846
 20
-151.1779870648497
 30
0.0
 10
91.01111172009902
 20
-151.1779020024775
 30
0.0
 10
90.92415628019579
 20
-151.1937507830829
 30
0.0
 10
90.96560636159688
 20
-151.0495673236845
 30
0.0
 10
90.93724645985303
 20
-150.9062945109274
 30
0.0
 10
90.94885633695446
 20
-150.6680955642593
 30
0.0
 10
90.94667652425173
 20
-150.4396726855085
 30
0.0
 10
90.9445700722239
 20
-150.2777877441519
 30
0.0
 10
90.95506250325691
 20
-149.9633079445746
 30
0.0
 10
90.64715528471385
 20
-150.6525503291875
 30
0.0
 10
90.3397847861701
 20
-151.1300775354816
 30
0.0
 10
90.21939566605198
 20
-150.9074339115377
 30
0.0
 10
90.0417197504967
 20
-150.7947346883564
 30
0.0
 10
90.51959159571393
 20
-150.6193636032573
 30
0.0
 10
90.5696548651453
 20
-150.3839257453917
 30
0.0
 10
90.99263892159625
 20
-149.9916151444659
 30
0.0
 10
90.76193438677859
 20
-150.0082919676214
 30
0.0
 10
90.63922754535864
 20
-150.0021498484244
 30
0.0
 10
90.46680726899072
 20
-150.0117168109163
 30
0.0
 10
90.35558142886941
 20
-149.9903568530154
 30
0.0
 10
90.23683692216936
 20
-150.0234823843378
 30
0.0
 10
90.2525759300931
 20
-149.9428060318432
 30
0.0
 10
90.25211405280075
 20
-149.8983908950034
 30
0.0
 10
90.23704714841767
 20
-149.8151742201267
 30
0.0
 10
90.37149705296886
 20
-149.8542185180732
 30
0.0
 10
90.49623451399918
 20
-149.8274477446277
 30
0.0
 10
90.69713448315255
 20
-149.8442055474715
 30
0.0
 10
90.82641305435985
 20
-149.8228027787819
 30
0.0
 10
90.967100952254
 20
-149.8561572493778
 30
0.0
 10
90.93235170468606
 20
-149.7183262800613
 30
0.0
 10
90.9564775260958
 20
-149.5952124644172
 30
0.0
 10
90.93096757766384
 20
-149.4746044812087
 30
0.0
 10
90.96758407409297
 20
-149.3394463864971
 30
0.0
 10
90.85540066220153
 20
-149.3638995800932
 30
0.0
 10
90.7622946051381
 20
-149.3517675394918
 30
0.0
 10
90.65341371740658
 20
-149.3552687372121
 30
0.0
 10
90.59122872352094
 20
-149.355027478396
 30
0.0
 10
90.57179591514915
 20
-149.3549520866706
 30
0.0
 11
91.78644612860785
 21
-150.0050421559525
 31
0.0
 11
91.72662111582272
 21
-150.0050421559525
 31
0.0
 11
91.5839614699505
 21
-150.0050421559525
 31
0.0
 11
91.41369027971588
 21
-150.0050421559525
 31
0.0
 11
91.27103063384365
 21
-150.0050421559525
 31
0.0
 11
91.21120562105853
 21
-150.0050421559525
 31
0.0
 11
91.40225503490875
 21
-150.3077937582431
 31
0.0
 11
91.6283862379875
 21
-150.5843261321452
 31
0.0
 11
91.85871157676166
 21
-150.7942325029774
 31
0.0
 11
91.78641859249495
 21
-150.8601810012248
 31
0.0
 11
91.72219539968887
 21
-150.9360844473864
 31
0.0
 11
91.40754078098031
 21
-150.5859304544184
 31
0.0
 11
91.12292298442219
 21
-150.133462086476
 31
0.0
 11
91.12292298442219
 21
-150.2111424465388
 31
0.0
 11
91.12292298442219
 21
-150.4053433466961
 31
0.0
 11
91.12292298442219
 21
-150.6578045169005
 31
0.0
 11
91.12292298442219
 21
-150.9102656871048
 31
0.0
 11
91.12292298442219
 21
-151.104466587262
 31
0.0
 11
91.12292298442219
 21
-151.1821469473249
 31
0.0
 11
91.07714908898505
 21
-151.1821469473249
 31
0.0
 11
90.99214042603039
 21
-151.1821469473249
 31
0.0
 11
90.94636653059325
 21
-151.1821469473249
 31
0.0
 11
90.94636653059325
 21
-151.1062526880846
 31
0.0
 11
90.94636653059327
 21
-150.9165170399839
 31
0.0
 11
90.94636653059325
 21
-150.6698606974529
 31
0.0
 11
90.94636653059325
 21
-150.423204354922
 31
0.0
 11
90.94636653059325
 21
-150.2334687068213
 31
0.0
 11
90.94636653059325
 21
-150.157574447581
 31
0.0
 11
90.63302159935117
 21
-150.6304355759351
 31
0.0
 11
90.26949182563936
 21
-150.9868932668182
 31
0.0
 11
90.21165170558729
 21
-150.9123105324618
 31
0.0
 11
90.14374418995862
 21
-150.8478018085196
 31
0.0
 11
90.40933114925645
 21
-150.6281228399531
 31
0.0
 11
90.65763545663064
 21
-150.335311078195
 31
0.0
 11
90.86075723995054
 21
-150.0050421559525
 31
0.0
 11
90.79704412469665
 21
-150.0050421559525
 31
0.0
 11
90.64511284986042
 21
-150.0050421559525
 31
0.0
 11
90.46377552183012
 21
-150.0050421559525
 31
0.0
 11
90.31184424699387
 21
-150.0050421559525
 31
0.0
 11
90.24813113173997
 21
-150.0050421559525
 31
0.0
 11
90.24813113173997
 21
-149.9613444219099
 31
0.0
 11
90.24813113173997
 21
-149.8801914872594
 31
0.0
 11
90.24813113173997
 21
-149.8364937532168
 31
0.0
 11
90.3207476132207
 21
-149.8364937532168
 31
0.0
 11
90.49390999213632
 21
-149.8364937532168
 31
0.0
 11
90.70058767019691
 21
-149.8364937532168
 31
0.0
 11
90.87375004911252
 21
-149.8364937532168
 31
0.0
 11
90.94636653059325
 21
-149.8364937532168
 31
0.0
 11
90.94636653059325
 21
-149.761252867819
 31
0.0
 11
90.94636653059325
 21
-149.5957229199437
 31
0.0
 11
90.94636653059325
 21
-149.4301929720685
 31
0.0
 11
90.94636653059325
 21
-149.3549520866706
 31
0.0
 11
90.88783987193011
 21
-149.3549520866706
 31
0.0
 11
90.7590812228712
 21
-149.3549520866706
 31
0.0
 11
90.6303225738123
 21
-149.3549520866706
 31
0.0
 11
90.57179591514915
 21
-149.3549520866706
 31
0.0
  0
SPLINE
  5
AB
102
{ACAD_REACTORS
330
C8
102
}
330
48
100
AcDbEntity
  8
_U_30EC_U_30A4_U_30E4_U_30FC_1
  6
Continuous
 62
     2
100
AcDbSpline
210
0.0
220
0.0
230
1.0
 70
    11
 71
     3
 72
   124
 73
   120
 74
   118
 42
0.000000001
 43
0.0000000001
 44
0.00000001
 40
0.0
 40
0.0
 40
0.0
 40
0.0
 40
0.0278187229624653
 40
0.1011590162384128
 40
0.2048470170589813
 40
0.3237088716558677
 40
0.4425707262521005
 40
0.5462587270698694
 40
0.6195990203311229
 40
0.6474177522577808
 40
0.6750060736114283
 40
0.7357003855241835
 40
0.7963946998053479
 40
0.8239830245570949
 40
0.8540933811101901
 40
0.9373396629408439
 40
1.063094687343139
 40
1.220731268637977
 40
1.399622220914652
 40
1.589140358637622
 40
1.778658496423731
 40
1.957549448940399
 40
2.115186030873006
 40
2.240941056914296
 40
2.324187341760365
 40
2.354297700109229
 40
2.381886024671744
 40
2.44258033871033
 40
2.503274652750364
 40
2.530862977314471
 40
2.56098394927841
 40
2.640393784452784
 40
2.75266286175895
 40
2.881361560117981
 40
3.010060258455057
 40
3.12232933570519
 40
3.201739170817789
 40
3.231860142753178
 40
3.264298024030198
 40
3.352343701778111
 40
3.482095226868595
 40
3.639650650172869
 40
3.811108022565336
 40
3.98256539492779
 40
4.140120818152369
 40
4.269872343141103
 40
4.357918020802161
 40
4.390355902043795
 40
4.423256253992393
 40
4.5081045300729
 40
4.624121560636667
 40
4.75052817603141
 40
4.866545206601885
 40
4.951393482691828
 40
4.984293834645244
 40
5.011450833242166
 40
5.071196230151927
 40
5.130941627057056
 40
5.158098625648692
 40
5.190998977601311
 40
5.275847253689165
 40
5.391864284256642
 40
5.518270899648173
 40
5.634287930209198
 40
5.719136206287872
 40
5.752036558235774
 40
5.782130946282792
 40
5.862783906228999
 40
5.979550131774858
 40
6.117984316640276
 40
6.263641154587817
 40
6.402075339414041
 40
6.518841564907832
 40
6.599494524815413
 40
6.629588912848647
 40
6.654403028226222
 40
6.71357514948795
 40
6.784199939329269
 40
6.843372060493341
 40
6.868186175802559
 40
6.896246243201634
 40
6.939586233757972
 40
6.967846564564575
 40
7.043584251089521
 40
7.153234334451406
 40
7.283231855734123
 40
7.420011856035125
 40
7.550009376579504
 40
7.659659458834903
 40
7.735397144416873
 40
7.763657474851038
 40
7.796409728010695
 40
7.880876065095969
 40
7.996370852465341
 40
8.122208446418222
 40
8.237703224798858
 40
8.322169562010581
 40
8.354921815205538
 40
8.382078813307325
 40
8.44182420920661
 40
8.501569605239789
 40
8.528726603485362
 40
8.561478856695397
 40
8.645945193877461
 40
8.761439980865001
 40
8.887277580764144
 40
9.00277236200065
 40
9.087238696660842
 40
9.119990949235325
 40
9.152428830613042
 40
9.240474508638238
 40
9.370226034149193
 40
9.527781457984071
 40
9.69923883098104
 40
9.870696203978236
 40
10.02825162781365
 40
10.15800315332526
 40
10.2460488313508
 40
10.27848670378483
 40
10.27848670378483
 40
10.27848670378483
 40
10.27848670378483
 10
100.0164417158629
 20
-150.9307398640544
 30
0.0
 10
100.0257144331769
 20
-150.9307400527993
 30
0.0
 10
100.0594334131106
 20
-150.9307407291448
 30
0.0
 10
100.1277296406711
 20
-150.9307269654789
 30
0.0
 10
100.2262731305825
 20
-150.9308127957166
 30
0.0
 10
100.3404656059057
 20
-150.9304274817895
 30
0.0
 10
100.4528484011316
 20
-150.9318366789365
 30
0.0
 10
100.5556966194363
 20
-150.9276538636895
 30
0.0
 10
100.6149429469094
 20
-150.9366141453922
 30
0.0
 10
100.6713855531278
 20
-150.9232006926514
 30
0.0
 10
100.6588845181199
 20
-150.9739730517784
 30
0.0
 10
100.6672139229948
 20
-151.0189518285213
 30
0.0
 10
100.6590760435365
 20
-151.0642775080071
 30
0.0
 10
100.6713118808702
 20
-151.1155257138273
 30
0.0
 10
100.6090363084578
 20
-151.1003654842592
 30
0.0
 10
100.5403102621113
 20
-151.1112475308045
 30
0.0
 10
100.4125346343836
 20
-151.1057319904323
 30
0.0
 10
100.2605574105888
 20
-151.107836525375
 30
0.0
 10
100.0845285566768
 20
-151.1071350120272
 30
0.0
 10
99.89870215285322
 20
-151.107392662599
 30
0.0
 10
99.71287570314205
 20
-151.1071349864659
 30
0.0
 10
99.53684697364136
 20
-151.1078366194347
 30
0.0
 10
99.38486937484396
 20
-151.1057317156121
 30
0.0
 10
99.25709472588
 20
-151.1112482302356
 30
0.0
 10
99.1883667430826
 20
-151.1003642666525
 30
0.0
 10
99.12609386371284
 20
-151.1155271710699
 30
0.0
 10
99.1383205884263
 20
-151.0642699298603
 30
0.0
 10
99.13025940568419
 20
-151.0190203051877
 30
0.0
 10
99.13832654041383
 20
-150.9737814583587
 30
0.0
 10
99.12608280813285
 20
-150.9225032688124
 30
0.0
 10
99.18676067149435
 20
-150.9373492642807
 30
0.0
 10
99.2505400339981
 20
-150.9272805562046
 30
0.0
 10
99.3619903947748
 20
-150.931898595792
 30
0.0
 10
99.48401230380685
 20
-150.9307117488573
 30
0.0
 10
99.60621277320689
 20
-150.9296863989056
 30
0.0
 10
99.71723838816376
 20
-150.933920281678
 30
0.0
 10
99.78191070082032
 20
-150.9246591926946
 30
0.0
 10
99.84337524047467
 20
-150.9388008074151
 30
0.0
 10
99.82726551955822
 20
-150.8724897590668
 30
0.0
 10
99.83855699216036
 20
-150.8003671366922
 30
0.0
 10
99.83299904168061
 20
-150.6697074290291
 30
0.0
 10
99.83506246559354
 20
-150.5187718008296
 30
0.0
 10
99.83427567215398
 20
-150.3514863068331
 30
0.0
 10
99.83504348098725
 20
-150.184233934589
 30
0.0
 10
99.83306283798733
 20
-150.0332121452128
 30
0.0
 10
99.83838957508661
 20
-149.9027843423821
 30
0.0
 10
99.827569098267
 20
-149.8301906118531
 30
0.0
 10
99.84329160241208
 20
-149.763340343544
 30
0.0
 10
99.77752977267359
 20
-149.7790399130039
 30
0.0
 10
99.70989574250089
 20
-149.768752607072
 30
0.0
 10
99.5958474888055
 20
-149.7737071694408
 30
0.0
 10
99.4793832269148
 20
-149.7707037576073
 30
0.0
 10
99.36491437157224
 20
-149.7760420064781
 30
0.0
 10
99.29829142520578
 20
-149.7648323571638
 30
0.0
 10
99.23333593094307
 20
-149.7813537112619
 30
0.0
 10
99.24505793529536
 20
-149.7301078331415
 30
0.0
 10
99.23754197833652
 20
-149.685341700071
 30
0.0
 10
99.24505794730814
 20
-149.6405755889324
 30
0.0
 10
99.2333359099592
 20
-149.5893296766146
 30
0.0
 10
99.29829159334454
 20
-149.6058512202438
 30
0.0
 10
99.36491229340663
 20
-149.5946393241726
 30
0.0
 10
99.47939424523085
 20
-149.5999906708053
 30
0.0
 10
99.5958044031208
 20
-149.5969331502008
 30
0.0
 10
99.71002497688866
 20
-149.602060047805
 30
0.0
 10
99.77727400334713
 20
-149.5913877043559
 30
0.0
 10
99.84259155356841
 20
-149.6074242112213
 30
0.0
 10
99.82839810427963
 20
-149.5453481804114
 30
0.0
 10
99.83786490572412
 20
-149.4789774216244
 30
0.0
 10
99.83328585983305
 20
-149.3624453104923
 30
0.0
 10
99.83502861501931
 20
-149.2305781876882
 30
0.0
 10
99.83401410896373
 20
-149.0886854364092
 30
0.0
 10
99.83597809386174
 20
-148.9571545308862
 30
0.0
 10
99.83072581480965
 20
-148.839599265082
 30
0.0
 10
99.84159983577196
 20
-148.7753671478961
 30
0.0
 10
99.82621262360992
 20
-148.7137570124615
 30
0.0
 10
99.87501811320456
 20
-148.7278209640908
 30
0.0
 10
99.9196585158971
 20
-148.7252976171589
 30
0.0
 10
99.98812335409875
 20
-148.729717063895
 30
0.0
 10
100.0301695763347
 20
-148.7387147824716
 30
0.0
 10
100.083013435302
 20
-148.7307278892469
 30
0.0
 10
100.0549624596259
 20
-148.7737058617953
 30
0.0
 10
100.009173184284
 20
-148.7622495174737
 30
0.0
 10
100.021212866751
 20
-148.8231098378606
 30
0.0
 10
100.0138675664888
 20
-148.8871520432243
 30
0.0
 10
100.0173785420407
 20
-148.995751349273
 30
0.0
 10
100.016239635442
 20
-149.1199018464645
 30
0.0
 10
100.0161764374508
 20
-149.2529478396132
 30
0.0
 10
100.0175462561113
 20
-149.3768712254164
 30
0.0
 10
100.0134228395559
 20
-149.4861616594187
 30
0.0
 10
100.022035269781
 20
-149.5487592369703
 30
0.0
 10
100.0089347048648
 20
-149.6074437049484
 30
0.0
 10
100.0736473922444
 20
-149.5912238998029
 30
0.0
 10
100.1402995547402
 20
-149.6021424340789
 30
0.0
 10
100.2541369135348
 20
-149.5969076361745
 30
0.0
 10
100.3699848716342
 20
-149.5999895627428
 30
0.0
 10
100.4839513857526
 20
-149.5946624397869
 30
0.0
 10
100.5502930612345
 20
-149.6058029562465
 30
0.0
 10
100.6149778119726
 20
-149.5893752419802
 30
0.0
 10
100.6032410366968
 20
-149.6405857858115
 30
0.0
 10
100.6107757657286
 20
-149.685341696702
 30
0.0
 10
100.6032410586503
 20
-149.7300976478117
 30
0.0
 10
100.6149777734983
 20
-149.7813081292016
 30
0.0
 10
100.5502933669498
 20
-149.7648807599697
 30
0.0
 10
100.4839476025071
 20
-149.7760171934393
 30
0.0
 10
100.3700049081258
 20
-149.7707138789808
 30
0.0
 10
100.2540585217301
 20
-149.7736973919766
 30
0.0
 10
100.1405346476368
 20
-149.768776115228
 30
0.0
 10
100.073182091305
 20
-149.7789941627768
 30
0.0
 10
100.0076874716741
 20
-149.7633850765238
 30
0.0
 10
100.0234303213464
 20
-149.8302065196379
 30
0.0
 10
100.0125865592459
 20
-149.9027744597532
 30
0.0
 10
100.0179171224038
 20
-150.0332225617678
 30
0.0
 10
100.0159725746101
 20
-150.1841994560598
 30
0.0
 10
100.016572327746
 20
-150.3516225985704
 30
0.0
 10
100.016409615385
 20
-150.5182832767283
 30
0.0
 10
100.0164485082381
 20
-150.6712436086956
 30
0.0
 10
100.0164406007345
 20
-150.7963532480549
 30
0.0
 10
100.0164417976991
 20
-150.8797661279978
 30
0.0
 10
100.0164417310454
 20
-150.9199272550921
 30
0.0
 10
100.0164417158629
 20
-150.9307398640544
 30
0.0
 11
100.0164417158629
 21
-150.9307398640544
 31
0.0
 11
100.0442604477921
 21
-150.9307398640544
 31
0.0
 11
100.1176007410599
 21
-150.9307398640544
 31
0.0
 11
100.2212887418868
 21
-150.9307398640544
 31
0.0
 11
100.3401505964932
 21
-150.9307398640544
 31
0.0
 11
100.4590124510996
 21
-150.9307398640544
 31
0.0
 11
100.5627004519265
 21
-150.9307398640544
 31
0.0
 11
100.6360407451943
 21
-150.9307398640544
 31
0.0
 11
100.6638594771235
 21
-150.9307398640544
 31
0.0
 11
100.6638594771235
 21
-150.9583281887003
 31
0.0
 11
100.6638594771235
 21
-151.0190225029212
 31
0.0
 11
100.6638594771235
 21
-151.0797168171421
 31
0.0
 11
100.6638594771235
 21
-151.107305141788
 31
0.0
 11
100.6337491187739
 21
-151.107305141788
 31
0.0
 11
100.550502833925
 21
-151.107305141788
 31
0.0
 11
100.4247478078766
 21
-151.107305141788
 31
0.0
 11
100.2671112259286
 21
-151.107305141788
 31
0.0
 11
100.0882202733809
 21
-151.107305141788
 31
0.0
 11
99.89870213553337
 21
-151.107305141788
 31
0.0
 11
99.70918399768583
 21
-151.107305141788
 31
0.0
 11
99.53029304513814
 21
-151.107305141788
 31
0.0
 11
99.37265646319017
 21
-151.107305141788
 31
0.0
 11
99.24690143714179
 21
-151.107305141788
 31
0.0
 11
99.16365515229286
 21
-151.107305141788
 31
0.0
 11
99.13354479394326
 21
-151.107305141788
 31
0.0
 11
99.13354479394326
 21
-151.0797168171421
 31
0.0
 11
99.13354479394326
 21
-151.0190225029212
 31
0.0
 11
99.13354479394326
 21
-150.9583281887003
 31
0.0
 11
99.13354479394326
 21
-150.9307398640544
 31
0.0
 11
99.16366576591922
 21
-150.9307398640544
 31
0.0
 11
99.24307560112858
 21
-150.9307398640544
 31
0.0
 11
99.35534467849354
 21
-150.9307398640544
 31
0.0
 11
99.48404337693631
 21
-150.9307398640544
 31
0.0
 11
99.61274207537909
 21
-150.9307398640544
 31
0.0
 11
99.72501115274403
 21
-150.9307398640544
 31
0.0
 11
99.80442098795339
 21
-150.9307398640544
 31
0.0
 11
99.83454195992937
 21
-150.9307398640544
 31
0.0
 11
99.83454195992935
 21
-150.8983019826736
 31
0.0
 11
99.83454195992937
 21
-150.8102563046401
 31
0.0
 11
99.83454195992937
 21
-150.680504779117
 31
0.0
 11
99.83454195992937
 21
-150.5229493552675
 31
0.0
 11
99.83454195992937
 21
-150.3514919822547
 31
0.0
 11
99.83454195992937
 21
-150.1800346092421
 31
0.0
 11
99.83454195992937
 21
-150.0224791853926
 31
0.0
 11
99.83454195992937
 21
-149.8927276598694
 31
0.0
 11
99.83454195992937
 21
-149.8046819818359
 31
0.0
 11
99.83454195992937
 21
-149.7722441004551
 31
0.0
 11
99.8016416079774
 21
-149.7722441004551
 31
0.0
 11
99.71679333189078
 21
-149.7722441004551
 31
0.0
 11
99.60077630132335
 21
-149.7722441004551
 31
0.0
 11
99.47436968592898
 21
-149.7722441004551
 31
0.0
 11
99.35835265536154
 21
-149.7722441004551
 31
0.0
 11
99.2735043792749
 21
-149.7722441004551
 31
0.0
 11
99.24060402732295
 21
-149.7722441004551
 31
0.0
 11
99.24060402732295
 21
-149.745087101764
 31
0.0
 11
99.24060402732295
 21
-149.6853417046435
 31
0.0
 11
99.24060402732295
 21
-149.625596307523
 31
0.0
 11
99.24060402732295
 21
-149.5984393088319
 31
0.0
 11
99.27350437927488
 21
-149.5984393088319
 31
0.0
 11
99.35835265536153
 21
-149.5984393088319
 31
0.0
 11
99.47436968592898
 21
-149.5984393088319
 31
0.0
 11
99.60077630132335
 21
-149.5984393088319
 31
0.0
 11
99.71679333189077
 21
-149.5984393088319
 31
0.0
 11
99.8016416079774
 21
-149.5984393088319
 31
0.0
 11
99.83454195992937
 21
-149.5984393088319
 31
0.0
 11
99.83454195992935
 21
-149.5683449205983
 31
0.0
 11
99.83454195992937
 21
-149.4876919601323
 31
0.0
 11
99.83454195992937
 21
-149.3709257337859
 31
0.0
 11
99.83454195992935
 21
-149.2324915479113
 31
0.0
 11
99.83454195992937
 21
-149.0868347088607
 31
0.0
 11
99.83454195992937
 21
-148.9484005229862
 31
0.0
 11
99.83454195992937
 21
-148.8316342966398
 31
0.0
 11
99.83454195992937
 21
-148.7509813361738
 31
0.0
 11
99.83454195992937
 21
-148.7208869479402
 31
0.0
 11
99.85929948828635
 21
-148.7225617957175
 31
0.0
 11
99.91833667129146
 21
-148.7265556634943
 31
0.0
 11
99.98880040584592
 21
-148.7313225379376
 31
0.0
 11
100.047837588851
 21
-148.7353164057143
 31
0.0
 11
100.072595117208
 21
-148.7369912534917
 31
0.0
 11
100.0575656818275
 21
-148.7606868958469
 31
0.0
 11
100.0164417158629
 21
-148.774368059038
 31
0.0
 11
100.0164417158629
 21
-148.8026283899637
 31
0.0
 11
100.0164417158629
 21
-148.8783660768446
 31
0.0
 11
100.0164417158629
 21
-148.9880161608365
 31
0.0
 11
100.0164417158629
 21
-149.1180136830947
 31
0.0
 11
100.0164417158629
 21
-149.2547936847752
 31
0.0
 11
100.0164417158629
 21
-149.3847912070335
 31
0.0
 11
100.0164417158629
 21
-149.4944412910253
 31
0.0
 11
100.0164417158629
 21
-149.5701789779062
 31
0.0
 11
100.0164417158629
 21
-149.5984393088319
 31
0.0
 11
100.0491939690361
 21
-149.5984393088319
 31
0.0
 11
100.1336603061668
 21
-149.5984393088319
 31
0.0
 11
100.2491550936722
 21
-149.5984393088319
 31
0.0
 11
100.3749926979691
 21
-149.5984393088319
 31
0.0
 11
100.4904874854744
 21
-149.5984393088319
 31
0.0
 11
100.5749538226052
 21
-149.5984393088319
 31
0.0
 11
100.6077060757784
 21
-149.5984393088319
 31
0.0
 11
100.6077060757784
 21
-149.625596307523
 31
0.0
 11
100.6077060757784
 21
-149.6853417046435
 31
0.0
 11
100.6077060757784
 21
-149.745087101764
 31
0.0
 11
100.6077060757784
 21
-149.7722441004551
 31
0.0
 11
100.5749538226052
 21
-149.7722441004551
 31
0.0
 11
100.4904874854744
 21
-149.7722441004551
 31
0.0
 11
100.3749926979691
 21
-149.7722441004551
 31
0.0
 11
100.2491550936722
 21
-149.7722441004551
 31
0.0
 11
100.1336603061668
 21
-149.7722441004551
 31
0.0
 11
100.0491939690361
 21
-149.7722441004551
 31
0.0
 11
100.0164417158629
 21
-149.7722441004551
 31
0.0
 11
100.0164417158629
 21
-149.8046819818359
 31
0.0
 11
100.0164417158629
 21
-149.8927276598694
 31
0.0
 11
100.0164417158629
 21
-150.0224791853926
 31
0.0
 11
100.0164417158629
 21
-150.1800346092421
 31
0.0
 11
100.0164417158629
 21
-150.3514919822547
 31
0.0
 11
100.0164417158629
 21
-150.5229493552675
 31
0.0
 11
100.0164417158629
 21
-150.680504779117
 31
0.0
 11
100.0164417158629
 21
-150.8102563046401
 31
0.0
 11
100.0164417158629
 21
-150.8983019826736
 31
0.0
 11
100.0164417158629
 21
-150.9307398640544
 31
0.0
  0
SPLINE
  5
AC
102
{ACAD_REACTORS
330
C9
102
}
330
48
100
AcDbEntity
  8
_U_30EC_U_30A4_U_30E4_U_30FC_1
  6
Continuous
 62
     2
100
AcDbSpline
210
0.0
220
0.0
230
1.0
 70
    11
 71
     3
 72
   131
 73
   127
 74
   125
 42
0.000000001
 43
0.0000000001
 44
0.00000001
 40
0.0
 40
0.0
 40
0.0
 40
0.0
 40
0.0195577029826117
 40
0.042649053746195
 40
0.2863607575856979
 40
0.534494843618996
 40
0.7842238845573405
 40
0.873731578946757
 40
0.9803832810312868
 40
1.092842274517057
 40
1.199761146656784
 40
1.289788768186543
 40
1.351573580786243
 40
1.370727117561485
 40
1.416400936017898
 40
1.470914848356009
 40
1.516588666791815
 40
1.535742203552893
 40
1.634216592293257
 40
1.760283341175066
 40
1.897966686682171
 40
2.031216387368984
 40
2.049689751137988
 40
2.101115601646894
 40
2.179502577740051
 40
2.278859318314131
 40
2.393194462258789
 40
2.516516648383954
 40
2.642834515406049
 40
2.766156701983574
 40
2.880491846754678
 40
2.979848588358761
 40
3.058235565443921
 40
3.109661416669054
 40
3.128134780704256
 40
3.146783742386615
 40
3.191254343315462
 40
3.244332157316121
 40
3.28880275822601
 40
3.307451719895267
 40
3.327717853844872
 40
3.383747753580236
 40
3.468388665924619
 40
3.574487837698952
 40
3.694892515729078
 40
3.822449946852215
 40
3.950007377920612
 40
4.0704120558007
 40
4.176511227368236
 40
4.261152139501702
 40
4.317182039076881
 40
4.337448172964811
 40
4.620011002696433
 40
4.885096638397664
 40
4.945373043518466
 40
5.014107710488814
 40
5.07048172765224
 40
5.319246955636741
 40
5.584812164506214
 40
5.859000912057057
 40
6.133746937542255
 40
6.401732212969092
 40
6.420736683995683
 40
6.472845717451305
 40
6.550702743894275
 40
6.64695119387447
 40
6.754234497930794
 40
6.8651960865876
 40
6.972479390358073
 40
7.068727839772192
 40
7.146584865451215
 40
7.198693898189445
 40
7.2176983689056
 40
7.234950401631108
 40
7.276089864270132
 40
7.325191803516232
 40
7.366331266090624
 40
7.383583298769976
 40
7.402779163492353
 40
7.45338644325477
 40
7.524934666445786
 40
7.606953361406111
 40
7.688972056429249
 40
7.760520279784485
 40
7.811127559734741
 40
7.830323424546377
 40
7.847844055299985
 40
7.894799345667023
 40
7.962779392744691
 40
8.043374293560758
 40
8.12817414514967
 40
8.208769044817442
 40
8.276749090377136
 40
8.323704379669719
 40
8.341225010056432
 40
8.35849761480061
 40
8.4016791266868
 40
8.457815092185857
 40
8.513951057728292
 40
8.557132569708218
 40
8.574405174505303
 40
8.602340668616677
 40
8.643455660540212
 40
8.663225271966866
 40
8.715345156564524
 40
8.78903188962883
 40
8.873502045520553
 40
8.957972194324185
 40
9.031658925568053
 40
9.083778811234737
 40
9.10354842300319
 40
9.11955008312377
 40
9.160817522380043
 40
9.217244429110394
 40
9.27872449164488
 40
9.335151398295679
 40
9.37641883735796
 40
9.392420497300748
 40
9.401196302734997
 40
9.417494229384472
 40
9.42627002774974
 40
9.44087507547776
 40
9.475702496998961
 40
9.51727070986612
 40
9.552098131994283
 40
9.566703169884505
 40
9.566703169884505
 40
9.566703169884505
 40
9.566703169884505
 10
99.25128437427247
 20
-149.2746863228017
 30
0.0
 10
99.24769346876164
 20
-149.2803081308903
 30
0.0
 10
99.23986287178703
 20
-149.2925674937209
 30
0.0
 10
99.14725585687921
 20
-149.328825877502
 30
0.0
 10
99.12302118274923
 20
-149.5433605957849
 30
0.0
 10
99.02012994401838
 20
-149.7228721928149
 30
0.0
 10
98.75630819585507
 20
-149.9086892999305
 30
0.0
 10
98.91880611634255
 20
-149.9852516722512
 30
0.0
 10
98.99498153550843
 20
-150.0462781059576
 30
0.0
 10
99.08347606670033
 20
-150.1096869924644
 30
0.0
 10
99.1732519827356
 20
-150.1695886957164
 30
0.0
 10
99.22264072302912
 20
-150.2238234894199
 30
0.0
 10
99.3088297751627
 20
-150.2519826324937
 30
0.0
 10
99.27538502684746
 20
-150.2877119413839
 30
0.0
 10
99.25572607605564
 20
-150.319341157993
 30
0.0
 10
99.22624778121272
 20
-150.3600863099513
 30
0.0
 10
99.20315790402768
 20
-150.3897984030156
 30
0.0
 10
99.17227955626012
 20
-150.4427308112271
 30
0.0
 10
99.10717829599864
 20
-150.317441688523
 30
0.0
 10
99.01385897166608
 20
-150.2627060355726
 30
0.0
 10
98.92932258793846
 20
-150.2056807985185
 30
0.0
 10
98.80650877199866
 20
-150.0480921636368
 30
0.0
 10
98.81070404415473
 20
-150.1244869702436
 30
0.0
 10
98.80940682469229
 20
-150.171232236299
 30
0.0
 10
98.81007160423222
 20
-150.248997179786
 30
0.0
 10
98.8098139581202
 20
-150.3458243546677
 30
0.0
 10
98.80990208341669
 20
-150.4583422471239
 30
0.0
 10
98.8098666896526
 20
-150.579604178455
 30
0.0
 10
98.80991013525245
 20
-150.7039760593224
 30
0.0
 10
98.80977895366506
 20
-150.8251682015986
 30
0.0
 10
98.81020671562922
 20
-150.9379335487146
 30
0.0
 10
98.80892677965556
 20
-151.0340159002246
 30
0.0
 10
98.81223494452888
 20
-151.113706773225
 30
0.0
 10
98.80577873343323
 20
-151.1566932800241
 30
0.0
 10
98.81487982998014
 20
-151.1952907141916
 30
0.0
 10
98.77904999341803
 20
-151.1867361606713
 30
0.0
 10
98.74578134094973
 20
-151.1914198380576
 30
0.0
 10
98.6947152170286
 20
-151.1913320503142
 30
0.0
 10
98.6612313567058
 20
-151.1869007350738
 30
0.0
 10
98.62501750029993
 20
-151.1952370994869
 30
0.0
 10
98.63523721629105
 20
-151.1533922661191
 30
0.0
 10
98.62790774820184
 20
-151.1070594297103
 30
0.0
 10
98.63162227303481
 20
-151.0210967268519
 30
0.0
 10
98.63020701491406
 20
-150.9187936108635
 30
0.0
 10
98.63066951488837
 20
-150.8003127985969
 30
0.0
 10
98.63053632804754
 20
-150.6752682063784
 30
0.0
 10
98.63056055042904
 20
-150.5500867568415
 30
0.0
 10
98.63059445197965
 20
-150.4319785841214
 30
0.0
 10
98.63046498873771
 20
-150.3285575508168
 30
0.0
 10
98.63080971433257
 20
-150.2455246763753
 30
0.0
 10
98.63012878729354
 20
-150.1934113526995
 30
0.0
 10
98.63371761948676
 20
-150.0657159596985
 30
0.0
 10
98.41687609806819
 20
-150.3643578697157
 30
0.0
 10
98.23639445161967
 20
-150.5922052227968
 30
0.0
 10
98.18329118898568
 20
-150.4511106050138
 30
0.0
 10
98.15430187273941
 20
-150.4015873623026
 30
0.0
 10
98.05392376570663
 20
-150.2984272400109
 30
0.0
 10
98.37477173175056
 20
-150.2178946876741
 30
0.0
 10
98.50324865996748
 20
-150.0341822075476
 30
0.0
 10
98.72490439196046
 20
-149.8255250801944
 30
0.0
 10
98.81128144883131
 20
-149.6514529256285
 30
0.0
 10
99.08919838233209
 20
-149.375174524487
 30
0.0
 10
98.96888374335298
 20
-149.3794994424008
 30
0.0
 10
98.92057869455951
 20
-149.3786964758864
 30
0.0
 10
98.84449670491502
 20
-149.3790992164461
 30
0.0
 10
98.7509599603996
 20
-149.3789422817958
 30
0.0
 10
98.64601843828021
 20
-149.3790200121497
 30
0.0
 10
98.53764773329634
 20
-149.3788903941264
 30
0.0
 10
98.43240438301424
 20
-149.379301103005
 30
0.0
 10
98.3398827413658
 20
-149.3780243011961
 30
0.0
 10
98.26107203949533
 20
-149.3814373725635
 30
0.0
 10
98.21822641596248
 20
-149.3746115375487
 30
0.0
 10
98.17920891807609
 20
-149.3841943959007
 30
0.0
 10
98.18689548661096
 20
-149.3506372422565
 30
0.0
 10
98.18280539985572
 20
-149.3196095346897
 30
0.0
 10
98.18281209630592
 20
-149.2724797452029
 30
0.0
 10
98.1868829319157
 20
-149.2414356214442
 30
0.0
 10
98.1792085168828
 20
-149.2078264215529
 30
0.0
 10
98.217740899974
 20
-149.2173609337033
 30
0.0
 10
98.25838176087248
 20
-149.2108706829313
 30
0.0
 10
98.3294061444709
 20
-149.2138435314095
 30
0.0
 10
98.40719077438789
 20
-149.2130974239204
 30
0.0
 10
98.48498818407195
 20
-149.2123668974667
 30
0.0
 10
98.55598216841526
 20
-149.2153026827704
 30
0.0
 10
98.59668693860651
 20
-149.2088903501825
 30
0.0
 10
98.63524430841548
 20
-149.218339796152
 30
0.0
 10
98.62699323491724
 20
-149.1821981163241
 30
0.0
 10
98.63249362636043
 20
-149.1435466617798
 30
0.0
 10
98.62983438004075
 20
-149.0757097522936
 30
0.0
 10
98.63084050657787
 20
-148.9989286225246
 30
0.0
 10
98.63027676125648
 20
-148.9163511020844
 30
0.0
 10
98.63133041208368
 20
-148.8396717456132
 30
0.0
 10
98.62852654573751
 20
-148.771525130145
 30
0.0
 10
98.6343292315549
 20
-148.7335210398185
 30
0.0
 10
98.62582441454038
 20
-148.6972605571356
 30
0.0
 10
98.659819982737
 20
-148.7072878001935
 30
0.0
 10
98.69371652773444
 20
-148.7041123697749
 30
0.0
 10
98.74692586545915
 20
-148.7097553815059
 30
0.0
 10
98.80033581687287
 20
-148.7104972935478
 30
0.0
 10
98.83385042437354
 20
-148.7166528030822
 30
0.0
 10
98.87306757772849
 20
-148.7113847401761
 30
0.0
 10
98.84628532927375
 20
-148.7523112299772
 30
0.0
 10
98.80507005959691
 20
-148.7411329925309
 30
0.0
 10
98.81252311351192
 20
-148.7861744759907
 30
0.0
 10
98.80848175464297
 20
-148.8307222576306
 30
0.0
 10
98.81043036438855
 20
-148.9026093116949
 30
0.0
 10
98.80949544440043
 20
-148.9831587320243
 30
0.0
 10
98.81076967842753
 20
-149.063105083862
 30
0.0
 10
98.80746333881095
 20
-149.1364266670801
 30
0.0
 10
98.81446957742058
 20
-149.1779586078863
 30
0.0
 10
98.80440299743711
 20
-149.2173208522308
 30
0.0
 10
98.83724043981665
 20
-149.2101644036021
 30
0.0
 10
98.87071668907262
 20
-149.2145726065325
 30
0.0
 10
98.92576430702641
 20
-149.212665604433
 30
0.0
 10
98.98320921895603
 20
-149.2129913738391
 30
0.0
 10
99.03656158425551
 20
-149.2137819505812
 30
0.0
 10
99.07411304908844
 20
-149.2117054467312
 30
0.0
 10
99.09657621174824
 20
-149.2146216562409
 30
0.0
 10
99.10942676679764
 20
-149.2091195114713
 30
0.0
 10
99.12008452801345
 20
-149.2068338559341
 30
0.0
 10
99.13292252443892
 20
-149.1998953120314
 30
0.0
 10
99.14885806273159
 20
-149.2163145747753
 30
0.0
 10
99.17532135151379
 20
-149.2277538147174
 30
0.0
 10
99.20693948480033
 20
-149.2483981595601
 30
0.0
 10
99.23298454863972
 20
-149.263676341629
 30
0.0
 10
99.24711073182188
 20
-149.2721752746801
 30
0.0
 10
99.25128437427247
 20
-149.2746863228017
 30
0.0
 11
99.25128437427247
 21
-149.2746863228017
 31
0.0
 11
99.23925795964888
 21
-149.2901093262701
 31
0.0
 11
99.21915513898102
 21
-149.3014709755728
 31
0.0
 11
99.11215759500585
 21
-149.5204388356004
 31
0.0
 11
98.98196295285695
 21
-149.7316730227904
 31
0.0
 11
98.83391299603164
 21
-149.9327844476372
 31
0.0
 11
98.90775478479806
 21
-149.9833711885582
 31
0.0
 11
98.99482539060455
 21
-150.0449609213746
 31
0.0
 11
99.086059334465
 21
-150.1107134319678
 31
0.0
 11
99.17239113739328
 21
-150.173788506219
 31
0.0
 11
99.24475532040327
 21
-150.2273459300096
 31
0.0
 11
99.29408640450885
 21
-150.264545489221
 31
0.0
 11
99.28295302964584
 21
-150.2801309292171
 31
0.0
 11
99.25640421266485
 21
-150.3172962092078
 31
0.0
 11
99.22471691497783
 21
-150.3616547691967
 31
0.0
 11
99.19816809799681
 21
-150.3988200491874
 31
0.0
 11
99.18703472313382
 21
-150.4144054891835
 31
0.0
 11
99.11496029571929
 21
-150.3473049510058
 31
0.0
 11
99.01954465796265
 21
-150.2649114961653
 31
0.0
 11
98.91358537464154
 21
-150.1769948642428
 31
0.0
 11
98.80988001053356
 21
-150.0933247948193
 31
0.0
 11
98.80988001053356
 21
-150.1117981589034
 31
0.0
 11
98.80988001053356
 21
-150.1632240102724
 31
0.0
 11
98.80988001053356
 21
-150.241610987602
 31
0.0
 11
98.80988001053356
 21
-150.3409677295675
 31
0.0
 11
98.80988001053356
 21
-150.4553028748444
 31
0.0
 11
98.80988001053356
 21
-150.5786250621081
 31
0.0
 11
98.80988001053356
 21
-150.7049429300341
 31
0.0
 11
98.80988001053356
 21
-150.8282651172978
 31
0.0
 11
98.80988001053356
 21
-150.9426002625747
 31
0.0
 11
98.80988001053356
 21
-151.0419570045402
 31
0.0
 11
98.80988001053356
 21
-151.1203439818698
 31
0.0
 11
98.80988001053356
 21
-151.1717698332388
 31
0.0
 11
98.80988001053356
 21
-151.1902431973229
 31
0.0
 11
98.79123104878713
 21
-151.1902431973229
 31
0.0
 11
98.7467604476995
 21
-151.1902431973229
 31
0.0
 11
98.69368263349813
 21
-151.1902431973229
 31
0.0
 11
98.64921203241047
 21
-151.1902431973229
 31
0.0
 11
98.63056307066404
 21
-151.1902431973229
 31
0.0
 11
98.63056307066405
 21
-151.1699770633098
 31
0.0
 11
98.63056307066404
 21
-151.1139471633913
 31
0.0
 11
98.63056307066404
 21
-151.0293062507486
 31
0.0
 11
98.63056307066404
 21
-150.9232070785625
 31
0.0
 11
98.63056307066404
 21
-150.8028024000142
 31
0.0
 11
98.63056307066404
 21
-150.6752449682849
 31
0.0
 11
98.63056307066404
 21
-150.5476875365556
 31
0.0
 11
98.63056307066405
 21
-150.4272828580074
 31
0.0
 11
98.63056307066404
 21
-150.3211836858214
 31
0.0
 11
98.63056307066404
 21
-150.2365427731785
 31
0.0
 11
98.63056307066404
 21
-150.1805128732601
 31
0.0
 11
98.63056307066404
 21
-150.160246739247
 31
0.0
 11
98.42258624437264
 21
-150.3515250551714
 31
0.0
 11
98.21060759526705
 21
-150.5106961836039
 31
0.0
 11
98.1838218608728
 21
-150.4566983183911
 31
0.0
 11
98.14813550092694
 21
-150.3979536321917
 31
0.0
 11
98.11422870883695
 21
-150.3529163225322
 31
0.0
 11
98.31728773365639
 21
-150.2092111659014
 31
0.0
 11
98.51611215525054
 21
-150.0331608026121
 31
0.0
 11
98.70196310384236
 21
-149.8315698926625
 31
0.0
 11
98.86610170965486
 21
-149.6112430960509
 31
0.0
 11
98.999789102911
 21
-149.3789850727756
 31
0.0
 11
98.98078463187274
 21
-149.3789850727756
 31
0.0
 11
98.9286755983808
 21
-149.3789850727756
 31
0.0
 11
98.85081857186928
 21
-149.3789850727756
 31
0.0
 11
98.75457012177242
 21
-149.3789850727756
 31
0.0
 11
98.64728681752426
 21
-149.3789850727756
 31
0.0
 11
98.53632522855905
 21
-149.3789850727756
 31
0.0
 11
98.42904192431092
 21
-149.3789850727756
 31
0.0
 11
98.33279347421403
 21
-149.3789850727756
 31
0.0
 11
98.25493644770253
 21
-149.3789850727756
 31
0.0
 11
98.20282741421059
 21
-149.3789850727756
 31
0.0
 11
98.18382294317234
 21
-149.3789850727756
 31
0.0
 11
98.18382294317236
 21
-149.3617330400021
 31
0.0
 11
98.18382294317234
 21
-149.3205935772347
 31
0.0
 11
98.18382294317234
 21
-149.2714916378025
 31
0.0
 11
98.18382294317234
 21
-149.230352175035
 31
0.0
 11
98.18382294317234
 21
-149.2131001422615
 31
0.0
 11
98.20301880802549
 21
-149.2131001422615
 31
0.0
 11
98.25362608809291
 21
-149.2131001422615
 31
0.0
 11
98.32517431163652
 21
-149.2131001422615
 31
0.0
 11
98.40719300691819
 21
-149.2131001422615
 31
0.0
 11
98.48921170219987
 21
-149.2131001422615
 31
0.0
 11
98.56075992574347
 21
-149.2131001422615
 31
0.0
 11
98.6113672058109
 21
-149.2131001422615
 31
0.0
 11
98.63056307066404
 21
-149.2131001422615
 31
0.0
 11
98.63056307066404
 21
-149.1955795113598
 31
0.0
 11
98.63056307066404
 21
-149.1486242205432
 31
0.0
 11
98.63056307066404
 21
-149.0806441726445
 31
0.0
 11
98.63056307066404
 21
-149.0000492704965
 31
0.0
 11
98.63056307066404
 21
-148.9152494169321
 31
0.0
 11
98.63056307066404
 21
-148.8346545147842
 31
0.0
 11
98.63056307066404
 21
-148.7666744668855
 31
0.0
 11
98.63056307066404
 21
-148.7197191760688
 31
0.0
 11
98.63056307066404
 21
-148.7021985451671
 31
0.0
 11
98.64780737063562
 21
-148.7031869762369
 31
0.0
 11
98.69091812056459
 21
-148.7056580539111
 31
0.0
 11
98.74696209547224
 21
-148.7088704548877
 31
0.0
 11
98.8030060703799
 21
-148.7120828558643
 31
0.0
 11
98.84611682030886
 21
-148.7145539335385
 31
0.0
 11
98.86336112028044
 21
-148.7155423646082
 31
0.0
 11
98.8486364269097
 21
-148.7392821041856
 31
0.0
 11
98.80988001053356
 21
-148.7530073645989
 31
0.0
 11
98.80988001053356
 21
-148.7727769761391
 31
0.0
 11
98.80988001053356
 21
-148.8248968611087
 31
0.0
 11
98.80988001053356
 21
-148.8985835950312
 31
0.0
 11
98.80988001053356
 21
-148.9830537534302
 31
0.0
 11
98.80988001053356
 21
-149.0675239118292
 31
0.0
 11
98.80988001053356
 21
-149.1412106457517
 31
0.0
 11
98.80988001053356
 21
-149.1933305307213
 31
0.0
 11
98.80988001053356
 21
-149.2131001422615
 31
0.0
 11
98.82588167071815
 21
-149.2131001422615
 31
0.0
 11
98.86714911014154
 21
-149.2131001422615
 31
0.0
 11
98.92357601710825
 21
-149.2131001422615
 31
0.0
 11
98.98505607992269
 21
-149.2131001422615
 31
0.0
 11
99.04148298688938
 21
-149.2131001422615
 31
0.0
 11
99.08275042631277
 21
-149.2131001422615
 31
0.0
 11
99.09875208649737
 21
-149.2131001422615
 31
0.0
 11
99.10707960171702
 21
-149.2103311633527
 31
0.0
 11
99.12254498712493
 21
-149.2051887739508
 31
0.0
 11
99.13087250234457
 21
-149.202419795042
 31
0.0
 11
99.14339533702507
 21
-149.209935513929
 31
0.0
 11
99.17325748126319
 21
-149.2278576128134
 31
0.0
 11
99.20889939535385
 21
-149.2492485050303
 31
0.0
 11
99.23876153959196
 21
-149.2671706039147
 31
0.0
 11
99.25128437427247
 21
-149.2746863228017
 31
0.0
  0
SPLINE
  5
AD
102
{ACAD_REACTORS
330
CA
102
}
330
48
100
AcDbEntity
  8
_U_30EC_U_30A4_U_30E4_U_30FC_1
  6
Continuous
 62
     2
100
AcDbSpline
210
0.0
220
0.0
230
1.0
 70
    11
 71
     3
 72
    91
 73
    87
 74
    85
 42
0.000000001
 43
0.0000000001
 44
0.00000001
 40
0.0
 40
0.0
 40
0.0
 40
0.0
 40
0.0267532254356986
 40
0.0856103386464617
 40
0.1444674521997349
 40
0.1712206856618941
 40
0.2039416005642962
 40
0.2955601971652768
 40
0.4362601844617202
 40
0.6162252844507818
 40
0.8256392189705124
 40
1.054685709844482
 40
1.29354847889356
 40
1.532411247938317
 40
1.761457738799596
 40
1.970871673298551
 40
2.150836773256718
 40
2.291536760495608
 40
2.383155356836729
 40
2.41587628410132
 40
2.442629517487991
 40
2.501486630949121
 40
2.56034374442432
 40
2.587096977826566
 40
2.617068194440994
 40
2.699247336756163
 40
2.822032643466419
 40
2.973822353257963
 40
3.143014704823419
 40
3.31800793687997
 40
3.487200288186789
 40
3.638989997548269
 40
3.761775303794782
 40
3.843954445753117
 40
3.873925662229827
 40
3.89081277350052
 40
3.907699884771712
 40
3.937960767857359
 40
3.980983618142403
 40
4.199085915228532
 40
4.43944433923728
 40
4.677588241260955
 40
5.050698317837812
 40
5.448212454763198
 40
5.855291218044679
 40
6.138575438885333
 40
6.417434507584157
 40
6.444551104393838
 40
6.504207617363114
 40
6.563864130314439
 40
6.590980727104001
 40
6.848609460381436
 40
7.109611990668373
 40
7.352910904446065
 40
7.557830220705389
 40
7.587518925913311
 40
7.652834077375704
 40
7.718149228845648
 40
7.747837934061936
 40
7.85488019030087
 40
7.976511257403349
 40
8.369487896592137
 40
8.757514959223444
 40
9.126072419330907
 40
9.460639380391969
 40
9.746695593035682
 40
9.777569943118442
 40
9.807050320931513
 40
9.830377336128652
 40
9.886003295435728
 40
9.952395569429635
 40
10.00802152870599
 40
10.03134854388188
 40
10.21356951009557
 40
10.42203479292839
 40
10.66154556731032
 40
10.91693789564271
 40
11.15832906556532
 40
11.18982674596588
 40
11.27286608520372
 40
11.39026653033316
 40
11.52484752840852
 40
11.65942852648411
 40
11.77682897161448
 40
11.85986831085646
 40
11.89136598230392
 40
11.89136598230392
 40
11.89136598230392
 40
11.89136598230392
 10
95.33704746024415
 20
-150.2378490308943
 30
0.0
 10
95.33708273595337
 20
-150.2289665647922
 30
0.0
 10
95.33719563050416
 20
-150.2005426674385
 30
0.0
 10
95.33555741627342
 20
-150.150748646214
 30
0.0
 10
95.34123398871562
 20
-150.1082693931304
 30
0.0
 10
95.3299518325952
 20
-150.0575434893435
 30
0.0
 10
95.39748865732773
 20
-150.0747160305108
 30
0.0
 10
95.47306188049454
 20
-150.061942766252
 30
0.0
 10
95.61709466502465
 20
-150.0685477433383
 30
0.0
 10
95.79120087796721
 20
-150.0659604158472
 30
0.0
 10
95.99821892052486
 20
-150.0668391183564
 30
0.0
 10
96.22372777666227
 20
-150.0665629587117
 30
0.0
 10
96.4593751887651
 20
-150.0666616413254
 30
0.0
 10
96.69502301255935
 20
-150.0665631937842
 30
0.0
 10
96.92053071748711
 20
-150.066838256004
 30
0.0
 10
97.12755242270501
 20
-150.0659631752046
 30
0.0
 10
97.30164785095332
 20
-150.0685398111275
 30
0.0
 10
97.44570816662304
 20
-150.0619621334199
 30
0.0
 10
97.52122815095386
 20
-150.074682603856
 30
0.0
 10
97.58883656312747
 20
-150.0575810359951
 30
0.0
 10
97.57734297349214
 20
-150.1080971798826
 30
0.0
 10
97.5847694175978
 20
-150.152312515647
 30
0.0
 10
97.57714285222315
 20
-150.1961653728759
 30
0.0
 10
97.588907905367
 20
-150.2460612931187
 30
0.0
 10
97.5273378086228
 20
-150.2309127607869
 30
0.0
 10
97.45993813329163
 20
-150.2417383844053
 30
0.0
 10
97.3355593650467
 20
-150.2363247216496
 30
0.0
 10
97.1897017830816
 20
-150.2383529840042
 30
0.0
 10
97.02361660343304
 20
-150.2376872621282
 30
0.0
 10
96.85310022159697
 20
-150.2379486026996
 30
0.0
 10
96.68623804496343
 20
-150.2376295040011
 30
0.0
 10
96.54299364213509
 20
-150.2384920120044
 30
0.0
 10
96.4115903464079
 20
-150.2362120330822
 30
0.0
 10
96.35824487289022
 20
-150.2407679941699
 30
0.0
 10
96.28277780511576
 20
-150.2348458879833
 30
0.0
 10
96.31116653734777
 20
-150.2439033444784
 30
0.0
 10
96.33762420037877
 20
-150.2475859152227
 30
0.0
 10
96.29761125019472
 20
-150.2783023182293
 30
0.0
 10
96.20562532861133
 20
-150.2681691261656
 30
0.0
 10
96.17819858013144
 20
-150.5145200154341
 30
0.0
 10
96.082138356148
 20
-150.6698494502683
 30
0.0
 10
95.8259867558719
 20
-150.9995908585963
 30
0.0
 10
96.39701273270083
 20
-150.8605448158076
 30
0.0
 10
96.65162459147614
 20
-150.8619272381783
 30
0.0
 10
97.2622236642862
 20
-150.9469393454912
 30
0.0
 10
96.9683288172328
 20
-150.6479908623299
 30
0.0
 10
96.64758938807637
 20
-150.5015364688944
 30
0.0
 10
96.7656132954679
 20
-150.4445896297291
 30
0.0
 10
96.80673060605068
 20
-150.4206440391785
 30
0.0
 10
96.84994019886567
 20
-150.3988474497998
 30
0.0
 10
96.95171636886944
 20
-150.3355578253727
 30
0.0
 10
97.06714572194932
 20
-150.5933735238243
 30
0.0
 10
97.26721812365224
 20
-150.7286846267752
 30
0.0
 10
97.3611666981473
 20
-150.9069170865232
 30
0.0
 10
97.59014193406378
 20
-151.0648668276416
 30
0.0
 10
97.49386214409532
 20
-151.115685312149
 30
0.0
 10
97.45105493580243
 20
-151.1460321126814
 30
0.0
 10
97.40608331230239
 20
-151.1701837350973
 30
0.0
 10
97.34643105194593
 20
-151.2193235704363
 30
0.0
 10
97.31323206555693
 20
-151.0848702811759
 30
0.0
 10
97.19246029450416
 20
-150.9289023850463
 30
0.0
 10
96.83135656002236
 20
-151.0591457573165
 30
0.0
 10
96.47276515497862
 20
-151.0425980938172
 30
0.0
 10
96.09135100443248
 20
-151.0515327443934
 30
0.0
 10
95.8046044877137
 20
-151.1160183211878
 30
0.0
 10
95.4934645193959
 20
-151.0025383559838
 30
0.0
 10
95.46113274130336
 20
-151.1136224386343
 30
0.0
 10
95.42387678475632
 20
-151.1328818994118
 30
0.0
 10
95.42083272269993
 20
-151.086097197039
 30
0.0
 10
95.4022482454852
 20
-151.0467764987206
 30
0.0
 10
95.3855026211024
 20
-150.9871852031296
 30
0.0
 10
95.3726320509998
 20
-150.9428253391991
 30
0.0
 10
95.33849174006761
 20
-150.85378172671
 30
0.0
 10
95.58253040519982
 20
-150.9230346084743
 30
0.0
 10
95.7783984080917
 20
-150.9445413473346
 30
0.0
 10
95.87380159755219
 20
-150.6625801931274
 30
0.0
 10
95.92877253638417
 20
-150.5012145837007
 30
0.0
 10
96.15022089514014
 20
-150.2309332620147
 30
0.0
 10
96.01918289754614
 20
-150.2393605693746
 30
0.0
 10
95.94526161500997
 20
-150.2370549529423
 30
0.0
 10
95.83200494704886
 20
-150.2381312546954
 30
0.0
 10
95.70368414017297
 20
-150.237768647147
 30
0.0
 10
95.57468416246604
 20
-150.2378677932511
 30
0.0
 10
95.46304305405363
 20
-150.2378457107863
 30
0.0
 10
95.38572535642719
 20
-150.2378492460153
 30
0.0
 10
95.34754661262551
 20
-150.2378490794612
 30
0.0
 10
95.33704746024415
 20
-150.2378490308943
 30
0.0
 11
95.33704746024415
 21
-150.2378490308943
 31
0.0
 11
95.33704746024415
 21
-150.211095797394
 31
0.0
 11
95.33704746024415
 21
-150.1522386836934
 31
0.0
 11
95.33704746024415
 21
-150.0933815699929
 31
0.0
 11
95.33704746024415
 21
-150.0666283364926
 31
0.0
 11
95.36976838752344
 21
-150.0666283364926
 31
0.0
 11
95.46138698390546
 21
-150.0666283364926
 31
0.0
 11
95.6020869712064
 21
-150.0666283364926
 31
0.0
 11
95.7820520712425
 21
-150.0666283364926
 31
0.0
 11
95.99146600582995
 21
-150.0666283364926
 31
0.0
 11
96.22051249678498
 21
-150.0666283364926
 31
0.0
 11
96.4593752659238
 21
-150.0666283364926
 31
0.0
 11
96.69823803506262
 21
-150.0666283364926
 31
0.0
 11
96.92728452601764
 21
-150.0666283364926
 31
0.0
 11
97.13669846060509
 21
-150.0666283364926
 31
0.0
 11
97.3166635606412
 21
-150.0666283364926
 31
0.0
 11
97.45736354794215
 21
-150.0666283364926
 31
0.0
 11
97.54898214432416
 21
-150.0666283364926
 31
0.0
 11
97.58170307160344
 21
-150.0666283364926
 31
0.0
 11
97.58170307160344
 21
-150.0933815699929
 31
0.0
 11
97.58170307160344
 21
-150.1522386836934
 31
0.0
 11
97.58170307160344
 21
-150.2110957973941
 31
0.0
 11
97.58170307160344
 21
-150.2378490308943
 31
0.0
 11
97.5517318549003
 21
-150.2378490308943
 31
0.0
 11
97.46955271232717
 21
-150.2378490308943
 31
0.0
 11
97.3467674051885
 21
-150.2378490308943
 31
0.0
 11
97.19497769478873
 21
-150.2378490308943
 31
0.0
 11
97.02578534243229
 21
-150.2378490308943
 31
0.0
 11
96.85079210942362
 21
-150.2378490308943
 31
0.0
 11
96.68159975706719
 21
-150.2378490308943
 31
0.0
 11
96.5298100466674
 21
-150.2378490308943
 31
0.0
 11
96.40702473952872
 21
-150.2378490308943
 31
0.0
 11
96.3248455969556
 21
-150.2378490308943
 31
0.0
 11
96.29487438025245
 21
-150.2378490308943
 31
0.0
 11
96.31089490067706
 21
-150.243189204504
 31
0.0
 11
96.32691542110166
 21
-150.2485293781138
 31
0.0
 11
96.30487452756661
 21
-150.2692638919976
 31
0.0
 11
96.26274514496083
 21
-150.2779863225509
 31
0.0
 11
96.17078251356229
 21
-150.4757525647854
 31
0.0
 11
96.06216681160092
 21
-150.6901699181269
 31
0.0
 11
95.94700904190529
 21
-150.8986194473958
 31
0.0
 11
96.31999562692657
 21
-150.8890206253817
 31
0.0
 11
96.71732896303956
 21
-150.8770327138621
 31
0.0
 11
97.12419317853903
 21
-150.8638179196267
 31
0.0
 11
96.93257090912239
 21
-150.6551774248873
 31
0.0
 11
96.73093416079439
 21
-150.4625508363937
 31
0.0
 11
96.7547537388995
 21
-150.4495917652164
 31
0.0
 11
96.8071568107307
 21
-150.4210818086262
 31
0.0
 11
96.85955988256191
 21
-150.3925718520361
 31
0.0
 11
96.88337946066702
 21
-150.3796127808588
 31
0.0
 11
97.0729691152872
 21
-150.5540499542093
 31
0.0
 11
97.25429005346807
 21
-150.7417865741711
 31
0.0
 11
97.41203188253925
 21
-150.9270212279877
 31
0.0
 11
97.53088420983033
 21
-151.0939525029025
 31
0.0
 11
97.50579978121681
 21
-151.1098330150513
 31
0.0
 11
97.45061403826708
 21
-151.1447701417787
 31
0.0
 11
97.39542829531733
 21
-151.179707268506
 31
0.0
 11
97.37034386670382
 21
-151.1955877806548
 31
0.0
 11
97.31181077458574
 21
-151.1059667910939
 31
0.0
 11
97.23926046727024
 21
-151.0083421557017
 31
0.0
 11
96.84680025183403
 21
-151.0284821684745
 31
0.0
 11
96.45920636638056
 21
-151.0468120079143
 31
0.0
 11
96.09099685704582
 21
-151.0628232506881
 31
0.0
 11
95.75668976996576
 21
-151.0760074734625
 31
0.0
 11
95.47080315127636
 21
-151.0858562529045
 31
0.0
 11
95.45544519159856
 21
-151.1126398032451
 31
0.0
 11
95.42800238847917
 21
-151.1234094473395
 31
0.0
 11
95.42105167865651
 21
-151.1011420434562
 31
0.0
 11
95.40447690907939
 21
-151.0480428495806
 31
0.0
 11
95.38469411958414
 21
-150.9846663923742
 31
0.0
 11
95.36811935000702
 21
-150.9315671984986
 31
0.0
 11
95.36116864018436
 21
-150.9092997946153
 31
0.0
 11
95.54337894533984
 21
-150.9073286487825
 31
0.0
 11
95.75175654428335
 21
-150.9012829196173
 31
0.0
 11
95.86457927214609
 21
-150.6900095348964
 31
0.0
 11
95.97505263162802
 21
-150.4597469063532
 31
0.0
 11
96.07008438598723
 21
-150.2378490308943
 31
0.0
 11
96.0385867055842
 21
-150.2378490308943
 31
0.0
 11
95.95554736633987
 21
-150.2378490308943
 31
0.0
 11
95.83814692120134
 21
-150.2378490308943
 31
0.0
 11
95.70356592311569
 21
-150.2378490308943
 31
0.0
 11
95.56898492503005
 21
-150.2378490308943
 31
0.0
 11
95.45158447989151
 21
-150.2378490308943
 31
0.0
 11
95.36854514064717
 21
-150.2378490308943
 31
0.0
 11
95.33704746024415
 21
-150.2378490308943
 31
0.0
  0
SPLINE
  5
AE
102
{ACAD_REACTORS
330
CB
102
}
330
48
100
AcDbEntity
  8
_U_30EC_U_30A4_U_30E4_U_30FC_1
  6
Continuous
 62
     2
100
AcDbSpline
210
0.0
220
0.0
230
1.0
 70
    11
 71
     3
 72
    35
 73
    31
 74
    29
 42
0.000000001
 43
0.0000000001
 44
0.00000001
 40
0.0
 40
0.0
 40
0.0
 40
0.0
 40
0.0335231036620335
 40
0.071321857171174
 40
0.4278866681486411
 40
0.8116865841963639
 40
1.198190238000016
 40
1.561379546812668
 40
1.659983174622081
 40
1.759315573807252
 40
2.132719617231155
 40
2.525233363588872
 40
2.910815397779774
 40
3.265244364303388
 40
3.59260672358215
 40
3.964386154604095
 40
4.359942131737952
 40
4.758154118639433
 40
4.843846538699999
 40
4.936650065543388
 40
5.256616602537524
 40
5.58170740441622
 40
5.899719158308329
 40
6.198363494280938
 40
6.466301046615945
 40
6.493895311537268
 40
6.559697020197062
 40
6.638234543442639
 40
6.704036252154436
 40
6.731630508423227
 40
6.731630508423227
 40
6.731630508423227
 40
6.731630508423227
 10
96.60786001629145
 20
-148.7102066007207
 30
0.0
 10
96.60185956920347
 20
-148.7200381324888
 30
0.0
 10
96.58909336934026
 20
-148.7409551521141
 30
0.0
 10
96.42919516007974
 20
-148.7735737725847
 30
0.0
 10
96.86646154365833
 20
-149.0627782345451
 30
0.0
 10
97.06879844225074
 20
-149.2644336543275
 30
0.0
 10
97.31621538622184
 20
-149.5073511618792
 30
0.0
 10
97.81741032188522
 20
-149.5843684103342
 30
0.0
 10
97.64681517932155
 20
-149.7260756461654
 30
0.0
 10
97.57258890574472
 20
-149.927741375821
 30
0.0
 10
97.24740218424333
 20
-149.5752821661648
 30
0.0
 10
96.96203312649097
 20
-149.4130929123164
 30
0.0
 10
96.66801936719037
 20
-149.2079737373816
 30
0.0
 10
96.44270422853798
 20
-148.7265701519574
 30
0.0
 10
96.23356746497676
 20
-149.1914145718198
 30
0.0
 10
95.95504632690796
 20
-149.4013355153828
 30
0.0
 10
95.6713972771454
 20
-149.5706004743121
 30
0.0
 10
95.34212291220766
 20
-149.9434214288326
 30
0.0
 10
95.26196019124697
 20
-149.7477648933219
 30
0.0
 10
95.11023145039887
 20
-149.619933996006
 30
0.0
 10
95.54259854210403
 20
-149.5403047202526
 30
0.0
 10
95.73051549240112
 20
-149.3445786887572
 30
0.0
 10
95.98110670147484
 20
-149.1285150687444
 30
0.0
 10
96.20569400644064
 20
-148.9629351149114
 30
0.0
 10
96.26023650039579
 20
-148.6835053915436
 30
0.0
 10
96.38372506232564
 20
-148.6974655338312
 30
0.0
 10
96.44028629387657
 20
-148.6996323492356
 30
0.0
 10
96.51044605791895
 20
-148.7043764390984
 30
0.0
 10
96.56760036163509
 20
-148.7077507444067
 30
0.0
 10
96.59867799150844
 20
-148.7096464908009
 30
0.0
 10
96.60786001629145
 20
-148.7102066007207
 30
0.0
 11
96.60786001629145
 21
-148.7102066007207
 31
0.0
 11
96.586790866413
 21
-148.7362812882142
 31
0.0
 11
96.55170541536705
 21
-148.7503438923773
 31
0.0
 11
96.785496436334
 21
-149.0195654265981
 31
0.0
 11
97.07571755518121
 21
-149.2707109582194
 31
0.0
 11
97.39553870779295
 21
-149.4877351617241
 31
0.0
 11
97.7181298300535
 21
-149.6545927115956
 31
0.0
 11
97.65558894623217
 21
-149.7308246820627
 31
0.0
 11
97.60306254132206
 21
-149.8151330587778
 31
0.0
 11
97.27788686900593
 21
-149.6315809895962
 31
0.0
 11
96.95798173626815
 21
-149.4041436404777
 31
0.0
 11
96.66967897528535
 21
-149.1481064866789
 31
0.0
 11
96.43931041823407
 21
-148.8787550034563
 31
0.0
 11
96.23381213137615
 21
-149.1335815507016
 31
0.0
 11
95.9630890935781
 21
-149.3883932151344
 31
0.0
 11
95.64621280174917
 21
-149.6251503743634
 31
0.0
 11
95.30225475279866
 21
-149.8258134059973
 31
0.0
 11
95.25614449355835
 21
-149.7535843608765
 31
0.0
 11
95.19795600545933
 21
-149.6812891699223
 31
0.0
 11
95.47756300832606
 21
-149.5257304682945
 31
0.0
 11
95.74355942153997
 21
-149.3388349400079
 31
0.0
 11
95.98425870539921
 21
-149.1310000750599
 31
0.0
 11
96.18797432020196
 21
-148.9126233634478
 31
0.0
 11
96.34301972624633
 21
-148.6941022951691
 31
0.0
 11
96.37056311641102
 21
-148.6957771429465
 31
0.0
 11
96.43624350834222
 21
-148.6997710107233
 31
0.0
 11
96.51463623419558
 21
-148.7045378851666
 31
0.0
 11
96.58031662612676
 21
-148.7085317529434
 31
0.0
 11
96.60786001629145
 21
-148.7102066007207
 31
0.0
  0
SPLINE
  5
AF
102
{ACAD_REACTORS
330
CC
102
}
330
48
100
AcDbEntity
  8
_U_30EC_U_30A4_U_30E4_U_30FC_1
  6
Continuous
 62
     2
100
AcDbSpline
210
0.0
220
0.0
230
1.0
 70
    11
 71
     3
 72
    15
 73
    11
 74
     9
 42
0.000000001
 43
0.0000000001
 44
0.00000001
 40
0.0
 40
0.0
 40
0.0
 40
0.0
 40
0.2785535985097068
 40
0.5215624748199146
 40
0.60769173760405
 40
0.6938210001740974
 40
0.9405019146454574
 40
1.221691403489074
 40
1.300471877080973
 40
1.379252341684737
 40
1.379252341684737
 40
1.379252341684737
 40
1.379252341684737
 10
94.20240832252443
 20
-148.7155423646082
 30
0.0
 10
94.26386073884233
 20
-148.7679285719848
 30
0.0
 10
94.37892395683598
 20
-148.8660162699297
 30
0.0
 10
94.67399380914885
 20
-149.0159471789398
 30
0.0
 10
94.53677372261023
 20
-149.101412762762
 30
0.0
 10
94.43838174380232
 20
-149.2339871858964
 30
0.0
 10
94.34726231848953
 20
-148.9286751800978
 30
0.0
 10
93.99794290749007
 20
-148.8651663432583
 30
0.0
 10
94.14618479708155
 20
-148.7658799391032
 30
0.0
 10
94.18366714684817
 20
-148.7323215538882
 30
0.0
 10
94.20240832252443
 20
-148.7155423646082
 30
0.0
 11
94.20240832252443
 21
-148.7155423646082
 31
0.0
 11
94.4261812034842
 21
-148.8814272951223
 31
0.0
 11
94.60376359006284
 21
-149.0473122256364
 31
0.0
 11
94.54088977222244
 21
-149.1061776075661
 31
0.0
 11
94.47801595438204
 21
-149.1650429894958
 31
0.0
 11
94.30311247119703
 21
-148.9910882673171
 31
0.0
 11
94.08208464503855
 21
-148.817265836805
 31
0.0
 11
94.14224648378149
 21
-148.7664041007066
 31
0.0
 11
94.20240832252443
 21
-148.7155423646082
 31
0.0
  0
SPLINE
  5
B0
102
{ACAD_REACTORS
330
CD
102
}
330
48
100
AcDbEntity
  8
_U_30EC_U_30A4_U_30E4_U_30FC_1
  6
Continuous
 62
     2
100
AcDbSpline
210
0.0
220
0.0
230
1.0
 70
    11
 71
     3
 72
    75
 73
    71
 74
    69
 42
0.000000001
 43
0.0000000001
 44
0.00000001
 40
0.0
 40
0.0
 40
0.0
 40
0.0
 40
0.0342546099129496
 40
0.1245622414432435
 40
0.2522385480897927
 40
0.3985991922940857
 40
0.5449598364980945
 40
0.6726361431439047
 40
0.7629437746737155
 40
0.7971983935298115
 40
1.101723623449684
 40
1.408591244036689
 40
1.433332471690387
 40
1.487763172450151
 40
1.542193873081987
 40
1.566935100592524
 40
1.923523931821839
 40
2.271755704953641
 40
2.590579755100868
 40
2.858943305581132
 40
2.889120339309109
 40
2.918305855191071
 40
2.941366645531178
 40
2.996357760973052
 40
3.061992318140612
 40
3.116983433626775
 40
3.140044223997435
 40
3.411273122936341
 40
3.732441619740994
 40
3.76106821753268
 40
3.837787499630307
 40
3.948858699125905
 40
4.08054104910431
 40
4.219093782625718
 40
4.350776132722272
 40
4.461847332405624
 40
4.538566614678329
 40
4.567193212544593
 40
4.594907573998865
 40
4.66638145355739
 40
4.764111044011001
 40
4.870592538125846
 40
4.968322128642297
 40
5.039796008286983
 40
5.067510369784427
 40
5.094263603185622
 40
5.15312071666821
 40
5.2119778301506
 40
5.238731063551596
 40
5.272290535138877
 40
5.363380529444695
 40
5.497618415781359
 40
5.660621563453615
 40
5.83800734174933
 40
6.015393119910639
 40
6.178396267038265
 40
6.312634151842216
 40
6.403724143059248
 40
6.43728361267233
 40
6.464036846260937
 40
6.522893960004494
 40
6.581751071483721
 40
6.608504301590669
 40
6.637253941280802
 40
6.711397748902668
 40
6.812778057283252
 40
6.923237199249014
 40
7.024617507623672
 40
7.098761315207296
 40
7.127510946007275
 40
7.127510946007275
 40
7.127510946007275
 40
7.127510946007275
 10
93.07612119848096
 20
-149.9863537531793
 30
0.0
 10
93.07612124139524
 20
-149.9977719038247
 30
0.0
 10
93.07612140753734
 20
-150.0392924594857
 30
0.0
 10
93.07611826760328
 20
-150.1233758178742
 30
0.0
 10
93.07613778740453
 20
-150.2448000646887
 30
0.0
 10
93.07605017819827
 20
-150.3850400974375
 30
0.0
 10
93.07637058294759
 20
-150.5247794699662
 30
0.0
 10
93.07541955039855
 20
-150.6473946489626
 30
0.0
 10
93.0774568190213
 20
-150.7289742935316
 30
0.0
 10
93.06920227729907
 20
-150.8821323671348
 30
0.0
 10
93.37733875351472
 20
-150.7192426773648
 30
0.0
 10
93.66932347679813
 20
-150.5500156510322
 30
0.0
 10
93.67509440429536
 20
-150.6851126800929
 30
0.0
 10
93.67980613141364
 20
-150.7286728263076
 30
0.0
 10
93.68251250061633
 20
-150.7727325444065
 30
0.0
 10
93.70151352672049
 20
-150.9221191342808
 30
0.0
 10
93.29265318415474
 20
-150.8580333154993
 30
0.0
 10
93.01362999430779
 20
-150.9718816238019
 30
0.0
 10
92.73606711814114
 20
-151.0712040798005
 30
0.0
 10
92.44424267786468
 20
-151.0285381619485
 30
0.0
 10
92.42117342729031
 20
-151.1316282404666
 30
0.0
 10
92.38800639775786
 20
-151.1579341254673
 30
0.0
 10
92.38232435569836
 20
-151.1102919475489
 30
0.0
 10
92.36268041532894
 20
-151.0730416767613
 30
0.0
 10
92.34376790798682
 20
-151.0147711594363
 30
0.0
 10
92.32854394619527
 20
-150.970993027834
 30
0.0
 10
92.2819835967181
 20
-150.8572508274489
 30
0.0
 10
92.62334869066962
 20
-150.8890820267114
 30
0.0
 10
92.90222389616304
 20
-150.9232306868473
 30
0.0
 10
92.8960342629153
 20
-150.7757052731155
 30
0.0
 10
92.89735250470183
 20
-150.7047135288236
 30
0.0
 10
92.89674212841943
 20
-150.5976473583254
 30
0.0
 10
92.89684611649699
 20
-150.470859740052
 30
0.0
 10
92.89725775583015
 20
-150.3363526029515
 30
0.0
 10
92.89564974362138
 20
-150.2108895384001
 30
0.0
 10
92.9002492162171
 20
-150.0997925707208
 30
0.0
 10
92.89067760964556
 20
-150.0372261699051
 30
0.0
 10
92.90465913779366
 20
-149.9788911549619
 30
0.0
 10
92.848997398095
 20
-149.9919479320895
 30
0.0
 10
92.79182447920667
 20
-149.983481960417
 30
0.0
 10
92.69586385198929
 20
-149.9875452771056
 30
0.0
 10
92.59763571170659
 20
-149.9851361393871
 30
0.0
 10
92.50151720518056
 20
-149.9893290317781
 30
0.0
 10
92.44472381200559
 20
-149.9805515735002
 30
0.0
 10
92.38929464676296
 20
-149.9938956694107
 30
0.0
 10
92.40132690221613
 20
-149.9444759283193
 30
0.0
 10
92.39345927681832
 20
-149.900905157608
 30
0.0
 10
92.4008885158074
 20
-149.8565403467268
 30
0.0
 10
92.38945201583886
 20
-149.8058220602721
 30
0.0
 10
92.45746919643783
 20
-149.8232204303347
 30
0.0
 10
92.53110864739918
 20
-149.8106705355401
 30
0.0
 10
92.66676536524558
 20
-149.8168482678011
 30
0.0
 10
92.82274986187706
 20
-149.8145530069812
 30
0.0
 10
92.99585159523888
 20
-149.8154353552868
 30
0.0
 10
93.16895325584265
 20
-149.8145529664879
 30
0.0
 10
93.32493794054612
 20
-149.8168484083566
 30
0.0
 10
93.46059414840423
 20
-149.8106701752877
 30
0.0
 10
93.53423462998975
 20
-149.8232210957288
 30
0.0
 10
93.6022503768969
 20
-149.8058213077906
 30
0.0
 10
93.59081804801669
 20
-149.8565437337665
 30
0.0
 10
93.59821290525426
 20
-149.9008744298009
 30
0.0
 10
93.59046295065158
 20
-149.94456196241
 30
0.0
 10
93.60237933361218
 20
-149.9942091369271
 30
0.0
 10
93.54507598178621
 20
-149.9802309245277
 30
0.0
 10
93.48627353840176
 20
-149.9894474811794
 30
0.0
 10
93.3867883227445
 20
-149.9853223562626
 30
0.0
 10
93.28368696925946
 20
-149.986617437653
 30
0.0
 10
93.18804359488186
 20
-149.9863042671356
 30
0.0
 10
93.1200057565863
 20
-149.9863572709405
 30
0.0
 10
93.08570518076883
 20
-149.9863545191953
 30
0.0
 10
93.07612119848096
 20
-149.9863537531793
 30
0.0
 11
93.07612119848096
 21
-149.9863537531793
 31
0.0
 11
93.07612119848095
 21
-150.0206083720401
 31
0.0
 11
93.07612119848096
 21
-150.1109160035822
 31
0.0
 11
93.07612119848096
 21
-150.2385923102452
 31
0.0
 11
93.07612119848096
 21
-150.3849529544686
 31
0.0
 11
93.07612119848096
 21
-150.531313598692
 31
0.0
 11
93.07612119848096
 21
-150.6589899053549
 31
0.0
 11
93.07612119848096
 21
-150.749297536897
 31
0.0
 11
93.07612119848096
 21
-150.7835521557578
 31
0.0
 11
93.37345222388129
 21
-150.7177502807743
 31
0.0
 11
93.67272132214907
 21
-150.6498846557913
 31
0.0
 11
93.67480767192224
 21
-150.6745377590837
 31
0.0
 11
93.67939764142321
 21
-150.7287745863271
 31
0.0
 11
93.68398761092416
 21
-150.7830114135705
 31
0.0
 11
93.68607396069734
 21
-150.8076645168629
 31
0.0
 11
93.33989864834854
 21
-150.893211336503
 31
0.0
 11
93.00122427330834
 21
-150.974236261613
 31
0.0
 11
92.69063211109334
 21
-151.0462173976627
 31
0.0
 11
92.42870343722007
 21
-151.1046328501221
 31
0.0
 11
92.41601046235374
 21
-151.1320106105318
 31
0.0
 11
92.39123843817583
 21
-151.1474424334446
 31
0.0
 11
92.38344571837465
 21
-151.1257382040056
 31
0.0
 11
92.36486307884869
 21
-151.0739819645741
 31
0.0
 11
92.3426837994145
 21
-151.0122083884785
 31
0.0
 11
92.32410115988857
 21
-150.960452149047
 31
0.0
 11
92.31630844008737
 21
-150.938747919608
 31
0.0
 11
92.58253659301769
 21
-150.8869050203153
 31
0.0
 11
92.89689245305345
 21
-150.8211053501929
 31
0.0
 11
92.89689245305345
 21
-150.7924787522158
 31
0.0
 11
92.89689245305345
 21
-150.715759469637
 31
0.0
 11
92.89689245305345
 21
-150.6046882694857
 31
0.0
 11
92.89689245305345
 21
-150.4730059187908
 31
0.0
 11
92.89689245305345
 21
-150.3344531845814
 31
0.0
 11
92.89689245305345
 21
-150.2027708338865
 31
0.0
 11
92.89689245305345
 21
-150.0916996337352
 31
0.0
 11
92.89689245305345
 21
-150.0149803511565
 31
0.0
 11
92.89689245305345
 21
-149.9863537531793
 31
0.0
 11
92.86917809153537
 21
-149.9863537531793
 31
0.0
 11
92.79770421183089
 21
-149.9863537531793
 31
0.0
 11
92.69997462121457
 21
-149.9863537531793
 31
0.0
 11
92.59349312696094
 21
-149.9863537531793
 31
0.0
 11
92.49576353634458
 21
-149.9863537531793
 31
0.0
 11
92.4242896566401
 21
-149.9863537531793
 31
0.0
 11
92.39657529512203
 21
-149.9863537531793
 31
0.0
 11
92.39657529512202
 21
-149.959600519679
 31
0.0
 11
92.39657529512203
 21
-149.9007434059785
 31
0.0
 11
92.39657529512203
 21
-149.841886292278
 31
0.0
 11
92.39657529512203
 21
-149.8151330587778
 31
0.0
 11
92.430134766712
 21
-149.8151330587778
 31
0.0
 11
92.5212247610276
 21
-149.8151330587778
 31
0.0
 11
92.65546264738744
 21
-149.8151330587778
 31
0.0
 11
92.81846579511011
 21
-149.8151330587778
 31
0.0
 11
92.99585157351419
 21
-149.8151330587778
 31
0.0
 11
93.17323735191827
 21
-149.8151330587778
 31
0.0
 11
93.33624049964092
 21
-149.8151330587778
 31
0.0
 11
93.47047838600076
 21
-149.8151330587778
 31
0.0
 11
93.56156838031637
 21
-149.8151330587778
 31
0.0
 11
93.59512785190634
 21
-149.8151330587778
 31
0.0
 11
93.59512785190633
 21
-149.841886292278
 31
0.0
 11
93.59512785190634
 21
-149.9007434059785
 31
0.0
 11
93.59512785190634
 21
-149.959600519679
 31
0.0
 11
93.59512785190634
 21
-149.9863537531793
 31
0.0
 11
93.56637821221221
 21
-149.9863537531793
 31
0.0
 11
93.49223440458
 21
-149.9863537531793
 31
0.0
 11
93.39085409618498
 21
-149.9863537531793
 31
0.0
 11
93.28039495420231
 21
-149.9863537531793
 31
0.0
 11
93.17901464580727
 21
-149.9863537531793
 31
0.0
 11
93.10487083817507
 21
-149.9863537531793
 31
0.0
 11
93.07612119848096
 21
-149.9863537531793
 31
0.0
  0
SPLINE
  5
B1
102
{ACAD_REACTORS
330
CE
102
}
330
48
100
AcDbEntity
  8
_U_30EC_U_30A4_U_30E4_U_30FC_1
  6
Continuous
 62
     2
100
AcDbSpline
210
0.0
220
0.0
230
1.0
 70
    11
 71
     3
 72
    91
 73
    87
 74
    85
 42
0.000000001
 43
0.0000000001
 44
0.00000001
 40
0.0
 40
0.0
 40
0.0
 40
0.0
 40
0.0345987051695576
 40
0.1258134969461369
 40
0.2547723404888845
 40
0.4026032099153699
 40
0.550434079341642
 40
0.6793929228835796
 40
0.7706077146570893
 40
0.805206428778064
 40
1.124852390615215
 40
1.427402236308873
 40
1.706356627453513
 40
1.955541417875166
 40
2.169485938566333
 40
2.344350786664781
 40
2.480568411561978
 40
2.590440557428983
 40
2.649189927151138
 40
2.749320643306333
 40
2.912632739880056
 40
3.147745656000238
 40
3.244827496385085
 40
3.338490056946717
 40
3.583815413207106
 40
3.761423943238482
 40
3.886956104362634
 40
3.985855451886829
 40
4.091766255337719
 40
4.250186473811886
 40
4.422734315084545
 40
4.628285684838624
 40
4.872093227758446
 40
5.152549652145545
 40
5.464967135837554
 40
5.803201477852488
 40
6.160362988813957
 40
6.193449448276012
 40
6.284170385501638
 40
6.419718138764536
 40
6.587285046385758
 40
6.774063446723701
 40
6.967245678113655
 40
7.154024078817684
 40
7.321590987026041
 40
7.457138740890414
 40
7.54785967855615
 40
7.580946138182695
 40
7.608533084714764
 40
7.669224367077731
 40
7.729915649429954
 40
7.757502595949972
 40
7.79027806255344
 40
7.880146277430923
 40
8.014419963180373
 40
8.180411842397888
 40
8.365434637679357
 40
8.556801071622672
 40
8.74182386683077
 40
8.907815745916352
 40
9.042089431507478
 40
9.131957646249589
 40
9.16473311279718
 40
9.415425063140091
 40
9.667986180958554
 40
9.694169807462664
 40
9.756607686047625
 40
9.8311303153225
 40
9.893568193899965
 40
9.919751820398782
 40
9.950967964690603
 40
9.996421631210731
 40
10.22087981037461
 40
10.44341866197554
 40
10.47847970788869
 40
10.57091337438768
 40
10.70159545461243
 40
10.85140174170371
 40
11.00120802880491
 40
11.13189010907392
 40
11.22432377583019
 40
11.25938480938966
 40
11.28697175596152
 40
11.34766303835927
 40
11.4083543204208
 40
11.43594125892112
 40
11.43594125892112
 40
11.43594125892112
 40
11.43594125892112
 10
94.71607039275347
 20
-149.3924170866612
 30
0.0
 10
94.70453754391862
 20
-149.3924171350328
 30
0.0
 10
94.66259990392439
 20
-149.3924173008703
 30
0.0
 10
94.57767193132707
 20
-149.3924137799029
 30
0.0
 10
94.45502781473746
 20
-149.3924357735532
 30
0.0
 10
94.31337965112385
 20
-149.3923370261414
 30
0.0
 10
94.17223432927355
 20
-149.3926981755878
 30
0.0
 10
94.04839409121499
 20
-149.3916262018211
 30
0.0
 10
93.96598074196272
 20
-149.3939225469993
 30
0.0
 10
93.80703808239382
 20
-149.3843593441778
 30
0.0
 10
93.98459919476214
 20
-149.7469910947983
 30
0.0
 10
93.9722328799698
 20
-149.9924137606808
 30
0.0
 10
94.040710906811
 20
-150.2762200246637
 30
0.0
 10
94.1035613915215
 20
-150.5123350385216
 30
0.0
 10
94.17948430259739
 20
-150.7115776339508
 30
0.0
 10
94.2645779171261
 20
-150.8673915633983
 30
0.0
 10
94.35871971871808
 20
-150.9682664600981
 30
0.0
 10
94.4625237801973
 20
-151.0201865115224
 30
0.0
 10
94.5468461625019
 20
-150.9687801941158
 30
0.0
 10
94.56939117736974
 20
-150.8533995975369
 30
0.0
 10
94.60883205696165
 20
-150.7259935408882
 30
0.0
 10
94.55455093291881
 20
-150.4086217570445
 30
0.0
 10
94.67938076667181
 20
-150.5550232365029
 30
0.0
 10
94.83618811078487
 20
-150.5868920346003
 30
0.0
 10
94.72903096013022
 20
-150.8206314602357
 30
0.0
 10
94.71513008041129
 20
-150.9851172720754
 30
0.0
 10
94.6577299061471
 20
-151.1135363466872
 30
0.0
 10
94.56776097392537
 20
-151.1846570143837
 30
0.0
 10
94.44378642521227
 20
-151.2005217964895
 30
0.0
 10
94.29768627911056
 20
-151.1649070623702
 30
0.0
 10
94.15864839145293
 20
-151.0448393329092
 30
0.0
 10
94.04445935563896
 20
-150.8704882124088
 30
0.0
 10
93.94887308957313
 20
-150.6453790067995
 30
0.0
 10
93.86612421668715
 20
-150.3809625778476
 30
0.0
 10
93.81497688506572
 20
-150.0629657069265
 30
0.0
 10
93.71127788015829
 20
-149.7894077530227
 30
0.0
 10
93.83854308027668
 20
-149.3847868517835
 30
0.0
 10
93.67004802172633
 20
-149.3937213594151
 30
0.0
 10
93.58545853813226
 20
-149.3916854237284
 30
0.0
 10
93.45324659818726
 20
-149.3927056640278
 30
0.0
 10
93.29030946883492
 20
-149.3923127347277
 30
0.0
 10
93.10763487647782
 20
-149.3924880747782
 30
0.0
 10
92.91896469676276
 20
-149.3922439848373
 30
0.0
 10
92.73570586144345
 20
-149.3929884588496
 30
0.0
 10
92.57473364269627
 20
-149.3906814326876
 30
0.0
 10
92.4372397929521
 20
-149.3968469890754
 30
0.0
 10
92.36321799665555
 20
-149.3845166533298
 30
0.0
 10
92.29558047811018
 20
-149.4015518006764
 30
0.0
 10
92.30749633135144
 20
-149.3496006534367
 30
0.0
 10
92.29982668799393
 20
-149.3041307882467
 30
0.0
 10
92.30751818193605
 20
-149.258700500875
 30
0.0
 10
92.29557313920068
 20
-149.2068210780663
 30
0.0
 10
92.3626177900112
 20
-149.2236536030093
 30
0.0
 10
92.43599652599217
 20
-149.2114909469852
 30
0.0
 10
92.57217178995168
 20
-149.2175727271624
 30
0.0
 10
92.73164013957577
 20
-149.2152966947615
 30
0.0
 10
92.9131762680081
 20
-149.2160326979223
 30
0.0
 10
93.10006244564241
 20
-149.2157854959506
 30
0.0
 10
93.28106019110811
 20
-149.2159810299195
 30
0.0
 10
93.44233921731235
 20
-149.2155226907636
 30
0.0
 10
93.57364717191325
 20
-149.2167183003999
 30
0.0
 10
93.65676409168418
 20
-149.2143315647145
 30
0.0
 10
93.78988261420596
 20
-149.2225389806575
 30
0.0
 10
93.69884830969039
 20
-148.9673163483855
 30
0.0
 10
93.61322226686633
 20
-148.7032014546295
 30
0.0
 10
93.73331785977004
 20
-148.7158006082204
 30
0.0
 10
93.78568545427883
 20
-148.7179026802813
 30
0.0
 10
93.8557087163961
 20
-148.7194910390154
 30
0.0
 10
93.90145119320624
 20
-148.7288193625309
 30
0.0
 10
93.95634022411784
 20
-148.7193853687577
 30
0.0
 10
93.93061643799267
 20
-148.7675147513603
 30
0.0
 10
93.81679871656978
 20
-148.7621767404702
 30
0.0
 10
93.95019362153813
 20
-148.9903532921443
 30
0.0
 10
93.82862483297171
 20
-149.2232764719527
 30
0.0
 10
93.95657783636585
 20
-149.2139724490676
 30
0.0
 10
94.03916380007067
 20
-149.2168350203652
 30
0.0
 10
94.164980444507
 20
-149.215610663789
 30
0.0
 10
94.30840594323038
 20
-149.2155207190223
 30
0.0
 10
94.45000105459737
 20
-149.2173834060734
 30
0.0
 10
94.58017168442129
 20
-149.2115142785404
 30
0.0
 10
94.65360418804362
 20
-149.22414162968
 30
0.0
 10
94.72337025163417
 20
-149.2060694068079
 30
0.0
 10
94.71183621996416
 20
-149.2587165324487
 30
0.0
 10
94.71757739409279
 20
-149.3026318610465
 30
0.0
 10
94.71592053651561
 20
-149.3539452111465
 30
0.0
 10
94.7160347155915
 20
-149.3832571176956
 30
0.0
 10
94.71607039275347
 20
-149.3924170866612
 30
0.0
 11
94.71607039275347
 21
-149.3924170866612
 31
0.0
 11
94.68147167862965
 21
-149.3924170866612
 31
0.0
 11
94.59025688684868
 21
-149.3924170866612
 31
0.0
 11
94.46129804329625
 21
-149.3924170866612
 31
0.0
 11
94.31346717385813
 21
-149.3924170866612
 31
0.0
 11
94.16563630442
 21
-149.3924170866612
 31
0.0
 11
94.0366774608676
 21
-149.3924170866612
 31
0.0
 11
93.94546266908661
 21
-149.3924170866612
 31
0.0
 11
93.91086395496279
 21
-149.3924170866612
 31
0.0
 11
93.94257300919386
 21
-149.7104863886107
 31
0.0
 11
93.98704562511108
 21
-150.0097498100312
 31
0.0
 11
94.0434978712565
 21
-150.2829323427862
 31
0.0
 11
94.11114581617234
 21
-150.5227589787397
 31
0.0
 11
94.18920552840066
 21
-150.7219547097555
 31
0.0
 11
94.27689307648365
 21
-150.8732445276972
 31
0.0
 11
94.3734245289634
 21
-150.9693534244288
 31
0.0
 11
94.47801595438204
 21
-151.0030063918141
 31
0.0
 11
94.52856668970314
 21
-150.9730712681237
 31
0.0
 11
94.5653178585797
 21
-150.8799288397616
 31
0.0
 11
94.59052305717728
 21
-150.7185735207915
 31
0.0
 11
94.60643588166135
 21
-150.4839997252772
 31
0.0
 11
94.68366722768283
 21
-150.5428232148458
 31
0.0
 11
94.76697737786304
 21
-150.5856261835851
 31
0.0
 11
94.74089554054626
 21
-150.8295611513019
 31
0.0
 11
94.7015907399351
 21
-151.0027660090364
 31
0.0
 11
94.64482921910104
 21
-151.1147323134528
 31
0.0
 11
94.56637722111554
 21
-151.1749516212155
 31
0.0
 11
94.46200098905013
 21
-151.1929154889888
 31
0.0
 11
94.30811846593421
 21
-151.1552706377884
 31
0.0
 11
94.17314919709926
 21
-151.0477715491379
 31
0.0
 11
94.05643295104083
 21
-150.8785714204639
 31
0.0
 11
93.95730949625452
 21
-150.6558234491926
 31
0.0
 11
93.87511860123587
 21
-150.3876808327503
 31
0.0
 11
93.80920003448045
 21
-150.0822967685634
 31
0.0
 11
93.75889356448386
 21
-149.7478244540582
 31
0.0
 11
93.72353895974163
 21
-149.3924170866612
 31
0.0
 11
93.69045250000887
 21
-149.3924170866612
 31
0.0
 11
93.59973156203202
 21
-149.3924170866612
 31
0.0
 11
93.46418380764302
 21
-149.3924170866612
 31
0.0
 11
93.296616898674
 21
-149.3924170866612
 31
0.0
 11
93.10983849695688
 21
-149.3924170866612
 31
0.0
 11
92.91665626432378
 21
-149.3924170866612
 31
0.0
 11
92.7298778626067
 21
-149.3924170866612
 31
0.0
 11
92.56231095363762
 21
-149.3924170866612
 31
0.0
 11
92.42676319924865
 21
-149.3924170866612
 31
0.0
 11
92.33604226127179
 21
-149.3924170866612
 31
0.0
 11
92.30295580153904
 21
-149.3924170866612
 31
0.0
 11
92.30295580153903
 21
-149.3648301400535
 31
0.0
 11
92.30295580153904
 21
-149.3041388575166
 31
0.0
 11
92.30295580153904
 21
-149.2434475749797
 31
0.0
 11
92.30295580153904
 21
-149.215860628372
 31
0.0
 11
92.33573126818764
 21
-149.215860628372
 31
0.0
 11
92.42559948319186
 21
-149.215860628372
 31
0.0
 11
92.55987316913934
 21
-149.215860628372
 31
0.0
 11
92.72586504861773
 21
-149.215860628372
 31
0.0
 11
92.91088784421466
 21
-149.215860628372
 31
0.0
 11
93.10225427851775
 21
-149.215860628372
 31
0.0
 11
93.28727707411468
 21
-149.215860628372
 31
0.0
 11
93.45326895359307
 21
-149.215860628372
 31
0.0
 11
93.58754263954054
 21
-149.215860628372
 31
0.0
 11
93.67741085454477
 21
-149.215860628372
 31
0.0
 11
93.71018632119336
 21
-149.215860628372
 31
0.0
 11
93.70017735443481
 21
-148.9653685624624
 31
0.0
 11
93.69417021049082
 21
-148.7128788923867
 31
0.0
 11
93.72031654649042
 21
-148.7142758218308
 31
0.0
 11
93.7826655015664
 21
-148.7176069612744
 31
0.0
 11
93.85708199633449
 21
-148.7215828373845
 31
0.0
 11
93.91943095141046
 21
-148.7249139768281
 31
0.0
 11
93.94557728741006
 21
-148.7263109062722
 31
0.0
 11
93.93255207072858
 21
-148.7546797517512
 31
0.0
 11
93.88942388606506
 21
-148.7690322951503
 31
0.0
 11
93.89175815560668
 21
-148.9934783367609
 31
0.0
 11
93.90010423301487
 21
-149.215860628372
 31
0.0
 11
93.93516527894114
 21
-149.215860628372
 31
0.0
 11
94.02759894547404
 21
-149.215860628372
 31
0.0
 11
94.15828102574467
 21
-149.215860628372
 31
0.0
 11
94.30808731288417
 21
-149.215860628372
 31
0.0
 11
94.45789360002368
 21
-149.215860628372
 31
0.0
 11
94.5885756802943
 21
-149.215860628372
 31
0.0
 11
94.6810093468272
 21
-149.215860628372
 31
0.0
 11
94.71607039275347
 21
-149.215860628372
 31
0.0
 11
94.71607039275347
 21
-149.2434475749797
 31
0.0
 11
94.71607039275347
 21
-149.3041388575166
 31
0.0
 11
94.71607039275347
 21
-149.3648301400535
 31
0.0
 11
94.71607039275347
 21
-149.3924170866612
 31
0.0
  0
SPLINE
  5
B2
102
{ACAD_REACTORS
330
CF
102
}
330
48
100
AcDbEntity
  8
_U_30EC_U_30A4_U_30E4_U_30FC_1
  6
Continuous
 62
     2
100
AcDbSpline
210
0.0
220
0.0
230
1.0
 70
    11
 71
     3
 72
   118
 73
   114
 74
   112
 42
0.000000001
 43
0.0000000001
 44
0.00000001
 40
0.0
 40
0.0
 40
0.0
 40
0.0
 40
0.1054708162973349
 40
0.2466098270051816
 40
0.3965912874591067
 40
0.5285525069754019
 40
0.6156245055642258
 40
0.6431434105797642
 40
0.7036850037986361
 40
0.7642265984504786
 40
0.7917455052355031
 40
0.9287404319990025
 40
1.106572819088021
 40
1.287544879681004
 40
1.317578308030501
 40
1.399928030857122
 40
1.522968204799948
 40
1.675072986590546
 40
1.844616533180609
 40
2.0199730016387
 40
2.189516548879989
 40
2.341621331585312
 40
2.464661506320478
 40
2.547011229647036
 40
2.577044658168002
 40
2.603797890893059
 40
2.662655002908774
 40
2.721512114949586
 40
2.748265347702766
 40
2.774215307344842
 40
2.84595931340716
 40
2.954338556588378
 40
3.090194227585566
 40
3.244367517100538
 40
3.40769961584429
 40
3.57103171453944
 40
3.725205003920148
 40
3.861060674729639
 40
3.969439917716339
 40
4.041183923629017
 40
4.067133883213028
 40
4.311886746012234
 40
4.547897258335635
 40
4.764747083044089
 40
4.952749679951881
 40
5.045772974196026
 40
5.137862019645082
 40
5.330543169793112
 40
5.553448265244105
 40
5.795083855888275
 40
6.043293412177334
 40
6.285761695541234
 40
6.313902908752747
 40
6.384255941793322
 40
6.475714884766896
 40
6.567173827758959
 40
6.637526860839708
 40
6.665668074074057
 40
6.692018920328048
 40
6.749990782071103
 40
6.807962643790512
 40
6.834313490017985
 40
6.85639308424525
 40
6.913335195649916
 40
6.991194817302565
 40
7.076026942283798
 40
7.153886563725317
 40
7.210828674844857
 40
7.232908268931206
 40
7.258199334923697
 40
7.324875781592377
 40
7.419142481925045
 40
7.527204308841997
 40
7.635266135230561
 40
7.729532834168575
 40
7.796209279292876
 40
7.821500344594833
 40
7.844652988850959
 40
7.8998631405417
 40
7.965759128053881
 40
8.020969279771178
 40
8.044121924046644
 40
8.069356610160762
 40
8.109134395441512
 40
8.132238100191213
 40
8.193147867786589
 40
8.279261678876733
 40
8.37797751267399
 40
8.476693347146774
 40
8.562807160411833
 40
8.623716930826614
 40
8.646820636853587
 40
8.671988793774428
 40
8.734909185828297
 40
8.816705695189011
 40
8.89850220481561
 40
8.961422597378057
 40
8.986590754551198
 40
9.012941600733338
 40
9.070913462380442
 40
9.128885324081946
 40
9.155236170325278
 40
9.180404327929292
 40
9.243324721948394
 40
9.325121234212173
 40
9.406917746637856
 40
9.469838141978311
 40
9.4950062882711
 40
9.51781118437924
 40
9.57219209048722
 40
9.637098333281415
 40
9.691479239515616
 40
9.714284125643644
 40
9.714284125643644
 40
9.714284125643644
 40
9.714284125643644
 10
89.92170586228985
 20
-149.6759534060348
 30
0.0
 10
89.94335801632832
 20
-149.7037263454839
 30
0.0
 10
89.99398467037187
 20
-149.7686644922996
 30
0.0
 10
90.06919727968373
 20
-149.8759344347831
 30
0.0
 10
90.15910718685916
 20
-149.9910706552457
 30
0.0
 10
90.20517592709182
 20
-150.0912745804288
 30
0.0
 10
90.29984148889005
 20
-150.1605049697626
 30
0.0
 10
90.2547028914658
 20
-150.2071286411293
 30
0.0
 10
90.22896373800354
 20
-150.2482419492516
 30
0.0
 10
90.19877863022575
 20
-150.2841853206326
 30
0.0
 10
90.15362743248068
 20
-150.359047211951
 30
0.0
 10
90.10530940528079
 20
-150.137019795376
 30
0.0
 10
90.0311129307319
 20
-150.0997382645348
 30
0.0
 10
89.91786369188516
 20
-149.8287430166061
 30
0.0
 10
89.92277231724152
 20
-149.9438917534497
 30
0.0
 10
89.92110761505509
 20
-150.0164782800958
 30
0.0
 10
89.92194196709599
 20
-150.1385891530721
 30
0.0
 10
89.92161991345091
 20
-150.2857070298074
 30
0.0
 10
89.92176665067014
 20
-150.4517743983464
 30
0.0
 10
89.92155396869678
 20
-150.622969491826
 30
0.0
 10
89.92220868462786
 20
-150.789316751557
 30
0.0
 10
89.92017820553846
 20
-150.9354933073551
 30
0.0
 10
89.9256049994176
 20
-151.0601345631659
 30
0.0
 10
89.91475204629532
 20
-151.1276584725057
 30
0.0
 10
89.92993287498001
 20
-151.1893544237418
 30
0.0
 10
89.8800484702379
 20
-151.177569998942
 30
0.0
 10
89.8359739936767
 20
-151.1854068101123
 30
0.0
 10
89.79249612244459
 20
-151.1772406241849
 30
0.0
 10
89.74349363807337
 20
-151.1894644705274
 30
0.0
 10
89.75613208290702
 20
-151.1352383654188
 30
0.0
 10
89.74727725626948
 20
-151.0754758488365
 30
0.0
 10
89.75176483645589
 20
-150.9656247474683
 30
0.0
 10
89.75005497302354
 20
-150.8345452838552
 30
0.0
 10
89.75061405102323
 20
-150.6828649234687
 30
0.0
 10
89.75045183629389
 20
-150.5227342886125
 30
0.0
 10
89.75048595189196
 20
-150.3624763811663
 30
0.0
 10
89.75051045543718
 20
-150.2111425627076
 30
0.0
 10
89.75040431374705
 20
-150.079023474526
 30
0.0
 10
89.75068887361763
 20
-149.97189701258
 30
0.0
 10
89.75012651418128
 20
-149.9067588421172
 30
0.0
 10
89.75233546779343
 20
-149.7786554593251
 30
0.0
 10
89.66620255928481
 20
-150.1538689339963
 30
0.0
 10
89.58977304127454
 20
-150.305663106678
 30
0.0
 10
89.50026303620785
 20
-150.467182973449
 30
0.0
 10
89.39830028115719
 20
-150.7401265497103
 30
0.0
 10
89.35305660852842
 20
-150.5776715719469
 30
0.0
 10
89.24449455359158
 20
-150.4887907173308
 30
0.0
 10
89.43383813459981
 20
-150.3393470882979
 30
0.0
 10
89.49079301399453
 20
-150.1473536681627
 30
0.0
 10
89.60601105875975
 20
-149.9158488088445
 30
0.0
 10
89.6282741224378
 20
-149.7268724403214
 30
0.0
 10
89.8114494746385
 20
-149.4503041446529
 30
0.0
 10
89.6880623191797
 20
-149.4578552495911
 30
0.0
 10
89.62682737610787
 20
-149.4562773142509
 30
0.0
 10
89.54245892113093
 20
-149.4560191121753
 30
0.0
 10
89.45468246802108
 20
-149.4593965804
 30
0.0
 10
89.39993582903682
 20
-149.4508968880919
 30
0.0
 10
89.344729262027
 20
-149.4643594274142
 30
0.0
 10
89.35654126297817
 20
-149.4155306166444
 30
0.0
 10
89.34850857460391
 20
-149.3721549889449
 30
0.0
 10
89.35707756989238
 20
-149.3297506548163
 30
0.0
 10
89.34455330034024
 20
-149.2821670723908
 30
0.0
 10
89.38976911329806
 20
-149.2921729079609
 30
0.0
 10
89.43574051569695
 20
-149.2859039861714
 30
0.0
 10
89.51198116419557
 20
-149.2889094238533
 30
0.0
 10
89.59038857262394
 20
-149.2871405551266
 30
0.0
 10
89.66665822431781
 20
-149.2901970980954
 30
0.0
 10
89.71255990537196
 20
-149.2838053241502
 30
0.0
 10
89.75743235596454
 20
-149.2939068081231
 30
0.0
 10
89.74481418698785
 20
-149.243273022093
 30
0.0
 10
89.75345261769515
 20
-149.1898324190913
 30
0.0
 10
89.74949511896881
 20
-149.0962124865952
 30
0.0
 10
89.75049146625793
 20
-148.9937189710228
 30
0.0
 10
89.75145170073186
 20
-148.8913123354303
 30
0.0
 10
89.74758010522504
 20
-148.7974857418188
 30
0.0
 10
89.756037940861
 20
-148.7444796095084
 30
0.0
 10
89.74356655270803
 20
-148.6927306814001
 30
0.0
 10
89.78846959840952
 20
-148.7063375656444
 30
0.0
 10
89.82976734310172
 20
-148.7038402347062
 30
0.0
 10
89.89379338752957
 20
-148.7083644321672
 30
0.0
 10
89.93287007430314
 20
-148.7170350074789
 30
0.0
 10
89.98191330929876
 20
-148.7096940172051
 30
0.0
 10
89.9567669624836
 20
-148.7488160773945
 30
0.0
 10
89.91584909279688
 20
-148.7392066133539
 30
0.0
 10
89.92526992108498
 20
-148.7894435562142
 30
0.0
 10
89.91982369129914
 20
-148.8409855815171
 30
0.0
 10
89.92242891960488
 20
-148.9252479620668
 30
0.0
 10
89.92126917963999
 20
-149.0192536820779
 30
0.0
 10
89.92261806584766
 20
-149.1128763839567
 30
0.0
 10
89.91925596957543
 20
-149.1980498623898
 30
0.0
 10
89.9263549512014
 20
-149.2476764771915
 30
0.0
 10
89.9155158748791
 20
-149.2949080882121
 30
0.0
 10
89.96465998194908
 20
-149.2828282885435
 30
0.0
 10
90.01374672243922
 20
-149.2903711042819
 30
0.0
 10
90.09163038748868
 20
-149.2879843342977
 30
0.0
 10
90.16929547671413
 20
-149.2858512188579
 30
0.0
 10
90.21879835256004
 20
-149.2929111186874
 30
0.0
 10
90.26871843448848
 20
-149.2812435185499
 30
0.0
 10
90.25657881111265
 20
-149.3294426841981
 30
0.0
 10
90.26484278233892
 20
-149.3723528398997
 30
0.0
 10
90.25657882450288
 20
-149.4152630193982
 30
0.0
 10
90.26871841441003
 20
-149.4634621503634
 30
0.0
 10
90.21879847529921
 20
-149.4517946931969
 30
0.0
 10
90.16929402454485
 20
-149.4588530135616
 30
0.0
 10
90.09163739772181
 20
-149.456728385626
 30
0.0
 10
90.01372334600057
 20
-149.4543111442545
 30
0.0
 10
89.96470899469614
 20
-149.4619265559671
 30
0.0
 10
89.91558357031883
 20
-149.4497655123361
 30
0.0
 10
89.92581495828165
 20
-149.4941149036705
 30
0.0
 10
89.91992672722988
 20
-149.5355906758829
 30
0.0
 10
89.92213778998143
 20
-149.595691094759
 30
0.0
 10
89.92166989403914
 20
-149.6425872102832
 30
0.0
 10
89.92169765871587
 20
-149.66834357373
 30
0.0
 10
89.92170586228985
 20
-149.6759534060348
 30
0.0
 11
89.92170586228985
 21
-149.6759534060348
 31
0.0
 11
89.98595671287296
 21
-149.7595950415694
 31
0.0
 11
90.06908484297445
 21
-149.8736561404298
 31
0.0
 11
90.15594211631412
 21
-149.9959273659547
 31
0.0
 11
90.23138039661177
 21
-150.1041993814833
 31
0.0
 11
90.28025154758717
 21
-150.1762628503541
 31
0.0
 11
90.26394108793384
 21
-150.198427216668
 31
0.0
 11
90.2280580766965
 21
-150.2471888225586
 31
0.0
 11
90.19217506545915
 21
-150.2959504284492
 31
0.0
 11
90.17586460580583
 21
-150.3181147947631
 31
0.0
 11
90.11056567036913
 21
-150.1976836476738
 31
0.0
 11
90.019102383748
 21
-150.0451752012099
 31
0.0
 11
89.92170586228985
 21
-149.8926471559806
 31
0.0
 11
89.92170586228987
 21
-149.9226805846295
 31
0.0
 11
89.92170586228985
 21
-150.0050303083442
 31
0.0
 11
89.92170586228985
 21
-150.1280704837768
 31
0.0
 11
89.92170586228985
 21
-150.2801752675792
 31
0.0
 11
89.92170586228987
 21
-150.4497188164036
 31
0.0
 11
89.92170586228987
 21
-150.6250752869019
 31
0.0
 11
89.92170586228985
 21
-150.7946188357263
 31
0.0
 11
89.92170586228985
 21
-150.9467236195287
 31
0.0
 11
89.92170586228985
 21
-151.0697637949613
 31
0.0
 11
89.92170586228985
 21
-151.152113518676
 31
0.0
 11
89.92170586228985
 21
-151.1821469473249
 31
0.0
 11
89.89495262946542
 21
-151.1821469473249
 31
0.0
 11
89.83609551725169
 21
-151.1821469473249
 31
0.0
 11
89.77723840503796
 21
-151.1821469473249
 31
0.0
 11
89.75048517221353
 21
-151.1821469473249
 31
0.0
 11
89.75048517221353
 21
-151.1561969875995
 31
0.0
 11
89.75048517221353
 21
-151.0844529812999
 31
0.0
 11
89.75048517221353
 21
-150.976073737741
 31
0.0
 11
89.75048517221353
 21
-150.8402180662375
 31
0.0
 11
89.75048517221353
 21
-150.6860447761044
 31
0.0
 11
89.75048517221353
 21
-150.5227126766564
 31
0.0
 11
89.75048517221353
 21
-150.3593805772084
 31
0.0
 11
89.75048517221353
 21
-150.2052072870753
 31
0.0
 11
89.75048517221353
 21
-150.0693516155718
 31
0.0
 11
89.75048517221353
 21
-149.9609723720129
 31
0.0
 11
89.75048517221353
 21
-149.8892283657133
 31
0.0
 11
89.75048517221353
 21
-149.8632784059879
 31
0.0
 11
89.67224554559671
 21
-150.0951890048883
 31
0.0
 11
89.58397003835489
 21
-150.3140688746252
 31
0.0
 11
89.48866965242908
 21
-150.5088551245765
 31
0.0
 11
89.38935538976017
 21
-150.66848486412
 31
0.0
 11
89.34517879366513
 21
-150.586620575946
 31
0.0
 11
89.29306469777259
 21
-150.5106961836039
 31
0.0
 11
89.39698921845444
 21
-150.3484441586444
 31
0.0
 11
89.49719094589801
 21
-150.1493303836942
 31
0.0
 11
89.58930362021466
 21
-149.92594055875
 31
0.0
 11
89.66896098151572
 21
-149.6908603838088
 31
0.0
 11
89.73179676991253
 21
-149.4566755588674
 31
0.0
 11
89.70365555663874
 21
-149.4566755588674
 31
0.0
 11
89.63330252345422
 21
-149.4566755588674
 31
0.0
 11
89.54184358031435
 21
-149.4566755588674
 31
0.0
 11
89.45038463717448
 21
-149.4566755588674
 31
0.0
 11
89.38003160398998
 21
-149.4566755588674
 31
0.0
 11
89.35189039071616
 21
-149.4566755588674
 31
0.0
 11
89.35189039071615
 21
-149.4303247125198
 31
0.0
 11
89.35189039071616
 21
-149.3723528505552
 31
0.0
 11
89.35189039071616
 21
-149.3143809885905
 31
0.0
 11
89.35189039071616
 21
-149.2880301422429
 31
0.0
 11
89.3739699850265
 21
-149.2880301422429
 31
0.0
 11
89.430912096669
 21
-149.2880301422429
 31
0.0
 11
89.50877171871076
 21
-149.2880301422429
 31
0.0
 11
89.59360384421893
 21
-149.2880301422429
 31
0.0
 11
89.67146346626069
 21
-149.2880301422429
 31
0.0
 11
89.72840557790317
 21
-149.2880301422429
 31
0.0
 11
89.75048517221353
 21
-149.2880301422429
 31
0.0
 11
89.75048517221353
 21
-149.2627390761685
 31
0.0
 11
89.75048517221353
 21
-149.196062629245
 31
0.0
 11
89.75048517221354
 21
-149.1017959284222
 31
0.0
 11
89.75048517221353
 21
-148.9937341006497
 31
0.0
 11
89.75048517221353
 21
-148.8856722728773
 31
0.0
 11
89.75048517221353
 21
-148.7914055720545
 31
0.0
 11
89.75048517221353
 21
-148.724729125131
 31
0.0
 11
89.75048517221353
 21
-148.6994380590566
 31
0.0
 11
89.77357715829109
 21
-148.701112906834
 31
0.0
 11
89.82864266355296
 21
-148.7051067746108
 31
0.0
 11
89.89436600854293
 21
-148.7098736490541
 31
0.0
 11
89.9494315138048
 21
-148.7138675168308
 31
0.0
 11
89.97252349988236
 21
-148.7155423646082
 31
0.0
 11
89.95916022386072
 21
-148.7369482587001
 31
0.0
 11
89.92170586228985
 21
-148.7503438923773
 31
0.0
 11
89.92170586228987
 21
-148.7734475984262
 31
0.0
 11
89.92170586228985
 21
-148.8343573689188
 31
0.0
 11
89.92170586228984
 21
-148.9204711823738
 31
0.0
 11
89.92170586228985
 21
-149.0191870173101
 31
0.0
 11
89.92170586228985
 21
-149.1179028522463
 31
0.0
 11
89.92170586228985
 21
-149.2040166657014
 31
0.0
 11
89.92170586228985
 21
-149.264926436194
 31
0.0
 11
89.92170586228985
 21
-149.2880301422429
 31
0.0
 11
89.94687401990544
 21
-149.2880301422429
 31
0.0
 11
90.00979441394443
 21
-149.2880301422429
 31
0.0
 11
90.09159092619512
 21
-149.2880301422429
 31
0.0
 11
90.17338743844581
 21
-149.2880301422429
 31
0.0
 11
90.23630783248478
 21
-149.2880301422429
 31
0.0
 11
90.2614759901004
 21
-149.2880301422429
 31
0.0
 11
90.26147599010041
 21
-149.3143809885905
 31
0.0
 11
90.2614759901004
 21
-149.3723528505551
 31
0.0
 11
90.2614759901004
 21
-149.4303247125198
 31
0.0
 11
90.2614759901004
 21
-149.4566755588674
 31
0.0
 11
90.2363078324848
 21
-149.4566755588674
 31
0.0
 11
90.1733874384458
 21
-149.4566755588674
 31
0.0
 11
90.09159092619512
 21
-149.4566755588674
 31
0.0
 11
90.00979441394443
 21
-149.4566755588674
 31
0.0
 11
89.94687401990544
 21
-149.4566755588674
 31
0.0
 11
89.92170586228985
 21
-149.4566755588674
 31
0.0
 11
89.92170586228985
 21
-149.4794804549728
 31
0.0
 11
89.92170586228985
 21
-149.5338613610703
 31
0.0
 11
89.92170586228985
 21
-149.5987676038319
 31
0.0
 11
89.92170586228985
 21
-149.6531485099294
 31
0.0
 11
89.92170586228985
 21
-149.6759534060348
 31
0.0
  0
SPLINE
  5
B3
102
{ACAD_REACTORS
330
D0
102
}
330
48
100
AcDbEntity
  8
_U_30EC_U_30A4_U_30E4_U_30FC_1
  6
Continuous
 62
     2
100
AcDbSpline
210
0.0
220
0.0
230
1.0
 70
    11
 71
     3
 72
    47
 73
    43
 74
    41
 42
0.000000001
 43
0.0000000001
 44
0.00000001
 40
0.0
 40
0.0
 40
0.0
 40
0.0
 40
0.2207912809957521
 40
0.4459404186303151
 40
0.4902387190459621
 40
0.5327473892722377
 40
0.574226045122588
 40
0.6155432630561168
 40
0.6568164066316229
 40
0.6982511618781176
 40
0.740766392931747
 40
0.7851366743175541
 40
1.01028883383636
 40
1.231080507002229
 40
1.451765243652407
 40
1.676638205891698
 40
1.720461045359633
 40
1.830018144043527
 40
1.972442372353135
 40
2.114866600677522
 40
2.224423699395181
 40
2.268246538883409
 40
2.493628801207248
 40
2.715602830286664
 40
2.934211330706397
 40
3.149502369855356
 40
3.231387784851
 40
3.318231873854034
 40
3.405143198198036
 40
3.486970301720484
 40
3.702258172493915
 40
3.920866283534104
 40
4.142839325931901
 40
4.36822190386541
 40
4.412044743359863
 40
4.521601842095882
 40
4.664026070452386
 40
4.806450298809088
 40
4.916007397546784
 40
4.959830237043113
 40
5.184703515847154
 40
5.405387250767464
 40
5.405387250767464
 40
5.405387250767464
 40
5.405387250767464
 10
87.28500168528905
 20
-149.2107806283733
 30
0.0
 10
87.29107290142483
 20
-149.1472602128999
 30
0.0
 10
87.30333517014884
 20
-149.0189656510157
 30
0.0
 10
87.1947296473657
 20
-148.7431828361713
 30
0.0
 10
87.31045754908489
 20
-148.7729637035915
 30
0.0
 10
87.35144321032608
 20
-148.7771894752838
 30
0.0
 10
87.39337953917631
 20
-148.7817405740159
 30
0.0
 10
87.43467862199557
 20
-148.7828252086171
 30
0.0
 10
87.47596217098007
 20
-148.7817416559597
 30
0.0
 10
87.51787378648925
 20
-148.7771839107985
 30
0.0
 10
87.55885731432645
 20
-148.7729707358148
 30
0.0
 10
87.67475124377341
 20
-148.7430689247366
 30
0.0
 10
87.56382423217018
 20
-149.0214469718131
 30
0.0
 10
87.59174459595117
 20
-149.2020136296625
 30
0.0
 10
87.57468569412148
 20
-149.4352346144473
 30
0.0
 10
87.57572268763482
 20
-149.5957788124805
 30
0.0
 10
87.57566889936493
 20
-149.7219968623248
 30
0.0
 10
87.57568669667259
 20
-149.8205554045495
 30
0.0
 10
87.57567781753252
 20
-149.9520380134823
 30
0.0
 10
87.57568535222785
 20
-150.0835165882255
 30
0.0
 10
87.57567189993739
 20
-150.1820828109711
 30
0.0
 10
87.57571213117365
 20
-150.3084476816705
 30
0.0
 10
87.57493359980631
 20
-150.4700243496833
 30
0.0
 10
87.59085479135115
 20
-150.7012268189829
 30
0.0
 10
87.56760584796524
 20
-150.886101518192
 30
0.0
 10
87.67027730386114
 20
-151.1554890102114
 30
0.0
 10
87.51628279570816
 20
-151.1182439110538
 30
0.0
 10
87.43467193970774
 20
-151.1234650911067
 30
0.0
 10
87.35307818868283
 20
-151.1182388341285
 30
0.0
 10
87.19911032610874
 20
-151.1554743390581
 30
0.0
 10
87.30167730161628
 20
-150.8860937392832
 30
0.0
 10
87.27846349103334
 20
-150.7012291846578
 30
0.0
 10
87.29430342493839
 20
-150.4700228522556
 30
0.0
 10
87.29358859076731
 20
-150.308447914827
 30
0.0
 10
87.29362541641522
 20
-150.1820827258068
 30
0.0
 10
87.29361385945157
 20
-150.0835174715522
 30
0.0
 10
87.29361646134596
 20
-149.9520337637397
 30
0.0
 10
87.29362381260245
 20
-149.8205695576
 30
0.0
 10
87.29360321355972
 20
-149.7219671751587
 30
0.0
 10
87.29366717862737
 20
-149.5958835443677
 30
0.0
 10
87.29243235418352
 20
-149.4327441240743
 30
0.0
 10
87.28746299909903
 20
-149.2843032001365
 30
0.0
 10
87.28500168528905
 20
-149.2107806283733
 30
0.0
 11
87.28500168528905
 21
-149.2107806283733
 31
0.0
 11
87.27599177946246
 21
-148.9901732499562
 31
0.0
 11
87.26613593003913
 21
-148.7652399340402
 31
0.0
 11
87.30995754350464
 21
-148.7717211232747
 31
0.0
 11
87.35209905284603
 21
-148.7772961145927
 31
0.0
 11
87.39339610040359
 21
-148.7811733628557
 31
0.0
 11
87.43469314796107
 21
-148.7824643090359
 31
0.0
 11
87.47594609829758
 21
-148.7811733628557
 31
0.0
 11
87.51719904863427
 21
-148.7772961145927
 31
0.0
 11
87.55934717255883
 21
-148.7717211232747
 31
0.0
 11
87.60324154643905
 21
-148.7652399340402
 31
0.0
 11
87.59331672881368
 21
-148.9901732499562
 31
0.0
 11
87.58429738025552
 21
-149.2107806283733
 31
0.0
 11
87.57782280576804
 21
-149.4313703679014
 31
0.0
 11
87.57568078325312
 21
-149.6562331282619
 31
0.0
 11
87.5756807832531
 21
-149.7000559677571
 31
0.0
 11
87.57568078325312
 21
-149.8096130664952
 31
0.0
 11
87.57568078325312
 21
-149.9520372948546
 31
0.0
 11
87.57568078325312
 21
-150.0944615232141
 31
0.0
 11
87.57568078325312
 21
-150.2040186219521
 31
0.0
 11
87.57568078325312
 21
-150.2478414614473
 31
0.0
 11
87.57782280576804
 21
-150.4732135447243
 31
0.0
 11
87.58429738025552
 21
-150.6950931280022
 31
0.0
 11
87.59331672881368
 21
-150.9135154890587
 31
0.0
 11
87.60324154643905
 21
-151.1285776417827
 31
0.0
 11
87.52152057630158
 21
-151.1233907060201
 31
0.0
 11
87.43469314796107
 21
-151.1216896556734
 31
0.0
 11
87.34779847135846
 21
-151.1233907060201
 31
0.0
 11
87.26613593003913
 21
-151.1285776417827
 31
0.0
 11
87.27599177946246
 21
-150.9135154890587
 31
0.0
 11
87.28500168528905
 21
-150.6950931280022
 31
0.0
 11
87.29144234330435
 21
-150.4732135447244
 31
0.0
 11
87.2936173182269
 21
-150.2478414614473
 31
0.0
 11
87.2936173182269
 21
-150.2040186219521
 31
0.0
 11
87.29361731822688
 21
-150.0944615232141
 31
0.0
 11
87.2936173182269
 21
-149.9520372948546
 31
0.0
 11
87.2936173182269
 21
-149.8096130664952
 31
0.0
 11
87.2936173182269
 21
-149.7000559677571
 31
0.0
 11
87.2936173182269
 21
-149.6562331282619
 31
0.0
 11
87.29144234330434
 21
-149.4313703679014
 31
0.0
 11
87.28500168528905
 21
-149.2107806283733
 31
0.0
  0
SPLINE
  5
B4
102
{ACAD_REACTORS
330
D1
102
}
330
48
100
AcDbEntity
  8
_U_30EC_U_30A4_U_30E4_U_30FC_1
  6
Continuous
 62
     2
100
AcDbSpline
210
0.0
220
0.0
230
1.0
 70
    11
 71
     3
 72
   110
 73
   106
 74
   104
 42
0.000000001
 43
0.0000000001
 44
0.00000001
 40
0.0
 40
0.0
 40
0.0
 40
0.0
 40
0.220340625727743
 40
0.4407808782837971
 40
0.5952494494614665
 40
0.7488431659392929
 40
0.9023581831308493
 40
1.056801968670405
 40
1.210736449099849
 40
1.363041386539714
 40
1.515315729683054
 40
1.669377239148034
 40
1.721611652756518
 40
1.773199502942941
 40
1.824933793209956
 40
1.877110426487873
 40
1.982682281206621
 40
2.078781667087457
 40
2.172809640822205
 40
2.271937807378802
 40
2.37834993337921
 40
2.494131557736424
 40
2.626681683943559
 40
2.783145050796001
 40
2.890701232940807
 40
2.993130312454681
 40
3.099869730691681
 40
3.220237816691216
 40
3.352695482737476
 40
3.481732806389717
 40
3.593499473690296
 40
3.674323013331734
 40
3.817951711952655
 40
3.946167120793666
 40
4.061405053453352
 40
4.166480796003007
 40
4.262478775059084
 40
4.350736673550985
 40
4.43307199125387
 40
4.51121629381449
 40
4.564262454117837
 40
4.618474415571473
 40
4.670128488754099
 40
4.722296879126306
 40
4.819540945314197
 40
4.93119498412802
 40
5.049996040257679
 40
5.168643755415223
 40
5.283970811762449
 40
5.392260784910289
 40
5.486512254876335
 40
5.559178233949734
 40
5.591425852853403
 40
5.626215969637795
 40
5.667155838674296
 40
5.71744929021416
 40
5.738402360944758
 40
5.784499116553758
 40
5.83059587216469
 40
5.851548942897563
 40
5.873019280661691
 40
5.924217778408218
 40
5.985325662817599
 40
6.036524160567621
 40
6.057994498334165
 40
6.236847789607354
 40
6.381409928945582
 40
6.493190424178606
 40
6.574067534230455
 40
6.691018086205563
 40
6.814881554220467
 40
6.944307823240462
 40
7.071266716066072
 40
7.193488604461892
 40
7.309042773128142
 40
7.414007203170785
 40
7.505140441886495
 40
7.531150360599639
 40
7.559221645322209
 40
7.587202218920887
 40
7.612569159499124
 40
7.662550809480956
 40
7.702878875764067
 40
7.857328205230881
 40
8.010799568088512
 40
8.16525639965749
 40
8.322232698713801
 40
8.479564855016502
 40
8.635216230290691
 40
8.790882550925609
 40
8.94830515494713
 40
9.168271839032785
 40
9.387358980987049
 40
9.608047961033279
 40
9.832914234792542
 40
9.858338694962884
 40
9.92536681722986
 40
10.02013071422745
 40
10.12876249858984
 40
10.23739428295234
 40
10.33215817995175
 40
10.39918630222376
 40
10.42461076239765
 40
10.64992019336923
 40
10.87188524531169
 40
10.87188524531169
 40
10.87188524531169
 40
10.87188524531169
 10
84.54003779708637
 20
-149.2056124339301
 30
0.0
 10
84.54354545277866
 20
-149.138680417174
 30
0.0
 10
84.55056235819075
 20
-149.0047861187534
 30
0.0
 10
84.45406171933182
 20
-148.7193594881973
 30
0.0
 10
84.68527243203542
 20
-148.7820011760092
 30
0.0
 10
84.82618796514012
 20
-148.774829497352
 30
0.0
 10
84.9833007351834
 20
-148.7824862071296
 30
0.0
 10
85.13685030215329
 20
-148.7823175150816
 30
0.0
 10
85.2887694529326
 20
-148.7830246325576
 30
0.0
 10
85.44848044074766
 20
-148.7727434543956
 30
0.0
 10
85.57515621953628
 20
-148.7898799271044
 30
0.0
 10
85.77134107163252
 20
-148.7175724368406
 30
0.0
 10
85.73769848733242
 20
-148.8184380471108
 30
0.0
 10
85.73946009114296
 20
-148.8686524984353
 30
0.0
 10
85.73699316677043
 20
-148.9177216820474
 30
0.0
 10
85.76896665602564
 20
-149.004210129442
 30
0.0
 10
85.63529894975015
 20
-148.9548706518286
 30
0.0
 10
85.55147982823019
 20
-148.9605386947703
 30
0.0
 10
85.45164507335693
 20
-148.950189870849
 30
0.0
 10
85.35291663143911
 20
-148.9439805338011
 30
0.0
 10
85.24641223653559
 20
-148.9378673997442
 30
0.0
 10
85.12531012923053
 20
-148.9289562030663
 30
0.0
 10
85.00459710966982
 20
-148.9396289787881
 30
0.0
 10
84.81551434376826
 20
-148.8801600071084
 30
0.0
 10
84.84716180995565
 20
-149.0392618371366
 30
0.0
 10
84.83381529110792
 20
-149.1364537545129
 30
0.0
 10
84.83175480206955
 20
-149.248504386811
 30
0.0
 10
84.83007776389165
 20
-149.3678481816185
 30
0.0
 10
84.83159263884784
 20
-149.4945191163609
 30
0.0
 10
84.82991720729153
 20
-149.6218291577508
 30
0.0
 10
84.84014338659037
 20
-149.7203293738673
 30
0.0
 10
84.81215961908278
 20
-149.8609580116556
 30
0.0
 10
84.98506195935506
 20
-149.804949526571
 30
0.0
 10
85.09876097970172
 20
-149.8176455231271
 30
0.0
 10
85.21827412664842
 20
-149.8103612673994
 30
0.0
 10
85.32310810193172
 20
-149.8060648673444
 30
0.0
 10
85.41856744928572
 20
-149.8015393553223
 30
0.0
 10
85.51064131012775
 20
-149.7933530264499
 30
0.0
 10
85.58191413766843
 20
-149.7984065315309
 30
0.0
 10
85.68875212999306
 20
-149.7594807875952
 30
0.0
 10
85.65691931922812
 20
-149.8396738178532
 30
0.0
 10
85.66087540981756
 20
-149.8892156694517
 30
0.0
 10
85.65770919862578
 20
-149.9392702575138
 30
0.0
 10
85.68933810848303
 20
-150.0235565617918
 30
0.0
 10
85.5552723271937
 20
-149.9705913829604
 30
0.0
 10
85.46349123874454
 20
-149.9794442290076
 30
0.0
 10
85.34223187838484
 20
-149.9691445382604
 30
0.0
 10
85.22567027140168
 20
-149.967355920237
 30
0.0
 10
85.11259653401241
 20
-149.966974866815
 30
0.0
 10
85.00218359027164
 20
-149.9606905431902
 30
0.0
 10
84.92407136620858
 20
-149.9729537053583
 30
0.0
 10
84.82562154278892
 20
-149.9403061617508
 30
0.0
 10
84.83549447678064
 20
-149.9971475573699
 30
0.0
 10
84.83165128386482
 20
-150.0309237323321
 30
0.0
 10
84.8309379478514
 20
-150.0736489908179
 30
0.0
 10
84.83059592372209
 20
-150.1108289652904
 30
0.0
 10
84.83064238495912
 20
-150.1499726642043
 30
0.0
 10
84.83062390241723
 20
-150.1876765429352
 30
0.0
 10
84.83062930260525
 20
-150.2253954855879
 30
0.0
 10
84.8306286808446
 20
-150.2549017904605
 30
0.0
 10
84.8306287745791
 20
-150.2861092609189
 30
0.0
 10
84.83062938821661
 20
-150.3307007888312
 30
0.0
 10
84.83062610935828
 20
-150.3852054728235
 30
0.0
 10
84.83063492177266
 20
-150.4297896358975
 30
0.0
 10
84.8305949247663
 20
-150.5136669520546
 30
0.0
 10
84.83186138645007
 20
-150.6274698311352
 30
0.0
 10
84.82928637120867
 20
-150.7765410785749
 30
0.0
 10
84.84075989759657
 20
-150.878872999773
 30
0.0
 10
84.81660958165081
 20
-151.0114559990537
 30
0.0
 10
84.96755835407215
 20
-150.9658877151919
 30
0.0
 10
85.07710262658009
 20
-150.9805749162886
 30
0.0
 10
85.20765600681656
 20
-150.9756406866614
 30
0.0
 10
85.33329018037591
 20
-150.9722679846785
 30
0.0
 10
85.45313202198462
 20
-150.9677300629241
 30
0.0
 10
85.57339522056719
 20
-150.9543596760921
 30
0.0
 10
85.65653512577603
 20
-150.964157910086
 30
0.0
 10
85.77986700153198
 20
-150.9035828916789
 30
0.0
 10
85.75868587982018
 20
-150.9595204365718
 30
0.0
 10
85.7578539864362
 20
-150.9854525441886
 30
0.0
 10
85.75615533018035
 20
-151.0128724760026
 30
0.0
 10
85.75605644830749
 20
-151.0474630858482
 30
0.0
 10
85.75462488955753
 20
-151.0843409557043
 30
0.0
 10
85.78753937864344
 20
-151.1763766276939
 30
0.0
 10
85.58938965823532
 20
-151.1035248781637
 30
0.0
 10
85.46431378891359
 20
-151.1265877728259
 30
0.0
 10
85.30156608894015
 20
-151.1203048180542
 30
0.0
 10
85.14719560442461
 20
-151.1222355988128
 30
0.0
 10
84.99092600311889
 20
-151.1209074119194
 30
0.0
 10
84.8313134059527
 20
-151.1242463130334
 30
0.0
 10
84.68829159364823
 20
-151.1121870806296
 30
0.0
 10
84.4539734475874
 20
-151.1753250181428
 30
0.0
 10
84.55164003454425
 20
-150.8886397632488
 30
0.0
 10
84.53494583743043
 20
-150.6949619564854
 30
0.0
 10
84.54888863039297
 20
-150.466362609109
 30
0.0
 10
84.54855774408782
 20
-150.3109990983615
 30
0.0
 10
84.54856677135085
 20
-150.2051816734707
 30
0.0
 10
84.54856454705613
 20
-150.1427871966699
 30
0.0
 10
84.54856551461343
 20
-150.0526407854287
 30
0.0
 10
84.54856550675062
 20
-149.9486333663376
 30
0.0
 10
84.54856434553479
 20
-149.844623724159
 30
0.0
 10
84.54856805657475
 20
-149.7544826010243
 30
0.0
 10
84.54856006452962
 20
-149.6920770069399
 30
0.0
 10
84.54859238692636
 20
-149.5861566783007
 30
0.0
 10
84.54740303825645
 20
-149.4285778724646
 30
0.0
 10
84.54248060835016
 20
-149.2795628396914
 30
0.0
 10
84.54003779708637
 20
-149.2056124339301
 30
0.0
 11
84.54003779708637
 21
-149.2056124339301
 31
0.0
 11
84.53095078179855
 21
-148.9854592569019
 31
0.0
 11
84.5210839167379
 21
-148.7652399340402
 31
0.0
 11
84.67541647356457
 21
-148.7717211232747
 31
0.0
 11
84.8289089783292
 21
-148.7772961145927
 31
0.0
 11
84.98237502476117
 21
-148.7811733628557
 31
0.0
 11
85.13681341491849
 21
-148.7824643090359
 31
0.0
 11
85.29074248217185
 21
-148.7811733628557
 31
0.0
 11
85.44299805988453
 21
-148.7772961145927
 31
0.0
 11
85.59517031453188
 21
-148.7717211232747
 31
0.0
 11
85.74909543567287
 21
-148.7652399340402
 31
0.0
 11
85.74134012973694
 21
-148.8168954201384
 31
0.0
 11
85.73875812178369
 21
-148.86841861457
 31
0.0
 11
85.74134012973694
 21
-148.9200884322654
 31
0.0
 11
85.74909543567287
 21
-148.9716854895441
 31
0.0
 11
85.64374636486563
 21
-148.9648305763514
 31
0.0
 11
85.54789652943055
 21
-148.9579095173254
 31
0.0
 11
85.45411827661486
 21
-148.951061218716
 31
0.0
 11
85.3552269510127
 21
-148.9442129201066
 31
0.0
 11
85.24901217941692
 21
-148.9377350381637
 31
0.0
 11
85.13336501222835
 21
-148.9321567395541
 31
0.0
 11
85.00087160415033
 21
-148.9282794912911
 31
0.0
 11
84.84441356126683
 21
-148.9269885451109
 31
0.0
 11
84.84052528879667
 21
-149.0344744218201
 31
0.0
 11
84.83579696426455
 21
-149.1367943089473
 31
0.0
 11
84.83191971609949
 21
-149.2434632846151
 31
0.0
 11
84.83062876995177
 21
-149.3638244477795
 31
0.0
 11
84.83103887410815
 21
-149.4962814789963
 31
0.0
 11
84.83234856157475
 21
-149.6253121560474
 31
0.0
 11
84.8336664171295
 21
-149.7370710535889
 31
0.0
 11
84.83407807479057
 21
-149.8178935448881
 31
0.0
 11
84.97770425301195
 21
-149.8170424684995
 31
0.0
 11
85.10589335250035
 21
-149.8144451421112
 31
0.0
 11
85.22106678160407
 21
-149.8105899424594
 31
0.0
 11
85.32603459064654
 21
-149.8058285448912
 31
0.0
 11
85.42189358836669
 21
-149.8006647601703
 31
0.0
 11
85.51000029684383
 21
-149.7955009754493
 31
0.0
 11
85.59214710327416
 21
-149.7899325987146
 31
0.0
 11
85.67002819298165
 21
-149.7835241698967
 31
0.0
 11
85.66227700394313
 21
-149.8360009667586
 31
0.0
 11
85.65969180435627
 21
-149.8901512532034
 31
0.0
 11
85.66227700394313
 21
-149.9417405934684
 31
0.0
 11
85.67002819298165
 21
-149.9933299337332
 31
0.0
 11
85.57324030482593
 21
-149.9839217913744
 31
0.0
 11
85.46185403162605
 21
-149.9761937531819
 31
0.0
 11
85.34318510236183
 21
-149.9705923035305
 31
0.0
 11
85.22457570434585
 21
-149.9675771559619
 31
0.0
 11
85.10926147117665
 21
-149.9658573642956
 31
0.0
 11
85.00098515449451
 21
-149.9641375726294
 31
0.0
 11
84.90674289119536
 21
-149.9628201681158
 31
0.0
 11
84.83407807479057
 21
-149.9624089615187
 31
0.0
 11
84.8336664171295
 21
-149.9946539528301
 31
0.0
 11
84.83234856157475
 21
-150.0294191003908
 31
0.0
 11
84.83103887410815
 21
-150.0703380153111
 31
0.0
 11
84.83062876995177
 21
-150.1206297948125
 31
0.0
 11
84.83062876995177
 21
-150.1415828655538
 31
0.0
 11
84.83062876995177
 21
-150.1876796211847
 31
0.0
 11
84.83062876995177
 21
-150.2337763768155
 31
0.0
 11
84.83062876995177
 21
-150.2547294475568
 31
0.0
 11
84.83062876995177
 21
-150.2761997853292
 31
0.0
 11
84.83062876995177
 21
-150.3273982830942
 31
0.0
 11
84.83062876995177
 21
-150.3885061675233
 31
0.0
 11
84.83062876995177
 21
-150.4397046652883
 31
0.0
 11
84.83062876995177
 21
-150.4611750030607
 31
0.0
 11
84.83103887410815
 21
-150.6400278241965
 31
0.0
 11
84.83234856157475
 21
-150.7845840307576
 31
0.0
 11
84.83454581839544
 21
-150.8963429282991
 31
0.0
 11
84.83751765812303
 21
-150.9771654195984
 31
0.0
 11
84.95446821116927
 21
-150.9771654195984
 31
0.0
 11
85.07833168029913
 21
-150.9771654195984
 31
0.0
 11
85.20775151206675
 21
-150.9758744734181
 31
0.0
 11
85.33465118764894
 21
-150.9719972251552
 31
0.0
 11
85.45672476622187
 21
-150.9659779543233
 31
0.0
 11
85.57201770937087
 21
-150.958212433492
 31
0.0
 11
85.67643441677639
 21
-150.947503423078
 31
0.0
 11
85.76631888496934
 21
-150.9324684751651
 31
0.0
 11
85.76068436254363
 21
-150.9578607581449
 31
0.0
 11
85.75770228796682
 21
-150.985773197374
 31
0.0
 11
85.75639294754448
 21
-151.013723119242
 31
0.0
 11
85.75598249634402
 21
-151.0390867390273
 31
0.0
 11
85.75856769593095
 21
-151.0890014872787
 31
0.0
 11
85.76631888496934
 21
-151.1285776417827
 31
0.0
 11
85.61195667725892
 21
-151.1233907060201
 31
0.0
 11
85.45849474130102
 21
-151.1216896556734
 31
0.0
 11
85.30403790907283
 21
-151.1216896556734
 31
0.0
 11
85.14706160910134
 21
-151.1216896556734
 31
0.0
 11
84.98972945157814
 21
-151.1216896556734
 31
0.0
 11
84.83407807479057
 21
-151.1216896556734
 31
0.0
 11
84.67842104684867
 21
-151.1233907060201
 31
0.0
 11
84.5210839167379
 21
-151.1285776417827
 31
0.0
 11
84.53095078179857
 21
-150.9088323640599
 31
0.0
 11
84.54003779708637
 21
-150.6899337530035
 31
0.0
 11
84.5464311112646
 21
-150.469337398892
 31
0.0
 11
84.54856530492543
 21
-150.2444812531148
 31
0.0
 11
84.54856530492543
 21
-150.2190567929432
 31
0.0
 11
84.54856530492543
 21
-150.1520286706726
 31
0.0
 11
84.54856530492543
 21
-150.0572647736694
 31
0.0
 11
84.54856530492543
 21
-149.9486329892999
 31
0.0
 11
84.54856530492543
 21
-149.8400012049304
 31
0.0
 11
84.54856530492543
 21
-149.7452373079271
 31
0.0
 11
84.54856530492543
 21
-149.6782091856566
 31
0.0
 11
84.54856530492543
 21
-149.652784725485
 31
0.0
 11
84.5464311112646
 21
-149.4274854026247
 31
0.0
 11
84.54003779708637
 21
-149.2056124339301
 31
0.0
  0
SPLINE
  5
B5
102
{ACAD_REACTORS
330
D2
102
}
330
48
100
AcDbEntity
  8
_U_30EC_U_30A4_U_30E4_U_30FC_1
  6
Continuous
 62
     2
100
AcDbSpline
210
0.0
220
0.0
230
1.0
 70
    11
 71
     3
 72
    95
 73
    91
 74
    89
 42
0.000000001
 43
0.0000000001
 44
0.00000001
 40
0.0
 40
0.0
 40
0.0
 40
0.0
 40
0.6550406656911022
 40
1.308087289031862
 40
1.420803739835712
 40
1.566130759770751
 40
1.757067341888386
 40
2.006513545026388
 40
2.087328263121459
 40
2.185328872295585
 40
2.294612454748295
 40
2.408936380534736
 40
2.526802767798492
 40
2.646360524615535
 40
2.762535723971506
 40
2.870057342870073
 40
2.966883448431622
 40
3.050803243518268
 40
3.115818222436522
 40
3.15603005715017
 40
3.213914225080156
 40
3.276689026450513
 40
3.342960320981303
 40
3.404230667150566
 40
3.453822809493351
 40
3.532499827188361
 40
3.634775188507169
 40
3.754909333008129
 40
3.889736761660672
 40
4.03576960217527
 40
4.187256681197624
 40
4.338733685675916
 40
4.488478734676137
 40
4.63470831783158
 40
4.7714931899213
 40
4.892686571561208
 40
5.199775528944421
 40
5.460353566929673
 40
5.667603142345494
 40
5.814722905404476
 40
5.828990806219803
 40
5.855488336304472
 40
5.869756237118803
 40
6.189796507762783
 40
6.531890469872965
 40
6.883053637016983
 40
7.230512024911405
 40
7.566966656764555
 40
7.885203559707326
 40
8.17288743971916
 40
8.418011594062715
 40
8.443926721190604
 40
8.510760470613132
 40
8.60214539379562
 40
8.701714041647033
 40
8.793098965075313
 40
8.859932715057862
 40
8.885847842603493
 40
9.242301256612715
 40
9.58927545501673
 40
9.921808543164076
 40
10.2347962429846
 40
10.29968150889169
 40
10.35323493887754
 40
10.4015462535514
 40
10.46482922477818
 40
10.55973900668397
 40
10.69239545985604
 40
10.84920353475662
 40
11.01626328594774
 40
11.18672024367433
 40
11.35372582577203
 40
11.50257442292417
 40
11.61866495023283
 40
11.7132986915287
 40
11.82511050573898
 40
11.94464880845707
 40
12.06929242642499
 40
12.19707290435168
 40
12.3256263286052
 40
12.4503456533127
 40
12.56646595170319
 40
12.67099007414627
 40
12.76077625936779
 40
12.82703233506686
 40
12.87429132785988
 40
12.89831990323329
 40
12.92234847860016
 40
13.53984767410326
 40
14.18294284359371
 40
14.18294284359371
 40
14.18294284359371
 40
14.18294284359371
 10
81.94105252422662
 20
-150.2358646558947
 30
0.0
 10
81.8094609352796
 20
-150.1221944518797
 30
0.0
 10
81.54667833969734
 20
-149.8952000747503
 30
0.0
 10
81.03399830352677
 20
-149.0527004083492
 30
0.0
 10
81.04492441896073
 20
-149.4106112621418
 30
0.0
 10
81.03838161222366
 20
-149.5521711151907
 30
0.0
 10
81.03706162260173
 20
-149.7506319849191
 30
0.0
 10
81.03607071967836
 20
-149.9233420774522
 30
0.0
 10
81.03666913462199
 20
-150.0661913053362
 30
0.0
 10
81.03815838961283
 20
-150.1621949837784
 30
0.0
 10
81.03982731827176
 20
-150.2693900052806
 30
0.0
 10
81.04145245488628
 20
-150.3832029227362
 30
0.0
 10
81.04350190959315
 20
-150.5004293118661
 30
0.0
 10
81.04657550961718
 20
-150.6182809255823
 30
0.0
 10
81.04989292912893
 20
-150.7325641647058
 30
0.0
 10
81.05361949345244
 20
-150.8396310192392
 30
0.0
 10
81.055992775567
 20
-150.9347709502428
 30
0.0
 10
81.0621308482602
 20
-151.019259465855
 30
0.0
 10
81.05823740901923
 20
-151.0756141649306
 30
0.0
 10
81.07978200373235
 20
-151.1465948131884
 30
0.0
 10
81.00235296528632
 20
-151.1158182618672
 30
0.0
 10
80.94589428344362
 20
-151.1247326127359
 30
0.0
 10
80.88830854910526
 20
-151.1158828539293
 30
0.0
 10
80.80327530727175
 20
-151.1474627856525
 30
0.0
 10
80.8352303740628
 20
-151.0638934779901
 30
0.0
 10
80.83332948767844
 20
-150.9960189482289
 30
0.0
 10
80.84505496415456
 20
-150.8925124702678
 30
0.0
 10
80.85068306472452
 20
-150.7748237817451
 30
0.0
 10
80.85804917731865
 20
-150.6409589462677
 30
0.0
 10
80.86633492958563
 20
-150.4972035091857
 30
0.0
 10
80.87414414916725
 20
-150.3477048094775
 30
0.0
 10
80.8800160816903
 20
-150.1969195438913
 30
0.0
 10
80.88462574122138
 20
-150.0478455991276
 30
0.0
 10
80.88852217117875
 20
-149.9036159062817
 30
0.0
 10
80.89133047208092
 20
-149.7690059857818
 30
0.0
 10
80.89192883492682
 20
-149.5801488944385
 30
0.0
 10
80.89586134613953
 20
-149.3550900947805
 30
0.0
 10
80.87847649727446
 20
-149.081174126655
 30
0.0
 10
80.91930069368274
 20
-148.9169739169259
 30
0.0
 10
80.83377428502479
 20
-148.7173484232611
 30
0.0
 10
80.90031485019334
 20
-148.7209904538722
 30
0.0
 10
80.9181313867476
 20
-148.7207105663035
 30
0.0
 10
81.03993913917473
 20
-148.7185157639261
 30
0.0
 10
81.14233599297079
 20
-148.9980938506968
 30
0.0
 10
81.39226111036012
 20
-149.199214952552
 30
0.0
 10
81.62126249253558
 20
-149.4669188880328
 30
0.0
 10
81.85877408073537
 20
-149.7183808992883
 30
0.0
 10
82.08286803350173
 20
-149.9551452972984
 30
0.0
 10
82.30933058772543
 20
-150.2126581120812
 30
0.0
 10
82.46682774807591
 20
-150.3283516873428
 30
0.0
 10
82.68147192069208
 20
-150.6648735125241
 30
0.0
 10
82.67652355688634
 20
-150.5401974969959
 30
0.0
 10
82.6776521196793
 20
-150.4815681185546
 30
0.0
 10
82.67714674357616
 20
-150.3944084141922
 30
0.0
 10
82.6773064752359
 20
-150.3006836060833
 30
0.0
 10
82.67726444855634
 20
-150.2146553249416
 30
0.0
 10
82.67727916346186
 20
-150.153306118457
 30
0.0
 10
82.67722958502284
 20
-150.0034927227021
 30
0.0
 10
82.68014011170565
 20
-149.7649489128109
 30
0.0
 10
82.66021106354063
 20
-149.399979939225
 30
0.0
 10
82.70930235304927
 20
-149.1368487179778
 30
0.0
 10
82.55205411034265
 20
-148.7255559884345
 30
0.0
 10
82.71047024666663
 20
-148.7808622123945
 30
0.0
 10
82.76542700728741
 20
-148.7828481729102
 30
0.0
 10
82.81704773609849
 20
-148.7821972554295
 30
0.0
 10
82.90557885596117
 20
-148.7411497605296
 30
0.0
 10
82.8547487897414
 20
-148.8878817716821
 30
0.0
 10
82.86559795245286
 20
-148.9946453183676
 30
0.0
 10
82.85086265890925
 20
-149.1539879837709
 30
0.0
 10
82.844256604045
 20
-149.3163144213833
 30
0.0
 10
82.83575509941599
 20
-149.484919818988
 30
0.0
 10
82.82858167964446
 20
-149.6466968908766
 30
0.0
 10
82.82316528096342
 20
-149.7906217233326
 30
0.0
 10
82.82143035618937
 20
-149.9104701032428
 30
0.0
 10
82.82180302665641
 20
-150.0179840220069
 30
0.0
 10
82.82162457205077
 20
-150.1266447914561
 30
0.0
 10
82.82196004573855
 20
-150.2453093362567
 30
0.0
 10
82.8232630216429
 20
-150.3692934027846
 30
0.0
 10
82.82514769458196
 20
-150.4962620962009
 30
0.0
 10
82.82675940490955
 20
-150.6233064224017
 30
0.0
 10
82.82839927316755
 20
-150.7462961929902
 30
0.0
 10
82.83051603399966
 20
-150.8618357240744
 30
0.0
 10
82.83064380166095
 20
-150.9639359983536
 30
0.0
 10
82.83491039907993
 20
-151.0547465495304
 30
0.0
 10
82.82510296795354
 20
-151.1127088258241
 30
0.0
 10
82.8461064365935
 20
-151.1796737365917
 30
0.0
 10
82.80682293341427
 20
-151.1719334982452
 30
0.0
 10
82.59378967119913
 20
-151.18729249646
 30
0.0
 10
82.39788875374319
 20
-150.6308144569673
 30
0.0
 10
82.0953787225789
 20
-150.3692846844268
 30
0.0
 10
81.94105252422662
 20
-150.2358646558947
 30
0.0
 11
81.94105252422662
 21
-150.2358646558947
 31
0.0
 11
81.49381189327565
 21
-149.7572686837922
 31
0.0
 11
81.04666386648887
 21
-149.2813185450223
 31
0.0
 11
81.0432253856739
 21
-149.3939825380496
 31
0.0
 11
81.03981997777453
 21
-149.5392696560689
 31
0.0
 11
81.03722265145197
 21
-149.7301885796323
 31
0.0
 11
81.03637157508484
 21
-149.9796333365144
 31
0.0
 11
81.03678288245348
 21
-150.0604470083692
 31
0.0
 11
81.03810099240627
 21
-150.1584387531364
 31
0.0
 11
81.03977818619634
 21
-150.2677094649146
 31
0.0
 11
81.04149567217632
 21
-150.3820204891916
 31
0.0
 11
81.04365974330176
 21
-150.4998670082593
 31
0.0
 11
81.04666386648887
 21
-150.61938701691
 31
0.0
 11
81.05009493273839
 21
-150.7355115394504
 31
0.0
 11
81.05355185242433
 21
-150.8429775724097
 31
0.0
 11
81.05696748473332
 21
-150.9397434143994
 31
0.0
 11
81.06044865780382
 21
-151.0235909751423
 31
0.0
 11
81.06385957785584
 21
-151.0885164178344
 31
0.0
 11
81.0673366437394
 21
-151.1285776417827
 31
0.0
 11
81.00968534158167
 21
-151.1233907060201
 31
0.0
 11
80.94693359125546
 21
-151.1216896556734
 31
0.0
 11
80.88068413114021
 21
-151.1233907060201
 31
0.0
 11
80.81963373339204
 21
-151.1285776417827
 31
0.0
 11
80.8269362332058
 21
-151.0795260966561
 31
0.0
 11
80.83513831632996
 21
-151.0012777807035
 31
0.0
 11
80.84326884165938
 21
-150.8993261053817
 31
0.0
 11
80.85059960356426
 21
-150.7794158363145
 31
0.0
 11
80.8578947874667
 21
-150.6447859144731
 31
0.0
 11
80.86610338498417
 21
-150.4989839613845
 31
0.0
 11
80.87380937437115
 21
-150.3476930065613
 31
0.0
 11
80.87983525963386
 21
-150.1963359059047
 31
0.0
 11
80.88456358416613
 21
-150.0466655239976
 31
0.0
 11
80.88845185663655
 21
-149.9004876420898
 31
0.0
 11
80.89101170032104
 21
-149.763726721985
 31
0.0
 11
80.89189143988199
 21
-149.6425365310431
 31
0.0
 11
80.89145157010154
 21
-149.3354478852866
 31
0.0
 11
80.8901716482593
 21
-149.0748729895183
 31
0.0
 11
80.88712483121381
 21
-148.8676458107508
 31
0.0
 11
80.88156387070086
 21
-148.7206311840514
 31
0.0
 11
80.89583177157147
 21
-148.7206311840514
 31
0.0
 11
80.92232930175976
 21
-148.7206311840514
 31
0.0
 11
80.93659720263037
 21
-148.7206311840514
 31
0.0
 11
81.15373332445225
 21
-148.9557432412843
 31
0.0
 11
81.38553337173244
 21
-149.2073322255964
 31
0.0
 11
81.62374056130848
 21
-149.4653494824763
 31
0.0
 11
81.86026641517662
 21
-149.7198742393571
 31
0.0
 11
82.0898288311951
 21
-149.9658474424206
 31
0.0
 11
82.30743869543483
 21
-150.1980556975709
 31
0.0
 11
82.50563145079525
 21
-150.406578232241
 31
0.0
 11
82.67727326933317
 21
-150.5815780585861
 31
0.0
 11
82.67727326933316
 21
-150.5556629310416
 31
0.0
 11
82.67727326933318
 21
-150.4888291810583
 31
0.0
 11
82.67727326933317
 21
-150.3974442576117
 31
0.0
 11
82.67727326933318
 21
-150.2978756096775
 31
0.0
 11
82.67727326933317
 21
-150.2064906862309
 31
0.0
 11
82.67727326933317
 21
-150.1396569362476
 31
0.0
 11
82.67727326933317
 21
-150.1137418087031
 31
0.0
 11
82.67598232318545
 21
-149.7572907324033
 31
0.0
 11
82.67210507502034
 21
-149.4103381977678
 31
0.0
 11
82.66387873842473
 21
-149.0779068784065
 31
0.0
 11
82.64971250614735
 21
-148.7652399340402
 31
0.0
 11
82.71329408438638
 21
-148.7781813663287
 31
0.0
 11
82.76667597538562
 21
-148.7824643090359
 31
0.0
 11
82.81479706790783
 21
-148.7781813663287
 31
0.0
 11
82.8767426392443
 21
-148.7652399340402
 31
0.0
 11
82.869380608182
 21
-148.859863753461
 31
0.0
 11
82.86123805630632
 21
-148.9922700728723
 31
0.0
 11
82.85262949582497
 21
-149.1488416700554
 31
0.0
 11
82.84401368174605
 21
-149.3156791005693
 31
0.0
 11
82.8358777444534
 21
-149.4859417828184
 31
0.0
 11
82.82850909880807
 21
-149.652784725485
 31
0.0
 11
82.82339965257671
 21
-149.8015456021839
 31
0.0
 11
82.82170930731496
 21
-149.917623822641
 31
0.0
 11
82.82170930731496
 21
-150.0122575639368
 31
0.0
 11
82.82170930731496
 21
-150.1240693781449
 31
0.0
 11
82.82210507987422
 21
-150.2436070256845
 31
0.0
 11
82.82334090449535
 21
-150.3682445169728
 31
0.0
 11
82.82509817875625
 21
-150.4960129110381
 31
0.0
 11
82.82678930718532
 21
-150.6245552113532
 31
0.0
 11
82.828546581446
 21
-150.7492621557664
 31
0.0
 11
82.83023770987506
 21
-150.8653701418485
 31
0.0
 11
82.83154739734177
 21
-150.9698860706418
 31
0.0
 11
82.8319575014981
 21
-151.0596713223555
 31
0.0
 11
82.8319575014981
 21
-151.1259273987278
 31
0.0
 11
82.8319575014981
 21
-151.1731863917716
 31
0.0
 11
82.8079289257222
 21
-151.1731863917716
 31
0.0
 11
82.7839003499463
 21
-151.1731863917716
 31
0.0
 11
82.37533187946683
 21
-150.71017768529
 31
0.0
 11
81.94105252422662
 21
-150.2358646558947
 31
0.0
  0
SPLINE
  5
B6
102
{ACAD_REACTORS
330
D3
102
}
330
48
100
AcDbEntity
  8
_U_30EC_U_30A4_U_30E4_U_30FC_1
  6
Continuous
 62
     2
100
AcDbSpline
210
0.0
220
0.0
230
1.0
 70
    11
 71
     3
 72
    25
 73
    21
 74
    19
 42
0.000000001
 43
0.0000000001
 44
0.00000001
 40
0.0
 40
0.0
 40
0.0
 40
0.0
 40
0.0911479969064534
 40
0.185811789620409
 40
0.2804128399734491
 40
0.3715889190713939
 40
0.4679080494218136
 40
0.5642683809229367
 40
0.6605683222644424
 40
0.7569653015810103
 40
0.8561348172522766
 40
1.09261596510432
 40
1.374867658141916
 40
1.611348812011653
 40
1.710518328425298
 40
1.809403163726616
 40
2.045205463294141
 40
2.326646917622224
 40
2.562449217190726
 40
2.661334043834027
 40
2.661334043834027
 40
2.661334043834027
 40
2.661334043834027
 10
77.90262901614449
 20
-150.0586996559391
 30
0.0
 10
77.93301155121682
 20
-150.0588642407666
 30
0.0
 10
77.99494854833571
 20
-150.0591997510128
 30
0.0
 10
78.08839465545753
 20
-150.0621544833919
 30
0.0
 10
78.18176848306027
 20
-150.0650675091405
 30
0.0
 10
78.27603503477216
 20
-150.0659030214778
 30
0.0
 10
78.36975543852121
 20
-150.0648785913315
 30
0.0
 10
78.46946298974501
 20
-150.0656752632023
 30
0.0
 10
78.55315391405583
 20
-150.0556309355598
 30
0.0
 10
78.69805859092908
 20
-150.0824988611704
 30
0.0
 10
78.57387220390461
 20
-149.9081897351116
 30
0.0
 10
78.53084568805274
 20
-149.7483279278511
 30
0.0
 10
78.41515117364548
 20
-149.4896604524098
 30
0.0
 10
78.33601550255028
 20
-149.3525345092934
 30
0.0
 10
78.27741662160616
 20
-149.1354747065712
 30
0.0
 10
78.22073935336832
 20
-149.3521836957777
 30
0.0
 10
78.13953994947222
 20
-149.4915749135296
 30
0.0
 10
78.04062908757342
 20
-149.7407753442101
 30
0.0
 10
77.95962146885041
 20
-149.9255867356513
 30
0.0
 10
77.91562729200837
 20
-150.0283405693509
 30
0.0
 10
77.90262901614449
 20
-150.0586996559391
 30
0.0
 11
77.90262901614449
 21
-150.0586996559391
 31
0.0
 11
77.99377273320655
 21
-150.0595838052444
 31
0.0
 11
78.08840178918263
 21
-150.062148058716
 31
0.0
 11
78.18296717739513
 21
-150.0647453851042
 31
0.0
 11
78.27413928444412
 21
-150.0655964614929
 31
0.0
 11
78.37045753719511
 21
-150.0651852548958
 31
0.0
 11
78.4668088628622
 21
-150.0638678503823
 31
0.0
 11
78.56308522325313
 21
-150.0617368521189
 31
0.0
 11
78.65943434405887
 21
-150.0586996559391
 31
0.0
 11
78.61972229173868
 21
-149.9678286159618
 31
0.0
 11
78.52502432082134
 21
-149.751136136016
 31
0.0
 11
78.41199771037162
 21
-149.4925031760806
 31
0.0
 11
78.31729973945426
 21
-149.2758106961348
 31
0.0
 11
78.27758768713409
 21
-149.1849396561575
 31
0.0
 11
78.23859198535116
 21
-149.2758106961348
 31
0.0
 11
78.14560223494574
 21
-149.4925031760806
 31
0.0
 11
78.03461446833283
 21
-149.751136136016
 31
0.0
 11
77.9416247179274
 21
-149.9678286159618
 31
0.0
 11
77.90262901614449
 21
-150.0586996559391
 31
0.0
  0
SPLINE
  5
B7
102
{ACAD_REACTORS
330
D3
102
}
330
48
100
AcDbEntity
  8
_U_30EC_U_30A4_U_30E4_U_30FC_1
  6
Continuous
 62
     2
100
AcDbSpline
210
0.0
220
0.0
230
1.0
 70
    11
 71
     3
 72
    57
 73
    53
 74
    51
 42
0.000000001
 43
0.0000000001
 44
0.00000001
 40
0.0
 40
0.0
 40
0.0
 40
0.0
 40
0.0471632082809072
 40
0.0914861054632256
 40
0.1357762519702349
 40
0.1826527001610928
 40
0.2295203288572695
 40
0.273775197222058
 40
0.3181310461543299
 40
0.3652607198398445
 40
0.4571007286314113
 40
0.5671851029165005
 40
0.6894623283867908
 40
0.8181758272545679
 40
0.9510087229273617
 40
1.085852229674067
 40
1.218126164475306
 40
1.343545131142366
 40
1.454537202956797
 40
1.56718760753082
 40
1.680710966642438
 40
1.794226869736774
 40
1.900009184247587
 40
2.004085860447838
 40
2.108162674451725
 40
2.214000150155298
 40
2.496038577352151
 40
2.762350745479293
 40
2.997275353279417
 40
3.185110082137736
 40
3.24640789006395
 40
3.312607550212737
 40
3.378877742711582
 40
3.440140399651463
 40
4.10050169600646
 40
4.754913085563475
 40
5.411331693423892
 40
6.077890432568716
 40
6.110575292670995
 40
6.143260152775761
 40
6.367989363395115
 40
6.610525374951508
 40
6.863389136467283
 40
7.11938002554753
 40
7.37603660509106
 40
7.631164770966265
 40
7.876722425456423
 40
8.104953735855947
 40
8.312916685924261
 40
8.49773029494126
 40
8.651018984313803
 40
8.764738853624548
 40
8.764738853624548
 40
8.764738853624548
 40
8.764738853624548
 10
79.42652390947586
 20
-151.1285776417827
 30
0.0
 10
79.41092063211765
 20
-151.1265827271212
 30
0.0
 10
79.38065375545474
 20
-151.122713024309
 30
0.0
 10
79.33535837964978
 20
-151.1214251882394
 30
0.0
 10
79.29021427235942
 20
-151.1217582023715
 30
0.0
 10
79.24416067176449
 20
-151.1216984511698
 30
0.0
 10
79.19830857663416
 20
-151.121586901412
 30
0.0
 10
79.152630124241
 20
-151.1220667033461
 30
0.0
 10
79.10934011358539
 20
-151.1202339417248
 30
0.0
 10
79.03825375457589
 20
-151.1443494697653
 30
0.0
 10
79.04000668556866
 20
-151.0229980981395
 30
0.0
 10
78.99287859648152
 20
-150.9375826403997
 30
0.0
 10
78.9534067846007
 20
-150.8199757444606
 30
0.0
 10
78.9049225126891
 20
-150.7025175125076
 30
0.0
 10
78.85436069967669
 20
-150.5807856802969
 30
0.0
 10
78.80612242047229
 20
-150.4540853592873
 30
0.0
 10
78.74778225418399
 20
-150.3455081600625
 30
0.0
 10
78.73234822615068
 20
-150.1886384665679
 30
0.0
 10
78.59091759248807
 20
-150.2211105724287
 30
0.0
 10
78.48509870091489
 20
-150.2097161510902
 30
0.0
 10
78.37011593194671
 20
-150.2109191227659
 30
0.0
 10
78.25957318463861
 20
-150.2097755844379
 30
0.0
 10
78.15191731170283
 20
-150.2106615375367
 30
0.0
 10
78.04639121234882
 20
-150.2106790140069
 30
0.0
 10
77.94517822762583
 20
-150.2177047131878
 30
0.0
 10
77.76093944219986
 20
-150.1934864393133
 30
0.0
 10
77.74999832796561
 20
-150.4974281266931
 30
0.0
 10
77.64302812289958
 20
-150.721313265378
 30
0.0
 10
77.54407381985921
 20
-150.905891894987
 30
0.0
 10
77.55676801182528
 20
-151.14954298987
 30
0.0
 10
77.43926813106421
 20
-151.11976457038
 30
0.0
 10
77.37646454625556
 20
-151.122264142816
 30
0.0
 10
77.31284616876448
 20
-151.1214042868839
 30
0.0
 10
77.02886037883209
 20
-151.1638646384925
 30
0.0
 10
77.65942280936261
 20
-150.4440255134641
 30
0.0
 10
77.74302348833169
 20
-149.9320796435548
 30
0.0
 10
78.12718423835832
 20
-149.4113076024116
 30
0.0
 10
78.11197978828113
 20
-148.7096487753798
 30
0.0
 10
78.35818553169422
 20
-148.7213887070994
 30
0.0
 10
78.45989357518076
 20
-148.7125949933843
 30
0.0
 10
78.45923416300622
 20
-148.9642485306086
 30
0.0
 10
78.57709067500741
 20
-149.1466648305724
 30
0.0
 10
78.66581048547305
 20
-149.3892076312834
 30
0.0
 10
78.76648820795043
 20
-149.6214447326107
 30
0.0
 10
78.86537323064883
 20
-149.8580985922428
 30
0.0
 10
78.96422665849137
 20
-150.0902276462111
 30
0.0
 10
79.0598755985172
 20
-150.3136228100241
 30
0.0
 10
79.15024941675166
 20
-150.5221195474188
 30
0.0
 10
79.23325341624349
 20
-150.7117605526188
 30
0.0
 10
79.30686781770439
 20
-150.8782139772309
 30
0.0
 10
79.3685405489791
 20
-151.0156680416511
 30
0.0
 10
79.4092048479849
 20
-151.0948526436116
 30
0.0
 10
79.42652390947586
 20
-151.1285776417827
 30
0.0
 11
79.42652390947586
 21
-151.1285776417827
 31
0.0
 11
79.37964679116931
 21
-151.1233907060201
 31
0.0
 11
79.33535654903704
 21
-151.1216896556734
 31
0.0
 11
79.29106640259747
 21
-151.1216896556734
 31
0.0
 11
79.24418995414044
 21
-151.1216896556734
 31
0.0
 11
79.19732232512787
 21
-151.1216896556734
 31
0.0
 11
79.15306745646535
 21
-151.1216896556734
 31
0.0
 11
79.1087442371099
 21
-151.1233907060201
 31
0.0
 11
79.06190086156886
 21
-151.1285776417827
 31
0.0
 11
79.03351217305706
 21
-151.0412353761796
 31
0.0
 11
78.99653114101432
 21
-150.9375484751638
 31
0.0
 11
78.95309758309466
 21
-150.8232451679007
 31
0.0
 11
78.90536454611816
 21
-150.7037097252223
 31
0.0
 11
78.85507497274818
 21
-150.5807644648364
 31
0.0
 11
78.80390565981776
 21
-150.4560068086175
 31
0.0
 11
78.75401213955715
 21
-150.3335036228843
 31
0.0
 11
78.70757087060866
 21
-150.2169998642328
 31
0.0
 11
78.59662015018344
 21
-150.2139703850669
 31
0.0
 11
78.48398988193344
 21
-150.2118404892341
 31
0.0
 11
78.37047416636945
 21
-150.2105230847206
 31
0.0
 11
78.25695900710457
 21
-150.2101118781235
 31
0.0
 11
78.1511774907061
 21
-150.2105230847206
 31
0.0
 11
78.04710915134706
 21
-150.2118404892341
 31
0.0
 11
77.94305413182906
 21
-150.2139703850669
 31
0.0
 11
77.83726002098416
 21
-150.2169998642328
 31
0.0
 11
77.7323504344384
 21
-150.4788006627785
 31
0.0
 11
77.6377458284577
 21
-150.7277427113274
 31
0.0
 11
77.55948208045436
 21
-150.9492474682164
 31
0.0
 11
77.50360208188005
 21
-151.1285776417827
 31
0.0
 11
77.44252412336873
 21
-151.1233907060201
 31
0.0
 11
77.37634632123752
 21
-151.1216896556734
 31
0.0
 11
77.31009796355278
 21
-151.1233907060201
 31
0.0
 11
77.24905528281835
 21
-151.1285776417827
 31
0.0
 11
77.52422745461757
 21
-150.5282799509606
 31
0.0
 11
77.79255353284157
 21
-149.9314086143043
 31
0.0
 11
78.05828669446498
 21
-149.3311825814682
 31
0.0
 11
78.32573303312785
 21
-148.7206311840514
 31
0.0
 11
78.35841789340515
 21
-148.7206311840514
 31
0.0
 11
78.39110275368245
 21
-148.7206311840514
 31
0.0
 11
78.47708902753021
 21
-148.9282596475412
 31
0.0
 11
78.56998754078546
 21
-149.1522988922768
 31
0.0
 11
78.66713041157088
 21
-149.3857584061073
 31
0.0
 11
78.76605260522763
 21
-149.6218637532705
 31
0.0
 11
78.8657930844172
 21
-149.8583472341141
 31
0.0
 11
78.96556607235982
 21
-150.0931572253749
 31
0.0
 11
79.06231978516942
 21
-150.3188501159435
 31
0.0
 11
79.15306745646535
 21
-150.5282645169328
 31
0.0
 11
79.23647404287914
 21
-150.7187689266074
 31
0.0
 11
79.31128828576226
 21
-150.8877627112873
 31
0.0
 11
79.37533187808486
 21
-151.0270316609053
 31
0.0
 11
79.42652390947586
 21
-151.1285776417827
 31
0.0
  0
SPLINE
  5
B8
102
{ACAD_REACTORS
330
D4
102
}
330
48
100
AcDbEntity
  8
_U_30EC_U_30A4_U_30E4_U_30FC_1
  6
Continuous
 62
     2
100
AcDbSpline
210
0.0
220
0.0
230
1.0
 70
    11
 71
     3
 72
    99
 73
    95
 74
    93
 42
0.000000001
 43
0.0000000001
 44
0.00000001
 40
0.0
 40
0.0
 40
0.0
 40
0.0
 40
0.0796417172272892
 40
0.1621768542356306
 40
0.2486489160957676
 40
0.3404969668524944
 40
0.4381912511165145
 40
0.54344636602452
 40
0.6518115192847558
 40
0.7530190937887465
 40
0.8492196919725732
 40
0.9419290312998762
 40
1.034249663570071
 40
1.129078600620232
 40
1.226697027573298
 40
1.327220425421757
 40
1.470572134938073
 40
1.595489863371267
 40
1.719934125348461
 40
1.850576620127482
 40
1.98905962998739
 40
2.134139054226979
 40
2.280698007207268
 40
2.424529739039496
 40
2.565929576985887
 40
2.708239260773642
 40
2.861717887443739
 40
3.04516854034738
 40
3.183798301138678
 40
3.314813961455537
 40
3.442083470447372
 40
3.56991270837301
 40
3.702177512509412
 40
3.842307559659619
 40
3.992872223246001
 40
4.156750662218361
 40
4.310981861107565
 40
4.44585990932261
 40
4.572393936131622
 40
4.701656719782033
 40
4.768279086008549
 40
4.835960697898468
 40
4.912788918729419
 40
5.006285208481605
 40
5.026909478751709
 40
5.04753374902126
 40
5.101808031471321
 40
5.162325165538609
 40
5.226919745995927
 40
5.29423180659677
 40
5.364544852554912
 40
5.438319055467995
 40
5.5178776513243
 40
5.607647714861623
 40
5.700449642544452
 40
5.788251142364189
 40
5.872714706039839
 40
5.95516729257538
 40
6.037192395190452
 40
6.12066918146915
 40
6.206848616686359
 40
6.296680855416867
 40
6.442558392872644
 40
6.568190371608322
 40
6.692904567360394
 40
6.824220446557193
 40
6.963121850329392
 40
7.10784373885119
 40
7.253431663907324
 40
7.395187468036792
 40
7.533140753237788
 40
7.670550457175305
 40
7.816236511769295
 40
7.987691657359275
 40
8.142277421969315
 40
8.293662615415029
 40
8.442962460879286
 40
8.591598316185319
 40
8.74367899236178
 40
8.903725323699218
 40
9.07630700889053
 40
9.2655786046806
 40
9.459203795360763
 40
9.617619810273567
 40
9.75360967136194
 40
9.87487330000409
 40
9.95452018497775
 40
10.02416413719241
 40
10.09769764405441
 40
10.18909955924971
 40
10.2097458642013
 40
10.23039218263375
 40
10.30057101881262
 40
10.37632012987537
 40
10.37632012987537
 40
10.37632012987537
 40
10.37632012987537
 10
74.78085444300962
 20
-150.806888405752
 30
0.0
 10
74.79748074454643
 20
-150.8276389494589
 30
0.0
 10
74.8313373800823
 20
-150.8698939207929
 30
0.0
 10
74.89424121352806
 20
-150.9245469239913
 30
0.0
 10
74.96750905346383
 20
-150.9718547867015
 30
0.0
 10
75.0518558832881
 20
-151.0095727235326
 30
0.0
 10
75.14748302097053
 20
-151.0344388405925
 30
0.0
 10
75.25144433695911
 20
-151.0417494444527
 30
0.0
 10
75.35666098146501
 20
-151.0334218099714
 30
0.0
 10
75.4549215965579
 20
-151.0033532413968
 30
0.0
 10
75.54015760217935
 20
-150.9563568081932
 30
0.0
 10
75.61218098003482
 20
-150.8953151254034
 30
0.0
 10
75.66935073033419
 20
-150.8207153421262
 30
0.0
 10
75.71104583416849
 20
-150.7348203913103
 30
0.0
 10
75.73695424405378
 20
-150.6399865335899
 30
0.0
 10
75.74606269268979
 20
-150.5262952475283
 30
0.0
 10
75.73294543907316
 20
-150.4015191602042
 30
0.0
 10
75.666791992866
 20
-150.2846978461931
 30
0.0
 10
75.57119605138143
 20
-150.1997196421382
 30
0.0
 10
75.4592270616614
 20
-150.1306781933203
 30
0.0
 10
75.33362491775146
 20
-150.0728036174531
 30
0.0
 10
75.19992812151014
 20
-150.0211078050686
 30
0.0
 10
75.06557124130767
 20
-149.9658541139402
 30
0.0
 10
74.93945735811224
 20
-149.8954473314955
 30
0.0
 10
74.82691695817803
 20
-149.8069896305995
 30
0.0
 10
74.73125526587032
 20
-149.6950343592273
 30
0.0
 10
74.66767467460713
 20
-149.5453459368982
 30
0.0
 10
74.6543296099261
 20
-149.3855170940606
 30
0.0
 10
74.66631005816936
 20
-149.2343609848436
 30
0.0
 10
74.70548885230863
 20
-149.1067525919966
 30
0.0
 10
74.7697577345156
 20
-148.9940362976035
 30
0.0
 10
74.85807945939857
 20
-148.8983589452252
 30
0.0
 10
74.9680680801873
 20
-148.8213028880544
 30
0.0
 10
75.09748739955106
 20
-148.7633310685492
 30
0.0
 10
75.24544285620387
 20
-148.7274532620238
 30
0.0
 10
75.40246590497318
 20
-148.7173778474064
 30
0.0
 10
75.55175300606751
 20
-148.7262086602861
 30
0.0
 10
75.69388432084155
 20
-148.7540960445085
 30
0.0
 10
75.79385122038704
 20
-148.8107118909006
 30
0.0
 10
75.94676643304305
 20
-148.8580990168568
 30
0.0
 10
75.8797721311414
 20
-148.9428695079002
 30
0.0
 10
75.86390687145146
 20
-149.0104560191771
 30
0.0
 10
75.83213401255425
 20
-149.0755841099801
 30
0.0
 10
75.84927918038163
 20
-149.1776105053425
 30
0.0
 10
75.80090168024775
 20
-149.1699129210929
 30
0.0
 10
75.7658379035011
 20
-149.1767773206639
 30
0.0
 10
75.76392875799638
 20
-149.11220672633
 30
0.0
 10
75.73282825262335
 20
-149.066588641698
 30
0.0
 10
75.70071412227016
 20
-149.0092346716275
 30
0.0
 10
75.65506280694132
 20
-148.9594404109864
 30
0.0
 10
75.6001097812632
 20
-148.9148969007221
 30
0.0
 10
75.53534307672531
 20
-148.8772051495465
 30
0.0
 10
75.45749669048422
 20
-148.8520112799985
 30
0.0
 10
75.36977501475978
 20
-148.8455327279309
 30
0.0
 10
75.27954928720519
 20
-148.8524879450559
 30
0.0
 10
75.19371842883098
 20
-148.8757531333027
 30
0.0
 10
75.1170933232842
 20
-148.9135285968366
 30
0.0
 10
75.0507855230446
 20
-148.9643286270162
 30
0.0
 10
74.99651501312098
 20
-149.0275336038399
 30
0.0
 10
74.95675149397043
 20
-149.1020804808084
 30
0.0
 10
74.9319365104833
 20
-149.1856718979344
 30
0.0
 10
74.92347138571147
 20
-149.2929155540891
 30
0.0
 10
74.93622875813489
 20
-149.4151904652364
 30
0.0
 10
75.00241380035189
 20
-149.5333477949998
 30
0.0
 10
75.09835669940774
 20
-149.6187817808168
 30
0.0
 10
75.21005045574277
 20
-149.6890114148447
 30
0.0
 10
75.33534532629476
 20
-149.748253414859
 30
0.0
 10
75.46924135356926
 20
-149.7986779570507
 30
0.0
 10
75.60325199273953
 20
-149.8516198680682
 30
0.0
 10
75.72934749111609
 20
-149.9173433316602
 30
0.0
 10
75.84188062326623
 20
-150.0000415125388
 30
0.0
 10
75.93739598784784
 20
-150.1048849748113
 30
0.0
 10
76.00152960812078
 20
-150.2454738653962
 30
0.0
 10
76.01536933195241
 20
-150.4041909433961
 30
0.0
 10
76.00165443064748
 20
-150.5633134857332
 30
0.0
 10
75.958732874823
 20
-150.7100067497199
 30
0.0
 10
75.88884959233113
 20
-150.8436470720406
 30
0.0
 10
75.79171818080746
 20
-150.9595211609191
 30
0.0
 10
75.66903956179026
 20
-151.0539452202111
 30
0.0
 10
75.52169980074135
 20
-151.1230523313922
 30
0.0
 10
75.351972209137
 20
-151.1653129293234
 30
0.0
 10
75.16599945738423
 20
-151.1770276756079
 30
0.0
 10
74.98715455204285
 20
-151.1667501710776
 30
0.0
 10
74.82243233479883
 20
-151.1251793002205
 30
0.0
 10
74.7177000435302
 20
-151.0568686090726
 30
0.0
 10
74.56935503846114
 20
-151.0080928475909
 30
0.0
 10
74.63229677889737
 20
-150.9150791250036
 30
0.0
 10
74.64148640243059
 20
-150.8418796754292
 30
0.0
 10
74.66463008954763
 20
-150.7754820928986
 30
0.0
 10
74.63771779295624
 20
-150.6750969426363
 30
0.0
 10
74.68639285505844
 20
-150.6825047027382
 30
0.0
 10
74.72591201749422
 20
-150.6759044017031
 30
0.0
 10
74.73387945389464
 20
-150.7540580057227
 30
0.0
 10
74.76480265621683
 20
-150.7888357641534
 30
0.0
 10
74.78085444300962
 20
-150.806888405752
 30
0.0
 11
74.78085444300962
 21
-150.806888405752
 31
0.0
 11
74.83246276701092
 21
-150.8675463397646
 31
0.0
 11
74.89436950955803
 21
-150.9221320862788
 31
0.0
 11
74.96703536040472
 21
-150.9690052286281
 31
0.0
 11
75.05090582500884
 21
-151.0064459751466
 31
0.0
 11
75.14548003266552
 21
-151.0309386747932
 31
0.0
 11
75.25041929214103
 21
-151.0390867390273
 31
0.0
 11
75.3583329091797
 21
-151.0292045515298
 31
0.0
 11
75.45510095358617
 21
-150.9995579890372
 31
0.0
 11
75.53933656775641
 21
-150.9530938484238
 31
0.0
 11
75.60987338019316
 21
-150.8929309057305
 31
0.0
 11
75.66620317042252
 21
-150.8197868432488
 31
0.0
 11
75.7079279610249
 21
-150.7346306974368
 31
0.0
 11
75.73372704022775
 21
-150.6404831280159
 31
0.0
 11
75.74234143236913
 21
-150.5403295169298
 31
0.0
 11
75.7221107297602
 21
-150.398412529118
 31
0.0
 11
75.66151122609767
 21
-150.2891781975481
 31
0.0
 11
75.57075608805309
 21
-150.204031973611
 31
0.0
 11
75.46026914789854
 21
-150.1343175725868
 31
0.0
 11
75.33511131254994
 21
-150.0750464962128
 31
0.0
 11
75.20055415452435
 21
-150.0208025031708
 31
0.0
 11
75.06594738712525
 21
-149.9628322948519
 31
0.0
 11
74.9408391611504
 21
-149.8918710448697
 31
0.0
 11
74.83028656925255
 21
-149.8037118782251
 31
0.0
 11
74.73959708295104
 21
-149.6940420865858
 31
0.0
 11
74.67896450637292
 21
-149.5530478331488
 31
0.0
 11
74.65876687667986
 21
-149.3707124338889
 31
0.0
 11
74.67166200655925
 21
-149.2326837186456
 31
0.0
 11
74.71036062536365
 21
-149.1075137533991
 31
0.0
 11
74.7735731325752
 21
-148.9970524166212
 31
0.0
 11
74.86000895487905
 21
-148.9028761840058
 31
0.0
 11
74.96790824032078
 21
-148.8263796302055
 31
0.0
 11
75.09561158775739
 21
-148.7686883368171
 31
0.0
 11
75.24179828541682
 21
-148.7326443698123
 31
0.0
 11
75.40523581596955
 21
-148.7206311840514
 31
0.0
 11
75.55915080255346
 21
-148.7305023472433
 31
0.0
 11
75.69074768368523
 21
-148.760071739597
 31
0.0
 11
75.80682259391851
 21
-148.8104450989595
 31
0.0
 11
75.9143382335368
 21
-148.8822034062332
 31
0.0
 11
75.88595836446898
 21
-148.9424787968431
 31
0.0
 11
75.8627444848529
 21
-149.0060548645355
 31
0.0
 11
75.84209706350461
 21
-149.0800566179893
 31
0.0
 11
75.82144302757325
 21
-149.1712430589387
 31
0.0
 11
75.80081875726606
 21
-149.1712430589387
 31
0.0
 11
75.78019448695886
 21
-149.1712430589387
 31
0.0
 11
75.75992960900363
 21
-149.1208939530485
 31
0.0
 11
75.73372483536662
 21
-149.0663445867427
 31
0.0
 11
75.69930585186964
 21
-149.0116838749508
 31
0.0
 11
75.65461442071825
 21
-148.9613491006579
 31
0.0
 11
75.59999229537561
 21
-148.9170732846967
 31
0.0
 11
75.53593115985717
 21
-148.880483614567
 31
0.0
 11
75.4602272555386
 21
-148.8560195781147
 31
0.0
 11
75.37083116406944
 21
-148.8478340312418
 31
0.0
 11
75.27835267684532
 21
-148.855575298601
 31
0.0
 11
75.19366616858906
 21
-148.8787550034563
 31
0.0
 11
75.11796140830855
 21
-148.9162100815719
 31
0.0
 11
75.05263443607612
 21
-148.966517295101
 31
0.0
 11
74.99930774819099
 21
-149.0288421041132
 31
0.0
 11
74.95973988281469
 21
-149.1023455589559
 31
0.0
 11
74.93521133489561
 21
-149.184960602338
 31
0.0
 11
74.92705436983533
 21
-149.2744217394685
 31
0.0
 11
74.94726853598628
 21
-149.4188919564462
 31
0.0
 11
75.00788457610656
 21
-149.5289332671826
 31
0.0
 11
75.09860689150034
 21
-149.6145083366057
 31
0.0
 11
75.20912665430586
 21
-149.6854254893657
 31
0.0
 11
75.33426795319646
 21
-149.7457019824062
 31
0.0
 11
75.46884164767982
 21
-149.7989405587818
 31
0.0
 11
75.60343187862131
 21
-149.8544501421013
 31
0.0
 11
75.7285566410543
 21
-149.9210722254179
 31
0.0
 11
75.83905986740157
 21
-150.0036564007445
 31
0.0
 11
75.92979871925337
 21
-150.1068450031493
 31
0.0
 11
75.99041475937341
 21
-150.2393218781162
 31
0.0
 11
76.01062892552432
 21
-150.4095812530736
 31
0.0
 11
75.99644293422432
 21
-150.5635147339379
 31
0.0
 11
75.95386766034386
 21
-150.708789725221
 31
0.0
 11
75.88423424785104
 21
-150.8408564960213
 31
0.0
 11
75.7887581672959
 21
-150.9547728501595
 31
0.0
 11
75.66836503668696
 21
-151.0476923119418
 31
0.0
 11
75.52387497960916
 21
-151.1165214612302
 31
0.0
 11
75.35661091269588
 21
-151.1590322858723
 31
0.0
 11
75.16786929424717
 21
-151.1731863917716
 31
0.0
 11
74.9747621320633
 21
-151.1590322858723
 31
0.0
 11
74.82215654951563
 21
-151.1165214612302
 31
0.0
 11
74.70044875364484
 21
-151.0558547077731
 31
0.0
 11
74.6002851420609
 21
-150.9875018084846
 31
0.0
 11
74.62649101812843
 21
-150.9122895862812
 31
0.0
 11
74.64327111318636
 21
-150.8446973640759
 31
0.0
 11
74.6548786042097
 21
-150.7720857755524
 31
0.0
 11
74.66561958483845
 21
-150.6813171557834
 31
0.0
 11
74.6862659037561
 21
-150.6813171557834
 31
0.0
 11
74.70691222267374
 21
-150.6813171557834
 31
0.0
 11
74.73915059858743
 21
-150.7436529891012
 31
0.0
 11
74.78085444300962
 21
-150.806888405752
 31
0.0
  0
LWPOLYLINE
  5
B9
102
{ACAD_REACTORS
330
C6
102
}
330
48
100
AcDbEntity
  8
_U_30EC_U_30A4_U_30E4_U_30FC_1
  6
Continuous
 62
     2
100
AcDbPolyline
 90
        5
 70
     1
 43
0.0
 10
97.09207276269171
 20
-149.5476216699557
 10
97.09207276269171
 20
-149.7160906976914
 10
95.79455612912767
 20
-149.7160906976914
 10
95.79455612912767
 20
-149.5476216699557
 10
97.09207276269171
 20
-149.5476216699557
  0
MTEXT
  5
BB
330
48
100
AcDbEntity
  8
1
 62
     2
100
AcDbMText
 10
-62.86574104057544
 20
117.0551549620883
 30
0.0
 40
5.0
 41
0.0
 71
     5
 72
     1
  1
図番
  7
CONVERTER_11
 73
     1
 44
0.45454545454545
  0
MTEXT
  5
BC
330
48
100
AcDbEntity
  8
1
 62
     2
100
AcDbMText
 10
-66.36574104057544
 20
-130.944845037912
 30
0.0
 40
3.5
 41
0.0
 71
     5
 72
     1
  1
備考
  7
CONVERTER_11
 73
     1
 44
0.45454545454545
  0
MTEXT
  5
BD
330
48
100
AcDbEntity
  8
1
 62
     2
100
AcDbMText
 10
-66.36574104057544
 20
-142.194845037912
 30
0.0
 40
3.5
 41
0.0
 71
     5
 72
     1
  1
品名
  7
CONVERTER_11
 73
     1
 44
0.72727272727273
  0
MTEXT
  5
BE
330
48
100
AcDbEntity
  8
1
 62
     2
100
AcDbMText
 10
-66.36574104057544
 20
-150.694845037912
 30
0.0
 40
3.5
 41
0.0
 71
     5
 72
     1
  1
品番
  7
CONVERTER_11
 73
     1
 44
0.72727272727273
  0
MTEXT
  5
BF
330
48
100
AcDbEntity
  8
1
 62
     2
100
AcDbMText
 10
6.13425895942453
 20
-139.944845037912
 30
0.0
 40
3.0
 41
0.0
 71
     5
 72
     1
  1
承認
  7
CONVERTER_11
 73
     1
 44
0.59090909090909
  0
MTEXT
  5
C0
330
48
100
AcDbEntity
  8
1
 62
     2
100
AcDbMText
 10
79.63425895942453
 20
-141.444845037912
 30
0.0
 40
3.5
 41
0.0
 71
     5
 72
     1
  1
第三角法
  7
CONVERTER_11
 73
     1
 44
0.54545454545455
  0
MTEXT
  5
C1
330
48
100
AcDbEntity
  8
1
 62
     2
100
AcDbMText
 10
23.13425895942453
 20
-139.944845037912
 30
0.0
 40
3.0
 41
0.0
 71
     5
 72
     1
  1
検図
  7
CONVERTER_11
 73
     1
 44
0.59090909090909
  0
MTEXT
  5
C2
330
48
100
AcDbEntity
  8
1
 62
     2
100
AcDbMText
 10
57.13425895942453
 20
-139.944845037912
 30
0.0
 40
3.0
 41
0.0
 71
     5
 72
     1
  1
設計
  7
CONVERTER_11
 73
     1
 44
0.59090909090909
  0
MTEXT
  5
C3
330
48
100
AcDbEntity
  8
1
 62
     2
100
AcDbMText
 10
40.13425895942453
 20
-139.944845037912
 30
0.0
 40
3.0
 41
0.0
 71
     5
 72
     1
  1
製図
  7
CONVERTER_11
 73
     1
 44
0.59090909090909
  0
MTEXT
  5
C4
330
48
100
AcDbEntity
  8
1
 62
     2
100
AcDbMText
 10
-5.86574104057544
 20
-140.944845037912
 30
0.0
 40
3.5
 41
0.0
 71
     5
 72
     1
  1
尺度
  7
CONVERTER_11
 73
     1
 44
0.54545454545455
  0
MTEXT
  5
C5
330
48
100
AcDbEntity
  8
1
 62
   250
100
AcDbMText
 10
-70.36574104057544
 20
-159.944845037912
 30
0.0
 40
3.5
 41
0.0
 71
     4
 72
     1
  1
備考欄の文字列 原点位置=4
  7
CONVERTER_11
 73
     1
 44
0.54545454545455
  0
HATCH
  5
C6
330
48
100
AcDbEntity
  8
1
  6
Continuous
 62
     2
100
AcDbHatch
 10
0.0
 20
0.0
 30
0.0
210
0.0
220
0.0
230
1.0
  2
CUSTOM0
 70
     0
 71
     1
 91
        1
 92
        1
 93
        4
 72
     1
 10
97.09207276269171
 20
-149.5476216699557
 11
97.09207276269171
 21
-149.7160906976914
 72
     1
 10
97.09207276269171
 20
-149.7160906976914
 11
95.79455612912767
 21
-149.7160906976914
 72
     1
 10
95.79455612912767
 20
-149.7160906976914
 11
95.79455612912767
 21
-149.5476216699557
 72
     1
 10
95.79455612912767
 20
-149.5476216699557
 11
97.09207276269171
 21
-149.5476216699557
 97
        1
330
B9
 75
     1
 76
     2
 52
45.0
 41
0.1
 77
     0
 78
     1
 53
45.0
 43
0.0
 44
0.0
 45
-0.282842712474619
 46
0.0
 79
     0
 98
        1
 10
0.0
 20
0.0
  0
HATCH
  5
C7
330
48
100
AcDbEntity
  8
1
  6
Continuous
 62
     2
100
AcDbHatch
 10
0.0
 20
0.0
 30
0.0
210
0.0
220
0.0
230
1.0
  2
CUSTOM1
 70
     0
 71
     1
 91
        1
 92
        1
 93
        3
 72
     4
 94
        3
 73
     0
 74
     0
 95
       62
 96
       58
 40
0.0
 40
0.0
 40
0.0
 40
0.0
 40
0.0598250028308769
 40
0.2024846486897331
 40
0.3727558389221173
 40
0.5154154847936354
 40
0.5752404975785765
 40
0.9332326775487838
 40
1.290451762839517
 40
1.60207725314592
 40
1.699931634112162
 40
1.799359756425071
 40
2.270120149657153
 40
2.804661928461591
 40
2.882342287383288
 40
3.076543185719167
 40
3.329004354835625
 40
3.581465524568464
 40
3.775666424543736
 40
3.853346784558361
 40
3.899120679595149
 40
3.984129341792133
 40
4.029903236817482
 40
4.105797496059658
 40
4.295533144152607
 40
4.542189486611868
 40
4.788845828875843
 40
4.978581476410248
 40
5.054475735244488
 40
5.621734664339558
 40
6.130867242037594
 40
6.225249780948862
 40
6.318913039727573
 40
6.663579954559209
 40
7.047498900225038
 40
7.435230791575997
 40
7.498943906668394
 40
7.650875181210388
 40
7.832212509001899
 40
7.984143783697299
 40
8.047856898903426
 40
8.09155463273293
 40
8.172707566964583
 40
8.216405300768336
 40
8.289021782161207
 40
8.462184160757566
 40
8.668861838005704
 40
8.842024215264253
 40
8.914640695475462
 40
8.989881580861656
 40
9.15541152882755
 40
9.32094147774432
 40
9.396182352487552
 40
9.45470901114407
 40
9.583467660171062
 40
9.71222630901327
 40
9.770752957989766
 40
9.770752957989766
 40
9.770752957989766
 40
9.770752957989766
 10
91.78644612860785
 20
-150.0050421559525
 10
91.76649377658686
 20
-150.0050362822253
 10
91.69896273107112
 20
-150.0050163998504
 10
91.57532017560338
 20
-150.0053514127087
 10
91.42057697443013
 20
-150.0037683004069
 10
91.30399390767249
 20
-150.0079842493071
 10
91.08935322284856
 20
-149.9926929845957
 10
91.48615380014732
 20
-150.3528578250501
 10
91.52882456635129
 20
-150.5697400039404
 10
91.95317517408566
 20
-150.7515944127975
 10
91.77824110903197
 20
-150.8549930722313
 10
91.65371135193296
 20
-151.0665298057847
 10
91.40088668301883
 20
-150.5967842278965
 10
91.11401924878714
 20
-149.9497298680668
 10
91.12489255209061
 20
-150.2570183163651
 10
91.1225482372205
 20
-150.4219588681942
 10
91.12036857206571
 20
-150.6560483307951
 10
91.13233639905916
 20
-150.8998643136941
 10
91.10305743348762
 20
-151.0462870693021
 10
91.1457112219716
 20
-151.1937101361667
 10
91.05824035998846
 20
-151.1779870648497
 10
91.01111172009902
 20
-151.1779020024775
 10
90.92415628019579
 20
-151.1937507830829
 10
90.96560636159688
 20
-151.0495673236845
 10
90.93724645985303
 20
-150.9062945109274
 10
90.94885633695446
 20
-150.6680955642593
 10
90.94667652425173
 20
-150.4396726855085
 10
90.9445700722239
 20
-150.2777877441519
 10
90.95506250325691
 20
-149.9633079445746
 10
90.64715528471385
 20
-150.6525503291875
 10
90.3397847861701
 20
-151.1300775354816
 10
90.21939566605198
 20
-150.9074339115377
 10
90.0417197504967
 20
-150.7947346883564
 10
90.51959159571393
 20
-150.6193636032573
 10
90.5696548651453
 20
-150.3839257453917
 10
90.99263892159625
 20
-149.9916151444659
 10
90.76193438677859
 20
-150.0082919676214
 10
90.63922754535864
 20
-150.0021498484244
 10
90.46680726899072
 20
-150.0117168109163
 10
90.35558142886941
 20
-149.9903568530154
 10
90.23683692216936
 20
-150.0234823843378
 10
90.2525759300931
 20
-149.9428060318432
 10
90.25211405280075
 20
-149.8983908950034
 10
90.23704714841767
 20
-149.8151742201267
 10
90.37149705296886
 20
-149.8542185180732
 10
90.49623451399918
 20
-149.8274477446277
 10
90.69713448315255
 20
-149.8442055474715
 10
90.82641305435985
 20
-149.8228027787819
 10
90.967100952254
 20
-149.8561572493778
 10
90.93235170468606
 20
-149.7183262800613
 10
90.9564775260958
 20
-149.5952124644172
 10
90.93096757766384
 20
-149.4746044812087
 10
90.96758407409297
 20
-149.3394463864971
 10
90.85540066220153
 20
-149.3638995800932
 10
90.7622946051381
 20
-149.3517675394918
 10
90.65341371740658
 20
-149.3552687372121
 10
90.59122872352094
 20
-149.355027478396
 10
90.57179591514915
 20
-149.3549520866706
 72
     4
 94
        3
 73
     0
 74
     0
 95
       24
 96
       20
 40
0.0
 40
0.0
 40
0.0
 40
0.0
 40
0.2211075008753955
 40
0.4273218586245946
 40
0.5080174679240275
 40
0.5914835907871143
 40
0.8143265690193895
 40
1.054651302686704
 40
1.295452694023282
 40
1.518109231328858
 40
1.540864321905455
 40
1.59512646062268
 40
1.659890947896008
 40
1.714153085187344
 40
1.736908174961644
 40
1.764951100735322
 40
1.801562291220897
 40
1.953914424543601
 40
2.126104167379648
 40
2.126104167379648
 40
2.126104167379648
 40
2.126104167379648
 10
90.57179591511346
 20
-149.3549520867818
 10
90.54551686760573
 20
-149.4138687555682
 10
90.49472884886708
 20
-149.5277336411193
 10
90.44743744333572
 20
-149.800425455581
 10
90.33860723968635
 20
-149.7003902121574
 10
90.18573898738823
 20
-149.6736591042387
 10
90.40287447754451
 20
-149.4596636877357
 10
90.41810732686257
 20
-149.2415238600871
 10
90.5249479086247
 20
-149.0603292472478
 10
90.46479705413222
 20
-148.7757127747981
 10
90.56769069896475
 20
-148.8037041456876
 10
90.61225230623951
 20
-148.812412521889
 10
90.67234319896414
 20
-148.8234484960784
 10
90.70992091816831
 20
-148.8371698073564
 10
90.75950565228511
 20
-148.8372842763097
 10
90.72727485135704
 20
-148.8717791139257
 10
90.6514391816127
 20
-148.8608039925323
 10
90.67720367539383
 20
-149.0462553420874
 10
90.63984863580959
 20
-149.1378219024161
 10
90.6200294555855
 20
-149.1864036839349
 72
     4
 94
        3
 73
     0
 74
     0
 95
       70
 96
       66
 40
0.0
 40
0.0
 40
0.0
 40
0.0
 40
0.0241731073021472
 40
0.0846058988987013
 40
0.1631685280352999
 40
0.2417311571789329
 40
0.3021639488292467
 40
0.3263370654895399
 40
0.3533118254248828
 40
0.4228783438921809
 40
0.5179999095313278
 40
0.6216398239466102
 40
0.716761389149967
 40
0.7863279069649863
 40
0.8133026791761765
 40
0.8372943998771468
 40
0.8945054261372688
 40
0.9627895541962873
 40
1.020000580349085
 40
1.043992300975197
 40
1.071934345522962
 40
1.113121768772943
 40
1.145225199332232
 40
1.225483775412785
 40
1.329819923771483
 40
1.434156071994353
 40
1.514414647795776
 40
1.546518078208381
 40
1.578974764260168
 40
1.662678849314092
 40
1.777131373668355
 40
1.90183337747476
 40
2.01628590050055
 40
2.099989982527903
 40
2.132446666570248
 40
2.158782354485995
 40
2.216720867907812
 40
2.274659381334262
 40
2.300995069256205
 40
2.333451754066177
 40
2.417155836543857
 40
2.531608358985297
 40
2.656310362283792
 40
2.77076288638891
 40
2.854466971340061
 40
2.886923657363882
 40
2.913597976833289
 40
2.982389642875107
 40
3.076451716947007
 40
3.17893726045857
 40
3.272999334739938
 40
3.34179100105918
 40
3.368465320663477
 40
3.396976080738726
 40
3.472140811845934
 40
3.578408190308609
 40
3.700226892456088
 40
3.822045594634263
 40
3.928312973256341
 40
4.003477705314781
 40
4.031988456866832
 40
4.058324144797615
 40
4.116262658236797
 40
4.174201171400602
 40
4.200536849608545
 40
4.200536849608545
 40
4.200536849608545
 40
4.200536849608545
 10
90.6200294555855
 20
-149.1864036839349
 10
90.62808491389254
 20
-149.1864014397951
 10
90.65627902574863
 20
-149.186393577584
 10
90.7108124397919
 20
-149.1865374896283
 10
90.78254814028487
 20
-149.185753832913
 10
90.85788297313081
 20
-149.1885693332739
 10
90.90556419606841
 20
-149.1818610039024
 10
90.95376608398617
 20
-149.1928694009877
 10
90.94051613941183
 20
-149.1393810079416
 10
90.9493683558784
 20
-149.0843492024811
 10
90.9451287630531
 20
-148.9906459506509
 10
90.94760730755257
 20
-148.8952502157267
 10
90.94335283003056
 20
-148.8012768180781
 10
90.95224082600923
 20
-148.7468944135319
 10
90.93895670041906
 20
-148.6925050609973
 10
90.98567088713544
 20
-148.7064228745584
 10
91.02858441399819
 20
-148.7038062641716
 10
91.09480330509305
 20
-148.7083608134045
 10
91.13559318660441
 20
-148.7170634165704
 10
91.18677352850646
 20
-148.7095270390101
 10
91.15963100814457
 20
-148.7513453356792
 10
91.11456856499528
 20
-148.7419951171861
 10
91.12846546392964
 20
-148.8064329641936
 10
91.12010040258998
 20
-148.871062841638
 10
91.12462217726436
 20
-148.9695536259731
 10
91.11973309054127
 20
-149.0688857094862
 10
91.12928485863277
 20
-149.1319138823823
 10
91.11423510494457
 20
-149.1952049229141
 10
91.17917490514542
 20
-149.1796943084692
 10
91.24588359937422
 20
-149.1898511609338
 10
91.3584025065073
 20
-149.1849570369183
 10
91.47328250431995
 20
-149.1879329905841
 10
91.58624615939922
 20
-149.1826283960621
 10
91.65188571919234
 20
-149.193771973191
 10
91.71588662852986
 20
-149.1773997147134
 10
91.70457324834348
 20
-149.2272281388593
 10
91.71179294657551
 20
-149.2706778857908
 10
91.70457322055145
 20
-149.3141275820376
 10
91.71588667702397
 20
-149.3639560859433
 10
91.65188531932169
 20
-149.3475833769984
 10
91.58625108347047
 20
-149.3587323212963
 10
91.47325639115766
 20
-149.3533964658434
 10
91.35850461428885
 20
-149.3565015812738
 10
91.2455773281107
 20
-149.3511960910862
 10
91.179781049783
 20
-149.3622720377161
 10
91.11586875696038
 20
-149.3459690594358
 10
91.12786047593718
 20
-149.4006097939546
 10
91.12046942072509
 20
-149.4563020874336
 10
91.12352744362289
 20
-149.5483481465063
 10
91.12360123799286
 20
-149.643053939181
 10
91.12029031726058
 20
-149.7353172088894
 10
91.12820955841494
 20
-149.7904873505506
 10
91.1157666205863
 20
-149.8442633469107
 10
91.17317061458773
 20
-149.8303073492841
 10
91.23372977346287
 20
-149.8397304590697
 10
91.33912704493267
 20
-149.8354161786249
 10
91.45468836648678
 20
-149.8364899917916
 10
91.57022784720431
 20
-149.8375853789021
 10
91.67567707250862
 20
-149.8332197802056
 10
91.73612700660495
 20
-149.8427507776053
 10
91.79354273333556
 20
-149.8286721418482
 10
91.78203634709543
 20
-149.8777735052552
 10
91.78801563759949
 20
-149.9191984577255
 10
91.78629006450475
 20
-149.9683282582451
 10
91.78640897172167
 20
-149.9963007534359
 10
91.78644612860785
 20
-150.0050421559525
 97
        3
330
AA
330
A9
330
A8
 75
     1
 76
     2
 52
45.0
 41
0.1
 77
     0
 78
     1
 53
45.0
 43
0.0
 44
0.0
 45
-0.282842712474619
 46
0.0
 79
     0
 98
        1
 10
0.0
 20
0.0
  0
HATCH
  5
C8
330
48
100
AcDbEntity
  8
1
  6
Continuous
 62
     2
100
AcDbHatch
 10
0.0
 20
0.0
 30
0.0
210
0.0
220
0.0
230
1.0
  2
CUSTOM2
 70
     0
 71
     1
 91
        1
 92
        1
 93
        1
 72
     4
 94
        3
 73
     0
 74
     0
 95
      124
 96
      120
 40
0.0
 40
0.0
 40
0.0
 40
0.0
 40
0.0278187229624653
 40
0.1011590162384128
 40
0.2048470170589813
 40
0.3237088716558677
 40
0.4425707262521005
 40
0.5462587270698694
 40
0.6195990203311229
 40
0.6474177522577808
 40
0.6750060736114283
 40
0.7357003855241835
 40
0.7963946998053479
 40
0.8239830245570949
 40
0.8540933811101901
 40
0.9373396629408439
 40
1.063094687343139
 40
1.220731268637977
 40
1.399622220914652
 40
1.589140358637622
 40
1.778658496423731
 40
1.957549448940399
 40
2.115186030873006
 40
2.240941056914296
 40
2.324187341760365
 40
2.354297700109229
 40
2.381886024671744
 40
2.44258033871033
 40
2.503274652750364
 40
2.530862977314471
 40
2.56098394927841
 40
2.640393784452784
 40
2.75266286175895
 40
2.881361560117981
 40
3.010060258455057
 40
3.12232933570519
 40
3.201739170817789
 40
3.231860142753178
 40
3.264298024030198
 40
3.352343701778111
 40
3.482095226868595
 40
3.639650650172869
 40
3.811108022565336
 40
3.98256539492779
 40
4.140120818152369
 40
4.269872343141103
 40
4.357918020802161
 40
4.390355902043795
 40
4.423256253992393
 40
4.5081045300729
 40
4.624121560636667
 40
4.75052817603141
 40
4.866545206601885
 40
4.951393482691828
 40
4.984293834645244
 40
5.011450833242166
 40
5.071196230151927
 40
5.130941627057056
 40
5.158098625648692
 40
5.190998977601311
 40
5.275847253689165
 40
5.391864284256642
 40
5.518270899648173
 40
5.634287930209198
 40
5.719136206287872
 40
5.752036558235774
 40
5.782130946282792
 40
5.862783906228999
 40
5.979550131774858
 40
6.117984316640276
 40
6.263641154587817
 40
6.402075339414041
 40
6.518841564907832
 40
6.599494524815413
 40
6.629588912848647
 40
6.654403028226222
 40
6.71357514948795
 40
6.784199939329269
 40
6.843372060493341
 40
6.868186175802559
 40
6.896246243201634
 40
6.939586233757972
 40
6.967846564564575
 40
7.043584251089521
 40
7.153234334451406
 40
7.283231855734123
 40
7.420011856035125
 40
7.550009376579504
 40
7.659659458834903
 40
7.735397144416873
 40
7.763657474851038
 40
7.796409728010695
 40
7.880876065095969
 40
7.996370852465341
 40
8.122208446418222
 40
8.237703224798858
 40
8.322169562010581
 40
8.354921815205538
 40
8.382078813307325
 40
8.44182420920661
 40
8.501569605239789
 40
8.528726603485362
 40
8.561478856695397
 40
8.645945193877461
 40
8.761439980865001
 40
8.887277580764144
 40
9.00277236200065
 40
9.087238696660842
 40
9.119990949235325
 40
9.152428830613042
 40
9.240474508638238
 40
9.370226034149193
 40
9.527781457984071
 40
9.69923883098104
 40
9.870696203978236
 40
10.02825162781365
 40
10.15800315332526
 40
10.2460488313508
 40
10.27848670378483
 40
10.27848670378483
 40
10.27848670378483
 40
10.27848670378483
 10
100.0164417158629
 20
-150.9307398640544
 10
100.0257144331769
 20
-150.9307400527993
 10
100.0594334131106
 20
-150.9307407291448
 10
100.1277296406711
 20
-150.9307269654789
 10
100.2262731305825
 20
-150.9308127957166
 10
100.3404656059057
 20
-150.9304274817895
 10
100.4528484011316
 20
-150.9318366789365
 10
100.5556966194363
 20
-150.9276538636895
 10
100.6149429469094
 20
-150.9366141453922
 10
100.6713855531278
 20
-150.9232006926514
 10
100.6588845181199
 20
-150.9739730517784
 10
100.6672139229948
 20
-151.0189518285213
 10
100.6590760435365
 20
-151.0642775080071
 10
100.6713118808702
 20
-151.1155257138273
 10
100.6090363084578
 20
-151.1003654842592
 10
100.5403102621113
 20
-151.1112475308045
 10
100.4125346343836
 20
-151.1057319904323
 10
100.2605574105888
 20
-151.107836525375
 10
100.0845285566768
 20
-151.1071350120272
 10
99.89870215285322
 20
-151.107392662599
 10
99.71287570314205
 20
-151.1071349864659
 10
99.53684697364136
 20
-151.1078366194347
 10
99.38486937484396
 20
-151.1057317156121
 10
99.25709472588
 20
-151.1112482302356
 10
99.1883667430826
 20
-151.1003642666525
 10
99.12609386371284
 20
-151.1155271710699
 10
99.1383205884263
 20
-151.0642699298603
 10
99.13025940568419
 20
-151.0190203051877
 10
99.13832654041383
 20
-150.9737814583587
 10
99.12608280813285
 20
-150.9225032688124
 10
99.18676067149435
 20
-150.9373492642807
 10
99.2505400339981
 20
-150.9272805562046
 10
99.3619903947748
 20
-150.931898595792
 10
99.48401230380685
 20
-150.9307117488573
 10
99.60621277320689
 20
-150.9296863989056
 10
99.71723838816376
 20
-150.933920281678
 10
99.78191070082032
 20
-150.9246591926946
 10
99.84337524047467
 20
-150.9388008074151
 10
99.82726551955822
 20
-150.8724897590668
 10
99.83855699216036
 20
-150.8003671366922
 10
99.83299904168061
 20
-150.6697074290291
 10
99.83506246559354
 20
-150.5187718008296
 10
99.83427567215398
 20
-150.3514863068331
 10
99.83504348098725
 20
-150.184233934589
 10
99.83306283798733
 20
-150.0332121452128
 10
99.83838957508661
 20
-149.9027843423821
 10
99.827569098267
 20
-149.8301906118531
 10
99.84329160241208
 20
-149.763340343544
 10
99.77752977267359
 20
-149.7790399130039
 10
99.70989574250089
 20
-149.768752607072
 10
99.5958474888055
 20
-149.7737071694408
 10
99.4793832269148
 20
-149.7707037576073
 10
99.36491437157224
 20
-149.7760420064781
 10
99.29829142520578
 20
-149.7648323571638
 10
99.23333593094307
 20
-149.7813537112619
 10
99.24505793529536
 20
-149.7301078331415
 10
99.23754197833652
 20
-149.685341700071
 10
99.24505794730814
 20
-149.6405755889324
 10
99.2333359099592
 20
-149.5893296766146
 10
99.29829159334454
 20
-149.6058512202438
 10
99.36491229340663
 20
-149.5946393241726
 10
99.47939424523085
 20
-149.5999906708053
 10
99.5958044031208
 20
-149.5969331502008
 10
99.71002497688866
 20
-149.602060047805
 10
99.77727400334713
 20
-149.5913877043559
 10
99.84259155356841
 20
-149.6074242112213
 10
99.82839810427963
 20
-149.5453481804114
 10
99.83786490572412
 20
-149.4789774216244
 10
99.83328585983305
 20
-149.3624453104923
 10
99.83502861501931
 20
-149.2305781876882
 10
99.83401410896373
 20
-149.0886854364092
 10
99.83597809386174
 20
-148.9571545308862
 10
99.83072581480965
 20
-148.839599265082
 10
99.84159983577196
 20
-148.7753671478961
 10
99.82621262360992
 20
-148.7137570124615
 10
99.87501811320456
 20
-148.7278209640908
 10
99.9196585158971
 20
-148.7252976171589
 10
99.98812335409875
 20
-148.729717063895
 10
100.0301695763347
 20
-148.7387147824716
 10
100.083013435302
 20
-148.7307278892469
 10
100.0549624596259
 20
-148.7737058617953
 10
100.009173184284
 20
-148.7622495174737
 10
100.021212866751
 20
-148.8231098378606
 10
100.0138675664888
 20
-148.8871520432243
 10
100.0173785420407
 20
-148.995751349273
 10
100.016239635442
 20
-149.1199018464645
 10
100.0161764374508
 20
-149.2529478396132
 10
100.0175462561113
 20
-149.3768712254164
 10
100.0134228395559
 20
-149.4861616594187
 10
100.022035269781
 20
-149.5487592369703
 10
100.0089347048648
 20
-149.6074437049484
 10
100.0736473922444
 20
-149.5912238998029
 10
100.1402995547402
 20
-149.6021424340789
 10
100.2541369135348
 20
-149.5969076361745
 10
100.3699848716342
 20
-149.5999895627428
 10
100.4839513857526
 20
-149.5946624397869
 10
100.5502930612345
 20
-149.6058029562465
 10
100.6149778119726
 20
-149.5893752419802
 10
100.6032410366968
 20
-149.6405857858115
 10
100.6107757657286
 20
-149.685341696702
 10
100.6032410586503
 20
-149.7300976478117
 10
100.6149777734983
 20
-149.7813081292016
 10
100.5502933669498
 20
-149.7648807599697
 10
100.4839476025071
 20
-149.7760171934393
 10
100.3700049081258
 20
-149.7707138789808
 10
100.2540585217301
 20
-149.7736973919766
 10
100.1405346476368
 20
-149.768776115228
 10
100.073182091305
 20
-149.7789941627768
 10
100.0076874716741
 20
-149.7633850765238
 10
100.0234303213464
 20
-149.8302065196379
 10
100.0125865592459
 20
-149.9027744597532
 10
100.0179171224038
 20
-150.0332225617678
 10
100.0159725746101
 20
-150.1841994560598
 10
100.016572327746
 20
-150.3516225985704
 10
100.016409615385
 20
-150.5182832767283
 10
100.0164485082381
 20
-150.6712436086956
 10
100.0164406007345
 20
-150.7963532480549
 10
100.0164417976991
 20
-150.8797661279978
 10
100.0164417310454
 20
-150.9199272550921
 10
100.0164417158629
 20
-150.9307398640544
 97
        1
330
AB
 75
     1
 76
     2
 52
45.0
 41
0.1
 77
     0
 78
     1
 53
45.0
 43
0.0
 44
0.0
 45
-0.282842712474619
 46
0.0
 79
     0
 98
        1
 10
0.0
 20
0.0
  0
HATCH
  5
C9
330
48
100
AcDbEntity
  8
1
  6
Continuous
 62
     2
100
AcDbHatch
 10
0.0
 20
0.0
 30
0.0
210
0.0
220
0.0
230
1.0
  2
CUSTOM3
 70
     0
 71
     1
 91
        1
 92
        1
 93
        1
 72
     4
 94
        3
 73
     0
 74
     0
 95
      131
 96
      127
 40
0.0
 40
0.0
 40
0.0
 40
0.0
 40
0.0195577029826117
 40
0.042649053746195
 40
0.2863607575856979
 40
0.534494843618996
 40
0.7842238845573405
 40
0.873731578946757
 40
0.9803832810312868
 40
1.092842274517057
 40
1.199761146656784
 40
1.289788768186543
 40
1.351573580786243
 40
1.370727117561485
 40
1.416400936017898
 40
1.470914848356009
 40
1.516588666791815
 40
1.535742203552893
 40
1.634216592293257
 40
1.760283341175066
 40
1.897966686682171
 40
2.031216387368984
 40
2.049689751137988
 40
2.101115601646894
 40
2.179502577740051
 40
2.278859318314131
 40
2.393194462258789
 40
2.516516648383954
 40
2.642834515406049
 40
2.766156701983574
 40
2.880491846754678
 40
2.979848588358761
 40
3.058235565443921
 40
3.109661416669054
 40
3.128134780704256
 40
3.146783742386615
 40
3.191254343315462
 40
3.244332157316121
 40
3.28880275822601
 40
3.307451719895267
 40
3.327717853844872
 40
3.383747753580236
 40
3.468388665924619
 40
3.574487837698952
 40
3.694892515729078
 40
3.822449946852215
 40
3.950007377920612
 40
4.0704120558007
 40
4.176511227368236
 40
4.261152139501702
 40
4.317182039076881
 40
4.337448172964811
 40
4.620011002696433
 40
4.885096638397664
 40
4.945373043518466
 40
5.014107710488814
 40
5.07048172765224
 40
5.319246955636741
 40
5.584812164506214
 40
5.859000912057057
 40
6.133746937542255
 40
6.401732212969092
 40
6.420736683995683
 40
6.472845717451305
 40
6.550702743894275
 40
6.64695119387447
 40
6.754234497930794
 40
6.8651960865876
 40
6.972479390358073
 40
7.068727839772192
 40
7.146584865451215
 40
7.198693898189445
 40
7.2176983689056
 40
7.234950401631108
 40
7.276089864270132
 40
7.325191803516232
 40
7.366331266090624
 40
7.383583298769976
 40
7.402779163492353
 40
7.45338644325477
 40
7.524934666445786
 40
7.606953361406111
 40
7.688972056429249
 40
7.760520279784485
 40
7.811127559734741
 40
7.830323424546377
 40
7.847844055299985
 40
7.894799345667023
 40
7.962779392744691
 40
8.043374293560758
 40
8.12817414514967
 40
8.208769044817442
 40
8.276749090377136
 40
8.323704379669719
 40
8.341225010056432
 40
8.35849761480061
 40
8.4016791266868
 40
8.457815092185857
 40
8.513951057728292
 40
8.557132569708218
 40
8.574405174505303
 40
8.602340668616677
 40
8.643455660540212
 40
8.663225271966866
 40
8.715345156564524
 40
8.78903188962883
 40
8.873502045520553
 40
8.957972194324185
 40
9.031658925568053
 40
9.083778811234737
 40
9.10354842300319
 40
9.11955008312377
 40
9.160817522380043
 40
9.217244429110394
 40
9.27872449164488
 40
9.335151398295679
 40
9.37641883735796
 40
9.392420497300748
 40
9.401196302734997
 40
9.417494229384472
 40
9.42627002774974
 40
9.44087507547776
 40
9.475702496998961
 40
9.51727070986612
 40
9.552098131994283
 40
9.566703169884505
 40
9.566703169884505
 40
9.566703169884505
 40
9.566703169884505
 10
99.25128437427247
 20
-149.2746863228017
 10
99.24769346876164
 20
-149.2803081308903
 10
99.23986287178703
 20
-149.2925674937209
 10
99.14725585687921
 20
-149.328825877502
 10
99.12302118274923
 20
-149.5433605957849
 10
99.02012994401838
 20
-149.7228721928149
 10
98.75630819585507
 20
-149.9086892999305
 10
98.91880611634255
 20
-149.9852516722512
 10
98.99498153550843
 20
-150.0462781059576
 10
99.08347606670033
 20
-150.1096869924644
 10
99.1732519827356
 20
-150.1695886957164
 10
99.22264072302912
 20
-150.2238234894199
 10
99.3088297751627
 20
-150.2519826324937
 10
99.27538502684746
 20
-150.2877119413839
 10
99.25572607605564
 20
-150.319341157993
 10
99.22624778121272
 20
-150.3600863099513
 10
99.20315790402768
 20
-150.3897984030156
 10
99.17227955626012
 20
-150.4427308112271
 10
99.10717829599864
 20
-150.317441688523
 10
99.01385897166608
 20
-150.2627060355726
 10
98.92932258793846
 20
-150.2056807985185
 10
98.80650877199866
 20
-150.0480921636368
 10
98.81070404415473
 20
-150.1244869702436
 10
98.80940682469229
 20
-150.171232236299
 10
98.81007160423222
 20
-150.248997179786
 10
98.8098139581202
 20
-150.3458243546677
 10
98.80990208341669
 20
-150.4583422471239
 10
98.8098666896526
 20
-150.579604178455
 10
98.80991013525245
 20
-150.7039760593224
 10
98.80977895366506
 20
-150.8251682015986
 10
98.81020671562922
 20
-150.9379335487146
 10
98.80892677965556
 20
-151.0340159002246
 10
98.81223494452888
 20
-151.113706773225
 10
98.80577873343323
 20
-151.1566932800241
 10
98.81487982998014
 20
-151.1952907141916
 10
98.77904999341803
 20
-151.1867361606713
 10
98.74578134094973
 20
-151.1914198380576
 10
98.6947152170286
 20
-151.1913320503142
 10
98.6612313567058
 20
-151.1869007350738
 10
98.62501750029993
 20
-151.1952370994869
 10
98.63523721629105
 20
-151.1533922661191
 10
98.62790774820184
 20
-151.1070594297103
 10
98.63162227303481
 20
-151.0210967268519
 10
98.63020701491406
 20
-150.9187936108635
 10
98.63066951488837
 20
-150.8003127985969
 10
98.63053632804754
 20
-150.6752682063784
 10
98.63056055042904
 20
-150.5500867568415
 10
98.63059445197965
 20
-150.4319785841214
 10
98.63046498873771
 20
-150.3285575508168
 10
98.63080971433257
 20
-150.2455246763753
 10
98.63012878729354
 20
-150.1934113526995
 10
98.63371761948676
 20
-150.0657159596985
 10
98.41687609806819
 20
-150.3643578697157
 10
98.23639445161967
 20
-150.5922052227968
 10
98.18329118898568
 20
-150.4511106050138
 10
98.15430187273941
 20
-150.4015873623026
 10
98.05392376570663
 20
-150.2984272400109
 10
98.37477173175056
 20
-150.2178946876741
 10
98.50324865996748
 20
-150.0341822075476
 10
98.72490439196046
 20
-149.8255250801944
 10
98.81128144883131
 20
-149.6514529256285
 10
99.08919838233209
 20
-149.375174524487
 10
98.96888374335298
 20
-149.3794994424008
 10
98.92057869455951
 20
-149.3786964758864
 10
98.84449670491502
 20
-149.3790992164461
 10
98.7509599603996
 20
-149.3789422817958
 10
98.64601843828021
 20
-149.3790200121497
 10
98.53764773329634
 20
-149.3788903941264
 10
98.43240438301424
 20
-149.379301103005
 10
98.3398827413658
 20
-149.3780243011961
 10
98.26107203949533
 20
-149.3814373725635
 10
98.21822641596248
 20
-149.3746115375487
 10
98.17920891807609
 20
-149.3841943959007
 10
98.18689548661096
 20
-149.3506372422565
 10
98.18280539985572
 20
-149.3196095346897
 10
98.18281209630592
 20
-149.2724797452029
 10
98.1868829319157
 20
-149.2414356214442
 10
98.1792085168828
 20
-149.2078264215529
 10
98.217740899974
 20
-149.2173609337033
 10
98.25838176087248
 20
-149.2108706829313
 10
98.3294061444709
 20
-149.2138435314095
 10
98.40719077438789
 20
-149.2130974239204
 10
98.48498818407195
 20
-149.2123668974667
 10
98.55598216841526
 20
-149.2153026827704
 10
98.59668693860651
 20
-149.2088903501825
 10
98.63524430841548
 20
-149.218339796152
 10
98.62699323491724
 20
-149.1821981163241
 10
98.63249362636043
 20
-149.1435466617798
 10
98.62983438004075
 20
-149.0757097522936
 10
98.63084050657787
 20
-148.9989286225246
 10
98.63027676125648
 20
-148.9163511020844
 10
98.63133041208368
 20
-148.8396717456132
 10
98.62852654573751
 20
-148.771525130145
 10
98.6343292315549
 20
-148.7335210398185
 10
98.62582441454038
 20
-148.6972605571356
 10
98.659819982737
 20
-148.7072878001935
 10
98.69371652773444
 20
-148.7041123697749
 10
98.74692586545915
 20
-148.7097553815059
 10
98.80033581687287
 20
-148.7104972935478
 10
98.83385042437354
 20
-148.7166528030822
 10
98.87306757772849
 20
-148.7113847401761
 10
98.84628532927375
 20
-148.7523112299772
 10
98.80507005959691
 20
-148.7411329925309
 10
98.81252311351192
 20
-148.7861744759907
 10
98.80848175464297
 20
-148.8307222576306
 10
98.81043036438855
 20
-148.9026093116949
 10
98.80949544440043
 20
-148.9831587320243
 10
98.81076967842753
 20
-149.063105083862
 10
98.80746333881095
 20
-149.1364266670801
 10
98.81446957742058
 20
-149.1779586078863
 10
98.80440299743711
 20
-149.2173208522308
 10
98.83724043981665
 20
-149.2101644036021
 10
98.87071668907262
 20
-149.2145726065325
 10
98.92576430702641
 20
-149.212665604433
 10
98.98320921895603
 20
-149.2129913738391
 10
99.03656158425551
 20
-149.2137819505812
 10
99.07411304908844
 20
-149.2117054467312
 10
99.09657621174824
 20
-149.2146216562409
 10
99.10942676679764
 20
-149.2091195114713
 10
99.12008452801345
 20
-149.2068338559341
 10
99.13292252443892
 20
-149.1998953120314
 10
99.14885806273159
 20
-149.2163145747753
 10
99.17532135151379
 20
-149.2277538147174
 10
99.20693948480033
 20
-149.2483981595601
 10
99.23298454863972
 20
-149.263676341629
 10
99.24711073182188
 20
-149.2721752746801
 10
99.25128437427247
 20
-149.2746863228017
 97
        1
330
AC
 75
     1
 76
     2
 52
45.0
 41
0.1
 77
     0
 78
     1
 53
45.0
 43
0.0
 44
0.0
 45
-0.282842712474619
 46
0.0
 79
     0
 98
        1
 10
0.0
 20
0.0
  0
HATCH
  5
CA
330
48
100
AcDbEntity
  8
1
  6
Continuous
 62
     2
100
AcDbHatch
 10
0.0
 20
0.0
 30
0.0
210
0.0
220
0.0
230
1.0
  2
CUSTOM4
 70
     0
 71
     1
 91
        1
 92
        1
 93
        1
 72
     4
 94
        3
 73
     0
 74
     0
 95
       91
 96
       87
 40
0.0
 40
0.0
 40
0.0
 40
0.0
 40
0.0267532254356986
 40
0.0856103386464617
 40
0.1444674521997349
 40
0.1712206856618941
 40
0.2039416005642962
 40
0.2955601971652768
 40
0.4362601844617202
 40
0.6162252844507818
 40
0.8256392189705124
 40
1.054685709844482
 40
1.29354847889356
 40
1.532411247938317
 40
1.761457738799596
 40
1.970871673298551
 40
2.150836773256718
 40
2.291536760495608
 40
2.383155356836729
 40
2.41587628410132
 40
2.442629517487991
 40
2.501486630949121
 40
2.56034374442432
 40
2.587096977826566
 40
2.617068194440994
 40
2.699247336756163
 40
2.822032643466419
 40
2.973822353257963
 40
3.143014704823419
 40
3.31800793687997
 40
3.487200288186789
 40
3.638989997548269
 40
3.761775303794782
 40
3.843954445753117
 40
3.873925662229827
 40
3.89081277350052
 40
3.907699884771712
 40
3.937960767857359
 40
3.980983618142403
 40
4.199085915228532
 40
4.43944433923728
 40
4.677588241260955
 40
5.050698317837812
 40
5.448212454763198
 40
5.855291218044679
 40
6.138575438885333
 40
6.417434507584157
 40
6.444551104393838
 40
6.504207617363114
 40
6.563864130314439
 40
6.590980727104001
 40
6.848609460381436
 40
7.109611990668373
 40
7.352910904446065
 40
7.557830220705389
 40
7.587518925913311
 40
7.652834077375704
 40
7.718149228845648
 40
7.747837934061936
 40
7.85488019030087
 40
7.976511257403349
 40
8.369487896592137
 40
8.757514959223444
 40
9.126072419330907
 40
9.460639380391969
 40
9.746695593035682
 40
9.777569943118442
 40
9.807050320931513
 40
9.830377336128652
 40
9.886003295435728
 40
9.952395569429635
 40
10.00802152870599
 40
10.03134854388188
 40
10.21356951009557
 40
10.42203479292839
 40
10.66154556731032
 40
10.91693789564271
 40
11.15832906556532
 40
11.18982674596588
 40
11.27286608520372
 40
11.39026653033316
 40
11.52484752840852
 40
11.65942852648411
 40
11.77682897161448
 40
11.85986831085646
 40
11.89136598230392
 40
11.89136598230392
 40
11.89136598230392
 40
11.89136598230392
 10
95.33704746024415
 20
-150.2378490308943
 10
95.33708273595337
 20
-150.2289665647922
 10
95.33719563050416
 20
-150.2005426674385
 10
95.33555741627342
 20
-150.150748646214
 10
95.34123398871562
 20
-150.1082693931304
 10
95.3299518325952
 20
-150.0575434893435
 10
95.39748865732773
 20
-150.0747160305108
 10
95.47306188049454
 20
-150.061942766252
 10
95.61709466502465
 20
-150.0685477433383
 10
95.79120087796721
 20
-150.0659604158472
 10
95.99821892052486
 20
-150.0668391183564
 10
96.22372777666227
 20
-150.0665629587117
 10
96.4593751887651
 20
-150.0666616413254
 10
96.69502301255935
 20
-150.0665631937842
 10
96.92053071748711
 20
-150.066838256004
 10
97.12755242270501
 20
-150.0659631752046
 10
97.30164785095332
 20
-150.0685398111275
 10
97.44570816662304
 20
-150.0619621334199
 10
97.52122815095386
 20
-150.074682603856
 10
97.58883656312747
 20
-150.0575810359951
 10
97.57734297349214
 20
-150.1080971798826
 10
97.5847694175978
 20
-150.152312515647
 10
97.57714285222315
 20
-150.1961653728759
 10
97.588907905367
 20
-150.2460612931187
 10
97.5273378086228
 20
-150.2309127607869
 10
97.45993813329163
 20
-150.2417383844053
 10
97.3355593650467
 20
-150.2363247216496
 10
97.1897017830816
 20
-150.2383529840042
 10
97.02361660343304
 20
-150.2376872621282
 10
96.85310022159697
 20
-150.2379486026996
 10
96.68623804496343
 20
-150.2376295040011
 10
96.54299364213509
 20
-150.2384920120044
 10
96.4115903464079
 20
-150.2362120330822
 10
96.35824487289022
 20
-150.2407679941699
 10
96.28277780511576
 20
-150.2348458879833
 10
96.31116653734777
 20
-150.2439033444784
 10
96.33762420037877
 20
-150.2475859152227
 10
96.29761125019472
 20
-150.2783023182293
 10
96.20562532861133
 20
-150.2681691261656
 10
96.17819858013144
 20
-150.5145200154341
 10
96.082138356148
 20
-150.6698494502683
 10
95.8259867558719
 20
-150.9995908585963
 10
96.39701273270083
 20
-150.8605448158076
 10
96.65162459147614
 20
-150.8619272381783
 10
97.2622236642862
 20
-150.9469393454912
 10
96.9683288172328
 20
-150.6479908623299
 10
96.64758938807637
 20
-150.5015364688944
 10
96.7656132954679
 20
-150.4445896297291
 10
96.80673060605068
 20
-150.4206440391785
 10
96.84994019886567
 20
-150.3988474497998
 10
96.95171636886944
 20
-150.3355578253727
 10
97.06714572194932
 20
-150.5933735238243
 10
97.26721812365224
 20
-150.7286846267752
 10
97.3611666981473
 20
-150.9069170865232
 10
97.59014193406378
 20
-151.0648668276416
 10
97.49386214409532
 20
-151.115685312149
 10
97.45105493580243
 20
-151.1460321126814
 10
97.40608331230239
 20
-151.1701837350973
 10
97.34643105194593
 20
-151.2193235704363
 10
97.31323206555693
 20
-151.0848702811759
 10
97.19246029450416
 20
-150.9289023850463
 10
96.83135656002236
 20
-151.0591457573165
 10
96.47276515497862
 20
-151.0425980938172
 10
96.09135100443248
 20
-151.0515327443934
 10
95.8046044877137
 20
-151.1160183211878
 10
95.4934645193959
 20
-151.0025383559838
 10
95.46113274130336
 20
-151.1136224386343
 10
95.42387678475632
 20
-151.1328818994118
 10
95.42083272269993
 20
-151.086097197039
 10
95.4022482454852
 20
-151.0467764987206
 10
95.3855026211024
 20
-150.9871852031296
 10
95.3726320509998
 20
-150.9428253391991
 10
95.33849174006761
 20
-150.85378172671
 10
95.58253040519982
 20
-150.9230346084743
 10
95.7783984080917
 20
-150.9445413473346
 10
95.87380159755219
 20
-150.6625801931274
 10
95.92877253638417
 20
-150.5012145837007
 10
96.15022089514014
 20
-150.2309332620147
 10
96.01918289754614
 20
-150.2393605693746
 10
95.94526161500997
 20
-150.2370549529423
 10
95.83200494704886
 20
-150.2381312546954
 10
95.70368414017297
 20
-150.237768647147
 10
95.57468416246604
 20
-150.2378677932511
 10
95.46304305405363
 20
-150.2378457107863
 10
95.38572535642719
 20
-150.2378492460153
 10
95.34754661262551
 20
-150.2378490794612
 10
95.33704746024415
 20
-150.2378490308943
 97
        1
330
AD
 75
     1
 76
     2
 52
45.0
 41
0.1
 77
     0
 78
     1
 53
45.0
 43
0.0
 44
0.0
 45
-0.282842712474619
 46
0.0
 79
     0
 98
        1
 10
0.0
 20
0.0
  0
HATCH
  5
CB
330
48
100
AcDbEntity
  8
1
  6
Continuous
 62
     2
100
AcDbHatch
 10
0.0
 20
0.0
 30
0.0
210
0.0
220
0.0
230
1.0
  2
CUSTOM5
 70
     0
 71
     1
 91
        1
 92
        1
 93
        1
 72
     4
 94
        3
 73
     0
 74
     0
 95
       35
 96
       31
 40
0.0
 40
0.0
 40
0.0
 40
0.0
 40
0.0335231036620335
 40
0.071321857171174
 40
0.4278866681486411
 40
0.8116865841963639
 40
1.198190238000016
 40
1.561379546812668
 40
1.659983174622081
 40
1.759315573807252
 40
2.132719617231155
 40
2.525233363588872
 40
2.910815397779774
 40
3.265244364303388
 40
3.59260672358215
 40
3.964386154604095
 40
4.359942131737952
 40
4.758154118639433
 40
4.843846538699999
 40
4.936650065543388
 40
5.256616602537524
 40
5.58170740441622
 40
5.899719158308329
 40
6.198363494280938
 40
6.466301046615945
 40
6.493895311537268
 40
6.559697020197062
 40
6.638234543442639
 40
6.704036252154436
 40
6.731630508423227
 40
6.731630508423227
 40
6.731630508423227
 40
6.731630508423227
 10
96.60786001629145
 20
-148.7102066007207
 10
96.60185956920347
 20
-148.7200381324888
 10
96.58909336934026
 20
-148.7409551521141
 10
96.42919516007974
 20
-148.7735737725847
 10
96.86646154365833
 20
-149.0627782345451
 10
97.06879844225074
 20
-149.2644336543275
 10
97.31621538622184
 20
-149.5073511618792
 10
97.81741032188522
 20
-149.5843684103342
 10
97.64681517932155
 20
-149.7260756461654
 10
97.57258890574472
 20
-149.927741375821
 10
97.24740218424333
 20
-149.5752821661648
 10
96.96203312649097
 20
-149.4130929123164
 10
96.66801936719037
 20
-149.2079737373816
 10
96.44270422853798
 20
-148.7265701519574
 10
96.23356746497676
 20
-149.1914145718198
 10
95.95504632690796
 20
-149.4013355153828
 10
95.6713972771454
 20
-149.5706004743121
 10
95.34212291220766
 20
-149.9434214288326
 10
95.26196019124697
 20
-149.7477648933219
 10
95.11023145039887
 20
-149.619933996006
 10
95.54259854210403
 20
-149.5403047202526
 10
95.73051549240112
 20
-149.3445786887572
 10
95.98110670147484
 20
-149.1285150687444
 10
96.20569400644064
 20
-148.9629351149114
 10
96.26023650039579
 20
-148.6835053915436
 10
96.38372506232564
 20
-148.6974655338312
 10
96.44028629387657
 20
-148.6996323492356
 10
96.51044605791895
 20
-148.7043764390984
 10
96.56760036163509
 20
-148.7077507444067
 10
96.59867799150844
 20
-148.7096464908009
 10
96.60786001629145
 20
-148.7102066007207
 97
        1
330
AE
 75
     1
 76
     2
 52
45.0
 41
0.1
 77
     0
 78
     1
 53
45.0
 43
0.0
 44
0.0
 45
-0.282842712474619
 46
0.0
 79
     0
 98
        1
 10
0.0
 20
0.0
  0
HATCH
  5
CC
330
48
100
AcDbEntity
  8
1
  6
Continuous
 62
     2
100
AcDbHatch
 10
0.0
 20
0.0
 30
0.0
210
0.0
220
0.0
230
1.0
  2
CUSTOM6
 70
     0
 71
     1
 91
        1
 92
        1
 93
        1
 72
     4
 94
        3
 73
     0
 74
     0
 95
       15
 96
       11
 40
0.0
 40
0.0
 40
0.0
 40
0.0
 40
0.2785535985097068
 40
0.5215624748199146
 40
0.60769173760405
 40
0.6938210001740974
 40
0.9405019146454574
 40
1.221691403489074
 40
1.300471877080973
 40
1.379252341684737
 40
1.379252341684737
 40
1.379252341684737
 40
1.379252341684737
 10
94.20240832252443
 20
-148.7155423646082
 10
94.26386073884233
 20
-148.7679285719848
 10
94.37892395683598
 20
-148.8660162699297
 10
94.67399380914885
 20
-149.0159471789398
 10
94.53677372261023
 20
-149.101412762762
 10
94.43838174380232
 20
-149.2339871858964
 10
94.34726231848953
 20
-148.9286751800978
 10
93.99794290749007
 20
-148.8651663432583
 10
94.14618479708155
 20
-148.7658799391032
 10
94.18366714684817
 20
-148.7323215538882
 10
94.20240832252443
 20
-148.7155423646082
 97
        1
330
AF
 75
     1
 76
     2
 52
45.0
 41
0.1
 77
     0
 78
     1
 53
45.0
 43
0.0
 44
0.0
 45
-0.282842712474619
 46
0.0
 79
     0
 98
        1
 10
0.0
 20
0.0
  0
HATCH
  5
CD
330
48
100
AcDbEntity
  8
1
  6
Continuous
 62
     2
100
AcDbHatch
 10
0.0
 20
0.0
 30
0.0
210
0.0
220
0.0
230
1.0
  2
CUSTOM7
 70
     0
 71
     1
 91
        1
 92
        1
 93
        1
 72
     4
 94
        3
 73
     0
 74
     0
 95
       75
 96
       71
 40
0.0
 40
0.0
 40
0.0
 40
0.0
 40
0.0342546099129496
 40
0.1245622414432435
 40
0.2522385480897927
 40
0.3985991922940857
 40
0.5449598364980945
 40
0.6726361431439047
 40
0.7629437746737155
 40
0.7971983935298115
 40
1.101723623449684
 40
1.408591244036689
 40
1.433332471690387
 40
1.487763172450151
 40
1.542193873081987
 40
1.566935100592524
 40
1.923523931821839
 40
2.271755704953641
 40
2.590579755100868
 40
2.858943305581132
 40
2.889120339309109
 40
2.918305855191071
 40
2.941366645531178
 40
2.996357760973052
 40
3.061992318140612
 40
3.116983433626775
 40
3.140044223997435
 40
3.411273122936341
 40
3.732441619740994
 40
3.76106821753268
 40
3.837787499630307
 40
3.948858699125905
 40
4.08054104910431
 40
4.219093782625718
 40
4.350776132722272
 40
4.461847332405624
 40
4.538566614678329
 40
4.567193212544593
 40
4.594907573998865
 40
4.66638145355739
 40
4.764111044011001
 40
4.870592538125846
 40
4.968322128642297
 40
5.039796008286983
 40
5.067510369784427
 40
5.094263603185622
 40
5.15312071666821
 40
5.2119778301506
 40
5.238731063551596
 40
5.272290535138877
 40
5.363380529444695
 40
5.497618415781359
 40
5.660621563453615
 40
5.83800734174933
 40
6.015393119910639
 40
6.178396267038265
 40
6.312634151842216
 40
6.403724143059248
 40
6.43728361267233
 40
6.464036846260937
 40
6.522893960004494
 40
6.581751071483721
 40
6.608504301590669
 40
6.637253941280802
 40
6.711397748902668
 40
6.812778057283252
 40
6.923237199249014
 40
7.024617507623672
 40
7.098761315207296
 40
7.127510946007275
 40
7.127510946007275
 40
7.127510946007275
 40
7.127510946007275
 10
93.07612119848096
 20
-149.9863537531793
 10
93.07612124139524
 20
-149.9977719038247
 10
93.07612140753734
 20
-150.0392924594857
 10
93.07611826760328
 20
-150.1233758178742
 10
93.07613778740453
 20
-150.2448000646887
 10
93.07605017819827
 20
-150.3850400974375
 10
93.07637058294759
 20
-150.5247794699662
 10
93.07541955039855
 20
-150.6473946489626
 10
93.0774568190213
 20
-150.7289742935316
 10
93.06920227729907
 20
-150.8821323671348
 10
93.37733875351472
 20
-150.7192426773648
 10
93.66932347679813
 20
-150.5500156510322
 10
93.67509440429536
 20
-150.6851126800929
 10
93.67980613141364
 20
-150.7286728263076
 10
93.68251250061633
 20
-150.7727325444065
 10
93.70151352672049
 20
-150.9221191342808
 10
93.29265318415474
 20
-150.8580333154993
 10
93.01362999430779
 20
-150.9718816238019
 10
92.73606711814114
 20
-151.0712040798005
 10
92.44424267786468
 20
-151.0285381619485
 10
92.42117342729031
 20
-151.1316282404666
 10
92.38800639775786
 20
-151.1579341254673
 10
92.38232435569836
 20
-151.1102919475489
 10
92.36268041532894
 20
-151.0730416767613
 10
92.34376790798682
 20
-151.0147711594363
 10
92.32854394619527
 20
-150.970993027834
 10
92.2819835967181
 20
-150.8572508274489
 10
92.62334869066962
 20
-150.8890820267114
 10
92.90222389616304
 20
-150.9232306868473
 10
92.8960342629153
 20
-150.7757052731155
 10
92.89735250470183
 20
-150.7047135288236
 10
92.89674212841943
 20
-150.5976473583254
 10
92.89684611649699
 20
-150.470859740052
 10
92.89725775583015
 20
-150.3363526029515
 10
92.89564974362138
 20
-150.2108895384001
 10
92.9002492162171
 20
-150.0997925707208
 10
92.89067760964556
 20
-150.0372261699051
 10
92.90465913779366
 20
-149.9788911549619
 10
92.848997398095
 20
-149.9919479320895
 10
92.79182447920667
 20
-149.983481960417
 10
92.69586385198929
 20
-149.9875452771056
 10
92.59763571170659
 20
-149.9851361393871
 10
92.50151720518056
 20
-149.9893290317781
 10
92.44472381200559
 20
-149.9805515735002
 10
92.38929464676296
 20
-149.9938956694107
 10
92.40132690221613
 20
-149.9444759283193
 10
92.39345927681832
 20
-149.900905157608
 10
92.4008885158074
 20
-149.8565403467268
 10
92.38945201583886
 20
-149.8058220602721
 10
92.45746919643783
 20
-149.8232204303347
 10
92.53110864739918
 20
-149.8106705355401
 10
92.66676536524558
 20
-149.8168482678011
 10
92.82274986187706
 20
-149.8145530069812
 10
92.99585159523888
 20
-149.8154353552868
 10
93.16895325584265
 20
-149.8145529664879
 10
93.32493794054612
 20
-149.8168484083566
 10
93.46059414840423
 20
-149.8106701752877
 10
93.53423462998975
 20
-149.8232210957288
 10
93.6022503768969
 20
-149.8058213077906
 10
93.59081804801669
 20
-149.8565437337665
 10
93.59821290525426
 20
-149.9008744298009
 10
93.59046295065158
 20
-149.94456196241
 10
93.60237933361218
 20
-149.9942091369271
 10
93.54507598178621
 20
-149.9802309245277
 10
93.48627353840176
 20
-149.9894474811794
 10
93.3867883227445
 20
-149.9853223562626
 10
93.28368696925946
 20
-149.986617437653
 10
93.18804359488186
 20
-149.9863042671356
 10
93.1200057565863
 20
-149.9863572709405
 10
93.08570518076883
 20
-149.9863545191953
 10
93.07612119848096
 20
-149.9863537531793
 97
        1
330
B0
 75
     1
 76
     2
 52
45.0
 41
0.1
 77
     0
 78
     1
 53
45.0
 43
0.0
 44
0.0
 45
-0.282842712474619
 46
0.0
 79
     0
 98
        1
 10
0.0
 20
0.0
  0
HATCH
  5
CE
330
48
100
AcDbEntity
  8
1
  6
Continuous
 62
     2
100
AcDbHatch
 10
0.0
 20
0.0
 30
0.0
210
0.0
220
0.0
230
1.0
  2
CUSTOM8
 70
     0
 71
     1
 91
        1
 92
        1
 93
        1
 72
     4
 94
        3
 73
     0
 74
     0
 95
       91
 96
       87
 40
0.0
 40
0.0
 40
0.0
 40
0.0
 40
0.0345987051695576
 40
0.1258134969461369
 40
0.2547723404888845
 40
0.4026032099153699
 40
0.550434079341642
 40
0.6793929228835796
 40
0.7706077146570893
 40
0.805206428778064
 40
1.124852390615215
 40
1.427402236308873
 40
1.706356627453513
 40
1.955541417875166
 40
2.169485938566333
 40
2.344350786664781
 40
2.480568411561978
 40
2.590440557428983
 40
2.649189927151138
 40
2.749320643306333
 40
2.912632739880056
 40
3.147745656000238
 40
3.244827496385085
 40
3.338490056946717
 40
3.583815413207106
 40
3.761423943238482
 40
3.886956104362634
 40
3.985855451886829
 40
4.091766255337719
 40
4.250186473811886
 40
4.422734315084545
 40
4.628285684838624
 40
4.872093227758446
 40
5.152549652145545
 40
5.464967135837554
 40
5.803201477852488
 40
6.160362988813957
 40
6.193449448276012
 40
6.284170385501638
 40
6.419718138764536
 40
6.587285046385758
 40
6.774063446723701
 40
6.967245678113655
 40
7.154024078817684
 40
7.321590987026041
 40
7.457138740890414
 40
7.54785967855615
 40
7.580946138182695
 40
7.608533084714764
 40
7.669224367077731
 40
7.729915649429954
 40
7.757502595949972
 40
7.79027806255344
 40
7.880146277430923
 40
8.014419963180373
 40
8.180411842397888
 40
8.365434637679357
 40
8.556801071622672
 40
8.74182386683077
 40
8.907815745916352
 40
9.042089431507478
 40
9.131957646249589
 40
9.16473311279718
 40
9.415425063140091
 40
9.667986180958554
 40
9.694169807462664
 40
9.756607686047625
 40
9.8311303153225
 40
9.893568193899965
 40
9.919751820398782
 40
9.950967964690603
 40
9.996421631210731
 40
10.22087981037461
 40
10.44341866197554
 40
10.47847970788869
 40
10.57091337438768
 40
10.70159545461243
 40
10.85140174170371
 40
11.00120802880491
 40
11.13189010907392
 40
11.22432377583019
 40
11.25938480938966
 40
11.28697175596152
 40
11.34766303835927
 40
11.4083543204208
 40
11.43594125892112
 40
11.43594125892112
 40
11.43594125892112
 40
11.43594125892112
 10
94.71607039275347
 20
-149.3924170866612
 10
94.70453754391862
 20
-149.3924171350328
 10
94.66259990392439
 20
-149.3924173008703
 10
94.57767193132707
 20
-149.3924137799029
 10
94.45502781473746
 20
-149.3924357735532
 10
94.31337965112385
 20
-149.3923370261414
 10
94.17223432927355
 20
-149.3926981755878
 10
94.04839409121499
 20
-149.3916262018211
 10
93.96598074196272
 20
-149.3939225469993
 10
93.80703808239382
 20
-149.3843593441778
 10
93.98459919476214
 20
-149.7469910947983
 10
93.9722328799698
 20
-149.9924137606808
 10
94.040710906811
 20
-150.2762200246637
 10
94.1035613915215
 20
-150.5123350385216
 10
94.17948430259739
 20
-150.7115776339508
 10
94.2645779171261
 20
-150.8673915633983
 10
94.35871971871808
 20
-150.9682664600981
 10
94.4625237801973
 20
-151.0201865115224
 10
94.5468461625019
 20
-150.9687801941158
 10
94.56939117736974
 20
-150.8533995975369
 10
94.60883205696165
 20
-150.7259935408882
 10
94.55455093291881
 20
-150.4086217570445
 10
94.67938076667181
 20
-150.5550232365029
 10
94.83618811078487
 20
-150.5868920346003
 10
94.72903096013022
 20
-150.8206314602357
 10
94.71513008041129
 20
-150.9851172720754
 10
94.6577299061471
 20
-151.1135363466872
 10
94.56776097392537
 20
-151.1846570143837
 10
94.44378642521227
 20
-151.2005217964895
 10
94.29768627911056
 20
-151.1649070623702
 10
94.15864839145293
 20
-151.0448393329092
 10
94.04445935563896
 20
-150.8704882124088
 10
93.94887308957313
 20
-150.6453790067995
 10
93.86612421668715
 20
-150.3809625778476
 10
93.81497688506572
 20
-150.0629657069265
 10
93.71127788015829
 20
-149.7894077530227
 10
93.83854308027668
 20
-149.3847868517835
 10
93.67004802172633
 20
-149.3937213594151
 10
93.58545853813226
 20
-149.3916854237284
 10
93.45324659818726
 20
-149.3927056640278
 10
93.29030946883492
 20
-149.3923127347277
 10
93.10763487647782
 20
-149.3924880747782
 10
92.91896469676276
 20
-149.3922439848373
 10
92.73570586144345
 20
-149.3929884588496
 10
92.57473364269627
 20
-149.3906814326876
 10
92.4372397929521
 20
-149.3968469890754
 10
92.36321799665555
 20
-149.3845166533298
 10
92.29558047811018
 20
-149.4015518006764
 10
92.30749633135144
 20
-149.3496006534367
 10
92.29982668799393
 20
-149.3041307882467
 10
92.30751818193605
 20
-149.258700500875
 10
92.29557313920068
 20
-149.2068210780663
 10
92.3626177900112
 20
-149.2236536030093
 10
92.43599652599217
 20
-149.2114909469852
 10
92.57217178995168
 20
-149.2175727271624
 10
92.73164013957577
 20
-149.2152966947615
 10
92.9131762680081
 20
-149.2160326979223
 10
93.10006244564241
 20
-149.2157854959506
 10
93.28106019110811
 20
-149.2159810299195
 10
93.44233921731235
 20
-149.2155226907636
 10
93.57364717191325
 20
-149.2167183003999
 10
93.65676409168418
 20
-149.2143315647145
 10
93.78988261420596
 20
-149.2225389806575
 10
93.69884830969039
 20
-148.9673163483855
 10
93.61322226686633
 20
-148.7032014546295
 10
93.73331785977004
 20
-148.7158006082204
 10
93.78568545427883
 20
-148.7179026802813
 10
93.8557087163961
 20
-148.7194910390154
 10
93.90145119320624
 20
-148.7288193625309
 10
93.95634022411784
 20
-148.7193853687577
 10
93.93061643799267
 20
-148.7675147513603
 10
93.81679871656978
 20
-148.7621767404702
 10
93.95019362153813
 20
-148.9903532921443
 10
93.82862483297171
 20
-149.2232764719527
 10
93.95657783636585
 20
-149.2139724490676
 10
94.03916380007067
 20
-149.2168350203652
 10
94.164980444507
 20
-149.215610663789
 10
94.30840594323038
 20
-149.2155207190223
 10
94.45000105459737
 20
-149.2173834060734
 10
94.58017168442129
 20
-149.2115142785404
 10
94.65360418804362
 20
-149.22414162968
 10
94.72337025163417
 20
-149.2060694068079
 10
94.71183621996416
 20
-149.2587165324487
 10
94.71757739409279
 20
-149.3026318610465
 10
94.71592053651561
 20
-149.3539452111465
 10
94.7160347155915
 20
-149.3832571176956
 10
94.71607039275347
 20
-149.3924170866612
 97
        1
330
B1
 75
     1
 76
     2
 52
45.0
 41
0.1
 77
     0
 78
     1
 53
45.0
 43
0.0
 44
0.0
 45
-0.282842712474619
 46
0.0
 79
     0
 98
        1
 10
0.0
 20
0.0
  0
HATCH
  5
CF
330
48
100
AcDbEntity
  8
1
  6
Continuous
 62
     2
100
AcDbHatch
 10
0.0
 20
0.0
 30
0.0
210
0.0
220
0.0
230
1.0
  2
CUSTOM9
 70
     0
 71
     1
 91
        1
 92
        1
 93
        1
 72
     4
 94
        3
 73
     0
 74
     0
 95
      118
 96
      114
 40
0.0
 40
0.0
 40
0.0
 40
0.0
 40
0.1054708162973349
 40
0.2466098270051816
 40
0.3965912874591067
 40
0.5285525069754019
 40
0.6156245055642258
 40
0.6431434105797642
 40
0.7036850037986361
 40
0.7642265984504786
 40
0.7917455052355031
 40
0.9287404319990025
 40
1.106572819088021
 40
1.287544879681004
 40
1.317578308030501
 40
1.399928030857122
 40
1.522968204799948
 40
1.675072986590546
 40
1.844616533180609
 40
2.0199730016387
 40
2.189516548879989
 40
2.341621331585312
 40
2.464661506320478
 40
2.547011229647036
 40
2.577044658168002
 40
2.603797890893059
 40
2.662655002908774
 40
2.721512114949586
 40
2.748265347702766
 40
2.774215307344842
 40
2.84595931340716
 40
2.954338556588378
 40
3.090194227585566
 40
3.244367517100538
 40
3.40769961584429
 40
3.57103171453944
 40
3.725205003920148
 40
3.861060674729639
 40
3.969439917716339
 40
4.041183923629017
 40
4.067133883213028
 40
4.311886746012234
 40
4.547897258335635
 40
4.764747083044089
 40
4.952749679951881
 40
5.045772974196026
 40
5.137862019645082
 40
5.330543169793112
 40
5.553448265244105
 40
5.795083855888275
 40
6.043293412177334
 40
6.285761695541234
 40
6.313902908752747
 40
6.384255941793322
 40
6.475714884766896
 40
6.567173827758959
 40
6.637526860839708
 40
6.665668074074057
 40
6.692018920328048
 40
6.749990782071103
 40
6.807962643790512
 40
6.834313490017985
 40
6.85639308424525
 40
6.913335195649916
 40
6.991194817302565
 40
7.076026942283798
 40
7.153886563725317
 40
7.210828674844857
 40
7.232908268931206
 40
7.258199334923697
 40
7.324875781592377
 40
7.419142481925045
 40
7.527204308841997
 40
7.635266135230561
 40
7.729532834168575
 40
7.796209279292876
 40
7.821500344594833
 40
7.844652988850959
 40
7.8998631405417
 40
7.965759128053881
 40
8.020969279771178
 40
8.044121924046644
 40
8.069356610160762
 40
8.109134395441512
 40
8.132238100191213
 40
8.193147867786589
 40
8.279261678876733
 40
8.37797751267399
 40
8.476693347146774
 40
8.562807160411833
 40
8.623716930826614
 40
8.646820636853587
 40
8.671988793774428
 40
8.734909185828297
 40
8.816705695189011
 40
8.89850220481561
 40
8.961422597378057
 40
8.986590754551198
 40
9.012941600733338
 40
9.070913462380442
 40
9.128885324081946
 40
9.155236170325278
 40
9.180404327929292
 40
9.243324721948394
 40
9.325121234212173
 40
9.406917746637856
 40
9.469838141978311
 40
9.4950062882711
 40
9.51781118437924
 40
9.57219209048722
 40
9.637098333281415
 40
9.691479239515616
 40
9.714284125643644
 40
9.714284125643644
 40
9.714284125643644
 40
9.714284125643644
 10
89.92170586228985
 20
-149.6759534060348
 10
89.94335801632832
 20
-149.7037263454839
 10
89.99398467037187
 20
-149.7686644922996
 10
90.06919727968373
 20
-149.8759344347831
 10
90.15910718685916
 20
-149.9910706552457
 10
90.20517592709182
 20
-150.0912745804288
 10
90.29984148889005
 20
-150.1605049697626
 10
90.2547028914658
 20
-150.2071286411293
 10
90.22896373800354
 20
-150.2482419492516
 10
90.19877863022575
 20
-150.2841853206326
 10
90.15362743248068
 20
-150.359047211951
 10
90.10530940528079
 20
-150.137019795376
 10
90.0311129307319
 20
-150.0997382645348
 10
89.91786369188516
 20
-149.8287430166061
 10
89.92277231724152
 20
-149.9438917534497
 10
89.92110761505509
 20
-150.0164782800958
 10
89.92194196709599
 20
-150.1385891530721
 10
89.92161991345091
 20
-150.2857070298074
 10
89.92176665067014
 20
-150.4517743983464
 10
89.92155396869678
 20
-150.622969491826
 10
89.92220868462786
 20
-150.789316751557
 10
89.92017820553846
 20
-150.9354933073551
 10
89.9256049994176
 20
-151.0601345631659
 10
89.91475204629532
 20
-151.1276584725057
 10
89.92993287498001
 20
-151.1893544237418
 10
89.8800484702379
 20
-151.177569998942
 10
89.8359739936767
 20
-151.1854068101123
 10
89.79249612244459
 20
-151.1772406241849
 10
89.74349363807337
 20
-151.1894644705274
 10
89.75613208290702
 20
-151.1352383654188
 10
89.74727725626948
 20
-151.0754758488365
 10
89.75176483645589
 20
-150.9656247474683
 10
89.75005497302354
 20
-150.8345452838552
 10
89.75061405102323
 20
-150.6828649234687
 10
89.75045183629389
 20
-150.5227342886125
 10
89.75048595189196
 20
-150.3624763811663
 10
89.75051045543718
 20
-150.2111425627076
 10
89.75040431374705
 20
-150.079023474526
 10
89.75068887361763
 20
-149.97189701258
 10
89.75012651418128
 20
-149.9067588421172
 10
89.75233546779343
 20
-149.7786554593251
 10
89.66620255928481
 20
-150.1538689339963
 10
89.58977304127454
 20
-150.305663106678
 10
89.50026303620785
 20
-150.467182973449
 10
89.39830028115719
 20
-150.7401265497103
 10
89.35305660852842
 20
-150.5776715719469
 10
89.24449455359158
 20
-150.4887907173308
 10
89.43383813459981
 20
-150.3393470882979
 10
89.49079301399453
 20
-150.1473536681627
 10
89.60601105875975
 20
-149.9158488088445
 10
89.6282741224378
 20
-149.7268724403214
 10
89.8114494746385
 20
-149.4503041446529
 10
89.6880623191797
 20
-149.4578552495911
 10
89.62682737610787
 20
-149.4562773142509
 10
89.54245892113093
 20
-149.4560191121753
 10
89.45468246802108
 20
-149.4593965804
 10
89.39993582903682
 20
-149.4508968880919
 10
89.344729262027
 20
-149.4643594274142
 10
89.35654126297817
 20
-149.4155306166444
 10
89.34850857460391
 20
-149.3721549889449
 10
89.35707756989238
 20
-149.3297506548163
 10
89.34455330034024
 20
-149.2821670723908
 10
89.38976911329806
 20
-149.2921729079609
 10
89.43574051569695
 20
-149.2859039861714
 10
89.51198116419557
 20
-149.2889094238533
 10
89.59038857262394
 20
-149.2871405551266
 10
89.66665822431781
 20
-149.2901970980954
 10
89.71255990537196
 20
-149.2838053241502
 10
89.75743235596454
 20
-149.2939068081231
 10
89.74481418698785
 20
-149.243273022093
 10
89.75345261769515
 20
-149.1898324190913
 10
89.74949511896881
 20
-149.0962124865952
 10
89.75049146625793
 20
-148.9937189710228
 10
89.75145170073186
 20
-148.8913123354303
 10
89.74758010522504
 20
-148.7974857418188
 10
89.756037940861
 20
-148.7444796095084
 10
89.74356655270803
 20
-148.6927306814001
 10
89.78846959840952
 20
-148.7063375656444
 10
89.82976734310172
 20
-148.7038402347062
 10
89.89379338752957
 20
-148.7083644321672
 10
89.93287007430314
 20
-148.7170350074789
 10
89.98191330929876
 20
-148.7096940172051
 10
89.9567669624836
 20
-148.7488160773945
 10
89.91584909279688
 20
-148.7392066133539
 10
89.92526992108498
 20
-148.7894435562142
 10
89.91982369129914
 20
-148.8409855815171
 10
89.92242891960488
 20
-148.9252479620668
 10
89.92126917963999
 20
-149.0192536820779
 10
89.92261806584766
 20
-149.1128763839567
 10
89.91925596957543
 20
-149.1980498623898
 10
89.9263549512014
 20
-149.2476764771915
 10
89.9155158748791
 20
-149.2949080882121
 10
89.96465998194908
 20
-149.2828282885435
 10
90.01374672243922
 20
-149.2903711042819
 10
90.09163038748868
 20
-149.2879843342977
 10
90.16929547671413
 20
-149.2858512188579
 10
90.21879835256004
 20
-149.2929111186874
 10
90.26871843448848
 20
-149.2812435185499
 10
90.25657881111265
 20
-149.3294426841981
 10
90.26484278233892
 20
-149.3723528398997
 10
90.25657882450288
 20
-149.4152630193982
 10
90.26871841441003
 20
-149.4634621503634
 10
90.21879847529921
 20
-149.4517946931969
 10
90.16929402454485
 20
-149.4588530135616
 10
90.09163739772181
 20
-149.456728385626
 10
90.01372334600057
 20
-149.4543111442545
 10
89.96470899469614
 20
-149.4619265559671
 10
89.91558357031883
 20
-149.4497655123361
 10
89.92581495828165
 20
-149.4941149036705
 10
89.91992672722988
 20
-149.5355906758829
 10
89.92213778998143
 20
-149.595691094759
 10
89.92166989403914
 20
-149.6425872102832
 10
89.92169765871587
 20
-149.66834357373
 10
89.92170586228985
 20
-149.6759534060348
 97
        1
330
B2
 75
     1
 76
     2
 52
45.0
 41
0.1
 77
     0
 78
     1
 53
45.0
 43
0.0
 44
0.0
 45
-0.282842712474619
 46
0.0
 79
     0
 98
        1
 10
0.0
 20
0.0
  0
HATCH
  5
D0
330
48
100
AcDbEntity
  8
1
  6
Continuous
 62
     2
100
AcDbHatch
 10
0.0
 20
0.0
 30
0.0
210
0.0
220
0.0
230
1.0
  2
CUSTOM10
 70
     0
 71
     1
 91
        1
 92
        1
 93
        1
 72
     4
 94
        3
 73
     0
 74
     0
 95
       47
 96
       43
 40
0.0
 40
0.0
 40
0.0
 40
0.0
 40
0.2207912809957521
 40
0.4459404186303151
 40
0.4902387190459621
 40
0.5327473892722377
 40
0.574226045122588
 40
0.6155432630561168
 40
0.6568164066316229
 40
0.6982511618781176
 40
0.740766392931747
 40
0.7851366743175541
 40
1.01028883383636
 40
1.231080507002229
 40
1.451765243652407
 40
1.676638205891698
 40
1.720461045359633
 40
1.830018144043527
 40
1.972442372353135
 40
2.114866600677522
 40
2.224423699395181
 40
2.268246538883409
 40
2.493628801207248
 40
2.715602830286664
 40
2.934211330706397
 40
3.149502369855356
 40
3.231387784851
 40
3.318231873854034
 40
3.405143198198036
 40
3.486970301720484
 40
3.702258172493915
 40
3.920866283534104
 40
4.142839325931901
 40
4.36822190386541
 40
4.412044743359863
 40
4.521601842095882
 40
4.664026070452386
 40
4.806450298809088
 40
4.916007397546784
 40
4.959830237043113
 40
5.184703515847154
 40
5.405387250767464
 40
5.405387250767464
 40
5.405387250767464
 40
5.405387250767464
 10
87.28500168528905
 20
-149.2107806283733
 10
87.29107290142483
 20
-149.1472602128999
 10
87.30333517014884
 20
-149.0189656510157
 10
87.1947296473657
 20
-148.7431828361713
 10
87.31045754908489
 20
-148.7729637035915
 10
87.35144321032608
 20
-148.7771894752838
 10
87.39337953917631
 20
-148.7817405740159
 10
87.43467862199557
 20
-148.7828252086171
 10
87.47596217098007
 20
-148.7817416559597
 10
87.51787378648925
 20
-148.7771839107985
 10
87.55885731432645
 20
-148.7729707358148
 10
87.67475124377341
 20
-148.7430689247366
 10
87.56382423217018
 20
-149.0214469718131
 10
87.59174459595117
 20
-149.2020136296625
 10
87.57468569412148
 20
-149.4352346144473
 10
87.57572268763482
 20
-149.5957788124805
 10
87.57566889936493
 20
-149.7219968623248
 10
87.57568669667259
 20
-149.8205554045495
 10
87.57567781753252
 20
-149.9520380134823
 10
87.57568535222785
 20
-150.0835165882255
 10
87.57567189993739
 20
-150.1820828109711
 10
87.57571213117365
 20
-150.3084476816705
 10
87.57493359980631
 20
-150.4700243496833
 10
87.59085479135115
 20
-150.7012268189829
 10
87.56760584796524
 20
-150.886101518192
 10
87.67027730386114
 20
-151.1554890102114
 10
87.51628279570816
 20
-151.1182439110538
 10
87.43467193970774
 20
-151.1234650911067
 10
87.35307818868283
 20
-151.1182388341285
 10
87.19911032610874
 20
-151.1554743390581
 10
87.30167730161628
 20
-150.8860937392832
 10
87.27846349103334
 20
-150.7012291846578
 10
87.29430342493839
 20
-150.4700228522556
 10
87.29358859076731
 20
-150.308447914827
 10
87.29362541641522
 20
-150.1820827258068
 10
87.29361385945157
 20
-150.0835174715522
 10
87.29361646134596
 20
-149.9520337637397
 10
87.29362381260245
 20
-149.8205695576
 10
87.29360321355972
 20
-149.7219671751587
 10
87.29366717862737
 20
-149.5958835443677
 10
87.29243235418352
 20
-149.4327441240743
 10
87.28746299909903
 20
-149.2843032001365
 10
87.28500168528905
 20
-149.2107806283733
 97
        1
330
B3
 75
     1
 76
     2
 52
45.0
 41
0.1
 77
     0
 78
     1
 53
45.0
 43
0.0
 44
0.0
 45
-0.282842712474619
 46
0.0
 79
     0
 98
        1
 10
0.0
 20
0.0
  0
HATCH
  5
D1
330
48
100
AcDbEntity
  8
1
  6
Continuous
 62
     2
100
AcDbHatch
 10
0.0
 20
0.0
 30
0.0
210
0.0
220
0.0
230
1.0
  2
CUSTOM11
 70
     0
 71
     1
 91
        1
 92
        1
 93
        1
 72
     4
 94
        3
 73
     0
 74
     0
 95
      110
 96
      106
 40
0.0
 40
0.0
 40
0.0
 40
0.0
 40
0.220340625727743
 40
0.4407808782837971
 40
0.5952494494614665
 40
0.7488431659392929
 40
0.9023581831308493
 40
1.056801968670405
 40
1.210736449099849
 40
1.363041386539714
 40
1.515315729683054
 40
1.669377239148034
 40
1.721611652756518
 40
1.773199502942941
 40
1.824933793209956
 40
1.877110426487873
 40
1.982682281206621
 40
2.078781667087457
 40
2.172809640822205
 40
2.271937807378802
 40
2.37834993337921
 40
2.494131557736424
 40
2.626681683943559
 40
2.783145050796001
 40
2.890701232940807
 40
2.993130312454681
 40
3.099869730691681
 40
3.220237816691216
 40
3.352695482737476
 40
3.481732806389717
 40
3.593499473690296
 40
3.674323013331734
 40
3.817951711952655
 40
3.946167120793666
 40
4.061405053453352
 40
4.166480796003007
 40
4.262478775059084
 40
4.350736673550985
 40
4.43307199125387
 40
4.51121629381449
 40
4.564262454117837
 40
4.618474415571473
 40
4.670128488754099
 40
4.722296879126306
 40
4.819540945314197
 40
4.93119498412802
 40
5.049996040257679
 40
5.168643755415223
 40
5.283970811762449
 40
5.392260784910289
 40
5.486512254876335
 40
5.559178233949734
 40
5.591425852853403
 40
5.626215969637795
 40
5.667155838674296
 40
5.71744929021416
 40
5.738402360944758
 40
5.784499116553758
 40
5.83059587216469
 40
5.851548942897563
 40
5.873019280661691
 40
5.924217778408218
 40
5.985325662817599
 40
6.036524160567621
 40
6.057994498334165
 40
6.236847789607354
 40
6.381409928945582
 40
6.493190424178606
 40
6.574067534230455
 40
6.691018086205563
 40
6.814881554220467
 40
6.944307823240462
 40
7.071266716066072
 40
7.193488604461892
 40
7.309042773128142
 40
7.414007203170785
 40
7.505140441886495
 40
7.531150360599639
 40
7.559221645322209
 40
7.587202218920887
 40
7.612569159499124
 40
7.662550809480956
 40
7.702878875764067
 40
7.857328205230881
 40
8.010799568088512
 40
8.16525639965749
 40
8.322232698713801
 40
8.479564855016502
 40
8.635216230290691
 40
8.790882550925609
 40
8.94830515494713
 40
9.168271839032785
 40
9.387358980987049
 40
9.608047961033279
 40
9.832914234792542
 40
9.858338694962884
 40
9.92536681722986
 40
10.02013071422745
 40
10.12876249858984
 40
10.23739428295234
 40
10.33215817995175
 40
10.39918630222376
 40
10.42461076239765
 40
10.64992019336923
 40
10.87188524531169
 40
10.87188524531169
 40
10.87188524531169
 40
10.87188524531169
 10
84.54003779708637
 20
-149.2056124339301
 10
84.54354545277866
 20
-149.138680417174
 10
84.55056235819075
 20
-149.0047861187534
 10
84.45406171933182
 20
-148.7193594881973
 10
84.68527243203542
 20
-148.7820011760092
 10
84.82618796514012
 20
-148.774829497352
 10
84.9833007351834
 20
-148.7824862071296
 10
85.13685030215329
 20
-148.7823175150816
 10
85.2887694529326
 20
-148.7830246325576
 10
85.44848044074766
 20
-148.7727434543956
 10
85.57515621953628
 20
-148.7898799271044
 10
85.77134107163252
 20
-148.7175724368406
 10
85.73769848733242
 20
-148.8184380471108
 10
85.73946009114296
 20
-148.8686524984353
 10
85.73699316677043
 20
-148.9177216820474
 10
85.76896665602564
 20
-149.004210129442
 10
85.63529894975015
 20
-148.9548706518286
 10
85.55147982823019
 20
-148.9605386947703
 10
85.45164507335693
 20
-148.950189870849
 10
85.35291663143911
 20
-148.9439805338011
 10
85.24641223653559
 20
-148.9378673997442
 10
85.12531012923053
 20
-148.9289562030663
 10
85.00459710966982
 20
-148.9396289787881
 10
84.81551434376826
 20
-148.8801600071084
 10
84.84716180995565
 20
-149.0392618371366
 10
84.83381529110792
 20
-149.1364537545129
 10
84.83175480206955
 20
-149.248504386811
 10
84.83007776389165
 20
-149.3678481816185
 10
84.83159263884784
 20
-149.4945191163609
 10
84.82991720729153
 20
-149.6218291577508
 10
84.84014338659037
 20
-149.7203293738673
 10
84.81215961908278
 20
-149.8609580116556
 10
84.98506195935506
 20
-149.804949526571
 10
85.09876097970172
 20
-149.8176455231271
 10
85.21827412664842
 20
-149.8103612673994
 10
85.32310810193172
 20
-149.8060648673444
 10
85.41856744928572
 20
-149.8015393553223
 10
85.51064131012775
 20
-149.7933530264499
 10
85.58191413766843
 20
-149.7984065315309
 10
85.68875212999306
 20
-149.7594807875952
 10
85.65691931922812
 20
-149.8396738178532
 10
85.66087540981756
 20
-149.8892156694517
 10
85.65770919862578
 20
-149.9392702575138
 10
85.68933810848303
 20
-150.0235565617918
 10
85.5552723271937
 20
-149.9705913829604
 10
85.46349123874454
 20
-149.9794442290076
 10
85.34223187838484
 20
-149.9691445382604
 10
85.22567027140168
 20
-149.967355920237
 10
85.11259653401241
 20
-149.966974866815
 10
85.00218359027164
 20
-149.9606905431902
 10
84.92407136620858
 20
-149.9729537053583
 10
84.82562154278892
 20
-149.9403061617508
 10
84.83549447678064
 20
-149.9971475573699
 10
84.83165128386482
 20
-150.0309237323321
 10
84.8309379478514
 20
-150.0736489908179
 10
84.83059592372209
 20
-150.1108289652904
 10
84.83064238495912
 20
-150.1499726642043
 10
84.83062390241723
 20
-150.1876765429352
 10
84.83062930260525
 20
-150.2253954855879
 10
84.8306286808446
 20
-150.2549017904605
 10
84.8306287745791
 20
-150.2861092609189
 10
84.83062938821661
 20
-150.3307007888312
 10
84.83062610935828
 20
-150.3852054728235
 10
84.83063492177266
 20
-150.4297896358975
 10
84.8305949247663
 20
-150.5136669520546
 10
84.83186138645007
 20
-150.6274698311352
 10
84.82928637120867
 20
-150.7765410785749
 10
84.84075989759657
 20
-150.878872999773
 10
84.81660958165081
 20
-151.0114559990537
 10
84.96755835407215
 20
-150.9658877151919
 10
85.07710262658009
 20
-150.9805749162886
 10
85.20765600681656
 20
-150.9756406866614
 10
85.33329018037591
 20
-150.9722679846785
 10
85.45313202198462
 20
-150.9677300629241
 10
85.57339522056719
 20
-150.9543596760921
 10
85.65653512577603
 20
-150.964157910086
 10
85.77986700153198
 20
-150.9035828916789
 10
85.75868587982018
 20
-150.9595204365718
 10
85.7578539864362
 20
-150.9854525441886
 10
85.75615533018035
 20
-151.0128724760026
 10
85.75605644830749
 20
-151.0474630858482
 10
85.75462488955753
 20
-151.0843409557043
 10
85.78753937864344
 20
-151.1763766276939
 10
85.58938965823532
 20
-151.1035248781637
 10
85.46431378891359
 20
-151.1265877728259
 10
85.30156608894015
 20
-151.1203048180542
 10
85.14719560442461
 20
-151.1222355988128
 10
84.99092600311889
 20
-151.1209074119194
 10
84.8313134059527
 20
-151.1242463130334
 10
84.68829159364823
 20
-151.1121870806296
 10
84.4539734475874
 20
-151.1753250181428
 10
84.55164003454425
 20
-150.8886397632488
 10
84.53494583743043
 20
-150.6949619564854
 10
84.54888863039297
 20
-150.466362609109
 10
84.54855774408782
 20
-150.3109990983615
 10
84.54856677135085
 20
-150.2051816734707
 10
84.54856454705613
 20
-150.1427871966699
 10
84.54856551461343
 20
-150.0526407854287
 10
84.54856550675062
 20
-149.9486333663376
 10
84.54856434553479
 20
-149.844623724159
 10
84.54856805657475
 20
-149.7544826010243
 10
84.54856006452962
 20
-149.6920770069399
 10
84.54859238692636
 20
-149.5861566783007
 10
84.54740303825645
 20
-149.4285778724646
 10
84.54248060835016
 20
-149.2795628396914
 10
84.54003779708637
 20
-149.2056124339301
 97
        1
330
B4
 75
     1
 76
     2
 52
45.0
 41
0.1
 77
     0
 78
     1
 53
45.0
 43
0.0
 44
0.0
 45
-0.282842712474619
 46
0.0
 79
     0
 98
        1
 10
0.0
 20
0.0
  0
HATCH
  5
D2
330
48
100
AcDbEntity
  8
1
  6
Continuous
 62
     2
100
AcDbHatch
 10
0.0
 20
0.0
 30
0.0
210
0.0
220
0.0
230
1.0
  2
CUSTOM12
 70
     0
 71
     1
 91
        1
 92
        1
 93
        1
 72
     4
 94
        3
 73
     0
 74
     0
 95
       95
 96
       91
 40
0.0
 40
0.0
 40
0.0
 40
0.0
 40
0.6550406656911022
 40
1.308087289031862
 40
1.420803739835712
 40
1.566130759770751
 40
1.757067341888386
 40
2.006513545026388
 40
2.087328263121459
 40
2.185328872295585
 40
2.294612454748295
 40
2.408936380534736
 40
2.526802767798492
 40
2.646360524615535
 40
2.762535723971506
 40
2.870057342870073
 40
2.966883448431622
 40
3.050803243518268
 40
3.115818222436522
 40
3.15603005715017
 40
3.213914225080156
 40
3.276689026450513
 40
3.342960320981303
 40
3.404230667150566
 40
3.453822809493351
 40
3.532499827188361
 40
3.634775188507169
 40
3.754909333008129
 40
3.889736761660672
 40
4.03576960217527
 40
4.187256681197624
 40
4.338733685675916
 40
4.488478734676137
 40
4.63470831783158
 40
4.7714931899213
 40
4.892686571561208
 40
5.199775528944421
 40
5.460353566929673
 40
5.667603142345494
 40
5.814722905404476
 40
5.828990806219803
 40
5.855488336304472
 40
5.869756237118803
 40
6.189796507762783
 40
6.531890469872965
 40
6.883053637016983
 40
7.230512024911405
 40
7.566966656764555
 40
7.885203559707326
 40
8.17288743971916
 40
8.418011594062715
 40
8.443926721190604
 40
8.510760470613132
 40
8.60214539379562
 40
8.701714041647033
 40
8.793098965075313
 40
8.859932715057862
 40
8.885847842603493
 40
9.242301256612715
 40
9.58927545501673
 40
9.921808543164076
 40
10.2347962429846
 40
10.29968150889169
 40
10.35323493887754
 40
10.4015462535514
 40
10.46482922477818
 40
10.55973900668397
 40
10.69239545985604
 40
10.84920353475662
 40
11.01626328594774
 40
11.18672024367433
 40
11.35372582577203
 40
11.50257442292417
 40
11.61866495023283
 40
11.7132986915287
 40
11.82511050573898
 40
11.94464880845707
 40
12.06929242642499
 40
12.19707290435168
 40
12.3256263286052
 40
12.4503456533127
 40
12.56646595170319
 40
12.67099007414627
 40
12.76077625936779
 40
12.82703233506686
 40
12.87429132785988
 40
12.89831990323329
 40
12.92234847860016
 40
13.53984767410326
 40
14.18294284359371
 40
14.18294284359371
 40
14.18294284359371
 40
14.18294284359371
 10
81.94105252422662
 20
-150.2358646558947
 10
81.8094609352796
 20
-150.1221944518797
 10
81.54667833969734
 20
-149.8952000747503
 10
81.03399830352677
 20
-149.0527004083492
 10
81.04492441896073
 20
-149.4106112621418
 10
81.03838161222366
 20
-149.5521711151907
 10
81.03706162260173
 20
-149.7506319849191
 10
81.03607071967836
 20
-149.9233420774522
 10
81.03666913462199
 20
-150.0661913053362
 10
81.03815838961283
 20
-150.1621949837784
 10
81.03982731827176
 20
-150.2693900052806
 10
81.04145245488628
 20
-150.3832029227362
 10
81.04350190959315
 20
-150.5004293118661
 10
81.04657550961718
 20
-150.6182809255823
 10
81.04989292912893
 20
-150.7325641647058
 10
81.05361949345244
 20
-150.8396310192392
 10
81.055992775567
 20
-150.9347709502428
 10
81.0621308482602
 20
-151.019259465855
 10
81.05823740901923
 20
-151.0756141649306
 10
81.07978200373235
 20
-151.1465948131884
 10
81.00235296528632
 20
-151.1158182618672
 10
80.94589428344362
 20
-151.1247326127359
 10
80.88830854910526
 20
-151.1158828539293
 10
80.80327530727175
 20
-151.1474627856525
 10
80.8352303740628
 20
-151.0638934779901
 10
80.83332948767844
 20
-150.9960189482289
 10
80.84505496415456
 20
-150.8925124702678
 10
80.85068306472452
 20
-150.7748237817451
 10
80.85804917731865
 20
-150.6409589462677
 10
80.86633492958563
 20
-150.4972035091857
 10
80.87414414916725
 20
-150.3477048094775
 10
80.8800160816903
 20
-150.1969195438913
 10
80.88462574122138
 20
-150.0478455991276
 10
80.88852217117875
 20
-149.9036159062817
 10
80.89133047208092
 20
-149.7690059857818
 10
80.89192883492682
 20
-149.5801488944385
 10
80.89586134613953
 20
-149.3550900947805
 10
80.87847649727446
 20
-149.081174126655
 10
80.91930069368274
 20
-148.9169739169259
 10
80.83377428502479
 20
-148.7173484232611
 10
80.90031485019334
 20
-148.7209904538722
 10
80.9181313867476
 20
-148.7207105663035
 10
81.03993913917473
 20
-148.7185157639261
 10
81.14233599297079
 20
-148.9980938506968
 10
81.39226111036012
 20
-149.199214952552
 10
81.62126249253558
 20
-149.4669188880328
 10
81.85877408073537
 20
-149.7183808992883
 10
82.08286803350173
 20
-149.9551452972984
 10
82.30933058772543
 20
-150.2126581120812
 10
82.46682774807591
 20
-150.3283516873428
 10
82.68147192069208
 20
-150.6648735125241
 10
82.67652355688634
 20
-150.5401974969959
 10
82.6776521196793
 20
-150.4815681185546
 10
82.67714674357616
 20
-150.3944084141922
 10
82.6773064752359
 20
-150.3006836060833
 10
82.67726444855634
 20
-150.2146553249416
 10
82.67727916346186
 20
-150.153306118457
 10
82.67722958502284
 20
-150.0034927227021
 10
82.68014011170565
 20
-149.7649489128109
 10
82.66021106354063
 20
-149.399979939225
 10
82.70930235304927
 20
-149.1368487179778
 10
82.55205411034265
 20
-148.7255559884345
 10
82.71047024666663
 20
-148.7808622123945
 10
82.76542700728741
 20
-148.7828481729102
 10
82.81704773609849
 20
-148.7821972554295
 10
82.90557885596117
 20
-148.7411497605296
 10
82.8547487897414
 20
-148.8878817716821
 10
82.86559795245286
 20
-148.9946453183676
 10
82.85086265890925
 20
-149.1539879837709
 10
82.844256604045
 20
-149.3163144213833
 10
82.83575509941599
 20
-149.484919818988
 10
82.82858167964446
 20
-149.6466968908766
 10
82.82316528096342
 20
-149.7906217233326
 10
82.82143035618937
 20
-149.9104701032428
 10
82.82180302665641
 20
-150.0179840220069
 10
82.82162457205077
 20
-150.1266447914561
 10
82.82196004573855
 20
-150.2453093362567
 10
82.8232630216429
 20
-150.3692934027846
 10
82.82514769458196
 20
-150.4962620962009
 10
82.82675940490955
 20
-150.6233064224017
 10
82.82839927316755
 20
-150.7462961929902
 10
82.83051603399966
 20
-150.8618357240744
 10
82.83064380166095
 20
-150.9639359983536
 10
82.83491039907993
 20
-151.0547465495304
 10
82.82510296795354
 20
-151.1127088258241
 10
82.8461064365935
 20
-151.1796737365917
 10
82.80682293341427
 20
-151.1719334982452
 10
82.59378967119913
 20
-151.18729249646
 10
82.39788875374319
 20
-150.6308144569673
 10
82.0953787225789
 20
-150.3692846844268
 10
81.94105252422662
 20
-150.2358646558947
 97
        1
330
B5
 75
     1
 76
     2
 52
45.0
 41
0.1
 77
     0
 78
     1
 53
45.0
 43
0.0
 44
0.0
 45
-0.282842712474619
 46
0.0
 79
     0
 98
        1
 10
0.0
 20
0.0
  0
HATCH
  5
D3
330
48
100
AcDbEntity
  8
1
  6
Continuous
 62
     2
100
AcDbHatch
 10
0.0
 20
0.0
 30
0.0
210
0.0
220
0.0
230
1.0
  2
CUSTOM13
 70
     0
 71
     1
 91
        2
 92
        1
 93
        1
 72
     4
 94
        3
 73
     0
 74
     0
 95
       57
 96
       53
 40
0.0
 40
0.0
 40
0.0
 40
0.0
 40
0.0471632082809072
 40
0.0914861054632256
 40
0.1357762519702349
 40
0.1826527001610928
 40
0.2295203288572695
 40
0.273775197222058
 40
0.3181310461543299
 40
0.3652607198398445
 40
0.4571007286314113
 40
0.5671851029165005
 40
0.6894623283867908
 40
0.8181758272545679
 40
0.9510087229273617
 40
1.085852229674067
 40
1.218126164475306
 40
1.343545131142366
 40
1.454537202956797
 40
1.56718760753082
 40
1.680710966642438
 40
1.794226869736774
 40
1.900009184247587
 40
2.004085860447838
 40
2.108162674451725
 40
2.214000150155298
 40
2.496038577352151
 40
2.762350745479293
 40
2.997275353279417
 40
3.185110082137736
 40
3.24640789006395
 40
3.312607550212737
 40
3.378877742711582
 40
3.440140399651463
 40
4.10050169600646
 40
4.754913085563475
 40
5.411331693423892
 40
6.077890432568716
 40
6.110575292670995
 40
6.143260152775761
 40
6.367989363395115
 40
6.610525374951508
 40
6.863389136467283
 40
7.11938002554753
 40
7.37603660509106
 40
7.631164770966265
 40
7.876722425456423
 40
8.104953735855947
 40
8.312916685924261
 40
8.49773029494126
 40
8.651018984313803
 40
8.764738853624548
 40
8.764738853624548
 40
8.764738853624548
 40
8.764738853624548
 10
79.42652390947586
 20
-151.1285776417827
 10
79.41092063211765
 20
-151.1265827271212
 10
79.38065375545474
 20
-151.122713024309
 10
79.33535837964978
 20
-151.1214251882394
 10
79.29021427235942
 20
-151.1217582023715
 10
79.24416067176449
 20
-151.1216984511698
 10
79.19830857663416
 20
-151.121586901412
 10
79.152630124241
 20
-151.1220667033461
 10
79.10934011358539
 20
-151.1202339417248
 10
79.03825375457589
 20
-151.1443494697653
 10
79.04000668556866
 20
-151.0229980981395
 10
78.99287859648152
 20
-150.9375826403997
 10
78.9534067846007
 20
-150.8199757444606
 10
78.9049225126891
 20
-150.7025175125076
 10
78.85436069967669
 20
-150.5807856802969
 10
78.80612242047229
 20
-150.4540853592873
 10
78.74778225418399
 20
-150.3455081600625
 10
78.73234822615068
 20
-150.1886384665679
 10
78.59091759248807
 20
-150.2211105724287
 10
78.48509870091489
 20
-150.2097161510902
 10
78.37011593194671
 20
-150.2109191227659
 10
78.25957318463861
 20
-150.2097755844379
 10
78.15191731170283
 20
-150.2106615375367
 10
78.04639121234882
 20
-150.2106790140069
 10
77.94517822762583
 20
-150.2177047131878
 10
77.76093944219986
 20
-150.1934864393133
 10
77.74999832796561
 20
-150.4974281266931
 10
77.64302812289958
 20
-150.721313265378
 10
77.54407381985921
 20
-150.905891894987
 10
77.55676801182528
 20
-151.14954298987
 10
77.43926813106421
 20
-151.11976457038
 10
77.37646454625556
 20
-151.122264142816
 10
77.31284616876448
 20
-151.1214042868839
 10
77.02886037883209
 20
-151.1638646384925
 10
77.65942280936261
 20
-150.4440255134641
 10
77.74302348833169
 20
-149.9320796435548
 10
78.12718423835832
 20
-149.4113076024116
 10
78.11197978828113
 20
-148.7096487753798
 10
78.35818553169422
 20
-148.7213887070994
 10
78.45989357518076
 20
-148.7125949933843
 10
78.45923416300622
 20
-148.9642485306086
 10
78.57709067500741
 20
-149.1466648305724
 10
78.66581048547305
 20
-149.3892076312834
 10
78.76648820795043
 20
-149.6214447326107
 10
78.86537323064883
 20
-149.8580985922428
 10
78.96422665849137
 20
-150.0902276462111
 10
79.0598755985172
 20
-150.3136228100241
 10
79.15024941675166
 20
-150.5221195474188
 10
79.23325341624349
 20
-150.7117605526188
 10
79.30686781770439
 20
-150.8782139772309
 10
79.3685405489791
 20
-151.0156680416511
 10
79.4092048479849
 20
-151.0948526436116
 10
79.42652390947586
 20
-151.1285776417827
 97
        1
330
B7
 92
       16
 93
        1
 72
     4
 94
        3
 73
     0
 74
     0
 95
       25
 96
       21
 40
0.0
 40
0.0
 40
0.0
 40
0.0
 40
0.0911479969064534
 40
0.185811789620409
 40
0.2804128399734491
 40
0.3715889190713939
 40
0.4679080494218136
 40
0.5642683809229367
 40
0.6605683222644424
 40
0.7569653015810103
 40
0.8561348172522766
 40
1.09261596510432
 40
1.374867658141916
 40
1.611348812011653
 40
1.710518328425298
 40
1.809403163726616
 40
2.045205463294141
 40
2.326646917622224
 40
2.562449217190726
 40
2.661334043834027
 40
2.661334043834027
 40
2.661334043834027
 40
2.661334043834027
 10
77.90262901614449
 20
-150.0586996559391
 10
77.93301155121682
 20
-150.0588642407666
 10
77.99494854833571
 20
-150.0591997510128
 10
78.08839465545753
 20
-150.0621544833919
 10
78.18176848306027
 20
-150.0650675091405
 10
78.27603503477216
 20
-150.0659030214778
 10
78.36975543852121
 20
-150.0648785913315
 10
78.46946298974501
 20
-150.0656752632023
 10
78.55315391405583
 20
-150.0556309355598
 10
78.69805859092908
 20
-150.0824988611704
 10
78.57387220390461
 20
-149.9081897351116
 10
78.53084568805274
 20
-149.7483279278511
 10
78.41515117364548
 20
-149.4896604524098
 10
78.33601550255028
 20
-149.3525345092934
 10
78.27741662160616
 20
-149.1354747065712
 10
78.22073935336832
 20
-149.3521836957777
 10
78.13953994947222
 20
-149.4915749135296
 10
78.04062908757342
 20
-149.7407753442101
 10
77.95962146885041
 20
-149.9255867356513
 10
77.91562729200837
 20
-150.0283405693509
 10
77.90262901614449
 20
-150.0586996559391
 97
        1
330
B6
 75
     1
 76
     2
 52
45.0
 41
0.1
 77
     0
 78
     1
 53
45.0
 43
0.0
 44
0.0
 45
-0.282842712474619
 46
0.0
 79
     0
 98
        1
 10
0.0
 20
0.0
  0
HATCH
  5
D4
330
48
100
AcDbEntity
  8
1
  6
Continuous
 62
     2
100
AcDbHatch
 10
0.0
 20
0.0
 30
0.0
210
0.0
220
0.0
230
1.0
  2
CUSTOM14
 70
     0
 71
     1
 91
        1
 92
        1
 93
        1
 72
     4
 94
        3
 73
     0
 74
     0
 95
       99
 96
       95
 40
0.0
 40
0.0
 40
0.0
 40
0.0
 40
0.0796417172272892
 40
0.1621768542356306
 40
0.2486489160957676
 40
0.3404969668524944
 40
0.4381912511165145
 40
0.54344636602452
 40
0.6518115192847558
 40
0.7530190937887465
 40
0.8492196919725732
 40
0.9419290312998762
 40
1.034249663570071
 40
1.129078600620232
 40
1.226697027573298
 40
1.327220425421757
 40
1.470572134938073
 40
1.595489863371267
 40
1.719934125348461
 40
1.850576620127482
 40
1.98905962998739
 40
2.134139054226979
 40
2.280698007207268
 40
2.424529739039496
 40
2.565929576985887
 40
2.708239260773642
 40
2.861717887443739
 40
3.04516854034738
 40
3.183798301138678
 40
3.314813961455537
 40
3.442083470447372
 40
3.56991270837301
 40
3.702177512509412
 40
3.842307559659619
 40
3.992872223246001
 40
4.156750662218361
 40
4.310981861107565
 40
4.44585990932261
 40
4.572393936131622
 40
4.701656719782033
 40
4.768279086008549
 40
4.835960697898468
 40
4.912788918729419
 40
5.006285208481605
 40
5.026909478751709
 40
5.04753374902126
 40
5.101808031471321
 40
5.162325165538609
 40
5.226919745995927
 40
5.29423180659677
 40
5.364544852554912
 40
5.438319055467995
 40
5.5178776513243
 40
5.607647714861623
 40
5.700449642544452
 40
5.788251142364189
 40
5.872714706039839
 40
5.95516729257538
 40
6.037192395190452
 40
6.12066918146915
 40
6.206848616686359
 40
6.296680855416867
 40
6.442558392872644
 40
6.568190371608322
 40
6.692904567360394
 40
6.824220446557193
 40
6.963121850329392
 40
7.10784373885119
 40
7.253431663907324
 40
7.395187468036792
 40
7.533140753237788
 40
7.670550457175305
 40
7.816236511769295
 40
7.987691657359275
 40
8.142277421969315
 40
8.293662615415029
 40
8.442962460879286
 40
8.591598316185319
 40
8.74367899236178
 40
8.903725323699218
 40
9.07630700889053
 40
9.2655786046806
 40
9.459203795360763
 40
9.617619810273567
 40
9.75360967136194
 40
9.87487330000409
 40
9.95452018497775
 40
10.02416413719241
 40
10.09769764405441
 40
10.18909955924971
 40
10.2097458642013
 40
10.23039218263375
 40
10.30057101881262
 40
10.37632012987537
 40
10.37632012987537
 40
10.37632012987537
 40
10.37632012987537
 10
74.78085444300962
 20
-150.806888405752
 10
74.79748074454643
 20
-150.8276389494589
 10
74.8313373800823
 20
-150.8698939207929
 10
74.89424121352806
 20
-150.9245469239913
 10
74.96750905346383
 20
-150.9718547867015
 10
75.0518558832881
 20
-151.0095727235326
 10
75.14748302097053
 20
-151.0344388405925
 10
75.25144433695911
 20
-151.0417494444527
 10
75.35666098146501
 20
-151.0334218099714
 10
75.4549215965579
 20
-151.0033532413968
 10
75.54015760217935
 20
-150.9563568081932
 10
75.61218098003482
 20
-150.8953151254034
 10
75.66935073033419
 20
-150.8207153421262
 10
75.71104583416849
 20
-150.7348203913103
 10
75.73695424405378
 20
-150.6399865335899
 10
75.74606269268979
 20
-150.5262952475283
 10
75.73294543907316
 20
-150.4015191602042
 10
75.666791992866
 20
-150.2846978461931
 10
75.57119605138143
 20
-150.1997196421382
 10
75.4592270616614
 20
-150.1306781933203
 10
75.33362491775146
 20
-150.0728036174531
 10
75.19992812151014
 20
-150.0211078050686
 10
75.06557124130767
 20
-149.9658541139402
 10
74.93945735811224
 20
-149.8954473314955
 10
74.82691695817803
 20
-149.8069896305995
 10
74.73125526587032
 20
-149.6950343592273
 10
74.66767467460713
 20
-149.5453459368982
 10
74.6543296099261
 20
-149.3855170940606
 10
74.66631005816936
 20
-149.2343609848436
 10
74.70548885230863
 20
-149.1067525919966
 10
74.7697577345156
 20
-148.9940362976035
 10
74.85807945939857
 20
-148.8983589452252
 10
74.9680680801873
 20
-148.8213028880544
 10
75.09748739955106
 20
-148.7633310685492
 10
75.24544285620387
 20
-148.7274532620238
 10
75.40246590497318
 20
-148.7173778474064
 10
75.55175300606751
 20
-148.7262086602861
 10
75.69388432084155
 20
-148.7540960445085
 10
75.79385122038704
 20
-148.8107118909006
 10
75.94676643304305
 20
-148.8580990168568
 10
75.8797721311414
 20
-148.9428695079002
 10
75.86390687145146
 20
-149.0104560191771
 10
75.83213401255425
 20
-149.0755841099801
 10
75.84927918038163
 20
-149.1776105053425
 10
75.80090168024775
 20
-149.1699129210929
 10
75.7658379035011
 20
-149.1767773206639
 10
75.76392875799638
 20
-149.11220672633
 10
75.73282825262335
 20
-149.066588641698
 10
75.70071412227016
 20
-149.0092346716275
 10
75.65506280694132
 20
-148.9594404109864
 10
75.6001097812632
 20
-148.9148969007221
 10
75.53534307672531
 20
-148.8772051495465
 10
75.45749669048422
 20
-148.8520112799985
 10
75.36977501475978
 20
-148.8455327279309
 10
75.27954928720519
 20
-148.8524879450559
 10
75.19371842883098
 20
-148.8757531333027
 10
75.1170933232842
 20
-148.9135285968366
 10
75.0507855230446
 20
-148.9643286270162
 10
74.99651501312098
 20
-149.0275336038399
 10
74.95675149397043
 20
-149.1020804808084
 10
74.9319365104833
 20
-149.1856718979344
 10
74.92347138571147
 20
-149.2929155540891
 10
74.93622875813489
 20
-149.4151904652364
 10
75.00241380035189
 20
-149.5333477949998
 10
75.09835669940774
 20
-149.6187817808168
 10
75.21005045574277
 20
-149.6890114148447
 10
75.33534532629476
 20
-149.748253414859
 10
75.46924135356926
 20
-149.7986779570507
 10
75.60325199273953
 20
-149.8516198680682
 10
75.72934749111609
 20
-149.9173433316602
 10
75.84188062326623
 20
-150.0000415125388
 10
75.93739598784784
 20
-150.1048849748113
 10
76.00152960812078
 20
-150.2454738653962
 10
76.01536933195241
 20
-150.4041909433961
 10
76.00165443064748
 20
-150.5633134857332
 10
75.958732874823
 20
-150.7100067497199
 10
75.88884959233113
 20
-150.8436470720406
 10
75.79171818080746
 20
-150.9595211609191
 10
75.66903956179026
 20
-151.0539452202111
 10
75.52169980074135
 20
-151.1230523313922
 10
75.351972209137
 20
-151.1653129293234
 10
75.16599945738423
 20
-151.1770276756079
 10
74.98715455204285
 20
-151.1667501710776
 10
74.82243233479883
 20
-151.1251793002205
 10
74.7177000435302
 20
-151.0568686090726
 10
74.56935503846114
 20
-151.0080928475909
 10
74.63229677889737
 20
-150.9150791250036
 10
74.64148640243059
 20
-150.8418796754292
 10
74.66463008954763
 20
-150.7754820928986
 10
74.63771779295624
 20
-150.6750969426363
 10
74.68639285505844
 20
-150.6825047027382
 10
74.72591201749422
 20
-150.6759044017031
 10
74.73387945389464
 20
-150.7540580057227
 10
74.76480265621683
 20
-150.7888357641534
 10
74.78085444300962
 20
-150.806888405752
 97
        1
330
B8
 75
     1
 76
     2
 52
45.0
 41
0.1
 77
     0
 78
     1
 53
45.0
 43
0.0
 44
0.0
 45
-0.282842712474619
 46
0.0
 79
     0
 98
        1
 10
0.0
 20
0.0
  0
ENDBLK
  5
4A
330
48
100
AcDbEntity
  8
0
100
AcDbBlockEnd
  0
BLOCK
  5
4D
330
4B
100
AcDbEntity
  8
0
100
AcDbBlockBegin
  2
開示A4枠
 70
     0
 10
-95.36574104057544
 20
-164.944845037912
 30
0.0
  3
開示A4枠
  1

  0
INSERT
  5
4C
330
4B
100
AcDbEntity
  8
1
100
AcDbBlockReference
  2
開示A4
 10
-95.36574104057544
 20
-164.944845037912
 30
0.0
  0
ENDBLK
  5
4E
330
4B
100
AcDbEntity
  8
0
100
AcDbBlockEnd
  0
BLOCK
  5
50
330
4F
100
AcDbEntity
  8
0
100
AcDbBlockBegin
  2
H70-90-A
 70
     0
 10
69.72747109651829
 20
82.01958841267802
 30
0.0
  3
H70-90-A
  1

  0
LINE
  5
D5
330
4F
100
AcDbEntity
  8
1
  6
Continuous
 62
     7
100
AcDbLine
 10
-5.36574104057545
 20
-48.05970099058425
 30
0.0
 11
-5.36574104057545
 21
-46.55970099058425
 31
0.0
  0
LINE
  5
D6
330
4F
100
AcDbEntity
  8
1
  6
Continuous
 62
     7
100
AcDbLine
 10
36.63425895942456
 20
-48.05970099058425
 30
0.0
 11
-5.36574104057545
 21
-48.05970099058425
 31
0.0
  0
LINE
  5
D7
330
4F
100
AcDbEntity
  8
1
  6
Continuous
 62
     7
100
AcDbLine
 10
-2.36574104057545
 20
-54.55970099058425
 30
0.0
 11
-2.36574104057545
 21
-48.05970099058425
 31
0.0
  0
LINE
  5
D8
330
4F
100
AcDbEntity
  8
1
  6
Continuous
 62
     7
100
AcDbLine
 10
-5.36574104057545
 20
-54.55970099058425
 30
0.0
 11
36.63425895942456
 21
-54.55970099058425
 31
0.0
  0
LINE
  5
D9
330
4F
100
AcDbEntity
  8
1
  6
Continuous
 62
     7
100
AcDbLine
 10
-5.36574104057545
 20
-56.05970099058425
 30
0.0
 11
-5.36574104057545
 21
-54.55970099058425
 31
0.0
  0
LINE
  5
DA
330
4F
100
AcDbEntity
  8
1
  6
Continuous
 62
     7
100
AcDbLine
 10
34.38425895942456
 20
-56.05970099058425
 30
0.0
 11
-5.36574104057545
 21
-56.05970099058425
 31
0.0
  0
LINE
  5
DB
330
4F
100
AcDbEntity
  8
1
  6
Continuous
 62
     7
100
AcDbLine
 10
-5.36574104057545
 20
-46.55970099058425
 30
0.0
 11
34.38425895942456
 21
-46.55970099058425
 31
0.0
  0
LINE
  5
DC
330
4F
100
AcDbEntity
  8
1
  6
Continuous
 62
     7
100
AcDbLine
 10
34.38425895942456
 20
-46.55970099058425
 30
0.0
 11
39.63425895942456
 21
-46.55970099058425
 31
0.0
  0
LINE
  5
DD
330
4F
100
AcDbEntity
  8
1
  6
Continuous
 62
     7
100
AcDbLine
 10
39.63425895942456
 20
-56.05970099058425
 30
0.0
 11
34.38425895942456
 21
-56.05970099058425
 31
0.0
  0
LINE
  5
DE
330
4F
100
AcDbEntity
  8
1
  6
Continuous
 62
     7
100
AcDbLine
 10
39.63425895942456
 20
-54.55970099058425
 30
0.0
 11
39.63425895942456
 21
-56.05970099058425
 31
0.0
  0
LINE
  5
DF
330
4F
100
AcDbEntity
  8
1
  6
Continuous
 62
     7
100
AcDbLine
 10
36.63425895942456
 20
-54.55970099058425
 30
0.0
 11
39.63425895942456
 21
-54.55970099058425
 31
0.0
  0
LINE
  5
E0
330
4F
100
AcDbEntity
  8
1
  6
Continuous
 62
     7
100
AcDbLine
 10
36.63425895942456
 20
-48.05970099058425
 30
0.0
 11
36.63425895942456
 21
-54.55970099058425
 31
0.0
  0
LINE
  5
E1
330
4F
100
AcDbEntity
  8
1
  6
Continuous
 62
     7
100
AcDbLine
 10
39.63425895942456
 20
-48.05970099058425
 30
0.0
 11
36.63425895942456
 21
-48.05970099058425
 31
0.0
  0
LINE
  5
E2
330
4F
100
AcDbEntity
  8
1
  6
Continuous
 62
     7
100
AcDbLine
 10
39.63425895942456
 20
-46.55970099058425
 30
0.0
 11
39.63425895942456
 21
-48.05970099058425
 31
0.0
  0
LWPOLYLINE
  5
E3
330
4F
100
AcDbEntity
  8
1
  6
Continuous
 62
     7
 60
     1
100
AcDbPolyline
 90
        5
 70
     0
 43
0.0
 10
-5.36574104057545
 20
-56.05970099058425
 10
-5.36574104057545
 20
-54.55970099058425
 10
-2.36574104057545
 20
-54.55970099058425
 10
-2.36574104057545
 20
-48.05970099058425
 10
-5.36574104057545
 20
-48.05970099058425
  0
ENDBLK
  5
51
330
4F
100
AcDbEntity
  8
0
100
AcDbBlockEnd
  0
BLOCK
  5
53
330
52
100
AcDbEntity
  8
0
100
AcDbBlockBegin
  2
H70-90-25A
 70
     0
 10
-7.86574104057544
 20
-61.55970099058425
 30
0.0
  3
H70-90-25A
  1

  0
LINE
  5
E4
330
52
100
AcDbEntity
  8
1
  6
Continuous
 62
     7
100
AcDbLine
 10
-0.11574104057544
 20
-46.55970099058425
 30
0.0
 11
-0.11574104057544
 21
-46.05970099058425
 31
0.0
  0
LINE
  5
E5
330
52
100
AcDbEntity
  8
1
  6
Continuous
 62
     7
100
AcDbLine
 10
37.63425895942456
 20
-56.05970099058425
 30
0.0
 11
37.63425895942456
 21
-57.55970099058425
 31
0.0
  0
LINE
  5
E6
330
52
100
AcDbEntity
  8
1
  6
Continuous
 62
     7
100
AcDbLine
 10
37.63425895942456
 20
-57.55970099058425
 30
0.0
 11
34.38425895942456
 21
-57.55970099058425
 31
0.0
  0
LINE
  5
E7
330
52
100
AcDbEntity
  8
1
  6
Continuous
 62
     7
100
AcDbLine
 10
-7.86574104057544
 20
-39.55970099058427
 30
0.0
 11
-7.86574104057544
 21
-36.55970099058427
 31
0.0
  0
LINE
  5
E8
330
52
100
AcDbEntity
  8
1
  6
Continuous
 62
     7
100
AcDbLine
 10
35.88425895942456
 20
-39.55970099058427
 30
0.0
 11
-7.86574104057544
 21
-39.55970099058427
 31
0.0
  0
LINE
  5
E9
330
52
100
AcDbEntity
  8
1
  6
Continuous
 62
     7
100
AcDbLine
 10
-0.11574104057544
 20
-41.05970099058427
 30
0.0
 11
-0.11574104057544
 21
-44.55970099058425
 31
0.0
  0
LINE
  5
EA
330
52
100
AcDbEntity
  8
1
  6
Continuous
 62
     7
100
AcDbLine
 10
-3.36574104057544
 20
-44.55970099058425
 30
0.0
 11
34.38425895942456
 21
-44.55970099058425
 31
0.0
  0
LINE
  5
EB
330
52
100
AcDbEntity
  8
1
  6
Continuous
 62
     7
100
AcDbLine
 10
-3.36574104057544
 20
-46.05970099058425
 30
0.0
 11
-3.36574104057544
 21
-44.55970099058425
 31
0.0
  0
LINE
  5
EC
330
52
100
AcDbEntity
  8
1
  6
Continuous
 62
     7
100
AcDbLine
 10
34.38425895942456
 20
-46.05970099058425
 30
0.0
 11
-3.36574104057544
 21
-46.05970099058425
 31
0.0
  0
LINE
  5
ED
330
52
100
AcDbEntity
  8
1
  6
Continuous
 62
     7
100
AcDbLine
 10
-3.36574104057544
 20
-57.55970099058425
 30
0.0
 11
-3.36574104057544
 21
-56.05970099058425
 31
0.0
  0
LINE
  5
EE
330
52
100
AcDbEntity
  8
1
  6
Continuous
 62
     7
100
AcDbLine
 10
34.38425895942456
 20
-57.55970099058425
 30
0.0
 11
-3.36574104057544
 21
-57.55970099058425
 31
0.0
  0
LINE
  5
EF
330
52
100
AcDbEntity
  8
1
  6
Continuous
 62
     7
100
AcDbLine
 10
-0.11574104057544
 20
-61.55970099058425
 30
0.0
 11
-0.11574104057544
 21
-57.55970099058425
 31
0.0
  0
LINE
  5
F0
330
52
100
AcDbEntity
  8
1
  6
Continuous
 62
     7
100
AcDbLine
 10
34.38425895942456
 20
-61.55970099058425
 30
0.0
 11
-0.11574104057544
 21
-61.55970099058425
 31
0.0
  0
LINE
  5
F1
330
52
100
AcDbEntity
  8
1
  6
Continuous
 62
     7
100
AcDbLine
 10
42.13425895942456
 20
-36.55970099058427
 30
0.0
 11
-7.86574104057544
 21
-36.55970099058427
 31
0.0
  0
LINE
  5
F2
330
52
100
AcDbEntity
  8
1
  6
Continuous
 62
     7
100
AcDbLine
 10
34.38425895942456
 20
-57.55970099058425
 30
0.0
 11
34.38425895942456
 21
-61.55970099058425
 31
0.0
  0
LINE
  5
F3
330
52
100
AcDbEntity
  8
1
  6
Continuous
 62
     7
100
AcDbLine
 10
34.38425895942456
 20
-46.05970099058425
 30
0.0
 11
34.38425895942456
 21
-46.55970099058425
 31
0.0
  0
LINE
  5
F4
330
52
100
AcDbEntity
  8
1
  6
Continuous
 62
     7
100
AcDbLine
 10
37.63425895942456
 20
-46.05970099058425
 30
0.0
 11
34.38425895942456
 21
-46.05970099058425
 31
0.0
  0
LINE
  5
F5
330
52
100
AcDbEntity
  8
1
  6
Continuous
 62
     7
100
AcDbLine
 10
37.63425895942456
 20
-44.55970099058425
 30
0.0
 11
37.63425895942456
 21
-46.05970099058425
 31
0.0
  0
LINE
  5
F6
330
52
100
AcDbEntity
  8
1
  6
Continuous
 62
     7
100
AcDbLine
 10
34.38425895942456
 20
-44.55970099058425
 30
0.0
 11
37.63425895942456
 21
-44.55970099058425
 31
0.0
  0
LINE
  5
F7
330
52
100
AcDbEntity
  8
1
  6
Continuous
 62
     7
100
AcDbLine
 10
34.38425895942456
 20
-44.55970099058425
 30
0.0
 11
34.38425895942456
 21
-41.05970099058427
 31
0.0
  0
LINE
  5
F8
330
52
100
AcDbEntity
  8
1
  6
Continuous
 62
     7
100
AcDbLine
 10
42.13425895942456
 20
-39.55970099058427
 30
0.0
 11
35.88425895942456
 21
-39.55970099058427
 31
0.0
  0
LINE
  5
F9
330
52
100
AcDbEntity
  8
1
  6
Continuous
 62
     7
100
AcDbLine
 10
42.13425895942456
 20
-36.55970099058427
 30
0.0
 11
42.13425895942456
 21
-39.55970099058427
 31
0.0
  0
CIRCLE
  5
FA
330
52
100
AcDbEntity
  8
1
  6
Continuous
 62
     7
100
AcDbCircle
 10
17.13425895942456
 20
19.4775188198019
 30
0.0
 40
25.93818984015007
  0
CIRCLE
  5
FB
330
52
100
AcDbEntity
  8
1
  6
Continuous
 62
     7
100
AcDbCircle
 10
17.13425895942456
 20
19.4775188198019
 30
0.0
 40
12.5
  0
CIRCLE
  5
FC
330
52
100
AcDbEntity
  8
1
  6
Continuous
 62
     7
100
AcDbCircle
 10
17.13425895942456
 20
19.4775188198019
 30
0.0
 40
11.99984339537711
  0
ARC
  5
FD
330
52
100
AcDbEntity
  8
1
  6
Continuous
 62
     7
100
AcDbCircle
 10
-1.61574104057544
 20
-41.05970099058427
 30
0.0
 40
1.5
100
AcDbArc
 50
0.0
 51
90.0
  0
ARC
  5
FE
330
52
100
AcDbEntity
  8
1
  6
Continuous
 62
     7
100
AcDbCircle
 10
35.88425895942456
 20
-41.05970099058427
 30
0.0
 40
1.5
100
AcDbArc
 50
90.0
 51
180.0
  0
ENDBLK
  5
54
330
52
100
AcDbEntity
  8
0
100
AcDbBlockEnd
  0
BLOCK
  5
116
330
10F
100
AcDbEntity
  8
0
100
AcDbBlockBegin
  2
*D5
 70
     1
 10
0.0
 20
0.0
 30
0.0
  3
*D5
  1

  0
LINE
  5
110
330
10F
100
AcDbEntity
  8
1
  6
Continuous
 62
     2
100
AcDbLine
 10
54.24837124996992
 20
-61.55970099058426
 30
0.0
 11
54.24837124996992
 21
-36.55970099058426
 31
0.0
  0
LINE
  5
111
330
10F
100
AcDbEntity
  8
1
  6
Continuous
 62
     2
100
AcDbLine
 10
42.13425895942455
 20
-36.55970099058426
 30
0.0
 11
56.24837124996992
 21
-36.55970099058426
 31
0.0
  0
LINE
  5
112
330
10F
100
AcDbEntity
  8
1
  6
Continuous
 62
     2
100
AcDbLine
 10
34.38425895942455
 20
-61.55970099058426
 30
0.0
 11
56.24837124996992
 21
-61.55970099058426
 31
0.0
  0
SOLID
  5
113
330
10F
100
AcDbEntity
  8
1
 62
     2
100
AcDbTrace
 10
54.70915499152581
 20
-40.05970099058426
 30
0.0
 11
53.78758750841403
 21
-40.05970099058426
 31
0.0
 12
54.24837124996992
 22
-36.55970099058426
 32
0.0
 13
54.24837124996992
 23
-36.55970099058426
 33
0.0
  0
SOLID
  5
114
330
10F
100
AcDbEntity
  8
1
 62
     2
100
AcDbTrace
 10
53.78758750841403
 20
-58.05970099058426
 30
0.0
 11
54.70915499152581
 21
-58.05970099058426
 31
0.0
 12
54.24837124996992
 22
-61.55970099058426
 32
0.0
 13
54.24837124996992
 23
-61.55970099058426
 33
0.0
  0
MTEXT
  5
115
330
10F
100
AcDbEntity
  8
1
 62
     7
100
AcDbMText
 10
52.24837124996992
 20
-51.67362399652529
 30
0.0
 40
3.0
 41
0.0
 71
     7
 72
     1
  1
25
  7
CONVERTER_12
 11
0.0
 21
1.0
 31
0.0
 73
     1
 44
0.60024009603842
  0
ENDBLK
  5
117
330
10F
100
AcDbEntity
  8
0
100
AcDbBlockEnd
  0
BLOCK
  5
121
330
11A
100
AcDbEntity
  8
0
100
AcDbBlockBegin
  2
*D6
 70
     1
 10
0.0
 20
0.0
 30
0.0
  3
*D6
  1

  0
LINE
  5
11B
330
11A
100
AcDbEntity
  8
1
  6
Continuous
 62
     2
100
AcDbLine
 10
-7.86574104057544
 20
-26.55970099058427
 30
0.0
 11
42.13425895942456
 21
-26.55970099058427
 31
0.0
  0
LINE
  5
11C
330
11A
100
AcDbEntity
  8
1
  6
Continuous
 62
     2
100
AcDbLine
 10
42.13425895942456
 20
-36.55970099058427
 30
0.0
 11
42.13425895942456
 21
-24.55970099058427
 31
0.0
  0
LINE
  5
11D
330
11A
100
AcDbEntity
  8
1
  6
Continuous
 62
     2
100
AcDbLine
 10
-7.86574104057544
 20
-36.55970099058427
 30
0.0
 11
-7.86574104057544
 21
-24.55970099058427
 31
0.0
  0
SOLID
  5
11E
330
11A
100
AcDbEntity
  8
1
 62
     2
100
AcDbTrace
 10
-4.36574104057544
 20
-26.09891724902838
 30
0.0
 11
-4.36574104057544
 21
-27.02048473214015
 31
0.0
 12
-7.86574104057544
 22
-26.55970099058427
 32
0.0
 13
-7.86574104057544
 23
-26.55970099058427
 33
0.0
  0
SOLID
  5
11F
330
11A
100
AcDbEntity
  8
1
 62
     2
100
AcDbTrace
 10
38.63425895942456
 20
-27.02048473214015
 30
0.0
 11
38.63425895942456
 21
-26.09891724902838
 31
0.0
 12
42.13425895942456
 22
-26.55970099058427
 32
0.0
 13
42.13425895942456
 23
-26.55970099058427
 33
0.0
  0
MTEXT
  5
120
330
11A
100
AcDbEntity
  8
1
 62
     7
100
AcDbMText
 10
14.09427438446246
 20
-24.55970695379255
 30
0.0
 40
3.0
 41
0.0
 71
     7
 72
     1
  1
\C7;{\Fgdt;n}\C7;50
  7
CONVERTER_12
 11
0.9999999999970619
 21
2.424068405545306E-6
 31
0.0
 73
     1
 44
0.60024009603842
  0
ENDBLK
  5
122
330
11A
100
AcDbEntity
  8
0
100
AcDbBlockEnd
  0
BLOCK
  5
12C
330
125
100
AcDbEntity
  8
0
100
AcDbBlockBegin
  2
*D7
 70
     1
 10
0.0
 20
0.0
 30
0.0
  3
*D7
  1

  0
LINE
  5
126
330
125
100
AcDbEntity
  8
1
  6
Continuous
 62
     2
100
AcDbLine
 10
-5.36574104057544
 20
-73.9402474259725
 30
0.0
 11
39.63425895942456
 21
-73.9402474259725
 31
0.0
  0
LINE
  5
127
330
125
100
AcDbEntity
  8
1
  6
Continuous
 62
     2
100
AcDbLine
 10
39.63425895942456
 20
-56.05970099058426
 30
0.0
 11
39.63425895942456
 21
-75.9402474259725
 31
0.0
  0
LINE
  5
128
330
125
100
AcDbEntity
  8
1
  6
Continuous
 62
     2
100
AcDbLine
 10
-5.36574104057544
 20
-56.05970099058426
 30
0.0
 11
-5.36574104057544
 21
-75.9402474259725
 31
0.0
  0
SOLID
  5
129
330
125
100
AcDbEntity
  8
1
 62
     2
100
AcDbTrace
 10
-1.86574104057544
 20
-73.47946368441661
 30
0.0
 11
-1.86574104057544
 21
-74.40103116752839
 31
0.0
 12
-5.36574104057544
 22
-73.9402474259725
 32
0.0
 13
-5.36574104057544
 23
-73.9402474259725
 33
0.0
  0
SOLID
  5
12A
330
125
100
AcDbEntity
  8
1
 62
     2
100
AcDbTrace
 10
36.13425895942456
 20
-74.40103116752839
 30
0.0
 11
36.13425895942456
 21
-73.47946368441661
 31
0.0
 12
39.63425895942456
 22
-73.9402474259725
 32
0.0
 13
39.63425895942456
 23
-73.9402474259725
 33
0.0
  0
MTEXT
  5
12B
330
125
100
AcDbEntity
  8
1
 62
     7
100
AcDbMText
 10
14.08440028753146
 20
-71.94025338918078
 30
0.0
 40
3.0
 41
0.0
 71
     7
 72
     1
  1
\C7;{\Fgdt;n}\C7;45
  7
CONVERTER_12
 11
0.9999999999970619
 21
2.424068405545306E-6
 31
0.0
 73
     1
 44
0.60024009603842
  0
ENDBLK
  5
12D
330
125
100
AcDbEntity
  8
0
100
AcDbBlockEnd
  0
BLOCK
  5
135
330
130
100
AcDbEntity
  8
0
100
AcDbBlockBegin
  2
*D8
 70
     1
 10
0.0
 20
0.0
 30
0.0
  3
*D8
  1

  0
LINE
  5
131
330
130
100
AcDbEntity
  8
1
  6
Continuous
 62
     2
100
AcDbLine
 10
6.46737668935937
 20
12.96080011814161
 30
0.0
 11
49.15977583780932
 21
39.04286879627931
 31
0.0
  0
SOLID
  5
132
330
130
100
AcDbEntity
  8
1
 62
     2
100
AcDbTrace
 10
25.05463803595295
 20
23.77634621114637
 30
0.0
 11
24.57419035179003
 21
24.56276635884825
 31
0.0
 12
27.80114122948975
 22
25.99423752146219
 32
0.0
 13
27.80114122948975
 23
25.99423752146219
 33
0.0
  0
SOLID
  5
133
330
130
100
AcDbEntity
  8
1
 62
     2
100
AcDbTrace
 10
9.21387988289616
 20
15.17869142845743
 30
0.0
 11
9.69432756705908
 21
14.39227128075555
 31
0.0
 12
6.46737668935937
 22
12.96080011814161
 32
0.0
 13
6.46737668935937
 23
12.96080011814161
 33
0.0
  0
MTEXT
  5
134
330
130
100
AcDbEntity
  8
1
 62
     7
100
AcDbMText
 10
42.17778079757137
 20
37.12106098640531
 30
0.0
 40
3.0
 41
0.0
 71
     7
 72
     1
  1
\C7;{\Fgdt;n}\C7;25
  7
CONVERTER_12
 11
0.853350581605215
 21
0.5213374961328232
 31
0.0
 73
     1
 44
0.60024009603842
  0
ENDBLK
  5
136
330
130
100
AcDbEntity
  8
0
100
AcDbBlockEnd
  0
ENDSEC
  0
SECTION
  2
ENTITIES
  0
INSERT
  5
55
330
1F
100
AcDbEntity
  8
0
100
AcDbBlockReference
  2
開示A4枠
 10
-95.36574104057544
 20
-164.944845037912
 30
0.0
  0
INSERT
  5
56
330
1F
100
AcDbEntity
  8
0
100
AcDbBlockReference
  2
H70-90-A
 10
69.72747109651829
 20
82.01958841267802
 30
0.0
  0
INSERT
  5
57
330
1F
100
AcDbEntity
  8
1
100
AcDbBlockReference
  2
H70-90-25A
 10
-7.86574104057544
 20
-61.55970099058425
 30
0.0
  0
LINE
  5
FF
330
1F
100
AcDbEntity
  8
1
  6
DASH_CENTER
 62
     2
100
AcDbLine
 10
-9.86574104057544
 20
19.4775188198019
 30
0.0
 11
44.13425895942456
 21
19.4775188198019
 31
0.0
  0
LINE
  5
100
330
1F
100
AcDbEntity
  8
1
  6
DASH_CENTER
 62
     2
100
AcDbLine
 10
17.13425895942456
 20
46.47751881980191
 30
0.0
 11
17.13425895942456
 21
-7.5224811801981
 31
0.0
  0
LINE
  5
101
330
1F
100
AcDbEntity
  8
1
  6
DASH_CENTER
 62
     2
100
AcDbLine
 10
17.13425895942456
 20
-33.9265648959097
 30
0.0
 11
17.13425895942456
 21
-64.19283708525882
 31
0.0
  0
MTEXT
  5
103
330
1F
100
AcDbEntity
  8
1
 62
     7
100
AcDbMText
 10
62.13425895942453
 20
-152.444845037912
 30
0.0
 40
2.5
 41
0.0
 71
     5
 72
     1
  1
6
  7
CONVERTER_12
 73
     1
 44
0.7202881152461
  0
MTEXT
  5
104
330
1F
100
AcDbEntity
  8
1
 62
     7
100
AcDbMText
 10
56.38425895942453
 20
-152.444845037912
 30
0.0
 40
2.5
 41
0.0
 71
     5
 72
     1
  1
04
  7
CONVERTER_12
 73
     1
 44
0.7202881152461
  0
MTEXT
  5
105
330
1F
100
AcDbEntity
  8
1
 62
     7
100
AcDbMText
 10
45.13425895942453
 20
-152.444845037912
 30
0.0
 40
2.5
 41
0.0
 71
     5
 72
     1
  1
6
  7
CONVERTER_12
 73
     1
 44
0.7202881152461
  0
MTEXT
  5
106
330
1F
100
AcDbEntity
  8
1
 62
     7
100
AcDbMText
 10
39.38425895942453
 20
-152.444845037912
 30
0.0
 40
2.5
 41
0.0
 71
     5
 72
     1
  1
04
  7
CONVERTER_12
 73
     1
 44
0.7202881152461
  0
MTEXT
  5
107
330
1F
100
AcDbEntity
  8
1
 62
     7
100
AcDbMText
 10
28.13425895942453
 20
-152.444845037912
 30
0.0
 40
2.5
 41
0.0
 71
     5
 72
     1
  1
6
  7
CONVERTER_12
 73
     1
 44
0.7202881152461
  0
MTEXT
  5
108
330
1F
100
AcDbEntity
  8
1
 62
     7
100
AcDbMText
 10
22.38425895942453
 20
-152.444845037912
 30
0.0
 40
2.5
 41
0.0
 71
     5
 72
     1
  1
04
  7
CONVERTER_12
 73
     1
 44
0.7202881152461
  0
MTEXT
  5
109
330
1F
100
AcDbEntity
  8
1
 62
     7
100
AcDbMText
 10
5.38425895942453
 20
-152.444845037912
 30
0.0
 40
2.5
 41
0.0
 71
     5
 72
     1
  1
04
  7
CONVERTER_12
 73
     1
 44
0.7202881152461
  0
MTEXT
  5
10A
330
1F
100
AcDbEntity
  8
1
 62
     7
100
AcDbMText
 10
11.13425895942453
 20
-152.444845037912
 30
0.0
 40
2.5
 41
0.0
 71
     5
 72
     1
  1
6
  7
CONVERTER_12
 73
     1
 44
0.7202881152461
  0
MTEXT
  5
10B
330
1F
100
AcDbEntity
  8
1
 62
     7
100
AcDbMText
 10
-10.11574104057544
 20
-147.944845037912
 30
0.0
 40
3.5
 41
0.0
 71
     5
 72
     1
  1
1
  7
CONVERTER_12
 73
     1
 44
0.7202881152461
  0
MTEXT
  5
10C
330
1F
100
AcDbEntity
  8
1
 62
     7
100
AcDbMText
 10
-38.36574104057544
 20
-142.1948450379119
 30
0.0
 40
3.5
 41
0.0
 71
     5
 72
     1
  1
クリ－ンパッキン
  7
CONVERTER_11
 73
     1
 44
0.54545454545455
  0
MTEXT
  5
10D
330
1F
100
AcDbEntity
  8
1
 62
     7
100
AcDbMText
 10
-38.36574104057544
 20
-150.694845037912
 30
0.0
 40
3.5
 41
0.0
 71
     5
 72
     1
  1
H70-90-25A
  7
CONVERTER_12
 73
     1
 44
0.7202881152461
  0
MTEXT
  5
10E
330
1F
100
AcDbEntity
  8
1
 62
     7
100
AcDbMText
 10
-1.61574104057547
 20
-147.944845037912
 30
0.0
 40
3.5
 41
0.0
 71
     5
 72
     1
  1
1
  7
CONVERTER_12
 73
     1
 44
0.7202881152461
  0
DIMENSION
  5
119
330
1F
100
AcDbEntity
  8
1
100
AcDbDimension
  2
*D5
 10
54.24837124996992
 20
-36.55970099058426
 30
0.0
 11
50.74837124996992
 21
-49.42362399652529
 31
0.0
 70
    32
  1
<>
 71
     5
 42
-1.0
 53
90.0
  3
ME10_DIM_10
100
AcDbAlignedDimension
 13
34.38425895942456
 23
-61.55970099058425
 33
0.0
 14
42.13425895942456
 24
-36.55970099058427
 34
0.0
 50
90.0
100
AcDbRotatedDimension
  0
DIMENSION
  5
124
330
1F
100
AcDbEntity
  8
1
100
AcDbDimension
  2
*D6
 10
-7.86574104057544
 20
-26.55970099058427
 30
0.0
 11
17.00427438445523
 21
-23.05970099058427
 31
0.0
 70
    33
  1
<>
 71
     5
 42
-1.0
 53
0.00013888888889
  3
ME10_DIM_11
100
AcDbAlignedDimension
 13
42.13425895942456
 23
-36.55970099058427
 33
0.0
 14
-7.86574104057544
 24
-36.55970099058427
 34
0.0
  0
DIMENSION
  5
12F
330
1F
100
AcDbEntity
  8
1
100
AcDbDimension
  2
*D7
 10
-5.36574104057544
 20
-73.9402474259725
 30
0.0
 11
16.99440028752423
 21
-70.4402474259725
 31
0.0
 70
    33
  1
<>
 71
     5
 42
-1.0
 53
0.00013888888889
  3
ME10_DIM_12
100
AcDbAlignedDimension
 13
39.63425895942456
 23
-56.05970099058425
 33
0.0
 14
-5.36574104057545
 24
-56.05970099058425
 34
0.0
  0
INSERT
  5
137
330
1F
100
AcDbEntity
  8
1
100
AcDbBlockReference
  2
*D8
 10
0.0
 20
0.0
 30
0.0
  0
ENDSEC
  0
SECTION
  2
OBJECTS
  0
DICTIONARY
  5
C
330
0
100
AcDbDictionary
281
     1
  3
ACAD_GROUP
350
D
  3
ACAD_LAYOUT
350
1A
  3
ACAD_MATERIAL
350
3B
  3
ACAD_MLEADERSTYLE
350
13A
  3
ACAD_MLINESTYLE
350
17
  3
ACAD_PLOTSETTINGS
350
19
  3
ACAD_PLOTSTYLENAME
350
E
  3
ACAD_VISUALSTYLE
350
2A
  3
AcDbVariableDictionary
350
138
  0
DICTIONARY
  5
D
102
{ACAD_REACTORS
330
C
102
}
330
C
100
AcDbDictionary
281
     1
  0
DICTIONARY
  5
1A
102
{ACAD_REACTORS
330
C
102
}
330
C
100
AcDbDictionary
281
     1
  3
Layout1
350
1E
  3
Layout2
350
26
  3
Model
350
22
  0
DICTIONARY
  5
3B
102
{ACAD_REACTORS
330
C
102
}
330
C
100
AcDbDictionary
281
     1
  3
ByBlock
350
3D
  3
ByLayer
350
3C
  3
Global
350
3E
  0
DICTIONARY
  5
13A
102
{ACAD_REACTORS
330
C
102
}
330
C
100
AcDbDictionary
281
     1
  0
DICTIONARY
  5
17
102
{ACAD_REACTORS
330
C
102
}
330
C
100
AcDbDictionary
281
     1
  3
Standard
350
18
  0
DICTIONARY
  5
19
102
{ACAD_REACTORS
330
C
102
}
330
C
100
AcDbDictionary
281
     1
  0
ACDBDICTIONARYWDFLT
  5
E
102
{ACAD_REACTORS
330
C
102
}
330
C
100
AcDbDictionary
281
     1
  3
Normal
350
F
100
AcDbDictionaryWithDefault
340
F
  0
DICTIONARY
  5
2A
102
{ACAD_REACTORS
330
C
102
}
330
C
100
AcDbDictionary
281
     1
  3
2dWireframe
350
2F
  3
3D Hidden
350
31
  3
3dWireframe
350
30
  3
Basic
350
32
  3
Brighten
350
36
  3
ColorChange
350
3A
  3
Conceptual
350
34
  3
Dim
350
35
  3
Facepattern
350
39
  3
Flat
350
2B
  3
FlatWithEdges
350
2C
  3
Gouraud
350
2D
  3
GouraudWithEdges
350
2E
  3
Linepattern
350
38
  3
Realistic
350
33
  3
Thicken
350
37
  0
DICTIONARY
  5
138
102
{ACAD_REACTORS
330
C
102
}
330
C
100
AcDbDictionary
281
     1
  3
DIMASSOC
350
13B
  3
HIDETEXT
350
13C
  0
LAYOUT
  5
1E
102
{ACAD_REACTORS
330
1A
102
}
330
1A
100
AcDbPlotSettings
  1

  2
none_device
  4

  6

 40
0.0
 41
0.0
 42
0.0
 43
0.0
 44
0.0
 45
0.0
 46
0.0
 47
0.0
 48
0.0
 49
0.0
140
0.0
141
0.0
142
1.0
143
1.0
 70
   688
 72
     0
 73
     0
 74
     5
  7

 75
    16
147
1.0
148
0.0
149
0.0
100
AcDbLayout
  1
Layout1
 70
     1
 71
     1
 10
0.0
 20
0.0
 11
12.0
 21
9.0
 12
0.0
 22
0.0
 32
0.0
 14
1.00000000000000E+20
 24
1.00000000000000E+20
 34
1.00000000000000E+20
 15
-1.00000000000000E+20
 25
-1.00000000000000E+20
 35
-1.00000000000000E+20
146
0.0
 13
0.0
 23
0.0
 33
0.0
 16
1.0
 26
0.0
 36
0.0
 17
0.0
 27
1.0
 37
0.0
 76
     0
330
1B
  0
LAYOUT
  5
26
102
{ACAD_REACTORS
330
1A
102
}
330
1A
100
AcDbPlotSettings
  1

  2
none_device
  4

  6

 40
0.0
 41
0.0
 42
0.0
 43
0.0
 44
0.0
 45
0.0
 46
0.0
 47
0.0
 48
0.0
 49
0.0
140
0.0
141
0.0
142
1.0
143
1.0
 70
   688
 72
     0
 73
     0
 74
     5
  7

 75
    16
147
1.0
148
0.0
149
0.0
100
AcDbLayout
  1
Layout2
 70
     1
 71
     2
 10
0.0
 20
0.0
 11
0.0
 21
0.0
 12
0.0
 22
0.0
 32
0.0
 14
0.0
 24
0.0
 34
0.0
 15
0.0
 25
0.0
 35
0.0
146
0.0
 13
0.0
 23
0.0
 33
0.0
 16
1.0
 26
0.0
 36
0.0
 17
0.0
 27
1.0
 37
0.0
 76
     0
330
23
  0
LAYOUT
  5
22
102
{ACAD_REACTORS
330
1A
102
}
330
1A
100
AcDbPlotSettings
  1

  2
none_device
  4

  6

 40
0.0
 41
0.0
 42
0.0
 43
0.0
 44
0.0
 45
0.0
 46
0.0
 47
0.0
 48
0.0
 49
0.0
140
0.0
141
0.0
142
1.0
143
1.0
 70
  1712
 72
     0
 73
     0
 74
     0
  7

 75
     0
147
1.0
148
0.0
149
0.0
100
AcDbLayout
  1
Model
 70
     1
 71
     0
 10
0.0
 20
0.0
 11
12.0
 21
9.0
 12
0.0
 22
0.0
 32
0.0
 14
-95.36574104057544
 24
-164.944845037912
 34
0.0
 15
114.6342589594245
 25
132.055154962088
 35
0.0
146
0.0
 13
0.0
 23
0.0
 33
0.0
 16
1.0
 26
0.0
 36
0.0
 17
0.0
 27
1.0
 37
0.0
 76
     0
330
1F
331
29
  0
MATERIAL
  5
3D
102
{ACAD_REACTORS
330
3B
102
}
102
{ACAD_XDICTIONARY
360
15F
102
}
330
3B
100
AcDbMaterial
  1
ByBlock
  0
MATERIAL
  5
3C
102
{ACAD_REACTORS
330
3B
102
}
102
{ACAD_XDICTIONARY
360
15D
102
}
330
3B
100
AcDbMaterial
  1
ByLayer
  0
MATERIAL
  5
3E
102
{ACAD_REACTORS
330
3B
102
}
102
{ACAD_XDICTIONARY
360
161
102
}
330
3B
100
AcDbMaterial
  1
Global
  0
MLINESTYLE
  5
18
102
{ACAD_REACTORS
330
17
102
}
330
17
100
AcDbMlineStyle
  2
Standard
 70
     0
  3

 62
   256
 51
90.0
 52
90.0
 71
     2
 49
0.5
 62
   256
  6
BYLAYER
 49
-0.5
 62
   256
  6
BYLAYER
  0
ACDBPLACEHOLDER
  5
F
102
{ACAD_REACTORS
330
E
102
}
330
E
  0
VISUALSTYLE
  5
2F
102
{ACAD_REACTORS
330
2A
102
}
102
{ACAD_XDICTIONARY
360
145
102
}
330
2A
100
AcDbVisualStyle
  2
2dWireframe
 70
     4
 71
     0
 72
     2
 73
     0
 90
        0
 40
-0.6
 41
-30.0
 62
     5
 63
     7
 74
     1
 91
        4
 64
     7
 65
   257
 75
     1
175
     1
 42
1.0
 92
        0
 66
   257
 43
1.0
 76
     1
 77
     6
 78
     2
 67
     7
 79
     5
170
     0
171
     0
290
     0
174
     0
 93
        1
 44
0.0
173
     0
291
     0
 45
0.0
1001
ACAD
1000
AcDbSavedByObjectVersion
1070
     0
  0
VISUALSTYLE
  5
31
102
{ACAD_REACTORS
330
2A
102
}
102
{ACAD_XDICTIONARY
360
149
102
}
330
2A
100
AcDbVisualStyle
  2
3D Hidden
 70
     6
 71
     1
 72
     2
 73
     2
 90
        0
 40
-0.6
 41
-30.0
 62
     5
 63
     7
 74
     2
 91
        2
 64
     7
 65
   257
 75
     2
175
     1
 42
40.0
 92
        0
 66
   257
 43
1.0
 76
     1
 77
     6
 78
     2
 67
     7
 79
     3
170
     0
171
     0
290
     0
174
     0
 93
        1
 44
0.0
173
     0
291
     0
 45
0.0
1001
ACAD
1000
AcDbSavedByObjectVersion
1070
     0
  0
VISUALSTYLE
  5
30
102
{ACAD_REACTORS
330
2A
102
}
102
{ACAD_XDICTIONARY
360
147
102
}
330
2A
100
AcDbVisualStyle
  2
3dWireframe
 70
     5
 71
     0
 72
     2
 73
     0
 90
        0
 40
-0.6
 41
-30.0
 62
     5
 63
     7
 74
     1
 91
        4
 64
     7
 65
   257
 75
     1
175
     1
 42
1.0
 92
        0
 66
   257
 43
1.0
 76
     1
 77
     6
 78
     2
 67
     7
 79
     5
170
     0
171
     0
290
     0
174
     0
 93
        1
 44
0.0
173
     0
291
     0
 45
0.0
1001
ACAD
1000
AcDbSavedByObjectVersion
1070
     0
  0
VISUALSTYLE
  5
32
102
{ACAD_REACTORS
330
2A
102
}
102
{ACAD_XDICTIONARY
360
14B
102
}
330
2A
100
AcDbVisualStyle
  2
Basic
 70
     7
 71
     1
 72
     0
 73
     1
 90
        0
 40
-0.6
 41
-30.0
 62
     5
 63
     7
 74
     0
 91
        4
 64
     7
 65
   257
 75
     1
175
     1
 42
1.0
 92
        8
 66
     7
 43
1.0
 76
     1
 77
     6
 78
     2
 67
     7
 79
     5
170
     0
171
     0
290
     0
174
     0
 93
        1
 44
0.0
173
     0
291
     1
 45
0.0
1001
ACAD
1000
AcDbSavedByObjectVersion
1070
     0
  0
VISUALSTYLE
  5
36
102
{ACAD_REACTORS
330
2A
102
}
102
{ACAD_XDICTIONARY
360
153
102
}
330
2A
100
AcDbVisualStyle
  2
Brighten
 70
    12
 71
     2
 72
     2
 73
     0
 90
        0
 40
-0.6
 41
-30.0
 62
     5
 63
     7
 74
     1
 91
        4
 64
     7
 65
   257
 75
     1
175
     1
 42
1.0
 92
        8
 66
     7
 43
1.0
 76
     1
 77
     6
 78
     2
 67
     7
 79
     5
170
     0
171
     0
290
     0
174
     0
 93
        1
 44
50.0
173
     0
291
     1
 45
0.0
1001
ACAD
1000
AcDbSavedByObjectVersion
1070
     0
  0
VISUALSTYLE
  5
3A
102
{ACAD_REACTORS
330
2A
102
}
102
{ACAD_XDICTIONARY
360
15B
102
}
330
2A
100
AcDbVisualStyle
  2
ColorChange
 70
    16
 71
     2
 72
     2
 73
     3
 90
        0
 40
-0.6
 41
-30.0
 62
     5
 63
     8
 74
     1
 91
        4
 64
     7
 65
   257
 75
     1
175
     1
 42
1.0
 92
        8
 66
     8
 43
1.0
 76
     1
 77
     6
 78
     2
 67
     7
 79
     5
170
     0
171
     0
290
     0
174
     0
 93
        1
 44
0.0
173
     0
291
     1
 45
0.0
1001
ACAD
1000
AcDbSavedByObjectVersion
1070
     0
  0
VISUALSTYLE
  5
34
102
{ACAD_REACTORS
330
2A
102
}
102
{ACAD_XDICTIONARY
360
14F
102
}
330
2A
100
AcDbVisualStyle
  2
Conceptual
 70
     9
 71
     3
 72
     2
 73
     0
 90
        0
 40
-0.6
 41
-30.0
 62
     5
 63
     7
 74
     2
 91
        2
 64
     7
 65
   257
 75
     1
175
     1
 42
40.0
 92
        8
 66
     7
 43
1.0
 76
     1
 77
     6
 78
     2
 67
     7
 79
     3
170
     0
171
     0
290
     0
174
     0
 93
        1
 44
0.0
173
     0
291
     0
 45
0.0
1001
ACAD
1000
AcDbSavedByObjectVersion
1070
     0
  0
VISUALSTYLE
  5
35
102
{ACAD_REACTORS
330
2A
102
}
102
{ACAD_XDICTIONARY
360
151
102
}
330
2A
100
AcDbVisualStyle
  2
Dim
 70
    11
 71
     2
 72
     2
 73
     0
 90
        0
 40
-0.6
 41
-30.0
 62
     5
 63
     7
 74
     1
 91
        4
 64
     7
 65
   257
 75
     1
175
     1
 42
1.0
 92
        8
 66
     7
 43
1.0
 76
     1
 77
     6
 78
     2
 67
     7
 79
     5
170
     0
171
     0
290
     0
174
     0
 93
        1
 44
-50.0
173
     0
291
     1
 45
0.0
1001
ACAD
1000
AcDbSavedByObjectVersion
1070
     0
  0
VISUALSTYLE
  5
39
102
{ACAD_REACTORS
330
2A
102
}
102
{ACAD_XDICTIONARY
360
159
102
}
330
2A
100
AcDbVisualStyle
  2
Facepattern
 70
    15
 71
     2
 72
     2
 73
     0
 90
        0
 40
-0.6
 41
-30.0
 62
     5
 63
     7
 74
     1
 91
        4
 64
     7
 65
   257
 75
     1
175
     1
 42
1.0
 92
        8
 66
     7
 43
1.0
 76
     1
 77
     6
 78
     2
 67
     7
 79
     5
170
     0
171
     0
290
     0
174
     0
 93
        1
 44
0.0
173
     0
291
     1
 45
0.0
1001
ACAD
1000
AcDbSavedByObjectVersion
1070
     0
  0
VISUALSTYLE
  5
2B
102
{ACAD_REACTORS
330
2A
102
}
102
{ACAD_XDICTIONARY
360
13D
102
}
330
2A
100
AcDbVisualStyle
  2
Flat
 70
     0
 71
     2
 72
     1
 73
     1
 90
        2
 40
-0.6
 41
30.0
 62
     5
 63
     7
 74
     0
 91
        4
 64
     7
 65
   257
 75
     1
175
     1
 42
1.0
 92
        8
 66
     7
 43
1.0
 76
     1
 77
     6
 78
     2
 67
     7
 79
     5
170
     0
171
     0
290
     0
174
     0
 93
       13
 44
0.0
173
     0
291
     1
 45
0.0
1001
ACAD
1000
AcDbSavedByObjectVersion
1070
     0
  0
VISUALSTYLE
  5
2C
102
{ACAD_REACTORS
330
2A
102
}
102
{ACAD_XDICTIONARY
360
13F
102
}
330
2A
100
AcDbVisualStyle
  2
FlatWithEdges
 70
     1
 71
     2
 72
     1
 73
     1
 90
        2
 40
-0.6
 41
30.0
 62
     5
 63
     7
 74
     1
 91
        4
 64
     7
 65
   257
 75
     1
175
     1
 42
1.0
 92
        0
 66
   257
 43
1.0
 76
     1
 77
     6
 78
     2
 67
     7
 79
     5
170
     0
171
     0
290
     0
174
     0
 93
       13
 44
0.0
173
     0
291
     1
 45
0.0
1001
ACAD
1000
AcDbSavedByObjectVersion
1070
     0
  0
VISUALSTYLE
  5
2D
102
{ACAD_REACTORS
330
2A
102
}
102
{ACAD_XDICTIONARY
360
141
102
}
330
2A
100
AcDbVisualStyle
  2
Gouraud
 70
     2
 71
     2
 72
     2
 73
     1
 90
        2
 40
-0.6
 41
30.0
 62
     5
 63
     7
 74
     0
 91
        4
 64
     7
 65
   257
 75
     1
175
     1
 42
1.0
 92
        0
 66
     7
 43
1.0
 76
     1
 77
     6
 78
     2
 67
     7
 79
     5
170
     0
171
     0
290
     0
174
     0
 93
       13
 44
0.0
173
     0
291
     1
 45
0.0
1001
ACAD
1000
AcDbSavedByObjectVersion
1070
     0
  0
VISUALSTYLE
  5
2E
102
{ACAD_REACTORS
330
2A
102
}
102
{ACAD_XDICTIONARY
360
143
102
}
330
2A
100
AcDbVisualStyle
  2
GouraudWithEdges
 70
     3
 71
     2
 72
     2
 73
     1
 90
        2
 40
-0.6
 41
30.0
 62
     5
 63
     7
 74
     1
 91
        4
 64
     7
 65
   257
 75
     1
175
     1
 42
1.0
 92
        0
 66
   257
 43
1.0
 76
     1
 77
     6
 78
     2
 67
     7
 79
     5
170
     0
171
     0
290
     0
174
     0
 93
       13
 44
0.0
173
     0
291
     1
 45
0.0
1001
ACAD
1000
AcDbSavedByObjectVersion
1070
     0
  0
VISUALSTYLE
  5
38
102
{ACAD_REACTORS
330
2A
102
}
102
{ACAD_XDICTIONARY
360
157
102
}
330
2A
100
AcDbVisualStyle
  2
Linepattern
 70
    14
 71
     2
 72
     2
 73
     0
 90
        0
 40
-0.6
 41
-30.0
 62
     5
 63
     7
 74
     1
 91
        4
 64
     7
 65
   257
 75
     7
175
     7
 42
1.0
 92
        8
 66
     7
 43
1.0
 76
     1
 77
     6
 78
     2
 67
     7
 79
     5
170
     0
171
     0
290
     0
174
     0
 93
        1
 44
0.0
173
     0
291
     1
 45
0.0
1001
ACAD
1000
AcDbSavedByObjectVersion
1070
     0
  0
VISUALSTYLE
  5
33
102
{ACAD_REACTORS
330
2A
102
}
102
{ACAD_XDICTIONARY
360
14D
102
}
330
2A
100
AcDbVisualStyle
  2
Realistic
 70
     8
 71
     2
 72
     2
 73
     0
 90
        0
 40
-0.6
 41
-30.0
 62
     5
 63
     7
 74
     1
 91
        0
 64
     7
 65
   257
 75
     1
175
     1
 42
1.0
 92
        8
 66
     8
 43
1.0
 76
     1
 77
     6
 78
     2
 67
     7
 79
     5
170
     0
171
     0
290
     0
174
     0
 93
       13
 44
0.0
173
     0
291
     0
 45
0.0
1001
ACAD
1000
AcDbSavedByObjectVersion
1070
     0
  0
VISUALSTYLE
  5
37
102
{ACAD_REACTORS
330
2A
102
}
102
{ACAD_XDICTIONARY
360
155
102
}
330
2A
100
AcDbVisualStyle
  2
Thicken
 70
    13
 71
     2
 72
     2
 73
     0
 90
        0
 40
-0.6
 41
-30.0
 62
     5
 63
     7
 74
     1
 91
        4
 64
     7
 65
   257
 75
     1
175
     1
 42
1.0
 92
       12
 66
     7
 43
1.0
 76
     1
 77
     6
 78
     2
 67
     7
 79
     5
170
     0
171
     0
290
     0
174
     0
 93
        1
 44
0.0
173
     0
291
     1
 45
0.0
1001
ACAD
1000
AcDbSavedByObjectVersion
1070
     0
  0
DICTIONARYVAR
  5
13B
102
{ACAD_REACTORS
330
138
102
}
330
138
100
DictionaryVariables
280
     0
  1
2
  0
DICTIONARYVAR
  5
13C
102
{ACAD_REACTORS
330
138
102
}
330
138
100
DictionaryVariables
280
     0
  1
1
  0
DICTIONARY
  5
15F
330
3D
100
AcDbDictionary
280
     1
281
     1
  3
ACAD_XREC_ROUNDTRIP
360
160
  0
DICTIONARY
  5
15D
330
3C
100
AcDbDictionary
280
     1
281
     1
  3
ACAD_XREC_ROUNDTRIP
360
15E
  0
DICTIONARY
  5
161
330
3E
100
AcDbDictionary
280
     1
281
     1
  3
ACAD_XREC_ROUNDTRIP
360
162
  0
DICTIONARY
  5
145
330
2F
100
AcDbDictionary
280
     1
281
     1
  3
ACAD_XREC_ROUNDTRIP
360
146
  0
DICTIONARY
  5
149
330
31
100
AcDbDictionary
280
     1
281
     1
  3
ACAD_XREC_ROUNDTRIP
360
14A
  0
DICTIONARY
  5
147
330
30
100
AcDbDictionary
280
     1
281
     1
  3
ACAD_XREC_ROUNDTRIP
360
148
  0
DICTIONARY
  5
14B
330
32
100
AcDbDictionary
280
     1
281
     1
  3
ACAD_XREC_ROUNDTRIP
360
14C
  0
DICTIONARY
  5
153
330
36
100
AcDbDictionary
280
     1
281
     1
  3
ACAD_XREC_ROUNDTRIP
360
154
  0
DICTIONARY
  5
15B
330
3A
100
AcDbDictionary
280
     1
281
     1
  3
ACAD_XREC_ROUNDTRIP
360
15C
  0
DICTIONARY
  5
14F
330
34
100
AcDbDictionary
280
     1
281
     1
  3
ACAD_XREC_ROUNDTRIP
360
150
  0
DICTIONARY
  5
151
330
35
100
AcDbDictionary
280
     1
281
     1
  3
ACAD_XREC_ROUNDTRIP
360
152
  0
DICTIONARY
  5
159
330
39
100
AcDbDictionary
280
     1
281
     1
  3
ACAD_XREC_ROUNDTRIP
360
15A
  0
DICTIONARY
  5
13D
330
2B
100
AcDbDictionary
280
     1
281
     1
  3
ACAD_XREC_ROUNDTRIP
360
13E
  0
DICTIONARY
  5
13F
330
2C
100
AcDbDictionary
280
     1
281
     1
  3
ACAD_XREC_ROUNDTRIP
360
140
  0
DICTIONARY
  5
141
330
2D
100
AcDbDictionary
280
     1
281
     1
  3
ACAD_XREC_ROUNDTRIP
360
142
  0
DICTIONARY
  5
143
330
2E
100
AcDbDictionary
280
     1
281
     1
  3
ACAD_XREC_ROUNDTRIP
360
144
  0
DICTIONARY
  5
157
330
38
100
AcDbDictionary
280
     1
281
     1
  3
ACAD_XREC_ROUNDTRIP
360
158
  0
DICTIONARY
  5
14D
330
33
100
AcDbDictionary
280
     1
281
     1
  3
ACAD_XREC_ROUNDTRIP
360
14E
  0
DICTIONARY
  5
155
330
37
100
AcDbDictionary
280
     1
281
     1
  3
ACAD_XREC_ROUNDTRIP
360
156
  0
XRECORD
  5
160
102
{ACAD_REACTORS
330
15F
102
}
330
15F
100
AcDbXrecord
280
     1
102
MATERIAL
148
0.0
149
0.0
149
0.0
 93
        0
 94
      127
282
     0
 72
     1
 77
     1
171
     1
175
     1
179
     1
273
     0
  0
XRECORD
  5
15E
102
{ACAD_REACTORS
330
15D
102
}
330
15D
100
AcDbXrecord
280
     1
102
MATERIAL
148
0.0
149
0.0
149
0.0
 93
        0
 94
      127
282
     0
 72
     1
 77
     1
171
     1
175
     1
179
     1
273
     0
  0
XRECORD
  5
162
102
{ACAD_REACTORS
330
161
102
}
330
161
100
AcDbXrecord
280
     1
102
MATERIAL
148
0.0
149
0.0
149
0.0
 93
        0
 94
      127
282
     0
 72
     1
 77
     1
171
     1
175
     1
179
     1
273
     0
  0
XRECORD
  5
146
102
{ACAD_REACTORS
330
145
102
}
330
145
100
AcDbXrecord
280
     1
102
RTVSPropertyOp0
 70
     1
102
RTVSPropertyOp1
 70
     1
102
RTVSPropertyOp2
 70
     1
102
RTVSPropertyOp3
 70
     1
102
RTVSPropertyOp4
 70
     1
102
RTVSPropertyOp5
 70
     1
102
RTVSPropertyOp6
 70
     1
102
RTVSPropertyOp7
 70
     1
102
RTVSPropertyOp8
 70
     1
102
RTVSPropertyOp9
 70
     1
102
RTVSPropertyOp10
 70
     1
102
RTVSPropertyOp11
 70
     1
102
RTVSPropertyOp12
 70
     1
102
RTVSPropertyOp13
 70
     1
102
RTVSPropertyOp14
 70
     1
102
RTVSPropertyOp15
 70
     1
102
RTVSPropertyOp16
 70
     1
102
RTVSPropertyOp17
 70
     1
102
RTVSPropertyOp18
 70
     1
102
RTVSPropertyOp19
 70
     1
102
RTVSPropertyOp20
 70
     1
102
RTVSPropertyOp21
 70
     1
102
RTVSPropertyOp22
 70
     1
102
RTVSPropertyOp23
 70
     1
102
RTVSPropertyOp24
 70
     1
102
RTVSPropertyOp25
 70
     1
102
RTVSPropertyOp26
 70
     1
102
RTVSPropertyOp27
 70
     1
102
RTVSPropertyOp28
 70
     1
102
RTVSPropertyOp29
 70
     1
102
RTVSPropertyOp30
 70
     1
102
RTVSPropertyOp31
 70
     1
102
RTVSPropertyOp32
 70
     1
  0
XRECORD
  5
14A
102
{ACAD_REACTORS
330
149
102
}
330
149
100
AcDbXrecord
280
     1
102
RTVSPropertyOp0
 70
     1
102
RTVSPropertyOp1
 70
     1
102
RTVSPropertyOp2
 70
     1
102
RTVSPropertyOp3
 70
     1
102
RTVSPropertyOp4
 70
     1
102
RTVSPropertyOp5
 70
     1
102
RTVSPropertyOp6
 70
     1
102
RTVSPropertyOp7
 70
     1
102
RTVSPropertyOp8
 70
     1
102
RTVSPropertyOp9
 70
     1
102
RTVSPropertyOp10
 70
     1
102
RTVSPropertyOp11
 70
     1
102
RTVSPropertyOp12
 70
     1
102
RTVSPropertyOp13
 70
     1
102
RTVSPropertyOp14
 70
     1
102
RTVSPropertyOp15
 70
     1
102
RTVSPropertyOp16
 70
     1
102
RTVSPropertyOp17
 70
     1
102
RTVSPropertyOp18
 70
     1
102
RTVSPropertyOp19
 70
     1
102
RTVSPropertyOp20
 70
     1
102
RTVSPropertyOp21
 70
     1
102
RTVSPropertyOp22
 70
     1
102
RTVSPropertyOp23
 70
     1
102
RTVSPropertyOp24
 70
     1
102
RTVSPropertyOp25
 70
     1
102
RTVSPropertyOp26
 70
     1
102
RTVSPropertyOp27
 70
     1
102
RTVSPropertyOp28
 70
     1
102
RTVSPropertyOp29
 70
     1
102
RTVSPropertyOp30
 70
     1
102
RTVSPropertyOp31
 70
     1
102
RTVSPropertyOp32
 70
     1
  0
XRECORD
  5
148
102
{ACAD_REACTORS
330
147
102
}
330
147
100
AcDbXrecord
280
     1
102
RTVSPropertyOp0
 70
     1
102
RTVSPropertyOp1
 70
     1
102
RTVSPropertyOp2
 70
     1
102
RTVSPropertyOp3
 70
     1
102
RTVSPropertyOp4
 70
     1
102
RTVSPropertyOp5
 70
     1
102
RTVSPropertyOp6
 70
     1
102
RTVSPropertyOp7
 70
     1
102
RTVSPropertyOp8
 70
     1
102
RTVSPropertyOp9
 70
     1
102
RTVSPropertyOp10
 70
     1
102
RTVSPropertyOp11
 70
     1
102
RTVSPropertyOp12
 70
     1
102
RTVSPropertyOp13
 70
     1
102
RTVSPropertyOp14
 70
     1
102
RTVSPropertyOp15
 70
     1
102
RTVSPropertyOp16
 70
     1
102
RTVSPropertyOp17
 70
     1
102
RTVSPropertyOp18
 70
     1
102
RTVSPropertyOp19
 70
     1
102
RTVSPropertyOp20
 70
     1
102
RTVSPropertyOp21
 70
     1
102
RTVSPropertyOp22
 70
     1
102
RTVSPropertyOp23
 70
     1
102
RTVSPropertyOp24
 70
     1
102
RTVSPropertyOp25
 70
     1
102
RTVSPropertyOp26
 70
     1
102
RTVSPropertyOp27
 70
     1
102
RTVSPropertyOp28
 70
     1
102
RTVSPropertyOp29
 70
     1
102
RTVSPropertyOp30
 70
     1
102
RTVSPropertyOp31
 70
     1
102
RTVSPropertyOp32
 70
     1
  0
XRECORD
  5
14C
102
{ACAD_REACTORS
330
14B
102
}
330
14B
100
AcDbXrecord
280
     1
102
RTVSPropertyOp0
 70
     1
102
RTVSPropertyOp1
 70
     1
102
RTVSPropertyOp2
 70
     1
102
RTVSPropertyOp3
 70
     1
102
RTVSPropertyOp4
 70
     1
102
RTVSPropertyOp5
 70
     1
102
RTVSPropertyOp6
 70
     1
102
RTVSPropertyOp7
 70
     1
102
RTVSPropertyOp8
 70
     1
102
RTVSPropertyOp9
 70
     1
102
RTVSPropertyOp10
 70
     1
102
RTVSPropertyOp11
 70
     1
102
RTVSPropertyOp12
 70
     1
102
RTVSPropertyOp13
 70
     1
102
RTVSPropertyOp14
 70
     1
102
RTVSPropertyOp15
 70
     1
102
RTVSPropertyOp16
 70
     1
102
RTVSPropertyOp17
 70
     1
102
RTVSPropertyOp18
 70
     1
102
RTVSPropertyOp19
 70
     1
102
RTVSPropertyOp20
 70
     1
102
RTVSPropertyOp21
 70
     1
102
RTVSPropertyOp22
 70
     1
102
RTVSPropertyOp23
 70
     1
102
RTVSPropertyOp24
 70
     1
102
RTVSPropertyOp25
 70
     1
102
RTVSPropertyOp26
 70
     1
102
RTVSPropertyOp27
 70
     1
102
RTVSPropertyOp28
 70
     1
102
RTVSPropertyOp29
 70
     1
102
RTVSPropertyOp30
 70
     1
102
RTVSPropertyOp31
 70
     1
102
RTVSPropertyOp32
 70
     1
  0
XRECORD
  5
154
102
{ACAD_REACTORS
330
153
102
}
330
153
100
AcDbXrecord
280
     1
102
RTVSPropertyOp0
 70
     1
102
RTVSPropertyOp1
 70
     1
102
RTVSPropertyOp2
 70
     1
102
RTVSPropertyOp3
 70
     1
102
RTVSPropertyOp4
 70
     1
102
RTVSPropertyOp5
 70
     1
102
RTVSPropertyOp6
 70
     1
102
RTVSPropertyOp7
 70
     1
102
RTVSPropertyOp8
 70
     1
102
RTVSPropertyOp9
 70
     1
102
RTVSPropertyOp10
 70
     1
102
RTVSPropertyOp11
 70
     1
102
RTVSPropertyOp12
 70
     1
102
RTVSPropertyOp13
 70
     1
102
RTVSPropertyOp14
 70
     1
102
RTVSPropertyOp15
 70
     1
102
RTVSPropertyOp16
 70
     1
102
RTVSPropertyOp17
 70
     1
102
RTVSPropertyOp18
 70
     1
102
RTVSPropertyOp19
 70
     1
102
RTVSPropertyOp20
 70
     1
102
RTVSPropertyOp21
 70
     1
102
RTVSPropertyOp22
 70
     1
102
RTVSPropertyOp23
 70
     1
102
RTVSPropertyOp24
 70
     1
102
RTVSPropertyOp25
 70
     1
102
RTVSPropertyOp26
 70
     1
102
RTVSPropertyOp27
 70
     1
102
RTVSPropertyOp28
 70
     1
102
RTVSPropertyOp29
 70
     1
102
RTVSPropertyOp30
 70
     1
102
RTVSPropertyOp31
 70
     1
102
RTVSPropertyOp32
 70
     1
  0
XRECORD
  5
15C
102
{ACAD_REACTORS
330
15B
102
}
330
15B
100
AcDbXrecord
280
     1
102
RTVSPropertyOp0
 70
     1
102
RTVSPropertyOp1
 70
     1
102
RTVSPropertyOp2
 70
     1
102
RTVSPropertyOp3
 70
     1
102
RTVSPropertyOp4
 70
     1
102
RTVSPropertyOp5
 70
     1
102
RTVSPropertyOp6
 70
     1
102
RTVSPropertyOp7
 70
     1
102
RTVSPropertyOp8
 70
     1
102
RTVSPropertyOp9
 70
     1
102
RTVSPropertyOp10
 70
     1
102
RTVSPropertyOp11
 70
     1
102
RTVSPropertyOp12
 70
     1
102
RTVSPropertyOp13
 70
     1
102
RTVSPropertyOp14
 70
     1
102
RTVSPropertyOp15
 70
     1
102
RTVSPropertyOp16
 70
     1
102
RTVSPropertyOp17
 70
     1
102
RTVSPropertyOp18
 70
     1
102
RTVSPropertyOp19
 70
     1
102
RTVSPropertyOp20
 70
     1
102
RTVSPropertyOp21
 70
     1
102
RTVSPropertyOp22
 70
     1
102
RTVSPropertyOp23
 70
     1
102
RTVSPropertyOp24
 70
     1
102
RTVSPropertyOp25
 70
     1
102
RTVSPropertyOp26
 70
     1
102
RTVSPropertyOp27
 70
     1
102
RTVSPropertyOp28
 70
     1
102
RTVSPropertyOp29
 70
     1
102
RTVSPropertyOp30
 70
     1
102
RTVSPropertyOp31
 70
     1
102
RTVSPropertyOp32
 70
     1
  0
XRECORD
  5
150
102
{ACAD_REACTORS
330
14F
102
}
330
14F
100
AcDbXrecord
280
     1
102
RTVSPropertyOp0
 70
     1
102
RTVSPropertyOp1
 70
     1
102
RTVSPropertyOp2
 70
     1
102
RTVSPropertyOp3
 70
     1
102
RTVSPropertyOp4
 70
     1
102
RTVSPropertyOp5
 70
     1
102
RTVSPropertyOp6
 70
     1
102
RTVSPropertyOp7
 70
     1
102
RTVSPropertyOp8
 70
     1
102
RTVSPropertyOp9
 70
     1
102
RTVSPropertyOp10
 70
     1
102
RTVSPropertyOp11
 70
     1
102
RTVSPropertyOp12
 70
     1
102
RTVSPropertyOp13
 70
     1
102
RTVSPropertyOp14
 70
     1
102
RTVSPropertyOp15
 70
     1
102
RTVSPropertyOp16
 70
     1
102
RTVSPropertyOp17
 70
     1
102
RTVSPropertyOp18
 70
     1
102
RTVSPropertyOp19
 70
     1
102
RTVSPropertyOp20
 70
     1
102
RTVSPropertyOp21
 70
     1
102
RTVSPropertyOp22
 70
     1
102
RTVSPropertyOp23
 70
     1
102
RTVSPropertyOp24
 70
     1
102
RTVSPropertyOp25
 70
     1
102
RTVSPropertyOp26
 70
     1
102
RTVSPropertyOp27
 70
     1
102
RTVSPropertyOp28
 70
     1
102
RTVSPropertyOp29
 70
     1
102
RTVSPropertyOp30
 70
     1
102
RTVSPropertyOp31
 70
     1
102
RTVSPropertyOp32
 70
     1
  0
XRECORD
  5
152
102
{ACAD_REACTORS
330
151
102
}
330
151
100
AcDbXrecord
280
     1
102
RTVSPropertyOp0
 70
     1
102
RTVSPropertyOp1
 70
     1
102
RTVSPropertyOp2
 70
     1
102
RTVSPropertyOp3
 70
     1
102
RTVSPropertyOp4
 70
     1
102
RTVSPropertyOp5
 70
     1
102
RTVSPropertyOp6
 70
     1
102
RTVSPropertyOp7
 70
     1
102
RTVSPropertyOp8
 70
     1
102
RTVSPropertyOp9
 70
     1
102
RTVSPropertyOp10
 70
     1
102
RTVSPropertyOp11
 70
     1
102
RTVSPropertyOp12
 70
     1
102
RTVSPropertyOp13
 70
     1
102
RTVSPropertyOp14
 70
     1
102
RTVSPropertyOp15
 70
     1
102
RTVSPropertyOp16
 70
     1
102
RTVSPropertyOp17
 70
     1
102
RTVSPropertyOp18
 70
     1
102
RTVSPropertyOp19
 70
     1
102
RTVSPropertyOp20
 70
     1
102
RTVSPropertyOp21
 70
     1
102
RTVSPropertyOp22
 70
     1
102
RTVSPropertyOp23
 70
     1
102
RTVSPropertyOp24
 70
     1
102
RTVSPropertyOp25
 70
     1
102
RTVSPropertyOp26
 70
     1
102
RTVSPropertyOp27
 70
     1
102
RTVSPropertyOp28
 70
     1
102
RTVSPropertyOp29
 70
     1
102
RTVSPropertyOp30
 70
     1
102
RTVSPropertyOp31
 70
     1
102
RTVSPropertyOp32
 70
     1
  0
XRECORD
  5
15A
102
{ACAD_REACTORS
330
159
102
}
330
159
100
AcDbXrecord
280
     1
102
RTVSPropertyOp0
 70
     1
102
RTVSPropertyOp1
 70
     1
102
RTVSPropertyOp2
 70
     1
102
RTVSPropertyOp3
 70
     1
102
RTVSPropertyOp4
 70
     1
102
RTVSPropertyOp5
 70
     1
102
RTVSPropertyOp6
 70
     1
102
RTVSPropertyOp7
 70
     1
102
RTVSPropertyOp8
 70
     1
102
RTVSPropertyOp9
 70
     1
102
RTVSPropertyOp10
 70
     1
102
RTVSPropertyOp11
 70
     1
102
RTVSPropertyOp12
 70
     1
102
RTVSPropertyOp13
 70
     1
102
RTVSPropertyOp14
 70
     1
102
RTVSPropertyOp15
 70
     1
102
RTVSPropertyOp16
 70
     1
102
RTVSPropertyOp17
 70
     1
102
RTVSPropertyOp18
 70
     1
102
RTVSPropertyOp19
 70
     1
102
RTVSPropertyOp20
 70
     1
102
RTVSPropertyOp21
 70
     1
102
RTVSPropertyOp22
 70
     1
102
RTVSPropertyOp23
 70
     1
102
RTVSPropertyOp24
 70
     1
102
RTVSPropertyOp25
 70
     1
102
RTVSPropertyOp26
 70
     1
102
RTVSPropertyOp27
 70
     1
102
RTVSPropertyOp28
 70
     1
102
RTVSPropertyOp29
 70
     1
102
RTVSPropertyOp30
 70
     1
102
RTVSPropertyOp31
 70
     1
102
RTVSPropertyOp32
 70
     1
  0
XRECORD
  5
13E
102
{ACAD_REACTORS
330
13D
102
}
330
13D
100
AcDbXrecord
280
     1
102
RTVSPropertyOp0
 70
     1
102
RTVSPropertyOp1
 70
     1
102
RTVSPropertyOp2
 70
     1
102
RTVSPropertyOp3
 70
     1
102
RTVSPropertyOp4
 70
     1
102
RTVSPropertyOp5
 70
     1
102
RTVSPropertyOp6
 70
     1
102
RTVSPropertyOp7
 70
     1
102
RTVSPropertyOp8
 70
     1
102
RTVSPropertyOp9
 70
     1
102
RTVSPropertyOp10
 70
     1
102
RTVSPropertyOp11
 70
     1
102
RTVSPropertyOp12
 70
     1
102
RTVSPropertyOp13
 70
     1
102
RTVSPropertyOp14
 70
     1
102
RTVSPropertyOp15
 70
     1
102
RTVSPropertyOp16
 70
     1
102
RTVSPropertyOp17
 70
     1
102
RTVSPropertyOp18
 70
     1
102
RTVSPropertyOp19
 70
     1
102
RTVSPropertyOp20
 70
     1
102
RTVSPropertyOp21
 70
     1
102
RTVSPropertyOp22
 70
     1
102
RTVSPropertyOp23
 70
     1
102
RTVSPropertyOp24
 70
     1
102
RTVSPropertyOp25
 70
     1
102
RTVSPropertyOp26
 70
     1
102
RTVSPropertyOp27
 70
     1
102
RTVSPropertyOp28
 70
     1
102
RTVSPropertyOp29
 70
     1
102
RTVSPropertyOp30
 70
     1
102
RTVSPropertyOp31
 70
     1
102
RTVSPropertyOp32
 70
     1
  0
XRECORD
  5
140
102
{ACAD_REACTORS
330
13F
102
}
330
13F
100
AcDbXrecord
280
     1
102
RTVSPropertyOp0
 70
     1
102
RTVSPropertyOp1
 70
     1
102
RTVSPropertyOp2
 70
     1
102
RTVSPropertyOp3
 70
     1
102
RTVSPropertyOp4
 70
     1
102
RTVSPropertyOp5
 70
     1
102
RTVSPropertyOp6
 70
     1
102
RTVSPropertyOp7
 70
     1
102
RTVSPropertyOp8
 70
     1
102
RTVSPropertyOp9
 70
     1
102
RTVSPropertyOp10
 70
     1
102
RTVSPropertyOp11
 70
     1
102
RTVSPropertyOp12
 70
     1
102
RTVSPropertyOp13
 70
     1
102
RTVSPropertyOp14
 70
     1
102
RTVSPropertyOp15
 70
     1
102
RTVSPropertyOp16
 70
     1
102
RTVSPropertyOp17
 70
     1
102
RTVSPropertyOp18
 70
     1
102
RTVSPropertyOp19
 70
     1
102
RTVSPropertyOp20
 70
     1
102
RTVSPropertyOp21
 70
     1
102
RTVSPropertyOp22
 70
     1
102
RTVSPropertyOp23
 70
     1
102
RTVSPropertyOp24
 70
     1
102
RTVSPropertyOp25
 70
     1
102
RTVSPropertyOp26
 70
     1
102
RTVSPropertyOp27
 70
     1
102
RTVSPropertyOp28
 70
     1
102
RTVSPropertyOp29
 70
     1
102
RTVSPropertyOp30
 70
     1
102
RTVSPropertyOp31
 70
     1
102
RTVSPropertyOp32
 70
     1
  0
XRECORD
  5
142
102
{ACAD_REACTORS
330
141
102
}
330
141
100
AcDbXrecord
280
     1
102
RTVSPropertyOp0
 70
     1
102
RTVSPropertyOp1
 70
     1
102
RTVSPropertyOp2
 70
     1
102
RTVSPropertyOp3
 70
     1
102
RTVSPropertyOp4
 70
     1
102
RTVSPropertyOp5
 70
     1
102
RTVSPropertyOp6
 70
     1
102
RTVSPropertyOp7
 70
     1
102
RTVSPropertyOp8
 70
     1
102
RTVSPropertyOp9
 70
     1
102
RTVSPropertyOp10
 70
     1
102
RTVSPropertyOp11
 70
     1
102
RTVSPropertyOp12
 70
     1
102
RTVSPropertyOp13
 70
     1
102
RTVSPropertyOp14
 70
     1
102
RTVSPropertyOp15
 70
     1
102
RTVSPropertyOp16
 70
     1
102
RTVSPropertyOp17
 70
     1
102
RTVSPropertyOp18
 70
     1
102
RTVSPropertyOp19
 70
     1
102
RTVSPropertyOp20
 70
     1
102
RTVSPropertyOp21
 70
     1
102
RTVSPropertyOp22
 70
     1
102
RTVSPropertyOp23
 70
     1
102
RTVSPropertyOp24
 70
     1
102
RTVSPropertyOp25
 70
     1
102
RTVSPropertyOp26
 70
     1
102
RTVSPropertyOp27
 70
     1
102
RTVSPropertyOp28
 70
     1
102
RTVSPropertyOp29
 70
     1
102
RTVSPropertyOp30
 70
     1
102
RTVSPropertyOp31
 70
     1
102
RTVSPropertyOp32
 70
     1
  0
XRECORD
  5
144
102
{ACAD_REACTORS
330
143
102
}
330
143
100
AcDbXrecord
280
     1
102
RTVSPropertyOp0
 70
     1
102
RTVSPropertyOp1
 70
     1
102
RTVSPropertyOp2
 70
     1
102
RTVSPropertyOp3
 70
     1
102
RTVSPropertyOp4
 70
     1
102
RTVSPropertyOp5
 70
     1
102
RTVSPropertyOp6
 70
     1
102
RTVSPropertyOp7
 70
     1
102
RTVSPropertyOp8
 70
     1
102
RTVSPropertyOp9
 70
     1
102
RTVSPropertyOp10
 70
     1
102
RTVSPropertyOp11
 70
     1
102
RTVSPropertyOp12
 70
     1
102
RTVSPropertyOp13
 70
     1
102
RTVSPropertyOp14
 70
     1
102
RTVSPropertyOp15
 70
     1
102
RTVSPropertyOp16
 70
     1
102
RTVSPropertyOp17
 70
     1
102
RTVSPropertyOp18
 70
     1
102
RTVSPropertyOp19
 70
     1
102
RTVSPropertyOp20
 70
     1
102
RTVSPropertyOp21
 70
     1
102
RTVSPropertyOp22
 70
     1
102
RTVSPropertyOp23
 70
     1
102
RTVSPropertyOp24
 70
     1
102
RTVSPropertyOp25
 70
     1
102
RTVSPropertyOp26
 70
     1
102
RTVSPropertyOp27
 70
     1
102
RTVSPropertyOp28
 70
     1
102
RTVSPropertyOp29
 70
     1
102
RTVSPropertyOp30
 70
     1
102
RTVSPropertyOp31
 70
     1
102
RTVSPropertyOp32
 70
     1
  0
XRECORD
  5
158
102
{ACAD_REACTORS
330
157
102
}
330
157
100
AcDbXrecord
280
     1
102
RTVSPropertyOp0
 70
     1
102
RTVSPropertyOp1
 70
     1
102
RTVSPropertyOp2
 70
     1
102
RTVSPropertyOp3
 70
     1
102
RTVSPropertyOp4
 70
     1
102
RTVSPropertyOp5
 70
     1
102
RTVSPropertyOp6
 70
     1
102
RTVSPropertyOp7
 70
     1
102
RTVSPropertyOp8
 70
     1
102
RTVSPropertyOp9
 70
     1
102
RTVSPropertyOp10
 70
     1
102
RTVSPropertyOp11
 70
     1
102
RTVSPropertyOp12
 70
     1
102
RTVSPropertyOp13
 70
     1
102
RTVSPropertyOp14
 70
     1
102
RTVSPropertyOp15
 70
     1
102
RTVSPropertyOp16
 70
     1
102
RTVSPropertyOp17
 70
     1
102
RTVSPropertyOp18
 70
     1
102
RTVSPropertyOp19
 70
     1
102
RTVSPropertyOp20
 70
     1
102
RTVSPropertyOp21
 70
     1
102
RTVSPropertyOp22
 70
     1
102
RTVSPropertyOp23
 70
     1
102
RTVSPropertyOp24
 70
     1
102
RTVSPropertyOp25
 70
     1
102
RTVSPropertyOp26
 70
     1
102
RTVSPropertyOp27
 70
     1
102
RTVSPropertyOp28
 70
     1
102
RTVSPropertyOp29
 70
     1
102
RTVSPropertyOp30
 70
     1
102
RTVSPropertyOp31
 70
     1
102
RTVSPropertyOp32
 70
     1
  0
XRECORD
  5
14E
102
{ACAD_REACTORS
330
14D
102
}
330
14D
100
AcDbXrecord
280
     1
102
RTVSPropertyOp0
 70
     1
102
RTVSPropertyOp1
 70
     1
102
RTVSPropertyOp2
 70
     1
102
RTVSPropertyOp3
 70
     1
102
RTVSPropertyOp4
 70
     1
102
RTVSPropertyOp5
 70
     1
102
RTVSPropertyOp6
 70
     1
102
RTVSPropertyOp7
 70
     1
102
RTVSPropertyOp8
 70
     1
102
RTVSPropertyOp9
 70
     1
102
RTVSPropertyOp10
 70
     1
102
RTVSPropertyOp11
 70
     1
102
RTVSPropertyOp12
 70
     1
102
RTVSPropertyOp13
 70
     1
102
RTVSPropertyOp14
 70
     1
102
RTVSPropertyOp15
 70
     1
102
RTVSPropertyOp16
 70
     1
102
RTVSPropertyOp17
 70
     1
102
RTVSPropertyOp18
 70
     1
102
RTVSPropertyOp19
 70
     1
102
RTVSPropertyOp20
 70
     1
102
RTVSPropertyOp21
 70
     1
102
RTVSPropertyOp22
 70
     1
102
RTVSPropertyOp23
 70
     1
102
RTVSPropertyOp24
 70
     1
102
RTVSPropertyOp25
 70
     1
102
RTVSPropertyOp26
 70
     1
102
RTVSPropertyOp27
 70
     1
102
RTVSPropertyOp28
 70
     1
102
RTVSPropertyOp29
 70
     1
102
RTVSPropertyOp30
 70
     1
102
RTVSPropertyOp31
 70
     1
102
RTVSPropertyOp32
 70
     1
  0
XRECORD
  5
156
102
{ACAD_REACTORS
330
155
102
}
330
155
100
AcDbXrecord
280
     1
102
RTVSPropertyOp0
 70
     1
102
RTVSPropertyOp1
 70
     1
102
RTVSPropertyOp2
 70
     1
102
RTVSPropertyOp3
 70
     1
102
RTVSPropertyOp4
 70
     1
102
RTVSPropertyOp5
 70
     1
102
RTVSPropertyOp6
 70
     1
102
RTVSPropertyOp7
 70
     1
102
RTVSPropertyOp8
 70
     1
102
RTVSPropertyOp9
 70
     1
102
RTVSPropertyOp10
 70
     1
102
RTVSPropertyOp11
 70
     1
102
RTVSPropertyOp12
 70
     1
102
RTVSPropertyOp13
 70
     1
102
RTVSPropertyOp14
 70
     1
102
RTVSPropertyOp15
 70
     1
102
RTVSPropertyOp16
 70
     1
102
RTVSPropertyOp17
 70
     1
102
RTVSPropertyOp18
 70
     1
102
RTVSPropertyOp19
 70
     1
102
RTVSPropertyOp20
 70
     1
102
RTVSPropertyOp21
 70
     1
102
RTVSPropertyOp22
 70
     1
102
RTVSPropertyOp23
 70
     1
102
RTVSPropertyOp24
 70
     1
102
RTVSPropertyOp25
 70
     1
102
RTVSPropertyOp26
 70
     1
102
RTVSPropertyOp27
 70
     1
102
RTVSPropertyOp28
 70
     1
102
RTVSPropertyOp29
 70
     1
102
RTVSPropertyOp30
 70
     1
102
RTVSPropertyOp31
 70
     1
102
RTVSPropertyOp32
 70
     1
  0
ENDSEC
  0
EOF
