  0
SECTION
  2
HEADER
  9
$ACADVER
  1
AC1015
  9
$ACADMAINTVER
 70
     6
  9
$DWGCODEPAGE
  3
ANSI_932
  9
$INSBASE
 10
0.0
 20
0.0
 30
0.0
  9
$EXTMIN
 10
-95.36574104057547
 20
-164.944845037912
 30
0.0
  9
$EXTMAX
 10
114.6342589594245
 20
132.055154962088
 30
0.0
  9
$LIMMIN
 10
0.0
 20
0.0
  9
$LIMMAX
 10
12.0
 20
9.0
  9
$ORTHOMODE
 70
     0
  9
$REGENMODE
 70
     1
  9
$FILLMODE
 70
     1
  9
$QTEXTMODE
 70
     0
  9
$MIRRTEXT
 70
     1
  9
$LTSCALE
 40
1.0
  9
$ATTMODE
 70
     1
  9
$TEXTSIZE
 40
0.2
  9
$TRACEWID
 40
0.05
  9
$TEXTSTYLE
  7
Standard
  9
$CLAYER
  8
0
  9
$CELTYPE
  6
ByLayer
  9
$CECOLOR
 62
   256
  9
$CELTSCALE
 40
1.0
  9
$DISPSILH
 70
     0
  9
$DIMSCALE
 40
1.0
  9
$DIMASZ
 40
0.18
  9
$DIMEXO
 40
0.0625
  9
$DIMDLI
 40
0.38
  9
$DIMRND
 40
0.0
  9
$DIMDLE
 40
0.0
  9
$DIMEXE
 40
0.18
  9
$DIMTP
 40
0.0
  9
$DIMTM
 40
0.0
  9
$DIMTXT
 40
0.18
  9
$DIMCEN
 40
0.09
  9
$DIMTSZ
 40
0.0
  9
$DIMTOL
 70
     0
  9
$DIMLIM
 70
     0
  9
$DIMTIH
 70
     1
  9
$DIMTOH
 70
     1
  9
$DIMSE1
 70
     0
  9
$DIMSE2
 70
     0
  9
$DIMTAD
 70
     0
  9
$DIMZIN
 70
     0
  9
$DIMBLK
  1

  9
$DIMASO
 70
     1
  9
$DIMSHO
 70
     1
  9
$DIMPOST
  1

  9
$DIMAPOST
  1

  9
$DIMALT
 70
     0
  9
$DIMALTD
 70
     2
  9
$DIMALTF
 40
25.4
  9
$DIMLFAC
 40
1.0
  9
$DIMTOFL
 70
     0
  9
$DIMTVP
 40
0.0
  9
$DIMTIX
 70
     0
  9
$DIMSOXD
 70
     0
  9
$DIMSAH
 70
     0
  9
$DIMBLK1
  1

  9
$DIMBLK2
  1

  9
$DIMSTYLE
  2
Standard
  9
$DIMCLRD
 70
     0
  9
$DIMCLRE
 70
     0
  9
$DIMCLRT
 70
     0
  9
$DIMTFAC
 40
1.0
  9
$DIMGAP
 40
0.09
  9
$DIMJUST
 70
     0
  9
$DIMSD1
 70
     0
  9
$DIMSD2
 70
     0
  9
$DIMTOLJ
 70
     1
  9
$DIMTZIN
 70
     0
  9
$DIMALTZ
 70
     0
  9
$DIMALTTZ
 70
     0
  9
$DIMUPT
 70
     0
  9
$DIMDEC
 70
     4
  9
$DIMTDEC
 70
     4
  9
$DIMALTU
 70
     2
  9
$DIMALTTD
 70
     2
  9
$DIMTXSTY
  7
Standard
  9
$DIMAUNIT
 70
     0
  9
$DIMADEC
 70
     0
  9
$DIMALTRND
 40
0.0
  9
$DIMAZIN
 70
     0
  9
$DIMDSEP
 70
    46
  9
$DIMATFIT
 70
     3
  9
$DIMFRAC
 70
     0
  9
$DIMLDRBLK
  1

  9
$DIMLUNIT
 70
     2
  9
$DIMLWD
 70
    -2
  9
$DIMLWE
 70
    -2
  9
$DIMTMOVE
 70
     0
  9
$LUNITS
 70
     2
  9
$LUPREC
 70
     4
  9
$SKETCHINC
 40
0.1
  9
$FILLETRAD
 40
0.5
  9
$AUNITS
 70
     0
  9
$AUPREC
 70
     0
  9
$MENU
  1
.
  9
$ELEVATION
 40
0.0
  9
$PELEVATION
 40
0.0
  9
$THICKNESS
 40
0.0
  9
$LIMCHECK
 70
     0
  9
$CHAMFERA
 40
0.5
  9
$CHAMFERB
 40
0.5
  9
$CHAMFERC
 40
1.0
  9
$CHAMFERD
 40
0.0
  9
$SKPOLY
 70
     0
  9
$TDCREATE
 40
2459639.446763252
  9
$TDUCREATE
 40
2459639.071763252
  9
$TDUPDATE
 40
2459639.446765058
  9
$TDUUPDATE
 40
2459639.071765058
  9
$TDINDWG
 40
0.0000000116
  9
$TDUSRTIMER
 40
0.0000000116
  9
$USRTIMER
 70
     1
  9
$ANGBASE
 50
0.0
  9
$ANGDIR
 70
     0
  9
$PDMODE
 70
     0
  9
$PDSIZE
 40
0.0
  9
$PLINEWID
 40
0.0
  9
$SPLFRAME
 70
     0
  9
$SPLINETYPE
 70
     6
  9
$SPLINESEGS
 70
     8
  9
$HANDSEED
  5
160
  9
$SURFTAB1
 70
     6
  9
$SURFTAB2
 70
     6
  9
$SURFTYPE
 70
     6
  9
$SURFU
 70
     6
  9
$SURFV
 70
     6
  9
$UCSBASE
  2

  9
$UCSNAME
  2

  9
$UCSORG
 10
0.0
 20
0.0
 30
0.0
  9
$UCSXDIR
 10
1.0
 20
0.0
 30
0.0
  9
$UCSYDIR
 10
0.0
 20
1.0
 30
0.0
  9
$UCSORTHOREF
  2

  9
$UCSORTHOVIEW
 70
     0
  9
$UCSORGTOP
 10
0.0
 20
0.0
 30
0.0
  9
$UCSORGBOTTOM
 10
0.0
 20
0.0
 30
0.0
  9
$UCSORGLEFT
 10
0.0
 20
0.0
 30
0.0
  9
$UCSORGRIGHT
 10
0.0
 20
0.0
 30
0.0
  9
$UCSORGFRONT
 10
0.0
 20
0.0
 30
0.0
  9
$UCSORGBACK
 10
0.0
 20
0.0
 30
0.0
  9
$PUCSBASE
  2

  9
$PUCSNAME
  2

  9
$PUCSORG
 10
0.0
 20
0.0
 30
0.0
  9
$PUCSXDIR
 10
1.0
 20
0.0
 30
0.0
  9
$PUCSYDIR
 10
0.0
 20
1.0
 30
0.0
  9
$PUCSORTHOREF
  2

  9
$PUCSORTHOVIEW
 70
     0
  9
$PUCSORGTOP
 10
0.0
 20
0.0
 30
0.0
  9
$PUCSORGBOTTOM
 10
0.0
 20
0.0
 30
0.0
  9
$PUCSORGLEFT
 10
0.0
 20
0.0
 30
0.0
  9
$PUCSORGRIGHT
 10
0.0
 20
0.0
 30
0.0
  9
$PUCSORGFRONT
 10
0.0
 20
0.0
 30
0.0
  9
$PUCSORGBACK
 10
0.0
 20
0.0
 30
0.0
  9
$USERI1
 70
     0
  9
$USERI2
 70
     0
  9
$USERI3
 70
     0
  9
$USERI4
 70
     0
  9
$USERI5
 70
     0
  9
$USERR1
 40
18.1
  9
$USERR2
 40
0.0
  9
$USERR3
 40
0.0
  9
$USERR4
 40
0.0
  9
$USERR5
 40
0.0
  9
$WORLDVIEW
 70
     1
  9
$SHADEDGE
 70
     3
  9
$SHADEDIF
 70
    70
  9
$TILEMODE
 70
     1
  9
$MAXACTVP
 70
    64
  9
$PINSBASE
 10
0.0
 20
0.0
 30
0.0
  9
$PLIMCHECK
 70
     0
  9
$PEXTMIN
 10
1.00000000000000E+20
 20
1.00000000000000E+20
 30
1.00000000000000E+20
  9
$PEXTMAX
 10
-1.00000000000000E+20
 20
-1.00000000000000E+20
 30
-1.00000000000000E+20
  9
$PLIMMIN
 10
0.0
 20
0.0
  9
$PLIMMAX
 10
12.0
 20
9.0
  9
$UNITMODE
 70
     0
  9
$VISRETAIN
 70
     1
  9
$PLINEGEN
 70
     0
  9
$PSLTSCALE
 70
     1
  9
$TREEDEPTH
 70
  3020
  9
$CMLSTYLE
  2
Standard
  9
$CMLJUST
 70
     0
  9
$CMLSCALE
 40
1.0
  9
$PROXYGRAPHICS
 70
     1
  9
$MEASUREMENT
 70
     1
  9
$CELWEIGHT
370
    -1
  9
$ENDCAPS
280
     0
  9
$JOINSTYLE
280
     0
  9
$LWDISPLAY
290
     0
  9
$INSUNITS
 70
     4
  9
$HYPERLINKBASE
  1

  9
$STYLESHEET
  1

  9
$XEDIT
290
     1
  9
$CEPSNTYPE
380
     0
  9
$PSTYLEMODE
290
     1
  9
$FINGERPRINTGUID
  2
{9793FB91-667D-4825-9E65-D7A5E4343BDC}
  9
$VERSIONGUID
  2
{FAEB1C32-E019-11D5-929B-00C0DF256EC4}
  9
$EXTNAMES
290
     1
  9
$PSVPSCALE
 40
0.0
  9
$OLESTARTUP
290
     0
  0
ENDSEC
  0
SECTION
  2
CLASSES
  0
CLASS
  1
ACDBDICTIONARYWDFLT
  2
AcDbDictionaryWithDefault
  3
ObjectDBX Classes
 90
        0
280
     0
281
     0
  0
CLASS
  1
VISUALSTYLE
  2
AcDbVisualStyle
  3
ObjectDBX Classes
 90
     4095
280
     0
281
     0
  0
CLASS
  1
MATERIAL
  2
AcDbMaterial
  3
ObjectDBX Classes
 90
     1153
280
     0
281
     0
  0
CLASS
  1
DICTIONARYVAR
  2
AcDbDictionaryVar
  3
ObjectDBX Classes
 90
        0
280
     0
281
     0
  0
CLASS
  1
ACDBPLACEHOLDER
  2
AcDbPlaceHolder
  3
ObjectDBX Classes
 90
        0
280
     0
281
     0
  0
CLASS
  1
LAYOUT
  2
AcDbLayout
  3
ObjectDBX Classes
 90
        0
280
     0
281
     0
  0
ENDSEC
  0
SECTION
  2
TABLES
  0
TABLE
  2
VPORT
  5
8
330
0
100
AcDbSymbolTable
 70
     1
  0
VPORT
  5
29
330
8
100
AcDbSymbolTableRecord
100
AcDbViewportTableRecord
  2
*Active
 70
     0
 10
0.0
 20
0.0
 11
1.0
 21
1.0
 12
9.63425895942451
 22
-16.44484503791199
 13
0.0
 23
0.0
 14
0.5
 24
0.5
 15
0.5
 25
0.5
 16
0.0
 26
0.0
 36
1.0
 17
0.0
 27
0.0
 37
0.0
 40
326.7
 41
1.60267857142857
 42
50.0
 43
0.0
 44
0.0
 50
0.0
 51
0.0
 71
     0
 72
   100
 73
     1
 74
     3
 75
     0
 76
     0
 77
     0
 78
     0
281
     0
 65
     1
110
0.0
120
0.0
130
0.0
111
1.0
121
0.0
131
0.0
112
0.0
122
1.0
132
0.0
 79
     0
146
0.0
  0
ENDTAB
  0
TABLE
  2
LTYPE
  5
5
330
0
100
AcDbSymbolTable
 70
     8
  0
LTYPE
  5
14
330
5
100
AcDbSymbolTableRecord
100
AcDbLinetypeTableRecord
  2
ByBlock
 70
     0
  3

 72
    65
 73
     0
 40
0.0
  0
LTYPE
  5
15
330
5
100
AcDbSymbolTableRecord
100
AcDbLinetypeTableRecord
  2
ByLayer
 70
     0
  3

 72
    65
 73
     0
 40
0.0
  0
LTYPE
  5
16
330
5
100
AcDbSymbolTableRecord
100
AcDbLinetypeTableRecord
  2
Continuous
 70
     0
  3
Solid line
 72
    65
 73
     0
 40
0.0
  0
LTYPE
  5
3F
330
5
100
AcDbSymbolTableRecord
100
AcDbLinetypeTableRecord
  2
DASHED
 70
     0
  3
Dashed
 72
    65
 73
     2
 40
15.0
 49
7.0
 74
     0
 49
-8.0
 74
     0
  0
LTYPE
  5
40
330
5
100
AcDbSymbolTableRecord
100
AcDbLinetypeTableRecord
  2
DOTTED
 70
     0
  3
Dotted
 72
    65
 73
     2
 40
1.0
 49
0.0
 74
     0
 49
-1.0
 74
     0
  0
LTYPE
  5
41
330
5
100
AcDbSymbolTableRecord
100
AcDbLinetypeTableRecord
  2
DOT_CENTER
 70
     0
  3
Dot_Center
 72
    65
 73
     4
 40
14.0
 49
12.0
 74
     0
 49
-1.0
 74
     0
 49
0.0
 74
     0
 49
-1.0
 74
     0
  0
LTYPE
  5
42
330
5
100
AcDbSymbolTableRecord
100
AcDbLinetypeTableRecord
  2
LONG_DASHED
 70
     0
  3
Long_Dashed
 72
    65
 73
     2
 40
15.0
 49
10.0
 74
     0
 49
-5.0
 74
     0
  0
LTYPE
  5
43
330
5
100
AcDbSymbolTableRecord
100
AcDbLinetypeTableRecord
  2
DASH_CENTER
 70
     0
  3
Dash_Center
 72
    65
 73
     4
 40
14.0
 49
11.0
 74
     0
 49
-1.0
 74
     0
 49
1.0
 74
     0
 49
-1.0
 74
     0
  0
LTYPE
  5
44
330
5
100
AcDbSymbolTableRecord
100
AcDbLinetypeTableRecord
  2
PHANTOM
 70
     0
  3
Phantom
 72
    65
 73
     6
 40
13.0
 49
10.0
 74
     0
 49
-1.0
 74
     0
 49
0.0
 74
     0
 49
-1.0
 74
     0
 49
0.0
 74
     0
 49
-1.0
 74
     0
  0
LTYPE
  5
45
330
5
100
AcDbSymbolTableRecord
100
AcDbLinetypeTableRecord
  2
CENTER_DASH_DASH
 70
     0
  3
Center_Dash_Dash
 72
    65
 73
     6
 40
14.0
 49
9.0
 74
     0
 49
-1.0
 74
     0
 49
1.0
 74
     0
 49
-1.0
 74
     0
 49
1.0
 74
     0
 49
-1.0
 74
     0
  0
ENDTAB
  0
TABLE
  2
LAYER
  5
2
330
0
100
AcDbSymbolTable
 70
     3
  0
LAYER
  5
10
330
2
100
AcDbSymbolTableRecord
100
AcDbLayerTableRecord
  2
0
 70
     0
 62
     7
  6
Continuous
370
    -3
390
F
  0
LAYER
  5
46
330
2
100
AcDbSymbolTableRecord
100
AcDbLayerTableRecord
  2
1
 70
     0
 62
     7
  6
Continuous
370
    -3
390
F
  0
LAYER
  5
47
330
2
100
AcDbSymbolTableRecord
100
AcDbLayerTableRecord
  2
_U_30EC_U_30A4_U_30E4_U_30FC_1
 70
     0
 62
     7
  6
Continuous
370
    -3
390
F
  0
ENDTAB
  0
TABLE
  2
STYLE
  5
3
330
0
100
AcDbSymbolTable
 70
     3
  0
STYLE
  5
11
330
3
100
AcDbSymbolTableRecord
100
AcDbTextStyleTableRecord
  2
Standard
 70
     0
 40
0.0
 41
1.0
 50
0.0
 71
     0
 42
0.2
  3
txt
  4

  0
STYLE
  5
BA
330
3
100
AcDbSymbolTableRecord
100
AcDbTextStyleTableRecord
  2
CONVERTER_11
 70
     0
 40
0.0
 41
0.89
 50
0.0
 71
     0
 42
0.2
  3
MS Mincho.ttf
  4

1001
ACAD
1000
MS Mincho
1071
    32785
  0
STYLE
  5
FF
330
3
100
AcDbSymbolTableRecord
100
AcDbTextStyleTableRecord
  2
CONVERTER_12
 70
     0
 40
0.0
 41
0.9
 50
0.0
 71
     0
 42
0.2
  3
txt.shx
  4

  0
ENDTAB
  0
TABLE
  2
VIEW
  5
6
330
0
100
AcDbSymbolTable
 70
     0
  0
ENDTAB
  0
TABLE
  2
UCS
  5
7
330
0
100
AcDbSymbolTable
 70
     0
  0
ENDTAB
  0
TABLE
  2
APPID
  5
9
330
0
100
AcDbSymbolTable
 70
     1
  0
APPID
  5
12
330
9
100
AcDbSymbolTableRecord
100
AcDbRegAppTableRecord
  2
ACAD
 70
     0
  0
ENDTAB
  0
TABLE
  2
DIMSTYLE
  5
A
330
0
100
AcDbSymbolTable
 70
     4
100
AcDbDimStyleTable
  0
DIMSTYLE
105
27
330
A
100
AcDbSymbolTableRecord
100
AcDbDimStyleTableRecord
  2
Standard
 70
     0
178
     0
340
11
  0
DIMSTYLE
105
115
102
{ACAD_REACTORS
330
116
102
}
330
A
100
AcDbSymbolTableRecord
100
AcDbDimStyleTableRecord
  2
ME10_DIM_10
 70
     0
  3
{\Fgdt;n}<>
 41
3.5
 42
0.0
 44
2.0
 73
     0
 74
     0
 77
     1
 78
     8
140
3.0
147
2.0
172
     1
173
     1
174
     1
175
     1
176
     2
177
     2
271
     2
178
     7
271
     2
340
FF
  0
DIMSTYLE
105
120
102
{ACAD_REACTORS
330
121
102
}
330
A
100
AcDbSymbolTableRecord
100
AcDbDimStyleTableRecord
  2
ME10_DIM_11
 70
     0
 41
3.5
 42
0.0
 44
2.0
 73
     0
 74
     0
 77
     1
 78
     8
140
3.0
147
2.0
172
     1
173
     1
174
     1
175
     1
176
     2
177
     2
271
     2
178
     7
271
     2
340
FF
  0
DIMSTYLE
105
12B
102
{ACAD_REACTORS
330
12C
102
}
330
A
100
AcDbSymbolTableRecord
100
AcDbDimStyleTableRecord
  2
ME10_DIM_12
 70
     0
  3
{\Fgdt;n}<>
 41
3.5
 42
0.0
 44
2.0
 73
     0
 74
     0
 77
     1
 78
     8
140
3.0
147
2.0
172
     1
173
     1
174
     1
175
     1
176
     2
177
     2
271
     2
178
     7
271
     2
340
FF
  0
ENDTAB
  0
TABLE
  2
BLOCK_RECORD
  5
1
330
0
100
AcDbSymbolTable
 70
     9
  0
BLOCK_RECORD
  5
1F
330
1
100
AcDbSymbolTableRecord
100
AcDbBlockTableRecord
  2
*Model_Space
340
22
  0
BLOCK_RECORD
  5
1B
330
1
100
AcDbSymbolTableRecord
100
AcDbBlockTableRecord
  2
*Paper_Space
340
1E
  0
BLOCK_RECORD
  5
23
330
1
100
AcDbSymbolTableRecord
100
AcDbBlockTableRecord
  2
*Paper_Space0
340
26
  0
BLOCK_RECORD
  5
48
330
1
100
AcDbSymbolTableRecord
100
AcDbBlockTableRecord
  2
開示A4
340
0
102
{BLKREFS
331
4C
102
}
  0
BLOCK_RECORD
  5
4B
330
1
100
AcDbSymbolTableRecord
100
AcDbBlockTableRecord
  2
開示A4枠
340
0
102
{BLKREFS
331
55
102
}
  0
BLOCK_RECORD
  5
4F
330
1
100
AcDbSymbolTableRecord
100
AcDbBlockTableRecord
  2
H70-90-25B
340
0
102
{BLKREFS
331
56
102
}
  0
BLOCK_RECORD
  5
52
330
1
100
AcDbSymbolTableRecord
100
AcDbBlockTableRecord
  2
H70-90-B
340
0
102
{BLKREFS
331
57
102
}
  0
BLOCK_RECORD
  5
10C
330
1
100
AcDbSymbolTableRecord
100
AcDbBlockTableRecord
  2
*D5
340
0
  0
BLOCK_RECORD
  5
117
330
1
100
AcDbSymbolTableRecord
100
AcDbBlockTableRecord
  2
*D6
340
0
  0
BLOCK_RECORD
  5
122
330
1
100
AcDbSymbolTableRecord
100
AcDbBlockTableRecord
  2
*D7
340
0
  0
BLOCK_RECORD
  5
12D
330
1
100
AcDbSymbolTableRecord
100
AcDbBlockTableRecord
  2
*D8
340
0
102
{BLKREFS
331
134
102
}
  0
ENDTAB
  0
ENDSEC
  0
SECTION
  2
BLOCKS
  0
BLOCK
  5
20
330
1F
100
AcDbEntity
  8
0
100
AcDbBlockBegin
  2
*Model_Space
 70
     0
 10
0.0
 20
0.0
 30
0.0
  3
*Model_Space
  1

  0
ENDBLK
  5
21
330
1F
100
AcDbEntity
  8
0
100
AcDbBlockEnd
  0
BLOCK
  5
1C
330
1B
100
AcDbEntity
 67
     1
  8
0
100
AcDbBlockBegin
  2
*Paper_Space
 70
     0
 10
0.0
 20
0.0
 30
0.0
  3
*Paper_Space
  1

  0
ENDBLK
  5
1D
330
1B
100
AcDbEntity
 67
     1
  8
0
100
AcDbBlockEnd
  0
BLOCK
  5
24
330
23
100
AcDbEntity
  8
0
100
AcDbBlockBegin
  2
*Paper_Space0
 70
     0
 10
0.0
 20
0.0
 30
0.0
  3
*Paper_Space0
  1

  0
ENDBLK
  5
25
330
23
100
AcDbEntity
  8
0
100
AcDbBlockEnd
  0
BLOCK
  5
49
330
48
100
AcDbEntity
  8
0
100
AcDbBlockBegin
  2
開示A4
 70
     0
 10
-95.36574104057547
 20
-164.944845037912
 30
0.0
  3
開示A4
  1

  0
POINT
  5
58
330
48
100
AcDbEntity
  8
1
 62
     4
100
AcDbPoint
 10
87.63425895942453
 20
-149.944845037912
 30
0.0
  0
POINT
  5
59
330
48
100
AcDbEntity
  8
1
 62
     4
100
AcDbPoint
 10
-1.61574104057547
 20
-147.944845037912
 30
0.0
  0
POINT
  5
5A
330
48
100
AcDbEntity
  8
1
 62
     4
100
AcDbPoint
 10
-10.11574104057547
 20
-147.944845037912
 30
0.0
  0
POINT
  5
5B
330
48
100
AcDbEntity
  8
1
 62
     4
100
AcDbPoint
 10
11.13425895942453
 20
-145.944845037912
 30
0.0
  0
POINT
  5
5C
330
48
100
AcDbEntity
  8
1
 62
     4
100
AcDbPoint
 10
11.13425895942453
 20
-152.444845037912
 30
0.0
  0
POINT
  5
5D
330
48
100
AcDbEntity
  8
1
 62
     4
100
AcDbPoint
 10
16.88425895942453
 20
-152.444845037912
 30
0.0
  0
POINT
  5
5E
330
48
100
AcDbEntity
  8
1
 62
     4
100
AcDbPoint
 10
5.38425895942453
 20
-152.444845037912
 30
0.0
  0
POINT
  5
5F
330
48
100
AcDbEntity
  8
1
 62
     4
100
AcDbPoint
 10
28.13425895942453
 20
-145.944845037912
 30
0.0
  0
POINT
  5
60
330
48
100
AcDbEntity
  8
1
 62
     4
100
AcDbPoint
 10
28.13425895942453
 20
-152.444845037912
 30
0.0
  0
POINT
  5
61
330
48
100
AcDbEntity
  8
1
 62
     4
100
AcDbPoint
 10
33.88425895942453
 20
-152.444845037912
 30
0.0
  0
POINT
  5
62
330
48
100
AcDbEntity
  8
1
 62
     4
100
AcDbPoint
 10
22.38425895942453
 20
-152.444845037912
 30
0.0
  0
POINT
  5
63
330
48
100
AcDbEntity
  8
1
 62
     4
100
AcDbPoint
 10
45.13425895942453
 20
-145.944845037912
 30
0.0
  0
POINT
  5
64
330
48
100
AcDbEntity
  8
1
 62
     4
100
AcDbPoint
 10
45.13425895942453
 20
-152.444845037912
 30
0.0
  0
POINT
  5
65
330
48
100
AcDbEntity
  8
1
 62
     4
100
AcDbPoint
 10
50.88425895942453
 20
-152.444845037912
 30
0.0
  0
POINT
  5
66
330
48
100
AcDbEntity
  8
1
 62
     4
100
AcDbPoint
 10
39.38425895942453
 20
-152.444845037912
 30
0.0
  0
POINT
  5
67
330
48
100
AcDbEntity
  8
1
 62
     4
100
AcDbPoint
 10
56.38425895942453
 20
-152.444845037912
 30
0.0
  0
POINT
  5
68
330
48
100
AcDbEntity
  8
1
 62
     4
100
AcDbPoint
 10
67.88425895942453
 20
-152.444845037912
 30
0.0
  0
POINT
  5
69
330
48
100
AcDbEntity
  8
1
 62
     4
100
AcDbPoint
 10
62.13425895942453
 20
-152.444845037912
 30
0.0
  0
POINT
  5
6A
330
48
100
AcDbEntity
  8
1
 62
     4
100
AcDbPoint
 10
-38.36574104057547
 20
-150.694845037912
 30
0.0
  0
POINT
  5
6B
330
48
100
AcDbEntity
  8
1
 62
     4
100
AcDbPoint
 10
-38.36574104057547
 20
-142.194845037912
 30
0.0
  0
POINT
  5
6C
330
48
100
AcDbEntity
  8
1
 62
     4
100
AcDbPoint
 10
-47.86574104057547
 20
117.0551549620883
 30
0.0
  0
POINT
  5
6D
330
48
100
AcDbEntity
  8
1
 62
     4
100
AcDbPoint
 10
62.13425895942453
 20
-145.944845037912
 30
0.0
  0
POINT
  5
6E
330
48
100
AcDbEntity
  8
1
 62
     4
100
AcDbPoint
 10
-38.36574104057547
 20
-148.694845037912
 30
0.0
  0
POINT
  5
6F
330
48
100
AcDbEntity
  8
1
 62
     4
100
AcDbPoint
 10
-38.36574104057547
 20
-140.194845037912
 30
0.0
  0
POINT
  5
70
330
48
100
AcDbEntity
  8
1
 62
     4
100
AcDbPoint
 10
-38.36574104057547
 20
-144.194845037912
 30
0.0
  0
POINT
  5
71
330
48
100
AcDbEntity
  8
1
 62
     4
100
AcDbPoint
 10
-38.36574104057547
 20
-152.694845037912
 30
0.0
  0
POINT
  5
72
330
48
100
AcDbEntity
  8
1
 62
     4
100
AcDbPoint
 10
-61.36574104057547
 20
-130.944845037912
 30
0.0
  0
LINE
  5
77
330
48
100
AcDbEntity
  8
1
  6
Continuous
 62
     7
100
AcDbLine
 10
9.63425895942453
 20
-154.944845037912
 30
0.0
 11
104.6342589594245
 21
-154.944845037912
 31
0.0
  0
LINE
  5
78
330
48
100
AcDbEntity
  8
1
  6
Continuous
 62
     2
100
AcDbLine
 10
9.63425895942453
 20
-154.944845037912
 30
0.0
 11
9.63425895942453
 21
-159.944845037912
 31
0.0
  0
LINE
  5
79
330
48
100
AcDbEntity
  8
1
  6
Continuous
 62
     7
100
AcDbLine
 10
104.6342589594245
 20
-16.44484503791199
 30
0.0
 11
104.6342589594245
 21
122.0551549620883
 31
0.0
  0
LINE
  5
7A
330
48
100
AcDbEntity
  8
1
  6
Continuous
 62
     2
100
AcDbLine
 10
104.6342589594245
 20
-16.44484503791199
 30
0.0
 11
109.6342589594245
 21
-16.44484503791199
 31
0.0
  0
LINE
  5
7B
330
48
100
AcDbEntity
  8
1
  6
Continuous
 62
     7
100
AcDbLine
 10
-70.36574104057547
 20
-16.44484503791199
 30
0.0
 11
-70.36574104057547
 21
122.0551549620883
 31
0.0
  0
LINE
  5
7C
330
48
100
AcDbEntity
  8
1
  6
Continuous
 62
     2
100
AcDbLine
 10
-70.36574104057547
 20
-16.44484503791199
 30
0.0
 11
-75.36574104057547
 21
-16.44484503791199
 31
0.0
  0
LINE
  5
7D
330
48
100
AcDbEntity
  8
1
  6
Continuous
 62
     7
100
AcDbLine
 10
9.63425895942453
 20
122.0551549620883
 30
0.0
 11
-70.36574104057547
 21
122.0551549620883
 31
0.0
  0
LINE
  5
7E
330
48
100
AcDbEntity
  8
1
  6
Continuous
 62
     2
100
AcDbLine
 10
9.63425895942453
 20
122.0551549620883
 30
0.0
 11
9.63425895942453
 21
127.0551549620883
 31
0.0
  0
LINE
  5
7F
330
48
100
AcDbEntity
  8
1
  6
Continuous
 62
     2
100
AcDbLine
 10
70.63425895942453
 20
-144.944845037912
 30
0.0
 11
104.6342589594245
 21
-144.944845037912
 31
0.0
  0
LINE
  5
80
330
48
100
AcDbEntity
  8
1
  6
Continuous
 62
     2
100
AcDbLine
 10
2.63425895942453
 20
-137.944845037912
 30
0.0
 11
2.63425895942453
 21
-154.944845037912
 31
0.0
  0
LINE
  5
81
330
48
100
AcDbEntity
  8
1
  6
Continuous
 62
     2
100
AcDbLine
 10
19.63425895942453
 20
-137.944845037912
 30
0.0
 11
19.63425895942453
 21
-154.944845037912
 31
0.0
  0
LINE
  5
82
330
48
100
AcDbEntity
  8
1
  6
Continuous
 62
     2
100
AcDbLine
 10
53.63425895942453
 20
-137.944845037912
 30
0.0
 11
53.63425895942453
 21
-154.944845037912
 31
0.0
  0
LINE
  5
83
330
48
100
AcDbEntity
  8
1
  6
Continuous
 62
     2
100
AcDbLine
 10
36.63425895942453
 20
-137.944845037912
 30
0.0
 11
36.63425895942453
 21
-154.944845037912
 31
0.0
  0
LINE
  5
84
330
48
100
AcDbEntity
  8
1
  6
Continuous
 62
     2
100
AcDbLine
 10
70.63425895942453
 20
-137.944845037912
 30
0.0
 11
70.63425895942453
 21
-154.944845037912
 31
0.0
  0
LINE
  5
85
330
48
100
AcDbEntity
  8
1
  6
Continuous
 62
     2
100
AcDbLine
 10
-40.36574104057547
 20
112.0551549620883
 30
0.0
 11
-70.36574104057547
 21
112.0551549620883
 31
0.0
  0
LINE
  5
86
330
48
100
AcDbEntity
  8
1
  6
Continuous
 62
     7
100
AcDbLine
 10
-70.36574104057547
 20
-154.944845037912
 30
0.0
 11
-70.36574104057547
 21
-16.44484503791199
 31
0.0
  0
LINE
  5
87
330
48
100
AcDbEntity
  8
1
  6
Continuous
 62
     2
100
AcDbLine
 10
-55.36574104057547
 20
122.0551549620883
 30
0.0
 11
-55.36574104057547
 21
112.0551549620883
 31
0.0
  0
LINE
  5
88
330
48
100
AcDbEntity
  8
1
  6
Continuous
 62
     2
100
AcDbLine
 10
-40.36574104057547
 20
122.0551549620883
 30
0.0
 11
-40.36574104057547
 21
112.0551549620883
 31
0.0
  0
LINE
  5
89
330
48
100
AcDbEntity
  8
1
  6
Continuous
 62
     2
100
AcDbLine
 10
-62.36574104057547
 20
-123.944845037912
 30
0.0
 11
-62.36574104057547
 21
-137.944845037912
 31
0.0
  0
LINE
  5
8A
330
48
100
AcDbEntity
  8
1
  6
Continuous
 62
     7
100
AcDbLine
 10
104.6342589594245
 20
-137.944845037912
 30
0.0
 11
-70.36574104057547
 21
-137.944845037912
 31
0.0
  0
LINE
  5
8B
330
48
100
AcDbEntity
  8
1
  6
Continuous
 62
     7
100
AcDbLine
 10
-70.36574104057547
 20
-123.944845037912
 30
0.0
 11
104.6342589594245
 21
-123.944845037912
 31
0.0
  0
LINE
  5
8C
330
48
100
AcDbEntity
  8
1
  6
PHANTOM
 62
     4
100
AcDbLine
 10
-95.36574104057547
 20
-164.944845037912
 30
0.0
 11
114.6342589594245
 21
-164.944845037912
 31
0.0
  0
LINE
  5
8D
330
48
100
AcDbEntity
  8
1
  6
PHANTOM
 62
     4
100
AcDbLine
 10
114.6342589594245
 20
-164.944845037912
 30
0.0
 11
114.6342589594245
 21
132.055154962088
 31
0.0
  0
LINE
  5
8E
330
48
100
AcDbEntity
  8
1
  6
PHANTOM
 62
     4
100
AcDbLine
 10
114.6342589594245
 20
132.055154962088
 30
0.0
 11
-95.36574104057547
 21
132.055154962088
 31
0.0
  0
LINE
  5
8F
330
48
100
AcDbEntity
  8
1
  6
PHANTOM
 62
     4
100
AcDbLine
 10
-95.36574104057547
 20
132.055154962088
 30
0.0
 11
-95.36574104057547
 21
-164.944845037912
 31
0.0
  0
LINE
  5
90
330
48
100
AcDbEntity
  8
1
  6
Continuous
 62
     7
100
AcDbLine
 10
-70.36574104057547
 20
-154.944845037912
 30
0.0
 11
9.63425895942453
 21
-154.944845037912
 31
0.0
  0
LINE
  5
91
330
48
100
AcDbEntity
  8
1
  6
Continuous
 62
     7
100
AcDbLine
 10
104.6342589594245
 20
-154.944845037912
 30
0.0
 11
104.6342589594245
 21
-16.44484503791199
 31
0.0
  0
LINE
  5
92
330
48
100
AcDbEntity
  8
1
  6
Continuous
 62
     7
100
AcDbLine
 10
104.6342589594245
 20
122.0551549620883
 30
0.0
 11
9.63425895942453
 21
122.0551549620883
 31
0.0
  0
LINE
  5
93
330
48
100
AcDbEntity
  8
1
  6
Continuous
 62
     2
100
AcDbLine
 10
-70.36574104057547
 20
-146.444845037912
 30
0.0
 11
-14.36574104057547
 21
-146.444845037912
 31
0.0
  0
LINE
  5
94
330
48
100
AcDbEntity
  8
1
  6
Continuous
 62
     2
100
AcDbLine
 10
-62.36574104057547
 20
-137.944845037912
 30
0.0
 11
-62.36574104057547
 21
-154.944845037912
 31
0.0
  0
LINE
  5
95
330
48
100
AcDbEntity
  8
1
  6
Continuous
 62
     7
100
AcDbLine
 10
95.63425895942453
 20
-140.244845037912
 30
0.0
 11
95.63425895942453
 21
-142.644845037912
 31
0.0
  0
LINE
  5
96
330
48
100
AcDbEntity
  8
1
  6
Continuous
 62
     7
100
AcDbLine
 10
95.63425895942453
 20
-140.244845037912
 30
0.0
 11
100.6342589594245
 21
-139.444845037912
 31
0.0
  0
LINE
  5
97
330
48
100
AcDbEntity
  8
1
  6
Continuous
 62
     7
100
AcDbLine
 10
100.6342589594245
 20
-139.444845037912
 30
0.0
 11
100.6342589594245
 21
-143.444845037912
 31
0.0
  0
LINE
  5
98
330
48
100
AcDbEntity
  8
1
  6
Continuous
 62
     7
100
AcDbLine
 10
100.6342589594245
 20
-143.444845037912
 30
0.0
 11
95.63425895942453
 21
-142.644845037912
 31
0.0
  0
LINE
  5
99
330
48
100
AcDbEntity
  8
1
  6
DOT_CENTER
 62
     2
100
AcDbLine
 10
88.63425895942453
 20
-141.444845037912
 30
0.0
 11
101.6342589594245
 21
-141.444845037912
 31
0.0
  0
LINE
  5
9A
330
48
100
AcDbEntity
  8
1
  6
DOT_CENTER
 62
     2
100
AcDbLine
 10
91.63425895942453
 20
-138.444845037912
 30
0.0
 11
91.63425895942453
 21
-144.444845037912
 31
0.0
  0
LINE
  5
9B
330
48
100
AcDbEntity
  8
1
  6
Continuous
 62
     2
100
AcDbLine
 10
-14.36574104057547
 20
-137.944845037912
 30
0.0
 11
-14.36574104057547
 21
-154.944845037912
 31
0.0
  0
CIRCLE
  5
9C
330
48
100
AcDbEntity
  8
1
  6
Continuous
 62
     7
100
AcDbCircle
 10
8.13425895942453
 20
-152.444845037912
 30
0.0
 40
0.3000000000000114
  0
CIRCLE
  5
9D
330
48
100
AcDbEntity
  8
1
  6
Continuous
 62
     7
100
AcDbCircle
 10
14.13425895942453
 20
-152.444845037912
 30
0.0
 40
0.3000000000000096
  0
CIRCLE
  5
9E
330
48
100
AcDbEntity
  8
1
  6
Continuous
 62
     7
100
AcDbCircle
 10
25.13425895942453
 20
-152.444845037912
 30
0.0
 40
0.3000000000000114
  0
CIRCLE
  5
9F
330
48
100
AcDbEntity
  8
1
  6
Continuous
 62
     7
100
AcDbCircle
 10
31.13425895942453
 20
-152.444845037912
 30
0.0
 40
0.3000000000000114
  0
CIRCLE
  5
A0
330
48
100
AcDbEntity
  8
1
  6
Continuous
 62
     7
100
AcDbCircle
 10
42.13425895942453
 20
-152.444845037912
 30
0.0
 40
0.3000000000000114
  0
CIRCLE
  5
A1
330
48
100
AcDbEntity
  8
1
  6
Continuous
 62
     7
100
AcDbCircle
 10
48.13425895942453
 20
-152.444845037912
 30
0.0
 40
0.3000000000000114
  0
CIRCLE
  5
A2
330
48
100
AcDbEntity
  8
1
  6
Continuous
 62
     7
100
AcDbCircle
 10
65.13425895942453
 20
-152.444845037912
 30
0.0
 40
0.3000000000000114
  0
CIRCLE
  5
A3
330
48
100
AcDbEntity
  8
1
  6
Continuous
 62
     7
100
AcDbCircle
 10
59.13425895942453
 20
-152.444845037912
 30
0.0
 40
0.3000000000000114
  0
CIRCLE
  5
A4
330
48
100
AcDbEntity
  8
1
  6
Continuous
 62
     7
100
AcDbCircle
 10
91.63425895942453
 20
-141.444845037912
 30
0.0
 40
1.200000000000102
  0
CIRCLE
  5
A5
330
48
100
AcDbEntity
  8
1
  6
Continuous
 62
     7
100
AcDbCircle
 10
91.63425895942453
 20
-141.444845037912
 30
0.0
 40
2.0
  0
CIRCLE
  5
A6
330
48
100
AcDbEntity
  8
1
  6
DOT_CENTER
 62
     7
100
AcDbCircle
 10
-5.86574104057547
 20
-148.944845037912
 30
0.0
 40
0.1000000000000227
  0
CIRCLE
  5
A7
330
48
100
AcDbEntity
  8
1
  6
DOT_CENTER
 62
     7
100
AcDbCircle
 10
-5.86574104057547
 20
-146.944845037912
 30
0.0
 40
0.1000000000000227
  0
SPLINE
  5
A8
102
{ACAD_REACTORS
330
C7
102
}
330
48
100
AcDbEntity
  8
_U_30EC_U_30A4_U_30E4_U_30FC_1
  6
Continuous
 62
     2
100
AcDbSpline
210
0.0
220
0.0
230
1.0
 70
     8
 71
     3
 72
    24
 73
    20
 74
    18
 42
0.000000001
 43
0.0000000001
 44
0.00000001
 40
0.0
 40
0.0
 40
0.0
 40
0.0
 40
0.2211075008753955
 40
0.4273218586245946
 40
0.5080174679240137
 40
0.5914835907871119
 40
0.8143265690193746
 40
1.05465130268668
 40
1.295452694023265
 40
1.518109231328846
 40
1.540864321905443
 40
1.595126460622668
 40
1.659890947895997
 40
1.714153085187332
 40
1.736908174961632
 40
1.764951100735328
 40
1.801562291220876
 40
1.953914424543589
 40
2.126104167379639
 40
2.126104167379639
 40
2.126104167379639
 40
2.126104167379639
 10
90.57179591511346
 20
-149.3549520867818
 30
0.0
 10
90.54551686760573
 20
-149.4138687555682
 30
0.0
 10
90.49472884886706
 20
-149.5277336411193
 30
0.0
 10
90.44743744333574
 20
-149.800425455581
 30
0.0
 10
90.33860723968633
 20
-149.7003902121574
 30
0.0
 10
90.18573898738828
 20
-149.6736591042387
 30
0.0
 10
90.40287447754446
 20
-149.4596636877357
 30
0.0
 10
90.41810732686257
 20
-149.2415238600871
 30
0.0
 10
90.52494790862463
 20
-149.0603292472478
 30
0.0
 10
90.46479705413222
 20
-148.775712774798
 30
0.0
 10
90.56769069896475
 20
-148.8037041456876
 30
0.0
 10
90.61225230623951
 20
-148.812412521889
 30
0.0
 10
90.67234319896414
 20
-148.8234484960785
 30
0.0
 10
90.70992091816831
 20
-148.8371698073563
 30
0.0
 10
90.75950565228513
 20
-148.8372842763098
 30
0.0
 10
90.72727485135702
 20
-148.8717791139257
 30
0.0
 10
90.65143918161269
 20
-148.8608039925324
 30
0.0
 10
90.67720367539381
 20
-149.0462553420875
 30
0.0
 10
90.63984863580949
 20
-149.1378219024161
 30
0.0
 10
90.62002945558544
 20
-149.1864036839349
 30
0.0
 11
90.57179591511346
 21
-149.3549520867818
 31
0.0
 11
90.49590609227974
 21
-149.5626279547264
 31
0.0
 11
90.40599918326785
 21
-149.7482111143501
 31
0.0
 11
90.33540835173551
 21
-149.7091123122765
 31
0.0
 11
90.25881147868967
 21
-149.6759534060348
 31
0.0
 11
90.35566165417009
 21
-149.4752570258766
 31
0.0
 11
90.43372310617161
 21
-149.2479634061417
 31
0.0
 11
90.49323065239656
 21
-149.0146306718251
 31
0.0
 11
90.53441911054716
 21
-148.7958169479215
 31
0.0
 11
90.55667734164598
 21
-148.8005461456981
 31
0.0
 11
90.60975466195852
 21
-148.811823463473
 31
0.0
 11
90.67310501200896
 21
-148.8252834879141
 31
0.0
 11
90.72618233232151
 21
-148.836560805689
 31
0.0
 11
90.74844056342033
 21
-148.8412900034656
 31
0.0
 11
90.73066867517056
 21
-148.8629825295019
 31
0.0
 11
90.69487125923166
 21
-148.8706587534583
 31
0.0
 11
90.66245428957248
 21
-149.0195221561989
 31
0.0
 11
90.62002945558544
 21
-149.1864036839349
 31
0.0
  0
SPLINE
  5
A9
102
{ACAD_REACTORS
330
C7
102
}
330
48
100
AcDbEntity
  8
_U_30EC_U_30A4_U_30E4_U_30FC_1
  6
Continuous
 62
     2
100
AcDbSpline
210
0.0
220
0.0
230
1.0
 70
     8
 71
     3
 72
    70
 73
    66
 74
    64
 42
0.000000001
 43
0.0000000001
 44
0.00000001
 40
0.0
 40
0.0
 40
0.0
 40
0.0
 40
0.0241731073021472
 40
0.0846058988987155
 40
0.1631685280353284
 40
0.2417311571789898
 40
0.3021639488292893
 40
0.3263370654895967
 40
0.3533118254249396
 40
0.4228783438922378
 40
0.5179999095313846
 40
0.6216398239466671
 40
0.7167613891500239
 40
0.7863279069650432
 40
0.8133026791762333
 40
0.8372943998771895
 40
0.8945054261373114
 40
0.9627895541963016
 40
1.020000580349099
 40
1.043992300975197
 40
1.07193434552294
 40
1.113121768772961
 40
1.14522519933225
 40
1.225483775412803
 40
1.3298199237715
 40
1.434156071994371
 40
1.514414647795794
 40
1.546518078208398
 40
1.578974764260186
 40
1.662678849314138
 40
1.777131373668387
 40
1.901833377474821
 40
2.016285900500611
 40
2.099989982527978
 40
2.132446666570322
 40
2.158782354486069
 40
2.216720867907886
 40
2.274659381334336
 40
2.300995069256279
 40
2.333451754066251
 40
2.417155836543932
 40
2.531608358985414
 40
2.656310362283909
 40
2.770762886389027
 40
2.854466971340178
 40
2.886923657364013
 40
2.913597976833421
 40
2.982389642875239
 40
3.076451716947139
 40
3.178937260458701
 40
3.272999334740069
 40
3.341791001059311
 40
3.368465320663608
 40
3.396976080738858
 40
3.472140811846051
 40
3.578408190308741
 40
3.70022689245622
 40
3.822045594634394
 40
3.928312973256487
 40
4.003477705314912
 40
4.031988456866964
 40
4.058324144797746
 40
4.116262658236929
 40
4.174201171400734
 40
4.200536849608676
 40
4.200536849608676
 40
4.200536849608676
 40
4.200536849608676
 10
90.62002945558544
 20
-149.1864036839349
 30
0.0
 10
90.62808491389247
 20
-149.1864014397951
 30
0.0
 10
90.65627902574859
 20
-149.186393577584
 30
0.0
 10
90.71081243979182
 20
-149.1865374896283
 30
0.0
 10
90.78254814028489
 20
-149.185753832913
 30
0.0
 10
90.85788297313078
 20
-149.1885693332739
 30
0.0
 10
90.90556419606841
 20
-149.1818610039023
 30
0.0
 10
90.95376608398615
 20
-149.1928694009877
 30
0.0
 10
90.94051613941186
 20
-149.1393810079416
 30
0.0
 10
90.94936835587839
 20
-149.084349202481
 30
0.0
 10
90.9451287630531
 20
-148.9906459506509
 30
0.0
 10
90.94760730755257
 20
-148.8952502157267
 30
0.0
 10
90.94335283003058
 20
-148.8012768180781
 30
0.0
 10
90.95224082600922
 20
-148.7468944135319
 30
0.0
 10
90.93895670041906
 20
-148.6925050609973
 30
0.0
 10
90.98567088713541
 20
-148.7064228745584
 30
0.0
 10
91.02858441399815
 20
-148.7038062641715
 30
0.0
 10
91.09480330509304
 20
-148.7083608134045
 30
0.0
 10
91.13559318660441
 20
-148.7170634165705
 30
0.0
 10
91.18677352850634
 20
-148.70952703901
 30
0.0
 10
91.15963100814459
 20
-148.7513453356792
 30
0.0
 10
91.11456856499518
 20
-148.741995117186
 30
0.0
 10
91.12846546392961
 20
-148.8064329641936
 30
0.0
 10
91.12010040258991
 20
-148.871062841638
 30
0.0
 10
91.12462217726434
 20
-148.9695536259731
 30
0.0
 10
91.11973309054122
 20
-149.0688857094862
 30
0.0
 10
91.12928485863272
 20
-149.1319138823823
 30
0.0
 10
91.1142351049445
 20
-149.195204922914
 30
0.0
 10
91.17917490514537
 20
-149.1796943084693
 30
0.0
 10
91.2458835993742
 20
-149.1898511609338
 30
0.0
 10
91.35840250650729
 20
-149.1849570369183
 30
0.0
 10
91.47328250431987
 20
-149.187932990584
 30
0.0
 10
91.58624615939927
 20
-149.1826283960621
 30
0.0
 10
91.65188571919228
 20
-149.193771973191
 30
0.0
 10
91.71588662852989
 20
-149.1773997147134
 30
0.0
 10
91.70457324834344
 20
-149.2272281388592
 30
0.0
 10
91.71179294657554
 20
-149.2706778857908
 30
0.0
 10
91.70457322055145
 20
-149.3141275820376
 30
0.0
 10
91.71588667702397
 20
-149.3639560859433
 30
0.0
 10
91.65188531932172
 20
-149.3475833769984
 30
0.0
 10
91.58625108347044
 20
-149.3587323212962
 30
0.0
 10
91.47325639115763
 20
-149.3533964658434
 30
0.0
 10
91.35850461428879
 20
-149.3565015812738
 30
0.0
 10
91.24557732811066
 20
-149.3511960910861
 30
0.0
 10
91.179781049783
 20
-149.3622720377162
 30
0.0
 10
91.11586875696031
 20
-149.3459690594358
 30
0.0
 10
91.12786047593714
 20
-149.4006097939546
 30
0.0
 10
91.12046942072506
 20
-149.4563020874336
 30
0.0
 10
91.12352744362282
 20
-149.5483481465063
 30
0.0
 10
91.12360123799284
 20
-149.643053939181
 30
0.0
 10
91.1202903172605
 20
-149.7353172088894
 30
0.0
 10
91.12820955841491
 20
-149.7904873505506
 30
0.0
 10
91.11576662058623
 20
-149.8442633469106
 30
0.0
 10
91.17317061458768
 20
-149.8303073492842
 30
0.0
 10
91.23372977346278
 20
-149.8397304590697
 30
0.0
 10
91.3391270449326
 20
-149.835416178625
 30
0.0
 10
91.45468836648674
 20
-149.8364899917917
 30
0.0
 10
91.57022784720418
 20
-149.837585378902
 30
0.0
 10
91.67567707250862
 20
-149.8332197802056
 30
0.0
 10
91.73612700660487
 20
-149.8427507776053
 30
0.0
 10
91.7935427333355
 20
-149.8286721418482
 30
0.0
 10
91.78203634709537
 20
-149.8777735052552
 30
0.0
 10
91.78801563759943
 20
-149.9191984577255
 30
0.0
 10
91.78629006450464
 20
-149.9683282582451
 30
0.0
 10
91.78640897172164
 20
-149.9963007534359
 30
0.0
 10
91.78644612860779
 20
-150.0050421559525
 30
0.0
 11
90.62002945558544
 21
-149.1864036839349
 31
0.0
 11
90.64420257225268
 21
-149.1864036839349
 31
0.0
 11
90.7046353639208
 21
-149.1864036839349
 31
0.0
 11
90.78319799308935
 21
-149.1864036839349
 31
0.0
 11
90.8617606222579
 21
-149.1864036839349
 31
0.0
 11
90.922193413926
 21
-149.1864036839349
 31
0.0
 11
90.94636653059325
 21
-149.1864036839349
 31
0.0
 11
90.94636653059324
 21
-149.1594289117113
 31
0.0
 11
90.94636653059325
 21
-149.0898623938716
 31
0.0
 11
90.94636653059327
 21
-148.9947408286621
 31
0.0
 11
90.94636653059327
 21
-148.8911009143294
 31
0.0
 11
90.94636653059325
 21
-148.7959793491199
 31
0.0
 11
90.94636653059325
 21
-148.7264128312802
 31
0.0
 11
90.94636653059325
 21
-148.6994380590566
 31
0.0
 11
90.97029971991374
 21
-148.701112906834
 31
0.0
 11
91.02737117137032
 21
-148.7051067746108
 31
0.0
 11
91.09548871020557
 21
-148.709873649054
 31
0.0
 11
91.15256016166215
 21
-148.7138675168308
 31
0.0
 11
91.17649335098264
 21
-148.7155423646082
 31
0.0
 11
91.16175623254748
 21
-148.7392821041856
 31
0.0
 11
91.12292298442213
 21
-148.7530073645989
 31
0.0
 11
91.1229229844221
 21
-148.7851107956608
 31
0.0
 11
91.12292298442213
 21
-148.8653693733156
 31
0.0
 11
91.12292298442213
 21
-148.9697055242669
 31
0.0
 11
91.12292298442213
 21
-149.0740416752182
 31
0.0
 11
91.12292298442212
 21
-149.154300252873
 31
0.0
 11
91.12292298442213
 21
-149.1864036839349
 31
0.0
 11
91.15537967050695
 21
-149.1864036839349
 31
0.0
 11
91.23908375567306
 21
-149.1864036839349
 31
0.0
 11
91.35353628028797
 21
-149.1864036839349
 31
0.0
 11
91.47823828471914
 21
-149.1864036839349
 31
0.0
 11
91.59269080933402
 21
-149.1864036839349
 31
0.0
 11
91.67639489450013
 21
-149.1864036839349
 31
0.0
 11
91.70885158058496
 21
-149.1864036839349
 31
0.0
 11
91.70885158058496
 21
-149.2127393718624
 31
0.0
 11
91.70885158058496
 21
-149.2706778853028
 31
0.0
 11
91.70885158058496
 21
-149.3286163987432
 31
0.0
 11
91.70885158058496
 21
-149.3549520866706
 31
0.0
 11
91.67639489450015
 21
-149.3549520866706
 31
0.0
 11
91.59269080933403
 21
-149.3549520866706
 31
0.0
 11
91.47823828471913
 21
-149.3549520866706
 31
0.0
 11
91.35353628028797
 21
-149.3549520866706
 31
0.0
 11
91.23908375567306
 21
-149.3549520866706
 31
0.0
 11
91.15537967050695
 21
-149.3549520866706
 31
0.0
 11
91.12292298442213
 21
-149.3549520866706
 31
0.0
 11
91.12292298442213
 21
-149.3816264063918
 31
0.0
 11
91.12292298442215
 21
-149.4504180730413
 31
0.0
 11
91.12292298442212
 21
-149.5444801478477
 31
0.0
 11
91.12292298442215
 21
-149.6469656920397
 31
0.0
 11
91.12292298442213
 21
-149.7410277668461
 31
0.0
 11
91.12292298442213
 21
-149.8098194334956
 31
0.0
 11
91.12292298442213
 21
-149.8364937532168
 31
0.0
 11
91.15143374452386
 21
-149.8364937532168
 31
0.0
 11
91.22659847570114
 21
-149.8364937532168
 31
0.0
 11
91.33286585426212
 21
-149.8364937532168
 31
0.0
 11
91.45468455651496
 21
-149.8364937532168
 31
0.0
 11
91.5765032587678
 21
-149.8364937532168
 31
0.0
 11
91.68277063732879
 21
-149.8364937532168
 31
0.0
 11
91.75793536850607
 21
-149.8364937532168
 31
0.0
 11
91.78644612860779
 21
-149.8364937532168
 31
0.0
 11
91.78644612860779
 21
-149.8628294411442
 31
0.0
 11
91.78644612860779
 21
-149.9207679545846
 31
0.0
 11
91.78644612860779
 21
-149.9787064680251
 31
0.0
 11
91.78644612860779
 21
-150.0050421559525
 31
0.0
  0
SPLINE
  5
AA
102
{ACAD_REACTORS
330
C7
102
}
330
48
100
AcDbEntity
  8
_U_30EC_U_30A4_U_30E4_U_30FC_1
  6
Continuous
 62
     2
100
AcDbSpline
210
0.0
220
0.0
230
1.0
 70
     8
 71
     3
 72
    62
 73
    58
 74
    56
 42
0.000000001
 43
0.0000000001
 44
0.00000001
 40
0.0
 40
0.0
 40
0.0
 40
0.0
 40
0.0598250028308769
 40
0.2024846486897331
 40
0.3727558389220746
 40
0.5154154847935786
 40
0.5752404975785197
 40
0.933232677548727
 40
1.29045176283946
 40
1.602077253145864
 40
1.699931634112126
 40
1.799359756425054
 40
2.270120149657107
 40
2.804661928461567
 40
2.882342287383264
 40
3.076543185719143
 40
3.329004354835601
 40
3.581465524568441
 40
3.775666424543712
 40
3.853346784558338
 40
3.899120679595097
 40
3.984129341792081
 40
4.029903236817401
 40
4.105797496059577
 40
4.295533144152498
 40
4.54218948661173
 40
4.788845828875677
 40
4.978581476410054
 40
5.054475735244293
 40
5.621734664339292
 40
6.130867242037308
 40
6.225249780948585
 40
6.318913039727285
 40
6.663579954558899
 40
7.047498900224718
 40
7.43523079157567
 40
7.498943906668067
 40
7.650875181210047
 40
7.832212509001543
 40
7.984143783696915
 40
8.047856898903042
 40
8.091554632732546
 40
8.172707566964199
 40
8.216405300767953
 40
8.289021782160823
 40
8.462184160757182
 40
8.66886183800532
 40
8.84202421526387
 40
8.914640695475079
 40
8.989881580861272
 40
9.155411528827166
 40
9.320941477743936
 40
9.396182352487168
 40
9.454709011143686
 40
9.583467660170678
 40
9.712226309012886
 40
9.770752957989382
 40
9.770752957989382
 40
9.770752957989382
 40
9.770752957989382
 10
91.78644612860779
 20
-150.0050421559525
 30
0.0
 10
91.76649377658677
 20
-150.0050362822253
 30
0.0
 10
91.6989627310711
 20
-150.0050163998504
 30
0.0
 10
91.57532017560332
 20
-150.0053514127087
 30
0.0
 10
91.42057697443016
 20
-150.003768300407
 30
0.0
 10
91.30399390767246
 20
-150.007984249307
 30
0.0
 10
91.08935322284859
 20
-149.9926929845958
 30
0.0
 10
91.48615380014735
 20
-150.3528578250501
 30
0.0
 10
91.52882456635129
 20
-150.5697400039404
 30
0.0
 10
91.95317517408566
 20
-150.7515944127974
 30
0.0
 10
91.77824110903194
 20
-150.8549930722313
 30
0.0
 10
91.65371135193288
 20
-151.0665298057847
 30
0.0
 10
91.40088668301885
 20
-150.5967842278964
 30
0.0
 10
91.11401924878706
 20
-149.9497298680667
 30
0.0
 10
91.12489255209054
 20
-150.2570183163651
 30
0.0
 10
91.12254823722044
 20
-150.4219588681942
 30
0.0
 10
91.12036857206566
 20
-150.6560483307951
 30
0.0
 10
91.13233639905908
 20
-150.8998643136941
 30
0.0
 10
91.10305743348758
 20
-151.0462870693022
 30
0.0
 10
91.14571122197151
 20
-151.1937101361666
 30
0.0
 10
91.05824035998845
 20
-151.1779870648498
 30
0.0
 10
91.01111172009895
 20
-151.1779020024774
 30
0.0
 10
90.92415628019583
 20
-151.1937507830829
 30
0.0
 10
90.96560636159687
 20
-151.0495673236844
 30
0.0
 10
90.93724645985303
 20
-150.9062945109275
 30
0.0
 10
90.94885633695448
 20
-150.6680955642594
 30
0.0
 10
90.94667652425171
 20
-150.4396726855086
 30
0.0
 10
90.94457007222394
 20
-150.2777877441521
 30
0.0
 10
90.95506250325687
 20
-149.9633079445746
 30
0.0
 10
90.64715528471388
 20
-150.6525503291877
 30
0.0
 10
90.33978478617004
 20
-151.1300775354816
 30
0.0
 10
90.21939566605198
 20
-150.9074339115377
 30
0.0
 10
90.04171975049668
 20
-150.7947346883564
 30
0.0
 10
90.5195915957139
 20
-150.6193636032573
 30
0.0
 10
90.56965486514528
 20
-150.3839257453917
 30
0.0
 10
90.99263892159618
 20
-149.991615144466
 30
0.0
 10
90.76193438677853
 20
-150.0082919676213
 30
0.0
 10
90.63922754535858
 20
-150.0021498484244
 30
0.0
 10
90.46680726899069
 20
-150.0117168109162
 30
0.0
 10
90.3555814288694
 20
-149.9903568530154
 30
0.0
 10
90.23683692216935
 20
-150.0234823843378
 30
0.0
 10
90.25257593009312
 20
-149.9428060318432
 30
0.0
 10
90.25211405280078
 20
-149.8983908950035
 30
0.0
 10
90.23704714841767
 20
-149.8151742201267
 30
0.0
 10
90.37149705296886
 20
-149.8542185180732
 30
0.0
 10
90.49623451399918
 20
-149.8274477446277
 30
0.0
 10
90.69713448315255
 20
-149.8442055474715
 30
0.0
 10
90.82641305435985
 20
-149.8228027787819
 30
0.0
 10
90.967100952254
 20
-149.8561572493778
 30
0.0
 10
90.93235170468606
 20
-149.7183262800613
 30
0.0
 10
90.9564775260958
 20
-149.5952124644172
 30
0.0
 10
90.93096757766384
 20
-149.4746044812087
 30
0.0
 10
90.96758407409297
 20
-149.3394463864971
 30
0.0
 10
90.85540066220153
 20
-149.3638995800932
 30
0.0
 10
90.7622946051381
 20
-149.3517675394918
 30
0.0
 10
90.65341371740658
 20
-149.3552687372121
 30
0.0
 10
90.59122872352094
 20
-149.355027478396
 30
0.0
 10
90.57179591514915
 20
-149.3549520866706
 30
0.0
 11
91.78644612860779
 21
-150.0050421559525
 31
0.0
 11
91.72662111582267
 21
-150.0050421559525
 31
0.0
 11
91.58396146995044
 21
-150.0050421559525
 31
0.0
 11
91.41369027971587
 21
-150.0050421559525
 31
0.0
 11
91.27103063384365
 21
-150.0050421559525
 31
0.0
 11
91.21120562105853
 21
-150.0050421559525
 31
0.0
 11
91.40225503490875
 21
-150.3077937582431
 31
0.0
 11
91.6283862379875
 21
-150.5843261321452
 31
0.0
 11
91.85871157676166
 21
-150.7942325029774
 31
0.0
 11
91.78641859249493
 21
-150.8601810012248
 31
0.0
 11
91.72219539968881
 21
-150.9360844473864
 31
0.0
 11
91.4075407809803
 21
-150.5859304544184
 31
0.0
 11
91.12292298442213
 21
-150.133462086476
 31
0.0
 11
91.12292298442213
 21
-150.2111424465388
 31
0.0
 11
91.12292298442212
 21
-150.4053433466961
 31
0.0
 11
91.12292298442213
 21
-150.6578045169005
 31
0.0
 11
91.12292298442212
 21
-150.9102656871048
 31
0.0
 11
91.12292298442213
 21
-151.104466587262
 31
0.0
 11
91.12292298442213
 21
-151.1821469473249
 31
0.0
 11
91.07714908898502
 21
-151.1821469473249
 31
0.0
 11
90.99214042603036
 21
-151.1821469473249
 31
0.0
 11
90.94636653059325
 21
-151.1821469473249
 31
0.0
 11
90.94636653059325
 21
-151.1062526880846
 31
0.0
 11
90.94636653059327
 21
-150.9165170399839
 31
0.0
 11
90.94636653059325
 21
-150.669860697453
 31
0.0
 11
90.94636653059325
 21
-150.4232043549221
 31
0.0
 11
90.94636653059325
 21
-150.2334687068214
 31
0.0
 11
90.94636653059325
 21
-150.1575744475811
 31
0.0
 11
90.63302159935117
 21
-150.6304355759351
 31
0.0
 11
90.26949182563936
 21
-150.9868932668182
 31
0.0
 11
90.21165170558727
 21
-150.9123105324618
 31
0.0
 11
90.14374418995862
 21
-150.8478018085196
 31
0.0
 11
90.40933114925642
 21
-150.6281228399531
 31
0.0
 11
90.6576354566306
 21
-150.335311078195
 31
0.0
 11
90.86075723995049
 21
-150.0050421559525
 31
0.0
 11
90.7970441246966
 21
-150.0050421559525
 31
0.0
 11
90.64511284986038
 21
-150.0050421559525
 31
0.0
 11
90.46377552183009
 21
-150.0050421559525
 31
0.0
 11
90.31184424699387
 21
-150.0050421559525
 31
0.0
 11
90.24813113173997
 21
-150.0050421559525
 31
0.0
 11
90.24813113173997
 21
-149.9613444219099
 31
0.0
 11
90.24813113173997
 21
-149.8801914872594
 31
0.0
 11
90.24813113173997
 21
-149.8364937532168
 31
0.0
 11
90.3207476132207
 21
-149.8364937532168
 31
0.0
 11
90.49390999213632
 21
-149.8364937532168
 31
0.0
 11
90.70058767019691
 21
-149.8364937532168
 31
0.0
 11
90.87375004911252
 21
-149.8364937532168
 31
0.0
 11
90.94636653059325
 21
-149.8364937532168
 31
0.0
 11
90.94636653059325
 21
-149.761252867819
 31
0.0
 11
90.94636653059325
 21
-149.5957229199437
 31
0.0
 11
90.94636653059325
 21
-149.4301929720685
 31
0.0
 11
90.94636653059325
 21
-149.3549520866706
 31
0.0
 11
90.88783987193011
 21
-149.3549520866706
 31
0.0
 11
90.7590812228712
 21
-149.3549520866706
 31
0.0
 11
90.6303225738123
 21
-149.3549520866706
 31
0.0
 11
90.57179591514915
 21
-149.3549520866706
 31
0.0
  0
SPLINE
  5
AB
102
{ACAD_REACTORS
330
C8
102
}
330
48
100
AcDbEntity
  8
_U_30EC_U_30A4_U_30E4_U_30FC_1
  6
Continuous
 62
     2
100
AcDbSpline
210
0.0
220
0.0
230
1.0
 70
    11
 71
     3
 72
   124
 73
   120
 74
   118
 42
0.000000001
 43
0.0000000001
 44
0.00000001
 40
0.0
 40
0.0
 40
0.0
 40
0.0
 40
0.0278187229624653
 40
0.1011590162384128
 40
0.2048470170589813
 40
0.3237088716558677
 40
0.4425707262521005
 40
0.5462587270698694
 40
0.6195990203311229
 40
0.6474177522577808
 40
0.6750060736114283
 40
0.7357003855241835
 40
0.7963946998053479
 40
0.8239830245570949
 40
0.8540933811101901
 40
0.9373396629408439
 40
1.063094687343139
 40
1.220731268637977
 40
1.399622220914652
 40
1.589140358637622
 40
1.778658496423731
 40
1.957549448940399
 40
2.115186030873006
 40
2.240941056914296
 40
2.324187341760365
 40
2.354297700109229
 40
2.381886024671744
 40
2.44258033871033
 40
2.503274652750364
 40
2.530862977314471
 40
2.56098394927841
 40
2.640393784452784
 40
2.75266286175895
 40
2.881361560117981
 40
3.010060258455057
 40
3.12232933570519
 40
3.201739170817789
 40
3.231860142753178
 40
3.264298024030198
 40
3.352343701778111
 40
3.482095226868595
 40
3.639650650172869
 40
3.811108022565336
 40
3.98256539492779
 40
4.140120818152369
 40
4.269872343141103
 40
4.357918020802161
 40
4.390355902043795
 40
4.423256253992393
 40
4.5081045300729
 40
4.624121560636667
 40
4.75052817603141
 40
4.866545206601885
 40
4.951393482691828
 40
4.984293834645244
 40
5.011450833242166
 40
5.071196230151927
 40
5.130941627057056
 40
5.158098625648692
 40
5.190998977601311
 40
5.275847253689165
 40
5.391864284256642
 40
5.518270899648173
 40
5.634287930209198
 40
5.719136206287872
 40
5.752036558235774
 40
5.782130946282792
 40
5.862783906228999
 40
5.979550131774858
 40
6.117984316640276
 40
6.263641154587817
 40
6.402075339414041
 40
6.518841564907832
 40
6.599494524815413
 40
6.629588912848647
 40
6.654403028226222
 40
6.71357514948795
 40
6.784199939329269
 40
6.843372060493341
 40
6.868186175802559
 40
6.896246243201634
 40
6.939586233757972
 40
6.967846564564575
 40
7.043584251089521
 40
7.153234334451406
 40
7.283231855734123
 40
7.420011856035125
 40
7.550009376579504
 40
7.659659458834903
 40
7.735397144416873
 40
7.763657474851038
 40
7.796409728010695
 40
7.880876065095969
 40
7.996370852465341
 40
8.122208446418222
 40
8.237703224798858
 40
8.322169562010581
 40
8.354921815205538
 40
8.382078813307325
 40
8.44182420920661
 40
8.501569605239789
 40
8.528726603485362
 40
8.561478856695397
 40
8.645945193877461
 40
8.761439980865001
 40
8.887277580764144
 40
9.00277236200065
 40
9.087238696660842
 40
9.119990949235325
 40
9.152428830613042
 40
9.240474508638238
 40
9.370226034149193
 40
9.527781457984071
 40
9.69923883098104
 40
9.870696203978236
 40
10.02825162781365
 40
10.15800315332526
 40
10.2460488313508
 40
10.27848670378483
 40
10.27848670378483
 40
10.27848670378483
 40
10.27848670378483
 10
100.0164417158629
 20
-150.9307398640544
 30
0.0
 10
100.0257144331769
 20
-150.9307400527993
 30
0.0
 10
100.0594334131106
 20
-150.9307407291448
 30
0.0
 10
100.1277296406711
 20
-150.9307269654789
 30
0.0
 10
100.2262731305825
 20
-150.9308127957166
 30
0.0
 10
100.3404656059057
 20
-150.9304274817895
 30
0.0
 10
100.4528484011316
 20
-150.9318366789365
 30
0.0
 10
100.5556966194363
 20
-150.9276538636895
 30
0.0
 10
100.6149429469094
 20
-150.9366141453922
 30
0.0
 10
100.6713855531278
 20
-150.9232006926514
 30
0.0
 10
100.6588845181199
 20
-150.9739730517784
 30
0.0
 10
100.6672139229948
 20
-151.0189518285213
 30
0.0
 10
100.6590760435365
 20
-151.0642775080071
 30
0.0
 10
100.6713118808702
 20
-151.1155257138273
 30
0.0
 10
100.6090363084578
 20
-151.1003654842592
 30
0.0
 10
100.5403102621113
 20
-151.1112475308045
 30
0.0
 10
100.4125346343836
 20
-151.1057319904323
 30
0.0
 10
100.2605574105888
 20
-151.107836525375
 30
0.0
 10
100.0845285566768
 20
-151.1071350120272
 30
0.0
 10
99.89870215285322
 20
-151.107392662599
 30
0.0
 10
99.71287570314205
 20
-151.1071349864659
 30
0.0
 10
99.53684697364136
 20
-151.1078366194347
 30
0.0
 10
99.38486937484396
 20
-151.1057317156121
 30
0.0
 10
99.25709472588
 20
-151.1112482302356
 30
0.0
 10
99.1883667430826
 20
-151.1003642666525
 30
0.0
 10
99.12609386371284
 20
-151.1155271710699
 30
0.0
 10
99.1383205884263
 20
-151.0642699298603
 30
0.0
 10
99.13025940568419
 20
-151.0190203051877
 30
0.0
 10
99.13832654041383
 20
-150.9737814583587
 30
0.0
 10
99.12608280813285
 20
-150.9225032688124
 30
0.0
 10
99.18676067149435
 20
-150.9373492642807
 30
0.0
 10
99.2505400339981
 20
-150.9272805562046
 30
0.0
 10
99.3619903947748
 20
-150.931898595792
 30
0.0
 10
99.48401230380685
 20
-150.9307117488573
 30
0.0
 10
99.60621277320689
 20
-150.9296863989056
 30
0.0
 10
99.71723838816376
 20
-150.933920281678
 30
0.0
 10
99.78191070082032
 20
-150.9246591926946
 30
0.0
 10
99.84337524047467
 20
-150.9388008074151
 30
0.0
 10
99.82726551955822
 20
-150.8724897590668
 30
0.0
 10
99.83855699216036
 20
-150.8003671366922
 30
0.0
 10
99.83299904168061
 20
-150.6697074290291
 30
0.0
 10
99.83506246559354
 20
-150.5187718008296
 30
0.0
 10
99.83427567215398
 20
-150.3514863068331
 30
0.0
 10
99.83504348098725
 20
-150.184233934589
 30
0.0
 10
99.83306283798733
 20
-150.0332121452128
 30
0.0
 10
99.83838957508661
 20
-149.9027843423821
 30
0.0
 10
99.827569098267
 20
-149.8301906118531
 30
0.0
 10
99.84329160241208
 20
-149.763340343544
 30
0.0
 10
99.77752977267359
 20
-149.7790399130039
 30
0.0
 10
99.70989574250089
 20
-149.768752607072
 30
0.0
 10
99.5958474888055
 20
-149.7737071694408
 30
0.0
 10
99.4793832269148
 20
-149.7707037576073
 30
0.0
 10
99.36491437157224
 20
-149.7760420064781
 30
0.0
 10
99.29829142520578
 20
-149.7648323571638
 30
0.0
 10
99.23333593094307
 20
-149.7813537112619
 30
0.0
 10
99.24505793529536
 20
-149.7301078331415
 30
0.0
 10
99.23754197833652
 20
-149.685341700071
 30
0.0
 10
99.24505794730814
 20
-149.6405755889324
 30
0.0
 10
99.2333359099592
 20
-149.5893296766146
 30
0.0
 10
99.29829159334454
 20
-149.6058512202438
 30
0.0
 10
99.36491229340663
 20
-149.5946393241726
 30
0.0
 10
99.47939424523085
 20
-149.5999906708053
 30
0.0
 10
99.5958044031208
 20
-149.5969331502008
 30
0.0
 10
99.71002497688866
 20
-149.602060047805
 30
0.0
 10
99.77727400334713
 20
-149.5913877043559
 30
0.0
 10
99.84259155356841
 20
-149.6074242112213
 30
0.0
 10
99.82839810427963
 20
-149.5453481804114
 30
0.0
 10
99.83786490572412
 20
-149.4789774216244
 30
0.0
 10
99.83328585983305
 20
-149.3624453104923
 30
0.0
 10
99.83502861501931
 20
-149.2305781876882
 30
0.0
 10
99.83401410896373
 20
-149.0886854364092
 30
0.0
 10
99.83597809386174
 20
-148.9571545308862
 30
0.0
 10
99.83072581480965
 20
-148.839599265082
 30
0.0
 10
99.84159983577196
 20
-148.7753671478961
 30
0.0
 10
99.82621262360992
 20
-148.7137570124615
 30
0.0
 10
99.87501811320456
 20
-148.7278209640908
 30
0.0
 10
99.9196585158971
 20
-148.7252976171589
 30
0.0
 10
99.98812335409875
 20
-148.729717063895
 30
0.0
 10
100.0301695763347
 20
-148.7387147824716
 30
0.0
 10
100.083013435302
 20
-148.7307278892469
 30
0.0
 10
100.0549624596259
 20
-148.7737058617953
 30
0.0
 10
100.009173184284
 20
-148.7622495174737
 30
0.0
 10
100.021212866751
 20
-148.8231098378606
 30
0.0
 10
100.0138675664888
 20
-148.8871520432243
 30
0.0
 10
100.0173785420407
 20
-148.995751349273
 30
0.0
 10
100.016239635442
 20
-149.1199018464645
 30
0.0
 10
100.0161764374508
 20
-149.2529478396132
 30
0.0
 10
100.0175462561113
 20
-149.3768712254164
 30
0.0
 10
100.0134228395559
 20
-149.4861616594187
 30
0.0
 10
100.022035269781
 20
-149.5487592369703
 30
0.0
 10
100.0089347048648
 20
-149.6074437049484
 30
0.0
 10
100.0736473922444
 20
-149.5912238998029
 30
0.0
 10
100.1402995547402
 20
-149.6021424340789
 30
0.0
 10
100.2541369135348
 20
-149.5969076361745
 30
0.0
 10
100.3699848716342
 20
-149.5999895627428
 30
0.0
 10
100.4839513857526
 20
-149.5946624397869
 30
0.0
 10
100.5502930612345
 20
-149.6058029562465
 30
0.0
 10
100.6149778119726
 20
-149.5893752419802
 30
0.0
 10
100.6032410366968
 20
-149.6405857858115
 30
0.0
 10
100.6107757657286
 20
-149.685341696702
 30
0.0
 10
100.6032410586503
 20
-149.7300976478117
 30
0.0
 10
100.6149777734983
 20
-149.7813081292016
 30
0.0
 10
100.5502933669498
 20
-149.7648807599697
 30
0.0
 10
100.4839476025071
 20
-149.7760171934393
 30
0.0
 10
100.3700049081258
 20
-149.7707138789808
 30
0.0
 10
100.2540585217301
 20
-149.7736973919766
 30
0.0
 10
100.1405346476368
 20
-149.768776115228
 30
0.0
 10
100.073182091305
 20
-149.7789941627768
 30
0.0
 10
100.0076874716741
 20
-149.7633850765238
 30
0.0
 10
100.0234303213464
 20
-149.8302065196379
 30
0.0
 10
100.0125865592459
 20
-149.9027744597532
 30
0.0
 10
100.0179171224038
 20
-150.0332225617678
 30
0.0
 10
100.0159725746101
 20
-150.1841994560598
 30
0.0
 10
100.016572327746
 20
-150.3516225985704
 30
0.0
 10
100.016409615385
 20
-150.5182832767283
 30
0.0
 10
100.0164485082381
 20
-150.6712436086956
 30
0.0
 10
100.0164406007345
 20
-150.7963532480549
 30
0.0
 10
100.0164417976991
 20
-150.8797661279978
 30
0.0
 10
100.0164417310454
 20
-150.9199272550921
 30
0.0
 10
100.0164417158629
 20
-150.9307398640544
 30
0.0
 11
100.0164417158629
 21
-150.9307398640544
 31
0.0
 11
100.0442604477921
 21
-150.9307398640544
 31
0.0
 11
100.1176007410599
 21
-150.9307398640544
 31
0.0
 11
100.2212887418868
 21
-150.9307398640544
 31
0.0
 11
100.3401505964932
 21
-150.9307398640544
 31
0.0
 11
100.4590124510996
 21
-150.9307398640544
 31
0.0
 11
100.5627004519265
 21
-150.9307398640544
 31
0.0
 11
100.6360407451943
 21
-150.9307398640544
 31
0.0
 11
100.6638594771235
 21
-150.9307398640544
 31
0.0
 11
100.6638594771235
 21
-150.9583281887003
 31
0.0
 11
100.6638594771235
 21
-151.0190225029212
 31
0.0
 11
100.6638594771235
 21
-151.0797168171421
 31
0.0
 11
100.6638594771235
 21
-151.107305141788
 31
0.0
 11
100.6337491187739
 21
-151.107305141788
 31
0.0
 11
100.550502833925
 21
-151.107305141788
 31
0.0
 11
100.4247478078766
 21
-151.107305141788
 31
0.0
 11
100.2671112259286
 21
-151.107305141788
 31
0.0
 11
100.0882202733809
 21
-151.107305141788
 31
0.0
 11
99.89870213553337
 21
-151.107305141788
 31
0.0
 11
99.70918399768583
 21
-151.107305141788
 31
0.0
 11
99.53029304513814
 21
-151.107305141788
 31
0.0
 11
99.37265646319017
 21
-151.107305141788
 31
0.0
 11
99.24690143714179
 21
-151.107305141788
 31
0.0
 11
99.16365515229286
 21
-151.107305141788
 31
0.0
 11
99.13354479394326
 21
-151.107305141788
 31
0.0
 11
99.13354479394326
 21
-151.0797168171421
 31
0.0
 11
99.13354479394326
 21
-151.0190225029212
 31
0.0
 11
99.13354479394326
 21
-150.9583281887003
 31
0.0
 11
99.13354479394326
 21
-150.9307398640544
 31
0.0
 11
99.16366576591922
 21
-150.9307398640544
 31
0.0
 11
99.24307560112858
 21
-150.9307398640544
 31
0.0
 11
99.35534467849354
 21
-150.9307398640544
 31
0.0
 11
99.48404337693631
 21
-150.9307398640544
 31
0.0
 11
99.61274207537909
 21
-150.9307398640544
 31
0.0
 11
99.72501115274403
 21
-150.9307398640544
 31
0.0
 11
99.80442098795339
 21
-150.9307398640544
 31
0.0
 11
99.83454195992937
 21
-150.9307398640544
 31
0.0
 11
99.83454195992935
 21
-150.8983019826736
 31
0.0
 11
99.83454195992937
 21
-150.8102563046401
 31
0.0
 11
99.83454195992937
 21
-150.680504779117
 31
0.0
 11
99.83454195992937
 21
-150.5229493552675
 31
0.0
 11
99.83454195992937
 21
-150.3514919822547
 31
0.0
 11
99.83454195992937
 21
-150.1800346092421
 31
0.0
 11
99.83454195992937
 21
-150.0224791853926
 31
0.0
 11
99.83454195992937
 21
-149.8927276598694
 31
0.0
 11
99.83454195992937
 21
-149.8046819818359
 31
0.0
 11
99.83454195992937
 21
-149.7722441004551
 31
0.0
 11
99.8016416079774
 21
-149.7722441004551
 31
0.0
 11
99.71679333189078
 21
-149.7722441004551
 31
0.0
 11
99.60077630132335
 21
-149.7722441004551
 31
0.0
 11
99.47436968592898
 21
-149.7722441004551
 31
0.0
 11
99.35835265536154
 21
-149.7722441004551
 31
0.0
 11
99.2735043792749
 21
-149.7722441004551
 31
0.0
 11
99.24060402732295
 21
-149.7722441004551
 31
0.0
 11
99.24060402732295
 21
-149.745087101764
 31
0.0
 11
99.24060402732295
 21
-149.6853417046435
 31
0.0
 11
99.24060402732295
 21
-149.625596307523
 31
0.0
 11
99.24060402732295
 21
-149.5984393088319
 31
0.0
 11
99.27350437927488
 21
-149.5984393088319
 31
0.0
 11
99.35835265536153
 21
-149.5984393088319
 31
0.0
 11
99.47436968592898
 21
-149.5984393088319
 31
0.0
 11
99.60077630132335
 21
-149.5984393088319
 31
0.0
 11
99.71679333189077
 21
-149.5984393088319
 31
0.0
 11
99.8016416079774
 21
-149.5984393088319
 31
0.0
 11
99.83454195992937
 21
-149.5984393088319
 31
0.0
 11
99.83454195992935
 21
-149.5683449205983
 31
0.0
 11
99.83454195992937
 21
-149.4876919601323
 31
0.0
 11
99.83454195992937
 21
-149.3709257337859
 31
0.0
 11
99.83454195992935
 21
-149.2324915479113
 31
0.0
 11
99.83454195992937
 21
-149.0868347088607
 31
0.0
 11
99.83454195992937
 21
-148.9484005229862
 31
0.0
 11
99.83454195992937
 21
-148.8316342966398
 31
0.0
 11
99.83454195992937
 21
-148.7509813361738
 31
0.0
 11
99.83454195992937
 21
-148.7208869479402
 31
0.0
 11
99.85929948828635
 21
-148.7225617957175
 31
0.0
 11
99.91833667129146
 21
-148.7265556634943
 31
0.0
 11
99.98880040584592
 21
-148.7313225379376
 31
0.0
 11
100.047837588851
 21
-148.7353164057143
 31
0.0
 11
100.072595117208
 21
-148.7369912534917
 31
0.0
 11
100.0575656818275
 21
-148.7606868958469
 31
0.0
 11
100.0164417158629
 21
-148.774368059038
 31
0.0
 11
100.0164417158629
 21
-148.8026283899637
 31
0.0
 11
100.0164417158629
 21
-148.8783660768446
 31
0.0
 11
100.0164417158629
 21
-148.9880161608365
 31
0.0
 11
100.0164417158629
 21
-149.1180136830947
 31
0.0
 11
100.0164417158629
 21
-149.2547936847752
 31
0.0
 11
100.0164417158629
 21
-149.3847912070335
 31
0.0
 11
100.0164417158629
 21
-149.4944412910253
 31
0.0
 11
100.0164417158629
 21
-149.5701789779062
 31
0.0
 11
100.0164417158629
 21
-149.5984393088319
 31
0.0
 11
100.0491939690361
 21
-149.5984393088319
 31
0.0
 11
100.1336603061668
 21
-149.5984393088319
 31
0.0
 11
100.2491550936722
 21
-149.5984393088319
 31
0.0
 11
100.3749926979691
 21
-149.5984393088319
 31
0.0
 11
100.4904874854744
 21
-149.5984393088319
 31
0.0
 11
100.5749538226052
 21
-149.5984393088319
 31
0.0
 11
100.6077060757784
 21
-149.5984393088319
 31
0.0
 11
100.6077060757784
 21
-149.625596307523
 31
0.0
 11
100.6077060757784
 21
-149.6853417046435
 31
0.0
 11
100.6077060757784
 21
-149.745087101764
 31
0.0
 11
100.6077060757784
 21
-149.7722441004551
 31
0.0
 11
100.5749538226052
 21
-149.7722441004551
 31
0.0
 11
100.4904874854744
 21
-149.7722441004551
 31
0.0
 11
100.3749926979691
 21
-149.7722441004551
 31
0.0
 11
100.2491550936722
 21
-149.7722441004551
 31
0.0
 11
100.1336603061668
 21
-149.7722441004551
 31
0.0
 11
100.0491939690361
 21
-149.7722441004551
 31
0.0
 11
100.0164417158629
 21
-149.7722441004551
 31
0.0
 11
100.0164417158629
 21
-149.8046819818359
 31
0.0
 11
100.0164417158629
 21
-149.8927276598694
 31
0.0
 11
100.0164417158629
 21
-150.0224791853926
 31
0.0
 11
100.0164417158629
 21
-150.1800346092421
 31
0.0
 11
100.0164417158629
 21
-150.3514919822547
 31
0.0
 11
100.0164417158629
 21
-150.5229493552675
 31
0.0
 11
100.0164417158629
 21
-150.680504779117
 31
0.0
 11
100.0164417158629
 21
-150.8102563046401
 31
0.0
 11
100.0164417158629
 21
-150.8983019826736
 31
0.0
 11
100.0164417158629
 21
-150.9307398640544
 31
0.0
  0
SPLINE
  5
AC
102
{ACAD_REACTORS
330
C9
102
}
330
48
100
AcDbEntity
  8
_U_30EC_U_30A4_U_30E4_U_30FC_1
  6
Continuous
 62
     2
100
AcDbSpline
210
0.0
220
0.0
230
1.0
 70
    11
 71
     3
 72
   131
 73
   127
 74
   125
 42
0.000000001
 43
0.0000000001
 44
0.00000001
 40
0.0
 40
0.0
 40
0.0
 40
0.0
 40
0.019557702982639
 40
0.0426490537461696
 40
0.2863607575856726
 40
0.5344948436189707
 40
0.7842238845573152
 40
0.8737315789467083
 40
0.9803832810312497
 40
1.092842274517008
 40
1.199761146656759
 40
1.289788768186518
 40
1.351573580786217
 40
1.37072711756146
 40
1.416400936017873
 40
1.470914848355984
 40
1.51658866679179
 40
1.535742203552868
 40
1.634216592293252
 40
1.760283341175082
 40
1.897966686682188
 40
2.031216387369001
 40
2.049689751138005
 40
2.101115601646911
 40
2.179502577740068
 40
2.278859318314148
 40
2.393194462258806
 40
2.516516648383971
 40
2.642834515406066
 40
2.766156701983591
 40
2.880491846754695
 40
2.979848588358778
 40
3.058235565443938
 40
3.109661416669071
 40
3.128134780704273
 40
3.146783742386632
 40
3.191254343315465
 40
3.244332157316109
 40
3.28880275822597
 40
3.307451719895227
 40
3.327717853844832
 40
3.383747753580196
 40
3.46838866592458
 40
3.574487837698912
 40
3.694892515729038
 40
3.822449946852175
 40
3.950007377920572
 40
4.07041205580066
 40
4.176511227368196
 40
4.261152139501662
 40
4.317182039076841
 40
4.337448172964771
 40
4.620011002696393
 40
4.885096638397624
 40
4.945373043518426
 40
5.014107710488773
 40
5.070481727652199
 40
5.3192469556367
 40
5.584812164506173
 40
5.859000912057006
 40
6.133746937542195
 40
6.401732212969019
 40
6.420736683995596
 40
6.472845717451232
 40
6.550702743894188
 40
6.646951193874397
 40
6.754234497930721
 40
6.865196086587513
 40
6.972479390357986
 40
7.068727839772105
 40
7.146584865451143
 40
7.198693898189372
 40
7.217698368905527
 40
7.234950401631036
 40
7.276089864270059
 40
7.325191803516159
 40
7.366331266090551
 40
7.383583298769903
 40
7.402779163492294
 40
7.453386443254711
 40
7.524934666445727
 40
7.606953361406067
 40
7.688972056429204
 40
7.760520279784469
 40
7.811127559734725
 40
7.830323424546361
 40
7.847844055299969
 40
7.894799345667007
 40
7.962779392744675
 40
8.043374293560742
 40
8.128174145149654
 40
8.208769044817426
 40
8.27674909037712
 40
8.323704379669703
 40
8.341225010056416
 40
8.358497614800594
 40
8.401679126686783
 40
8.457815092185841
 40
8.513951057728276
 40
8.557132569708202
 40
8.574405174505287
 40
8.602340668616675
 40
8.643455660540237
 40
8.66322527196689
 40
8.715345156564549
 40
8.789031889628856
 40
8.873502045520578
 40
8.95797219432421
 40
9.031658925568077
 40
9.083778811234762
 40
9.103548423003215
 40
9.11955008312378
 40
9.160817522380068
 40
9.217244429110405
 40
9.278724491644919
 40
9.335151398295704
 40
9.376418837357985
 40
9.392420497300773
 40
9.401196302735007
 40
9.417494229384497
 40
9.426270027749766
 40
9.440875075477784
 40
9.475702496998986
 40
9.517270709866144
 40
9.552098131994308
 40
9.56670316988453
 40
9.56670316988453
 40
9.56670316988453
 40
9.56670316988453
 10
99.25128437427242
 20
-149.2746863228017
 30
0.0
 10
99.24769346876163
 20
-149.2803081308904
 30
0.0
 10
99.23986287178698
 20
-149.2925674937209
 30
0.0
 10
99.14725585687923
 20
-149.3288258775022
 30
0.0
 10
99.12302118274924
 20
-149.5433605957849
 30
0.0
 10
99.02012994401832
 20
-149.7228721928149
 30
0.0
 10
98.75630819585515
 20
-149.9086892999305
 30
0.0
 10
98.91880611634247
 20
-149.9852516722511
 30
0.0
 10
98.9949815355084
 20
-150.0462781059576
 30
0.0
 10
99.0834760667003
 20
-150.1096869924644
 30
0.0
 10
99.1732519827356
 20
-150.1695886957164
 30
0.0
 10
99.22264072302912
 20
-150.2238234894199
 30
0.0
 10
99.3088297751627
 20
-150.2519826324938
 30
0.0
 10
99.27538502684746
 20
-150.2877119413839
 30
0.0
 10
99.25572607605564
 20
-150.319341157993
 30
0.0
 10
99.22624778121272
 20
-150.3600863099513
 30
0.0
 10
99.20315790402765
 20
-150.3897984030156
 30
0.0
 10
99.17227955626018
 20
-150.4427308112271
 30
0.0
 10
99.10717829599855
 20
-150.317441688523
 30
0.0
 10
99.01385897166604
 20
-150.2627060355726
 30
0.0
 10
98.9293225879384
 20
-150.2056807985186
 30
0.0
 10
98.80650877199864
 20
-150.0480921636368
 30
0.0
 10
98.81070404415468
 20
-150.1244869702436
 30
0.0
 10
98.80940682469223
 20
-150.171232236299
 30
0.0
 10
98.81007160423216
 20
-150.248997179786
 30
0.0
 10
98.80981395812013
 20
-150.3458243546677
 30
0.0
 10
98.8099020834166
 20
-150.4583422471239
 30
0.0
 10
98.80986668965254
 20
-150.579604178455
 30
0.0
 10
98.8099101352524
 20
-150.7039760593224
 30
0.0
 10
98.80977895366502
 20
-150.8251682015986
 30
0.0
 10
98.8102067156291
 20
-150.9379335487146
 30
0.0
 10
98.80892677965554
 20
-151.0340159002246
 30
0.0
 10
98.81223494452883
 20
-151.113706773225
 30
0.0
 10
98.80577873343312
 20
-151.1566932800242
 30
0.0
 10
98.8148798299801
 20
-151.1952907141916
 30
0.0
 10
98.77904999341797
 20
-151.1867361606713
 30
0.0
 10
98.74578134094972
 20
-151.1914198380576
 30
0.0
 10
98.69471521702862
 20
-151.1913320503142
 30
0.0
 10
98.66123135670577
 20
-151.1869007350738
 30
0.0
 10
98.62501750029993
 20
-151.1952370994869
 30
0.0
 10
98.63523721629105
 20
-151.1533922661191
 30
0.0
 10
98.62790774820182
 20
-151.1070594297103
 30
0.0
 10
98.63162227303481
 20
-151.0210967268519
 30
0.0
 10
98.63020701491406
 20
-150.9187936108635
 30
0.0
 10
98.63066951488837
 20
-150.8003127985969
 30
0.0
 10
98.63053632804754
 20
-150.6752682063784
 30
0.0
 10
98.63056055042904
 20
-150.5500867568415
 30
0.0
 10
98.63059445197965
 20
-150.4319785841214
 30
0.0
 10
98.63046498873771
 20
-150.3285575508168
 30
0.0
 10
98.63080971433257
 20
-150.2455246763753
 30
0.0
 10
98.63012878729354
 20
-150.1934113526995
 30
0.0
 10
98.63371761948676
 20
-150.0657159596985
 30
0.0
 10
98.4168760980682
 20
-150.3643578697157
 30
0.0
 10
98.23639445161962
 20
-150.5922052227968
 30
0.0
 10
98.18329118898569
 20
-150.4511106050139
 30
0.0
 10
98.1543018727394
 20
-150.4015873623025
 30
0.0
 10
98.05392376570661
 20
-150.2984272400109
 30
0.0
 10
98.37477173175057
 20
-150.2178946876741
 30
0.0
 10
98.50324865996753
 20
-150.0341822075477
 30
0.0
 10
98.72490439196042
 20
-149.8255250801944
 30
0.0
 10
98.81128144883134
 20
-149.6514529256285
 30
0.0
 10
99.08919838233197
 20
-149.375174524487
 30
0.0
 10
98.96888374335295
 20
-149.3794994424008
 30
0.0
 10
98.92057869455944
 20
-149.3786964758864
 30
0.0
 10
98.84449670491497
 20
-149.3790992164461
 30
0.0
 10
98.75095996039954
 20
-149.3789422817959
 30
0.0
 10
98.64601843828017
 20
-149.3790200121497
 30
0.0
 10
98.53764773329628
 20
-149.3788903941264
 30
0.0
 10
98.43240438301424
 20
-149.379301103005
 30
0.0
 10
98.33988274136576
 20
-149.3780243011961
 30
0.0
 10
98.26107203949525
 20
-149.3814373725635
 30
0.0
 10
98.21822641596245
 20
-149.3746115375488
 30
0.0
 10
98.17920891807601
 20
-149.3841943959007
 30
0.0
 10
98.18689548661088
 20
-149.3506372422565
 30
0.0
 10
98.18280539985572
 20
-149.3196095346897
 30
0.0
 10
98.18281209630581
 20
-149.2724797452029
 30
0.0
 10
98.1868829319157
 20
-149.2414356214442
 30
0.0
 10
98.17920851688274
 20
-149.2078264215529
 30
0.0
 10
98.21774089997396
 20
-149.2173609337033
 30
0.0
 10
98.25838176087244
 20
-149.2108706829314
 30
0.0
 10
98.32940614447087
 20
-149.2138435314095
 30
0.0
 10
98.40719077438781
 20
-149.2130974239203
 30
0.0
 10
98.48498818407197
 20
-149.2123668974667
 30
0.0
 10
98.55598216841523
 20
-149.2153026827704
 30
0.0
 10
98.59668693860654
 20
-149.2088903501824
 30
0.0
 10
98.63524430841547
 20
-149.218339796152
 30
0.0
 10
98.62699323491725
 20
-149.1821981163241
 30
0.0
 10
98.6324936263604
 20
-149.1435466617798
 30
0.0
 10
98.62983438004075
 20
-149.0757097522936
 30
0.0
 10
98.63084050657787
 20
-148.9989286225246
 30
0.0
 10
98.63027676125648
 20
-148.9163511020844
 30
0.0
 10
98.63133041208368
 20
-148.8396717456132
 30
0.0
 10
98.62852654573751
 20
-148.771525130145
 30
0.0
 10
98.6343292315549
 20
-148.7335210398185
 30
0.0
 10
98.62582441454038
 20
-148.6972605571356
 30
0.0
 10
98.659819982737
 20
-148.7072878001935
 30
0.0
 10
98.69371652773444
 20
-148.7041123697749
 30
0.0
 10
98.74692586545916
 20
-148.7097553815059
 30
0.0
 10
98.80033581687286
 20
-148.7104972935478
 30
0.0
 10
98.83385042437355
 20
-148.7166528030822
 30
0.0
 10
98.87306757772848
 20
-148.7113847401761
 30
0.0
 10
98.84628532927374
 20
-148.7523112299772
 30
0.0
 10
98.80507005959686
 20
-148.7411329925309
 30
0.0
 10
98.8125231135119
 20
-148.7861744759908
 30
0.0
 10
98.80848175464293
 20
-148.8307222576305
 30
0.0
 10
98.81043036438851
 20
-148.9026093116949
 30
0.0
 10
98.80949544440037
 20
-148.9831587320243
 30
0.0
 10
98.81076967842745
 20
-149.063105083862
 30
0.0
 10
98.80746333881089
 20
-149.1364266670801
 30
0.0
 10
98.81446957742054
 20
-149.1779586078863
 30
0.0
 10
98.80440299743705
 20
-149.2173208522308
 30
0.0
 10
98.83724043981661
 20
-149.2101644036021
 30
0.0
 10
98.87071668907254
 20
-149.2145726065325
 30
0.0
 10
98.92576430702636
 20
-149.212665604433
 30
0.0
 10
98.98320921895598
 20
-149.212991373839
 30
0.0
 10
99.03656158425542
 20
-149.2137819505812
 30
0.0
 10
99.07411304908838
 20
-149.2117054467312
 30
0.0
 10
99.09657621174819
 20
-149.2146216562409
 30
0.0
 10
99.10942676679758
 20
-149.2091195114714
 30
0.0
 10
99.12008452801341
 20
-149.206833855934
 30
0.0
 10
99.13292252443884
 20
-149.1998953120314
 30
0.0
 10
99.14885806273156
 20
-149.2163145747753
 30
0.0
 10
99.17532135151373
 20
-149.2277538147174
 30
0.0
 10
99.20693948480024
 20
-149.2483981595601
 30
0.0
 10
99.23298454863965
 20
-149.263676341629
 30
0.0
 10
99.24711073182182
 20
-149.2721752746801
 30
0.0
 10
99.25128437427242
 20
-149.2746863228017
 30
0.0
 11
99.25128437427242
 21
-149.2746863228017
 31
0.0
 11
99.23925795964885
 21
-149.2901093262701
 31
0.0
 11
99.21915513898102
 21
-149.3014709755728
 31
0.0
 11
99.11215759500585
 21
-149.5204388356004
 31
0.0
 11
98.98196295285695
 21
-149.7316730227904
 31
0.0
 11
98.83391299603164
 21
-149.9327844476372
 31
0.0
 11
98.90775478479803
 21
-149.9833711885582
 31
0.0
 11
98.99482539060453
 21
-150.0449609213746
 31
0.0
 11
99.08605933446498
 21
-150.1107134319678
 31
0.0
 11
99.17239113739328
 21
-150.173788506219
 31
0.0
 11
99.24475532040327
 21
-150.2273459300096
 31
0.0
 11
99.29408640450885
 21
-150.264545489221
 31
0.0
 11
99.28295302964584
 21
-150.2801309292171
 31
0.0
 11
99.25640421266485
 21
-150.3172962092078
 31
0.0
 11
99.22471691497783
 21
-150.3616547691967
 31
0.0
 11
99.19816809799681
 21
-150.3988200491874
 31
0.0
 11
99.18703472313382
 21
-150.4144054891835
 31
0.0
 11
99.11496029571926
 21
-150.3473049510058
 31
0.0
 11
99.0195446579626
 21
-150.2649114961653
 31
0.0
 11
98.91358537464149
 21
-150.1769948642428
 31
0.0
 11
98.8098800105335
 21
-150.0933247948193
 31
0.0
 11
98.80988001053349
 21
-150.1117981589034
 31
0.0
 11
98.8098800105335
 21
-150.1632240102724
 31
0.0
 11
98.80988001053349
 21
-150.241610987602
 31
0.0
 11
98.80988001053349
 21
-150.3409677295675
 31
0.0
 11
98.80988001053349
 21
-150.4553028748444
 31
0.0
 11
98.8098800105335
 21
-150.5786250621081
 31
0.0
 11
98.8098800105335
 21
-150.7049429300341
 31
0.0
 11
98.8098800105335
 21
-150.8282651172978
 31
0.0
 11
98.80988001053349
 21
-150.9426002625747
 31
0.0
 11
98.8098800105335
 21
-151.0419570045402
 31
0.0
 11
98.80988001053349
 21
-151.1203439818698
 31
0.0
 11
98.80988001053349
 21
-151.1717698332388
 31
0.0
 11
98.8098800105335
 21
-151.1902431973229
 31
0.0
 11
98.79123104878707
 21
-151.1902431973229
 31
0.0
 11
98.74676044769946
 21
-151.1902431973229
 31
0.0
 11
98.6936826334981
 21
-151.1902431973229
 31
0.0
 11
98.64921203241047
 21
-151.1902431973229
 31
0.0
 11
98.63056307066404
 21
-151.1902431973229
 31
0.0
 11
98.63056307066405
 21
-151.1699770633098
 31
0.0
 11
98.63056307066404
 21
-151.1139471633913
 31
0.0
 11
98.63056307066404
 21
-151.0293062507486
 31
0.0
 11
98.63056307066404
 21
-150.9232070785625
 31
0.0
 11
98.63056307066404
 21
-150.8028024000142
 31
0.0
 11
98.63056307066404
 21
-150.6752449682849
 31
0.0
 11
98.63056307066404
 21
-150.5476875365556
 31
0.0
 11
98.63056307066405
 21
-150.4272828580074
 31
0.0
 11
98.63056307066404
 21
-150.3211836858214
 31
0.0
 11
98.63056307066404
 21
-150.2365427731785
 31
0.0
 11
98.63056307066404
 21
-150.1805128732601
 31
0.0
 11
98.63056307066404
 21
-150.160246739247
 31
0.0
 11
98.42258624437264
 21
-150.3515250551714
 31
0.0
 11
98.21060759526705
 21
-150.5106961836039
 31
0.0
 11
98.1838218608728
 21
-150.4566983183911
 31
0.0
 11
98.14813550092694
 21
-150.3979536321917
 31
0.0
 11
98.11422870883695
 21
-150.3529163225322
 31
0.0
 11
98.31728773365639
 21
-150.2092111659014
 31
0.0
 11
98.51611215525054
 21
-150.0331608026121
 31
0.0
 11
98.70196310384235
 21
-149.8315698926625
 31
0.0
 11
98.86610170965483
 21
-149.6112430960509
 31
0.0
 11
98.99978910291094
 21
-149.3789850727756
 31
0.0
 11
98.9807846318727
 21
-149.3789850727756
 31
0.0
 11
98.92867559838075
 21
-149.3789850727756
 31
0.0
 11
98.85081857186924
 21
-149.3789850727756
 31
0.0
 11
98.75457012177236
 21
-149.3789850727756
 31
0.0
 11
98.6472868175242
 21
-149.3789850727756
 31
0.0
 11
98.53632522855901
 21
-149.3789850727756
 31
0.0
 11
98.42904192431088
 21
-149.3789850727756
 31
0.0
 11
98.33279347421399
 21
-149.3789850727756
 31
0.0
 11
98.25493644770248
 21
-149.3789850727756
 31
0.0
 11
98.20282741421053
 21
-149.3789850727756
 31
0.0
 11
98.18382294317229
 21
-149.3789850727756
 31
0.0
 11
98.1838229431723
 21
-149.3617330400021
 31
0.0
 11
98.1838229431723
 21
-149.3205935772347
 31
0.0
 11
98.18382294317229
 21
-149.2714916378025
 31
0.0
 11
98.18382294317229
 21
-149.230352175035
 31
0.0
 11
98.18382294317229
 21
-149.2131001422615
 31
0.0
 11
98.20301880802545
 21
-149.2131001422615
 31
0.0
 11
98.25362608809287
 21
-149.2131001422615
 31
0.0
 11
98.32517431163647
 21
-149.2131001422615
 31
0.0
 11
98.40719300691816
 21
-149.2131001422615
 31
0.0
 11
98.48921170219984
 21
-149.2131001422615
 31
0.0
 11
98.56075992574347
 21
-149.2131001422615
 31
0.0
 11
98.6113672058109
 21
-149.2131001422615
 31
0.0
 11
98.63056307066404
 21
-149.2131001422615
 31
0.0
 11
98.63056307066404
 21
-149.1955795113598
 31
0.0
 11
98.63056307066404
 21
-149.1486242205432
 31
0.0
 11
98.63056307066404
 21
-149.0806441726445
 31
0.0
 11
98.63056307066404
 21
-149.0000492704965
 31
0.0
 11
98.63056307066404
 21
-148.9152494169321
 31
0.0
 11
98.63056307066404
 21
-148.8346545147842
 31
0.0
 11
98.63056307066404
 21
-148.7666744668855
 31
0.0
 11
98.63056307066404
 21
-148.7197191760688
 31
0.0
 11
98.63056307066404
 21
-148.7021985451671
 31
0.0
 11
98.64780737063562
 21
-148.7031869762369
 31
0.0
 11
98.69091812056459
 21
-148.7056580539111
 31
0.0
 11
98.74696209547224
 21
-148.7088704548877
 31
0.0
 11
98.8030060703799
 21
-148.7120828558643
 31
0.0
 11
98.84611682030886
 21
-148.7145539335385
 31
0.0
 11
98.86336112028044
 21
-148.7155423646082
 31
0.0
 11
98.84863642690968
 21
-148.7392821041856
 31
0.0
 11
98.8098800105335
 21
-148.7530073645989
 31
0.0
 11
98.80988001053352
 21
-148.7727769761391
 31
0.0
 11
98.80988001053352
 21
-148.8248968611087
 31
0.0
 11
98.8098800105335
 21
-148.8985835950312
 31
0.0
 11
98.8098800105335
 21
-148.9830537534302
 31
0.0
 11
98.8098800105335
 21
-149.0675239118292
 31
0.0
 11
98.8098800105335
 21
-149.1412106457517
 31
0.0
 11
98.8098800105335
 21
-149.1933305307213
 31
0.0
 11
98.8098800105335
 21
-149.2131001422615
 31
0.0
 11
98.82588167071808
 21
-149.2131001422615
 31
0.0
 11
98.86714911014148
 21
-149.2131001422615
 31
0.0
 11
98.92357601710818
 21
-149.2131001422615
 31
0.0
 11
98.98505607992264
 21
-149.2131001422615
 31
0.0
 11
99.04148298688932
 21
-149.2131001422615
 31
0.0
 11
99.08275042631271
 21
-149.2131001422615
 31
0.0
 11
99.09875208649731
 21
-149.2131001422615
 31
0.0
 11
99.10707960171695
 21
-149.2103311633527
 31
0.0
 11
99.12254498712487
 21
-149.2051887739508
 31
0.0
 11
99.13087250234452
 21
-149.202419795042
 31
0.0
 11
99.14339533702501
 21
-149.209935513929
 31
0.0
 11
99.17325748126314
 21
-149.2278576128134
 31
0.0
 11
99.2088993953538
 21
-149.2492485050303
 31
0.0
 11
99.2387615395919
 21
-149.2671706039147
 31
0.0
 11
99.25128437427242
 21
-149.2746863228017
 31
0.0
  0
SPLINE
  5
AD
102
{ACAD_REACTORS
330
CA
102
}
330
48
100
AcDbEntity
  8
_U_30EC_U_30A4_U_30E4_U_30FC_1
  6
Continuous
 62
     2
100
AcDbSpline
210
0.0
220
0.0
230
1.0
 70
    11
 71
     3
 72
    91
 73
    87
 74
    85
 42
0.000000001
 43
0.0000000001
 44
0.00000001
 40
0.0
 40
0.0
 40
0.0
 40
0.0
 40
0.0267532254356986
 40
0.0856103386464617
 40
0.1444674521997349
 40
0.1712206856618941
 40
0.2039416005642962
 40
0.2955601971652768
 40
0.4362601844617202
 40
0.6162252844507818
 40
0.8256392189705124
 40
1.054685709844482
 40
1.29354847889356
 40
1.532411247938317
 40
1.761457738799596
 40
1.970871673298551
 40
2.150836773256718
 40
2.291536760495608
 40
2.383155356836729
 40
2.41587628410132
 40
2.442629517487991
 40
2.501486630949121
 40
2.56034374442432
 40
2.587096977826566
 40
2.617068194440994
 40
2.699247336756163
 40
2.822032643466419
 40
2.973822353257963
 40
3.143014704823419
 40
3.31800793687997
 40
3.487200288186789
 40
3.638989997548269
 40
3.761775303794782
 40
3.843954445753117
 40
3.873925662229827
 40
3.890812773500538
 40
3.907699884771739
 40
3.937960767857348
 40
3.980983618142365
 40
4.199085915228493
 40
4.439444339237247
 40
4.677588241260943
 40
5.050698317837799
 40
5.448212454763214
 40
5.855291218044724
 40
6.138575438885386
 40
6.417434507584241
 40
6.444551104393923
 40
6.504207617363224
 40
6.563864130314574
 40
6.590980727104136
 40
6.848609460381571
 40
7.109611990668489
 40
7.352910904446181
 40
7.557830220705521
 40
7.587518925913443
 40
7.652834077375836
 40
7.71814922884578
 40
7.747837934062068
 40
7.854880190301002
 40
7.976511257403481
 40
8.369487896592297
 40
8.757514959223618
 40
9.12607241933108
 40
9.460639380392129
 40
9.746695593035813
 40
9.777569943118573
 40
9.807050320931738
 40
9.830377336128873
 40
9.886003295435975
 40
9.952395569429914
 40
10.00802152870633
 40
10.03134854388222
 40
10.21356951009593
 40
10.42203479292872
 40
10.66154556731067
 40
10.91693789564307
 40
11.15832906556568
 40
11.18982674596624
 40
11.27286608520408
 40
11.39026653033351
 40
11.52484752840888
 40
11.65942852648447
 40
11.77682897161484
 40
11.85986831085682
 40
11.89136598230427
 40
11.89136598230427
 40
11.89136598230427
 40
11.89136598230427
 10
95.33704746024415
 20
-150.2378490308943
 30
0.0
 10
95.33708273595337
 20
-150.2289665647922
 30
0.0
 10
95.33719563050416
 20
-150.2005426674385
 30
0.0
 10
95.33555741627342
 20
-150.150748646214
 30
0.0
 10
95.34123398871562
 20
-150.1082693931304
 30
0.0
 10
95.3299518325952
 20
-150.0575434893435
 30
0.0
 10
95.39748865732773
 20
-150.0747160305108
 30
0.0
 10
95.47306188049454
 20
-150.061942766252
 30
0.0
 10
95.61709466502465
 20
-150.0685477433383
 30
0.0
 10
95.79120087796721
 20
-150.0659604158472
 30
0.0
 10
95.99821892052486
 20
-150.0668391183564
 30
0.0
 10
96.22372777666227
 20
-150.0665629587117
 30
0.0
 10
96.4593751887651
 20
-150.0666616413254
 30
0.0
 10
96.69502301255935
 20
-150.0665631937842
 30
0.0
 10
96.92053071748711
 20
-150.066838256004
 30
0.0
 10
97.12755242270501
 20
-150.0659631752046
 30
0.0
 10
97.30164785095332
 20
-150.0685398111275
 30
0.0
 10
97.44570816662304
 20
-150.0619621334199
 30
0.0
 10
97.52122815095386
 20
-150.074682603856
 30
0.0
 10
97.58883656312747
 20
-150.0575810359951
 30
0.0
 10
97.57734297349214
 20
-150.1080971798826
 30
0.0
 10
97.5847694175978
 20
-150.152312515647
 30
0.0
 10
97.57714285222315
 20
-150.1961653728759
 30
0.0
 10
97.588907905367
 20
-150.2460612931187
 30
0.0
 10
97.5273378086228
 20
-150.2309127607869
 30
0.0
 10
97.45993813329163
 20
-150.2417383844053
 30
0.0
 10
97.3355593650467
 20
-150.2363247216496
 30
0.0
 10
97.1897017830816
 20
-150.2383529840042
 30
0.0
 10
97.02361660343304
 20
-150.2376872621282
 30
0.0
 10
96.85310022159697
 20
-150.2379486026996
 30
0.0
 10
96.68623804496343
 20
-150.2376295040011
 30
0.0
 10
96.54299364213509
 20
-150.2384920120044
 30
0.0
 10
96.41159034640792
 20
-150.2362120330822
 30
0.0
 10
96.35824487289021
 20
-150.24076799417
 30
0.0
 10
96.28277780511576
 20
-150.2348458879832
 30
0.0
 10
96.31116653734777
 20
-150.2439033444785
 30
0.0
 10
96.33762420037877
 20
-150.2475859152228
 30
0.0
 10
96.29761125019465
 20
-150.2783023182292
 30
0.0
 10
96.20562532861142
 20
-150.2681691261658
 30
0.0
 10
96.17819858013138
 20
-150.514520015434
 30
0.0
 10
96.08213835614796
 20
-150.6698494502683
 30
0.0
 10
95.82598675587184
 20
-150.9995908585963
 30
0.0
 10
96.39701273270074
 20
-150.8605448158075
 30
0.0
 10
96.65162459147612
 20
-150.8619272381784
 30
0.0
 10
97.26222366428618
 20
-150.9469393454912
 30
0.0
 10
96.96832881723282
 20
-150.6479908623299
 30
0.0
 10
96.64758938807626
 20
-150.5015364688944
 30
0.0
 10
96.76561329546787
 20
-150.4445896297291
 30
0.0
 10
96.80673060605068
 20
-150.4206440391785
 30
0.0
 10
96.84994019886564
 20
-150.3988474497997
 30
0.0
 10
96.95171636886951
 20
-150.3355578253728
 30
0.0
 10
97.06714572194933
 20
-150.5933735238243
 30
0.0
 10
97.2672181236522
 20
-150.7286846267752
 30
0.0
 10
97.36116669814734
 20
-150.9069170865232
 30
0.0
 10
97.59014193406375
 20
-151.0648668276416
 30
0.0
 10
97.49386214409532
 20
-151.115685312149
 30
0.0
 10
97.4510549358024
 20
-151.1460321126814
 30
0.0
 10
97.40608331230239
 20
-151.1701837350973
 30
0.0
 10
97.34643105194593
 20
-151.2193235704363
 30
0.0
 10
97.31323206555695
 20
-151.0848702811759
 30
0.0
 10
97.19246029450412
 20
-150.9289023850462
 30
0.0
 10
96.83135656002236
 20
-151.0591457573165
 30
0.0
 10
96.47276515497859
 20
-151.0425980938172
 30
0.0
 10
96.09135100443247
 20
-151.0515327443934
 30
0.0
 10
95.80460448771365
 20
-151.1160183211879
 30
0.0
 10
95.49346451939601
 20
-151.0025383559838
 30
0.0
 10
95.46113274130333
 20
-151.1136224386343
 30
0.0
 10
95.4238767847563
 20
-151.132881899412
 30
0.0
 10
95.4208327226999
 20
-151.0860971970391
 30
0.0
 10
95.40224824548517
 20
-151.0467764987207
 30
0.0
 10
95.38550262110235
 20
-150.9871852031297
 30
0.0
 10
95.37263205099975
 20
-150.9428253391992
 30
0.0
 10
95.33849174006751
 20
-150.85378172671
 30
0.0
 10
95.5825304051998
 20
-150.9230346084743
 30
0.0
 10
95.77839840809168
 20
-150.9445413473346
 30
0.0
 10
95.87380159755213
 20
-150.6625801931274
 30
0.0
 10
95.92877253638426
 20
-150.5012145837008
 30
0.0
 10
96.15022089514008
 20
-150.2309332620146
 30
0.0
 10
96.01918289754616
 20
-150.2393605693747
 30
0.0
 10
95.94526161500994
 20
-150.2370549529423
 30
0.0
 10
95.83200494704889
 20
-150.2381312546954
 30
0.0
 10
95.70368414017297
 20
-150.237768647147
 30
0.0
 10
95.57468416246604
 20
-150.2378677932511
 30
0.0
 10
95.46304305405363
 20
-150.2378457107863
 30
0.0
 10
95.38572535642719
 20
-150.2378492460153
 30
0.0
 10
95.34754661262551
 20
-150.2378490794612
 30
0.0
 10
95.33704746024415
 20
-150.2378490308943
 30
0.0
 11
95.33704746024415
 21
-150.2378490308943
 31
0.0
 11
95.33704746024415
 21
-150.211095797394
 31
0.0
 11
95.33704746024415
 21
-150.1522386836934
 31
0.0
 11
95.33704746024415
 21
-150.0933815699929
 31
0.0
 11
95.33704746024415
 21
-150.0666283364926
 31
0.0
 11
95.36976838752344
 21
-150.0666283364926
 31
0.0
 11
95.46138698390546
 21
-150.0666283364926
 31
0.0
 11
95.6020869712064
 21
-150.0666283364926
 31
0.0
 11
95.7820520712425
 21
-150.0666283364926
 31
0.0
 11
95.99146600582995
 21
-150.0666283364926
 31
0.0
 11
96.22051249678498
 21
-150.0666283364926
 31
0.0
 11
96.4593752659238
 21
-150.0666283364926
 31
0.0
 11
96.69823803506262
 21
-150.0666283364926
 31
0.0
 11
96.92728452601764
 21
-150.0666283364926
 31
0.0
 11
97.13669846060509
 21
-150.0666283364926
 31
0.0
 11
97.3166635606412
 21
-150.0666283364926
 31
0.0
 11
97.45736354794215
 21
-150.0666283364926
 31
0.0
 11
97.54898214432416
 21
-150.0666283364926
 31
0.0
 11
97.58170307160344
 21
-150.0666283364926
 31
0.0
 11
97.58170307160344
 21
-150.0933815699929
 31
0.0
 11
97.58170307160344
 21
-150.1522386836934
 31
0.0
 11
97.58170307160344
 21
-150.2110957973941
 31
0.0
 11
97.58170307160344
 21
-150.2378490308943
 31
0.0
 11
97.5517318549003
 21
-150.2378490308943
 31
0.0
 11
97.46955271232717
 21
-150.2378490308943
 31
0.0
 11
97.3467674051885
 21
-150.2378490308943
 31
0.0
 11
97.19497769478873
 21
-150.2378490308943
 31
0.0
 11
97.02578534243229
 21
-150.2378490308943
 31
0.0
 11
96.85079210942362
 21
-150.2378490308943
 31
0.0
 11
96.68159975706719
 21
-150.2378490308943
 31
0.0
 11
96.5298100466674
 21
-150.2378490308943
 31
0.0
 11
96.40702473952872
 21
-150.2378490308943
 31
0.0
 11
96.3248455969556
 21
-150.2378490308943
 31
0.0
 11
96.29487438025245
 21
-150.2378490308943
 31
0.0
 11
96.31089490067706
 21
-150.2431892045041
 31
0.0
 11
96.32691542110166
 21
-150.2485293781139
 31
0.0
 11
96.30487452756658
 21
-150.2692638919976
 31
0.0
 11
96.26274514496083
 21
-150.2779863225509
 31
0.0
 11
96.17078251356229
 21
-150.4757525647854
 31
0.0
 11
96.0621668116009
 21
-150.6901699181269
 31
0.0
 11
95.94700904190523
 21
-150.8986194473958
 31
0.0
 11
96.31999562692651
 21
-150.8890206253817
 31
0.0
 11
96.71732896303953
 21
-150.8770327138621
 31
0.0
 11
97.12419317853903
 21
-150.8638179196267
 31
0.0
 11
96.93257090912238
 21
-150.6551774248873
 31
0.0
 11
96.73093416079433
 21
-150.4625508363937
 31
0.0
 11
96.75475373889944
 21
-150.4495917652164
 31
0.0
 11
96.80715681073067
 21
-150.4210818086262
 31
0.0
 11
96.85955988256191
 21
-150.3925718520361
 31
0.0
 11
96.88337946066702
 21
-150.3796127808588
 31
0.0
 11
97.0729691152872
 21
-150.5540499542093
 31
0.0
 11
97.25429005346804
 21
-150.7417865741711
 31
0.0
 11
97.41203188253922
 21
-150.9270212279877
 31
0.0
 11
97.53088420983033
 21
-151.0939525029025
 31
0.0
 11
97.50579978121681
 21
-151.1098330150513
 31
0.0
 11
97.45061403826708
 21
-151.1447701417787
 31
0.0
 11
97.39542829531733
 21
-151.179707268506
 31
0.0
 11
97.37034386670382
 21
-151.1955877806548
 31
0.0
 11
97.31181077458574
 21
-151.1059667910939
 31
0.0
 11
97.23926046727024
 21
-151.0083421557017
 31
0.0
 11
96.846800251834
 21
-151.0284821684745
 31
0.0
 11
96.45920636638051
 21
-151.0468120079143
 31
0.0
 11
96.09099685704578
 21
-151.0628232506881
 31
0.0
 11
95.75668976996573
 21
-151.0760074734625
 31
0.0
 11
95.47080315127636
 21
-151.0858562529045
 31
0.0
 11
95.45544519159856
 21
-151.1126398032451
 31
0.0
 11
95.42800238847911
 21
-151.1234094473396
 31
0.0
 11
95.42105167865647
 21
-151.1011420434563
 31
0.0
 11
95.40447690907935
 21
-151.0480428495807
 31
0.0
 11
95.38469411958408
 21
-150.9846663923743
 31
0.0
 11
95.36811935000696
 21
-150.9315671984986
 31
0.0
 11
95.3611686401843
 21
-150.9092997946153
 31
0.0
 11
95.54337894533981
 21
-150.9073286487825
 31
0.0
 11
95.7517565442833
 21
-150.9012829196173
 31
0.0
 11
95.86457927214607
 21
-150.6900095348964
 31
0.0
 11
95.97505263162802
 21
-150.4597469063532
 31
0.0
 11
96.07008438598723
 21
-150.2378490308943
 31
0.0
 11
96.0385867055842
 21
-150.2378490308943
 31
0.0
 11
95.95554736633987
 21
-150.2378490308943
 31
0.0
 11
95.83814692120134
 21
-150.2378490308943
 31
0.0
 11
95.70356592311569
 21
-150.2378490308943
 31
0.0
 11
95.56898492503005
 21
-150.2378490308943
 31
0.0
 11
95.45158447989151
 21
-150.2378490308943
 31
0.0
 11
95.36854514064717
 21
-150.2378490308943
 31
0.0
 11
95.33704746024415
 21
-150.2378490308943
 31
0.0
  0
SPLINE
  5
AE
102
{ACAD_REACTORS
330
CB
102
}
330
48
100
AcDbEntity
  8
_U_30EC_U_30A4_U_30E4_U_30FC_1
  6
Continuous
 62
     2
100
AcDbSpline
210
0.0
220
0.0
230
1.0
 70
    11
 71
     3
 72
    35
 73
    31
 74
    29
 42
0.000000001
 43
0.0000000001
 44
0.00000001
 40
0.0
 40
0.0
 40
0.0
 40
0.0
 40
0.0335231036620513
 40
0.0713218571711655
 40
0.4278866681486232
 40
0.811686584196303
 40
1.198190237999956
 40
1.561379546812619
 40
1.659983174621997
 40
1.759315573807197
 40
2.132719617231088
 40
2.525233363588794
 40
2.910815397779717
 40
3.265244364303332
 40
3.592606723582066
 40
3.964386154604001
 40
4.359942131737858
 40
4.758154118639339
 40
4.84384653869992
 40
4.936650065543291
 40
5.256616602537387
 40
5.58170740441606
 40
5.89971915830818
 40
6.198363494280788
 40
6.466301046615859
 40
6.493895311537182
 40
6.559697020196976
 40
6.638234543442553
 40
6.70403625215435
 40
6.731630508423141
 40
6.731630508423141
 40
6.731630508423141
 40
6.731630508423141
 10
96.60786001629145
 20
-148.7102066007207
 30
0.0
 10
96.60185956920344
 20
-148.7200381324888
 30
0.0
 10
96.58909336934019
 20
-148.7409551521141
 30
0.0
 10
96.42919516008008
 20
-148.773573772585
 30
0.0
 10
96.86646154365815
 20
-149.0627782345449
 30
0.0
 10
97.06879844225071
 20
-149.2644336543275
 30
0.0
 10
97.31621538622176
 20
-149.5073511618792
 30
0.0
 10
97.81741032188515
 20
-149.5843684103342
 30
0.0
 10
97.64681517932152
 20
-149.7260756461654
 30
0.0
 10
97.57258890574465
 20
-149.927741375821
 30
0.0
 10
97.24740218424331
 20
-149.5752821661648
 30
0.0
 10
96.96203312649094
 20
-149.4130929123164
 30
0.0
 10
96.66801936719028
 20
-149.2079737373816
 30
0.0
 10
96.44270422853792
 20
-148.7265701519574
 30
0.0
 10
96.23356746497672
 20
-149.1914145718198
 30
0.0
 10
95.95504632690796
 20
-149.4013355153829
 30
0.0
 10
95.67139727714537
 20
-149.5706004743121
 30
0.0
 10
95.34212291220774
 20
-149.9434214288325
 30
0.0
 10
95.26196019124693
 20
-149.747764893322
 30
0.0
 10
95.11023145039894
 20
-149.619933996006
 30
0.0
 10
95.542598542104
 20
-149.5403047202527
 30
0.0
 10
95.73051549240108
 20
-149.3445786887573
 30
0.0
 10
95.98110670147483
 20
-149.1285150687445
 30
0.0
 10
96.20569400644062
 20
-148.9629351149115
 30
0.0
 10
96.26023650039579
 20
-148.6835053915436
 30
0.0
 10
96.38372506232562
 20
-148.6974655338312
 30
0.0
 10
96.44028629387658
 20
-148.6996323492356
 30
0.0
 10
96.51044605791895
 20
-148.7043764390984
 30
0.0
 10
96.56760036163509
 20
-148.7077507444067
 30
0.0
 10
96.59867799150844
 20
-148.7096464908008
 30
0.0
 10
96.60786001629145
 20
-148.7102066007207
 30
0.0
 11
96.60786001629145
 21
-148.7102066007207
 31
0.0
 11
96.58679086641297
 21
-148.7362812882142
 31
0.0
 11
96.55170541536705
 21
-148.7503438923773
 31
0.0
 11
96.78549643633399
 21
-149.0195654265981
 31
0.0
 11
97.07571755518114
 21
-149.2707109582194
 31
0.0
 11
97.39553870779288
 21
-149.4877351617241
 31
0.0
 11
97.71812983005344
 21
-149.6545927115956
 31
0.0
 11
97.65558894623217
 21
-149.7308246820627
 31
0.0
 11
97.603062541322
 21
-149.8151330587778
 31
0.0
 11
97.27788686900588
 21
-149.6315809895962
 31
0.0
 11
96.95798173626812
 21
-149.4041436404777
 31
0.0
 11
96.6696789752853
 21
-149.1481064866789
 31
0.0
 11
96.43931041823402
 21
-148.8787550034563
 31
0.0
 11
96.23381213137614
 21
-149.1335815507016
 31
0.0
 11
95.9630890935781
 21
-149.3883932151344
 31
0.0
 11
95.64621280174917
 21
-149.6251503743634
 31
0.0
 11
95.30225475279866
 21
-149.8258134059973
 31
0.0
 11
95.25614449355832
 21
-149.7535843608765
 31
0.0
 11
95.19795600545933
 21
-149.6812891699223
 31
0.0
 11
95.47756300832604
 21
-149.5257304682946
 31
0.0
 11
95.74355942153993
 21
-149.338834940008
 31
0.0
 11
95.98425870539918
 21
-149.1310000750599
 31
0.0
 11
96.18797432020193
 21
-148.9126233634478
 31
0.0
 11
96.34301972624633
 21
-148.6941022951691
 31
0.0
 11
96.37056311641102
 21
-148.6957771429465
 31
0.0
 11
96.43624350834222
 21
-148.6997710107233
 31
0.0
 11
96.51463623419558
 21
-148.7045378851666
 31
0.0
 11
96.58031662612676
 21
-148.7085317529434
 31
0.0
 11
96.60786001629145
 21
-148.7102066007207
 31
0.0
  0
SPLINE
  5
AF
102
{ACAD_REACTORS
330
CC
102
}
330
48
100
AcDbEntity
  8
_U_30EC_U_30A4_U_30E4_U_30FC_1
  6
Continuous
 62
     2
100
AcDbSpline
210
0.0
220
0.0
230
1.0
 70
    11
 71
     3
 72
    15
 73
    11
 74
     9
 42
0.000000001
 43
0.0000000001
 44
0.00000001
 40
0.0
 40
0.0
 40
0.0
 40
0.0
 40
0.2785535985096726
 40
0.5215624748199115
 40
0.6076917376040677
 40
0.6938210001741358
 40
0.9405019146454656
 40
1.221691403489116
 40
1.300471877081037
 40
1.379252341684822
 40
1.379252341684822
 40
1.379252341684822
 40
1.379252341684822
 10
94.20240832252443
 20
-148.7155423646082
 30
0.0
 10
94.26386073884234
 20
-148.7679285719849
 30
0.0
 10
94.37892395683588
 20
-148.8660162699297
 30
0.0
 10
94.67399380914891
 20
-149.0159471789399
 30
0.0
 10
94.5367737226102
 20
-149.1014127627619
 30
0.0
 10
94.43838174380227
 20
-149.2339871858964
 30
0.0
 10
94.34726231848948
 20
-148.9286751800978
 30
0.0
 10
93.99794290749
 20
-148.8651663432583
 30
0.0
 10
94.14618479708153
 20
-148.7658799391032
 30
0.0
 10
94.18366714684815
 20
-148.7323215538882
 30
0.0
 10
94.20240832252443
 20
-148.7155423646082
 30
0.0
 11
94.20240832252443
 21
-148.7155423646082
 31
0.0
 11
94.42618120348416
 21
-148.8814272951223
 31
0.0
 11
94.60376359006284
 21
-149.0473122256364
 31
0.0
 11
94.54088977222241
 21
-149.1061776075661
 31
0.0
 11
94.47801595438199
 21
-149.1650429894958
 31
0.0
 11
94.30311247119701
 21
-148.9910882673171
 31
0.0
 11
94.08208464503849
 21
-148.817265836805
 31
0.0
 11
94.14224648378146
 21
-148.7664041007066
 31
0.0
 11
94.20240832252443
 21
-148.7155423646082
 31
0.0
  0
SPLINE
  5
B0
102
{ACAD_REACTORS
330
CD
102
}
330
48
100
AcDbEntity
  8
_U_30EC_U_30A4_U_30E4_U_30FC_1
  6
Continuous
 62
     2
100
AcDbSpline
210
0.0
220
0.0
230
1.0
 70
    11
 71
     3
 72
    75
 73
    71
 74
    69
 42
0.000000001
 43
0.0000000001
 44
0.00000001
 40
0.0
 40
0.0
 40
0.0
 40
0.0
 40
0.0342546099129496
 40
0.1245622414432435
 40
0.2522385480897927
 40
0.3985991922940857
 40
0.5449598364980945
 40
0.6726361431439047
 40
0.7629437746737155
 40
0.7971983935298115
 40
1.101723623449656
 40
1.408591244036634
 40
1.433332471690332
 40
1.487763172450097
 40
1.542193873081936
 40
1.566935100592473
 40
1.923523931821802
 40
2.271755704953618
 40
2.590579755100859
 40
2.858943305581137
 40
2.889120339309102
 40
2.91830585519104
 40
2.941366645531152
 40
2.996357760973026
 40
3.061992318140596
 40
3.116983433626758
 40
3.140044223997424
 40
3.411273122936346
 40
3.732441619741039
 40
3.761068217532725
 40
3.837787499630352
 40
3.94885869912595
 40
4.080541049104355
 40
4.219093782625762
 40
4.350776132722316
 40
4.461847332405668
 40
4.538566614678373
 40
4.567193212544638
 40
4.59490757399891
 40
4.666381453557435
 40
4.764111044011045
 40
4.870592538125891
 40
4.968322128642342
 40
5.039796008287027
 40
5.067510369784472
 40
5.094263603185667
 40
5.153120716668255
 40
5.211977830150644
 40
5.23873106355164
 40
5.272290535138922
 40
5.36338052944474
 40
5.497618415781403
 40
5.66062156345366
 40
5.838007341749375
 40
6.015393119910684
 40
6.178396267038309
 40
6.312634151842261
 40
6.403724143059293
 40
6.437283612672374
 40
6.464036846260981
 40
6.522893960004538
 40
6.581751071483765
 40
6.608504301590713
 40
6.637253941280846
 40
6.711397748902712
 40
6.812778057283296
 40
6.923237199249058
 40
7.024617507623717
 40
7.098761315207341
 40
7.12751094600732
 40
7.12751094600732
 40
7.12751094600732
 40
7.12751094600732
 10
93.07612119848096
 20
-149.9863537531793
 30
0.0
 10
93.07612124139524
 20
-149.9977719038247
 30
0.0
 10
93.07612140753734
 20
-150.0392924594857
 30
0.0
 10
93.07611826760328
 20
-150.1233758178742
 30
0.0
 10
93.07613778740453
 20
-150.2448000646887
 30
0.0
 10
93.07605017819827
 20
-150.3850400974375
 30
0.0
 10
93.07637058294759
 20
-150.5247794699662
 30
0.0
 10
93.07541955039855
 20
-150.6473946489626
 30
0.0
 10
93.0774568190213
 20
-150.7289742935316
 30
0.0
 10
93.06920227729907
 20
-150.8821323671348
 30
0.0
 10
93.37733875351472
 20
-150.7192426773649
 30
0.0
 10
93.66932347679801
 20
-150.5500156510321
 30
0.0
 10
93.67509440429532
 20
-150.6851126800929
 30
0.0
 10
93.67980613141361
 20
-150.7286728263076
 30
0.0
 10
93.68251250061633
 20
-150.7727325444065
 30
0.0
 10
93.70151352672046
 20
-150.9221191342807
 30
0.0
 10
93.29265318415477
 20
-150.8580333154994
 30
0.0
 10
93.01362999430773
 20
-150.9718816238019
 30
0.0
 10
92.73606711814108
 20
-151.0712040798005
 30
0.0
 10
92.44424267786468
 20
-151.0285381619486
 30
0.0
 10
92.42117342729026
 20
-151.1316282404665
 30
0.0
 10
92.38800639775785
 20
-151.1579341254673
 30
0.0
 10
92.38232435569833
 20
-151.1102919475489
 30
0.0
 10
92.36268041532894
 20
-151.0730416767613
 30
0.0
 10
92.34376790798677
 20
-151.0147711594364
 30
0.0
 10
92.32854394619521
 20
-150.970993027834
 30
0.0
 10
92.28198359671805
 20
-150.8572508274489
 30
0.0
 10
92.62334869066959
 20
-150.8890820267115
 30
0.0
 10
92.90222389616304
 20
-150.9232306868473
 30
0.0
 10
92.8960342629153
 20
-150.7757052731155
 30
0.0
 10
92.8973525047018
 20
-150.7047135288236
 30
0.0
 10
92.89674212841942
 20
-150.5976473583254
 30
0.0
 10
92.896846116497
 20
-150.470859740052
 30
0.0
 10
92.89725775583013
 20
-150.3363526029514
 30
0.0
 10
92.8956497436214
 20
-150.2108895384001
 30
0.0
 10
92.9002492162171
 20
-150.0997925707208
 30
0.0
 10
92.89067760964556
 20
-150.0372261699051
 30
0.0
 10
92.90465913779366
 20
-149.9788911549619
 30
0.0
 10
92.848997398095
 20
-149.9919479320895
 30
0.0
 10
92.79182447920667
 20
-149.983481960417
 30
0.0
 10
92.69586385198929
 20
-149.9875452771056
 30
0.0
 10
92.59763571170659
 20
-149.9851361393871
 30
0.0
 10
92.50151720518056
 20
-149.9893290317781
 30
0.0
 10
92.44472381200559
 20
-149.9805515735002
 30
0.0
 10
92.38929464676296
 20
-149.9938956694107
 30
0.0
 10
92.40132690221613
 20
-149.9444759283193
 30
0.0
 10
92.39345927681832
 20
-149.900905157608
 30
0.0
 10
92.4008885158074
 20
-149.8565403467268
 30
0.0
 10
92.38945201583886
 20
-149.8058220602721
 30
0.0
 10
92.45746919643783
 20
-149.8232204303347
 30
0.0
 10
92.53110864739918
 20
-149.8106705355401
 30
0.0
 10
92.66676536524558
 20
-149.8168482678011
 30
0.0
 10
92.82274986187706
 20
-149.8145530069812
 30
0.0
 10
92.99585159523888
 20
-149.8154353552868
 30
0.0
 10
93.16895325584265
 20
-149.8145529664879
 30
0.0
 10
93.32493794054612
 20
-149.8168484083566
 30
0.0
 10
93.46059414840423
 20
-149.8106701752877
 30
0.0
 10
93.53423462998975
 20
-149.8232210957288
 30
0.0
 10
93.6022503768969
 20
-149.8058213077906
 30
0.0
 10
93.59081804801669
 20
-149.8565437337665
 30
0.0
 10
93.59821290525426
 20
-149.9008744298009
 30
0.0
 10
93.59046295065158
 20
-149.94456196241
 30
0.0
 10
93.60237933361218
 20
-149.9942091369271
 30
0.0
 10
93.54507598178621
 20
-149.9802309245277
 30
0.0
 10
93.48627353840176
 20
-149.9894474811794
 30
0.0
 10
93.3867883227445
 20
-149.9853223562626
 30
0.0
 10
93.28368696925946
 20
-149.986617437653
 30
0.0
 10
93.18804359488186
 20
-149.9863042671356
 30
0.0
 10
93.1200057565863
 20
-149.9863572709405
 30
0.0
 10
93.08570518076883
 20
-149.9863545191953
 30
0.0
 10
93.07612119848096
 20
-149.9863537531793
 30
0.0
 11
93.07612119848096
 21
-149.9863537531793
 31
0.0
 11
93.07612119848095
 21
-150.0206083720401
 31
0.0
 11
93.07612119848096
 21
-150.1109160035822
 31
0.0
 11
93.07612119848096
 21
-150.2385923102452
 31
0.0
 11
93.07612119848096
 21
-150.3849529544686
 31
0.0
 11
93.07612119848096
 21
-150.531313598692
 31
0.0
 11
93.07612119848096
 21
-150.6589899053549
 31
0.0
 11
93.07612119848096
 21
-150.749297536897
 31
0.0
 11
93.07612119848096
 21
-150.7835521557578
 31
0.0
 11
93.37345222388126
 21
-150.7177502807743
 31
0.0
 11
93.67272132214902
 21
-150.6498846557913
 31
0.0
 11
93.67480767192218
 21
-150.6745377590837
 31
0.0
 11
93.67939764142318
 21
-150.7287745863271
 31
0.0
 11
93.68398761092416
 21
-150.7830114135705
 31
0.0
 11
93.68607396069734
 21
-150.8076645168629
 31
0.0
 11
93.33989864834852
 21
-150.893211336503
 31
0.0
 11
93.00122427330831
 21
-150.974236261613
 31
0.0
 11
92.6906321110933
 21
-151.0462173976627
 31
0.0
 11
92.42870343722001
 21
-151.1046328501221
 31
0.0
 11
92.41601046235371
 21
-151.1320106105318
 31
0.0
 11
92.39123843817583
 21
-151.1474424334446
 31
0.0
 11
92.38344571837463
 21
-151.1257382040056
 31
0.0
 11
92.36486307884867
 21
-151.0739819645741
 31
0.0
 11
92.34268379941446
 21
-151.0122083884785
 31
0.0
 11
92.32410115988853
 21
-150.960452149047
 31
0.0
 11
92.31630844008731
 21
-150.938747919608
 31
0.0
 11
92.58253659301766
 21
-150.8869050203154
 31
0.0
 11
92.89689245305345
 21
-150.8211053501929
 31
0.0
 11
92.89689245305345
 21
-150.7924787522158
 31
0.0
 11
92.89689245305345
 21
-150.715759469637
 31
0.0
 11
92.89689245305345
 21
-150.6046882694857
 31
0.0
 11
92.89689245305345
 21
-150.4730059187908
 31
0.0
 11
92.89689245305345
 21
-150.3344531845814
 31
0.0
 11
92.89689245305345
 21
-150.2027708338865
 31
0.0
 11
92.89689245305345
 21
-150.0916996337352
 31
0.0
 11
92.89689245305345
 21
-150.0149803511565
 31
0.0
 11
92.89689245305345
 21
-149.9863537531793
 31
0.0
 11
92.86917809153537
 21
-149.9863537531793
 31
0.0
 11
92.79770421183089
 21
-149.9863537531793
 31
0.0
 11
92.69997462121457
 21
-149.9863537531793
 31
0.0
 11
92.59349312696094
 21
-149.9863537531793
 31
0.0
 11
92.49576353634458
 21
-149.9863537531793
 31
0.0
 11
92.4242896566401
 21
-149.9863537531793
 31
0.0
 11
92.39657529512203
 21
-149.9863537531793
 31
0.0
 11
92.39657529512202
 21
-149.959600519679
 31
0.0
 11
92.39657529512203
 21
-149.9007434059785
 31
0.0
 11
92.39657529512203
 21
-149.841886292278
 31
0.0
 11
92.39657529512203
 21
-149.8151330587778
 31
0.0
 11
92.430134766712
 21
-149.8151330587778
 31
0.0
 11
92.5212247610276
 21
-149.8151330587778
 31
0.0
 11
92.65546264738744
 21
-149.8151330587778
 31
0.0
 11
92.81846579511011
 21
-149.8151330587778
 31
0.0
 11
92.99585157351419
 21
-149.8151330587778
 31
0.0
 11
93.17323735191827
 21
-149.8151330587778
 31
0.0
 11
93.33624049964092
 21
-149.8151330587778
 31
0.0
 11
93.47047838600076
 21
-149.8151330587778
 31
0.0
 11
93.56156838031637
 21
-149.8151330587778
 31
0.0
 11
93.59512785190634
 21
-149.8151330587778
 31
0.0
 11
93.59512785190633
 21
-149.841886292278
 31
0.0
 11
93.59512785190634
 21
-149.9007434059785
 31
0.0
 11
93.59512785190634
 21
-149.959600519679
 31
0.0
 11
93.59512785190634
 21
-149.9863537531793
 31
0.0
 11
93.56637821221221
 21
-149.9863537531793
 31
0.0
 11
93.49223440458
 21
-149.9863537531793
 31
0.0
 11
93.39085409618498
 21
-149.9863537531793
 31
0.0
 11
93.28039495420231
 21
-149.9863537531793
 31
0.0
 11
93.17901464580727
 21
-149.9863537531793
 31
0.0
 11
93.10487083817507
 21
-149.9863537531793
 31
0.0
 11
93.07612119848096
 21
-149.9863537531793
 31
0.0
  0
SPLINE
  5
B1
102
{ACAD_REACTORS
330
CE
102
}
330
48
100
AcDbEntity
  8
_U_30EC_U_30A4_U_30E4_U_30FC_1
  6
Continuous
 62
     2
100
AcDbSpline
210
0.0
220
0.0
230
1.0
 70
    11
 71
     3
 72
    91
 73
    87
 74
    85
 42
0.000000001
 43
0.0000000001
 44
0.00000001
 40
0.0
 40
0.0
 40
0.0
 40
0.0
 40
0.0345987051695718
 40
0.1258134969461511
 40
0.2547723404888987
 40
0.4026032099153983
 40
0.5504340793416846
 40
0.6793929228836364
 40
0.7706077146571462
 40
0.8052064287781209
 40
1.124852390615273
 40
1.427402236308931
 40
1.70635662745358
 40
1.95554141787523
 40
2.169485938566401
 40
2.344350786664843
 40
2.480568411562019
 40
2.590440557429011
 40
2.649189927151203
 40
2.749320643306403
 40
2.912632739880122
 40
3.147745656000301
 40
3.244827496385172
 40
3.338490056946829
 40
3.583815413207219
 40
3.761423943238598
 40
3.88695610436275
 40
3.985855451886945
 40
4.091766255337806
 40
4.250186473811973
 40
4.422734315084632
 40
4.628285684838719
 40
4.872093227758548
 40
5.152549652145642
 40
5.464967135837655
 40
5.803201477852588
 40
6.160362988814055
 40
6.19344944827611
 40
6.284170385501736
 40
6.419718138764634
 40
6.587285046385856
 40
6.774063446723798
 40
6.967245678113753
 40
7.154024078817781
 40
7.321590987026139
 40
7.457138740890511
 40
7.547859678556248
 40
7.580946138182793
 40
7.608533084714861
 40
7.669224367077828
 40
7.729915649430052
 40
7.757502595950069
 40
7.790278062553537
 40
7.880146277431021
 40
8.014419963180469
 40
8.180411842397984
 40
8.365434637679453
 40
8.556801071622768
 40
8.741823866830867
 40
8.907815745916448
 40
9.042089431507573
 40
9.131957646249685
 40
9.164733112797276
 40
9.415425063140187
 40
9.66798618095865
 40
9.69416980746276
 40
9.756607686047706
 40
9.831130315322554
 40
9.893568193900018
 40
9.91975182039882
 40
9.95096796469063
 40
9.996421631210785
 40
10.22087981037467
 40
10.44341866197559
 40
10.47847970788874
 40
10.57091337438773
 40
10.70159545461249
 40
10.85140174170379
 40
11.00120802880499
 40
11.13189010907402
 40
11.2243237758303
 40
11.25938480938976
 40
11.28697175596162
 40
11.34766303835938
 40
11.40835432042091
 40
11.43594125892123
 40
11.43594125892123
 40
11.43594125892123
 40
11.43594125892123
 10
94.71607039275347
 20
-149.3924170866612
 30
0.0
 10
94.70453754391859
 20
-149.3924171350328
 30
0.0
 10
94.66259990392446
 20
-149.3924173008703
 30
0.0
 10
94.57767193132699
 20
-149.3924137799029
 30
0.0
 10
94.45502781473746
 20
-149.3924357735532
 30
0.0
 10
94.31337965112384
 20
-149.3923370261414
 30
0.0
 10
94.17223432927355
 20
-149.3926981755878
 30
0.0
 10
94.0483940912149
 20
-149.391626201821
 30
0.0
 10
93.96598074196268
 20
-149.3939225469992
 30
0.0
 10
93.80703808239376
 20
-149.3843593441779
 30
0.0
 10
93.9845991947621
 20
-149.7469910947982
 30
0.0
 10
93.97223287996977
 20
-149.9924137606808
 30
0.0
 10
94.040710906811
 20
-150.2762200246636
 30
0.0
 10
94.10356139152147
 20
-150.5123350385217
 30
0.0
 10
94.17948430259739
 20
-150.7115776339507
 30
0.0
 10
94.2645779171261
 20
-150.8673915633983
 30
0.0
 10
94.35871971871805
 20
-150.9682664600981
 30
0.0
 10
94.46252378019727
 20
-151.0201865115224
 30
0.0
 10
94.54684616250188
 20
-150.9687801941158
 30
0.0
 10
94.56939117736974
 20
-150.8533995975368
 30
0.0
 10
94.6088320569616
 20
-150.7259935408883
 30
0.0
 10
94.55455093291872
 20
-150.4086217570444
 30
0.0
 10
94.67938076667181
 20
-150.555023236503
 30
0.0
 10
94.83618811078482
 20
-150.5868920346002
 30
0.0
 10
94.72903096013027
 20
-150.8206314602357
 30
0.0
 10
94.71513008041123
 20
-150.9851172720754
 30
0.0
 10
94.65772990614705
 20
-151.1135363466871
 30
0.0
 10
94.56776097392533
 20
-151.1846570143837
 30
0.0
 10
94.44378642521228
 20
-151.2005217964895
 30
0.0
 10
94.29768627911054
 20
-151.1649070623702
 30
0.0
 10
94.15864839145293
 20
-151.0448393329092
 30
0.0
 10
94.04445935563896
 20
-150.8704882124088
 30
0.0
 10
93.9488730895731
 20
-150.6453790067996
 30
0.0
 10
93.86612421668717
 20
-150.3809625778475
 30
0.0
 10
93.81497688506568
 20
-150.0629657069265
 30
0.0
 10
93.71127788015826
 20
-149.7894077530228
 30
0.0
 10
93.83854308027668
 20
-149.3847868517834
 30
0.0
 10
93.67004802172633
 20
-149.3937213594151
 30
0.0
 10
93.58545853813226
 20
-149.3916854237284
 30
0.0
 10
93.45324659818726
 20
-149.3927056640278
 30
0.0
 10
93.29030946883492
 20
-149.3923127347277
 30
0.0
 10
93.10763487647782
 20
-149.3924880747782
 30
0.0
 10
92.91896469676276
 20
-149.3922439848373
 30
0.0
 10
92.73570586144345
 20
-149.3929884588496
 30
0.0
 10
92.57473364269627
 20
-149.3906814326876
 30
0.0
 10
92.4372397929521
 20
-149.3968469890754
 30
0.0
 10
92.36321799665555
 20
-149.3845166533298
 30
0.0
 10
92.29558047811018
 20
-149.4015518006764
 30
0.0
 10
92.30749633135144
 20
-149.3496006534367
 30
0.0
 10
92.29982668799393
 20
-149.3041307882467
 30
0.0
 10
92.30751818193603
 20
-149.258700500875
 30
0.0
 10
92.2955731392007
 20
-149.2068210780663
 30
0.0
 10
92.36261779001119
 20
-149.2236536030094
 30
0.0
 10
92.43599652599215
 20
-149.2114909469852
 30
0.0
 10
92.57217178995171
 20
-149.2175727271624
 30
0.0
 10
92.73164013957573
 20
-149.2152966947614
 30
0.0
 10
92.91317626800813
 20
-149.2160326979224
 30
0.0
 10
93.10006244564241
 20
-149.2157854959506
 30
0.0
 10
93.28106019110811
 20
-149.2159810299195
 30
0.0
 10
93.44233921731235
 20
-149.2155226907636
 30
0.0
 10
93.57364717191325
 20
-149.2167183003999
 30
0.0
 10
93.65676409168418
 20
-149.2143315647145
 30
0.0
 10
93.78988261420596
 20
-149.2225389806575
 30
0.0
 10
93.69884830969036
 20
-148.9673163483854
 30
0.0
 10
93.61322226686642
 20
-148.7032014546296
 30
0.0
 10
93.73331785976998
 20
-148.7158006082203
 30
0.0
 10
93.78568545427885
 20
-148.7179026802813
 30
0.0
 10
93.85570871639608
 20
-148.7194910390155
 30
0.0
 10
93.90145119320619
 20
-148.7288193625309
 30
0.0
 10
93.95634022411778
 20
-148.7193853687577
 30
0.0
 10
93.93061643799264
 20
-148.7675147513603
 30
0.0
 10
93.81679871656978
 20
-148.7621767404702
 30
0.0
 10
93.95019362153812
 20
-148.9903532921442
 30
0.0
 10
93.82862483297167
 20
-149.2232764719529
 30
0.0
 10
93.95657783636578
 20
-149.2139724490676
 30
0.0
 10
94.03916380007061
 20
-149.2168350203652
 30
0.0
 10
94.16498044450694
 20
-149.2156106637889
 30
0.0
 10
94.30840594323034
 20
-149.2155207190224
 30
0.0
 10
94.45000105459738
 20
-149.2173834060735
 30
0.0
 10
94.58017168442126
 20
-149.2115142785404
 30
0.0
 10
94.65360418804364
 20
-149.22414162968
 30
0.0
 10
94.72337025163415
 20
-149.2060694068078
 30
0.0
 10
94.71183621996417
 20
-149.2587165324487
 30
0.0
 10
94.71757739409279
 20
-149.3026318610465
 30
0.0
 10
94.71592053651561
 20
-149.3539452111465
 30
0.0
 10
94.7160347155915
 20
-149.3832571176956
 30
0.0
 10
94.71607039275347
 20
-149.3924170866612
 30
0.0
 11
94.71607039275347
 21
-149.3924170866612
 31
0.0
 11
94.68147167862963
 21
-149.3924170866612
 31
0.0
 11
94.59025688684866
 21
-149.3924170866612
 31
0.0
 11
94.46129804329624
 21
-149.3924170866612
 31
0.0
 11
94.3134671738581
 21
-149.3924170866612
 31
0.0
 11
94.16563630441996
 21
-149.3924170866612
 31
0.0
 11
94.03667746086754
 21
-149.3924170866612
 31
0.0
 11
93.94546266908655
 21
-149.3924170866612
 31
0.0
 11
93.91086395496274
 21
-149.3924170866612
 31
0.0
 11
93.94257300919382
 21
-149.7104863886107
 31
0.0
 11
93.98704562511104
 21
-150.0097498100312
 31
0.0
 11
94.0434978712565
 21
-150.2829323427862
 31
0.0
 11
94.11114581617232
 21
-150.5227589787397
 31
0.0
 11
94.18920552840066
 21
-150.7219547097555
 31
0.0
 11
94.27689307648363
 21
-150.8732445276972
 31
0.0
 11
94.37342452896335
 21
-150.9693534244288
 31
0.0
 11
94.47801595438199
 21
-151.0030063918141
 31
0.0
 11
94.52856668970313
 21
-150.9730712681237
 31
0.0
 11
94.5653178585797
 21
-150.8799288397616
 31
0.0
 11
94.59052305717725
 21
-150.7185735207915
 31
0.0
 11
94.6064358816613
 21
-150.4839997252772
 31
0.0
 11
94.6836672276828
 21
-150.5428232148458
 31
0.0
 11
94.76697737786304
 21
-150.5856261835851
 31
0.0
 11
94.74089554054625
 21
-150.8295611513019
 31
0.0
 11
94.70159073993507
 21
-151.0027660090364
 31
0.0
 11
94.64482921910101
 21
-151.1147323134528
 31
0.0
 11
94.56637722111552
 21
-151.1749516212155
 31
0.0
 11
94.46200098905013
 21
-151.1929154889888
 31
0.0
 11
94.30811846593421
 21
-151.1552706377884
 31
0.0
 11
94.17314919709926
 21
-151.0477715491379
 31
0.0
 11
94.05643295104082
 21
-150.8785714204639
 31
0.0
 11
93.9573094962545
 21
-150.6558234491926
 31
0.0
 11
93.87511860123585
 21
-150.3876808327503
 31
0.0
 11
93.80920003448043
 21
-150.0822967685634
 31
0.0
 11
93.75889356448383
 21
-149.7478244540582
 31
0.0
 11
93.72353895974163
 21
-149.3924170866612
 31
0.0
 11
93.69045250000887
 21
-149.3924170866612
 31
0.0
 11
93.59973156203202
 21
-149.3924170866612
 31
0.0
 11
93.46418380764302
 21
-149.3924170866612
 31
0.0
 11
93.296616898674
 21
-149.3924170866612
 31
0.0
 11
93.10983849695688
 21
-149.3924170866612
 31
0.0
 11
92.91665626432378
 21
-149.3924170866612
 31
0.0
 11
92.7298778626067
 21
-149.3924170866612
 31
0.0
 11
92.56231095363762
 21
-149.3924170866612
 31
0.0
 11
92.42676319924865
 21
-149.3924170866612
 31
0.0
 11
92.33604226127179
 21
-149.3924170866612
 31
0.0
 11
92.30295580153904
 21
-149.3924170866612
 31
0.0
 11
92.30295580153903
 21
-149.3648301400535
 31
0.0
 11
92.30295580153904
 21
-149.3041388575166
 31
0.0
 11
92.30295580153904
 21
-149.2434475749797
 31
0.0
 11
92.30295580153904
 21
-149.215860628372
 31
0.0
 11
92.33573126818764
 21
-149.215860628372
 31
0.0
 11
92.42559948319186
 21
-149.215860628372
 31
0.0
 11
92.55987316913934
 21
-149.215860628372
 31
0.0
 11
92.72586504861773
 21
-149.215860628372
 31
0.0
 11
92.91088784421466
 21
-149.215860628372
 31
0.0
 11
93.10225427851775
 21
-149.215860628372
 31
0.0
 11
93.28727707411468
 21
-149.215860628372
 31
0.0
 11
93.45326895359307
 21
-149.215860628372
 31
0.0
 11
93.58754263954054
 21
-149.215860628372
 31
0.0
 11
93.67741085454477
 21
-149.215860628372
 31
0.0
 11
93.71018632119336
 21
-149.215860628372
 31
0.0
 11
93.70017735443481
 21
-148.9653685624624
 31
0.0
 11
93.69417021049082
 21
-148.7128788923867
 31
0.0
 11
93.72031654649042
 21
-148.7142758218308
 31
0.0
 11
93.78266550156638
 21
-148.7176069612744
 31
0.0
 11
93.85708199633444
 21
-148.7215828373845
 31
0.0
 11
93.91943095141042
 21
-148.7249139768281
 31
0.0
 11
93.94557728741
 21
-148.7263109062722
 31
0.0
 11
93.93255207072855
 21
-148.7546797517512
 31
0.0
 11
93.889423886065
 21
-148.7690322951503
 31
0.0
 11
93.89175815560665
 21
-148.9934783367609
 31
0.0
 11
93.90010423301482
 21
-149.215860628372
 31
0.0
 11
93.93516527894108
 21
-149.215860628372
 31
0.0
 11
94.02759894547398
 21
-149.215860628372
 31
0.0
 11
94.15828102574463
 21
-149.215860628372
 31
0.0
 11
94.30808731288414
 21
-149.215860628372
 31
0.0
 11
94.45789360002365
 21
-149.215860628372
 31
0.0
 11
94.5885756802943
 21
-149.215860628372
 31
0.0
 11
94.6810093468272
 21
-149.215860628372
 31
0.0
 11
94.71607039275347
 21
-149.215860628372
 31
0.0
 11
94.71607039275347
 21
-149.2434475749797
 31
0.0
 11
94.71607039275347
 21
-149.3041388575166
 31
0.0
 11
94.71607039275347
 21
-149.3648301400535
 31
0.0
 11
94.71607039275347
 21
-149.3924170866612
 31
0.0
  0
SPLINE
  5
B2
102
{ACAD_REACTORS
330
CF
102
}
330
48
100
AcDbEntity
  8
_U_30EC_U_30A4_U_30E4_U_30FC_1
  6
Continuous
 62
     2
100
AcDbSpline
210
0.0
220
0.0
230
1.0
 70
    11
 71
     3
 72
   118
 73
   114
 74
   112
 42
0.000000001
 43
0.0000000001
 44
0.00000001
 40
0.0
 40
0.0
 40
0.0
 40
0.0
 40
0.1054708162973436
 40
0.2466098270051986
 40
0.3965912874591238
 40
0.528552506975419
 40
0.6156245055642587
 40
0.6431434105797972
 40
0.703685003798669
 40
0.7642265984505116
 40
0.7917455052355361
 40
0.9287404319990172
 40
1.106572819088026
 40
1.287544879681064
 40
1.317578308030562
 40
1.399928030857182
 40
1.522968204800008
 40
1.675072986590606
 40
1.844616533180669
 40
2.01997300163876
 40
2.18951654888005
 40
2.341621331585372
 40
2.464661506320539
 40
2.547011229647097
 40
2.577044658168063
 40
2.603797890893105
 40
2.662655002908807
 40
2.72151211494959
 40
2.74826534770277
 40
2.774215307344846
 40
2.845959313407135
 40
2.954338556588354
 40
3.090194227585513
 40
3.244367517100514
 40
3.407699615844237
 40
3.571031714539359
 40
3.725205003920067
 40
3.861060674729558
 40
3.96943991771623
 40
4.041183923628907
 40
4.067133883212918
 40
4.311886746012069
 40
4.547897258335418
 40
4.764747083043885
 40
4.952749679951663
 40
5.045772974195808
 40
5.137862019644896
 40
5.330543169792942
 40
5.553448265243935
 40
5.795083855888104
 40
6.043293412177168
 40
6.285761695541072
 40
6.313902908752584
 40
6.384255941793159
 40
6.475714884766734
 40
6.567173827758796
 40
6.637526860839546
 40
6.665668074073895
 40
6.692018920327885
 40
6.749990782070941
 40
6.80796264379035
 40
6.834313490017823
 40
6.856393084245087
 40
6.913335195649753
 40
6.991194817302403
 40
7.076026942283636
 40
7.153886563725155
 40
7.210828674844694
 40
7.232908268931044
 40
7.258199334923535
 40
7.324875781592215
 40
7.419142481924882
 40
7.527204308841834
 40
7.635266135230398
 40
7.729532834168412
 40
7.796209279292714
 40
7.82150034459467
 40
7.844652988850797
 40
7.899863140541537
 40
7.965759128053718
 40
8.020969279771016
 40
8.044121924046483
 40
8.069356610160614
 40
8.109134395441393
 40
8.132238100191094
 40
8.19314786778647
 40
8.279261678876614
 40
8.377977512673871
 40
8.476693347146655
 40
8.562807160411714
 40
8.623716930826495
 40
8.646820636853468
 40
8.671988793774323
 40
8.734909185828178
 40
8.816705695188892
 40
8.898502204815491
 40
8.961422597377938
 40
8.986590754551079
 40
9.01294160073322
 40
9.070913462380323
 40
9.128885324081827
 40
9.155236170325159
 40
9.180404327929173
 40
9.243324721948275
 40
9.325121234212054
 40
9.406917746637736
 40
9.469838141978192
 40
9.49500628827098
 40
9.517811184379122
 40
9.572192090487102
 40
9.637098333281296
 40
9.691479239515497
 40
9.714284125643525
 40
9.714284125643525
 40
9.714284125643525
 40
9.714284125643525
 10
89.9217058622898
 20
-149.6759534060348
 30
0.0
 10
89.94335801632826
 20
-149.7037263454839
 30
0.0
 10
89.99398467037182
 20
-149.7686644922996
 30
0.0
 10
90.06919727968372
 20
-149.8759344347831
 30
0.0
 10
90.15910718685917
 20
-149.9910706552457
 30
0.0
 10
90.20517592709176
 20
-150.0912745804288
 30
0.0
 10
90.29984148889011
 20
-150.1605049697626
 30
0.0
 10
90.25470289146581
 20
-150.2071286411293
 30
0.0
 10
90.22896373800353
 20
-150.2482419492516
 30
0.0
 10
90.19877863022575
 20
-150.2841853206326
 30
0.0
 10
90.1536274324807
 20
-150.3590472119511
 30
0.0
 10
90.10530940528078
 20
-150.1370197953759
 30
0.0
 10
90.03111293073178
 20
-150.0997382645349
 30
0.0
 10
89.91786369188517
 20
-149.828743016606
 30
0.0
 10
89.92277231724142
 20
-149.9438917534497
 30
0.0
 10
89.92110761505509
 20
-150.0164782800958
 30
0.0
 10
89.92194196709589
 20
-150.1385891530721
 30
0.0
 10
89.92161991345088
 20
-150.2857070298074
 30
0.0
 10
89.9217666506701
 20
-150.4517743983465
 30
0.0
 10
89.92155396869666
 20
-150.622969491826
 30
0.0
 10
89.92220868462785
 20
-150.7893167515571
 30
0.0
 10
89.92017820553842
 20
-150.9354933073551
 30
0.0
 10
89.92560499941747
 20
-151.0601345631659
 30
0.0
 10
89.91475204629535
 20
-151.1276584725058
 30
0.0
 10
89.92993287497991
 20
-151.1893544237418
 30
0.0
 10
89.88004847023787
 20
-151.177569998942
 30
0.0
 10
89.83597399367667
 20
-151.1854068101123
 30
0.0
 10
89.79249612244459
 20
-151.177240624185
 30
0.0
 10
89.74349363807339
 20
-151.1894644705274
 30
0.0
 10
89.75613208290699
 20
-151.1352383654189
 30
0.0
 10
89.7472772562695
 20
-151.0754758488365
 30
0.0
 10
89.75176483645589
 20
-150.9656247474683
 30
0.0
 10
89.75005497302358
 20
-150.8345452838552
 30
0.0
 10
89.7506140510232
 20
-150.6828649234688
 30
0.0
 10
89.75045183629386
 20
-150.5227342886125
 30
0.0
 10
89.75048595189197
 20
-150.3624763811664
 30
0.0
 10
89.75051045543718
 20
-150.2111425627077
 30
0.0
 10
89.75040431374705
 20
-150.079023474526
 30
0.0
 10
89.75068887361766
 20
-149.9718970125802
 30
0.0
 10
89.75012651418129
 20
-149.9067588421173
 30
0.0
 10
89.75233546779347
 20
-149.7786554593254
 30
0.0
 10
89.6662025592848
 20
-150.1538689339962
 30
0.0
 10
89.58977304127453
 20
-150.3056631066781
 30
0.0
 10
89.50026303620785
 20
-150.467182973449
 30
0.0
 10
89.39830028115716
 20
-150.7401265497102
 30
0.0
 10
89.35305660852846
 20
-150.5776715719469
 30
0.0
 10
89.24449455359148
 20
-150.4887907173308
 30
0.0
 10
89.43383813459981
 20
-150.339347088298
 30
0.0
 10
89.49079301399448
 20
-150.1473536681627
 30
0.0
 10
89.6060110587597
 20
-149.9158488088444
 30
0.0
 10
89.62827412243784
 20
-149.7268724403214
 30
0.0
 10
89.81144947463838
 20
-149.4503041446527
 30
0.0
 10
89.68806231917975
 20
-149.4578552495911
 30
0.0
 10
89.62682737610784
 20
-149.4562773142509
 30
0.0
 10
89.54245892113093
 20
-149.4560191121753
 30
0.0
 10
89.45468246802108
 20
-149.4593965804
 30
0.0
 10
89.39993582903682
 20
-149.4508968880919
 30
0.0
 10
89.344729262027
 20
-149.4643594274142
 30
0.0
 10
89.35654126297817
 20
-149.4155306166444
 30
0.0
 10
89.34850857460391
 20
-149.3721549889449
 30
0.0
 10
89.35707756989238
 20
-149.3297506548163
 30
0.0
 10
89.34455330034024
 20
-149.2821670723908
 30
0.0
 10
89.38976911329806
 20
-149.2921729079609
 30
0.0
 10
89.43574051569695
 20
-149.2859039861714
 30
0.0
 10
89.51198116419557
 20
-149.2889094238533
 30
0.0
 10
89.59038857262394
 20
-149.2871405551266
 30
0.0
 10
89.66665822431781
 20
-149.2901970980954
 30
0.0
 10
89.71255990537196
 20
-149.2838053241502
 30
0.0
 10
89.75743235596454
 20
-149.2939068081231
 30
0.0
 10
89.74481418698785
 20
-149.243273022093
 30
0.0
 10
89.75345261769515
 20
-149.1898324190913
 30
0.0
 10
89.74949511896881
 20
-149.0962124865952
 30
0.0
 10
89.75049146625793
 20
-148.9937189710228
 30
0.0
 10
89.75145170073186
 20
-148.8913123354303
 30
0.0
 10
89.74758010522504
 20
-148.7974857418188
 30
0.0
 10
89.756037940861
 20
-148.7444796095084
 30
0.0
 10
89.74356655270803
 20
-148.6927306814001
 30
0.0
 10
89.78846959840952
 20
-148.7063375656444
 30
0.0
 10
89.82976734310171
 20
-148.7038402347062
 30
0.0
 10
89.89379338752957
 20
-148.7083644321671
 30
0.0
 10
89.93287007430317
 20
-148.717035007479
 30
0.0
 10
89.98191330929875
 20
-148.7096940172051
 30
0.0
 10
89.95676696248358
 20
-148.7488160773946
 30
0.0
 10
89.9158490927968
 20
-148.7392066133538
 30
0.0
 10
89.92526992108488
 20
-148.7894435562142
 30
0.0
 10
89.91982369129913
 20
-148.8409855815171
 30
0.0
 10
89.92242891960481
 20
-148.9252479620667
 30
0.0
 10
89.92126917963994
 20
-149.0192536820779
 30
0.0
 10
89.9226180658476
 20
-149.1128763839567
 30
0.0
 10
89.91925596957537
 20
-149.1980498623898
 30
0.0
 10
89.92635495120133
 20
-149.2476764771915
 30
0.0
 10
89.91551587487906
 20
-149.2949080882122
 30
0.0
 10
89.96465998194898
 20
-149.2828282885434
 30
0.0
 10
90.01374672243918
 20
-149.2903711042819
 30
0.0
 10
90.09163038748865
 20
-149.2879843342977
 30
0.0
 10
90.16929547671407
 20
-149.2858512188579
 30
0.0
 10
90.21879835255996
 20
-149.2929111186874
 30
0.0
 10
90.26871843448843
 20
-149.2812435185499
 30
0.0
 10
90.25657881111256
 20
-149.3294426841981
 30
0.0
 10
90.26484278233889
 20
-149.3723528398997
 30
0.0
 10
90.25657882450284
 20
-149.4152630193982
 30
0.0
 10
90.26871841440996
 20
-149.4634621503634
 30
0.0
 10
90.21879847529914
 20
-149.4517946931969
 30
0.0
 10
90.16929402454478
 20
-149.4588530135616
 30
0.0
 10
90.09163739772177
 20
-149.456728385626
 30
0.0
 10
90.01372334600052
 20
-149.4543111442545
 30
0.0
 10
89.96470899469608
 20
-149.4619265559671
 30
0.0
 10
89.91558357031876
 20
-149.4497655123361
 30
0.0
 10
89.92581495828159
 20
-149.4941149036705
 30
0.0
 10
89.9199267272298
 20
-149.5355906758829
 30
0.0
 10
89.92213778998138
 20
-149.595691094759
 30
0.0
 10
89.92166989403907
 20
-149.6425872102832
 30
0.0
 10
89.92169765871583
 20
-149.66834357373
 30
0.0
 10
89.9217058622898
 20
-149.6759534060348
 30
0.0
 11
89.9217058622898
 21
-149.6759534060348
 31
0.0
 11
89.98595671287292
 21
-149.7595950415694
 31
0.0
 11
90.06908484297442
 21
-149.8736561404298
 31
0.0
 11
90.1559421163141
 21
-149.9959273659547
 31
0.0
 11
90.23138039661174
 21
-150.1041993814833
 31
0.0
 11
90.28025154758717
 21
-150.1762628503541
 31
0.0
 11
90.26394108793384
 21
-150.198427216668
 31
0.0
 11
90.2280580766965
 21
-150.2471888225586
 31
0.0
 11
90.19217506545915
 21
-150.2959504284492
 31
0.0
 11
90.17586460580583
 21
-150.3181147947631
 31
0.0
 11
90.11056567036911
 21
-150.1976836476739
 31
0.0
 11
90.01910238374796
 21
-150.04517520121
 31
0.0
 11
89.9217058622898
 21
-149.8926471559806
 31
0.0
 11
89.9217058622898
 21
-149.9226805846295
 31
0.0
 11
89.92170586228981
 21
-150.0050303083442
 31
0.0
 11
89.92170586228978
 21
-150.1280704837768
 31
0.0
 11
89.9217058622898
 21
-150.2801752675792
 31
0.0
 11
89.9217058622898
 21
-150.4497188164036
 31
0.0
 11
89.9217058622898
 21
-150.6250752869019
 31
0.0
 11
89.9217058622898
 21
-150.7946188357263
 31
0.0
 11
89.9217058622898
 21
-150.9467236195287
 31
0.0
 11
89.9217058622898
 21
-151.0697637949613
 31
0.0
 11
89.9217058622898
 21
-151.152113518676
 31
0.0
 11
89.9217058622898
 21
-151.1821469473249
 31
0.0
 11
89.89495262946538
 21
-151.1821469473249
 31
0.0
 11
89.83609551725166
 21
-151.1821469473249
 31
0.0
 11
89.77723840503796
 21
-151.1821469473249
 31
0.0
 11
89.75048517221353
 21
-151.1821469473249
 31
0.0
 11
89.75048517221353
 21
-151.1561969875995
 31
0.0
 11
89.75048517221353
 21
-151.0844529813
 31
0.0
 11
89.75048517221353
 21
-150.976073737741
 31
0.0
 11
89.75048517221353
 21
-150.8402180662376
 31
0.0
 11
89.75048517221353
 21
-150.6860447761044
 31
0.0
 11
89.75048517221353
 21
-150.5227126766565
 31
0.0
 11
89.75048517221353
 21
-150.3593805772085
 31
0.0
 11
89.75048517221353
 21
-150.2052072870754
 31
0.0
 11
89.75048517221353
 21
-150.0693516155719
 31
0.0
 11
89.75048517221353
 21
-149.960972372013
 31
0.0
 11
89.75048517221353
 21
-149.8892283657134
 31
0.0
 11
89.75048517221353
 21
-149.863278405988
 31
0.0
 11
89.67224554559671
 21
-150.0951890048883
 31
0.0
 11
89.58397003835489
 21
-150.3140688746252
 31
0.0
 11
89.48866965242905
 21
-150.5088551245765
 31
0.0
 11
89.38935538976017
 21
-150.66848486412
 31
0.0
 11
89.34517879366513
 21
-150.586620575946
 31
0.0
 11
89.29306469777254
 21
-150.5106961836039
 31
0.0
 11
89.39698921845441
 21
-150.3484441586444
 31
0.0
 11
89.49719094589798
 21
-150.1493303836942
 31
0.0
 11
89.58930362021464
 21
-149.92594055875
 31
0.0
 11
89.66896098151571
 21
-149.6908603838088
 31
0.0
 11
89.73179676991253
 21
-149.4566755588674
 31
0.0
 11
89.70365555663874
 21
-149.4566755588674
 31
0.0
 11
89.63330252345422
 21
-149.4566755588674
 31
0.0
 11
89.54184358031435
 21
-149.4566755588674
 31
0.0
 11
89.45038463717448
 21
-149.4566755588674
 31
0.0
 11
89.38003160398998
 21
-149.4566755588674
 31
0.0
 11
89.35189039071616
 21
-149.4566755588674
 31
0.0
 11
89.35189039071615
 21
-149.4303247125198
 31
0.0
 11
89.35189039071616
 21
-149.3723528505552
 31
0.0
 11
89.35189039071616
 21
-149.3143809885905
 31
0.0
 11
89.35189039071616
 21
-149.2880301422429
 31
0.0
 11
89.3739699850265
 21
-149.2880301422429
 31
0.0
 11
89.430912096669
 21
-149.2880301422429
 31
0.0
 11
89.50877171871076
 21
-149.2880301422429
 31
0.0
 11
89.59360384421893
 21
-149.2880301422429
 31
0.0
 11
89.67146346626069
 21
-149.2880301422429
 31
0.0
 11
89.72840557790317
 21
-149.2880301422429
 31
0.0
 11
89.75048517221353
 21
-149.2880301422429
 31
0.0
 11
89.75048517221353
 21
-149.2627390761685
 31
0.0
 11
89.75048517221353
 21
-149.196062629245
 31
0.0
 11
89.75048517221354
 21
-149.1017959284222
 31
0.0
 11
89.75048517221353
 21
-148.9937341006497
 31
0.0
 11
89.75048517221353
 21
-148.8856722728773
 31
0.0
 11
89.75048517221353
 21
-148.7914055720545
 31
0.0
 11
89.75048517221353
 21
-148.724729125131
 31
0.0
 11
89.75048517221353
 21
-148.6994380590566
 31
0.0
 11
89.77357715829109
 21
-148.701112906834
 31
0.0
 11
89.82864266355296
 21
-148.7051067746108
 31
0.0
 11
89.89436600854293
 21
-148.7098736490541
 31
0.0
 11
89.9494315138048
 21
-148.7138675168308
 31
0.0
 11
89.97252349988236
 21
-148.7155423646082
 31
0.0
 11
89.95916022386069
 21
-148.7369482587001
 31
0.0
 11
89.9217058622898
 21
-148.7503438923773
 31
0.0
 11
89.92170586228978
 21
-148.7734475984262
 31
0.0
 11
89.92170586228981
 21
-148.8343573689188
 31
0.0
 11
89.9217058622898
 21
-148.9204711823738
 31
0.0
 11
89.9217058622898
 21
-149.0191870173101
 31
0.0
 11
89.92170586228981
 21
-149.1179028522463
 31
0.0
 11
89.9217058622898
 21
-149.2040166657014
 31
0.0
 11
89.9217058622898
 21
-149.264926436194
 31
0.0
 11
89.9217058622898
 21
-149.2880301422429
 31
0.0
 11
89.9468740199054
 21
-149.2880301422429
 31
0.0
 11
90.00979441394438
 21
-149.2880301422429
 31
0.0
 11
90.09159092619507
 21
-149.2880301422429
 31
0.0
 11
90.17338743844576
 21
-149.2880301422429
 31
0.0
 11
90.23630783248473
 21
-149.2880301422429
 31
0.0
 11
90.26147599010034
 21
-149.2880301422429
 31
0.0
 11
90.26147599010034
 21
-149.3143809885905
 31
0.0
 11
90.26147599010034
 21
-149.3723528505551
 31
0.0
 11
90.26147599010034
 21
-149.4303247125198
 31
0.0
 11
90.26147599010034
 21
-149.4566755588674
 31
0.0
 11
90.23630783248474
 21
-149.4566755588674
 31
0.0
 11
90.17338743844574
 21
-149.4566755588674
 31
0.0
 11
90.09159092619507
 21
-149.4566755588674
 31
0.0
 11
90.00979441394438
 21
-149.4566755588674
 31
0.0
 11
89.94687401990538
 21
-149.4566755588674
 31
0.0
 11
89.9217058622898
 21
-149.4566755588674
 31
0.0
 11
89.9217058622898
 21
-149.4794804549728
 31
0.0
 11
89.92170586228978
 21
-149.5338613610703
 31
0.0
 11
89.9217058622898
 21
-149.5987676038319
 31
0.0
 11
89.9217058622898
 21
-149.6531485099294
 31
0.0
 11
89.9217058622898
 21
-149.6759534060348
 31
0.0
  0
SPLINE
  5
B3
102
{ACAD_REACTORS
330
D0
102
}
330
48
100
AcDbEntity
  8
_U_30EC_U_30A4_U_30E4_U_30FC_1
  6
Continuous
 62
     2
100
AcDbSpline
210
0.0
220
0.0
230
1.0
 70
    11
 71
     3
 72
    47
 73
    43
 74
    41
 42
0.000000001
 43
0.0000000001
 44
0.00000001
 40
0.0
 40
0.0
 40
0.0
 40
0.0
 40
0.2207912809957521
 40
0.4459404186303151
 40
0.490238719045948
 40
0.5327473892722377
 40
0.5742260451225739
 40
0.6155432630560602
 40
0.6568164066315947
 40
0.6982511618781178
 40
0.740766392931719
 40
0.7851366743175542
 40
1.010288833836361
 40
1.231080507002229
 40
1.451765243652407
 40
1.676638205891698
 40
1.720461045359634
 40
1.830018144043528
 40
1.972442372353135
 40
2.114866600677523
 40
2.224423699395181
 40
2.26824653888341
 40
2.493628801207248
 40
2.715602830286665
 40
2.934211330706396
 40
3.149502369855356
 40
3.231387784851028
 40
3.318231873854091
 40
3.405143198198093
 40
3.486970301720485
 40
3.702258172493915
 40
3.920866283534104
 40
4.142839325931899
 40
4.368221903865408
 40
4.412044743359861
 40
4.52160184209588
 40
4.664026070452383
 40
4.806450298809086
 40
4.916007397546782
 40
4.959830237043111
 40
5.184703515847151
 40
5.405387250767459
 40
5.405387250767459
 40
5.405387250767459
 40
5.405387250767459
 10
87.28500168528905
 20
-149.2107806283733
 30
0.0
 10
87.29107290142483
 20
-149.1472602128999
 30
0.0
 10
87.30333517014884
 20
-149.0189656510157
 30
0.0
 10
87.19472964736573
 20
-148.7431828361714
 30
0.0
 10
87.31045754908487
 20
-148.7729637035914
 30
0.0
 10
87.35144321032604
 20
-148.7771894752837
 30
0.0
 10
87.3933795391763
 20
-148.7817405740159
 30
0.0
 10
87.43467862199552
 20
-148.7828252086171
 30
0.0
 10
87.47596217098005
 20
-148.7817416559597
 30
0.0
 10
87.51787378648926
 20
-148.7771839107985
 30
0.0
 10
87.55885731432645
 20
-148.7729707358147
 30
0.0
 10
87.67475124377339
 20
-148.7430689247366
 30
0.0
 10
87.56382423217013
 20
-149.0214469718131
 30
0.0
 10
87.5917445959512
 20
-149.2020136296625
 30
0.0
 10
87.57468569412143
 20
-149.4352346144473
 30
0.0
 10
87.57572268763482
 20
-149.5957788124805
 30
0.0
 10
87.57566889936493
 20
-149.7219968623248
 30
0.0
 10
87.57568669667262
 20
-149.8205554045496
 30
0.0
 10
87.57567781753254
 20
-149.9520380134823
 30
0.0
 10
87.57568535222785
 20
-150.0835165882255
 30
0.0
 10
87.57567189993742
 20
-150.1820828109711
 30
0.0
 10
87.57571213117362
 20
-150.3084476816704
 30
0.0
 10
87.57493359980631
 20
-150.4700243496833
 30
0.0
 10
87.59085479135116
 20
-150.7012268189829
 30
0.0
 10
87.56760584796523
 20
-150.886101518192
 30
0.0
 10
87.67027730386113
 20
-151.1554890102114
 30
0.0
 10
87.51628279570814
 20
-151.1182439110538
 30
0.0
 10
87.43467193970773
 20
-151.1234650911067
 30
0.0
 10
87.35307818868276
 20
-151.1182388341285
 30
0.0
 10
87.19911032610877
 20
-151.155474339058
 30
0.0
 10
87.30167730161628
 20
-150.8860937392832
 30
0.0
 10
87.27846349103336
 20
-150.7012291846578
 30
0.0
 10
87.29430342493838
 20
-150.4700228522556
 30
0.0
 10
87.29358859076723
 20
-150.308447914827
 30
0.0
 10
87.29362541641517
 20
-150.1820827258068
 30
0.0
 10
87.29361385945153
 20
-150.0835174715522
 30
0.0
 10
87.29361646134588
 20
-149.9520337637397
 30
0.0
 10
87.29362381260239
 20
-149.8205695576
 30
0.0
 10
87.29360321355966
 20
-149.7219671751587
 30
0.0
 10
87.2936671786273
 20
-149.5958835443677
 30
0.0
 10
87.29243235418349
 20
-149.4327441240742
 30
0.0
 10
87.28746299909905
 20
-149.2843032001365
 30
0.0
 10
87.28500168528905
 20
-149.2107806283733
 30
0.0
 11
87.28500168528905
 21
-149.2107806283733
 31
0.0
 11
87.27599177946246
 21
-148.9901732499562
 31
0.0
 11
87.26613593003913
 21
-148.7652399340402
 31
0.0
 11
87.30995754350462
 21
-148.7717211232747
 31
0.0
 11
87.35209905284603
 21
-148.7772961145927
 31
0.0
 11
87.39339610040358
 21
-148.7811733628557
 31
0.0
 11
87.43469314796101
 21
-148.7824643090359
 31
0.0
 11
87.47594609829756
 21
-148.7811733628557
 31
0.0
 11
87.51719904863427
 21
-148.7772961145927
 31
0.0
 11
87.5593471725588
 21
-148.7717211232747
 31
0.0
 11
87.60324154643905
 21
-148.7652399340402
 31
0.0
 11
87.59331672881365
 21
-148.9901732499562
 31
0.0
 11
87.58429738025552
 21
-149.2107806283733
 31
0.0
 11
87.57782280576802
 21
-149.4313703679014
 31
0.0
 11
87.57568078325312
 21
-149.6562331282619
 31
0.0
 11
87.5756807832531
 21
-149.7000559677571
 31
0.0
 11
87.57568078325312
 21
-149.8096130664952
 31
0.0
 11
87.57568078325312
 21
-149.9520372948546
 31
0.0
 11
87.57568078325312
 21
-150.0944615232141
 31
0.0
 11
87.57568078325312
 21
-150.2040186219521
 31
0.0
 11
87.57568078325312
 21
-150.2478414614473
 31
0.0
 11
87.57782280576802
 21
-150.4732135447243
 31
0.0
 11
87.58429738025552
 21
-150.6950931280022
 31
0.0
 11
87.59331672881365
 21
-150.9135154890587
 31
0.0
 11
87.60324154643905
 21
-151.1285776417827
 31
0.0
 11
87.52152057630155
 21
-151.1233907060201
 31
0.0
 11
87.43469314796101
 21
-151.1216896556734
 31
0.0
 11
87.3477984713584
 21
-151.1233907060201
 31
0.0
 11
87.26613593003913
 21
-151.1285776417827
 31
0.0
 11
87.27599177946246
 21
-150.9135154890587
 31
0.0
 11
87.28500168528905
 21
-150.6950931280022
 31
0.0
 11
87.29144234330431
 21
-150.4732135447244
 31
0.0
 11
87.29361731822684
 21
-150.2478414614473
 31
0.0
 11
87.29361731822684
 21
-150.2040186219521
 31
0.0
 11
87.29361731822684
 21
-150.0944615232141
 31
0.0
 11
87.29361731822684
 21
-149.9520372948546
 31
0.0
 11
87.29361731822684
 21
-149.8096130664952
 31
0.0
 11
87.29361731822684
 21
-149.7000559677571
 31
0.0
 11
87.29361731822684
 21
-149.6562331282619
 31
0.0
 11
87.29144234330431
 21
-149.4313703679014
 31
0.0
 11
87.28500168528905
 21
-149.2107806283733
 31
0.0
  0
SPLINE
  5
B4
102
{ACAD_REACTORS
330
D1
102
}
330
48
100
AcDbEntity
  8
_U_30EC_U_30A4_U_30E4_U_30FC_1
  6
Continuous
 62
     2
100
AcDbSpline
210
0.0
220
0.0
230
1.0
 70
    11
 71
     3
 72
   110
 73
   106
 74
   104
 42
0.000000001
 43
0.0000000001
 44
0.00000001
 40
0.0
 40
0.0
 40
0.0
 40
0.0
 40
0.2203406257277412
 40
0.4407808782837972
 40
0.5952494494614524
 40
0.748843165939293
 40
0.902358183130892
 40
1.056801968670405
 40
1.210736449099877
 40
1.36304138653977
 40
1.515315729683111
 40
1.669377239148034
 40
1.72161165275652
 40
1.773199502942943
 40
1.824933793209958
 40
1.877110426487873
 40
1.982682281206607
 40
2.078781667087458
 40
2.172809640822191
 40
2.271937807378803
 40
2.37834993337921
 40
2.494131557736368
 40
2.626681683943503
 40
2.783145050795945
 40
2.890701232940751
 40
2.993130312454627
 40
3.099869730691626
 40
3.220237816691162
 40
3.352695482737422
 40
3.481732806389663
 40
3.593499473690242
 40
3.674323013331679
 40
3.817951711952628
 40
3.946167120793668
 40
4.061405053453354
 40
4.16648079600301
 40
4.262478775059073
 40
4.350736673550988
 40
4.433071991253844
 40
4.511216293814493
 40
4.564262454117844
 40
4.618474415571481
 40
4.670128488754107
 40
4.722296879126319
 40
4.819540945314207
 40
4.931194984128033
 40
5.049996040257706
 40
5.168643755415292
 40
5.28397081176249
 40
5.392260784910301
 40
5.486512254876348
 40
5.559178233949804
 40
5.591425852853472
 40
5.626215969637863
 40
5.667155838674422
 40
5.717449290214229
 40
5.738402360944828
 40
5.784499116553827
 40
5.83059587216476
 40
5.851548942897632
 40
5.873019280661761
 40
5.924217778408287
 40
5.985325662817668
 40
6.03652416056769
 40
6.057994498334234
 40
6.236847789607423
 40
6.381409928945653
 40
6.493190424178676
 40
6.574067534230526
 40
6.691018086205606
 40
6.814881554220538
 40
6.944307823240476
 40
7.071266716066143
 40
7.193488604461934
 40
7.309042773128213
 40
7.414007203170828
 40
7.505140441886566
 40
7.531150360599717
 40
7.559221645322283
 40
7.587202218920961
 40
7.612569159499198
 40
7.662550809481029
 40
7.70287887576414
 40
7.857328205230955
 40
8.010799568088586
 40
8.165256399657565
 40
8.322232698713933
 40
8.479564855016577
 40
8.635216230290823
 40
8.790882550925726
 40
8.948305154947262
 40
9.168271839032919
 40
9.387358980987182
 40
9.608047961033412
 40
9.832914234792675
 40
9.858338694963017
 40
9.925366817229992
 40
10.02013071422758
 40
10.12876249858997
 40
10.23739428295247
 40
10.33215817995188
 40
10.39918630222389
 40
10.42461076239778
 40
10.64992019336937
 40
10.87188524531182
 40
10.87188524531182
 40
10.87188524531182
 40
10.87188524531182
 10
84.54003779708631
 20
-149.2056124339301
 30
0.0
 10
84.54354545277862
 20
-149.138680417174
 30
0.0
 10
84.55056235819077
 20
-149.0047861187534
 30
0.0
 10
84.45406171933175
 20
-148.7193594881973
 30
0.0
 10
84.68527243203536
 20
-148.7820011760092
 30
0.0
 10
84.82618796514006
 20
-148.774829497352
 30
0.0
 10
84.98330073518335
 20
-148.7824862071296
 30
0.0
 10
85.13685030215325
 20
-148.7823175150816
 30
0.0
 10
85.28876945293261
 20
-148.7830246325577
 30
0.0
 10
85.44848044074762
 20
-148.7727434543955
 30
0.0
 10
85.57515621953628
 20
-148.7898799271045
 30
0.0
 10
85.7713410716325
 20
-148.7175724368406
 30
0.0
 10
85.73769848733232
 20
-148.8184380471108
 30
0.0
 10
85.73946009114292
 20
-148.8686524984354
 30
0.0
 10
85.73699316677038
 20
-148.9177216820473
 30
0.0
 10
85.76896665602558
 20
-149.004210129442
 30
0.0
 10
85.63529894975008
 20
-148.9548706518285
 30
0.0
 10
85.55147982823014
 20
-148.9605386947702
 30
0.0
 10
85.4516450733569
 20
-148.9501898708491
 30
0.0
 10
85.35291663143906
 20
-148.9439805338011
 30
0.0
 10
85.24641223653558
 20
-148.9378673997442
 30
0.0
 10
85.12531012923047
 20
-148.9289562030662
 30
0.0
 10
85.00459710966989
 20
-148.9396289787881
 30
0.0
 10
84.81551434376821
 20
-148.8801600071084
 30
0.0
 10
84.84716180995568
 20
-149.0392618371366
 30
0.0
 10
84.83381529110784
 20
-149.1364537545129
 30
0.0
 10
84.83175480206953
 20
-149.248504386811
 30
0.0
 10
84.83007776389161
 20
-149.3678481816185
 30
0.0
 10
84.83159263884772
 20
-149.4945191163609
 30
0.0
 10
84.82991720729159
 20
-149.6218291577508
 30
0.0
 10
84.84014338659028
 20
-149.7203293738673
 30
0.0
 10
84.81215961908273
 20
-149.8609580116556
 30
0.0
 10
84.98506195935505
 20
-149.8049495265711
 30
0.0
 10
85.09876097970165
 20
-149.8176455231269
 30
0.0
 10
85.21827412664847
 20
-149.8103612673995
 30
0.0
 10
85.32310810193167
 20
-149.8060648673443
 30
0.0
 10
85.41856744928572
 20
-149.8015393553223
 30
0.0
 10
85.51064131012778
 20
-149.79335302645
 30
0.0
 10
85.58191413766839
 20
-149.7984065315309
 30
0.0
 10
85.6887521299931
 20
-149.7594807875952
 30
0.0
 10
85.65691931922808
 20
-149.8396738178532
 30
0.0
 10
85.66087540981754
 20
-149.8892156694517
 30
0.0
 10
85.65770919862575
 20
-149.9392702575138
 30
0.0
 10
85.68933810848306
 20
-150.0235565617918
 30
0.0
 10
85.55527232719369
 20
-149.9705913829604
 30
0.0
 10
85.46349123874455
 20
-149.9794442290076
 30
0.0
 10
85.3422318783848
 20
-149.9691445382604
 30
0.0
 10
85.22567027140167
 20
-149.967355920237
 30
0.0
 10
85.1125965340124
 20
-149.966974866815
 30
0.0
 10
85.00218359027161
 20
-149.9606905431902
 30
0.0
 10
84.92407136620858
 20
-149.9729537053583
 30
0.0
 10
84.82562154278887
 20
-149.9403061617508
 30
0.0
 10
84.83549447678058
 20
-149.9971475573699
 30
0.0
 10
84.83165128386483
 20
-150.0309237323321
 30
0.0
 10
84.83093794785133
 20
-150.0736489908179
 30
0.0
 10
84.83059592372206
 20
-150.1108289652905
 30
0.0
 10
84.83064238495906
 20
-150.1499726642043
 30
0.0
 10
84.83062390241719
 20
-150.1876765429352
 30
0.0
 10
84.83062930260519
 20
-150.2253954855879
 30
0.0
 10
84.83062868084455
 20
-150.2549017904605
 30
0.0
 10
84.83062877457904
 20
-150.2861092609189
 30
0.0
 10
84.83062938821652
 20
-150.3307007888312
 30
0.0
 10
84.83062610935823
 20
-150.3852054728235
 30
0.0
 10
84.83063492177261
 20
-150.4297896358975
 30
0.0
 10
84.83059492476622
 20
-150.5136669520546
 30
0.0
 10
84.83186138644999
 20
-150.6274698311352
 30
0.0
 10
84.82928637120872
 20
-150.7765410785749
 30
0.0
 10
84.84075989759648
 20
-150.878872999773
 30
0.0
 10
84.81660958165084
 20
-151.0114559990537
 30
0.0
 10
84.96755835407214
 20
-150.9658877151919
 30
0.0
 10
85.07710262658009
 20
-150.9805749162886
 30
0.0
 10
85.20765600681656
 20
-150.9756406866614
 30
0.0
 10
85.33329018037585
 20
-150.9722679846784
 30
0.0
 10
85.45313202198464
 20
-150.9677300629242
 30
0.0
 10
85.57339522056714
 20
-150.954359676092
 30
0.0
 10
85.65653512577606
 20
-150.9641579100861
 30
0.0
 10
85.779867001532
 20
-150.9035828916788
 30
0.0
 10
85.75868587982016
 20
-150.9595204365718
 30
0.0
 10
85.75785398643617
 20
-150.9854525441885
 30
0.0
 10
85.75615533018035
 20
-151.0128724760027
 30
0.0
 10
85.75605644830749
 20
-151.0474630858482
 30
0.0
 10
85.75462488955753
 20
-151.0843409557043
 30
0.0
 10
85.78753937864346
 20
-151.1763766276939
 30
0.0
 10
85.58938965823529
 20
-151.1035248781637
 30
0.0
 10
85.46431378891359
 20
-151.126587772826
 30
0.0
 10
85.30156608894012
 20
-151.1203048180542
 30
0.0
 10
85.14719560442461
 20
-151.1222355988128
 30
0.0
 10
84.99092600311886
 20
-151.1209074119194
 30
0.0
 10
84.83131340595266
 20
-151.1242463130334
 30
0.0
 10
84.68829159364819
 20
-151.1121870806296
 30
0.0
 10
84.45397344758734
 20
-151.1753250181428
 30
0.0
 10
84.55164003454423
 20
-150.8886397632488
 30
0.0
 10
84.53494583743036
 20
-150.6949619564854
 30
0.0
 10
84.54888863039292
 20
-150.466362609109
 30
0.0
 10
84.54855774408782
 20
-150.3109990983615
 30
0.0
 10
84.54856677135085
 20
-150.2051816734707
 30
0.0
 10
84.54856454705613
 20
-150.1427871966699
 30
0.0
 10
84.54856551461343
 20
-150.0526407854287
 30
0.0
 10
84.54856550675062
 20
-149.9486333663376
 30
0.0
 10
84.54856434553479
 20
-149.844623724159
 30
0.0
 10
84.54856805657475
 20
-149.7544826010243
 30
0.0
 10
84.54856006452962
 20
-149.6920770069399
 30
0.0
 10
84.54859238692636
 20
-149.5861566783007
 30
0.0
 10
84.54740303825645
 20
-149.4285778724646
 30
0.0
 10
84.54248060835013
 20
-149.2795628396914
 30
0.0
 10
84.54003779708631
 20
-149.2056124339301
 30
0.0
 11
84.54003779708631
 21
-149.2056124339301
 31
0.0
 11
84.53095078179854
 21
-148.9854592569019
 31
0.0
 11
84.52108391673784
 21
-148.7652399340402
 31
0.0
 11
84.6754164735645
 21
-148.7717211232747
 31
0.0
 11
84.82890897832914
 21
-148.7772961145927
 31
0.0
 11
84.98237502476115
 21
-148.7811733628557
 31
0.0
 11
85.13681341491844
 21
-148.7824643090359
 31
0.0
 11
85.29074248217182
 21
-148.7811733628557
 31
0.0
 11
85.44299805988453
 21
-148.7772961145927
 31
0.0
 11
85.59517031453188
 21
-148.7717211232747
 31
0.0
 11
85.74909543567281
 21
-148.7652399340402
 31
0.0
 11
85.74134012973687
 21
-148.8168954201384
 31
0.0
 11
85.73875812178363
 21
-148.86841861457
 31
0.0
 11
85.7413401297369
 21
-148.9200884322654
 31
0.0
 11
85.74909543567281
 21
-148.9716854895441
 31
0.0
 11
85.64374636486559
 21
-148.9648305763514
 31
0.0
 11
85.54789652943049
 21
-148.9579095173254
 31
0.0
 11
85.45411827661482
 21
-148.951061218716
 31
0.0
 11
85.35522695101264
 21
-148.9442129201066
 31
0.0
 11
85.24901217941687
 21
-148.9377350381637
 31
0.0
 11
85.13336501222835
 21
-148.9321567395541
 31
0.0
 11
85.00087160415033
 21
-148.9282794912911
 31
0.0
 11
84.84441356126683
 21
-148.9269885451109
 31
0.0
 11
84.84052528879667
 21
-149.0344744218201
 31
0.0
 11
84.83579696426449
 21
-149.1367943089473
 31
0.0
 11
84.83191971609946
 21
-149.2434632846151
 31
0.0
 11
84.83062876995172
 21
-149.3638244477795
 31
0.0
 11
84.83103887410809
 21
-149.4962814789963
 31
0.0
 11
84.83234856157475
 21
-149.6253121560474
 31
0.0
 11
84.83366641712945
 21
-149.7370710535889
 31
0.0
 11
84.83407807479051
 21
-149.8178935448881
 31
0.0
 11
84.97770425301192
 21
-149.8170424684995
 31
0.0
 11
85.10589335250035
 21
-149.8144451421112
 31
0.0
 11
85.22106678160407
 21
-149.8105899424594
 31
0.0
 11
85.32603459064654
 21
-149.8058285448912
 31
0.0
 11
85.42189358836667
 21
-149.8006647601703
 31
0.0
 11
85.51000029684383
 21
-149.7955009754493
 31
0.0
 11
85.59214710327413
 21
-149.7899325987146
 31
0.0
 11
85.67002819298165
 21
-149.7835241698967
 31
0.0
 11
85.6622770039431
 21
-149.8360009667586
 31
0.0
 11
85.65969180435621
 21
-149.8901512532034
 31
0.0
 11
85.6622770039431
 21
-149.9417405934684
 31
0.0
 11
85.67002819298165
 21
-149.9933299337332
 31
0.0
 11
85.57324030482593
 21
-149.9839217913744
 31
0.0
 11
85.46185403162605
 21
-149.9761937531819
 31
0.0
 11
85.34318510236182
 21
-149.9705923035305
 31
0.0
 11
85.2245757043458
 21
-149.9675771559619
 31
0.0
 11
85.10926147117662
 21
-149.9658573642956
 31
0.0
 11
85.00098515449451
 21
-149.9641375726294
 31
0.0
 11
84.90674289119536
 21
-149.9628201681158
 31
0.0
 11
84.83407807479051
 21
-149.9624089615187
 31
0.0
 11
84.83366641712945
 21
-149.9946539528301
 31
0.0
 11
84.83234856157475
 21
-150.0294191003908
 31
0.0
 11
84.83103887410809
 21
-150.0703380153112
 31
0.0
 11
84.83062876995172
 21
-150.1206297948125
 31
0.0
 11
84.83062876995172
 21
-150.1415828655538
 31
0.0
 11
84.83062876995172
 21
-150.1876796211847
 31
0.0
 11
84.83062876995172
 21
-150.2337763768155
 31
0.0
 11
84.83062876995172
 21
-150.2547294475568
 31
0.0
 11
84.83062876995172
 21
-150.2761997853292
 31
0.0
 11
84.8306287699517
 21
-150.3273982830942
 31
0.0
 11
84.83062876995172
 21
-150.3885061675233
 31
0.0
 11
84.83062876995172
 21
-150.4397046652883
 31
0.0
 11
84.83062876995172
 21
-150.4611750030607
 31
0.0
 11
84.83103887410809
 21
-150.6400278241965
 31
0.0
 11
84.83234856157475
 21
-150.7845840307576
 31
0.0
 11
84.83454581839538
 21
-150.8963429282991
 31
0.0
 11
84.83751765812303
 21
-150.9771654195984
 31
0.0
 11
84.95446821116924
 21
-150.9771654195984
 31
0.0
 11
85.07833168029913
 21
-150.9771654195984
 31
0.0
 11
85.2077515120667
 21
-150.9758744734181
 31
0.0
 11
85.33465118764894
 21
-150.9719972251552
 31
0.0
 11
85.45672476622184
 21
-150.9659779543233
 31
0.0
 11
85.57201770937087
 21
-150.958212433492
 31
0.0
 11
85.67643441677636
 21
-150.947503423078
 31
0.0
 11
85.76631888496934
 21
-150.9324684751651
 31
0.0
 11
85.7606843625436
 21
-150.9578607581449
 31
0.0
 11
85.75770228796682
 21
-150.985773197374
 31
0.0
 11
85.75639294754448
 21
-151.013723119242
 31
0.0
 11
85.75598249634402
 21
-151.0390867390273
 31
0.0
 11
85.75856769593095
 21
-151.0890014872787
 31
0.0
 11
85.76631888496934
 21
-151.1285776417827
 31
0.0
 11
85.61195667725892
 21
-151.1233907060201
 31
0.0
 11
85.45849474130102
 21
-151.1216896556734
 31
0.0
 11
85.30403790907283
 21
-151.1216896556734
 31
0.0
 11
85.14706160910129
 21
-151.1216896556734
 31
0.0
 11
84.98972945157814
 21
-151.1216896556734
 31
0.0
 11
84.83407807479051
 21
-151.1216896556734
 31
0.0
 11
84.67842104684863
 21
-151.1233907060201
 31
0.0
 11
84.52108391673784
 21
-151.1285776417827
 31
0.0
 11
84.53095078179854
 21
-150.9088323640599
 31
0.0
 11
84.54003779708631
 21
-150.6899337530035
 31
0.0
 11
84.54643111126457
 21
-150.469337398892
 31
0.0
 11
84.54856530492543
 21
-150.2444812531148
 31
0.0
 11
84.54856530492543
 21
-150.2190567929432
 31
0.0
 11
84.54856530492543
 21
-150.1520286706726
 31
0.0
 11
84.54856530492543
 21
-150.0572647736694
 31
0.0
 11
84.54856530492543
 21
-149.9486329892999
 31
0.0
 11
84.54856530492543
 21
-149.8400012049304
 31
0.0
 11
84.54856530492543
 21
-149.7452373079271
 31
0.0
 11
84.54856530492543
 21
-149.6782091856566
 31
0.0
 11
84.54856530492543
 21
-149.652784725485
 31
0.0
 11
84.54643111126458
 21
-149.4274854026247
 31
0.0
 11
84.54003779708631
 21
-149.2056124339301
 31
0.0
  0
SPLINE
  5
B5
102
{ACAD_REACTORS
330
D2
102
}
330
48
100
AcDbEntity
  8
_U_30EC_U_30A4_U_30E4_U_30FC_1
  6
Continuous
 62
     2
100
AcDbSpline
210
0.0
220
0.0
230
1.0
 70
    11
 71
     3
 72
    95
 73
    91
 74
    89
 42
0.000000001
 43
0.0000000001
 44
0.00000001
 40
0.0
 40
0.0
 40
0.0
 40
0.0
 40
0.6550406656911216
 40
1.308087289031901
 40
1.42080373983575
 40
1.566130759770788
 40
1.757067341888423
 40
2.006513545026426
 40
2.087328263121496
 40
2.185328872295622
 40
2.294612454748332
 40
2.408936380534773
 40
2.526802767798529
 40
2.646360524615571
 40
2.762535723971543
 40
2.870057342870111
 40
2.96688344843166
 40
3.050803243518306
 40
3.115818222436557
 40
3.156030057150204
 40
3.213914225080134
 40
3.27668902645049
 40
3.342960320981295
 40
3.404230667150544
 40
3.453822809493329
 40
3.53249982718834
 40
3.634775188507145
 40
3.754909333008107
 40
3.889736761660648
 40
4.035769602175245
 40
4.187256681197599
 40
4.338733685675892
 40
4.488478734676113
 40
4.634708317831556
 40
4.771493189921276
 40
4.892686571561184
 40
5.199775528944397
 40
5.460353566929649
 40
5.667603142345468
 40
5.81472290540445
 40
5.828990806219776
 40
5.855488336304445
 40
5.869756237118777
 40
6.189796507762779
 40
6.531890469872938
 40
6.883053637016936
 40
7.230512024911378
 40
7.566966656764508
 40
7.885203559707299
 40
8.172887439719132
 40
8.418011594062687
 40
8.443926721190575
 40
8.510760470613103
 40
8.602145393795592
 40
8.701714041647005
 40
8.793098965075284
 40
8.859932715057834
 40
8.885847842603464
 40
9.242301256612686
 40
9.589275455016702
 40
9.921808543164047
 40
10.23479624298457
 40
10.29968150889172
 40
10.35323493887757
 40
10.40154625355141
 40
10.46482922477816
 40
10.55973900668396
 40
10.692395459856
 40
10.84920353475659
 40
11.0162632859477
 40
11.1867202436743
 40
11.353725825772
 40
11.50257442292414
 40
11.6186649502328
 40
11.71329869152867
 40
11.82511050573895
 40
11.94464880845703
 40
12.06929242642496
 40
12.19707290435171
 40
12.32562632860517
 40
12.45034565331266
 40
12.56646595170315
 40
12.67099007414623
 40
12.76077625936775
 40
12.82703233506686
 40
12.87429132785985
 40
12.89831990323325
 40
12.92234847860012
 40
13.53984767410319
 40
14.18294284359364
 40
14.18294284359364
 40
14.18294284359364
 40
14.18294284359364
 10
81.94105252422662
 20
-150.2358646558947
 30
0.0
 10
81.80946093527962
 20
-150.1221944518796
 30
0.0
 10
81.54667833969732
 20
-149.8952000747504
 30
0.0
 10
81.0339983035266
 20
-149.052700408349
 30
0.0
 10
81.04492441896075
 20
-149.4106112621418
 30
0.0
 10
81.03838161222363
 20
-149.5521711151906
 30
0.0
 10
81.03706162260174
 20
-149.7506319849192
 30
0.0
 10
81.03607071967832
 20
-149.9233420774521
 30
0.0
 10
81.03666913462202
 20
-150.0661913053362
 30
0.0
 10
81.03815838961273
 20
-150.1621949837784
 30
0.0
 10
81.03982731827179
 20
-150.2693900052806
 30
0.0
 10
81.04145245488625
 20
-150.3832029227361
 30
0.0
 10
81.04350190959315
 20
-150.5004293118661
 30
0.0
 10
81.0465755096171
 20
-150.6182809255823
 30
0.0
 10
81.0498929291289
 20
-150.7325641647058
 30
0.0
 10
81.05361949345243
 20
-150.8396310192392
 30
0.0
 10
81.05599277556698
 20
-150.9347709502428
 30
0.0
 10
81.06213084826022
 20
-151.019259465855
 30
0.0
 10
81.0582374090192
 20
-151.0756141649306
 30
0.0
 10
81.07978200373229
 20
-151.1465948131885
 30
0.0
 10
81.00235296528629
 20
-151.1158182618671
 30
0.0
 10
80.94589428344364
 20
-151.124732612736
 30
0.0
 10
80.88830854910526
 20
-151.1158828539292
 30
0.0
 10
80.80327530727175
 20
-151.1474627856525
 30
0.0
 10
80.83523037406282
 20
-151.0638934779901
 30
0.0
 10
80.83332948767843
 20
-150.9960189482289
 30
0.0
 10
80.84505496415446
 20
-150.8925124702678
 30
0.0
 10
80.85068306472455
 20
-150.7748237817451
 30
0.0
 10
80.85804917731862
 20
-150.6409589462678
 30
0.0
 10
80.86633492958555
 20
-150.4972035091856
 30
0.0
 10
80.8741441491672
 20
-150.3477048094775
 30
0.0
 10
80.88001608169023
 20
-150.1969195438912
 30
0.0
 10
80.88462574122136
 20
-150.0478455991276
 30
0.0
 10
80.88852217117878
 20
-149.9036159062818
 30
0.0
 10
80.89133047208087
 20
-149.7690059857818
 30
0.0
 10
80.89192883492677
 20
-149.5801488944385
 30
0.0
 10
80.89586134613953
 20
-149.3550900947804
 30
0.0
 10
80.87847649727435
 20
-149.081174126655
 30
0.0
 10
80.91930069368276
 20
-148.916973916926
 30
0.0
 10
80.83377428502479
 20
-148.7173484232611
 30
0.0
 10
80.90031485019335
 20
-148.7209904538722
 30
0.0
 10
80.91813138674758
 20
-148.7207105663034
 30
0.0
 10
81.03993913917496
 20
-148.7185157639265
 30
0.0
 10
81.14233599297063
 20
-148.9980938506967
 30
0.0
 10
81.39226111036015
 20
-149.199214952552
 30
0.0
 10
81.62126249253556
 20
-149.4669188880329
 30
0.0
 10
81.85877408073537
 20
-149.7183808992883
 30
0.0
 10
82.0828680335017
 20
-149.9551452972984
 30
0.0
 10
82.30933058772546
 20
-150.2126581120812
 30
0.0
 10
82.4668277480759
 20
-150.3283516873427
 30
0.0
 10
82.68147192069208
 20
-150.6648735125241
 30
0.0
 10
82.67652355688634
 20
-150.5401974969959
 30
0.0
 10
82.6776521196793
 20
-150.4815681185546
 30
0.0
 10
82.67714674357616
 20
-150.3944084141922
 30
0.0
 10
82.6773064752359
 20
-150.3006836060833
 30
0.0
 10
82.67726444855634
 20
-150.2146553249416
 30
0.0
 10
82.67727916346186
 20
-150.153306118457
 30
0.0
 10
82.67722958502284
 20
-150.0034927227021
 30
0.0
 10
82.68014011170564
 20
-149.7649489128109
 30
0.0
 10
82.66021106354059
 20
-149.399979939225
 30
0.0
 10
82.70930235304934
 20
-149.1368487179779
 30
0.0
 10
82.55205411034245
 20
-148.7255559884343
 30
0.0
 10
82.71047024666666
 20
-148.7808622123946
 30
0.0
 10
82.76542700728737
 20
-148.7828481729102
 30
0.0
 10
82.81704773609849
 20
-148.7821972554295
 30
0.0
 10
82.90557885596111
 20
-148.7411497605296
 30
0.0
 10
82.85474878974136
 20
-148.8878817716821
 30
0.0
 10
82.86559795245289
 20
-148.9946453183677
 30
0.0
 10
82.85086265890918
 20
-149.1539879837708
 30
0.0
 10
82.84425660404506
 20
-149.3163144213833
 30
0.0
 10
82.83575509941598
 20
-149.484919818988
 30
0.0
 10
82.82858167964446
 20
-149.6466968908766
 30
0.0
 10
82.82316528096342
 20
-149.7906217233326
 30
0.0
 10
82.82143035618937
 20
-149.9104701032428
 30
0.0
 10
82.82180302665641
 20
-150.0179840220069
 30
0.0
 10
82.82162457205078
 20
-150.1266447914561
 30
0.0
 10
82.82196004573852
 20
-150.2453093362567
 30
0.0
 10
82.82326302164283
 20
-150.3692934027846
 30
0.0
 10
82.825147694582
 20
-150.496262096201
 30
0.0
 10
82.82675940490952
 20
-150.6233064224017
 30
0.0
 10
82.82839927316759
 20
-150.7462961929902
 30
0.0
 10
82.83051603399959
 20
-150.8618357240744
 30
0.0
 10
82.83064380166088
 20
-150.9639359983537
 30
0.0
 10
82.83491039907989
 20
-151.0547465495304
 30
0.0
 10
82.82510296795346
 20
-151.1127088258241
 30
0.0
 10
82.84610643659342
 20
-151.1796737365917
 30
0.0
 10
82.80682293341421
 20
-151.1719334982451
 30
0.0
 10
82.59378967119902
 20
-151.1872924964602
 30
0.0
 10
82.39788875374325
 20
-150.6308144569672
 30
0.0
 10
82.0953787225789
 20
-150.3692846844268
 30
0.0
 10
81.94105252422662
 20
-150.2358646558947
 30
0.0
 11
81.94105252422662
 21
-150.2358646558947
 31
0.0
 11
81.49381189327562
 21
-149.7572686837922
 31
0.0
 11
81.04666386648881
 21
-149.2813185450223
 31
0.0
 11
81.04322538567389
 21
-149.3939825380496
 31
0.0
 11
81.03981997777453
 21
-149.5392696560689
 31
0.0
 11
81.03722265145197
 21
-149.7301885796323
 31
0.0
 11
81.03637157508484
 21
-149.9796333365144
 31
0.0
 11
81.03678288245348
 21
-150.0604470083692
 31
0.0
 11
81.03810099240621
 21
-150.1584387531364
 31
0.0
 11
81.03977818619632
 21
-150.2677094649146
 31
0.0
 11
81.04149567217632
 21
-150.3820204891916
 31
0.0
 11
81.04365974330173
 21
-150.4998670082593
 31
0.0
 11
81.04666386648881
 21
-150.61938701691
 31
0.0
 11
81.05009493273835
 21
-150.7355115394504
 31
0.0
 11
81.05355185242433
 21
-150.8429775724097
 31
0.0
 11
81.05696748473332
 21
-150.9397434143994
 31
0.0
 11
81.06044865780382
 21
-151.0235909751423
 31
0.0
 11
81.0638595778558
 21
-151.0885164178344
 31
0.0
 11
81.06733664373934
 21
-151.1285776417827
 31
0.0
 11
81.00968534158167
 21
-151.1233907060201
 31
0.0
 11
80.94693359125546
 21
-151.1216896556734
 31
0.0
 11
80.8806841311402
 21
-151.1233907060201
 31
0.0
 11
80.81963373339204
 21
-151.1285776417827
 31
0.0
 11
80.8269362332058
 21
-151.0795260966561
 31
0.0
 11
80.83513831632996
 21
-151.0012777807035
 31
0.0
 11
80.84326884165935
 21
-150.8993261053817
 31
0.0
 11
80.85059960356426
 21
-150.7794158363145
 31
0.0
 11
80.85789478746668
 21
-150.6447859144731
 31
0.0
 11
80.86610338498411
 21
-150.4989839613845
 31
0.0
 11
80.87380937437109
 21
-150.3476930065613
 31
0.0
 11
80.87983525963381
 21
-150.1963359059047
 31
0.0
 11
80.8845635841661
 21
-150.0466655239976
 31
0.0
 11
80.88845185663655
 21
-149.9004876420898
 31
0.0
 11
80.891011700321
 21
-149.763726721985
 31
0.0
 11
80.89189143988193
 21
-149.6425365310431
 31
0.0
 11
80.89145157010151
 21
-149.3354478852866
 31
0.0
 11
80.89017164825924
 21
-149.0748729895183
 31
0.0
 11
80.88712483121378
 21
-148.8676458107508
 31
0.0
 11
80.88156387070086
 21
-148.7206311840514
 31
0.0
 11
80.89583177157147
 21
-148.7206311840514
 31
0.0
 11
80.92232930175976
 21
-148.7206311840514
 31
0.0
 11
80.93659720263037
 21
-148.7206311840514
 31
0.0
 11
81.15373332445222
 21
-148.9557432412843
 31
0.0
 11
81.38553337173244
 21
-149.2073322255964
 31
0.0
 11
81.62374056130845
 21
-149.4653494824763
 31
0.0
 11
81.86026641517662
 21
-149.7198742393571
 31
0.0
 11
82.08982883119508
 21
-149.9658474424206
 31
0.0
 11
82.30743869543483
 21
-150.1980556975709
 31
0.0
 11
82.50563145079525
 21
-150.406578232241
 31
0.0
 11
82.67727326933317
 21
-150.5815780585861
 31
0.0
 11
82.67727326933316
 21
-150.5556629310416
 31
0.0
 11
82.67727326933318
 21
-150.4888291810583
 31
0.0
 11
82.67727326933317
 21
-150.3974442576117
 31
0.0
 11
82.67727326933318
 21
-150.2978756096775
 31
0.0
 11
82.67727326933317
 21
-150.2064906862309
 31
0.0
 11
82.67727326933317
 21
-150.1396569362476
 31
0.0
 11
82.67727326933317
 21
-150.1137418087031
 31
0.0
 11
82.67598232318544
 21
-149.7572907324033
 31
0.0
 11
82.67210507502034
 21
-149.4103381977678
 31
0.0
 11
82.66387873842473
 21
-149.0779068784065
 31
0.0
 11
82.6497125061473
 21
-148.7652399340402
 31
0.0
 11
82.71329408438638
 21
-148.7781813663287
 31
0.0
 11
82.76667597538562
 21
-148.7824643090359
 31
0.0
 11
82.81479706790782
 21
-148.7781813663287
 31
0.0
 11
82.87674263924424
 21
-148.7652399340402
 31
0.0
 11
82.86938060818198
 21
-148.859863753461
 31
0.0
 11
82.86123805630632
 21
-148.9922700728723
 31
0.0
 11
82.85262949582494
 21
-149.1488416700554
 31
0.0
 11
82.84401368174605
 21
-149.3156791005693
 31
0.0
 11
82.8358777444534
 21
-149.4859417828184
 31
0.0
 11
82.82850909880807
 21
-149.652784725485
 31
0.0
 11
82.82339965257671
 21
-149.8015456021839
 31
0.0
 11
82.82170930731496
 21
-149.917623822641
 31
0.0
 11
82.82170930731496
 21
-150.0122575639368
 31
0.0
 11
82.82170930731496
 21
-150.1240693781449
 31
0.0
 11
82.8221050798742
 21
-150.2436070256845
 31
0.0
 11
82.8233409044953
 21
-150.3682445169728
 31
0.0
 11
82.82509817875624
 21
-150.4960129110381
 31
0.0
 11
82.82678930718532
 21
-150.6245552113532
 31
0.0
 11
82.828546581446
 21
-150.7492621557664
 31
0.0
 11
82.83023770987501
 21
-150.8653701418485
 31
0.0
 11
82.8315473973417
 21
-150.9698860706418
 31
0.0
 11
82.83195750149804
 21
-151.0596713223555
 31
0.0
 11
82.83195750149804
 21
-151.1259273987279
 31
0.0
 11
82.83195750149804
 21
-151.1731863917716
 31
0.0
 11
82.80792892572214
 21
-151.1731863917716
 31
0.0
 11
82.78390034994624
 21
-151.1731863917716
 31
0.0
 11
82.37533187946683
 21
-150.71017768529
 31
0.0
 11
81.94105252422662
 21
-150.2358646558947
 31
0.0
  0
SPLINE
  5
B6
102
{ACAD_REACTORS
330
D3
102
}
330
48
100
AcDbEntity
  8
_U_30EC_U_30A4_U_30E4_U_30FC_1
  6
Continuous
 62
     2
100
AcDbSpline
210
0.0
220
0.0
230
1.0
 70
    11
 71
     3
 72
    25
 73
    21
 74
    19
 42
0.000000001
 43
0.0000000001
 44
0.00000001
 40
0.0
 40
0.0
 40
0.0
 40
0.0
 40
0.0911479969064819
 40
0.1858117896204659
 40
0.2804128399734918
 40
0.3715889190714508
 40
0.4679080494218705
 40
0.5642683809229367
 40
0.6605683222644991
 40
0.756965301581067
 40
0.8561348172523072
 40
1.092615965104331
 40
1.374867658141912
 40
1.611348812011623
 40
1.710518328425274
 40
1.809403163726566
 40
2.045205463294085
 40
2.326646917622122
 40
2.562449217190598
 40
2.661334043833899
 40
2.661334043833899
 40
2.661334043833899
 40
2.661334043833899
 10
77.90262901614443
 20
-150.0586996559391
 30
0.0
 10
77.93301155121677
 20
-150.0588642407664
 30
0.0
 10
77.99494854833567
 20
-150.0591997510128
 30
0.0
 10
78.08839465545753
 20
-150.0621544833919
 30
0.0
 10
78.18176848306025
 20
-150.0650675091405
 30
0.0
 10
78.27603503477215
 20
-150.0659030214778
 30
0.0
 10
78.36975543852118
 20
-150.0648785913315
 30
0.0
 10
78.469462989745
 20
-150.0656752632023
 30
0.0
 10
78.55315391405577
 20
-150.0556309355597
 30
0.0
 10
78.6980585909291
 20
-150.0824988611704
 30
0.0
 10
78.5738722039046
 20
-149.9081897351116
 30
0.0
 10
78.53084568805272
 20
-149.7483279278511
 30
0.0
 10
78.41515117364547
 20
-149.4896604524099
 30
0.0
 10
78.3360155025502
 20
-149.3525345092935
 30
0.0
 10
78.27741662160615
 20
-149.1354747065713
 30
0.0
 10
78.22073935336823
 20
-149.3521836957777
 30
0.0
 10
78.13953994947221
 20
-149.4915749135297
 30
0.0
 10
78.04062908757336
 20
-149.7407753442101
 30
0.0
 10
77.95962146885033
 20
-149.9255867356512
 30
0.0
 10
77.91562729200832
 20
-150.0283405693509
 30
0.0
 10
77.90262901614443
 20
-150.0586996559391
 30
0.0
 11
77.90262901614443
 21
-150.0586996559391
 31
0.0
 11
77.99377273320653
 21
-150.0595838052444
 31
0.0
 11
78.08840178918263
 21
-150.062148058716
 31
0.0
 11
78.18296717739511
 21
-150.0647453851042
 31
0.0
 11
78.27413928444412
 21
-150.0655964614929
 31
0.0
 11
78.37045753719511
 21
-150.0651852548958
 31
0.0
 11
78.46680886286214
 21
-150.0638678503823
 31
0.0
 11
78.56308522325313
 21
-150.0617368521189
 31
0.0
 11
78.65943434405887
 21
-150.0586996559391
 31
0.0
 11
78.61972229173868
 21
-149.9678286159618
 31
0.0
 11
78.52502432082133
 21
-149.751136136016
 31
0.0
 11
78.41199771037158
 21
-149.4925031760807
 31
0.0
 11
78.31729973945421
 21
-149.2758106961349
 31
0.0
 11
78.27758768713403
 21
-149.1849396561576
 31
0.0
 11
78.2385919853511
 21
-149.2758106961349
 31
0.0
 11
78.1456022349457
 21
-149.4925031760807
 31
0.0
 11
78.03461446833278
 21
-149.751136136016
 31
0.0
 11
77.94162471792734
 21
-149.9678286159618
 31
0.0
 11
77.90262901614443
 21
-150.0586996559391
 31
0.0
  0
SPLINE
  5
B7
102
{ACAD_REACTORS
330
D3
102
}
330
48
100
AcDbEntity
  8
_U_30EC_U_30A4_U_30E4_U_30FC_1
  6
Continuous
 62
     2
100
AcDbSpline
210
0.0
220
0.0
230
1.0
 70
    11
 71
     3
 72
    57
 73
    53
 74
    51
 42
0.000000001
 43
0.0000000001
 44
0.00000001
 40
0.0
 40
0.0
 40
0.0
 40
0.0
 40
0.0471632082809354
 40
0.0914861054632254
 40
0.1357762519702347
 40
0.1826527001610926
 40
0.2295203288572835
 40
0.2737751972221147
 40
0.3181310461543581
 40
0.3652607198398445
 40
0.4571007286314157
 40
0.5671851029165002
 40
0.6894623283868005
 40
0.8181758272545672
 40
0.9510087229273609
 40
1.085852229674066
 40
1.218126164475305
 40
1.343545131142366
 40
1.454537202956794
 40
1.567187607530818
 40
1.680710966642451
 40
1.794226869736829
 40
1.9000091842476
 40
2.004085860447894
 40
2.108162674451781
 40
2.214000150155297
 40
2.496038577352166
 40
2.762350745479313
 40
2.997275353279427
 40
3.185110082137738
 40
3.24640789006398
 40
3.312607550212738
 40
3.378877742711611
 40
3.440140399651464
 40
4.100501696006462
 40
4.754913085563453
 40
5.411331693423882
 40
6.077890432568718
 40
6.110575292670997
 40
6.143260152775762
 40
6.367989363395117
 40
6.61052537495151
 40
6.863389136467284
 40
7.119380025547532
 40
7.376036605091056
 40
7.631164770966267
 40
7.876722425456414
 40
8.104953735855927
 40
8.312916685924252
 40
8.497730294941261
 40
8.651018984313792
 40
8.76473885362455
 40
8.76473885362455
 40
8.76473885362455
 40
8.76473885362455
 10
79.42652390947586
 20
-151.1285776417827
 30
0.0
 10
79.41092063211761
 20
-151.1265827271212
 30
0.0
 10
79.38065375545473
 20
-151.122713024309
 30
0.0
 10
79.33535837964979
 20
-151.1214251882394
 30
0.0
 10
79.29021427235942
 20
-151.1217582023715
 30
0.0
 10
79.24416067176449
 20
-151.1216984511698
 30
0.0
 10
79.19830857663413
 20
-151.121586901412
 30
0.0
 10
79.15263012424099
 20
-151.1220667033461
 30
0.0
 10
79.10934011358533
 20
-151.1202339417248
 30
0.0
 10
79.03825375457592
 20
-151.1443494697654
 30
0.0
 10
79.04000668556864
 20
-151.0229980981395
 30
0.0
 10
78.99287859648155
 20
-150.9375826403997
 30
0.0
 10
78.95340678460067
 20
-150.8199757444606
 30
0.0
 10
78.90492251268908
 20
-150.7025175125076
 30
0.0
 10
78.8543606996767
 20
-150.5807856802969
 30
0.0
 10
78.80612242047229
 20
-150.4540853592873
 30
0.0
 10
78.74778225418399
 20
-150.3455081600625
 30
0.0
 10
78.73234822615066
 20
-150.1886384665679
 30
0.0
 10
78.59091759248807
 20
-150.2211105724288
 30
0.0
 10
78.4850987009149
 20
-150.2097161510902
 30
0.0
 10
78.37011593194669
 20
-150.2109191227659
 30
0.0
 10
78.2595731846386
 20
-150.2097755844379
 30
0.0
 10
78.15191731170279
 20
-150.2106615375367
 30
0.0
 10
78.04639121234877
 20
-150.2106790140068
 30
0.0
 10
77.94517822762577
 20
-150.2177047131878
 30
0.0
 10
77.76093944219986
 20
-150.1934864393133
 30
0.0
 10
77.74999832796561
 20
-150.4974281266931
 30
0.0
 10
77.6430281228995
 20
-150.721313265378
 30
0.0
 10
77.54407381985916
 20
-150.905891894987
 30
0.0
 10
77.55676801182527
 20
-151.14954298987
 30
0.0
 10
77.43926813106421
 20
-151.11976457038
 30
0.0
 10
77.37646454625553
 20
-151.122264142816
 30
0.0
 10
77.31284616876448
 20
-151.1214042868839
 30
0.0
 10
77.02886037883205
 20
-151.1638646384925
 30
0.0
 10
77.65942280936268
 20
-150.4440255134642
 30
0.0
 10
77.74302348833156
 20
-149.9320796435547
 30
0.0
 10
78.12718423835847
 20
-149.4113076024117
 30
0.0
 10
78.11197978828079
 20
-148.7096487753795
 30
0.0
 10
78.35818553169425
 20
-148.7213887070995
 30
0.0
 10
78.45989357518067
 20
-148.7125949933843
 30
0.0
 10
78.45923416300624
 20
-148.9642485306086
 30
0.0
 10
78.57709067500741
 20
-149.1466648305724
 30
0.0
 10
78.66581048547302
 20
-149.3892076312833
 30
0.0
 10
78.76648820795046
 20
-149.6214447326107
 30
0.0
 10
78.86537323064883
 20
-149.8580985922429
 30
0.0
 10
78.96422665849138
 20
-150.0902276462111
 30
0.0
 10
79.05987559851715
 20
-150.3136228100241
 30
0.0
 10
79.15024941675158
 20
-150.5221195474188
 30
0.0
 10
79.23325341624347
 20
-150.7117605526188
 30
0.0
 10
79.30686781770441
 20
-150.8782139772309
 30
0.0
 10
79.36854054897904
 20
-151.0156680416511
 30
0.0
 10
79.40920484798491
 20
-151.0948526436116
 30
0.0
 10
79.42652390947586
 20
-151.1285776417827
 30
0.0
 11
79.42652390947586
 21
-151.1285776417827
 31
0.0
 11
79.37964679116928
 21
-151.1233907060201
 31
0.0
 11
79.33535654903704
 21
-151.1216896556734
 31
0.0
 11
79.29106640259747
 21
-151.1216896556734
 31
0.0
 11
79.24418995414044
 21
-151.1216896556734
 31
0.0
 11
79.19732232512786
 21
-151.1216896556734
 31
0.0
 11
79.1530674564653
 21
-151.1216896556734
 31
0.0
 11
79.10874423710987
 21
-151.1233907060201
 31
0.0
 11
79.06190086156886
 21
-151.1285776417827
 31
0.0
 11
79.03351217305705
 21
-151.0412353761796
 31
0.0
 11
78.99653114101432
 21
-150.9375484751638
 31
0.0
 11
78.95309758309463
 21
-150.8232451679007
 31
0.0
 11
78.90536454611816
 21
-150.7037097252223
 31
0.0
 11
78.85507497274818
 21
-150.5807644648364
 31
0.0
 11
78.80390565981776
 21
-150.4560068086175
 31
0.0
 11
78.75401213955715
 21
-150.3335036228843
 31
0.0
 11
78.70757087060866
 21
-150.2169998642328
 31
0.0
 11
78.59662015018344
 21
-150.213970385067
 31
0.0
 11
78.48398988193344
 21
-150.2118404892341
 31
0.0
 11
78.37047416636943
 21
-150.2105230847206
 31
0.0
 11
78.25695900710451
 21
-150.2101118781235
 31
0.0
 11
78.15117749070609
 21
-150.2105230847206
 31
0.0
 11
78.047109151347
 21
-150.2118404892341
 31
0.0
 11
77.943054131829
 21
-150.2139703850669
 31
0.0
 11
77.83726002098416
 21
-150.2169998642328
 31
0.0
 11
77.73235043443836
 21
-150.4788006627785
 31
0.0
 11
77.63774582845764
 21
-150.7277427113274
 31
0.0
 11
77.55948208045433
 21
-150.9492474682164
 31
0.0
 11
77.50360208188005
 21
-151.1285776417827
 31
0.0
 11
77.4425241233687
 21
-151.1233907060201
 31
0.0
 11
77.37634632123752
 21
-151.1216896556734
 31
0.0
 11
77.31009796355275
 21
-151.1233907060201
 31
0.0
 11
77.24905528281835
 21
-151.1285776417827
 31
0.0
 11
77.52422745461757
 21
-150.5282799509606
 31
0.0
 11
77.79255353284151
 21
-149.9314086143043
 31
0.0
 11
78.05828669446495
 21
-149.3311825814682
 31
0.0
 11
78.32573303312785
 21
-148.7206311840514
 31
0.0
 11
78.35841789340515
 21
-148.7206311840514
 31
0.0
 11
78.39110275368245
 21
-148.7206311840514
 31
0.0
 11
78.47708902753021
 21
-148.9282596475412
 31
0.0
 11
78.56998754078546
 21
-149.1522988922768
 31
0.0
 11
78.66713041157088
 21
-149.3857584061073
 31
0.0
 11
78.76605260522763
 21
-149.6218637532705
 31
0.0
 11
78.86579308441719
 21
-149.8583472341141
 31
0.0
 11
78.96556607235982
 21
-150.0931572253749
 31
0.0
 11
79.0623197851694
 21
-150.3188501159435
 31
0.0
 11
79.1530674564653
 21
-150.5282645169328
 31
0.0
 11
79.23647404287911
 21
-150.7187689266074
 31
0.0
 11
79.31128828576226
 21
-150.8877627112873
 31
0.0
 11
79.37533187808484
 21
-151.0270316609053
 31
0.0
 11
79.42652390947586
 21
-151.1285776417827
 31
0.0
  0
SPLINE
  5
B8
102
{ACAD_REACTORS
330
D4
102
}
330
48
100
AcDbEntity
  8
_U_30EC_U_30A4_U_30E4_U_30FC_1
  6
Continuous
 62
     2
100
AcDbSpline
210
0.0
220
0.0
230
1.0
 70
    11
 71
     3
 72
    99
 73
    95
 74
    93
 42
0.000000001
 43
0.0000000001
 44
0.00000001
 40
0.0
 40
0.0
 40
0.0
 40
0.0
 40
0.0796417172272892
 40
0.1621768542356306
 40
0.2486489160957676
 40
0.3404969668524944
 40
0.4381912511165145
 40
0.54344636602452
 40
0.6518115192847558
 40
0.7530190937887465
 40
0.8492196919725732
 40
0.9419290312998762
 40
1.034249663570062
 40
1.129078600620204
 40
1.226697027573279
 40
1.327220425421739
 40
1.470572134938055
 40
1.595489863371277
 40
1.719934125348429
 40
1.850576620127499
 40
1.989059629987356
 40
2.134139054226944
 40
2.280698007207237
 40
2.424529739039518
 40
2.565929576985865
 40
2.708239260773619
 40
2.861717887443716
 40
3.045168540347357
 40
3.183798301138655
 40
3.314813961455515
 40
3.442083470447349
 40
3.569912708372949
 40
3.702177512509373
 40
3.842307559659556
 40
3.992872223245937
 40
4.156750662218354
 40
4.310981861107558
 40
4.445859909322603
 40
4.572393936131602
 40
4.701656719781978
 40
4.768279086008488
 40
4.835960697898411
 40
4.912788918729355
 40
5.006285208481534
 40
5.026909478751667
 40
5.047533749021246
 40
5.101808031471297
 40
5.162325165538572
 40
5.226919745995921
 40
5.294231806596725
 40
5.364544852554868
 40
5.438319055467951
 40
5.517877651324283
 40
5.607647714861578
 40
5.700449642544411
 40
5.788251142364188
 40
5.872714706039838
 40
5.955167292575334
 40
6.037192395190433
 40
6.120669181469139
 40
6.206848616686335
 40
6.296680855416841
 40
6.442558392872616
 40
6.568190371608273
 40
6.692904567360365
 40
6.824220446557189
 40
6.963121850329387
 40
7.107843738851185
 40
7.253431663907293
 40
7.395187468036736
 40
7.533140753237755
 40
7.670550457175291
 40
7.816236511769281
 40
7.987691657359261
 40
8.1422774219693
 40
8.293662615415014
 40
8.442962460879292
 40
8.591598316185333
 40
8.743678992361804
 40
8.903725323699193
 40
9.076307008890534
 40
9.265578604680575
 40
9.459203795360738
 40
9.617619810273542
 40
9.753609671361954
 40
9.874873300004117
 40
9.954520184977785
 40
10.02416413719245
 40
10.09769764405445
 40
10.18909955924975
 40
10.20974586420134
 40
10.2303921826338
 40
10.30057101881267
 40
10.37632012987542
 40
10.37632012987542
 40
10.37632012987542
 40
10.37632012987542
 10
74.78085444300962
 20
-150.806888405752
 30
0.0
 10
74.79748074454643
 20
-150.8276389494589
 30
0.0
 10
74.8313373800823
 20
-150.8698939207929
 30
0.0
 10
74.89424121352806
 20
-150.9245469239913
 30
0.0
 10
74.96750905346383
 20
-150.9718547867015
 30
0.0
 10
75.0518558832881
 20
-151.0095727235326
 30
0.0
 10
75.14748302097053
 20
-151.0344388405925
 30
0.0
 10
75.25144433695911
 20
-151.0417494444527
 30
0.0
 10
75.35666098146501
 20
-151.0334218099714
 30
0.0
 10
75.45492159655788
 20
-151.0033532413968
 30
0.0
 10
75.54015760217936
 20
-150.9563568081932
 30
0.0
 10
75.61218098003482
 20
-150.8953151254034
 30
0.0
 10
75.66935073033416
 20
-150.8207153421262
 30
0.0
 10
75.71104583416843
 20
-150.7348203913103
 30
0.0
 10
75.73695424405375
 20
-150.6399865335899
 30
0.0
 10
75.7460626926898
 20
-150.5262952475283
 30
0.0
 10
75.7329454390732
 20
-150.4015191602042
 30
0.0
 10
75.66679199286591
 20
-150.2846978461931
 30
0.0
 10
75.57119605138143
 20
-150.1997196421382
 30
0.0
 10
75.45922706166138
 20
-150.1306781933204
 30
0.0
 10
75.33362491775142
 20
-150.0728036174531
 30
0.0
 10
75.19992812151017
 20
-150.0211078050686
 30
0.0
 10
75.06557124130762
 20
-149.9658541139402
 30
0.0
 10
74.93945735811221
 20
-149.8954473314956
 30
0.0
 10
74.826916958178
 20
-149.8069896305994
 30
0.0
 10
74.73125526587035
 20
-149.6950343592273
 30
0.0
 10
74.66767467460708
 20
-149.5453459368982
 30
0.0
 10
74.65432960992612
 20
-149.3855170940606
 30
0.0
 10
74.66631005816936
 20
-149.2343609848436
 30
0.0
 10
74.70548885230862
 20
-149.1067525919966
 30
0.0
 10
74.76975773451558
 20
-148.9940362976035
 30
0.0
 10
74.85807945939851
 20
-148.8983589452252
 30
0.0
 10
74.96806808018727
 20
-148.8213028880544
 30
0.0
 10
75.09748739955099
 20
-148.7633310685492
 30
0.0
 10
75.24544285620384
 20
-148.7274532620238
 30
0.0
 10
75.40246590497317
 20
-148.7173778474064
 30
0.0
 10
75.55175300606756
 20
-148.7262086602861
 30
0.0
 10
75.69388432084152
 20
-148.7540960445085
 30
0.0
 10
75.79385122038707
 20
-148.8107118909006
 30
0.0
 10
75.94676643304298
 20
-148.8580990168569
 30
0.0
 10
75.87977213114135
 20
-148.9428695079002
 30
0.0
 10
75.8639068714514
 20
-149.0104560191771
 30
0.0
 10
75.83213401255423
 20
-149.0755841099801
 30
0.0
 10
75.84927918038161
 20
-149.1776105053425
 30
0.0
 10
75.80090168024772
 20
-149.169912921093
 30
0.0
 10
75.76583790350107
 20
-149.176777320664
 30
0.0
 10
75.76392875799633
 20
-149.1122067263299
 30
0.0
 10
75.7328282526234
 20
-149.0665886416981
 30
0.0
 10
75.70071412227006
 20
-149.0092346716275
 30
0.0
 10
75.65506280694133
 20
-148.9594404109864
 30
0.0
 10
75.60010978126323
 20
-148.9148969007221
 30
0.0
 10
75.53534307672527
 20
-148.8772051495465
 30
0.0
 10
75.45749669048422
 20
-148.8520112799985
 30
0.0
 10
75.36977501475975
 20
-148.8455327279309
 30
0.0
 10
75.27954928720521
 20
-148.8524879450561
 30
0.0
 10
75.19371842883092
 20
-148.8757531333027
 30
0.0
 10
75.11709332328414
 20
-148.9135285968366
 30
0.0
 10
75.0507855230446
 20
-148.9643286270163
 30
0.0
 10
74.9965150131209
 20
-149.0275336038399
 30
0.0
 10
74.95675149397039
 20
-149.1020804808084
 30
0.0
 10
74.9319365104833
 20
-149.1856718979344
 30
0.0
 10
74.92347138571148
 20
-149.2929155540891
 30
0.0
 10
74.93622875813489
 20
-149.4151904652364
 30
0.0
 10
75.0024138003518
 20
-149.5333477949998
 30
0.0
 10
75.09835669940773
 20
-149.6187817808167
 30
0.0
 10
75.21005045574277
 20
-149.6890114148447
 30
0.0
 10
75.33534532629474
 20
-149.7482534148589
 30
0.0
 10
75.46924135356925
 20
-149.7986779570507
 30
0.0
 10
75.60325199273949
 20
-149.8516198680682
 30
0.0
 10
75.72934749111603
 20
-149.9173433316602
 30
0.0
 10
75.84188062326623
 20
-150.0000415125388
 30
0.0
 10
75.93739598784781
 20
-150.1048849748113
 30
0.0
 10
76.00152960812078
 20
-150.2454738653963
 30
0.0
 10
76.01536933195241
 20
-150.4041909433961
 30
0.0
 10
76.00165443064748
 20
-150.5633134857332
 30
0.0
 10
75.95873287482301
 20
-150.7100067497199
 30
0.0
 10
75.88884959233106
 20
-150.8436470720405
 30
0.0
 10
75.79171818080744
 20
-150.9595211609191
 30
0.0
 10
75.66903956179026
 20
-151.0539452202111
 30
0.0
 10
75.5216998007413
 20
-151.1230523313922
 30
0.0
 10
75.351972209137
 20
-151.1653129293235
 30
0.0
 10
75.16599945738423
 20
-151.1770276756079
 30
0.0
 10
74.98715455204282
 20
-151.1667501710776
 30
0.0
 10
74.82243233479886
 20
-151.1251793002205
 30
0.0
 10
74.71770004353016
 20
-151.0568686090726
 30
0.0
 10
74.56935503846107
 20
-151.0080928475909
 30
0.0
 10
74.63229677889734
 20
-150.9150791250036
 30
0.0
 10
74.64148640243059
 20
-150.8418796754293
 30
0.0
 10
74.66463008954761
 20
-150.7754820928985
 30
0.0
 10
74.63771779295622
 20
-150.6750969426362
 30
0.0
 10
74.68639285505844
 20
-150.6825047027382
 30
0.0
 10
74.72591201749422
 20
-150.6759044017031
 30
0.0
 10
74.73387945389464
 20
-150.7540580057227
 30
0.0
 10
74.76480265621683
 20
-150.7888357641534
 30
0.0
 10
74.78085444300962
 20
-150.806888405752
 30
0.0
 11
74.78085444300962
 21
-150.806888405752
 31
0.0
 11
74.83246276701092
 21
-150.8675463397646
 31
0.0
 11
74.89436950955803
 21
-150.9221320862788
 31
0.0
 11
74.96703536040472
 21
-150.9690052286281
 31
0.0
 11
75.05090582500884
 21
-151.0064459751466
 31
0.0
 11
75.14548003266552
 21
-151.0309386747932
 31
0.0
 11
75.25041929214103
 21
-151.0390867390273
 31
0.0
 11
75.3583329091797
 21
-151.0292045515298
 31
0.0
 11
75.45510095358617
 21
-150.9995579890372
 31
0.0
 11
75.53933656775641
 21
-150.9530938484238
 31
0.0
 11
75.60987338019316
 21
-150.8929309057305
 31
0.0
 11
75.6662031704225
 21
-150.8197868432488
 31
0.0
 11
75.70792796102484
 21
-150.7346306974368
 31
0.0
 11
75.73372704022772
 21
-150.6404831280159
 31
0.0
 11
75.74234143236913
 21
-150.5403295169298
 31
0.0
 11
75.7221107297602
 21
-150.398412529118
 31
0.0
 11
75.66151122609762
 21
-150.2891781975481
 31
0.0
 11
75.57075608805309
 21
-150.204031973611
 31
0.0
 11
75.46026914789849
 21
-150.1343175725868
 31
0.0
 11
75.33511131254994
 21
-150.0750464962128
 31
0.0
 11
75.20055415452435
 21
-150.0208025031708
 31
0.0
 11
75.06594738712522
 21
-149.962832294852
 31
0.0
 11
74.94083916115034
 21
-149.8918710448697
 31
0.0
 11
74.83028656925255
 21
-149.8037118782251
 31
0.0
 11
74.73959708295104
 21
-149.6940420865858
 31
0.0
 11
74.67896450637292
 21
-149.5530478331488
 31
0.0
 11
74.65876687667986
 21
-149.3707124338889
 31
0.0
 11
74.67166200655925
 21
-149.2326837186456
 31
0.0
 11
74.71036062536365
 21
-149.1075137533991
 31
0.0
 11
74.7735731325752
 21
-148.9970524166212
 31
0.0
 11
74.86000895487899
 21
-148.9028761840058
 31
0.0
 11
74.96790824032075
 21
-148.8263796302055
 31
0.0
 11
75.09561158775733
 21
-148.7686883368171
 31
0.0
 11
75.24179828541676
 21
-148.7326443698123
 31
0.0
 11
75.40523581596955
 21
-148.7206311840514
 31
0.0
 11
75.55915080255346
 21
-148.7305023472433
 31
0.0
 11
75.69074768368523
 21
-148.760071739597
 31
0.0
 11
75.8068225939185
 21
-148.8104450989595
 31
0.0
 11
75.91433823353674
 21
-148.8822034062332
 31
0.0
 11
75.88595836446893
 21
-148.9424787968431
 31
0.0
 11
75.86274448485284
 21
-149.0060548645355
 31
0.0
 11
75.84209706350458
 21
-149.0800566179893
 31
0.0
 11
75.82144302757325
 21
-149.1712430589387
 31
0.0
 11
75.80081875726603
 21
-149.1712430589387
 31
0.0
 11
75.7801944869588
 21
-149.1712430589387
 31
0.0
 11
75.7599296090036
 21
-149.1208939530485
 31
0.0
 11
75.73372483536662
 21
-149.0663445867427
 31
0.0
 11
75.69930585186958
 21
-149.0116838749508
 31
0.0
 11
75.65461442071825
 21
-148.9613491006579
 31
0.0
 11
75.59999229537561
 21
-148.9170732846967
 31
0.0
 11
75.53593115985717
 21
-148.880483614567
 31
0.0
 11
75.46022725553857
 21
-148.8560195781147
 31
0.0
 11
75.37083116406944
 21
-148.8478340312418
 31
0.0
 11
75.27835267684532
 21
-148.855575298601
 31
0.0
 11
75.193666168589
 21
-148.8787550034563
 31
0.0
 11
75.11796140830849
 21
-148.9162100815719
 31
0.0
 11
75.05263443607612
 21
-148.966517295101
 31
0.0
 11
74.99930774819094
 21
-149.0288421041132
 31
0.0
 11
74.95973988281463
 21
-149.1023455589559
 31
0.0
 11
74.9352113348956
 21
-149.184960602338
 31
0.0
 11
74.92705436983533
 21
-149.2744217394685
 31
0.0
 11
74.94726853598627
 21
-149.4188919564462
 31
0.0
 11
75.0078845761065
 21
-149.5289332671826
 31
0.0
 11
75.09860689150031
 21
-149.6145083366057
 31
0.0
 11
75.20912665430586
 21
-149.6854254893657
 31
0.0
 11
75.33426795319646
 21
-149.7457019824062
 31
0.0
 11
75.46884164767982
 21
-149.7989405587818
 31
0.0
 11
75.60343187862128
 21
-149.8544501421013
 31
0.0
 11
75.72855664105424
 21
-149.9210722254179
 31
0.0
 11
75.83905986740155
 21
-150.0036564007445
 31
0.0
 11
75.92979871925337
 21
-150.1068450031493
 31
0.0
 11
75.99041475937341
 21
-150.2393218781162
 31
0.0
 11
76.01062892552432
 21
-150.4095812530736
 31
0.0
 11
75.99644293422432
 21
-150.5635147339379
 31
0.0
 11
75.95386766034386
 21
-150.708789725221
 31
0.0
 11
75.884234247851
 21
-150.8408564960213
 31
0.0
 11
75.78875816729584
 21
-150.9547728501595
 31
0.0
 11
75.66836503668694
 21
-151.0476923119418
 31
0.0
 11
75.52387497960916
 21
-151.1165214612302
 31
0.0
 11
75.35661091269586
 21
-151.1590322858723
 31
0.0
 11
75.16786929424717
 21
-151.1731863917716
 31
0.0
 11
74.9747621320633
 21
-151.1590322858723
 31
0.0
 11
74.82215654951563
 21
-151.1165214612302
 31
0.0
 11
74.70044875364479
 21
-151.0558547077731
 31
0.0
 11
74.60028514206084
 21
-150.9875018084846
 31
0.0
 11
74.6264910181284
 21
-150.9122895862812
 31
0.0
 11
74.64327111318636
 21
-150.8446973640759
 31
0.0
 11
74.6548786042097
 21
-150.7720857755524
 31
0.0
 11
74.66561958483845
 21
-150.6813171557834
 31
0.0
 11
74.6862659037561
 21
-150.6813171557834
 31
0.0
 11
74.70691222267374
 21
-150.6813171557834
 31
0.0
 11
74.73915059858743
 21
-150.7436529891012
 31
0.0
 11
74.78085444300962
 21
-150.806888405752
 31
0.0
  0
LWPOLYLINE
  5
B9
102
{ACAD_REACTORS
330
C6
102
}
330
48
100
AcDbEntity
  8
_U_30EC_U_30A4_U_30E4_U_30FC_1
  6
Continuous
 62
     2
100
AcDbPolyline
 90
        5
 70
     1
 43
0.0
 10
97.09207276269171
 20
-149.5476216699557
 10
97.09207276269171
 20
-149.7160906976914
 10
95.79455612912767
 20
-149.7160906976914
 10
95.79455612912767
 20
-149.5476216699557
 10
97.09207276269171
 20
-149.5476216699557
  0
MTEXT
  5
BB
330
48
100
AcDbEntity
  8
1
 62
     2
100
AcDbMText
 10
-62.86574104057547
 20
117.0551549620883
 30
0.0
 40
5.0
 41
0.0
 71
     5
 72
     1
  1
図番
  7
CONVERTER_11
 73
     1
 44
0.45454545454545
  0
MTEXT
  5
BC
330
48
100
AcDbEntity
  8
1
 62
     2
100
AcDbMText
 10
-66.36574104057547
 20
-130.944845037912
 30
0.0
 40
3.5
 41
0.0
 71
     5
 72
     1
  1
備考
  7
CONVERTER_11
 73
     1
 44
0.45454545454545
  0
MTEXT
  5
BD
330
48
100
AcDbEntity
  8
1
 62
     2
100
AcDbMText
 10
-66.36574104057547
 20
-142.194845037912
 30
0.0
 40
3.5
 41
0.0
 71
     5
 72
     1
  1
品名
  7
CONVERTER_11
 73
     1
 44
0.72727272727273
  0
MTEXT
  5
BE
330
48
100
AcDbEntity
  8
1
 62
     2
100
AcDbMText
 10
-66.36574104057547
 20
-150.694845037912
 30
0.0
 40
3.5
 41
0.0
 71
     5
 72
     1
  1
品番
  7
CONVERTER_11
 73
     1
 44
0.72727272727273
  0
MTEXT
  5
BF
330
48
100
AcDbEntity
  8
1
 62
     2
100
AcDbMText
 10
6.13425895942453
 20
-139.944845037912
 30
0.0
 40
3.0
 41
0.0
 71
     5
 72
     1
  1
承認
  7
CONVERTER_11
 73
     1
 44
0.59090909090909
  0
MTEXT
  5
C0
330
48
100
AcDbEntity
  8
1
 62
     2
100
AcDbMText
 10
79.63425895942453
 20
-141.444845037912
 30
0.0
 40
3.5
 41
0.0
 71
     5
 72
     1
  1
第三角法
  7
CONVERTER_11
 73
     1
 44
0.54545454545455
  0
MTEXT
  5
C1
330
48
100
AcDbEntity
  8
1
 62
     2
100
AcDbMText
 10
23.13425895942453
 20
-139.944845037912
 30
0.0
 40
3.0
 41
0.0
 71
     5
 72
     1
  1
検図
  7
CONVERTER_11
 73
     1
 44
0.59090909090909
  0
MTEXT
  5
C2
330
48
100
AcDbEntity
  8
1
 62
     2
100
AcDbMText
 10
57.13425895942453
 20
-139.944845037912
 30
0.0
 40
3.0
 41
0.0
 71
     5
 72
     1
  1
設計
  7
CONVERTER_11
 73
     1
 44
0.59090909090909
  0
MTEXT
  5
C3
330
48
100
AcDbEntity
  8
1
 62
     2
100
AcDbMText
 10
40.13425895942453
 20
-139.944845037912
 30
0.0
 40
3.0
 41
0.0
 71
     5
 72
     1
  1
製図
  7
CONVERTER_11
 73
     1
 44
0.59090909090909
  0
MTEXT
  5
C4
330
48
100
AcDbEntity
  8
1
 62
     2
100
AcDbMText
 10
-5.86574104057547
 20
-140.944845037912
 30
0.0
 40
3.5
 41
0.0
 71
     5
 72
     1
  1
尺度
  7
CONVERTER_11
 73
     1
 44
0.54545454545455
  0
MTEXT
  5
C5
330
48
100
AcDbEntity
  8
1
 62
   250
100
AcDbMText
 10
-70.36574104057547
 20
-159.944845037912
 30
0.0
 40
3.5
 41
0.0
 71
     4
 72
     1
  1
備考欄の文字列 原点位置=4
  7
CONVERTER_11
 73
     1
 44
0.54545454545455
  0
HATCH
  5
C6
330
48
100
AcDbEntity
  8
1
  6
Continuous
 62
     2
100
AcDbHatch
 10
0.0
 20
0.0
 30
0.0
210
0.0
220
0.0
230
1.0
  2
CUSTOM0
 70
     0
 71
     1
 91
        1
 92
        1
 93
        4
 72
     1
 10
97.09207276269171
 20
-149.5476216699557
 11
97.09207276269171
 21
-149.7160906976914
 72
     1
 10
97.09207276269171
 20
-149.7160906976914
 11
95.79455612912767
 21
-149.7160906976914
 72
     1
 10
95.79455612912767
 20
-149.7160906976914
 11
95.79455612912767
 21
-149.5476216699557
 72
     1
 10
95.79455612912767
 20
-149.5476216699557
 11
97.09207276269171
 21
-149.5476216699557
 97
        1
330
B9
 75
     1
 76
     2
 52
45.0
 41
0.1
 77
     0
 78
     1
 53
45.0
 43
0.0
 44
0.0
 45
-0.282842712474619
 46
0.0
 79
     0
 98
        1
 10
0.0
 20
0.0
  0
HATCH
  5
C7
330
48
100
AcDbEntity
  8
1
  6
Continuous
 62
     2
100
AcDbHatch
 10
0.0
 20
0.0
 30
0.0
210
0.0
220
0.0
230
1.0
  2
CUSTOM1
 70
     0
 71
     1
 91
        1
 92
        1
 93
        3
 72
     4
 94
        3
 73
     0
 74
     0
 95
       62
 96
       58
 40
0.0
 40
0.0
 40
0.0
 40
0.0
 40
0.0598250028308769
 40
0.2024846486897331
 40
0.3727558389220746
 40
0.5154154847935786
 40
0.5752404975785197
 40
0.933232677548727
 40
1.29045176283946
 40
1.602077253145864
 40
1.699931634112126
 40
1.799359756425054
 40
2.270120149657107
 40
2.804661928461567
 40
2.882342287383264
 40
3.076543185719143
 40
3.329004354835601
 40
3.581465524568441
 40
3.775666424543712
 40
3.853346784558338
 40
3.899120679595097
 40
3.984129341792081
 40
4.029903236817401
 40
4.105797496059577
 40
4.295533144152498
 40
4.54218948661173
 40
4.788845828875677
 40
4.978581476410054
 40
5.054475735244293
 40
5.621734664339292
 40
6.130867242037308
 40
6.225249780948585
 40
6.318913039727285
 40
6.663579954558899
 40
7.047498900224718
 40
7.43523079157567
 40
7.498943906668067
 40
7.650875181210047
 40
7.832212509001543
 40
7.984143783696915
 40
8.047856898903042
 40
8.091554632732546
 40
8.172707566964199
 40
8.216405300767953
 40
8.289021782160823
 40
8.462184160757182
 40
8.66886183800532
 40
8.84202421526387
 40
8.914640695475079
 40
8.989881580861272
 40
9.155411528827166
 40
9.320941477743936
 40
9.396182352487168
 40
9.454709011143686
 40
9.583467660170678
 40
9.712226309012886
 40
9.770752957989382
 40
9.770752957989382
 40
9.770752957989382
 40
9.770752957989382
 10
91.78644612860779
 20
-150.0050421559525
 10
91.76649377658677
 20
-150.0050362822253
 10
91.6989627310711
 20
-150.0050163998504
 10
91.57532017560332
 20
-150.0053514127087
 10
91.42057697443016
 20
-150.003768300407
 10
91.30399390767246
 20
-150.007984249307
 10
91.08935322284859
 20
-149.9926929845958
 10
91.48615380014735
 20
-150.3528578250501
 10
91.52882456635129
 20
-150.5697400039404
 10
91.95317517408566
 20
-150.7515944127974
 10
91.77824110903194
 20
-150.8549930722313
 10
91.65371135193288
 20
-151.0665298057847
 10
91.40088668301885
 20
-150.5967842278964
 10
91.11401924878706
 20
-149.9497298680667
 10
91.12489255209054
 20
-150.2570183163651
 10
91.12254823722044
 20
-150.4219588681942
 10
91.12036857206566
 20
-150.6560483307951
 10
91.13233639905908
 20
-150.8998643136941
 10
91.10305743348758
 20
-151.0462870693022
 10
91.14571122197151
 20
-151.1937101361666
 10
91.05824035998845
 20
-151.1779870648498
 10
91.01111172009895
 20
-151.1779020024774
 10
90.92415628019583
 20
-151.1937507830829
 10
90.96560636159687
 20
-151.0495673236844
 10
90.93724645985303
 20
-150.9062945109275
 10
90.94885633695448
 20
-150.6680955642594
 10
90.94667652425171
 20
-150.4396726855086
 10
90.94457007222394
 20
-150.2777877441521
 10
90.95506250325687
 20
-149.9633079445746
 10
90.64715528471388
 20
-150.6525503291877
 10
90.33978478617004
 20
-151.1300775354816
 10
90.21939566605198
 20
-150.9074339115377
 10
90.04171975049668
 20
-150.7947346883564
 10
90.5195915957139
 20
-150.6193636032573
 10
90.56965486514528
 20
-150.3839257453917
 10
90.99263892159618
 20
-149.991615144466
 10
90.76193438677853
 20
-150.0082919676213
 10
90.63922754535858
 20
-150.0021498484244
 10
90.46680726899069
 20
-150.0117168109162
 10
90.3555814288694
 20
-149.9903568530154
 10
90.23683692216935
 20
-150.0234823843378
 10
90.25257593009312
 20
-149.9428060318432
 10
90.25211405280078
 20
-149.8983908950035
 10
90.23704714841767
 20
-149.8151742201267
 10
90.37149705296886
 20
-149.8542185180732
 10
90.49623451399918
 20
-149.8274477446277
 10
90.69713448315255
 20
-149.8442055474715
 10
90.82641305435985
 20
-149.8228027787819
 10
90.967100952254
 20
-149.8561572493778
 10
90.93235170468606
 20
-149.7183262800613
 10
90.9564775260958
 20
-149.5952124644172
 10
90.93096757766384
 20
-149.4746044812087
 10
90.96758407409297
 20
-149.3394463864971
 10
90.85540066220153
 20
-149.3638995800932
 10
90.7622946051381
 20
-149.3517675394918
 10
90.65341371740658
 20
-149.3552687372121
 10
90.59122872352094
 20
-149.355027478396
 10
90.57179591514915
 20
-149.3549520866706
 72
     4
 94
        3
 73
     0
 74
     0
 95
       24
 96
       20
 40
0.0
 40
0.0
 40
0.0
 40
0.0
 40
0.2211075008753955
 40
0.4273218586245946
 40
0.5080174679240137
 40
0.5914835907871119
 40
0.8143265690193746
 40
1.05465130268668
 40
1.295452694023265
 40
1.518109231328846
 40
1.540864321905443
 40
1.595126460622668
 40
1.659890947895997
 40
1.714153085187332
 40
1.736908174961632
 40
1.764951100735328
 40
1.801562291220876
 40
1.953914424543589
 40
2.126104167379639
 40
2.126104167379639
 40
2.126104167379639
 40
2.126104167379639
 10
90.57179591511346
 20
-149.3549520867818
 10
90.54551686760573
 20
-149.4138687555682
 10
90.49472884886706
 20
-149.5277336411193
 10
90.44743744333574
 20
-149.800425455581
 10
90.33860723968633
 20
-149.7003902121574
 10
90.18573898738828
 20
-149.6736591042387
 10
90.40287447754446
 20
-149.4596636877357
 10
90.41810732686257
 20
-149.2415238600871
 10
90.52494790862463
 20
-149.0603292472478
 10
90.46479705413222
 20
-148.775712774798
 10
90.56769069896475
 20
-148.8037041456876
 10
90.61225230623951
 20
-148.812412521889
 10
90.67234319896414
 20
-148.8234484960785
 10
90.70992091816831
 20
-148.8371698073563
 10
90.75950565228513
 20
-148.8372842763098
 10
90.72727485135702
 20
-148.8717791139257
 10
90.65143918161269
 20
-148.8608039925324
 10
90.67720367539381
 20
-149.0462553420875
 10
90.63984863580949
 20
-149.1378219024161
 10
90.62002945558544
 20
-149.1864036839349
 72
     4
 94
        3
 73
     0
 74
     0
 95
       70
 96
       66
 40
0.0
 40
0.0
 40
0.0
 40
0.0
 40
0.0241731073021472
 40
0.0846058988987155
 40
0.1631685280353284
 40
0.2417311571789898
 40
0.3021639488292893
 40
0.3263370654895967
 40
0.3533118254249396
 40
0.4228783438922378
 40
0.5179999095313846
 40
0.6216398239466671
 40
0.7167613891500239
 40
0.7863279069650432
 40
0.8133026791762333
 40
0.8372943998771895
 40
0.8945054261373114
 40
0.9627895541963016
 40
1.020000580349099
 40
1.043992300975197
 40
1.07193434552294
 40
1.113121768772961
 40
1.14522519933225
 40
1.225483775412803
 40
1.3298199237715
 40
1.434156071994371
 40
1.514414647795794
 40
1.546518078208398
 40
1.578974764260186
 40
1.662678849314138
 40
1.777131373668387
 40
1.901833377474821
 40
2.016285900500611
 40
2.099989982527978
 40
2.132446666570322
 40
2.158782354486069
 40
2.216720867907886
 40
2.274659381334336
 40
2.300995069256279
 40
2.333451754066251
 40
2.417155836543932
 40
2.531608358985414
 40
2.656310362283909
 40
2.770762886389027
 40
2.854466971340178
 40
2.886923657364013
 40
2.913597976833421
 40
2.982389642875239
 40
3.076451716947139
 40
3.178937260458701
 40
3.272999334740069
 40
3.341791001059311
 40
3.368465320663608
 40
3.396976080738858
 40
3.472140811846051
 40
3.578408190308741
 40
3.70022689245622
 40
3.822045594634394
 40
3.928312973256487
 40
4.003477705314912
 40
4.031988456866964
 40
4.058324144797746
 40
4.116262658236929
 40
4.174201171400734
 40
4.200536849608676
 40
4.200536849608676
 40
4.200536849608676
 40
4.200536849608676
 10
90.62002945558544
 20
-149.1864036839349
 10
90.62808491389247
 20
-149.1864014397951
 10
90.65627902574859
 20
-149.186393577584
 10
90.71081243979182
 20
-149.1865374896283
 10
90.78254814028489
 20
-149.185753832913
 10
90.85788297313078
 20
-149.1885693332739
 10
90.90556419606841
 20
-149.1818610039023
 10
90.95376608398615
 20
-149.1928694009877
 10
90.94051613941186
 20
-149.1393810079416
 10
90.94936835587839
 20
-149.084349202481
 10
90.9451287630531
 20
-148.9906459506509
 10
90.94760730755257
 20
-148.8952502157267
 10
90.94335283003058
 20
-148.8012768180781
 10
90.95224082600922
 20
-148.7468944135319
 10
90.93895670041906
 20
-148.6925050609973
 10
90.98567088713541
 20
-148.7064228745584
 10
91.02858441399815
 20
-148.7038062641715
 10
91.09480330509304
 20
-148.7083608134045
 10
91.13559318660441
 20
-148.7170634165705
 10
91.18677352850634
 20
-148.70952703901
 10
91.15963100814459
 20
-148.7513453356792
 10
91.11456856499518
 20
-148.741995117186
 10
91.12846546392961
 20
-148.8064329641936
 10
91.12010040258991
 20
-148.871062841638
 10
91.12462217726434
 20
-148.9695536259731
 10
91.11973309054122
 20
-149.0688857094862
 10
91.12928485863272
 20
-149.1319138823823
 10
91.1142351049445
 20
-149.195204922914
 10
91.17917490514537
 20
-149.1796943084693
 10
91.2458835993742
 20
-149.1898511609338
 10
91.35840250650729
 20
-149.1849570369183
 10
91.47328250431987
 20
-149.187932990584
 10
91.58624615939927
 20
-149.1826283960621
 10
91.65188571919228
 20
-149.193771973191
 10
91.71588662852989
 20
-149.1773997147134
 10
91.70457324834344
 20
-149.2272281388592
 10
91.71179294657554
 20
-149.2706778857908
 10
91.70457322055145
 20
-149.3141275820376
 10
91.71588667702397
 20
-149.3639560859433
 10
91.65188531932172
 20
-149.3475833769984
 10
91.58625108347044
 20
-149.3587323212962
 10
91.47325639115763
 20
-149.3533964658434
 10
91.35850461428879
 20
-149.3565015812738
 10
91.24557732811066
 20
-149.3511960910861
 10
91.179781049783
 20
-149.3622720377162
 10
91.11586875696031
 20
-149.3459690594358
 10
91.12786047593714
 20
-149.4006097939546
 10
91.12046942072506
 20
-149.4563020874336
 10
91.12352744362282
 20
-149.5483481465063
 10
91.12360123799284
 20
-149.643053939181
 10
91.1202903172605
 20
-149.7353172088894
 10
91.12820955841491
 20
-149.7904873505506
 10
91.11576662058623
 20
-149.8442633469106
 10
91.17317061458768
 20
-149.8303073492842
 10
91.23372977346278
 20
-149.8397304590697
 10
91.3391270449326
 20
-149.835416178625
 10
91.45468836648674
 20
-149.8364899917917
 10
91.57022784720418
 20
-149.837585378902
 10
91.67567707250862
 20
-149.8332197802056
 10
91.73612700660487
 20
-149.8427507776053
 10
91.7935427333355
 20
-149.8286721418482
 10
91.78203634709537
 20
-149.8777735052552
 10
91.78801563759943
 20
-149.9191984577255
 10
91.78629006450464
 20
-149.9683282582451
 10
91.78640897172164
 20
-149.9963007534359
 10
91.78644612860779
 20
-150.0050421559525
 97
        3
330
AA
330
A8
330
A9
 75
     1
 76
     2
 52
45.0
 41
0.1
 77
     0
 78
     1
 53
45.0
 43
0.0
 44
0.0
 45
-0.282842712474619
 46
0.0
 79
     0
 98
        1
 10
0.0
 20
0.0
  0
HATCH
  5
C8
330
48
100
AcDbEntity
  8
1
  6
Continuous
 62
     2
100
AcDbHatch
 10
0.0
 20
0.0
 30
0.0
210
0.0
220
0.0
230
1.0
  2
CUSTOM2
 70
     0
 71
     1
 91
        1
 92
        1
 93
        1
 72
     4
 94
        3
 73
     0
 74
     0
 95
      124
 96
      120
 40
0.0
 40
0.0
 40
0.0
 40
0.0
 40
0.0278187229624653
 40
0.1011590162384128
 40
0.2048470170589813
 40
0.3237088716558677
 40
0.4425707262521005
 40
0.5462587270698694
 40
0.6195990203311229
 40
0.6474177522577808
 40
0.6750060736114283
 40
0.7357003855241835
 40
0.7963946998053479
 40
0.8239830245570949
 40
0.8540933811101901
 40
0.9373396629408439
 40
1.063094687343139
 40
1.220731268637977
 40
1.399622220914652
 40
1.589140358637622
 40
1.778658496423731
 40
1.957549448940399
 40
2.115186030873006
 40
2.240941056914296
 40
2.324187341760365
 40
2.354297700109229
 40
2.381886024671744
 40
2.44258033871033
 40
2.503274652750364
 40
2.530862977314471
 40
2.56098394927841
 40
2.640393784452784
 40
2.75266286175895
 40
2.881361560117981
 40
3.010060258455057
 40
3.12232933570519
 40
3.201739170817789
 40
3.231860142753178
 40
3.264298024030198
 40
3.352343701778111
 40
3.482095226868595
 40
3.639650650172869
 40
3.811108022565336
 40
3.98256539492779
 40
4.140120818152369
 40
4.269872343141103
 40
4.357918020802161
 40
4.390355902043795
 40
4.423256253992393
 40
4.5081045300729
 40
4.624121560636667
 40
4.75052817603141
 40
4.866545206601885
 40
4.951393482691828
 40
4.984293834645244
 40
5.011450833242166
 40
5.071196230151927
 40
5.130941627057056
 40
5.158098625648692
 40
5.190998977601311
 40
5.275847253689165
 40
5.391864284256642
 40
5.518270899648173
 40
5.634287930209198
 40
5.719136206287872
 40
5.752036558235774
 40
5.782130946282792
 40
5.862783906228999
 40
5.979550131774858
 40
6.117984316640276
 40
6.263641154587817
 40
6.402075339414041
 40
6.518841564907832
 40
6.599494524815413
 40
6.629588912848647
 40
6.654403028226222
 40
6.71357514948795
 40
6.784199939329269
 40
6.843372060493341
 40
6.868186175802559
 40
6.896246243201634
 40
6.939586233757972
 40
6.967846564564575
 40
7.043584251089521
 40
7.153234334451406
 40
7.283231855734123
 40
7.420011856035125
 40
7.550009376579504
 40
7.659659458834903
 40
7.735397144416873
 40
7.763657474851038
 40
7.796409728010695
 40
7.880876065095969
 40
7.996370852465341
 40
8.122208446418222
 40
8.237703224798858
 40
8.322169562010581
 40
8.354921815205538
 40
8.382078813307325
 40
8.44182420920661
 40
8.501569605239789
 40
8.528726603485362
 40
8.561478856695397
 40
8.645945193877461
 40
8.761439980865001
 40
8.887277580764144
 40
9.00277236200065
 40
9.087238696660842
 40
9.119990949235325
 40
9.152428830613042
 40
9.240474508638238
 40
9.370226034149193
 40
9.527781457984071
 40
9.69923883098104
 40
9.870696203978236
 40
10.02825162781365
 40
10.15800315332526
 40
10.2460488313508
 40
10.27848670378483
 40
10.27848670378483
 40
10.27848670378483
 40
10.27848670378483
 10
100.0164417158629
 20
-150.9307398640544
 10
100.0257144331769
 20
-150.9307400527993
 10
100.0594334131106
 20
-150.9307407291448
 10
100.1277296406711
 20
-150.9307269654789
 10
100.2262731305825
 20
-150.9308127957166
 10
100.3404656059057
 20
-150.9304274817895
 10
100.4528484011316
 20
-150.9318366789365
 10
100.5556966194363
 20
-150.9276538636895
 10
100.6149429469094
 20
-150.9366141453922
 10
100.6713855531278
 20
-150.9232006926514
 10
100.6588845181199
 20
-150.9739730517784
 10
100.6672139229948
 20
-151.0189518285213
 10
100.6590760435365
 20
-151.0642775080071
 10
100.6713118808702
 20
-151.1155257138273
 10
100.6090363084578
 20
-151.1003654842592
 10
100.5403102621113
 20
-151.1112475308045
 10
100.4125346343836
 20
-151.1057319904323
 10
100.2605574105888
 20
-151.107836525375
 10
100.0845285566768
 20
-151.1071350120272
 10
99.89870215285322
 20
-151.107392662599
 10
99.71287570314205
 20
-151.1071349864659
 10
99.53684697364136
 20
-151.1078366194347
 10
99.38486937484396
 20
-151.1057317156121
 10
99.25709472588
 20
-151.1112482302356
 10
99.1883667430826
 20
-151.1003642666525
 10
99.12609386371284
 20
-151.1155271710699
 10
99.1383205884263
 20
-151.0642699298603
 10
99.13025940568419
 20
-151.0190203051877
 10
99.13832654041383
 20
-150.9737814583587
 10
99.12608280813285
 20
-150.9225032688124
 10
99.18676067149435
 20
-150.9373492642807
 10
99.2505400339981
 20
-150.9272805562046
 10
99.3619903947748
 20
-150.931898595792
 10
99.48401230380685
 20
-150.9307117488573
 10
99.60621277320689
 20
-150.9296863989056
 10
99.71723838816376
 20
-150.933920281678
 10
99.78191070082032
 20
-150.9246591926946
 10
99.84337524047467
 20
-150.9388008074151
 10
99.82726551955822
 20
-150.8724897590668
 10
99.83855699216036
 20
-150.8003671366922
 10
99.83299904168061
 20
-150.6697074290291
 10
99.83506246559354
 20
-150.5187718008296
 10
99.83427567215398
 20
-150.3514863068331
 10
99.83504348098725
 20
-150.184233934589
 10
99.83306283798733
 20
-150.0332121452128
 10
99.83838957508661
 20
-149.9027843423821
 10
99.827569098267
 20
-149.8301906118531
 10
99.84329160241208
 20
-149.763340343544
 10
99.77752977267359
 20
-149.7790399130039
 10
99.70989574250089
 20
-149.768752607072
 10
99.5958474888055
 20
-149.7737071694408
 10
99.4793832269148
 20
-149.7707037576073
 10
99.36491437157224
 20
-149.7760420064781
 10
99.29829142520578
 20
-149.7648323571638
 10
99.23333593094307
 20
-149.7813537112619
 10
99.24505793529536
 20
-149.7301078331415
 10
99.23754197833652
 20
-149.685341700071
 10
99.24505794730814
 20
-149.6405755889324
 10
99.2333359099592
 20
-149.5893296766146
 10
99.29829159334454
 20
-149.6058512202438
 10
99.36491229340663
 20
-149.5946393241726
 10
99.47939424523085
 20
-149.5999906708053
 10
99.5958044031208
 20
-149.5969331502008
 10
99.71002497688866
 20
-149.602060047805
 10
99.77727400334713
 20
-149.5913877043559
 10
99.84259155356841
 20
-149.6074242112213
 10
99.82839810427963
 20
-149.5453481804114
 10
99.83786490572412
 20
-149.4789774216244
 10
99.83328585983305
 20
-149.3624453104923
 10
99.83502861501931
 20
-149.2305781876882
 10
99.83401410896373
 20
-149.0886854364092
 10
99.83597809386174
 20
-148.9571545308862
 10
99.83072581480965
 20
-148.839599265082
 10
99.84159983577196
 20
-148.7753671478961
 10
99.82621262360992
 20
-148.7137570124615
 10
99.87501811320456
 20
-148.7278209640908
 10
99.9196585158971
 20
-148.7252976171589
 10
99.98812335409875
 20
-148.729717063895
 10
100.0301695763347
 20
-148.7387147824716
 10
100.083013435302
 20
-148.7307278892469
 10
100.0549624596259
 20
-148.7737058617953
 10
100.009173184284
 20
-148.7622495174737
 10
100.021212866751
 20
-148.8231098378606
 10
100.0138675664888
 20
-148.8871520432243
 10
100.0173785420407
 20
-148.995751349273
 10
100.016239635442
 20
-149.1199018464645
 10
100.0161764374508
 20
-149.2529478396132
 10
100.0175462561113
 20
-149.3768712254164
 10
100.0134228395559
 20
-149.4861616594187
 10
100.022035269781
 20
-149.5487592369703
 10
100.0089347048648
 20
-149.6074437049484
 10
100.0736473922444
 20
-149.5912238998029
 10
100.1402995547402
 20
-149.6021424340789
 10
100.2541369135348
 20
-149.5969076361745
 10
100.3699848716342
 20
-149.5999895627428
 10
100.4839513857526
 20
-149.5946624397869
 10
100.5502930612345
 20
-149.6058029562465
 10
100.6149778119726
 20
-149.5893752419802
 10
100.6032410366968
 20
-149.6405857858115
 10
100.6107757657286
 20
-149.685341696702
 10
100.6032410586503
 20
-149.7300976478117
 10
100.6149777734983
 20
-149.7813081292016
 10
100.5502933669498
 20
-149.7648807599697
 10
100.4839476025071
 20
-149.7760171934393
 10
100.3700049081258
 20
-149.7707138789808
 10
100.2540585217301
 20
-149.7736973919766
 10
100.1405346476368
 20
-149.768776115228
 10
100.073182091305
 20
-149.7789941627768
 10
100.0076874716741
 20
-149.7633850765238
 10
100.0234303213464
 20
-149.8302065196379
 10
100.0125865592459
 20
-149.9027744597532
 10
100.0179171224038
 20
-150.0332225617678
 10
100.0159725746101
 20
-150.1841994560598
 10
100.016572327746
 20
-150.3516225985704
 10
100.016409615385
 20
-150.5182832767283
 10
100.0164485082381
 20
-150.6712436086956
 10
100.0164406007345
 20
-150.7963532480549
 10
100.0164417976991
 20
-150.8797661279978
 10
100.0164417310454
 20
-150.9199272550921
 10
100.0164417158629
 20
-150.9307398640544
 97
        1
330
AB
 75
     1
 76
     2
 52
45.0
 41
0.1
 77
     0
 78
     1
 53
45.0
 43
0.0
 44
0.0
 45
-0.282842712474619
 46
0.0
 79
     0
 98
        1
 10
0.0
 20
0.0
  0
HATCH
  5
C9
330
48
100
AcDbEntity
  8
1
  6
Continuous
 62
     2
100
AcDbHatch
 10
0.0
 20
0.0
 30
0.0
210
0.0
220
0.0
230
1.0
  2
CUSTOM3
 70
     0
 71
     1
 91
        1
 92
        1
 93
        1
 72
     4
 94
        3
 73
     0
 74
     0
 95
      131
 96
      127
 40
0.0
 40
0.0
 40
0.0
 40
0.0
 40
0.019557702982639
 40
0.0426490537461696
 40
0.2863607575856726
 40
0.5344948436189707
 40
0.7842238845573152
 40
0.8737315789467083
 40
0.9803832810312497
 40
1.092842274517008
 40
1.199761146656759
 40
1.289788768186518
 40
1.351573580786217
 40
1.37072711756146
 40
1.416400936017873
 40
1.470914848355984
 40
1.51658866679179
 40
1.535742203552868
 40
1.634216592293252
 40
1.760283341175082
 40
1.897966686682188
 40
2.031216387369001
 40
2.049689751138005
 40
2.101115601646911
 40
2.179502577740068
 40
2.278859318314148
 40
2.393194462258806
 40
2.516516648383971
 40
2.642834515406066
 40
2.766156701983591
 40
2.880491846754695
 40
2.979848588358778
 40
3.058235565443938
 40
3.109661416669071
 40
3.128134780704273
 40
3.146783742386632
 40
3.191254343315465
 40
3.244332157316109
 40
3.28880275822597
 40
3.307451719895227
 40
3.327717853844832
 40
3.383747753580196
 40
3.46838866592458
 40
3.574487837698912
 40
3.694892515729038
 40
3.822449946852175
 40
3.950007377920572
 40
4.07041205580066
 40
4.176511227368196
 40
4.261152139501662
 40
4.317182039076841
 40
4.337448172964771
 40
4.620011002696393
 40
4.885096638397624
 40
4.945373043518426
 40
5.014107710488773
 40
5.070481727652199
 40
5.3192469556367
 40
5.584812164506173
 40
5.859000912057006
 40
6.133746937542195
 40
6.401732212969019
 40
6.420736683995596
 40
6.472845717451232
 40
6.550702743894188
 40
6.646951193874397
 40
6.754234497930721
 40
6.865196086587513
 40
6.972479390357986
 40
7.068727839772105
 40
7.146584865451143
 40
7.198693898189372
 40
7.217698368905527
 40
7.234950401631036
 40
7.276089864270059
 40
7.325191803516159
 40
7.366331266090551
 40
7.383583298769903
 40
7.402779163492294
 40
7.453386443254711
 40
7.524934666445727
 40
7.606953361406067
 40
7.688972056429204
 40
7.760520279784469
 40
7.811127559734725
 40
7.830323424546361
 40
7.847844055299969
 40
7.894799345667007
 40
7.962779392744675
 40
8.043374293560742
 40
8.128174145149654
 40
8.208769044817426
 40
8.27674909037712
 40
8.323704379669703
 40
8.341225010056416
 40
8.358497614800594
 40
8.401679126686783
 40
8.457815092185841
 40
8.513951057728276
 40
8.557132569708202
 40
8.574405174505287
 40
8.602340668616675
 40
8.643455660540237
 40
8.66322527196689
 40
8.715345156564549
 40
8.789031889628856
 40
8.873502045520578
 40
8.95797219432421
 40
9.031658925568077
 40
9.083778811234762
 40
9.103548423003215
 40
9.11955008312378
 40
9.160817522380068
 40
9.217244429110405
 40
9.278724491644919
 40
9.335151398295704
 40
9.376418837357985
 40
9.392420497300773
 40
9.401196302735007
 40
9.417494229384497
 40
9.426270027749766
 40
9.440875075477784
 40
9.475702496998986
 40
9.517270709866144
 40
9.552098131994308
 40
9.56670316988453
 40
9.56670316988453
 40
9.56670316988453
 40
9.56670316988453
 10
99.25128437427242
 20
-149.2746863228017
 10
99.24769346876163
 20
-149.2803081308904
 10
99.23986287178698
 20
-149.2925674937209
 10
99.14725585687923
 20
-149.3288258775022
 10
99.12302118274924
 20
-149.5433605957849
 10
99.02012994401832
 20
-149.7228721928149
 10
98.75630819585515
 20
-149.9086892999305
 10
98.91880611634247
 20
-149.9852516722511
 10
98.9949815355084
 20
-150.0462781059576
 10
99.0834760667003
 20
-150.1096869924644
 10
99.1732519827356
 20
-150.1695886957164
 10
99.22264072302912
 20
-150.2238234894199
 10
99.3088297751627
 20
-150.2519826324938
 10
99.27538502684746
 20
-150.2877119413839
 10
99.25572607605564
 20
-150.319341157993
 10
99.22624778121272
 20
-150.3600863099513
 10
99.20315790402765
 20
-150.3897984030156
 10
99.17227955626018
 20
-150.4427308112271
 10
99.10717829599855
 20
-150.317441688523
 10
99.01385897166604
 20
-150.2627060355726
 10
98.9293225879384
 20
-150.2056807985186
 10
98.80650877199864
 20
-150.0480921636368
 10
98.81070404415468
 20
-150.1244869702436
 10
98.80940682469223
 20
-150.171232236299
 10
98.81007160423216
 20
-150.248997179786
 10
98.80981395812013
 20
-150.3458243546677
 10
98.8099020834166
 20
-150.4583422471239
 10
98.80986668965254
 20
-150.579604178455
 10
98.8099101352524
 20
-150.7039760593224
 10
98.80977895366502
 20
-150.8251682015986
 10
98.8102067156291
 20
-150.9379335487146
 10
98.80892677965554
 20
-151.0340159002246
 10
98.81223494452883
 20
-151.113706773225
 10
98.80577873343312
 20
-151.1566932800242
 10
98.8148798299801
 20
-151.1952907141916
 10
98.77904999341797
 20
-151.1867361606713
 10
98.74578134094972
 20
-151.1914198380576
 10
98.69471521702862
 20
-151.1913320503142
 10
98.66123135670577
 20
-151.1869007350738
 10
98.62501750029993
 20
-151.1952370994869
 10
98.63523721629105
 20
-151.1533922661191
 10
98.62790774820182
 20
-151.1070594297103
 10
98.63162227303481
 20
-151.0210967268519
 10
98.63020701491406
 20
-150.9187936108635
 10
98.63066951488837
 20
-150.8003127985969
 10
98.63053632804754
 20
-150.6752682063784
 10
98.63056055042904
 20
-150.5500867568415
 10
98.63059445197965
 20
-150.4319785841214
 10
98.63046498873771
 20
-150.3285575508168
 10
98.63080971433257
 20
-150.2455246763753
 10
98.63012878729354
 20
-150.1934113526995
 10
98.63371761948676
 20
-150.0657159596985
 10
98.4168760980682
 20
-150.3643578697157
 10
98.23639445161962
 20
-150.5922052227968
 10
98.18329118898569
 20
-150.4511106050139
 10
98.1543018727394
 20
-150.4015873623025
 10
98.05392376570661
 20
-150.2984272400109
 10
98.37477173175057
 20
-150.2178946876741
 10
98.50324865996753
 20
-150.0341822075477
 10
98.72490439196042
 20
-149.8255250801944
 10
98.81128144883134
 20
-149.6514529256285
 10
99.08919838233197
 20
-149.375174524487
 10
98.96888374335295
 20
-149.3794994424008
 10
98.92057869455944
 20
-149.3786964758864
 10
98.84449670491497
 20
-149.3790992164461
 10
98.75095996039954
 20
-149.3789422817959
 10
98.64601843828017
 20
-149.3790200121497
 10
98.53764773329628
 20
-149.3788903941264
 10
98.43240438301424
 20
-149.379301103005
 10
98.33988274136576
 20
-149.3780243011961
 10
98.26107203949525
 20
-149.3814373725635
 10
98.21822641596245
 20
-149.3746115375488
 10
98.17920891807601
 20
-149.3841943959007
 10
98.18689548661088
 20
-149.3506372422565
 10
98.18280539985572
 20
-149.3196095346897
 10
98.18281209630581
 20
-149.2724797452029
 10
98.1868829319157
 20
-149.2414356214442
 10
98.17920851688274
 20
-149.2078264215529
 10
98.21774089997396
 20
-149.2173609337033
 10
98.25838176087244
 20
-149.2108706829314
 10
98.32940614447087
 20
-149.2138435314095
 10
98.40719077438781
 20
-149.2130974239203
 10
98.48498818407197
 20
-149.2123668974667
 10
98.55598216841523
 20
-149.2153026827704
 10
98.59668693860654
 20
-149.2088903501824
 10
98.63524430841547
 20
-149.218339796152
 10
98.62699323491725
 20
-149.1821981163241
 10
98.6324936263604
 20
-149.1435466617798
 10
98.62983438004075
 20
-149.0757097522936
 10
98.63084050657787
 20
-148.9989286225246
 10
98.63027676125648
 20
-148.9163511020844
 10
98.63133041208368
 20
-148.8396717456132
 10
98.62852654573751
 20
-148.771525130145
 10
98.6343292315549
 20
-148.7335210398185
 10
98.62582441454038
 20
-148.6972605571356
 10
98.659819982737
 20
-148.7072878001935
 10
98.69371652773444
 20
-148.7041123697749
 10
98.74692586545916
 20
-148.7097553815059
 10
98.80033581687286
 20
-148.7104972935478
 10
98.83385042437355
 20
-148.7166528030822
 10
98.87306757772848
 20
-148.7113847401761
 10
98.84628532927374
 20
-148.7523112299772
 10
98.80507005959686
 20
-148.7411329925309
 10
98.8125231135119
 20
-148.7861744759908
 10
98.80848175464293
 20
-148.8307222576305
 10
98.81043036438851
 20
-148.9026093116949
 10
98.80949544440037
 20
-148.9831587320243
 10
98.81076967842745
 20
-149.063105083862
 10
98.80746333881089
 20
-149.1364266670801
 10
98.81446957742054
 20
-149.1779586078863
 10
98.80440299743705
 20
-149.2173208522308
 10
98.83724043981661
 20
-149.2101644036021
 10
98.87071668907254
 20
-149.2145726065325
 10
98.92576430702636
 20
-149.212665604433
 10
98.98320921895598
 20
-149.212991373839
 10
99.03656158425542
 20
-149.2137819505812
 10
99.07411304908838
 20
-149.2117054467312
 10
99.09657621174819
 20
-149.2146216562409
 10
99.10942676679758
 20
-149.2091195114714
 10
99.12008452801341
 20
-149.206833855934
 10
99.13292252443884
 20
-149.1998953120314
 10
99.14885806273156
 20
-149.2163145747753
 10
99.17532135151373
 20
-149.2277538147174
 10
99.20693948480024
 20
-149.2483981595601
 10
99.23298454863965
 20
-149.263676341629
 10
99.24711073182182
 20
-149.2721752746801
 10
99.25128437427242
 20
-149.2746863228017
 97
        1
330
AC
 75
     1
 76
     2
 52
45.0
 41
0.1
 77
     0
 78
     1
 53
45.0
 43
0.0
 44
0.0
 45
-0.282842712474619
 46
0.0
 79
     0
 98
        1
 10
0.0
 20
0.0
  0
HATCH
  5
CA
330
48
100
AcDbEntity
  8
1
  6
Continuous
 62
     2
100
AcDbHatch
 10
0.0
 20
0.0
 30
0.0
210
0.0
220
0.0
230
1.0
  2
CUSTOM4
 70
     0
 71
     1
 91
        1
 92
        1
 93
        1
 72
     4
 94
        3
 73
     0
 74
     0
 95
       91
 96
       87
 40
0.0
 40
0.0
 40
0.0
 40
0.0
 40
0.0267532254356986
 40
0.0856103386464617
 40
0.1444674521997349
 40
0.1712206856618941
 40
0.2039416005642962
 40
0.2955601971652768
 40
0.4362601844617202
 40
0.6162252844507818
 40
0.8256392189705124
 40
1.054685709844482
 40
1.29354847889356
 40
1.532411247938317
 40
1.761457738799596
 40
1.970871673298551
 40
2.150836773256718
 40
2.291536760495608
 40
2.383155356836729
 40
2.41587628410132
 40
2.442629517487991
 40
2.501486630949121
 40
2.56034374442432
 40
2.587096977826566
 40
2.617068194440994
 40
2.699247336756163
 40
2.822032643466419
 40
2.973822353257963
 40
3.143014704823419
 40
3.31800793687997
 40
3.487200288186789
 40
3.638989997548269
 40
3.761775303794782
 40
3.843954445753117
 40
3.873925662229827
 40
3.890812773500538
 40
3.907699884771739
 40
3.937960767857348
 40
3.980983618142365
 40
4.199085915228493
 40
4.439444339237247
 40
4.677588241260943
 40
5.050698317837799
 40
5.448212454763214
 40
5.855291218044724
 40
6.138575438885386
 40
6.417434507584241
 40
6.444551104393923
 40
6.504207617363224
 40
6.563864130314574
 40
6.590980727104136
 40
6.848609460381571
 40
7.109611990668489
 40
7.352910904446181
 40
7.557830220705521
 40
7.587518925913443
 40
7.652834077375836
 40
7.71814922884578
 40
7.747837934062068
 40
7.854880190301002
 40
7.976511257403481
 40
8.369487896592297
 40
8.757514959223618
 40
9.12607241933108
 40
9.460639380392129
 40
9.746695593035813
 40
9.777569943118573
 40
9.807050320931738
 40
9.830377336128873
 40
9.886003295435975
 40
9.952395569429914
 40
10.00802152870633
 40
10.03134854388222
 40
10.21356951009593
 40
10.42203479292872
 40
10.66154556731067
 40
10.91693789564307
 40
11.15832906556568
 40
11.18982674596624
 40
11.27286608520408
 40
11.39026653033351
 40
11.52484752840888
 40
11.65942852648447
 40
11.77682897161484
 40
11.85986831085682
 40
11.89136598230427
 40
11.89136598230427
 40
11.89136598230427
 40
11.89136598230427
 10
95.33704746024415
 20
-150.2378490308943
 10
95.33708273595337
 20
-150.2289665647922
 10
95.33719563050416
 20
-150.2005426674385
 10
95.33555741627342
 20
-150.150748646214
 10
95.34123398871562
 20
-150.1082693931304
 10
95.3299518325952
 20
-150.0575434893435
 10
95.39748865732773
 20
-150.0747160305108
 10
95.47306188049454
 20
-150.061942766252
 10
95.61709466502465
 20
-150.0685477433383
 10
95.79120087796721
 20
-150.0659604158472
 10
95.99821892052486
 20
-150.0668391183564
 10
96.22372777666227
 20
-150.0665629587117
 10
96.4593751887651
 20
-150.0666616413254
 10
96.69502301255935
 20
-150.0665631937842
 10
96.92053071748711
 20
-150.066838256004
 10
97.12755242270501
 20
-150.0659631752046
 10
97.30164785095332
 20
-150.0685398111275
 10
97.44570816662304
 20
-150.0619621334199
 10
97.52122815095386
 20
-150.074682603856
 10
97.58883656312747
 20
-150.0575810359951
 10
97.57734297349214
 20
-150.1080971798826
 10
97.5847694175978
 20
-150.152312515647
 10
97.57714285222315
 20
-150.1961653728759
 10
97.588907905367
 20
-150.2460612931187
 10
97.5273378086228
 20
-150.2309127607869
 10
97.45993813329163
 20
-150.2417383844053
 10
97.3355593650467
 20
-150.2363247216496
 10
97.1897017830816
 20
-150.2383529840042
 10
97.02361660343304
 20
-150.2376872621282
 10
96.85310022159697
 20
-150.2379486026996
 10
96.68623804496343
 20
-150.2376295040011
 10
96.54299364213509
 20
-150.2384920120044
 10
96.41159034640792
 20
-150.2362120330822
 10
96.35824487289021
 20
-150.24076799417
 10
96.28277780511576
 20
-150.2348458879832
 10
96.31116653734777
 20
-150.2439033444785
 10
96.33762420037877
 20
-150.2475859152228
 10
96.29761125019465
 20
-150.2783023182292
 10
96.20562532861142
 20
-150.2681691261658
 10
96.17819858013138
 20
-150.514520015434
 10
96.08213835614796
 20
-150.6698494502683
 10
95.82598675587184
 20
-150.9995908585963
 10
96.39701273270074
 20
-150.8605448158075
 10
96.65162459147612
 20
-150.8619272381784
 10
97.26222366428618
 20
-150.9469393454912
 10
96.96832881723282
 20
-150.6479908623299
 10
96.64758938807626
 20
-150.5015364688944
 10
96.76561329546787
 20
-150.4445896297291
 10
96.80673060605068
 20
-150.4206440391785
 10
96.84994019886564
 20
-150.3988474497997
 10
96.95171636886951
 20
-150.3355578253728
 10
97.06714572194933
 20
-150.5933735238243
 10
97.2672181236522
 20
-150.7286846267752
 10
97.36116669814734
 20
-150.9069170865232
 10
97.59014193406375
 20
-151.0648668276416
 10
97.49386214409532
 20
-151.115685312149
 10
97.4510549358024
 20
-151.1460321126814
 10
97.40608331230239
 20
-151.1701837350973
 10
97.34643105194593
 20
-151.2193235704363
 10
97.31323206555695
 20
-151.0848702811759
 10
97.19246029450412
 20
-150.9289023850462
 10
96.83135656002236
 20
-151.0591457573165
 10
96.47276515497859
 20
-151.0425980938172
 10
96.09135100443247
 20
-151.0515327443934
 10
95.80460448771365
 20
-151.1160183211879
 10
95.49346451939601
 20
-151.0025383559838
 10
95.46113274130333
 20
-151.1136224386343
 10
95.4238767847563
 20
-151.132881899412
 10
95.4208327226999
 20
-151.0860971970391
 10
95.40224824548517
 20
-151.0467764987207
 10
95.38550262110235
 20
-150.9871852031297
 10
95.37263205099975
 20
-150.9428253391992
 10
95.33849174006751
 20
-150.85378172671
 10
95.5825304051998
 20
-150.9230346084743
 10
95.77839840809168
 20
-150.9445413473346
 10
95.87380159755213
 20
-150.6625801931274
 10
95.92877253638426
 20
-150.5012145837008
 10
96.15022089514008
 20
-150.2309332620146
 10
96.01918289754616
 20
-150.2393605693747
 10
95.94526161500994
 20
-150.2370549529423
 10
95.83200494704889
 20
-150.2381312546954
 10
95.70368414017297
 20
-150.237768647147
 10
95.57468416246604
 20
-150.2378677932511
 10
95.46304305405363
 20
-150.2378457107863
 10
95.38572535642719
 20
-150.2378492460153
 10
95.34754661262551
 20
-150.2378490794612
 10
95.33704746024415
 20
-150.2378490308943
 97
        1
330
AD
 75
     1
 76
     2
 52
45.0
 41
0.1
 77
     0
 78
     1
 53
45.0
 43
0.0
 44
0.0
 45
-0.282842712474619
 46
0.0
 79
     0
 98
        1
 10
0.0
 20
0.0
  0
HATCH
  5
CB
330
48
100
AcDbEntity
  8
1
  6
Continuous
 62
     2
100
AcDbHatch
 10
0.0
 20
0.0
 30
0.0
210
0.0
220
0.0
230
1.0
  2
CUSTOM5
 70
     0
 71
     1
 91
        1
 92
        1
 93
        1
 72
     4
 94
        3
 73
     0
 74
     0
 95
       35
 96
       31
 40
0.0
 40
0.0
 40
0.0
 40
0.0
 40
0.0335231036620513
 40
0.0713218571711655
 40
0.4278866681486232
 40
0.811686584196303
 40
1.198190237999956
 40
1.561379546812619
 40
1.659983174621997
 40
1.759315573807197
 40
2.132719617231088
 40
2.525233363588794
 40
2.910815397779717
 40
3.265244364303332
 40
3.592606723582066
 40
3.964386154604001
 40
4.359942131737858
 40
4.758154118639339
 40
4.84384653869992
 40
4.936650065543291
 40
5.256616602537387
 40
5.58170740441606
 40
5.89971915830818
 40
6.198363494280788
 40
6.466301046615859
 40
6.493895311537182
 40
6.559697020196976
 40
6.638234543442553
 40
6.70403625215435
 40
6.731630508423141
 40
6.731630508423141
 40
6.731630508423141
 40
6.731630508423141
 10
96.60786001629145
 20
-148.7102066007207
 10
96.60185956920344
 20
-148.7200381324888
 10
96.58909336934019
 20
-148.7409551521141
 10
96.42919516008008
 20
-148.773573772585
 10
96.86646154365815
 20
-149.0627782345449
 10
97.06879844225071
 20
-149.2644336543275
 10
97.31621538622176
 20
-149.5073511618792
 10
97.81741032188515
 20
-149.5843684103342
 10
97.64681517932152
 20
-149.7260756461654
 10
97.57258890574465
 20
-149.927741375821
 10
97.24740218424331
 20
-149.5752821661648
 10
96.96203312649094
 20
-149.4130929123164
 10
96.66801936719028
 20
-149.2079737373816
 10
96.44270422853792
 20
-148.7265701519574
 10
96.23356746497672
 20
-149.1914145718198
 10
95.95504632690796
 20
-149.4013355153829
 10
95.67139727714537
 20
-149.5706004743121
 10
95.34212291220774
 20
-149.9434214288325
 10
95.26196019124693
 20
-149.747764893322
 10
95.11023145039894
 20
-149.619933996006
 10
95.542598542104
 20
-149.5403047202527
 10
95.73051549240108
 20
-149.3445786887573
 10
95.98110670147483
 20
-149.1285150687445
 10
96.20569400644062
 20
-148.9629351149115
 10
96.26023650039579
 20
-148.6835053915436
 10
96.38372506232562
 20
-148.6974655338312
 10
96.44028629387658
 20
-148.6996323492356
 10
96.51044605791895
 20
-148.7043764390984
 10
96.56760036163509
 20
-148.7077507444067
 10
96.59867799150844
 20
-148.7096464908008
 10
96.60786001629145
 20
-148.7102066007207
 97
        1
330
AE
 75
     1
 76
     2
 52
45.0
 41
0.1
 77
     0
 78
     1
 53
45.0
 43
0.0
 44
0.0
 45
-0.282842712474619
 46
0.0
 79
     0
 98
        1
 10
0.0
 20
0.0
  0
HATCH
  5
CC
330
48
100
AcDbEntity
  8
1
  6
Continuous
 62
     2
100
AcDbHatch
 10
0.0
 20
0.0
 30
0.0
210
0.0
220
0.0
230
1.0
  2
CUSTOM6
 70
     0
 71
     1
 91
        1
 92
        1
 93
        1
 72
     4
 94
        3
 73
     0
 74
     0
 95
       15
 96
       11
 40
0.0
 40
0.0
 40
0.0
 40
0.0
 40
0.2785535985096726
 40
0.5215624748199115
 40
0.6076917376040677
 40
0.6938210001741358
 40
0.9405019146454656
 40
1.221691403489116
 40
1.300471877081037
 40
1.379252341684822
 40
1.379252341684822
 40
1.379252341684822
 40
1.379252341684822
 10
94.20240832252443
 20
-148.7155423646082
 10
94.26386073884234
 20
-148.7679285719849
 10
94.37892395683588
 20
-148.8660162699297
 10
94.67399380914891
 20
-149.0159471789399
 10
94.5367737226102
 20
-149.1014127627619
 10
94.43838174380227
 20
-149.2339871858964
 10
94.34726231848948
 20
-148.9286751800978
 10
93.99794290749
 20
-148.8651663432583
 10
94.14618479708153
 20
-148.7658799391032
 10
94.18366714684815
 20
-148.7323215538882
 10
94.20240832252443
 20
-148.7155423646082
 97
        1
330
AF
 75
     1
 76
     2
 52
45.0
 41
0.1
 77
     0
 78
     1
 53
45.0
 43
0.0
 44
0.0
 45
-0.282842712474619
 46
0.0
 79
     0
 98
        1
 10
0.0
 20
0.0
  0
HATCH
  5
CD
330
48
100
AcDbEntity
  8
1
  6
Continuous
 62
     2
100
AcDbHatch
 10
0.0
 20
0.0
 30
0.0
210
0.0
220
0.0
230
1.0
  2
CUSTOM7
 70
     0
 71
     1
 91
        1
 92
        1
 93
        1
 72
     4
 94
        3
 73
     0
 74
     0
 95
       75
 96
       71
 40
0.0
 40
0.0
 40
0.0
 40
0.0
 40
0.0342546099129496
 40
0.1245622414432435
 40
0.2522385480897927
 40
0.3985991922940857
 40
0.5449598364980945
 40
0.6726361431439047
 40
0.7629437746737155
 40
0.7971983935298115
 40
1.101723623449656
 40
1.408591244036634
 40
1.433332471690332
 40
1.487763172450097
 40
1.542193873081936
 40
1.566935100592473
 40
1.923523931821802
 40
2.271755704953618
 40
2.590579755100859
 40
2.858943305581137
 40
2.889120339309102
 40
2.91830585519104
 40
2.941366645531152
 40
2.996357760973026
 40
3.061992318140596
 40
3.116983433626758
 40
3.140044223997424
 40
3.411273122936346
 40
3.732441619741039
 40
3.761068217532725
 40
3.837787499630352
 40
3.94885869912595
 40
4.080541049104355
 40
4.219093782625762
 40
4.350776132722316
 40
4.461847332405668
 40
4.538566614678373
 40
4.567193212544638
 40
4.59490757399891
 40
4.666381453557435
 40
4.764111044011045
 40
4.870592538125891
 40
4.968322128642342
 40
5.039796008287027
 40
5.067510369784472
 40
5.094263603185667
 40
5.153120716668255
 40
5.211977830150644
 40
5.23873106355164
 40
5.272290535138922
 40
5.36338052944474
 40
5.497618415781403
 40
5.66062156345366
 40
5.838007341749375
 40
6.015393119910684
 40
6.178396267038309
 40
6.312634151842261
 40
6.403724143059293
 40
6.437283612672374
 40
6.464036846260981
 40
6.522893960004538
 40
6.581751071483765
 40
6.608504301590713
 40
6.637253941280846
 40
6.711397748902712
 40
6.812778057283296
 40
6.923237199249058
 40
7.024617507623717
 40
7.098761315207341
 40
7.12751094600732
 40
7.12751094600732
 40
7.12751094600732
 40
7.12751094600732
 10
93.07612119848096
 20
-149.9863537531793
 10
93.07612124139524
 20
-149.9977719038247
 10
93.07612140753734
 20
-150.0392924594857
 10
93.07611826760328
 20
-150.1233758178742
 10
93.07613778740453
 20
-150.2448000646887
 10
93.07605017819827
 20
-150.3850400974375
 10
93.07637058294759
 20
-150.5247794699662
 10
93.07541955039855
 20
-150.6473946489626
 10
93.0774568190213
 20
-150.7289742935316
 10
93.06920227729907
 20
-150.8821323671348
 10
93.37733875351472
 20
-150.7192426773649
 10
93.66932347679801
 20
-150.5500156510321
 10
93.67509440429532
 20
-150.6851126800929
 10
93.67980613141361
 20
-150.7286728263076
 10
93.68251250061633
 20
-150.7727325444065
 10
93.70151352672046
 20
-150.9221191342807
 10
93.29265318415477
 20
-150.8580333154994
 10
93.01362999430773
 20
-150.9718816238019
 10
92.73606711814108
 20
-151.0712040798005
 10
92.44424267786468
 20
-151.0285381619486
 10
92.42117342729026
 20
-151.1316282404665
 10
92.38800639775785
 20
-151.1579341254673
 10
92.38232435569833
 20
-151.1102919475489
 10
92.36268041532894
 20
-151.0730416767613
 10
92.34376790798677
 20
-151.0147711594364
 10
92.32854394619521
 20
-150.970993027834
 10
92.28198359671805
 20
-150.8572508274489
 10
92.62334869066959
 20
-150.8890820267115
 10
92.90222389616304
 20
-150.9232306868473
 10
92.8960342629153
 20
-150.7757052731155
 10
92.8973525047018
 20
-150.7047135288236
 10
92.89674212841942
 20
-150.5976473583254
 10
92.896846116497
 20
-150.470859740052
 10
92.89725775583013
 20
-150.3363526029514
 10
92.8956497436214
 20
-150.2108895384001
 10
92.9002492162171
 20
-150.0997925707208
 10
92.89067760964556
 20
-150.0372261699051
 10
92.90465913779366
 20
-149.9788911549619
 10
92.848997398095
 20
-149.9919479320895
 10
92.79182447920667
 20
-149.983481960417
 10
92.69586385198929
 20
-149.9875452771056
 10
92.59763571170659
 20
-149.9851361393871
 10
92.50151720518056
 20
-149.9893290317781
 10
92.44472381200559
 20
-149.9805515735002
 10
92.38929464676296
 20
-149.9938956694107
 10
92.40132690221613
 20
-149.9444759283193
 10
92.39345927681832
 20
-149.900905157608
 10
92.4008885158074
 20
-149.8565403467268
 10
92.38945201583886
 20
-149.8058220602721
 10
92.45746919643783
 20
-149.8232204303347
 10
92.53110864739918
 20
-149.8106705355401
 10
92.66676536524558
 20
-149.8168482678011
 10
92.82274986187706
 20
-149.8145530069812
 10
92.99585159523888
 20
-149.8154353552868
 10
93.16895325584265
 20
-149.8145529664879
 10
93.32493794054612
 20
-149.8168484083566
 10
93.46059414840423
 20
-149.8106701752877
 10
93.53423462998975
 20
-149.8232210957288
 10
93.6022503768969
 20
-149.8058213077906
 10
93.59081804801669
 20
-149.8565437337665
 10
93.59821290525426
 20
-149.9008744298009
 10
93.59046295065158
 20
-149.94456196241
 10
93.60237933361218
 20
-149.9942091369271
 10
93.54507598178621
 20
-149.9802309245277
 10
93.48627353840176
 20
-149.9894474811794
 10
93.3867883227445
 20
-149.9853223562626
 10
93.28368696925946
 20
-149.986617437653
 10
93.18804359488186
 20
-149.9863042671356
 10
93.1200057565863
 20
-149.9863572709405
 10
93.08570518076883
 20
-149.9863545191953
 10
93.07612119848096
 20
-149.9863537531793
 97
        1
330
B0
 75
     1
 76
     2
 52
45.0
 41
0.1
 77
     0
 78
     1
 53
45.0
 43
0.0
 44
0.0
 45
-0.282842712474619
 46
0.0
 79
     0
 98
        1
 10
0.0
 20
0.0
  0
HATCH
  5
CE
330
48
100
AcDbEntity
  8
1
  6
Continuous
 62
     2
100
AcDbHatch
 10
0.0
 20
0.0
 30
0.0
210
0.0
220
0.0
230
1.0
  2
CUSTOM8
 70
     0
 71
     1
 91
        1
 92
        1
 93
        1
 72
     4
 94
        3
 73
     0
 74
     0
 95
       91
 96
       87
 40
0.0
 40
0.0
 40
0.0
 40
0.0
 40
0.0345987051695718
 40
0.1258134969461511
 40
0.2547723404888987
 40
0.4026032099153983
 40
0.5504340793416846
 40
0.6793929228836364
 40
0.7706077146571462
 40
0.8052064287781209
 40
1.124852390615273
 40
1.427402236308931
 40
1.70635662745358
 40
1.95554141787523
 40
2.169485938566401
 40
2.344350786664843
 40
2.480568411562019
 40
2.590440557429011
 40
2.649189927151203
 40
2.749320643306403
 40
2.912632739880122
 40
3.147745656000301
 40
3.244827496385172
 40
3.338490056946829
 40
3.583815413207219
 40
3.761423943238598
 40
3.88695610436275
 40
3.985855451886945
 40
4.091766255337806
 40
4.250186473811973
 40
4.422734315084632
 40
4.628285684838719
 40
4.872093227758548
 40
5.152549652145642
 40
5.464967135837655
 40
5.803201477852588
 40
6.160362988814055
 40
6.19344944827611
 40
6.284170385501736
 40
6.419718138764634
 40
6.587285046385856
 40
6.774063446723798
 40
6.967245678113753
 40
7.154024078817781
 40
7.321590987026139
 40
7.457138740890511
 40
7.547859678556248
 40
7.580946138182793
 40
7.608533084714861
 40
7.669224367077828
 40
7.729915649430052
 40
7.757502595950069
 40
7.790278062553537
 40
7.880146277431021
 40
8.014419963180469
 40
8.180411842397984
 40
8.365434637679453
 40
8.556801071622768
 40
8.741823866830867
 40
8.907815745916448
 40
9.042089431507573
 40
9.131957646249685
 40
9.164733112797276
 40
9.415425063140187
 40
9.66798618095865
 40
9.69416980746276
 40
9.756607686047706
 40
9.831130315322554
 40
9.893568193900018
 40
9.91975182039882
 40
9.95096796469063
 40
9.996421631210785
 40
10.22087981037467
 40
10.44341866197559
 40
10.47847970788874
 40
10.57091337438773
 40
10.70159545461249
 40
10.85140174170379
 40
11.00120802880499
 40
11.13189010907402
 40
11.2243237758303
 40
11.25938480938976
 40
11.28697175596162
 40
11.34766303835938
 40
11.40835432042091
 40
11.43594125892123
 40
11.43594125892123
 40
11.43594125892123
 40
11.43594125892123
 10
94.71607039275347
 20
-149.3924170866612
 10
94.70453754391859
 20
-149.3924171350328
 10
94.66259990392446
 20
-149.3924173008703
 10
94.57767193132699
 20
-149.3924137799029
 10
94.45502781473746
 20
-149.3924357735532
 10
94.31337965112384
 20
-149.3923370261414
 10
94.17223432927355
 20
-149.3926981755878
 10
94.0483940912149
 20
-149.391626201821
 10
93.96598074196268
 20
-149.3939225469992
 10
93.80703808239376
 20
-149.3843593441779
 10
93.9845991947621
 20
-149.7469910947982
 10
93.97223287996977
 20
-149.9924137606808
 10
94.040710906811
 20
-150.2762200246636
 10
94.10356139152147
 20
-150.5123350385217
 10
94.17948430259739
 20
-150.7115776339507
 10
94.2645779171261
 20
-150.8673915633983
 10
94.35871971871805
 20
-150.9682664600981
 10
94.46252378019727
 20
-151.0201865115224
 10
94.54684616250188
 20
-150.9687801941158
 10
94.56939117736974
 20
-150.8533995975368
 10
94.6088320569616
 20
-150.7259935408883
 10
94.55455093291872
 20
-150.4086217570444
 10
94.67938076667181
 20
-150.555023236503
 10
94.83618811078482
 20
-150.5868920346002
 10
94.72903096013027
 20
-150.8206314602357
 10
94.71513008041123
 20
-150.9851172720754
 10
94.65772990614705
 20
-151.1135363466871
 10
94.56776097392533
 20
-151.1846570143837
 10
94.44378642521228
 20
-151.2005217964895
 10
94.29768627911054
 20
-151.1649070623702
 10
94.15864839145293
 20
-151.0448393329092
 10
94.04445935563896
 20
-150.8704882124088
 10
93.9488730895731
 20
-150.6453790067996
 10
93.86612421668717
 20
-150.3809625778475
 10
93.81497688506568
 20
-150.0629657069265
 10
93.71127788015826
 20
-149.7894077530228
 10
93.83854308027668
 20
-149.3847868517834
 10
93.67004802172633
 20
-149.3937213594151
 10
93.58545853813226
 20
-149.3916854237284
 10
93.45324659818726
 20
-149.3927056640278
 10
93.29030946883492
 20
-149.3923127347277
 10
93.10763487647782
 20
-149.3924880747782
 10
92.91896469676276
 20
-149.3922439848373
 10
92.73570586144345
 20
-149.3929884588496
 10
92.57473364269627
 20
-149.3906814326876
 10
92.4372397929521
 20
-149.3968469890754
 10
92.36321799665555
 20
-149.3845166533298
 10
92.29558047811018
 20
-149.4015518006764
 10
92.30749633135144
 20
-149.3496006534367
 10
92.29982668799393
 20
-149.3041307882467
 10
92.30751818193603
 20
-149.258700500875
 10
92.2955731392007
 20
-149.2068210780663
 10
92.36261779001119
 20
-149.2236536030094
 10
92.43599652599215
 20
-149.2114909469852
 10
92.57217178995171
 20
-149.2175727271624
 10
92.73164013957573
 20
-149.2152966947614
 10
92.91317626800813
 20
-149.2160326979224
 10
93.10006244564241
 20
-149.2157854959506
 10
93.28106019110811
 20
-149.2159810299195
 10
93.44233921731235
 20
-149.2155226907636
 10
93.57364717191325
 20
-149.2167183003999
 10
93.65676409168418
 20
-149.2143315647145
 10
93.78988261420596
 20
-149.2225389806575
 10
93.69884830969036
 20
-148.9673163483854
 10
93.61322226686642
 20
-148.7032014546296
 10
93.73331785976998
 20
-148.7158006082203
 10
93.78568545427885
 20
-148.7179026802813
 10
93.85570871639608
 20
-148.7194910390155
 10
93.90145119320619
 20
-148.7288193625309
 10
93.95634022411778
 20
-148.7193853687577
 10
93.93061643799264
 20
-148.7675147513603
 10
93.81679871656978
 20
-148.7621767404702
 10
93.95019362153812
 20
-148.9903532921442
 10
93.82862483297167
 20
-149.2232764719529
 10
93.95657783636578
 20
-149.2139724490676
 10
94.03916380007061
 20
-149.2168350203652
 10
94.16498044450694
 20
-149.2156106637889
 10
94.30840594323034
 20
-149.2155207190224
 10
94.45000105459738
 20
-149.2173834060735
 10
94.58017168442126
 20
-149.2115142785404
 10
94.65360418804364
 20
-149.22414162968
 10
94.72337025163415
 20
-149.2060694068078
 10
94.71183621996417
 20
-149.2587165324487
 10
94.71757739409279
 20
-149.3026318610465
 10
94.71592053651561
 20
-149.3539452111465
 10
94.7160347155915
 20
-149.3832571176956
 10
94.71607039275347
 20
-149.3924170866612
 97
        1
330
B1
 75
     1
 76
     2
 52
45.0
 41
0.1
 77
     0
 78
     1
 53
45.0
 43
0.0
 44
0.0
 45
-0.282842712474619
 46
0.0
 79
     0
 98
        1
 10
0.0
 20
0.0
  0
HATCH
  5
CF
330
48
100
AcDbEntity
  8
1
  6
Continuous
 62
     2
100
AcDbHatch
 10
0.0
 20
0.0
 30
0.0
210
0.0
220
0.0
230
1.0
  2
CUSTOM9
 70
     0
 71
     1
 91
        1
 92
        1
 93
        1
 72
     4
 94
        3
 73
     0
 74
     0
 95
      118
 96
      114
 40
0.0
 40
0.0
 40
0.0
 40
0.0
 40
0.1054708162973436
 40
0.2466098270051986
 40
0.3965912874591238
 40
0.528552506975419
 40
0.6156245055642587
 40
0.6431434105797972
 40
0.703685003798669
 40
0.7642265984505116
 40
0.7917455052355361
 40
0.9287404319990172
 40
1.106572819088026
 40
1.287544879681064
 40
1.317578308030562
 40
1.399928030857182
 40
1.522968204800008
 40
1.675072986590606
 40
1.844616533180669
 40
2.01997300163876
 40
2.18951654888005
 40
2.341621331585372
 40
2.464661506320539
 40
2.547011229647097
 40
2.577044658168063
 40
2.603797890893105
 40
2.662655002908807
 40
2.72151211494959
 40
2.74826534770277
 40
2.774215307344846
 40
2.845959313407135
 40
2.954338556588354
 40
3.090194227585513
 40
3.244367517100514
 40
3.407699615844237
 40
3.571031714539359
 40
3.725205003920067
 40
3.861060674729558
 40
3.96943991771623
 40
4.041183923628907
 40
4.067133883212918
 40
4.311886746012069
 40
4.547897258335418
 40
4.764747083043885
 40
4.952749679951663
 40
5.045772974195808
 40
5.137862019644896
 40
5.330543169792942
 40
5.553448265243935
 40
5.795083855888104
 40
6.043293412177168
 40
6.285761695541072
 40
6.313902908752584
 40
6.384255941793159
 40
6.475714884766734
 40
6.567173827758796
 40
6.637526860839546
 40
6.665668074073895
 40
6.692018920327885
 40
6.749990782070941
 40
6.80796264379035
 40
6.834313490017823
 40
6.856393084245087
 40
6.913335195649753
 40
6.991194817302403
 40
7.076026942283636
 40
7.153886563725155
 40
7.210828674844694
 40
7.232908268931044
 40
7.258199334923535
 40
7.324875781592215
 40
7.419142481924882
 40
7.527204308841834
 40
7.635266135230398
 40
7.729532834168412
 40
7.796209279292714
 40
7.82150034459467
 40
7.844652988850797
 40
7.899863140541537
 40
7.965759128053718
 40
8.020969279771016
 40
8.044121924046483
 40
8.069356610160614
 40
8.109134395441393
 40
8.132238100191094
 40
8.19314786778647
 40
8.279261678876614
 40
8.377977512673871
 40
8.476693347146655
 40
8.562807160411714
 40
8.623716930826495
 40
8.646820636853468
 40
8.671988793774323
 40
8.734909185828178
 40
8.816705695188892
 40
8.898502204815491
 40
8.961422597377938
 40
8.986590754551079
 40
9.01294160073322
 40
9.070913462380323
 40
9.128885324081827
 40
9.155236170325159
 40
9.180404327929173
 40
9.243324721948275
 40
9.325121234212054
 40
9.406917746637736
 40
9.469838141978192
 40
9.49500628827098
 40
9.517811184379122
 40
9.572192090487102
 40
9.637098333281296
 40
9.691479239515497
 40
9.714284125643525
 40
9.714284125643525
 40
9.714284125643525
 40
9.714284125643525
 10
89.9217058622898
 20
-149.6759534060348
 10
89.94335801632826
 20
-149.7037263454839
 10
89.99398467037182
 20
-149.7686644922996
 10
90.06919727968372
 20
-149.8759344347831
 10
90.15910718685917
 20
-149.9910706552457
 10
90.20517592709176
 20
-150.0912745804288
 10
90.29984148889011
 20
-150.1605049697626
 10
90.25470289146581
 20
-150.2071286411293
 10
90.22896373800353
 20
-150.2482419492516
 10
90.19877863022575
 20
-150.2841853206326
 10
90.1536274324807
 20
-150.3590472119511
 10
90.10530940528078
 20
-150.1370197953759
 10
90.03111293073178
 20
-150.0997382645349
 10
89.91786369188517
 20
-149.828743016606
 10
89.92277231724142
 20
-149.9438917534497
 10
89.92110761505509
 20
-150.0164782800958
 10
89.92194196709589
 20
-150.1385891530721
 10
89.92161991345088
 20
-150.2857070298074
 10
89.9217666506701
 20
-150.4517743983465
 10
89.92155396869666
 20
-150.622969491826
 10
89.92220868462785
 20
-150.7893167515571
 10
89.92017820553842
 20
-150.9354933073551
 10
89.92560499941747
 20
-151.0601345631659
 10
89.91475204629535
 20
-151.1276584725058
 10
89.92993287497991
 20
-151.1893544237418
 10
89.88004847023787
 20
-151.177569998942
 10
89.83597399367667
 20
-151.1854068101123
 10
89.79249612244459
 20
-151.177240624185
 10
89.74349363807339
 20
-151.1894644705274
 10
89.75613208290699
 20
-151.1352383654189
 10
89.7472772562695
 20
-151.0754758488365
 10
89.75176483645589
 20
-150.9656247474683
 10
89.75005497302358
 20
-150.8345452838552
 10
89.7506140510232
 20
-150.6828649234688
 10
89.75045183629386
 20
-150.5227342886125
 10
89.75048595189197
 20
-150.3624763811664
 10
89.75051045543718
 20
-150.2111425627077
 10
89.75040431374705
 20
-150.079023474526
 10
89.75068887361766
 20
-149.9718970125802
 10
89.75012651418129
 20
-149.9067588421173
 10
89.75233546779347
 20
-149.7786554593254
 10
89.6662025592848
 20
-150.1538689339962
 10
89.58977304127453
 20
-150.3056631066781
 10
89.50026303620785
 20
-150.467182973449
 10
89.39830028115716
 20
-150.7401265497102
 10
89.35305660852846
 20
-150.5776715719469
 10
89.24449455359148
 20
-150.4887907173308
 10
89.43383813459981
 20
-150.339347088298
 10
89.49079301399448
 20
-150.1473536681627
 10
89.6060110587597
 20
-149.9158488088444
 10
89.62827412243784
 20
-149.7268724403214
 10
89.81144947463838
 20
-149.4503041446527
 10
89.68806231917975
 20
-149.4578552495911
 10
89.62682737610784
 20
-149.4562773142509
 10
89.54245892113093
 20
-149.4560191121753
 10
89.45468246802108
 20
-149.4593965804
 10
89.39993582903682
 20
-149.4508968880919
 10
89.344729262027
 20
-149.4643594274142
 10
89.35654126297817
 20
-149.4155306166444
 10
89.34850857460391
 20
-149.3721549889449
 10
89.35707756989238
 20
-149.3297506548163
 10
89.34455330034024
 20
-149.2821670723908
 10
89.38976911329806
 20
-149.2921729079609
 10
89.43574051569695
 20
-149.2859039861714
 10
89.51198116419557
 20
-149.2889094238533
 10
89.59038857262394
 20
-149.2871405551266
 10
89.66665822431781
 20
-149.2901970980954
 10
89.71255990537196
 20
-149.2838053241502
 10
89.75743235596454
 20
-149.2939068081231
 10
89.74481418698785
 20
-149.243273022093
 10
89.75345261769515
 20
-149.1898324190913
 10
89.74949511896881
 20
-149.0962124865952
 10
89.75049146625793
 20
-148.9937189710228
 10
89.75145170073186
 20
-148.8913123354303
 10
89.74758010522504
 20
-148.7974857418188
 10
89.756037940861
 20
-148.7444796095084
 10
89.74356655270803
 20
-148.6927306814001
 10
89.78846959840952
 20
-148.7063375656444
 10
89.82976734310171
 20
-148.7038402347062
 10
89.89379338752957
 20
-148.7083644321671
 10
89.93287007430317
 20
-148.717035007479
 10
89.98191330929875
 20
-148.7096940172051
 10
89.95676696248358
 20
-148.7488160773946
 10
89.9158490927968
 20
-148.7392066133538
 10
89.92526992108488
 20
-148.7894435562142
 10
89.91982369129913
 20
-148.8409855815171
 10
89.92242891960481
 20
-148.9252479620667
 10
89.92126917963994
 20
-149.0192536820779
 10
89.9226180658476
 20
-149.1128763839567
 10
89.91925596957537
 20
-149.1980498623898
 10
89.92635495120133
 20
-149.2476764771915
 10
89.91551587487906
 20
-149.2949080882122
 10
89.96465998194898
 20
-149.2828282885434
 10
90.01374672243918
 20
-149.2903711042819
 10
90.09163038748865
 20
-149.2879843342977
 10
90.16929547671407
 20
-149.2858512188579
 10
90.21879835255996
 20
-149.2929111186874
 10
90.26871843448843
 20
-149.2812435185499
 10
90.25657881111256
 20
-149.3294426841981
 10
90.26484278233889
 20
-149.3723528398997
 10
90.25657882450284
 20
-149.4152630193982
 10
90.26871841440996
 20
-149.4634621503634
 10
90.21879847529914
 20
-149.4517946931969
 10
90.16929402454478
 20
-149.4588530135616
 10
90.09163739772177
 20
-149.456728385626
 10
90.01372334600052
 20
-149.4543111442545
 10
89.96470899469608
 20
-149.4619265559671
 10
89.91558357031876
 20
-149.4497655123361
 10
89.92581495828159
 20
-149.4941149036705
 10
89.9199267272298
 20
-149.5355906758829
 10
89.92213778998138
 20
-149.595691094759
 10
89.92166989403907
 20
-149.6425872102832
 10
89.92169765871583
 20
-149.66834357373
 10
89.9217058622898
 20
-149.6759534060348
 97
        1
330
B2
 75
     1
 76
     2
 52
45.0
 41
0.1
 77
     0
 78
     1
 53
45.0
 43
0.0
 44
0.0
 45
-0.282842712474619
 46
0.0
 79
     0
 98
        1
 10
0.0
 20
0.0
  0
HATCH
  5
D0
330
48
100
AcDbEntity
  8
1
  6
Continuous
 62
     2
100
AcDbHatch
 10
0.0
 20
0.0
 30
0.0
210
0.0
220
0.0
230
1.0
  2
CUSTOM10
 70
     0
 71
     1
 91
        1
 92
        1
 93
        1
 72
     4
 94
        3
 73
     0
 74
     0
 95
       47
 96
       43
 40
0.0
 40
0.0
 40
0.0
 40
0.0
 40
0.2207912809957521
 40
0.4459404186303151
 40
0.490238719045948
 40
0.5327473892722377
 40
0.5742260451225739
 40
0.6155432630560602
 40
0.6568164066315947
 40
0.6982511618781178
 40
0.740766392931719
 40
0.7851366743175542
 40
1.010288833836361
 40
1.231080507002229
 40
1.451765243652407
 40
1.676638205891698
 40
1.720461045359634
 40
1.830018144043528
 40
1.972442372353135
 40
2.114866600677523
 40
2.224423699395181
 40
2.26824653888341
 40
2.493628801207248
 40
2.715602830286665
 40
2.934211330706396
 40
3.149502369855356
 40
3.231387784851028
 40
3.318231873854091
 40
3.405143198198093
 40
3.486970301720485
 40
3.702258172493915
 40
3.920866283534104
 40
4.142839325931899
 40
4.368221903865408
 40
4.412044743359861
 40
4.52160184209588
 40
4.664026070452383
 40
4.806450298809086
 40
4.916007397546782
 40
4.959830237043111
 40
5.184703515847151
 40
5.405387250767459
 40
5.405387250767459
 40
5.405387250767459
 40
5.405387250767459
 10
87.28500168528905
 20
-149.2107806283733
 10
87.29107290142483
 20
-149.1472602128999
 10
87.30333517014884
 20
-149.0189656510157
 10
87.19472964736573
 20
-148.7431828361714
 10
87.31045754908487
 20
-148.7729637035914
 10
87.35144321032604
 20
-148.7771894752837
 10
87.3933795391763
 20
-148.7817405740159
 10
87.43467862199552
 20
-148.7828252086171
 10
87.47596217098005
 20
-148.7817416559597
 10
87.51787378648926
 20
-148.7771839107985
 10
87.55885731432645
 20
-148.7729707358147
 10
87.67475124377339
 20
-148.7430689247366
 10
87.56382423217013
 20
-149.0214469718131
 10
87.5917445959512
 20
-149.2020136296625
 10
87.57468569412143
 20
-149.4352346144473
 10
87.57572268763482
 20
-149.5957788124805
 10
87.57566889936493
 20
-149.7219968623248
 10
87.57568669667262
 20
-149.8205554045496
 10
87.57567781753254
 20
-149.9520380134823
 10
87.57568535222785
 20
-150.0835165882255
 10
87.57567189993742
 20
-150.1820828109711
 10
87.57571213117362
 20
-150.3084476816704
 10
87.57493359980631
 20
-150.4700243496833
 10
87.59085479135116
 20
-150.7012268189829
 10
87.56760584796523
 20
-150.886101518192
 10
87.67027730386113
 20
-151.1554890102114
 10
87.51628279570814
 20
-151.1182439110538
 10
87.43467193970773
 20
-151.1234650911067
 10
87.35307818868276
 20
-151.1182388341285
 10
87.19911032610877
 20
-151.155474339058
 10
87.30167730161628
 20
-150.8860937392832
 10
87.27846349103336
 20
-150.7012291846578
 10
87.29430342493838
 20
-150.4700228522556
 10
87.29358859076723
 20
-150.308447914827
 10
87.29362541641517
 20
-150.1820827258068
 10
87.29361385945153
 20
-150.0835174715522
 10
87.29361646134588
 20
-149.9520337637397
 10
87.29362381260239
 20
-149.8205695576
 10
87.29360321355966
 20
-149.7219671751587
 10
87.2936671786273
 20
-149.5958835443677
 10
87.29243235418349
 20
-149.4327441240742
 10
87.28746299909905
 20
-149.2843032001365
 10
87.28500168528905
 20
-149.2107806283733
 97
        1
330
B3
 75
     1
 76
     2
 52
45.0
 41
0.1
 77
     0
 78
     1
 53
45.0
 43
0.0
 44
0.0
 45
-0.282842712474619
 46
0.0
 79
     0
 98
        1
 10
0.0
 20
0.0
  0
HATCH
  5
D1
330
48
100
AcDbEntity
  8
1
  6
Continuous
 62
     2
100
AcDbHatch
 10
0.0
 20
0.0
 30
0.0
210
0.0
220
0.0
230
1.0
  2
CUSTOM11
 70
     0
 71
     1
 91
        1
 92
        1
 93
        1
 72
     4
 94
        3
 73
     0
 74
     0
 95
      110
 96
      106
 40
0.0
 40
0.0
 40
0.0
 40
0.0
 40
0.2203406257277412
 40
0.4407808782837972
 40
0.5952494494614524
 40
0.748843165939293
 40
0.902358183130892
 40
1.056801968670405
 40
1.210736449099877
 40
1.36304138653977
 40
1.515315729683111
 40
1.669377239148034
 40
1.72161165275652
 40
1.773199502942943
 40
1.824933793209958
 40
1.877110426487873
 40
1.982682281206607
 40
2.078781667087458
 40
2.172809640822191
 40
2.271937807378803
 40
2.37834993337921
 40
2.494131557736368
 40
2.626681683943503
 40
2.783145050795945
 40
2.890701232940751
 40
2.993130312454627
 40
3.099869730691626
 40
3.220237816691162
 40
3.352695482737422
 40
3.481732806389663
 40
3.593499473690242
 40
3.674323013331679
 40
3.817951711952628
 40
3.946167120793668
 40
4.061405053453354
 40
4.16648079600301
 40
4.262478775059073
 40
4.350736673550988
 40
4.433071991253844
 40
4.511216293814493
 40
4.564262454117844
 40
4.618474415571481
 40
4.670128488754107
 40
4.722296879126319
 40
4.819540945314207
 40
4.931194984128033
 40
5.049996040257706
 40
5.168643755415292
 40
5.28397081176249
 40
5.392260784910301
 40
5.486512254876348
 40
5.559178233949804
 40
5.591425852853472
 40
5.626215969637863
 40
5.667155838674422
 40
5.717449290214229
 40
5.738402360944828
 40
5.784499116553827
 40
5.83059587216476
 40
5.851548942897632
 40
5.873019280661761
 40
5.924217778408287
 40
5.985325662817668
 40
6.03652416056769
 40
6.057994498334234
 40
6.236847789607423
 40
6.381409928945653
 40
6.493190424178676
 40
6.574067534230526
 40
6.691018086205606
 40
6.814881554220538
 40
6.944307823240476
 40
7.071266716066143
 40
7.193488604461934
 40
7.309042773128213
 40
7.414007203170828
 40
7.505140441886566
 40
7.531150360599717
 40
7.559221645322283
 40
7.587202218920961
 40
7.612569159499198
 40
7.662550809481029
 40
7.70287887576414
 40
7.857328205230955
 40
8.010799568088586
 40
8.165256399657565
 40
8.322232698713933
 40
8.479564855016577
 40
8.635216230290823
 40
8.790882550925726
 40
8.948305154947262
 40
9.168271839032919
 40
9.387358980987182
 40
9.608047961033412
 40
9.832914234792675
 40
9.858338694963017
 40
9.925366817229992
 40
10.02013071422758
 40
10.12876249858997
 40
10.23739428295247
 40
10.33215817995188
 40
10.39918630222389
 40
10.42461076239778
 40
10.64992019336937
 40
10.87188524531182
 40
10.87188524531182
 40
10.87188524531182
 40
10.87188524531182
 10
84.54003779708631
 20
-149.2056124339301
 10
84.54354545277862
 20
-149.138680417174
 10
84.55056235819077
 20
-149.0047861187534
 10
84.45406171933175
 20
-148.7193594881973
 10
84.68527243203536
 20
-148.7820011760092
 10
84.82618796514006
 20
-148.774829497352
 10
84.98330073518335
 20
-148.7824862071296
 10
85.13685030215325
 20
-148.7823175150816
 10
85.28876945293261
 20
-148.7830246325577
 10
85.44848044074762
 20
-148.7727434543955
 10
85.57515621953628
 20
-148.7898799271045
 10
85.7713410716325
 20
-148.7175724368406
 10
85.73769848733232
 20
-148.8184380471108
 10
85.73946009114292
 20
-148.8686524984354
 10
85.73699316677038
 20
-148.9177216820473
 10
85.76896665602558
 20
-149.004210129442
 10
85.63529894975008
 20
-148.9548706518285
 10
85.55147982823014
 20
-148.9605386947702
 10
85.4516450733569
 20
-148.9501898708491
 10
85.35291663143906
 20
-148.9439805338011
 10
85.24641223653558
 20
-148.9378673997442
 10
85.12531012923047
 20
-148.9289562030662
 10
85.00459710966989
 20
-148.9396289787881
 10
84.81551434376821
 20
-148.8801600071084
 10
84.84716180995568
 20
-149.0392618371366
 10
84.83381529110784
 20
-149.1364537545129
 10
84.83175480206953
 20
-149.248504386811
 10
84.83007776389161
 20
-149.3678481816185
 10
84.83159263884772
 20
-149.4945191163609
 10
84.82991720729159
 20
-149.6218291577508
 10
84.84014338659028
 20
-149.7203293738673
 10
84.81215961908273
 20
-149.8609580116556
 10
84.98506195935505
 20
-149.8049495265711
 10
85.09876097970165
 20
-149.8176455231269
 10
85.21827412664847
 20
-149.8103612673995
 10
85.32310810193167
 20
-149.8060648673443
 10
85.41856744928572
 20
-149.8015393553223
 10
85.51064131012778
 20
-149.79335302645
 10
85.58191413766839
 20
-149.7984065315309
 10
85.6887521299931
 20
-149.7594807875952
 10
85.65691931922808
 20
-149.8396738178532
 10
85.66087540981754
 20
-149.8892156694517
 10
85.65770919862575
 20
-149.9392702575138
 10
85.68933810848306
 20
-150.0235565617918
 10
85.55527232719369
 20
-149.9705913829604
 10
85.46349123874455
 20
-149.9794442290076
 10
85.3422318783848
 20
-149.9691445382604
 10
85.22567027140167
 20
-149.967355920237
 10
85.1125965340124
 20
-149.966974866815
 10
85.00218359027161
 20
-149.9606905431902
 10
84.92407136620858
 20
-149.9729537053583
 10
84.82562154278887
 20
-149.9403061617508
 10
84.83549447678058
 20
-149.9971475573699
 10
84.83165128386483
 20
-150.0309237323321
 10
84.83093794785133
 20
-150.0736489908179
 10
84.83059592372206
 20
-150.1108289652905
 10
84.83064238495906
 20
-150.1499726642043
 10
84.83062390241719
 20
-150.1876765429352
 10
84.83062930260519
 20
-150.2253954855879
 10
84.83062868084455
 20
-150.2549017904605
 10
84.83062877457904
 20
-150.2861092609189
 10
84.83062938821652
 20
-150.3307007888312
 10
84.83062610935823
 20
-150.3852054728235
 10
84.83063492177261
 20
-150.4297896358975
 10
84.83059492476622
 20
-150.5136669520546
 10
84.83186138644999
 20
-150.6274698311352
 10
84.82928637120872
 20
-150.7765410785749
 10
84.84075989759648
 20
-150.878872999773
 10
84.81660958165084
 20
-151.0114559990537
 10
84.96755835407214
 20
-150.9658877151919
 10
85.07710262658009
 20
-150.9805749162886
 10
85.20765600681656
 20
-150.9756406866614
 10
85.33329018037585
 20
-150.9722679846784
 10
85.45313202198464
 20
-150.9677300629242
 10
85.57339522056714
 20
-150.954359676092
 10
85.65653512577606
 20
-150.9641579100861
 10
85.779867001532
 20
-150.9035828916788
 10
85.75868587982016
 20
-150.9595204365718
 10
85.75785398643617
 20
-150.9854525441885
 10
85.75615533018035
 20
-151.0128724760027
 10
85.75605644830749
 20
-151.0474630858482
 10
85.75462488955753
 20
-151.0843409557043
 10
85.78753937864346
 20
-151.1763766276939
 10
85.58938965823529
 20
-151.1035248781637
 10
85.46431378891359
 20
-151.126587772826
 10
85.30156608894012
 20
-151.1203048180542
 10
85.14719560442461
 20
-151.1222355988128
 10
84.99092600311886
 20
-151.1209074119194
 10
84.83131340595266
 20
-151.1242463130334
 10
84.68829159364819
 20
-151.1121870806296
 10
84.45397344758734
 20
-151.1753250181428
 10
84.55164003454423
 20
-150.8886397632488
 10
84.53494583743036
 20
-150.6949619564854
 10
84.54888863039292
 20
-150.466362609109
 10
84.54855774408782
 20
-150.3109990983615
 10
84.54856677135085
 20
-150.2051816734707
 10
84.54856454705613
 20
-150.1427871966699
 10
84.54856551461343
 20
-150.0526407854287
 10
84.54856550675062
 20
-149.9486333663376
 10
84.54856434553479
 20
-149.844623724159
 10
84.54856805657475
 20
-149.7544826010243
 10
84.54856006452962
 20
-149.6920770069399
 10
84.54859238692636
 20
-149.5861566783007
 10
84.54740303825645
 20
-149.4285778724646
 10
84.54248060835013
 20
-149.2795628396914
 10
84.54003779708631
 20
-149.2056124339301
 97
        1
330
B4
 75
     1
 76
     2
 52
45.0
 41
0.1
 77
     0
 78
     1
 53
45.0
 43
0.0
 44
0.0
 45
-0.282842712474619
 46
0.0
 79
     0
 98
        1
 10
0.0
 20
0.0
  0
HATCH
  5
D2
330
48
100
AcDbEntity
  8
1
  6
Continuous
 62
     2
100
AcDbHatch
 10
0.0
 20
0.0
 30
0.0
210
0.0
220
0.0
230
1.0
  2
CUSTOM12
 70
     0
 71
     1
 91
        1
 92
        1
 93
        1
 72
     4
 94
        3
 73
     0
 74
     0
 95
       95
 96
       91
 40
0.0
 40
0.0
 40
0.0
 40
0.0
 40
0.6550406656911216
 40
1.308087289031901
 40
1.42080373983575
 40
1.566130759770788
 40
1.757067341888423
 40
2.006513545026426
 40
2.087328263121496
 40
2.185328872295622
 40
2.294612454748332
 40
2.408936380534773
 40
2.526802767798529
 40
2.646360524615571
 40
2.762535723971543
 40
2.870057342870111
 40
2.96688344843166
 40
3.050803243518306
 40
3.115818222436557
 40
3.156030057150204
 40
3.213914225080134
 40
3.27668902645049
 40
3.342960320981295
 40
3.404230667150544
 40
3.453822809493329
 40
3.53249982718834
 40
3.634775188507145
 40
3.754909333008107
 40
3.889736761660648
 40
4.035769602175245
 40
4.187256681197599
 40
4.338733685675892
 40
4.488478734676113
 40
4.634708317831556
 40
4.771493189921276
 40
4.892686571561184
 40
5.199775528944397
 40
5.460353566929649
 40
5.667603142345468
 40
5.81472290540445
 40
5.828990806219776
 40
5.855488336304445
 40
5.869756237118777
 40
6.189796507762779
 40
6.531890469872938
 40
6.883053637016936
 40
7.230512024911378
 40
7.566966656764508
 40
7.885203559707299
 40
8.172887439719132
 40
8.418011594062687
 40
8.443926721190575
 40
8.510760470613103
 40
8.602145393795592
 40
8.701714041647005
 40
8.793098965075284
 40
8.859932715057834
 40
8.885847842603464
 40
9.242301256612686
 40
9.589275455016702
 40
9.921808543164047
 40
10.23479624298457
 40
10.29968150889172
 40
10.35323493887757
 40
10.40154625355141
 40
10.46482922477816
 40
10.55973900668396
 40
10.692395459856
 40
10.84920353475659
 40
11.0162632859477
 40
11.1867202436743
 40
11.353725825772
 40
11.50257442292414
 40
11.6186649502328
 40
11.71329869152867
 40
11.82511050573895
 40
11.94464880845703
 40
12.06929242642496
 40
12.19707290435171
 40
12.32562632860517
 40
12.45034565331266
 40
12.56646595170315
 40
12.67099007414623
 40
12.76077625936775
 40
12.82703233506686
 40
12.87429132785985
 40
12.89831990323325
 40
12.92234847860012
 40
13.53984767410319
 40
14.18294284359364
 40
14.18294284359364
 40
14.18294284359364
 40
14.18294284359364
 10
81.94105252422662
 20
-150.2358646558947
 10
81.80946093527962
 20
-150.1221944518796
 10
81.54667833969732
 20
-149.8952000747504
 10
81.0339983035266
 20
-149.052700408349
 10
81.04492441896075
 20
-149.4106112621418
 10
81.03838161222363
 20
-149.5521711151906
 10
81.03706162260174
 20
-149.7506319849192
 10
81.03607071967832
 20
-149.9233420774521
 10
81.03666913462202
 20
-150.0661913053362
 10
81.03815838961273
 20
-150.1621949837784
 10
81.03982731827179
 20
-150.2693900052806
 10
81.04145245488625
 20
-150.3832029227361
 10
81.04350190959315
 20
-150.5004293118661
 10
81.0465755096171
 20
-150.6182809255823
 10
81.0498929291289
 20
-150.7325641647058
 10
81.05361949345243
 20
-150.8396310192392
 10
81.05599277556698
 20
-150.9347709502428
 10
81.06213084826022
 20
-151.019259465855
 10
81.0582374090192
 20
-151.0756141649306
 10
81.07978200373229
 20
-151.1465948131885
 10
81.00235296528629
 20
-151.1158182618671
 10
80.94589428344364
 20
-151.124732612736
 10
80.88830854910526
 20
-151.1158828539292
 10
80.80327530727175
 20
-151.1474627856525
 10
80.83523037406282
 20
-151.0638934779901
 10
80.83332948767843
 20
-150.9960189482289
 10
80.84505496415446
 20
-150.8925124702678
 10
80.85068306472455
 20
-150.7748237817451
 10
80.85804917731862
 20
-150.6409589462678
 10
80.86633492958555
 20
-150.4972035091856
 10
80.8741441491672
 20
-150.3477048094775
 10
80.88001608169023
 20
-150.1969195438912
 10
80.88462574122136
 20
-150.0478455991276
 10
80.88852217117878
 20
-149.9036159062818
 10
80.89133047208087
 20
-149.7690059857818
 10
80.89192883492677
 20
-149.5801488944385
 10
80.89586134613953
 20
-149.3550900947804
 10
80.87847649727435
 20
-149.081174126655
 10
80.91930069368276
 20
-148.916973916926
 10
80.83377428502479
 20
-148.7173484232611
 10
80.90031485019335
 20
-148.7209904538722
 10
80.91813138674758
 20
-148.7207105663034
 10
81.03993913917496
 20
-148.7185157639265
 10
81.14233599297063
 20
-148.9980938506967
 10
81.39226111036015
 20
-149.199214952552
 10
81.62126249253556
 20
-149.4669188880329
 10
81.85877408073537
 20
-149.7183808992883
 10
82.0828680335017
 20
-149.9551452972984
 10
82.30933058772546
 20
-150.2126581120812
 10
82.4668277480759
 20
-150.3283516873427
 10
82.68147192069208
 20
-150.6648735125241
 10
82.67652355688634
 20
-150.5401974969959
 10
82.6776521196793
 20
-150.4815681185546
 10
82.67714674357616
 20
-150.3944084141922
 10
82.6773064752359
 20
-150.3006836060833
 10
82.67726444855634
 20
-150.2146553249416
 10
82.67727916346186
 20
-150.153306118457
 10
82.67722958502284
 20
-150.0034927227021
 10
82.68014011170564
 20
-149.7649489128109
 10
82.66021106354059
 20
-149.399979939225
 10
82.70930235304934
 20
-149.1368487179779
 10
82.55205411034245
 20
-148.7255559884343
 10
82.71047024666666
 20
-148.7808622123946
 10
82.76542700728737
 20
-148.7828481729102
 10
82.81704773609849
 20
-148.7821972554295
 10
82.90557885596111
 20
-148.7411497605296
 10
82.85474878974136
 20
-148.8878817716821
 10
82.86559795245289
 20
-148.9946453183677
 10
82.85086265890918
 20
-149.1539879837708
 10
82.84425660404506
 20
-149.3163144213833
 10
82.83575509941598
 20
-149.484919818988
 10
82.82858167964446
 20
-149.6466968908766
 10
82.82316528096342
 20
-149.7906217233326
 10
82.82143035618937
 20
-149.9104701032428
 10
82.82180302665641
 20
-150.0179840220069
 10
82.82162457205078
 20
-150.1266447914561
 10
82.82196004573852
 20
-150.2453093362567
 10
82.82326302164283
 20
-150.3692934027846
 10
82.825147694582
 20
-150.496262096201
 10
82.82675940490952
 20
-150.6233064224017
 10
82.82839927316759
 20
-150.7462961929902
 10
82.83051603399959
 20
-150.8618357240744
 10
82.83064380166088
 20
-150.9639359983537
 10
82.83491039907989
 20
-151.0547465495304
 10
82.82510296795346
 20
-151.1127088258241
 10
82.84610643659342
 20
-151.1796737365917
 10
82.80682293341421
 20
-151.1719334982451
 10
82.59378967119902
 20
-151.1872924964602
 10
82.39788875374325
 20
-150.6308144569672
 10
82.0953787225789
 20
-150.3692846844268
 10
81.94105252422662
 20
-150.2358646558947
 97
        1
330
B5
 75
     1
 76
     2
 52
45.0
 41
0.1
 77
     0
 78
     1
 53
45.0
 43
0.0
 44
0.0
 45
-0.282842712474619
 46
0.0
 79
     0
 98
        1
 10
0.0
 20
0.0
  0
HATCH
  5
D3
330
48
100
AcDbEntity
  8
1
  6
Continuous
 62
     2
100
AcDbHatch
 10
0.0
 20
0.0
 30
0.0
210
0.0
220
0.0
230
1.0
  2
CUSTOM13
 70
     0
 71
     1
 91
        2
 92
        1
 93
        1
 72
     4
 94
        3
 73
     0
 74
     0
 95
       57
 96
       53
 40
0.0
 40
0.0
 40
0.0
 40
0.0
 40
0.0471632082809354
 40
0.0914861054632254
 40
0.1357762519702347
 40
0.1826527001610926
 40
0.2295203288572835
 40
0.2737751972221147
 40
0.3181310461543581
 40
0.3652607198398445
 40
0.4571007286314157
 40
0.5671851029165002
 40
0.6894623283868005
 40
0.8181758272545672
 40
0.9510087229273609
 40
1.085852229674066
 40
1.218126164475305
 40
1.343545131142366
 40
1.454537202956794
 40
1.567187607530818
 40
1.680710966642451
 40
1.794226869736829
 40
1.9000091842476
 40
2.004085860447894
 40
2.108162674451781
 40
2.214000150155297
 40
2.496038577352166
 40
2.762350745479313
 40
2.997275353279427
 40
3.185110082137738
 40
3.24640789006398
 40
3.312607550212738
 40
3.378877742711611
 40
3.440140399651464
 40
4.100501696006462
 40
4.754913085563453
 40
5.411331693423882
 40
6.077890432568718
 40
6.110575292670997
 40
6.143260152775762
 40
6.367989363395117
 40
6.61052537495151
 40
6.863389136467284
 40
7.119380025547532
 40
7.376036605091056
 40
7.631164770966267
 40
7.876722425456414
 40
8.104953735855927
 40
8.312916685924252
 40
8.497730294941261
 40
8.651018984313792
 40
8.76473885362455
 40
8.76473885362455
 40
8.76473885362455
 40
8.76473885362455
 10
79.42652390947586
 20
-151.1285776417827
 10
79.41092063211761
 20
-151.1265827271212
 10
79.38065375545473
 20
-151.122713024309
 10
79.33535837964979
 20
-151.1214251882394
 10
79.29021427235942
 20
-151.1217582023715
 10
79.24416067176449
 20
-151.1216984511698
 10
79.19830857663413
 20
-151.121586901412
 10
79.15263012424099
 20
-151.1220667033461
 10
79.10934011358533
 20
-151.1202339417248
 10
79.03825375457592
 20
-151.1443494697654
 10
79.04000668556864
 20
-151.0229980981395
 10
78.99287859648155
 20
-150.9375826403997
 10
78.95340678460067
 20
-150.8199757444606
 10
78.90492251268908
 20
-150.7025175125076
 10
78.8543606996767
 20
-150.5807856802969
 10
78.80612242047229
 20
-150.4540853592873
 10
78.74778225418399
 20
-150.3455081600625
 10
78.73234822615066
 20
-150.1886384665679
 10
78.59091759248807
 20
-150.2211105724288
 10
78.4850987009149
 20
-150.2097161510902
 10
78.37011593194669
 20
-150.2109191227659
 10
78.2595731846386
 20
-150.2097755844379
 10
78.15191731170279
 20
-150.2106615375367
 10
78.04639121234877
 20
-150.2106790140068
 10
77.94517822762577
 20
-150.2177047131878
 10
77.76093944219986
 20
-150.1934864393133
 10
77.74999832796561
 20
-150.4974281266931
 10
77.6430281228995
 20
-150.721313265378
 10
77.54407381985916
 20
-150.905891894987
 10
77.55676801182527
 20
-151.14954298987
 10
77.43926813106421
 20
-151.11976457038
 10
77.37646454625553
 20
-151.122264142816
 10
77.31284616876448
 20
-151.1214042868839
 10
77.02886037883205
 20
-151.1638646384925
 10
77.65942280936268
 20
-150.4440255134642
 10
77.74302348833156
 20
-149.9320796435547
 10
78.12718423835847
 20
-149.4113076024117
 10
78.11197978828079
 20
-148.7096487753795
 10
78.35818553169425
 20
-148.7213887070995
 10
78.45989357518067
 20
-148.7125949933843
 10
78.45923416300624
 20
-148.9642485306086
 10
78.57709067500741
 20
-149.1466648305724
 10
78.66581048547302
 20
-149.3892076312833
 10
78.76648820795046
 20
-149.6214447326107
 10
78.86537323064883
 20
-149.8580985922429
 10
78.96422665849138
 20
-150.0902276462111
 10
79.05987559851715
 20
-150.3136228100241
 10
79.15024941675158
 20
-150.5221195474188
 10
79.23325341624347
 20
-150.7117605526188
 10
79.30686781770441
 20
-150.8782139772309
 10
79.36854054897904
 20
-151.0156680416511
 10
79.40920484798491
 20
-151.0948526436116
 10
79.42652390947586
 20
-151.1285776417827
 97
        1
330
B7
 92
       16
 93
        1
 72
     4
 94
        3
 73
     0
 74
     0
 95
       25
 96
       21
 40
0.0
 40
0.0
 40
0.0
 40
0.0
 40
0.0911479969064819
 40
0.1858117896204659
 40
0.2804128399734918
 40
0.3715889190714508
 40
0.4679080494218705
 40
0.5642683809229367
 40
0.6605683222644991
 40
0.756965301581067
 40
0.8561348172523072
 40
1.092615965104331
 40
1.374867658141912
 40
1.611348812011623
 40
1.710518328425274
 40
1.809403163726566
 40
2.045205463294085
 40
2.326646917622122
 40
2.562449217190598
 40
2.661334043833899
 40
2.661334043833899
 40
2.661334043833899
 40
2.661334043833899
 10
77.90262901614443
 20
-150.0586996559391
 10
77.93301155121677
 20
-150.0588642407664
 10
77.99494854833567
 20
-150.0591997510128
 10
78.08839465545753
 20
-150.0621544833919
 10
78.18176848306025
 20
-150.0650675091405
 10
78.27603503477215
 20
-150.0659030214778
 10
78.36975543852118
 20
-150.0648785913315
 10
78.469462989745
 20
-150.0656752632023
 10
78.55315391405577
 20
-150.0556309355597
 10
78.6980585909291
 20
-150.0824988611704
 10
78.5738722039046
 20
-149.9081897351116
 10
78.53084568805272
 20
-149.7483279278511
 10
78.41515117364547
 20
-149.4896604524099
 10
78.3360155025502
 20
-149.3525345092935
 10
78.27741662160615
 20
-149.1354747065713
 10
78.22073935336823
 20
-149.3521836957777
 10
78.13953994947221
 20
-149.4915749135297
 10
78.04062908757336
 20
-149.7407753442101
 10
77.95962146885033
 20
-149.9255867356512
 10
77.91562729200832
 20
-150.0283405693509
 10
77.90262901614443
 20
-150.0586996559391
 97
        1
330
B6
 75
     1
 76
     2
 52
45.0
 41
0.1
 77
     0
 78
     1
 53
45.0
 43
0.0
 44
0.0
 45
-0.282842712474619
 46
0.0
 79
     0
 98
        1
 10
0.0
 20
0.0
  0
HATCH
  5
D4
330
48
100
AcDbEntity
  8
1
  6
Continuous
 62
     2
100
AcDbHatch
 10
0.0
 20
0.0
 30
0.0
210
0.0
220
0.0
230
1.0
  2
CUSTOM14
 70
     0
 71
     1
 91
        1
 92
        1
 93
        1
 72
     4
 94
        3
 73
     0
 74
     0
 95
       99
 96
       95
 40
0.0
 40
0.0
 40
0.0
 40
0.0
 40
0.0796417172272892
 40
0.1621768542356306
 40
0.2486489160957676
 40
0.3404969668524944
 40
0.4381912511165145
 40
0.54344636602452
 40
0.6518115192847558
 40
0.7530190937887465
 40
0.8492196919725732
 40
0.9419290312998762
 40
1.034249663570062
 40
1.129078600620204
 40
1.226697027573279
 40
1.327220425421739
 40
1.470572134938055
 40
1.595489863371277
 40
1.719934125348429
 40
1.850576620127499
 40
1.989059629987356
 40
2.134139054226944
 40
2.280698007207237
 40
2.424529739039518
 40
2.565929576985865
 40
2.708239260773619
 40
2.861717887443716
 40
3.045168540347357
 40
3.183798301138655
 40
3.314813961455515
 40
3.442083470447349
 40
3.569912708372949
 40
3.702177512509373
 40
3.842307559659556
 40
3.992872223245937
 40
4.156750662218354
 40
4.310981861107558
 40
4.445859909322603
 40
4.572393936131602
 40
4.701656719781978
 40
4.768279086008488
 40
4.835960697898411
 40
4.912788918729355
 40
5.006285208481534
 40
5.026909478751667
 40
5.047533749021246
 40
5.101808031471297
 40
5.162325165538572
 40
5.226919745995921
 40
5.294231806596725
 40
5.364544852554868
 40
5.438319055467951
 40
5.517877651324283
 40
5.607647714861578
 40
5.700449642544411
 40
5.788251142364188
 40
5.872714706039838
 40
5.955167292575334
 40
6.037192395190433
 40
6.120669181469139
 40
6.206848616686335
 40
6.296680855416841
 40
6.442558392872616
 40
6.568190371608273
 40
6.692904567360365
 40
6.824220446557189
 40
6.963121850329387
 40
7.107843738851185
 40
7.253431663907293
 40
7.395187468036736
 40
7.533140753237755
 40
7.670550457175291
 40
7.816236511769281
 40
7.987691657359261
 40
8.1422774219693
 40
8.293662615415014
 40
8.442962460879292
 40
8.591598316185333
 40
8.743678992361804
 40
8.903725323699193
 40
9.076307008890534
 40
9.265578604680575
 40
9.459203795360738
 40
9.617619810273542
 40
9.753609671361954
 40
9.874873300004117
 40
9.954520184977785
 40
10.02416413719245
 40
10.09769764405445
 40
10.18909955924975
 40
10.20974586420134
 40
10.2303921826338
 40
10.30057101881267
 40
10.37632012987542
 40
10.37632012987542
 40
10.37632012987542
 40
10.37632012987542
 10
74.78085444300962
 20
-150.806888405752
 10
74.79748074454643
 20
-150.8276389494589
 10
74.8313373800823
 20
-150.8698939207929
 10
74.89424121352806
 20
-150.9245469239913
 10
74.96750905346383
 20
-150.9718547867015
 10
75.0518558832881
 20
-151.0095727235326
 10
75.14748302097053
 20
-151.0344388405925
 10
75.25144433695911
 20
-151.0417494444527
 10
75.35666098146501
 20
-151.0334218099714
 10
75.45492159655788
 20
-151.0033532413968
 10
75.54015760217936
 20
-150.9563568081932
 10
75.61218098003482
 20
-150.8953151254034
 10
75.66935073033416
 20
-150.8207153421262
 10
75.71104583416843
 20
-150.7348203913103
 10
75.73695424405375
 20
-150.6399865335899
 10
75.7460626926898
 20
-150.5262952475283
 10
75.7329454390732
 20
-150.4015191602042
 10
75.66679199286591
 20
-150.2846978461931
 10
75.57119605138143
 20
-150.1997196421382
 10
75.45922706166138
 20
-150.1306781933204
 10
75.33362491775142
 20
-150.0728036174531
 10
75.19992812151017
 20
-150.0211078050686
 10
75.06557124130762
 20
-149.9658541139402
 10
74.93945735811221
 20
-149.8954473314956
 10
74.826916958178
 20
-149.8069896305994
 10
74.73125526587035
 20
-149.6950343592273
 10
74.66767467460708
 20
-149.5453459368982
 10
74.65432960992612
 20
-149.3855170940606
 10
74.66631005816936
 20
-149.2343609848436
 10
74.70548885230862
 20
-149.1067525919966
 10
74.76975773451558
 20
-148.9940362976035
 10
74.85807945939851
 20
-148.8983589452252
 10
74.96806808018727
 20
-148.8213028880544
 10
75.09748739955099
 20
-148.7633310685492
 10
75.24544285620384
 20
-148.7274532620238
 10
75.40246590497317
 20
-148.7173778474064
 10
75.55175300606756
 20
-148.7262086602861
 10
75.69388432084152
 20
-148.7540960445085
 10
75.79385122038707
 20
-148.8107118909006
 10
75.94676643304298
 20
-148.8580990168569
 10
75.87977213114135
 20
-148.9428695079002
 10
75.8639068714514
 20
-149.0104560191771
 10
75.83213401255423
 20
-149.0755841099801
 10
75.84927918038161
 20
-149.1776105053425
 10
75.80090168024772
 20
-149.169912921093
 10
75.76583790350107
 20
-149.176777320664
 10
75.76392875799633
 20
-149.1122067263299
 10
75.7328282526234
 20
-149.0665886416981
 10
75.70071412227006
 20
-149.0092346716275
 10
75.65506280694133
 20
-148.9594404109864
 10
75.60010978126323
 20
-148.9148969007221
 10
75.53534307672527
 20
-148.8772051495465
 10
75.45749669048422
 20
-148.8520112799985
 10
75.36977501475975
 20
-148.8455327279309
 10
75.27954928720521
 20
-148.8524879450561
 10
75.19371842883092
 20
-148.8757531333027
 10
75.11709332328414
 20
-148.9135285968366
 10
75.0507855230446
 20
-148.9643286270163
 10
74.9965150131209
 20
-149.0275336038399
 10
74.95675149397039
 20
-149.1020804808084
 10
74.9319365104833
 20
-149.1856718979344
 10
74.92347138571148
 20
-149.2929155540891
 10
74.93622875813489
 20
-149.4151904652364
 10
75.0024138003518
 20
-149.5333477949998
 10
75.09835669940773
 20
-149.6187817808167
 10
75.21005045574277
 20
-149.6890114148447
 10
75.33534532629474
 20
-149.7482534148589
 10
75.46924135356925
 20
-149.7986779570507
 10
75.60325199273949
 20
-149.8516198680682
 10
75.72934749111603
 20
-149.9173433316602
 10
75.84188062326623
 20
-150.0000415125388
 10
75.93739598784781
 20
-150.1048849748113
 10
76.00152960812078
 20
-150.2454738653963
 10
76.01536933195241
 20
-150.4041909433961
 10
76.00165443064748
 20
-150.5633134857332
 10
75.95873287482301
 20
-150.7100067497199
 10
75.88884959233106
 20
-150.8436470720405
 10
75.79171818080744
 20
-150.9595211609191
 10
75.66903956179026
 20
-151.0539452202111
 10
75.5216998007413
 20
-151.1230523313922
 10
75.351972209137
 20
-151.1653129293235
 10
75.16599945738423
 20
-151.1770276756079
 10
74.98715455204282
 20
-151.1667501710776
 10
74.82243233479886
 20
-151.1251793002205
 10
74.71770004353016
 20
-151.0568686090726
 10
74.56935503846107
 20
-151.0080928475909
 10
74.63229677889734
 20
-150.9150791250036
 10
74.64148640243059
 20
-150.8418796754293
 10
74.66463008954761
 20
-150.7754820928985
 10
74.63771779295622
 20
-150.6750969426362
 10
74.68639285505844
 20
-150.6825047027382
 10
74.72591201749422
 20
-150.6759044017031
 10
74.73387945389464
 20
-150.7540580057227
 10
74.76480265621683
 20
-150.7888357641534
 10
74.78085444300962
 20
-150.806888405752
 97
        1
330
B8
 75
     1
 76
     2
 52
45.0
 41
0.1
 77
     0
 78
     1
 53
45.0
 43
0.0
 44
0.0
 45
-0.282842712474619
 46
0.0
 79
     0
 98
        1
 10
0.0
 20
0.0
  0
ENDBLK
  5
4A
330
48
100
AcDbEntity
  8
0
100
AcDbBlockEnd
  0
BLOCK
  5
4D
330
4B
100
AcDbEntity
  8
0
100
AcDbBlockBegin
  2
開示A4枠
 70
     0
 10
-95.36574104057547
 20
-164.944845037912
 30
0.0
  3
開示A4枠
  1

  0
INSERT
  5
4C
330
4B
100
AcDbEntity
  8
1
100
AcDbBlockReference
  2
開示A4
 10
-95.36574104057547
 20
-164.944845037912
 30
0.0
  0
ENDBLK
  5
4E
330
4B
100
AcDbEntity
  8
0
100
AcDbBlockEnd
  0
BLOCK
  5
50
330
4F
100
AcDbEntity
  8
0
100
AcDbBlockBegin
  2
H70-90-25B
 70
     0
 10
206.4934742673577
 20
-130.7360240603669
 30
0.0
  3
H70-90-25B
  1

  0
LINE
  5
D5
330
4F
100
AcDbEntity
  8
1
  6
Continuous
 62
     7
100
AcDbLine
 10
31.13425895942455
 20
-42.60592694064616
 30
0.0
 11
48.13425895942456
 21
-42.60592694064616
 31
0.0
  0
LINE
  5
D6
330
4F
100
AcDbEntity
  8
1
  6
Continuous
 62
     7
100
AcDbLine
 10
48.13425895942456
 20
-42.60592694064616
 30
0.0
 11
48.13425895942456
 21
-47.60592694064616
 31
0.0
  0
LINE
  5
D7
330
4F
100
AcDbEntity
  8
1
  6
Continuous
 62
     7
100
AcDbLine
 10
48.13425895942456
 20
-47.60592694064616
 30
0.0
 11
38.63425895942455
 21
-47.60592694064616
 31
0.0
  0
LINE
  5
D8
330
4F
100
AcDbEntity
  8
1
  6
Continuous
 62
     7
100
AcDbLine
 10
37.13425895942455
 20
-53.60592694064616
 30
0.0
 11
37.13425895942455
 21
-49.10592694064616
 31
0.0
  0
LINE
  5
D9
330
4F
100
AcDbEntity
  8
1
  6
Continuous
 62
     7
100
AcDbLine
 10
37.13425895942455
 20
-53.60592694064616
 30
0.0
 11
43.13425895942455
 21
-53.60592694064616
 31
0.0
  0
LINE
  5
DA
330
4F
100
AcDbEntity
  8
1
  6
Continuous
 62
     7
100
AcDbLine
 10
43.13425895942455
 20
-53.60592694064616
 30
0.0
 11
43.13425895942455
 21
-55.60592694064616
 31
0.0
  0
LINE
  5
DB
330
4F
100
AcDbEntity
  8
1
  6
Continuous
 62
     7
100
AcDbLine
 10
43.13425895942455
 20
-65.6059269406462
 30
0.0
 11
43.13425895942455
 21
-67.6059269406462
 31
0.0
  0
LINE
  5
DC
330
4F
100
AcDbEntity
  8
1
  6
Continuous
 62
     7
100
AcDbLine
 10
43.13425895942455
 20
-67.6059269406462
 30
0.0
 11
37.13425895942455
 21
-67.6059269406462
 31
0.0
  0
LINE
  5
DD
330
4F
100
AcDbEntity
  8
1
  6
Continuous
 62
     7
100
AcDbLine
 10
37.13425895942455
 20
-67.6059269406462
 30
0.0
 11
37.13425895942455
 21
-70.6059269406462
 31
0.0
  0
LINE
  5
DE
330
4F
100
AcDbEntity
  8
1
  6
Continuous
 62
     7
100
AcDbLine
 10
37.13425895942455
 20
-70.6059269406462
 30
0.0
 11
27.90425895942456
 21
-70.6059269406462
 31
0.0
  0
LINE
  5
DF
330
4F
100
AcDbEntity
  8
1
  6
Continuous
 62
     7
100
AcDbLine
 10
-13.86574104057545
 20
-42.60592694064616
 30
0.0
 11
31.13425895942455
 21
-42.60592694064616
 31
0.0
  0
LINE
  5
E0
330
4F
100
AcDbEntity
  8
1
  6
Continuous
 62
     7
100
AcDbLine
 10
27.90425895942456
 20
-70.6059269406462
 30
0.0
 11
-2.86574104057545
 21
-70.6059269406462
 31
0.0
  0
LINE
  5
E1
330
4F
100
AcDbEntity
  8
1
  6
Continuous
 62
     7
100
AcDbLine
 10
-2.86574104057545
 20
-70.6059269406462
 30
0.0
 11
-2.86574104057545
 21
-67.6059269406462
 31
0.0
  0
LINE
  5
E2
330
4F
100
AcDbEntity
  8
1
  6
Continuous
 62
     7
100
AcDbLine
 10
37.13425895942455
 20
-67.6059269406462
 30
0.0
 11
-8.86574104057545
 21
-67.6059269406462
 31
0.0
  0
LINE
  5
E3
330
4F
100
AcDbEntity
  8
1
  6
Continuous
 62
     7
100
AcDbLine
 10
-8.86574104057545
 20
-67.6059269406462
 30
0.0
 11
-8.86574104057545
 21
-65.6059269406462
 31
0.0
  0
LINE
  5
E4
330
4F
100
AcDbEntity
  8
1
  6
Continuous
 62
     7
100
AcDbLine
 10
-8.86574104057545
 20
-55.60592694064616
 30
0.0
 11
-8.86574104057545
 21
-53.60592694064616
 31
0.0
  0
LINE
  5
E5
330
4F
100
AcDbEntity
  8
1
  6
Continuous
 62
     7
100
AcDbLine
 10
-8.86574104057545
 20
-53.60592694064616
 30
0.0
 11
37.13425895942455
 21
-53.60592694064616
 31
0.0
  0
LINE
  5
E6
330
4F
100
AcDbEntity
  8
1
  6
Continuous
 62
     7
100
AcDbLine
 10
-2.86574104057545
 20
-49.10592694064616
 30
0.0
 11
-2.86574104057545
 21
-53.60592694064616
 31
0.0
  0
LINE
  5
E7
330
4F
100
AcDbEntity
  8
1
  6
Continuous
 62
     7
100
AcDbLine
 10
38.63425895942455
 20
-47.60592694064616
 30
0.0
 11
-13.86574104057545
 21
-47.60592694064616
 31
0.0
  0
LINE
  5
E8
330
4F
100
AcDbEntity
  8
1
  6
Continuous
 62
     7
100
AcDbLine
 10
-13.86574104057545
 20
-47.60592694064616
 30
0.0
 11
-13.86574104057545
 21
-42.60592694064616
 31
0.0
  0
CIRCLE
  5
E9
330
4F
100
AcDbEntity
  8
1
  6
Continuous
 62
     7
100
AcDbCircle
 10
17.13425895942455
 20
17.1647788558934
 30
0.0
 40
31.0196938627593
  0
CIRCLE
  5
EA
330
4F
100
AcDbEntity
  8
1
  6
Continuous
 62
     7
100
AcDbCircle
 10
17.13425895942455
 20
17.1647788558934
 30
0.0
 40
12.5
  0
CIRCLE
  5
EB
330
4F
100
AcDbEntity
  8
1
  6
Continuous
 62
     7
100
AcDbCircle
 10
17.13425895942455
 20
17.1647788558934
 30
0.0
 40
11.9998433953771
  0
ARC
  5
EC
330
4F
100
AcDbEntity
  8
1
  6
Continuous
 62
     7
100
AcDbCircle
 10
38.63425895942455
 20
-49.10592694064616
 30
0.0
 40
1.5
100
AcDbArc
 50
90.0
 51
180.0
  0
ARC
  5
ED
330
4F
100
AcDbEntity
  8
1
  6
Continuous
 62
     7
100
AcDbCircle
 10
-4.36574104057545
 20
-49.10592694064616
 30
0.0
 40
1.5
100
AcDbArc
 50
0.0
 51
90.0
  0
ENDBLK
  5
51
330
4F
100
AcDbEntity
  8
0
100
AcDbBlockEnd
  0
BLOCK
  5
53
330
52
100
AcDbEntity
  8
0
100
AcDbBlockBegin
  2
H70-90-B
 70
     0
 10
69.72747109651831
 20
72.47336246261611
 30
0.0
  3
H70-90-B
  1

  0
LINE
  5
EE
330
52
100
AcDbEntity
  8
1
  6
Continuous
 62
     7
100
AcDbLine
 10
46.13425895942456
 20
-55.60592694064616
 30
0.0
 11
46.13425895942456
 21
-57.60592694064616
 31
0.0
  0
LINE
  5
EF
330
52
100
AcDbEntity
  8
1
  6
Continuous
 62
     7
100
AcDbLine
 10
46.13425895942456
 20
-57.60592694064616
 30
0.0
 11
41.63425895942455
 21
-57.60592694064616
 31
0.0
  0
LINE
  5
F0
330
52
100
AcDbEntity
  8
1
  6
Continuous
 62
     7
100
AcDbLine
 10
41.63425895942455
 20
-57.60592694064616
 30
0.0
 11
41.63425895942455
 21
-63.6059269406462
 31
0.0
  0
LINE
  5
F1
330
52
100
AcDbEntity
  8
1
  6
Continuous
 62
     7
100
AcDbLine
 10
41.63425895942455
 20
-63.6059269406462
 30
0.0
 11
46.13425895942456
 21
-63.6059269406462
 31
0.0
  0
LINE
  5
F2
330
52
100
AcDbEntity
  8
1
  6
Continuous
 62
     7
100
AcDbLine
 10
46.13425895942456
 20
-63.6059269406462
 30
0.0
 11
46.13425895942456
 21
-65.6059269406462
 31
0.0
  0
LINE
  5
F3
330
52
100
AcDbEntity
  8
1
  6
Continuous
 62
     7
100
AcDbLine
 10
46.13425895942456
 20
-65.6059269406462
 30
0.0
 11
37.13425895942455
 21
-65.6059269406462
 31
0.0
  0
LINE
  5
F4
330
52
100
AcDbEntity
  8
1
  6
Continuous
 62
     7
100
AcDbLine
 10
37.13425895942455
 20
-55.60592694064616
 30
0.0
 11
46.13425895942456
 21
-55.60592694064616
 31
0.0
  0
LINE
  5
F5
330
52
100
AcDbEntity
  8
1
  6
Continuous
 62
     7
100
AcDbLine
 10
-11.86574104057545
 20
-55.60592694064616
 30
0.0
 11
37.13425895942455
 21
-55.60592694064616
 31
0.0
  0
LINE
  5
F6
330
52
100
AcDbEntity
  8
1
  6
Continuous
 62
     7
100
AcDbLine
 10
37.13425895942455
 20
-65.6059269406462
 30
0.0
 11
-11.86574104057545
 21
-65.6059269406462
 31
0.0
  0
LINE
  5
F7
330
52
100
AcDbEntity
  8
1
  6
Continuous
 62
     7
100
AcDbLine
 10
-11.86574104057545
 20
-65.6059269406462
 30
0.0
 11
-11.86574104057545
 21
-63.6059269406462
 31
0.0
  0
LINE
  5
F8
330
52
100
AcDbEntity
  8
1
  6
Continuous
 62
     7
100
AcDbLine
 10
-11.86574104057545
 20
-63.6059269406462
 30
0.0
 11
41.63425895942455
 21
-63.6059269406462
 31
0.0
  0
LINE
  5
F9
330
52
100
AcDbEntity
  8
1
  6
Continuous
 62
     7
100
AcDbLine
 10
-7.36574104057545
 20
-63.6059269406462
 30
0.0
 11
-7.36574104057545
 21
-57.60592694064616
 31
0.0
  0
LINE
  5
FA
330
52
100
AcDbEntity
  8
1
  6
Continuous
 62
     7
100
AcDbLine
 10
41.63425895942455
 20
-57.60592694064616
 30
0.0
 11
-11.86574104057545
 21
-57.60592694064616
 31
0.0
  0
LINE
  5
FB
330
52
100
AcDbEntity
  8
1
  6
Continuous
 62
     7
100
AcDbLine
 10
-11.86574104057545
 20
-57.60592694064616
 30
0.0
 11
-11.86574104057545
 21
-55.60592694064616
 31
0.0
  0
ENDBLK
  5
54
330
52
100
AcDbEntity
  8
0
100
AcDbBlockEnd
  0
BLOCK
  5
113
330
10C
100
AcDbEntity
  8
0
100
AcDbBlockBegin
  2
*D5
 70
     1
 10
0.0
 20
0.0
 30
0.0
  3
*D5
  1

  0
LINE
  5
10D
330
10C
100
AcDbEntity
  8
0
  6
Continuous
 62
     2
100
AcDbLine
 10
-11.86574104057545
 20
-85.540848041974
 30
0.0
 11
46.13425895942455
 21
-85.540848041974
 31
0.0
  0
LINE
  5
10E
330
10C
100
AcDbEntity
  8
0
  6
Continuous
 62
     2
100
AcDbLine
 10
46.13425895942455
 20
-65.60592694064616
 30
0.0
 11
46.13425895942455
 21
-87.54084804197399
 31
0.0
  0
LINE
  5
10F
330
10C
100
AcDbEntity
  8
0
  6
Continuous
 62
     2
100
AcDbLine
 10
-11.86574104057545
 20
-65.60592694064616
 30
0.0
 11
-11.86574104057545
 21
-87.54084804197399
 31
0.0
  0
SOLID
  5
110
330
10C
100
AcDbEntity
  8
0
 62
     2
100
AcDbTrace
 10
-8.36574104057545
 20
-85.08006430041812
 30
0.0
 11
-8.36574104057545
 21
-86.00163178352989
 31
0.0
 12
-11.86574104057545
 22
-85.540848041974
 32
0.0
 13
-11.86574104057545
 23
-85.540848041974
 33
0.0
  0
SOLID
  5
111
330
10C
100
AcDbEntity
  8
0
 62
     2
100
AcDbTrace
 10
42.63425895942455
 20
-86.00163178352989
 30
0.0
 11
42.63425895942455
 21
-85.08006430041812
 31
0.0
 12
46.13425895942455
 22
-85.540848041974
 32
0.0
 13
46.13425895942455
 23
-85.540848041974
 33
0.0
  0
MTEXT
  5
112
330
10C
100
AcDbEntity
  8
0
 62
     7
100
AcDbMText
 10
14.56502682142784
 20
-83.54085400518228
 30
0.0
 40
3.0
 41
0.0
 71
     7
 72
     1
  1
\C7;{\Fgdt;n}\C7;58
  7
CONVERTER_12
 11
0.9999999999970619
 21
2.424068405545306E-6
 31
0.0
 73
     1
 44
0.60024009603842
  0
ENDBLK
  5
114
330
10C
100
AcDbEntity
  8
0
100
AcDbBlockEnd
  0
BLOCK
  5
11E
330
117
100
AcDbEntity
  8
0
100
AcDbBlockBegin
  2
*D6
 70
     1
 10
0.0
 20
0.0
 30
0.0
  3
*D6
  1

  0
LINE
  5
118
330
117
100
AcDbEntity
  8
0
  6
Continuous
 62
     2
100
AcDbLine
 10
61.00804068735931
 20
-70.60592694064614
 30
0.0
 11
61.00804068735931
 21
-42.60592694064616
 31
0.0
  0
LINE
  5
119
330
117
100
AcDbEntity
  8
0
  6
Continuous
 62
     2
100
AcDbLine
 10
48.13425895942456
 20
-42.60592694064616
 30
0.0
 11
63.00804068735931
 21
-42.60592694064616
 31
0.0
  0
LINE
  5
11A
330
117
100
AcDbEntity
  8
0
  6
Continuous
 62
     2
100
AcDbLine
 10
37.13425895942456
 20
-70.60592694064614
 30
0.0
 11
63.00804068735931
 21
-70.60592694064614
 31
0.0
  0
SOLID
  5
11B
330
117
100
AcDbEntity
  8
0
 62
     2
100
AcDbTrace
 10
61.4688244289152
 20
-46.10592694064616
 30
0.0
 11
60.54725694580343
 21
-46.10592694064616
 31
0.0
 12
61.00804068735931
 22
-42.60592694064616
 32
0.0
 13
61.00804068735931
 23
-42.60592694064616
 33
0.0
  0
SOLID
  5
11C
330
117
100
AcDbEntity
  8
0
 62
     2
100
AcDbTrace
 10
60.54725694580343
 20
-67.10592694064614
 30
0.0
 11
61.4688244289152
 21
-67.10592694064614
 31
0.0
 12
61.00804068735931
 22
-70.60592694064614
 32
0.0
 13
61.00804068735931
 23
-70.60592694064614
 33
0.0
  0
MTEXT
  5
11D
330
117
100
AcDbEntity
  8
0
 62
     7
100
AcDbMText
 10
59.00804068735931
 20
-57.6835400457099
 30
0.0
 40
3.0
 41
0.0
 71
     7
 72
     1
  1
28
  7
CONVERTER_12
 11
0.0
 21
1.0
 31
0.0
 73
     1
 44
0.60024009603842
  0
ENDBLK
  5
11F
330
117
100
AcDbEntity
  8
0
100
AcDbBlockEnd
  0
BLOCK
  5
129
330
122
100
AcDbEntity
  8
0
100
AcDbBlockBegin
  2
*D7
 70
     1
 10
0.0
 20
0.0
 30
0.0
  3
*D7
  1

  0
LINE
  5
123
330
122
100
AcDbEntity
  8
0
  6
Continuous
 62
     2
100
AcDbLine
 10
-13.86574104057545
 20
-32.60592694064616
 30
0.0
 11
48.13425895942456
 21
-32.60592694064616
 31
0.0
  0
LINE
  5
124
330
122
100
AcDbEntity
  8
0
  6
Continuous
 62
     2
100
AcDbLine
 10
48.13425895942456
 20
-42.60592694064616
 30
0.0
 11
48.13425895942456
 21
-30.60592694064616
 31
0.0
  0
LINE
  5
125
330
122
100
AcDbEntity
  8
0
  6
Continuous
 62
     2
100
AcDbLine
 10
-13.86574104057545
 20
-42.60592694064616
 30
0.0
 11
-13.86574104057545
 21
-30.60592694064616
 31
0.0
  0
SOLID
  5
126
330
122
100
AcDbEntity
  8
0
 62
     2
100
AcDbTrace
 10
-10.36574104057545
 20
-32.14514319909027
 30
0.0
 11
-10.36574104057545
 21
-33.06671068220204
 31
0.0
 12
-13.86574104057545
 22
-32.60592694064616
 32
0.0
 13
-13.86574104057545
 23
-32.60592694064616
 33
0.0
  0
SOLID
  5
127
330
122
100
AcDbEntity
  8
0
 62
     2
100
AcDbTrace
 10
44.63425895942456
 20
-33.06671068220204
 30
0.0
 11
44.63425895942456
 21
-32.14514319909027
 31
0.0
 12
48.13425895942456
 22
-32.60592694064616
 32
0.0
 13
48.13425895942456
 23
-32.60592694064616
 33
0.0
  0
MTEXT
  5
128
330
122
100
AcDbEntity
  8
0
 62
     7
100
AcDbMText
 10
14.02359754940223
 20
-30.60593290385444
 30
0.0
 40
3.0
 41
0.0
 71
     7
 72
     1
  1
\C7;{\Fgdt;n}\C7;62
  7
CONVERTER_12
 11
0.9999999999970619
 21
2.424068405545306E-6
 31
0.0
 73
     1
 44
0.60024009603842
  0
ENDBLK
  5
12A
330
122
100
AcDbEntity
  8
0
100
AcDbBlockEnd
  0
BLOCK
  5
132
330
12D
100
AcDbEntity
  8
0
100
AcDbBlockBegin
  2
*D8
 70
     1
 10
0.0
 20
0.0
 30
0.0
  3
*D8
  1

  0
LINE
  5
12E
330
12D
100
AcDbEntity
  8
1
  6
Continuous
 62
     2
100
AcDbLine
 10
6.58587166965638
 20
10.45795206634102
 30
0.0
 11
53.09597150965197
 21
40.02978850187009
 31
0.0
  0
SOLID
  5
12F
330
12D
100
AcDbEntity
  8
1
 62
     2
100
AcDbTrace
 10
24.9763295474222
 20
21.60485211535032
 30
0.0
 11
24.48186606869305
 21
22.38253617339191
 31
0.0
 12
27.68264624919272
 22
23.87160564544577
 32
0.0
 13
27.68264624919272
 23
23.87160564544577
 33
0.0
  0
SOLID
  5
130
330
12D
100
AcDbEntity
  8
1
 62
     2
100
AcDbTrace
 10
9.2921883714269
 20
12.72470559643648
 30
0.0
 11
9.78665185015605
 21
11.94702153839489
 31
0.0
 12
6.58587166965638
 22
10.45795206634102
 32
0.0
 13
6.58587166965638
 23
10.45795206634102
 33
0.0
  0
MTEXT
  5
131
330
12D
100
AcDbEntity
  8
1
 62
     7
100
AcDbMText
 10
46.14953718038069
 20
37.98316931181022
 30
0.0
 40
3.0
 41
0.0
 71
     7
 72
     1
  1
\C7;{\Fgdt;n}\C7;25
  7
CONVERTER_12
 11
0.8438709831814534
 21
0.5365461431641898
 31
0.0
 73
     1
 44
0.60024009603842
  0
ENDBLK
  5
133
330
12D
100
AcDbEntity
  8
0
100
AcDbBlockEnd
  0
ENDSEC
  0
SECTION
  2
ENTITIES
  0
INSERT
  5
55
330
1F
100
AcDbEntity
  8
0
100
AcDbBlockReference
  2
開示A4枠
 10
-95.36574104057547
 20
-164.944845037912
 30
0.0
  0
INSERT
  5
56
330
1F
100
AcDbEntity
  8
0
100
AcDbBlockReference
  2
H70-90-25B
 10
206.4934742673577
 20
-130.7360240603669
 30
0.0
  0
INSERT
  5
57
330
1F
100
AcDbEntity
  8
0
100
AcDbBlockReference
  2
H70-90-B
 10
69.72747109651831
 20
72.47336246261611
 30
0.0
  0
LINE
  5
FC
330
1F
100
AcDbEntity
  8
1
  6
DASH_CENTER
 62
     2
100
AcDbLine
 10
-15.86574104057545
 20
17.1647788558934
 30
0.0
 11
50.13425895942456
 21
17.1647788558934
 31
0.0
  0
LINE
  5
FD
330
1F
100
AcDbEntity
  8
1
  6
DASH_CENTER
 62
     2
100
AcDbLine
 10
17.13425895942455
 20
50.1647788558934
 30
0.0
 11
17.13425895942455
 21
-15.83522114410659
 31
0.0
  0
LINE
  5
FE
330
1F
100
AcDbEntity
  8
1
  6
DASH_CENTER
 62
     2
100
AcDbLine
 10
17.13425895942455
 20
-39.97279084597159
 30
0.0
 11
17.13425895942455
 21
-73.2390630353207
 31
0.0
  0
MTEXT
  5
100
330
1F
100
AcDbEntity
  8
1
 62
     7
100
AcDbMText
 10
62.13425895942453
 20
-152.444845037912
 30
0.0
 40
2.5
 41
0.0
 71
     5
 72
     1
  1
6
  7
CONVERTER_12
 73
     1
 44
0.7202881152461
  0
MTEXT
  5
101
330
1F
100
AcDbEntity
  8
1
 62
     7
100
AcDbMText
 10
56.38425895942453
 20
-152.444845037912
 30
0.0
 40
2.5
 41
0.0
 71
     5
 72
     1
  1
04
  7
CONVERTER_12
 73
     1
 44
0.7202881152461
  0
MTEXT
  5
102
330
1F
100
AcDbEntity
  8
1
 62
     7
100
AcDbMText
 10
45.13425895942453
 20
-152.444845037912
 30
0.0
 40
2.5
 41
0.0
 71
     5
 72
     1
  1
6
  7
CONVERTER_12
 73
     1
 44
0.7202881152461
  0
MTEXT
  5
103
330
1F
100
AcDbEntity
  8
1
 62
     7
100
AcDbMText
 10
39.38425895942453
 20
-152.444845037912
 30
0.0
 40
2.5
 41
0.0
 71
     5
 72
     1
  1
04
  7
CONVERTER_12
 73
     1
 44
0.7202881152461
  0
MTEXT
  5
104
330
1F
100
AcDbEntity
  8
1
 62
     7
100
AcDbMText
 10
28.13425895942453
 20
-152.444845037912
 30
0.0
 40
2.5
 41
0.0
 71
     5
 72
     1
  1
6
  7
CONVERTER_12
 73
     1
 44
0.7202881152461
  0
MTEXT
  5
105
330
1F
100
AcDbEntity
  8
1
 62
     7
100
AcDbMText
 10
22.38425895942453
 20
-152.444845037912
 30
0.0
 40
2.5
 41
0.0
 71
     5
 72
     1
  1
04
  7
CONVERTER_12
 73
     1
 44
0.7202881152461
  0
MTEXT
  5
106
330
1F
100
AcDbEntity
  8
1
 62
     7
100
AcDbMText
 10
5.38425895942453
 20
-152.444845037912
 30
0.0
 40
2.5
 41
0.0
 71
     5
 72
     1
  1
04
  7
CONVERTER_12
 73
     1
 44
0.7202881152461
  0
MTEXT
  5
107
330
1F
100
AcDbEntity
  8
1
 62
     7
100
AcDbMText
 10
11.13425895942453
 20
-152.444845037912
 30
0.0
 40
2.5
 41
0.0
 71
     5
 72
     1
  1
6
  7
CONVERTER_12
 73
     1
 44
0.7202881152461
  0
MTEXT
  5
108
330
1F
100
AcDbEntity
  8
1
 62
     7
100
AcDbMText
 10
-10.11574104057547
 20
-147.9448450379119
 30
0.0
 40
3.5
 41
0.0
 71
     5
 72
     1
  1
1
  7
CONVERTER_12
 73
     1
 44
0.7202881152461
  0
MTEXT
  5
109
330
1F
100
AcDbEntity
  8
1
 62
     7
100
AcDbMText
 10
-38.36574104057547
 20
-142.1948450379119
 30
0.0
 40
3.5
 41
0.0
 71
     5
 72
     1
  1
クリ－ンパッキン
  7
CONVERTER_11
 73
     1
 44
0.54545454545455
  0
MTEXT
  5
10A
330
1F
100
AcDbEntity
  8
1
 62
     7
100
AcDbMText
 10
-38.36574104057547
 20
-150.6948450379119
 30
0.0
 40
3.5
 41
0.0
 71
     5
 72
     1
  1
H70-90-25B
  7
CONVERTER_12
 73
     1
 44
0.7202881152461
  0
MTEXT
  5
10B
330
1F
100
AcDbEntity
  8
1
 62
     7
100
AcDbMText
 10
-1.61574104057547
 20
-147.9448450379119
 30
0.0
 40
3.5
 41
0.0
 71
     5
 72
     1
  1
1
  7
CONVERTER_12
 73
     1
 44
0.7202881152461
  0
DIMENSION
  5
116
330
1F
100
AcDbEntity
  8
0
100
AcDbDimension
  2
*D5
 10
-11.86574104057545
 20
-85.540848041974
 30
0.0
 11
17.47502682142061
 21
-82.040848041974
 31
0.0
 70
    33
  1
<>
 71
     5
 42
-1.0
 53
0.00013888888889
  3
ME10_DIM_10
100
AcDbAlignedDimension
 13
46.13425895942456
 23
-65.6059269406462
 33
0.0
 14
-11.86574104057545
 24
-65.6059269406462
 34
0.0
  0
DIMENSION
  5
121
330
1F
100
AcDbEntity
  8
0
100
AcDbDimension
  2
*D6
 10
61.00804068735931
 20
-42.60592694064616
 30
0.0
 11
57.50804068735931
 21
-55.4335400457099
 31
0.0
 70
    32
  1
<>
 71
     5
 42
-1.0
 53
90.0
  3
ME10_DIM_11
100
AcDbAlignedDimension
 13
37.13425895942455
 23
-70.6059269406462
 33
0.0
 14
48.13425895942456
 24
-42.60592694064616
 34
0.0
 50
90.0
100
AcDbRotatedDimension
  0
DIMENSION
  5
12C
330
1F
100
AcDbEntity
  8
0
100
AcDbDimension
  2
*D7
 10
-13.86574104057545
 20
-32.60592694064616
 30
0.0
 11
16.933597549395
 21
-29.10592694064616
 31
0.0
 70
    33
  1
<>
 71
     5
 42
-1.0
 53
0.00013888888889
  3
ME10_DIM_12
100
AcDbAlignedDimension
 13
48.13425895942456
 23
-42.60592694064616
 33
0.0
 14
-13.86574104057545
 24
-42.60592694064616
 34
0.0
  0
INSERT
  5
134
330
1F
100
AcDbEntity
  8
1
100
AcDbBlockReference
  2
*D8
 10
0.0
 20
0.0
 30
0.0
  0
ENDSEC
  0
SECTION
  2
OBJECTS
  0
DICTIONARY
  5
C
330
0
100
AcDbDictionary
281
     1
  3
ACAD_GROUP
350
D
  3
ACAD_LAYOUT
350
1A
  3
ACAD_MATERIAL
350
3B
  3
ACAD_MLEADERSTYLE
350
137
  3
ACAD_MLINESTYLE
350
17
  3
ACAD_PLOTSETTINGS
350
19
  3
ACAD_PLOTSTYLENAME
350
E
  3
ACAD_VISUALSTYLE
350
2A
  3
AcDbVariableDictionary
350
135
  0
DICTIONARY
  5
D
102
{ACAD_REACTORS
330
C
102
}
330
C
100
AcDbDictionary
281
     1
  0
DICTIONARY
  5
1A
102
{ACAD_REACTORS
330
C
102
}
330
C
100
AcDbDictionary
281
     1
  3
Layout1
350
1E
  3
Layout2
350
26
  3
Model
350
22
  0
DICTIONARY
  5
3B
102
{ACAD_REACTORS
330
C
102
}
330
C
100
AcDbDictionary
281
     1
  3
ByBlock
350
3D
  3
ByLayer
350
3C
  3
Global
350
3E
  0
DICTIONARY
  5
137
102
{ACAD_REACTORS
330
C
102
}
330
C
100
AcDbDictionary
281
     1
  0
DICTIONARY
  5
17
102
{ACAD_REACTORS
330
C
102
}
330
C
100
AcDbDictionary
281
     1
  3
Standard
350
18
  0
DICTIONARY
  5
19
102
{ACAD_REACTORS
330
C
102
}
330
C
100
AcDbDictionary
281
     1
  0
ACDBDICTIONARYWDFLT
  5
E
102
{ACAD_REACTORS
330
C
102
}
330
C
100
AcDbDictionary
281
     1
  3
Normal
350
F
100
AcDbDictionaryWithDefault
340
F
  0
DICTIONARY
  5
2A
102
{ACAD_REACTORS
330
C
102
}
330
C
100
AcDbDictionary
281
     1
  3
2dWireframe
350
2F
  3
3D Hidden
350
31
  3
3dWireframe
350
30
  3
Basic
350
32
  3
Brighten
350
36
  3
ColorChange
350
3A
  3
Conceptual
350
34
  3
Dim
350
35
  3
Facepattern
350
39
  3
Flat
350
2B
  3
FlatWithEdges
350
2C
  3
Gouraud
350
2D
  3
GouraudWithEdges
350
2E
  3
Linepattern
350
38
  3
Realistic
350
33
  3
Thicken
350
37
  0
DICTIONARY
  5
135
102
{ACAD_REACTORS
330
C
102
}
330
C
100
AcDbDictionary
281
     1
  3
DIMASSOC
350
138
  3
HIDETEXT
350
139
  0
LAYOUT
  5
1E
102
{ACAD_REACTORS
330
1A
102
}
330
1A
100
AcDbPlotSettings
  1

  2
none_device
  4

  6

 40
0.0
 41
0.0
 42
0.0
 43
0.0
 44
0.0
 45
0.0
 46
0.0
 47
0.0
 48
0.0
 49
0.0
140
0.0
141
0.0
142
1.0
143
1.0
 70
   688
 72
     0
 73
     0
 74
     5
  7

 75
    16
147
1.0
148
0.0
149
0.0
100
AcDbLayout
  1
Layout1
 70
     1
 71
     1
 10
0.0
 20
0.0
 11
12.0
 21
9.0
 12
0.0
 22
0.0
 32
0.0
 14
1.00000000000000E+20
 24
1.00000000000000E+20
 34
1.00000000000000E+20
 15
-1.00000000000000E+20
 25
-1.00000000000000E+20
 35
-1.00000000000000E+20
146
0.0
 13
0.0
 23
0.0
 33
0.0
 16
1.0
 26
0.0
 36
0.0
 17
0.0
 27
1.0
 37
0.0
 76
     0
330
1B
  0
LAYOUT
  5
26
102
{ACAD_REACTORS
330
1A
102
}
330
1A
100
AcDbPlotSettings
  1

  2
none_device
  4

  6

 40
0.0
 41
0.0
 42
0.0
 43
0.0
 44
0.0
 45
0.0
 46
0.0
 47
0.0
 48
0.0
 49
0.0
140
0.0
141
0.0
142
1.0
143
1.0
 70
   688
 72
     0
 73
     0
 74
     5
  7

 75
    16
147
1.0
148
0.0
149
0.0
100
AcDbLayout
  1
Layout2
 70
     1
 71
     2
 10
0.0
 20
0.0
 11
0.0
 21
0.0
 12
0.0
 22
0.0
 32
0.0
 14
0.0
 24
0.0
 34
0.0
 15
0.0
 25
0.0
 35
0.0
146
0.0
 13
0.0
 23
0.0
 33
0.0
 16
1.0
 26
0.0
 36
0.0
 17
0.0
 27
1.0
 37
0.0
 76
     0
330
23
  0
LAYOUT
  5
22
102
{ACAD_REACTORS
330
1A
102
}
330
1A
100
AcDbPlotSettings
  1

  2
none_device
  4

  6

 40
0.0
 41
0.0
 42
0.0
 43
0.0
 44
0.0
 45
0.0
 46
0.0
 47
0.0
 48
0.0
 49
0.0
140
0.0
141
0.0
142
1.0
143
1.0
 70
  1712
 72
     0
 73
     0
 74
     0
  7

 75
     0
147
1.0
148
0.0
149
0.0
100
AcDbLayout
  1
Model
 70
     1
 71
     0
 10
0.0
 20
0.0
 11
12.0
 21
9.0
 12
0.0
 22
0.0
 32
0.0
 14
-95.36574104057547
 24
-164.944845037912
 34
0.0
 15
114.6342589594245
 25
132.055154962088
 35
0.0
146
0.0
 13
0.0
 23
0.0
 33
0.0
 16
1.0
 26
0.0
 36
0.0
 17
0.0
 27
1.0
 37
0.0
 76
     0
330
1F
331
29
  0
MATERIAL
  5
3D
102
{ACAD_REACTORS
330
3B
102
}
102
{ACAD_XDICTIONARY
360
15C
102
}
330
3B
100
AcDbMaterial
  1
ByBlock
  0
MATERIAL
  5
3C
102
{ACAD_REACTORS
330
3B
102
}
102
{ACAD_XDICTIONARY
360
15A
102
}
330
3B
100
AcDbMaterial
  1
ByLayer
  0
MATERIAL
  5
3E
102
{ACAD_REACTORS
330
3B
102
}
102
{ACAD_XDICTIONARY
360
15E
102
}
330
3B
100
AcDbMaterial
  1
Global
  0
MLINESTYLE
  5
18
102
{ACAD_REACTORS
330
17
102
}
330
17
100
AcDbMlineStyle
  2
Standard
 70
     0
  3

 62
   256
 51
90.0
 52
90.0
 71
     2
 49
0.5
 62
   256
  6
BYLAYER
 49
-0.5
 62
   256
  6
BYLAYER
  0
ACDBPLACEHOLDER
  5
F
102
{ACAD_REACTORS
330
E
102
}
330
E
  0
VISUALSTYLE
  5
2F
102
{ACAD_REACTORS
330
2A
102
}
102
{ACAD_XDICTIONARY
360
142
102
}
330
2A
100
AcDbVisualStyle
  2
2dWireframe
 70
     4
 71
     0
 72
     2
 73
     0
 90
        0
 40
-0.6
 41
-30.0
 62
     5
 63
     7
 74
     1
 91
        4
 64
     7
 65
   257
 75
     1
175
     1
 42
1.0
 92
        0
 66
   257
 43
1.0
 76
     1
 77
     6
 78
     2
 67
     7
 79
     5
170
     0
171
     0
290
     0
174
     0
 93
        1
 44
0.0
173
     0
291
     0
 45
0.0
1001
ACAD
1000
AcDbSavedByObjectVersion
1070
     0
  0
VISUALSTYLE
  5
31
102
{ACAD_REACTORS
330
2A
102
}
102
{ACAD_XDICTIONARY
360
146
102
}
330
2A
100
AcDbVisualStyle
  2
3D Hidden
 70
     6
 71
     1
 72
     2
 73
     2
 90
        0
 40
-0.6
 41
-30.0
 62
     5
 63
     7
 74
     2
 91
        2
 64
     7
 65
   257
 75
     2
175
     1
 42
40.0
 92
        0
 66
   257
 43
1.0
 76
     1
 77
     6
 78
     2
 67
     7
 79
     3
170
     0
171
     0
290
     0
174
     0
 93
        1
 44
0.0
173
     0
291
     0
 45
0.0
1001
ACAD
1000
AcDbSavedByObjectVersion
1070
     0
  0
VISUALSTYLE
  5
30
102
{ACAD_REACTORS
330
2A
102
}
102
{ACAD_XDICTIONARY
360
144
102
}
330
2A
100
AcDbVisualStyle
  2
3dWireframe
 70
     5
 71
     0
 72
     2
 73
     0
 90
        0
 40
-0.6
 41
-30.0
 62
     5
 63
     7
 74
     1
 91
        4
 64
     7
 65
   257
 75
     1
175
     1
 42
1.0
 92
        0
 66
   257
 43
1.0
 76
     1
 77
     6
 78
     2
 67
     7
 79
     5
170
     0
171
     0
290
     0
174
     0
 93
        1
 44
0.0
173
     0
291
     0
 45
0.0
1001
ACAD
1000
AcDbSavedByObjectVersion
1070
     0
  0
VISUALSTYLE
  5
32
102
{ACAD_REACTORS
330
2A
102
}
102
{ACAD_XDICTIONARY
360
148
102
}
330
2A
100
AcDbVisualStyle
  2
Basic
 70
     7
 71
     1
 72
     0
 73
     1
 90
        0
 40
-0.6
 41
-30.0
 62
     5
 63
     7
 74
     0
 91
        4
 64
     7
 65
   257
 75
     1
175
     1
 42
1.0
 92
        8
 66
     7
 43
1.0
 76
     1
 77
     6
 78
     2
 67
     7
 79
     5
170
     0
171
     0
290
     0
174
     0
 93
        1
 44
0.0
173
     0
291
     1
 45
0.0
1001
ACAD
1000
AcDbSavedByObjectVersion
1070
     0
  0
VISUALSTYLE
  5
36
102
{ACAD_REACTORS
330
2A
102
}
102
{ACAD_XDICTIONARY
360
150
102
}
330
2A
100
AcDbVisualStyle
  2
Brighten
 70
    12
 71
     2
 72
     2
 73
     0
 90
        0
 40
-0.6
 41
-30.0
 62
     5
 63
     7
 74
     1
 91
        4
 64
     7
 65
   257
 75
     1
175
     1
 42
1.0
 92
        8
 66
     7
 43
1.0
 76
     1
 77
     6
 78
     2
 67
     7
 79
     5
170
     0
171
     0
290
     0
174
     0
 93
        1
 44
50.0
173
     0
291
     1
 45
0.0
1001
ACAD
1000
AcDbSavedByObjectVersion
1070
     0
  0
VISUALSTYLE
  5
3A
102
{ACAD_REACTORS
330
2A
102
}
102
{ACAD_XDICTIONARY
360
158
102
}
330
2A
100
AcDbVisualStyle
  2
ColorChange
 70
    16
 71
     2
 72
     2
 73
     3
 90
        0
 40
-0.6
 41
-30.0
 62
     5
 63
     8
 74
     1
 91
        4
 64
     7
 65
   257
 75
     1
175
     1
 42
1.0
 92
        8
 66
     8
 43
1.0
 76
     1
 77
     6
 78
     2
 67
     7
 79
     5
170
     0
171
     0
290
     0
174
     0
 93
        1
 44
0.0
173
     0
291
     1
 45
0.0
1001
ACAD
1000
AcDbSavedByObjectVersion
1070
     0
  0
VISUALSTYLE
  5
34
102
{ACAD_REACTORS
330
2A
102
}
102
{ACAD_XDICTIONARY
360
14C
102
}
330
2A
100
AcDbVisualStyle
  2
Conceptual
 70
     9
 71
     3
 72
     2
 73
     0
 90
        0
 40
-0.6
 41
-30.0
 62
     5
 63
     7
 74
     2
 91
        2
 64
     7
 65
   257
 75
     1
175
     1
 42
40.0
 92
        8
 66
     7
 43
1.0
 76
     1
 77
     6
 78
     2
 67
     7
 79
     3
170
     0
171
     0
290
     0
174
     0
 93
        1
 44
0.0
173
     0
291
     0
 45
0.0
1001
ACAD
1000
AcDbSavedByObjectVersion
1070
     0
  0
VISUALSTYLE
  5
35
102
{ACAD_REACTORS
330
2A
102
}
102
{ACAD_XDICTIONARY
360
14E
102
}
330
2A
100
AcDbVisualStyle
  2
Dim
 70
    11
 71
     2
 72
     2
 73
     0
 90
        0
 40
-0.6
 41
-30.0
 62
     5
 63
     7
 74
     1
 91
        4
 64
     7
 65
   257
 75
     1
175
     1
 42
1.0
 92
        8
 66
     7
 43
1.0
 76
     1
 77
     6
 78
     2
 67
     7
 79
     5
170
     0
171
     0
290
     0
174
     0
 93
        1
 44
-50.0
173
     0
291
     1
 45
0.0
1001
ACAD
1000
AcDbSavedByObjectVersion
1070
     0
  0
VISUALSTYLE
  5
39
102
{ACAD_REACTORS
330
2A
102
}
102
{ACAD_XDICTIONARY
360
156
102
}
330
2A
100
AcDbVisualStyle
  2
Facepattern
 70
    15
 71
     2
 72
     2
 73
     0
 90
        0
 40
-0.6
 41
-30.0
 62
     5
 63
     7
 74
     1
 91
        4
 64
     7
 65
   257
 75
     1
175
     1
 42
1.0
 92
        8
 66
     7
 43
1.0
 76
     1
 77
     6
 78
     2
 67
     7
 79
     5
170
     0
171
     0
290
     0
174
     0
 93
        1
 44
0.0
173
     0
291
     1
 45
0.0
1001
ACAD
1000
AcDbSavedByObjectVersion
1070
     0
  0
VISUALSTYLE
  5
2B
102
{ACAD_REACTORS
330
2A
102
}
102
{ACAD_XDICTIONARY
360
13A
102
}
330
2A
100
AcDbVisualStyle
  2
Flat
 70
     0
 71
     2
 72
     1
 73
     1
 90
        2
 40
-0.6
 41
30.0
 62
     5
 63
     7
 74
     0
 91
        4
 64
     7
 65
   257
 75
     1
175
     1
 42
1.0
 92
        8
 66
     7
 43
1.0
 76
     1
 77
     6
 78
     2
 67
     7
 79
     5
170
     0
171
     0
290
     0
174
     0
 93
       13
 44
0.0
173
     0
291
     1
 45
0.0
1001
ACAD
1000
AcDbSavedByObjectVersion
1070
     0
  0
VISUALSTYLE
  5
2C
102
{ACAD_REACTORS
330
2A
102
}
102
{ACAD_XDICTIONARY
360
13C
102
}
330
2A
100
AcDbVisualStyle
  2
FlatWithEdges
 70
     1
 71
     2
 72
     1
 73
     1
 90
        2
 40
-0.6
 41
30.0
 62
     5
 63
     7
 74
     1
 91
        4
 64
     7
 65
   257
 75
     1
175
     1
 42
1.0
 92
        0
 66
   257
 43
1.0
 76
     1
 77
     6
 78
     2
 67
     7
 79
     5
170
     0
171
     0
290
     0
174
     0
 93
       13
 44
0.0
173
     0
291
     1
 45
0.0
1001
ACAD
1000
AcDbSavedByObjectVersion
1070
     0
  0
VISUALSTYLE
  5
2D
102
{ACAD_REACTORS
330
2A
102
}
102
{ACAD_XDICTIONARY
360
13E
102
}
330
2A
100
AcDbVisualStyle
  2
Gouraud
 70
     2
 71
     2
 72
     2
 73
     1
 90
        2
 40
-0.6
 41
30.0
 62
     5
 63
     7
 74
     0
 91
        4
 64
     7
 65
   257
 75
     1
175
     1
 42
1.0
 92
        0
 66
     7
 43
1.0
 76
     1
 77
     6
 78
     2
 67
     7
 79
     5
170
     0
171
     0
290
     0
174
     0
 93
       13
 44
0.0
173
     0
291
     1
 45
0.0
1001
ACAD
1000
AcDbSavedByObjectVersion
1070
     0
  0
VISUALSTYLE
  5
2E
102
{ACAD_REACTORS
330
2A
102
}
102
{ACAD_XDICTIONARY
360
140
102
}
330
2A
100
AcDbVisualStyle
  2
GouraudWithEdges
 70
     3
 71
     2
 72
     2
 73
     1
 90
        2
 40
-0.6
 41
30.0
 62
     5
 63
     7
 74
     1
 91
        4
 64
     7
 65
   257
 75
     1
175
     1
 42
1.0
 92
        0
 66
   257
 43
1.0
 76
     1
 77
     6
 78
     2
 67
     7
 79
     5
170
     0
171
     0
290
     0
174
     0
 93
       13
 44
0.0
173
     0
291
     1
 45
0.0
1001
ACAD
1000
AcDbSavedByObjectVersion
1070
     0
  0
VISUALSTYLE
  5
38
102
{ACAD_REACTORS
330
2A
102
}
102
{ACAD_XDICTIONARY
360
154
102
}
330
2A
100
AcDbVisualStyle
  2
Linepattern
 70
    14
 71
     2
 72
     2
 73
     0
 90
        0
 40
-0.6
 41
-30.0
 62
     5
 63
     7
 74
     1
 91
        4
 64
     7
 65
   257
 75
     7
175
     7
 42
1.0
 92
        8
 66
     7
 43
1.0
 76
     1
 77
     6
 78
     2
 67
     7
 79
     5
170
     0
171
     0
290
     0
174
     0
 93
        1
 44
0.0
173
     0
291
     1
 45
0.0
1001
ACAD
1000
AcDbSavedByObjectVersion
1070
     0
  0
VISUALSTYLE
  5
33
102
{ACAD_REACTORS
330
2A
102
}
102
{ACAD_XDICTIONARY
360
14A
102
}
330
2A
100
AcDbVisualStyle
  2
Realistic
 70
     8
 71
     2
 72
     2
 73
     0
 90
        0
 40
-0.6
 41
-30.0
 62
     5
 63
     7
 74
     1
 91
        0
 64
     7
 65
   257
 75
     1
175
     1
 42
1.0
 92
        8
 66
     8
 43
1.0
 76
     1
 77
     6
 78
     2
 67
     7
 79
     5
170
     0
171
     0
290
     0
174
     0
 93
       13
 44
0.0
173
     0
291
     0
 45
0.0
1001
ACAD
1000
AcDbSavedByObjectVersion
1070
     0
  0
VISUALSTYLE
  5
37
102
{ACAD_REACTORS
330
2A
102
}
102
{ACAD_XDICTIONARY
360
152
102
}
330
2A
100
AcDbVisualStyle
  2
Thicken
 70
    13
 71
     2
 72
     2
 73
     0
 90
        0
 40
-0.6
 41
-30.0
 62
     5
 63
     7
 74
     1
 91
        4
 64
     7
 65
   257
 75
     1
175
     1
 42
1.0
 92
       12
 66
     7
 43
1.0
 76
     1
 77
     6
 78
     2
 67
     7
 79
     5
170
     0
171
     0
290
     0
174
     0
 93
        1
 44
0.0
173
     0
291
     1
 45
0.0
1001
ACAD
1000
AcDbSavedByObjectVersion
1070
     0
  0
DICTIONARYVAR
  5
138
102
{ACAD_REACTORS
330
135
102
}
330
135
100
DictionaryVariables
280
     0
  1
2
  0
DICTIONARYVAR
  5
139
102
{ACAD_REACTORS
330
135
102
}
330
135
100
DictionaryVariables
280
     0
  1
1
  0
DICTIONARY
  5
15C
330
3D
100
AcDbDictionary
280
     1
281
     1
  3
ACAD_XREC_ROUNDTRIP
360
15D
  0
DICTIONARY
  5
15A
330
3C
100
AcDbDictionary
280
     1
281
     1
  3
ACAD_XREC_ROUNDTRIP
360
15B
  0
DICTIONARY
  5
15E
330
3E
100
AcDbDictionary
280
     1
281
     1
  3
ACAD_XREC_ROUNDTRIP
360
15F
  0
DICTIONARY
  5
142
330
2F
100
AcDbDictionary
280
     1
281
     1
  3
ACAD_XREC_ROUNDTRIP
360
143
  0
DICTIONARY
  5
146
330
31
100
AcDbDictionary
280
     1
281
     1
  3
ACAD_XREC_ROUNDTRIP
360
147
  0
DICTIONARY
  5
144
330
30
100
AcDbDictionary
280
     1
281
     1
  3
ACAD_XREC_ROUNDTRIP
360
145
  0
DICTIONARY
  5
148
330
32
100
AcDbDictionary
280
     1
281
     1
  3
ACAD_XREC_ROUNDTRIP
360
149
  0
DICTIONARY
  5
150
330
36
100
AcDbDictionary
280
     1
281
     1
  3
ACAD_XREC_ROUNDTRIP
360
151
  0
DICTIONARY
  5
158
330
3A
100
AcDbDictionary
280
     1
281
     1
  3
ACAD_XREC_ROUNDTRIP
360
159
  0
DICTIONARY
  5
14C
330
34
100
AcDbDictionary
280
     1
281
     1
  3
ACAD_XREC_ROUNDTRIP
360
14D
  0
DICTIONARY
  5
14E
330
35
100
AcDbDictionary
280
     1
281
     1
  3
ACAD_XREC_ROUNDTRIP
360
14F
  0
DICTIONARY
  5
156
330
39
100
AcDbDictionary
280
     1
281
     1
  3
ACAD_XREC_ROUNDTRIP
360
157
  0
DICTIONARY
  5
13A
330
2B
100
AcDbDictionary
280
     1
281
     1
  3
ACAD_XREC_ROUNDTRIP
360
13B
  0
DICTIONARY
  5
13C
330
2C
100
AcDbDictionary
280
     1
281
     1
  3
ACAD_XREC_ROUNDTRIP
360
13D
  0
DICTIONARY
  5
13E
330
2D
100
AcDbDictionary
280
     1
281
     1
  3
ACAD_XREC_ROUNDTRIP
360
13F
  0
DICTIONARY
  5
140
330
2E
100
AcDbDictionary
280
     1
281
     1
  3
ACAD_XREC_ROUNDTRIP
360
141
  0
DICTIONARY
  5
154
330
38
100
AcDbDictionary
280
     1
281
     1
  3
ACAD_XREC_ROUNDTRIP
360
155
  0
DICTIONARY
  5
14A
330
33
100
AcDbDictionary
280
     1
281
     1
  3
ACAD_XREC_ROUNDTRIP
360
14B
  0
DICTIONARY
  5
152
330
37
100
AcDbDictionary
280
     1
281
     1
  3
ACAD_XREC_ROUNDTRIP
360
153
  0
XRECORD
  5
15D
102
{ACAD_REACTORS
330
15C
102
}
330
15C
100
AcDbXrecord
280
     1
102
MATERIAL
148
0.0
149
0.0
149
0.0
 93
        0
 94
      127
282
     0
 72
     1
 77
     1
171
     1
175
     1
179
     1
273
     0
  0
XRECORD
  5
15B
102
{ACAD_REACTORS
330
15A
102
}
330
15A
100
AcDbXrecord
280
     1
102
MATERIAL
148
0.0
149
0.0
149
0.0
 93
        0
 94
      127
282
     0
 72
     1
 77
     1
171
     1
175
     1
179
     1
273
     0
  0
XRECORD
  5
15F
102
{ACAD_REACTORS
330
15E
102
}
330
15E
100
AcDbXrecord
280
     1
102
MATERIAL
148
0.0
149
0.0
149
0.0
 93
        0
 94
      127
282
     0
 72
     1
 77
     1
171
     1
175
     1
179
     1
273
     0
  0
XRECORD
  5
143
102
{ACAD_REACTORS
330
142
102
}
330
142
100
AcDbXrecord
280
     1
102
RTVSPropertyOp0
 70
     1
102
RTVSPropertyOp1
 70
     1
102
RTVSPropertyOp2
 70
     1
102
RTVSPropertyOp3
 70
     1
102
RTVSPropertyOp4
 70
     1
102
RTVSPropertyOp5
 70
     1
102
RTVSPropertyOp6
 70
     1
102
RTVSPropertyOp7
 70
     1
102
RTVSPropertyOp8
 70
     1
102
RTVSPropertyOp9
 70
     1
102
RTVSPropertyOp10
 70
     1
102
RTVSPropertyOp11
 70
     1
102
RTVSPropertyOp12
 70
     1
102
RTVSPropertyOp13
 70
     1
102
RTVSPropertyOp14
 70
     1
102
RTVSPropertyOp15
 70
     1
102
RTVSPropertyOp16
 70
     1
102
RTVSPropertyOp17
 70
     1
102
RTVSPropertyOp18
 70
     1
102
RTVSPropertyOp19
 70
     1
102
RTVSPropertyOp20
 70
     1
102
RTVSPropertyOp21
 70
     1
102
RTVSPropertyOp22
 70
     1
102
RTVSPropertyOp23
 70
     1
102
RTVSPropertyOp24
 70
     1
102
RTVSPropertyOp25
 70
     1
102
RTVSPropertyOp26
 70
     1
102
RTVSPropertyOp27
 70
     1
102
RTVSPropertyOp28
 70
     1
102
RTVSPropertyOp29
 70
     1
102
RTVSPropertyOp30
 70
     1
102
RTVSPropertyOp31
 70
     1
102
RTVSPropertyOp32
 70
     1
  0
XRECORD
  5
147
102
{ACAD_REACTORS
330
146
102
}
330
146
100
AcDbXrecord
280
     1
102
RTVSPropertyOp0
 70
     1
102
RTVSPropertyOp1
 70
     1
102
RTVSPropertyOp2
 70
     1
102
RTVSPropertyOp3
 70
     1
102
RTVSPropertyOp4
 70
     1
102
RTVSPropertyOp5
 70
     1
102
RTVSPropertyOp6
 70
     1
102
RTVSPropertyOp7
 70
     1
102
RTVSPropertyOp8
 70
     1
102
RTVSPropertyOp9
 70
     1
102
RTVSPropertyOp10
 70
     1
102
RTVSPropertyOp11
 70
     1
102
RTVSPropertyOp12
 70
     1
102
RTVSPropertyOp13
 70
     1
102
RTVSPropertyOp14
 70
     1
102
RTVSPropertyOp15
 70
     1
102
RTVSPropertyOp16
 70
     1
102
RTVSPropertyOp17
 70
     1
102
RTVSPropertyOp18
 70
     1
102
RTVSPropertyOp19
 70
     1
102
RTVSPropertyOp20
 70
     1
102
RTVSPropertyOp21
 70
     1
102
RTVSPropertyOp22
 70
     1
102
RTVSPropertyOp23
 70
     1
102
RTVSPropertyOp24
 70
     1
102
RTVSPropertyOp25
 70
     1
102
RTVSPropertyOp26
 70
     1
102
RTVSPropertyOp27
 70
     1
102
RTVSPropertyOp28
 70
     1
102
RTVSPropertyOp29
 70
     1
102
RTVSPropertyOp30
 70
     1
102
RTVSPropertyOp31
 70
     1
102
RTVSPropertyOp32
 70
     1
  0
XRECORD
  5
145
102
{ACAD_REACTORS
330
144
102
}
330
144
100
AcDbXrecord
280
     1
102
RTVSPropertyOp0
 70
     1
102
RTVSPropertyOp1
 70
     1
102
RTVSPropertyOp2
 70
     1
102
RTVSPropertyOp3
 70
     1
102
RTVSPropertyOp4
 70
     1
102
RTVSPropertyOp5
 70
     1
102
RTVSPropertyOp6
 70
     1
102
RTVSPropertyOp7
 70
     1
102
RTVSPropertyOp8
 70
     1
102
RTVSPropertyOp9
 70
     1
102
RTVSPropertyOp10
 70
     1
102
RTVSPropertyOp11
 70
     1
102
RTVSPropertyOp12
 70
     1
102
RTVSPropertyOp13
 70
     1
102
RTVSPropertyOp14
 70
     1
102
RTVSPropertyOp15
 70
     1
102
RTVSPropertyOp16
 70
     1
102
RTVSPropertyOp17
 70
     1
102
RTVSPropertyOp18
 70
     1
102
RTVSPropertyOp19
 70
     1
102
RTVSPropertyOp20
 70
     1
102
RTVSPropertyOp21
 70
     1
102
RTVSPropertyOp22
 70
     1
102
RTVSPropertyOp23
 70
     1
102
RTVSPropertyOp24
 70
     1
102
RTVSPropertyOp25
 70
     1
102
RTVSPropertyOp26
 70
     1
102
RTVSPropertyOp27
 70
     1
102
RTVSPropertyOp28
 70
     1
102
RTVSPropertyOp29
 70
     1
102
RTVSPropertyOp30
 70
     1
102
RTVSPropertyOp31
 70
     1
102
RTVSPropertyOp32
 70
     1
  0
XRECORD
  5
149
102
{ACAD_REACTORS
330
148
102
}
330
148
100
AcDbXrecord
280
     1
102
RTVSPropertyOp0
 70
     1
102
RTVSPropertyOp1
 70
     1
102
RTVSPropertyOp2
 70
     1
102
RTVSPropertyOp3
 70
     1
102
RTVSPropertyOp4
 70
     1
102
RTVSPropertyOp5
 70
     1
102
RTVSPropertyOp6
 70
     1
102
RTVSPropertyOp7
 70
     1
102
RTVSPropertyOp8
 70
     1
102
RTVSPropertyOp9
 70
     1
102
RTVSPropertyOp10
 70
     1
102
RTVSPropertyOp11
 70
     1
102
RTVSPropertyOp12
 70
     1
102
RTVSPropertyOp13
 70
     1
102
RTVSPropertyOp14
 70
     1
102
RTVSPropertyOp15
 70
     1
102
RTVSPropertyOp16
 70
     1
102
RTVSPropertyOp17
 70
     1
102
RTVSPropertyOp18
 70
     1
102
RTVSPropertyOp19
 70
     1
102
RTVSPropertyOp20
 70
     1
102
RTVSPropertyOp21
 70
     1
102
RTVSPropertyOp22
 70
     1
102
RTVSPropertyOp23
 70
     1
102
RTVSPropertyOp24
 70
     1
102
RTVSPropertyOp25
 70
     1
102
RTVSPropertyOp26
 70
     1
102
RTVSPropertyOp27
 70
     1
102
RTVSPropertyOp28
 70
     1
102
RTVSPropertyOp29
 70
     1
102
RTVSPropertyOp30
 70
     1
102
RTVSPropertyOp31
 70
     1
102
RTVSPropertyOp32
 70
     1
  0
XRECORD
  5
151
102
{ACAD_REACTORS
330
150
102
}
330
150
100
AcDbXrecord
280
     1
102
RTVSPropertyOp0
 70
     1
102
RTVSPropertyOp1
 70
     1
102
RTVSPropertyOp2
 70
     1
102
RTVSPropertyOp3
 70
     1
102
RTVSPropertyOp4
 70
     1
102
RTVSPropertyOp5
 70
     1
102
RTVSPropertyOp6
 70
     1
102
RTVSPropertyOp7
 70
     1
102
RTVSPropertyOp8
 70
     1
102
RTVSPropertyOp9
 70
     1
102
RTVSPropertyOp10
 70
     1
102
RTVSPropertyOp11
 70
     1
102
RTVSPropertyOp12
 70
     1
102
RTVSPropertyOp13
 70
     1
102
RTVSPropertyOp14
 70
     1
102
RTVSPropertyOp15
 70
     1
102
RTVSPropertyOp16
 70
     1
102
RTVSPropertyOp17
 70
     1
102
RTVSPropertyOp18
 70
     1
102
RTVSPropertyOp19
 70
     1
102
RTVSPropertyOp20
 70
     1
102
RTVSPropertyOp21
 70
     1
102
RTVSPropertyOp22
 70
     1
102
RTVSPropertyOp23
 70
     1
102
RTVSPropertyOp24
 70
     1
102
RTVSPropertyOp25
 70
     1
102
RTVSPropertyOp26
 70
     1
102
RTVSPropertyOp27
 70
     1
102
RTVSPropertyOp28
 70
     1
102
RTVSPropertyOp29
 70
     1
102
RTVSPropertyOp30
 70
     1
102
RTVSPropertyOp31
 70
     1
102
RTVSPropertyOp32
 70
     1
  0
XRECORD
  5
159
102
{ACAD_REACTORS
330
158
102
}
330
158
100
AcDbXrecord
280
     1
102
RTVSPropertyOp0
 70
     1
102
RTVSPropertyOp1
 70
     1
102
RTVSPropertyOp2
 70
     1
102
RTVSPropertyOp3
 70
     1
102
RTVSPropertyOp4
 70
     1
102
RTVSPropertyOp5
 70
     1
102
RTVSPropertyOp6
 70
     1
102
RTVSPropertyOp7
 70
     1
102
RTVSPropertyOp8
 70
     1
102
RTVSPropertyOp9
 70
     1
102
RTVSPropertyOp10
 70
     1
102
RTVSPropertyOp11
 70
     1
102
RTVSPropertyOp12
 70
     1
102
RTVSPropertyOp13
 70
     1
102
RTVSPropertyOp14
 70
     1
102
RTVSPropertyOp15
 70
     1
102
RTVSPropertyOp16
 70
     1
102
RTVSPropertyOp17
 70
     1
102
RTVSPropertyOp18
 70
     1
102
RTVSPropertyOp19
 70
     1
102
RTVSPropertyOp20
 70
     1
102
RTVSPropertyOp21
 70
     1
102
RTVSPropertyOp22
 70
     1
102
RTVSPropertyOp23
 70
     1
102
RTVSPropertyOp24
 70
     1
102
RTVSPropertyOp25
 70
     1
102
RTVSPropertyOp26
 70
     1
102
RTVSPropertyOp27
 70
     1
102
RTVSPropertyOp28
 70
     1
102
RTVSPropertyOp29
 70
     1
102
RTVSPropertyOp30
 70
     1
102
RTVSPropertyOp31
 70
     1
102
RTVSPropertyOp32
 70
     1
  0
XRECORD
  5
14D
102
{ACAD_REACTORS
330
14C
102
}
330
14C
100
AcDbXrecord
280
     1
102
RTVSPropertyOp0
 70
     1
102
RTVSPropertyOp1
 70
     1
102
RTVSPropertyOp2
 70
     1
102
RTVSPropertyOp3
 70
     1
102
RTVSPropertyOp4
 70
     1
102
RTVSPropertyOp5
 70
     1
102
RTVSPropertyOp6
 70
     1
102
RTVSPropertyOp7
 70
     1
102
RTVSPropertyOp8
 70
     1
102
RTVSPropertyOp9
 70
     1
102
RTVSPropertyOp10
 70
     1
102
RTVSPropertyOp11
 70
     1
102
RTVSPropertyOp12
 70
     1
102
RTVSPropertyOp13
 70
     1
102
RTVSPropertyOp14
 70
     1
102
RTVSPropertyOp15
 70
     1
102
RTVSPropertyOp16
 70
     1
102
RTVSPropertyOp17
 70
     1
102
RTVSPropertyOp18
 70
     1
102
RTVSPropertyOp19
 70
     1
102
RTVSPropertyOp20
 70
     1
102
RTVSPropertyOp21
 70
     1
102
RTVSPropertyOp22
 70
     1
102
RTVSPropertyOp23
 70
     1
102
RTVSPropertyOp24
 70
     1
102
RTVSPropertyOp25
 70
     1
102
RTVSPropertyOp26
 70
     1
102
RTVSPropertyOp27
 70
     1
102
RTVSPropertyOp28
 70
     1
102
RTVSPropertyOp29
 70
     1
102
RTVSPropertyOp30
 70
     1
102
RTVSPropertyOp31
 70
     1
102
RTVSPropertyOp32
 70
     1
  0
XRECORD
  5
14F
102
{ACAD_REACTORS
330
14E
102
}
330
14E
100
AcDbXrecord
280
     1
102
RTVSPropertyOp0
 70
     1
102
RTVSPropertyOp1
 70
     1
102
RTVSPropertyOp2
 70
     1
102
RTVSPropertyOp3
 70
     1
102
RTVSPropertyOp4
 70
     1
102
RTVSPropertyOp5
 70
     1
102
RTVSPropertyOp6
 70
     1
102
RTVSPropertyOp7
 70
     1
102
RTVSPropertyOp8
 70
     1
102
RTVSPropertyOp9
 70
     1
102
RTVSPropertyOp10
 70
     1
102
RTVSPropertyOp11
 70
     1
102
RTVSPropertyOp12
 70
     1
102
RTVSPropertyOp13
 70
     1
102
RTVSPropertyOp14
 70
     1
102
RTVSPropertyOp15
 70
     1
102
RTVSPropertyOp16
 70
     1
102
RTVSPropertyOp17
 70
     1
102
RTVSPropertyOp18
 70
     1
102
RTVSPropertyOp19
 70
     1
102
RTVSPropertyOp20
 70
     1
102
RTVSPropertyOp21
 70
     1
102
RTVSPropertyOp22
 70
     1
102
RTVSPropertyOp23
 70
     1
102
RTVSPropertyOp24
 70
     1
102
RTVSPropertyOp25
 70
     1
102
RTVSPropertyOp26
 70
     1
102
RTVSPropertyOp27
 70
     1
102
RTVSPropertyOp28
 70
     1
102
RTVSPropertyOp29
 70
     1
102
RTVSPropertyOp30
 70
     1
102
RTVSPropertyOp31
 70
     1
102
RTVSPropertyOp32
 70
     1
  0
XRECORD
  5
157
102
{ACAD_REACTORS
330
156
102
}
330
156
100
AcDbXrecord
280
     1
102
RTVSPropertyOp0
 70
     1
102
RTVSPropertyOp1
 70
     1
102
RTVSPropertyOp2
 70
     1
102
RTVSPropertyOp3
 70
     1
102
RTVSPropertyOp4
 70
     1
102
RTVSPropertyOp5
 70
     1
102
RTVSPropertyOp6
 70
     1
102
RTVSPropertyOp7
 70
     1
102
RTVSPropertyOp8
 70
     1
102
RTVSPropertyOp9
 70
     1
102
RTVSPropertyOp10
 70
     1
102
RTVSPropertyOp11
 70
     1
102
RTVSPropertyOp12
 70
     1
102
RTVSPropertyOp13
 70
     1
102
RTVSPropertyOp14
 70
     1
102
RTVSPropertyOp15
 70
     1
102
RTVSPropertyOp16
 70
     1
102
RTVSPropertyOp17
 70
     1
102
RTVSPropertyOp18
 70
     1
102
RTVSPropertyOp19
 70
     1
102
RTVSPropertyOp20
 70
     1
102
RTVSPropertyOp21
 70
     1
102
RTVSPropertyOp22
 70
     1
102
RTVSPropertyOp23
 70
     1
102
RTVSPropertyOp24
 70
     1
102
RTVSPropertyOp25
 70
     1
102
RTVSPropertyOp26
 70
     1
102
RTVSPropertyOp27
 70
     1
102
RTVSPropertyOp28
 70
     1
102
RTVSPropertyOp29
 70
     1
102
RTVSPropertyOp30
 70
     1
102
RTVSPropertyOp31
 70
     1
102
RTVSPropertyOp32
 70
     1
  0
XRECORD
  5
13B
102
{ACAD_REACTORS
330
13A
102
}
330
13A
100
AcDbXrecord
280
     1
102
RTVSPropertyOp0
 70
     1
102
RTVSPropertyOp1
 70
     1
102
RTVSPropertyOp2
 70
     1
102
RTVSPropertyOp3
 70
     1
102
RTVSPropertyOp4
 70
     1
102
RTVSPropertyOp5
 70
     1
102
RTVSPropertyOp6
 70
     1
102
RTVSPropertyOp7
 70
     1
102
RTVSPropertyOp8
 70
     1
102
RTVSPropertyOp9
 70
     1
102
RTVSPropertyOp10
 70
     1
102
RTVSPropertyOp11
 70
     1
102
RTVSPropertyOp12
 70
     1
102
RTVSPropertyOp13
 70
     1
102
RTVSPropertyOp14
 70
     1
102
RTVSPropertyOp15
 70
     1
102
RTVSPropertyOp16
 70
     1
102
RTVSPropertyOp17
 70
     1
102
RTVSPropertyOp18
 70
     1
102
RTVSPropertyOp19
 70
     1
102
RTVSPropertyOp20
 70
     1
102
RTVSPropertyOp21
 70
     1
102
RTVSPropertyOp22
 70
     1
102
RTVSPropertyOp23
 70
     1
102
RTVSPropertyOp24
 70
     1
102
RTVSPropertyOp25
 70
     1
102
RTVSPropertyOp26
 70
     1
102
RTVSPropertyOp27
 70
     1
102
RTVSPropertyOp28
 70
     1
102
RTVSPropertyOp29
 70
     1
102
RTVSPropertyOp30
 70
     1
102
RTVSPropertyOp31
 70
     1
102
RTVSPropertyOp32
 70
     1
  0
XRECORD
  5
13D
102
{ACAD_REACTORS
330
13C
102
}
330
13C
100
AcDbXrecord
280
     1
102
RTVSPropertyOp0
 70
     1
102
RTVSPropertyOp1
 70
     1
102
RTVSPropertyOp2
 70
     1
102
RTVSPropertyOp3
 70
     1
102
RTVSPropertyOp4
 70
     1
102
RTVSPropertyOp5
 70
     1
102
RTVSPropertyOp6
 70
     1
102
RTVSPropertyOp7
 70
     1
102
RTVSPropertyOp8
 70
     1
102
RTVSPropertyOp9
 70
     1
102
RTVSPropertyOp10
 70
     1
102
RTVSPropertyOp11
 70
     1
102
RTVSPropertyOp12
 70
     1
102
RTVSPropertyOp13
 70
     1
102
RTVSPropertyOp14
 70
     1
102
RTVSPropertyOp15
 70
     1
102
RTVSPropertyOp16
 70
     1
102
RTVSPropertyOp17
 70
     1
102
RTVSPropertyOp18
 70
     1
102
RTVSPropertyOp19
 70
     1
102
RTVSPropertyOp20
 70
     1
102
RTVSPropertyOp21
 70
     1
102
RTVSPropertyOp22
 70
     1
102
RTVSPropertyOp23
 70
     1
102
RTVSPropertyOp24
 70
     1
102
RTVSPropertyOp25
 70
     1
102
RTVSPropertyOp26
 70
     1
102
RTVSPropertyOp27
 70
     1
102
RTVSPropertyOp28
 70
     1
102
RTVSPropertyOp29
 70
     1
102
RTVSPropertyOp30
 70
     1
102
RTVSPropertyOp31
 70
     1
102
RTVSPropertyOp32
 70
     1
  0
XRECORD
  5
13F
102
{ACAD_REACTORS
330
13E
102
}
330
13E
100
AcDbXrecord
280
     1
102
RTVSPropertyOp0
 70
     1
102
RTVSPropertyOp1
 70
     1
102
RTVSPropertyOp2
 70
     1
102
RTVSPropertyOp3
 70
     1
102
RTVSPropertyOp4
 70
     1
102
RTVSPropertyOp5
 70
     1
102
RTVSPropertyOp6
 70
     1
102
RTVSPropertyOp7
 70
     1
102
RTVSPropertyOp8
 70
     1
102
RTVSPropertyOp9
 70
     1
102
RTVSPropertyOp10
 70
     1
102
RTVSPropertyOp11
 70
     1
102
RTVSPropertyOp12
 70
     1
102
RTVSPropertyOp13
 70
     1
102
RTVSPropertyOp14
 70
     1
102
RTVSPropertyOp15
 70
     1
102
RTVSPropertyOp16
 70
     1
102
RTVSPropertyOp17
 70
     1
102
RTVSPropertyOp18
 70
     1
102
RTVSPropertyOp19
 70
     1
102
RTVSPropertyOp20
 70
     1
102
RTVSPropertyOp21
 70
     1
102
RTVSPropertyOp22
 70
     1
102
RTVSPropertyOp23
 70
     1
102
RTVSPropertyOp24
 70
     1
102
RTVSPropertyOp25
 70
     1
102
RTVSPropertyOp26
 70
     1
102
RTVSPropertyOp27
 70
     1
102
RTVSPropertyOp28
 70
     1
102
RTVSPropertyOp29
 70
     1
102
RTVSPropertyOp30
 70
     1
102
RTVSPropertyOp31
 70
     1
102
RTVSPropertyOp32
 70
     1
  0
XRECORD
  5
141
102
{ACAD_REACTORS
330
140
102
}
330
140
100
AcDbXrecord
280
     1
102
RTVSPropertyOp0
 70
     1
102
RTVSPropertyOp1
 70
     1
102
RTVSPropertyOp2
 70
     1
102
RTVSPropertyOp3
 70
     1
102
RTVSPropertyOp4
 70
     1
102
RTVSPropertyOp5
 70
     1
102
RTVSPropertyOp6
 70
     1
102
RTVSPropertyOp7
 70
     1
102
RTVSPropertyOp8
 70
     1
102
RTVSPropertyOp9
 70
     1
102
RTVSPropertyOp10
 70
     1
102
RTVSPropertyOp11
 70
     1
102
RTVSPropertyOp12
 70
     1
102
RTVSPropertyOp13
 70
     1
102
RTVSPropertyOp14
 70
     1
102
RTVSPropertyOp15
 70
     1
102
RTVSPropertyOp16
 70
     1
102
RTVSPropertyOp17
 70
     1
102
RTVSPropertyOp18
 70
     1
102
RTVSPropertyOp19
 70
     1
102
RTVSPropertyOp20
 70
     1
102
RTVSPropertyOp21
 70
     1
102
RTVSPropertyOp22
 70
     1
102
RTVSPropertyOp23
 70
     1
102
RTVSPropertyOp24
 70
     1
102
RTVSPropertyOp25
 70
     1
102
RTVSPropertyOp26
 70
     1
102
RTVSPropertyOp27
 70
     1
102
RTVSPropertyOp28
 70
     1
102
RTVSPropertyOp29
 70
     1
102
RTVSPropertyOp30
 70
     1
102
RTVSPropertyOp31
 70
     1
102
RTVSPropertyOp32
 70
     1
  0
XRECORD
  5
155
102
{ACAD_REACTORS
330
154
102
}
330
154
100
AcDbXrecord
280
     1
102
RTVSPropertyOp0
 70
     1
102
RTVSPropertyOp1
 70
     1
102
RTVSPropertyOp2
 70
     1
102
RTVSPropertyOp3
 70
     1
102
RTVSPropertyOp4
 70
     1
102
RTVSPropertyOp5
 70
     1
102
RTVSPropertyOp6
 70
     1
102
RTVSPropertyOp7
 70
     1
102
RTVSPropertyOp8
 70
     1
102
RTVSPropertyOp9
 70
     1
102
RTVSPropertyOp10
 70
     1
102
RTVSPropertyOp11
 70
     1
102
RTVSPropertyOp12
 70
     1
102
RTVSPropertyOp13
 70
     1
102
RTVSPropertyOp14
 70
     1
102
RTVSPropertyOp15
 70
     1
102
RTVSPropertyOp16
 70
     1
102
RTVSPropertyOp17
 70
     1
102
RTVSPropertyOp18
 70
     1
102
RTVSPropertyOp19
 70
     1
102
RTVSPropertyOp20
 70
     1
102
RTVSPropertyOp21
 70
     1
102
RTVSPropertyOp22
 70
     1
102
RTVSPropertyOp23
 70
     1
102
RTVSPropertyOp24
 70
     1
102
RTVSPropertyOp25
 70
     1
102
RTVSPropertyOp26
 70
     1
102
RTVSPropertyOp27
 70
     1
102
RTVSPropertyOp28
 70
     1
102
RTVSPropertyOp29
 70
     1
102
RTVSPropertyOp30
 70
     1
102
RTVSPropertyOp31
 70
     1
102
RTVSPropertyOp32
 70
     1
  0
XRECORD
  5
14B
102
{ACAD_REACTORS
330
14A
102
}
330
14A
100
AcDbXrecord
280
     1
102
RTVSPropertyOp0
 70
     1
102
RTVSPropertyOp1
 70
     1
102
RTVSPropertyOp2
 70
     1
102
RTVSPropertyOp3
 70
     1
102
RTVSPropertyOp4
 70
     1
102
RTVSPropertyOp5
 70
     1
102
RTVSPropertyOp6
 70
     1
102
RTVSPropertyOp7
 70
     1
102
RTVSPropertyOp8
 70
     1
102
RTVSPropertyOp9
 70
     1
102
RTVSPropertyOp10
 70
     1
102
RTVSPropertyOp11
 70
     1
102
RTVSPropertyOp12
 70
     1
102
RTVSPropertyOp13
 70
     1
102
RTVSPropertyOp14
 70
     1
102
RTVSPropertyOp15
 70
     1
102
RTVSPropertyOp16
 70
     1
102
RTVSPropertyOp17
 70
     1
102
RTVSPropertyOp18
 70
     1
102
RTVSPropertyOp19
 70
     1
102
RTVSPropertyOp20
 70
     1
102
RTVSPropertyOp21
 70
     1
102
RTVSPropertyOp22
 70
     1
102
RTVSPropertyOp23
 70
     1
102
RTVSPropertyOp24
 70
     1
102
RTVSPropertyOp25
 70
     1
102
RTVSPropertyOp26
 70
     1
102
RTVSPropertyOp27
 70
     1
102
RTVSPropertyOp28
 70
     1
102
RTVSPropertyOp29
 70
     1
102
RTVSPropertyOp30
 70
     1
102
RTVSPropertyOp31
 70
     1
102
RTVSPropertyOp32
 70
     1
  0
XRECORD
  5
153
102
{ACAD_REACTORS
330
152
102
}
330
152
100
AcDbXrecord
280
     1
102
RTVSPropertyOp0
 70
     1
102
RTVSPropertyOp1
 70
     1
102
RTVSPropertyOp2
 70
     1
102
RTVSPropertyOp3
 70
     1
102
RTVSPropertyOp4
 70
     1
102
RTVSPropertyOp5
 70
     1
102
RTVSPropertyOp6
 70
     1
102
RTVSPropertyOp7
 70
     1
102
RTVSPropertyOp8
 70
     1
102
RTVSPropertyOp9
 70
     1
102
RTVSPropertyOp10
 70
     1
102
RTVSPropertyOp11
 70
     1
102
RTVSPropertyOp12
 70
     1
102
RTVSPropertyOp13
 70
     1
102
RTVSPropertyOp14
 70
     1
102
RTVSPropertyOp15
 70
     1
102
RTVSPropertyOp16
 70
     1
102
RTVSPropertyOp17
 70
     1
102
RTVSPropertyOp18
 70
     1
102
RTVSPropertyOp19
 70
     1
102
RTVSPropertyOp20
 70
     1
102
RTVSPropertyOp21
 70
     1
102
RTVSPropertyOp22
 70
     1
102
RTVSPropertyOp23
 70
     1
102
RTVSPropertyOp24
 70
     1
102
RTVSPropertyOp25
 70
     1
102
RTVSPropertyOp26
 70
     1
102
RTVSPropertyOp27
 70
     1
102
RTVSPropertyOp28
 70
     1
102
RTVSPropertyOp29
 70
     1
102
RTVSPropertyOp30
 70
     1
102
RTVSPropertyOp31
 70
     1
102
RTVSPropertyOp32
 70
     1
  0
ENDSEC
  0
EOF
