  0
SECTION
  2
HEADER
  9
$ACADVER
  1
AC1015
  9
$ACADMAINTVER
 70
     6
  9
$DWGCODEPAGE
  3
ANSI_932
  9
$INSBASE
 10
0.0
 20
0.0
 30
0.0
  9
$EXTMIN
 10
0.0
 20
0.0
 30
0.0
  9
$EXTMAX
 10
280.0
 20
396.0
 30
0.0
  9
$LIMMIN
 10
0.0
 20
0.0
  9
$LIMMAX
 10
12.0
 20
9.0
  9
$ORTHOMODE
 70
     0
  9
$REGENMODE
 70
     1
  9
$FILLMODE
 70
     1
  9
$QTEXTMODE
 70
     0
  9
$MIRRTEXT
 70
     1
  9
$LTSCALE
 40
1.0
  9
$ATTMODE
 70
     1
  9
$TEXTSIZE
 40
0.2
  9
$TRACEWID
 40
0.05
  9
$TEXTSTYLE
  7
Standard
  9
$CLAYER
  8
0
  9
$CELTYPE
  6
ByLayer
  9
$CECOLOR
 62
   256
  9
$CELTSCALE
 40
1.0
  9
$DISPSILH
 70
     0
  9
$DIMSCALE
 40
1.0
  9
$DIMASZ
 40
0.18
  9
$DIMEXO
 40
0.0625
  9
$DIMDLI
 40
0.38
  9
$DIMRND
 40
0.0
  9
$DIMDLE
 40
0.0
  9
$DIMEXE
 40
0.18
  9
$DIMTP
 40
0.0
  9
$DIMTM
 40
0.0
  9
$DIMTXT
 40
0.18
  9
$DIMCEN
 40
0.09
  9
$DIMTSZ
 40
0.0
  9
$DIMTOL
 70
     0
  9
$DIMLIM
 70
     0
  9
$DIMTIH
 70
     1
  9
$DIMTOH
 70
     1
  9
$DIMSE1
 70
     0
  9
$DIMSE2
 70
     0
  9
$DIMTAD
 70
     0
  9
$DIMZIN
 70
     0
  9
$DIMBLK
  1

  9
$DIMASO
 70
     1
  9
$DIMSHO
 70
     1
  9
$DIMPOST
  1

  9
$DIMAPOST
  1

  9
$DIMALT
 70
     0
  9
$DIMALTD
 70
     2
  9
$DIMALTF
 40
25.4
  9
$DIMLFAC
 40
1.0
  9
$DIMTOFL
 70
     0
  9
$DIMTVP
 40
0.0
  9
$DIMTIX
 70
     0
  9
$DIMSOXD
 70
     0
  9
$DIMSAH
 70
     0
  9
$DIMBLK1
  1

  9
$DIMBLK2
  1

  9
$DIMSTYLE
  2
Standard
  9
$DIMCLRD
 70
     0
  9
$DIMCLRE
 70
     0
  9
$DIMCLRT
 70
     0
  9
$DIMTFAC
 40
1.0
  9
$DIMGAP
 40
0.09
  9
$DIMJUST
 70
     0
  9
$DIMSD1
 70
     0
  9
$DIMSD2
 70
     0
  9
$DIMTOLJ
 70
     1
  9
$DIMTZIN
 70
     0
  9
$DIMALTZ
 70
     0
  9
$DIMALTTZ
 70
     0
  9
$DIMUPT
 70
     0
  9
$DIMDEC
 70
     4
  9
$DIMTDEC
 70
     4
  9
$DIMALTU
 70
     2
  9
$DIMALTTD
 70
     2
  9
$DIMTXSTY
  7
Standard
  9
$DIMAUNIT
 70
     0
  9
$DIMADEC
 70
     0
  9
$DIMALTRND
 40
0.0
  9
$DIMAZIN
 70
     0
  9
$DIMDSEP
 70
    46
  9
$DIMATFIT
 70
     3
  9
$DIMFRAC
 70
     0
  9
$DIMLDRBLK
  1

  9
$DIMLUNIT
 70
     2
  9
$DIMLWD
 70
    -2
  9
$DIMLWE
 70
    -2
  9
$DIMTMOVE
 70
     0
  9
$LUNITS
 70
     2
  9
$LUPREC
 70
     4
  9
$SKETCHINC
 40
0.1
  9
$FILLETRAD
 40
0.5
  9
$AUNITS
 70
     0
  9
$AUPREC
 70
     0
  9
$MENU
  1
.
  9
$ELEVATION
 40
0.0
  9
$PELEVATION
 40
0.0
  9
$THICKNESS
 40
0.0
  9
$LIMCHECK
 70
     0
  9
$CHAMFERA
 40
0.5
  9
$CHAMFERB
 40
0.5
  9
$CHAMFERC
 40
1.0
  9
$CHAMFERD
 40
0.0
  9
$SKPOLY
 70
     0
  9
$TDCREATE
 40
2459318.415270127
  9
$TDUCREATE
 40
2459318.040270127
  9
$TDUPDATE
 40
2459318.415272662
  9
$TDUUPDATE
 40
2459318.040272662
  9
$TDINDWG
 40
0.0000000116
  9
$TDUSRTIMER
 40
0.0000000116
  9
$USRTIMER
 70
     1
  9
$ANGBASE
 50
0.0
  9
$ANGDIR
 70
     0
  9
$PDMODE
 70
     0
  9
$PDSIZE
 40
0.0
  9
$PLINEWID
 40
0.0
  9
$SPLFRAME
 70
     0
  9
$SPLINETYPE
 70
     6
  9
$SPLINESEGS
 70
     8
  9
$HANDSEED
  5
264
  9
$SURFTAB1
 70
     6
  9
$SURFTAB2
 70
     6
  9
$SURFTYPE
 70
     6
  9
$SURFU
 70
     6
  9
$SURFV
 70
     6
  9
$UCSBASE
  2

  9
$UCSNAME
  2

  9
$UCSORG
 10
0.0
 20
0.0
 30
0.0
  9
$UCSXDIR
 10
1.0
 20
0.0
 30
0.0
  9
$UCSYDIR
 10
0.0
 20
1.0
 30
0.0
  9
$UCSORTHOREF
  2

  9
$UCSORTHOVIEW
 70
     0
  9
$UCSORGTOP
 10
0.0
 20
0.0
 30
0.0
  9
$UCSORGBOTTOM
 10
0.0
 20
0.0
 30
0.0
  9
$UCSORGLEFT
 10
0.0
 20
0.0
 30
0.0
  9
$UCSORGRIGHT
 10
0.0
 20
0.0
 30
0.0
  9
$UCSORGFRONT
 10
0.0
 20
0.0
 30
0.0
  9
$UCSORGBACK
 10
0.0
 20
0.0
 30
0.0
  9
$PUCSBASE
  2

  9
$PUCSNAME
  2

  9
$PUCSORG
 10
0.0
 20
0.0
 30
0.0
  9
$PUCSXDIR
 10
1.0
 20
0.0
 30
0.0
  9
$PUCSYDIR
 10
0.0
 20
1.0
 30
0.0
  9
$PUCSORTHOREF
  2

  9
$PUCSORTHOVIEW
 70
     0
  9
$PUCSORGTOP
 10
0.0
 20
0.0
 30
0.0
  9
$PUCSORGBOTTOM
 10
0.0
 20
0.0
 30
0.0
  9
$PUCSORGLEFT
 10
0.0
 20
0.0
 30
0.0
  9
$PUCSORGRIGHT
 10
0.0
 20
0.0
 30
0.0
  9
$PUCSORGFRONT
 10
0.0
 20
0.0
 30
0.0
  9
$PUCSORGBACK
 10
0.0
 20
0.0
 30
0.0
  9
$USERI1
 70
     0
  9
$USERI2
 70
     0
  9
$USERI3
 70
     0
  9
$USERI4
 70
     0
  9
$USERI5
 70
     0
  9
$USERR1
 40
18.1
  9
$USERR2
 40
0.0
  9
$USERR3
 40
0.0
  9
$USERR4
 40
0.0
  9
$USERR5
 40
0.0
  9
$WORLDVIEW
 70
     1
  9
$SHADEDGE
 70
     3
  9
$SHADEDIF
 70
    70
  9
$TILEMODE
 70
     1
  9
$MAXACTVP
 70
    64
  9
$PINSBASE
 10
0.0
 20
0.0
 30
0.0
  9
$PLIMCHECK
 70
     0
  9
$PEXTMIN
 10
1.00000000000000E+20
 20
1.00000000000000E+20
 30
1.00000000000000E+20
  9
$PEXTMAX
 10
-1.00000000000000E+20
 20
-1.00000000000000E+20
 30
-1.00000000000000E+20
  9
$PLIMMIN
 10
0.0
 20
0.0
  9
$PLIMMAX
 10
12.0
 20
9.0
  9
$UNITMODE
 70
     0
  9
$VISRETAIN
 70
     1
  9
$PLINEGEN
 70
     0
  9
$PSLTSCALE
 70
     1
  9
$TREEDEPTH
 70
  3020
  9
$CMLSTYLE
  2
Standard
  9
$CMLJUST
 70
     0
  9
$CMLSCALE
 40
1.0
  9
$PROXYGRAPHICS
 70
     1
  9
$MEASUREMENT
 70
     1
  9
$CELWEIGHT
370
    -1
  9
$ENDCAPS
280
     0
  9
$JOINSTYLE
280
     0
  9
$LWDISPLAY
290
     0
  9
$INSUNITS
 70
     4
  9
$HYPERLINKBASE
  1

  9
$STYLESHEET
  1

  9
$XEDIT
290
     1
  9
$CEPSNTYPE
380
     0
  9
$PSTYLEMODE
290
     1
  9
$FINGERPRINTGUID
  2
{84FA9AB5-1AF1-4DCF-AB59-D07F6E2FCF32}
  9
$VERSIONGUID
  2
{FAEB1C32-E019-11D5-929B-00C0DF256EC4}
  9
$EXTNAMES
290
     1
  9
$PSVPSCALE
 40
0.0
  9
$OLESTARTUP
290
     0
  0
ENDSEC
  0
SECTION
  2
CLASSES
  0
CLASS
  1
ACDBDICTIONARYWDFLT
  2
AcDbDictionaryWithDefault
  3
ObjectDBX Classes
 90
        0
280
     0
281
     0
  0
CLASS
  1
VISUALSTYLE
  2
AcDbVisualStyle
  3
ObjectDBX Classes
 90
     4095
280
     0
281
     0
  0
CLASS
  1
MATERIAL
  2
AcDbMaterial
  3
ObjectDBX Classes
 90
     1153
280
     0
281
     0
  0
CLASS
  1
DICTIONARYVAR
  2
AcDbDictionaryVar
  3
ObjectDBX Classes
 90
        0
280
     0
281
     0
  0
CLASS
  1
ACDBPLACEHOLDER
  2
AcDbPlaceHolder
  3
ObjectDBX Classes
 90
        0
280
     0
281
     0
  0
CLASS
  1
LAYOUT
  2
AcDbLayout
  3
ObjectDBX Classes
 90
        0
280
     0
281
     0
  0
ENDSEC
  0
SECTION
  2
TABLES
  0
TABLE
  2
VPORT
  5
8
330
0
100
AcDbSymbolTable
 70
     1
  0
VPORT
  5
29
330
8
100
AcDbSymbolTableRecord
100
AcDbViewportTableRecord
  2
*Active
 70
     0
 10
0.0
 20
0.0
 11
1.0
 21
1.0
 12
140.0
 22
198.0
 13
0.0
 23
0.0
 14
0.5
 24
0.5
 15
0.5
 25
0.5
 16
0.0
 26
0.0
 36
1.0
 17
0.0
 27
0.0
 37
0.0
 40
435.6
 41
1.60267857142857
 42
50.0
 43
0.0
 44
0.0
 50
0.0
 51
0.0
 71
     0
 72
   100
 73
     1
 74
     3
 75
     0
 76
     0
 77
     0
 78
     0
281
     0
 65
     1
110
0.0
120
0.0
130
0.0
111
1.0
121
0.0
131
0.0
112
0.0
122
1.0
132
0.0
 79
     0
146
0.0
  0
ENDTAB
  0
TABLE
  2
LTYPE
  5
5
330
0
100
AcDbSymbolTable
 70
     9
  0
LTYPE
  5
14
330
5
100
AcDbSymbolTableRecord
100
AcDbLinetypeTableRecord
  2
ByBlock
 70
     0
  3

 72
    65
 73
     0
 40
0.0
  0
LTYPE
  5
15
330
5
100
AcDbSymbolTableRecord
100
AcDbLinetypeTableRecord
  2
ByLayer
 70
     0
  3

 72
    65
 73
     0
 40
0.0
  0
LTYPE
  5
16
330
5
100
AcDbSymbolTableRecord
100
AcDbLinetypeTableRecord
  2
Continuous
 70
     0
  3
Solid line
 72
    65
 73
     0
 40
0.0
  0
LTYPE
  5
3F
330
5
100
AcDbSymbolTableRecord
100
AcDbLinetypeTableRecord
  2
DASHED
 70
     0
  3
Dashed
 72
    65
 73
     2
 40
15.0
 49
7.0
 74
     0
 49
-8.0
 74
     0
  0
LTYPE
  5
40
330
5
100
AcDbSymbolTableRecord
100
AcDbLinetypeTableRecord
  2
DOTTED
 70
     0
  3
Dotted
 72
    65
 73
     2
 40
1.0
 49
0.0
 74
     0
 49
-1.0
 74
     0
  0
LTYPE
  5
41
330
5
100
AcDbSymbolTableRecord
100
AcDbLinetypeTableRecord
  2
DOT_CENTER
 70
     0
  3
Dot_Center
 72
    65
 73
     4
 40
14.0
 49
12.0
 74
     0
 49
-1.0
 74
     0
 49
0.0
 74
     0
 49
-1.0
 74
     0
  0
LTYPE
  5
42
330
5
100
AcDbSymbolTableRecord
100
AcDbLinetypeTableRecord
  2
LONG_DASHED
 70
     0
  3
Long_Dashed
 72
    65
 73
     2
 40
15.0
 49
10.0
 74
     0
 49
-5.0
 74
     0
  0
LTYPE
  5
43
330
5
100
AcDbSymbolTableRecord
100
AcDbLinetypeTableRecord
  2
DASH_CENTER
 70
     0
  3
Dash_Center
 72
    65
 73
     4
 40
14.0
 49
11.0
 74
     0
 49
-1.0
 74
     0
 49
1.0
 74
     0
 49
-1.0
 74
     0
  0
LTYPE
  5
44
330
5
100
AcDbSymbolTableRecord
100
AcDbLinetypeTableRecord
  2
PHANTOM
 70
     0
  3
Phantom
 72
    65
 73
     6
 40
13.0
 49
10.0
 74
     0
 49
-1.0
 74
     0
 49
0.0
 74
     0
 49
-1.0
 74
     0
 49
0.0
 74
     0
 49
-1.0
 74
     0
  0
LTYPE
  5
45
330
5
100
AcDbSymbolTableRecord
100
AcDbLinetypeTableRecord
  2
CENTER_DASH_DASH
 70
     0
  3
Center_Dash_Dash
 72
    65
 73
     6
 40
14.0
 49
9.0
 74
     0
 49
-1.0
 74
     0
 49
1.0
 74
     0
 49
-1.0
 74
     0
 49
1.0
 74
     0
 49
-1.0
 74
     0
  0
LTYPE
  5
46
330
5
100
AcDbSymbolTableRecord
100
AcDbLinetypeTableRecord
  2
DASHDOT_2
 70
     0
  3
DASHDOT_2
 72
    65
 73
     4
 40
11.0
 49
6.0
 74
     0
 49
-2.0
 74
     0
 49
1.0
 74
     0
 49
-2.0
 74
     0
  0
ENDTAB
  0
TABLE
  2
LAYER
  5
2
330
0
100
AcDbSymbolTable
 70
     5
  0
LAYER
  5
10
330
2
100
AcDbSymbolTableRecord
100
AcDbLayerTableRecord
  2
0
 70
     0
 62
     7
  6
Continuous
370
    -3
390
F
  0
LAYER
  5
47
330
2
100
AcDbSymbolTableRecord
100
AcDbLayerTableRecord
  2
1
 70
     0
 62
     7
  6
Continuous
370
    -3
390
F
  0
LAYER
  5
48
330
2
100
AcDbSymbolTableRecord
100
AcDbLayerTableRecord
  2
2
 70
     0
 62
     7
  6
Continuous
370
    -3
390
F
  0
LAYER
  5
49
330
2
100
AcDbSymbolTableRecord
100
AcDbLayerTableRecord
  2
3
 70
     0
 62
     7
  6
Continuous
370
    -3
390
F
  0
LAYER
  5
4A
330
2
100
AcDbSymbolTableRecord
100
AcDbLayerTableRecord
  2
4
 70
     0
 62
     7
  6
Continuous
370
    -3
390
F
  0
ENDTAB
  0
TABLE
  2
STYLE
  5
3
330
0
100
AcDbSymbolTable
 70
     5
  0
STYLE
  5
11
330
3
100
AcDbSymbolTableRecord
100
AcDbTextStyleTableRecord
  2
Standard
 70
     0
 40
0.0
 41
1.0
 50
0.0
 71
     0
 42
0.2
  3
txt
  4

  0
STYLE
  5
AA
330
3
100
AcDbSymbolTableRecord
100
AcDbTextStyleTableRecord
  2
CONVERTER_11
 70
     0
 40
0.0
 41
0.89
 50
0.0
 71
     0
 42
0.2
  3
MS Mincho.ttf
  4

1001
ACAD
1000
MS Mincho
1071
    32785
  0
STYLE
  5
B8
330
3
100
AcDbSymbolTableRecord
100
AcDbTextStyleTableRecord
  2
CONVERTER_12
 70
     0
 40
0.0
 41
0.575
 50
0.0
 71
     0
 42
0.2
  3
txt.shx
  4

  0
STYLE
  5
BE
330
3
100
AcDbSymbolTableRecord
100
AcDbTextStyleTableRecord
  2
CONVERTER_13
 70
     0
 40
0.0
 41
1.13722222222222
 50
0.0
 71
     0
 42
0.2
  3
MS Mincho.ttf
  4

1001
ACAD
1000
MS Mincho
1071
    32785
  0
STYLE
  5
19E
330
3
100
AcDbSymbolTableRecord
100
AcDbTextStyleTableRecord
  2
CONVERTER_14
 70
     0
 40
0.0
 41
0.9
 50
0.0
 71
     0
 42
0.2
  3
txt.shx
  4

  0
ENDTAB
  0
TABLE
  2
VIEW
  5
6
330
0
100
AcDbSymbolTable
 70
     0
  0
ENDTAB
  0
TABLE
  2
UCS
  5
7
330
0
100
AcDbSymbolTable
 70
     0
  0
ENDTAB
  0
TABLE
  2
APPID
  5
9
330
0
100
AcDbSymbolTable
 70
     1
  0
APPID
  5
12
330
9
100
AcDbSymbolTableRecord
100
AcDbRegAppTableRecord
  2
ACAD
 70
     0
  0
ENDTAB
  0
TABLE
  2
DIMSTYLE
  5
A
330
0
100
AcDbSymbolTable
 70
     5
100
AcDbDimStyleTable
  0
DIMSTYLE
105
27
330
A
100
AcDbSymbolTableRecord
100
AcDbDimStyleTableRecord
  2
Standard
 70
     0
178
     0
340
11
  0
DIMSTYLE
105
1BC
102
{ACAD_REACTORS
330
1BD
102
}
330
A
100
AcDbSymbolTableRecord
100
AcDbDimStyleTableRecord
  2
ME10_DIM_10
 70
     0
 41
4.66666666666667
 42
0.0
 44
1.33333333333333
 73
     0
 74
     0
 77
     1
 78
     8
140
4.66666666666667
147
1.33333333333333
172
     1
173
     1
174
     1
175
     1
176
     2
177
     2
271
     2
178
     7
271
     2
340
19E
  0
DIMSTYLE
105
1C7
102
{ACAD_REACTORS
330
1C8
102
}
330
A
100
AcDbSymbolTableRecord
100
AcDbDimStyleTableRecord
  2
ME10_DIM_11
 70
     0
 41
4.66666666666667
 42
0.0
 44
1.33333333333333
 73
     0
 74
     0
 77
     1
 78
     8
140
4.66666666666667
147
1.33333333333333
172
     1
173
     1
174
     1
175
     1
176
     2
177
     2
271
     2
178
     7
271
     2
340
19E
  0
DIMSTYLE
105
1D4
102
{ACAD_REACTORS
330
1D5
102
}
330
A
100
AcDbSymbolTableRecord
100
AcDbDimStyleTableRecord
  2
ME10_DIM_12
 70
     0
 41
4.66666666666667
 42
0.0
 44
1.33333333333333
 73
     0
 74
     0
 77
     1
 78
     8
140
4.66666666666667
147
1.33333333333333
172
     1
173
     1
174
     1
175
     1
176
     2
177
     2
271
     2
178
     7
271
     2
340
19E
  0
DIMSTYLE
105
1DF
102
{ACAD_REACTORS
330
1E0
102
}
330
A
100
AcDbSymbolTableRecord
100
AcDbDimStyleTableRecord
  2
ME10_DIM_13
 70
     0
 41
4.66666666666667
 42
0.0
 44
1.33333333333333
 73
     0
 74
     0
 77
     1
 78
     8
140
4.66666666666667
147
1.33333333333333
172
     1
173
     1
174
     1
175
     1
176
     2
177
     2
271
     2
178
     7
271
     2
340
19E
  0
ENDTAB
  0
TABLE
  2
BLOCK_RECORD
  5
1
330
0
100
AcDbSymbolTable
 70
    21
  0
BLOCK_RECORD
  5
1F
330
1
100
AcDbSymbolTableRecord
100
AcDbBlockTableRecord
  2
*Model_Space
340
22
  0
BLOCK_RECORD
  5
1B
330
1
100
AcDbSymbolTableRecord
100
AcDbBlockTableRecord
  2
*Paper_Space
340
1E
  0
BLOCK_RECORD
  5
23
330
1
100
AcDbSymbolTableRecord
100
AcDbBlockTableRecord
  2
*Paper_Space0
340
26
  0
BLOCK_RECORD
  5
4B
330
1
100
AcDbSymbolTableRecord
100
AcDbBlockTableRecord
  2
開示A4
340
0
102
{BLKREFS
331
5C
102
}
  0
BLOCK_RECORD
  5
4E
330
1
100
AcDbSymbolTableRecord
100
AcDbBlockTableRecord
  2
_G37__1
340
0
102
{BLKREFS
331
52
102
}
  0
BLOCK_RECORD
  5
51
330
1
100
AcDbSymbolTableRecord
100
AcDbBlockTableRecord
  2
パッキン小
340
0
102
{BLKREFS
331
5D
102
}
  0
BLOCK_RECORD
  5
55
330
1
100
AcDbSymbolTableRecord
100
AcDbBlockTableRecord
  2
_G37__2
340
0
102
{BLKREFS
331
59
102
}
  0
BLOCK_RECORD
  5
58
330
1
100
AcDbSymbolTableRecord
100
AcDbBlockTableRecord
  2
パッキン大
340
0
102
{BLKREFS
331
5E
102
}
  0
BLOCK_RECORD
  5
1B1
330
1
100
AcDbSymbolTableRecord
100
AcDbBlockTableRecord
  2
*D6
340
0
  0
BLOCK_RECORD
  5
1BE
330
1
100
AcDbSymbolTableRecord
100
AcDbBlockTableRecord
  2
*D7
340
0
  0
BLOCK_RECORD
  5
1C9
330
1
100
AcDbSymbolTableRecord
100
AcDbBlockTableRecord
  2
*D8
340
0
  0
BLOCK_RECORD
  5
1D6
330
1
100
AcDbSymbolTableRecord
100
AcDbBlockTableRecord
  2
*D9
340
0
  0
BLOCK_RECORD
  5
1E1
330
1
100
AcDbSymbolTableRecord
100
AcDbBlockTableRecord
  2
*D10
340
0
102
{BLKREFS
331
1E8
102
}
  0
BLOCK_RECORD
  5
1E9
330
1
100
AcDbSymbolTableRecord
100
AcDbBlockTableRecord
  2
*D11
340
0
102
{BLKREFS
331
1F0
102
}
  0
BLOCK_RECORD
  5
1F1
330
1
100
AcDbSymbolTableRecord
100
AcDbBlockTableRecord
  2
*D12
340
0
102
{BLKREFS
331
1F8
102
}
  0
BLOCK_RECORD
  5
1F9
330
1
100
AcDbSymbolTableRecord
100
AcDbBlockTableRecord
  2
*D13
340
0
102
{BLKREFS
331
200
102
}
  0
BLOCK_RECORD
  5
201
330
1
100
AcDbSymbolTableRecord
100
AcDbBlockTableRecord
  2
*D14
340
0
102
{BLKREFS
331
208
102
}
  0
BLOCK_RECORD
  5
209
330
1
100
AcDbSymbolTableRecord
100
AcDbBlockTableRecord
  2
*D15
340
0
102
{BLKREFS
331
210
102
}
  0
BLOCK_RECORD
  5
211
330
1
100
AcDbSymbolTableRecord
100
AcDbBlockTableRecord
  2
*D16
340
0
102
{BLKREFS
331
218
102
}
  0
BLOCK_RECORD
  5
219
330
1
100
AcDbSymbolTableRecord
100
AcDbBlockTableRecord
  2
*D17
340
0
102
{BLKREFS
331
220
102
}
  0
BLOCK_RECORD
  5
221
330
1
100
AcDbSymbolTableRecord
100
AcDbBlockTableRecord
  2
*D18
340
0
102
{BLKREFS
331
228
102
}
  0
BLOCK_RECORD
  5
229
330
1
100
AcDbSymbolTableRecord
100
AcDbBlockTableRecord
  2
*D19
340
0
102
{BLKREFS
331
230
102
}
  0
BLOCK_RECORD
  5
231
330
1
100
AcDbSymbolTableRecord
100
AcDbBlockTableRecord
  2
*D20
340
0
102
{BLKREFS
331
238
102
}
  0
ENDTAB
  0
ENDSEC
  0
SECTION
  2
BLOCKS
  0
BLOCK
  5
20
330
1F
100
AcDbEntity
  8
0
100
AcDbBlockBegin
  2
*Model_Space
 70
     0
 10
0.0
 20
0.0
 30
0.0
  3
*Model_Space
  1

  0
ENDBLK
  5
21
330
1F
100
AcDbEntity
  8
0
100
AcDbBlockEnd
  0
BLOCK
  5
1C
330
1B
100
AcDbEntity
 67
     1
  8
0
100
AcDbBlockBegin
  2
*Paper_Space
 70
     0
 10
0.0
 20
0.0
 30
0.0
  3
*Paper_Space
  1

  0
ENDBLK
  5
1D
330
1B
100
AcDbEntity
 67
     1
  8
0
100
AcDbBlockEnd
  0
BLOCK
  5
24
330
23
100
AcDbEntity
  8
0
100
AcDbBlockBegin
  2
*Paper_Space0
 70
     0
 10
0.0
 20
0.0
 30
0.0
  3
*Paper_Space0
  1

  0
ENDBLK
  5
25
330
23
100
AcDbEntity
  8
0
100
AcDbBlockEnd
  0
BLOCK
  5
4C
330
4B
100
AcDbEntity
  8
0
100
AcDbBlockBegin
  2
開示A4
 70
     0
 10
0.0
 20
0.0
 30
0.0
  3
開示A4
  1

  0
POINT
  5
5F
330
4B
100
AcDbEntity
  8
1
 62
     4
100
AcDbPoint
 10
34.0
 20
34.0
 30
0.0
  0
POINT
  5
60
330
4B
100
AcDbEntity
  8
1
 62
     4
100
AcDbPoint
 10
57.0
 20
12.25
 30
0.0
  0
POINT
  5
61
330
4B
100
AcDbEntity
  8
1
 62
     4
100
AcDbPoint
 10
57.0
 20
20.75
 30
0.0
  0
POINT
  5
62
330
4B
100
AcDbEntity
  8
1
 62
     4
100
AcDbPoint
 10
57.0
 20
24.75
 30
0.0
  0
POINT
  5
63
330
4B
100
AcDbEntity
  8
1
 62
     4
100
AcDbPoint
 10
57.0
 20
16.25
 30
0.0
  0
POINT
  5
64
330
4B
100
AcDbEntity
  8
1
 62
     4
100
AcDbPoint
 10
157.5
 20
19.0
 30
0.0
  0
POINT
  5
65
330
4B
100
AcDbEntity
  8
1
 62
     4
100
AcDbPoint
 10
47.5
 20
282.0000000000003
 30
0.0
  0
POINT
  5
66
330
4B
100
AcDbEntity
  8
1
 62
     4
100
AcDbPoint
 10
57.0
 20
22.75
 30
0.0
  0
POINT
  5
67
330
4B
100
AcDbEntity
  8
1
 62
     4
100
AcDbPoint
 10
57.0
 20
14.25
 30
0.0
  0
POINT
  5
68
330
4B
100
AcDbEntity
  8
1
 62
     4
100
AcDbPoint
 10
157.5
 20
12.5
 30
0.0
  0
POINT
  5
69
330
4B
100
AcDbEntity
  8
1
 62
     4
100
AcDbPoint
 10
163.25
 20
12.5
 30
0.0
  0
POINT
  5
6A
330
4B
100
AcDbEntity
  8
1
 62
     4
100
AcDbPoint
 10
151.75
 20
12.5
 30
0.0
  0
POINT
  5
6B
330
4B
100
AcDbEntity
  8
1
 62
     4
100
AcDbPoint
 10
134.75
 20
12.5
 30
0.0
  0
POINT
  5
6C
330
4B
100
AcDbEntity
  8
1
 62
     4
100
AcDbPoint
 10
146.25
 20
12.5
 30
0.0
  0
POINT
  5
6D
330
4B
100
AcDbEntity
  8
1
 62
     4
100
AcDbPoint
 10
140.5
 20
12.5
 30
0.0
  0
POINT
  5
6E
330
4B
100
AcDbEntity
  8
1
 62
     4
100
AcDbPoint
 10
140.5
 20
19.0
 30
0.0
  0
POINT
  5
6F
330
4B
100
AcDbEntity
  8
1
 62
     4
100
AcDbPoint
 10
117.75
 20
12.5
 30
0.0
  0
POINT
  5
70
330
4B
100
AcDbEntity
  8
1
 62
     4
100
AcDbPoint
 10
129.25
 20
12.5
 30
0.0
  0
POINT
  5
71
330
4B
100
AcDbEntity
  8
1
 62
     4
100
AcDbPoint
 10
123.5
 20
12.5
 30
0.0
  0
POINT
  5
72
330
4B
100
AcDbEntity
  8
1
 62
     4
100
AcDbPoint
 10
123.5
 20
19.0
 30
0.0
  0
POINT
  5
73
330
4B
100
AcDbEntity
  8
1
 62
     4
100
AcDbPoint
 10
100.75
 20
12.5
 30
0.0
  0
POINT
  5
74
330
4B
100
AcDbEntity
  8
1
 62
     4
100
AcDbPoint
 10
112.25
 20
12.5
 30
0.0
  0
POINT
  5
75
330
4B
100
AcDbEntity
  8
1
 62
     4
100
AcDbPoint
 10
106.5
 20
12.5
 30
0.0
  0
POINT
  5
76
330
4B
100
AcDbEntity
  8
1
 62
     4
100
AcDbPoint
 10
106.5
 20
19.0
 30
0.0
  0
POINT
  5
77
330
4B
100
AcDbEntity
  8
1
 62
     4
100
AcDbPoint
 10
85.25
 20
17.0
 30
0.0
  0
POINT
  5
78
330
4B
100
AcDbEntity
  8
1
 62
     4
100
AcDbPoint
 10
93.75
 20
17.0
 30
0.0
  0
LINE
  5
79
330
4B
100
AcDbEntity
  8
1
  6
Continuous
 62
     2
100
AcDbLine
 10
81.0
 20
27.0
 30
0.0
 11
81.0
 21
10.0
 31
0.0
  0
LINE
  5
7A
330
4B
100
AcDbEntity
  8
1
  6
DOT_CENTER
 62
     2
100
AcDbLine
 10
187.0
 20
26.5
 30
0.0
 11
187.0
 21
20.5
 31
0.0
  0
LINE
  5
7B
330
4B
100
AcDbEntity
  8
1
  6
DOT_CENTER
 62
     2
100
AcDbLine
 10
184.0
 20
23.5
 30
0.0
 11
197.0
 21
23.5
 31
0.0
  0
LINE
  5
7C
330
4B
100
AcDbEntity
  8
1
  6
Continuous
 62
     7
100
AcDbLine
 10
196.0
 20
21.5
 30
0.0
 11
191.0
 21
22.3
 31
0.0
  0
LINE
  5
7D
330
4B
100
AcDbEntity
  8
1
  6
Continuous
 62
     7
100
AcDbLine
 10
196.0
 20
25.5
 30
0.0
 11
196.0
 21
21.5
 31
0.0
  0
LINE
  5
7E
330
4B
100
AcDbEntity
  8
1
  6
Continuous
 62
     7
100
AcDbLine
 10
191.0
 20
24.7
 30
0.0
 11
196.0
 21
25.5
 31
0.0
  0
LINE
  5
7F
330
4B
100
AcDbEntity
  8
1
  6
Continuous
 62
     7
100
AcDbLine
 10
191.0
 20
24.7
 30
0.0
 11
191.0
 21
22.3
 31
0.0
  0
LINE
  5
80
330
4B
100
AcDbEntity
  8
1
  6
Continuous
 62
     2
100
AcDbLine
 10
33.0
 20
27.0
 30
0.0
 11
33.0
 21
10.0
 31
0.0
  0
LINE
  5
81
330
4B
100
AcDbEntity
  8
1
  6
Continuous
 62
     2
100
AcDbLine
 10
25.0
 20
18.5
 30
0.0
 11
81.0
 21
18.5
 31
0.0
  0
LINE
  5
82
330
4B
100
AcDbEntity
  8
1
  6
Continuous
 62
     7
100
AcDbLine
 10
200.0
 20
287.0000000000003
 30
0.0
 11
105.0
 21
287.0000000000003
 31
0.0
  0
LINE
  5
83
330
4B
100
AcDbEntity
  8
1
  6
Continuous
 62
     7
100
AcDbLine
 10
200.0
 20
10.0
 30
0.0
 11
200.0
 21
148.5
 31
0.0
  0
LINE
  5
84
330
4B
100
AcDbEntity
  8
1
  6
Continuous
 62
     7
100
AcDbLine
 10
25.0
 20
10.0
 30
0.0
 11
105.0
 21
10.0
 31
0.0
  0
LINE
  5
85
330
4B
100
AcDbEntity
  8
1
  6
PHANTOM
 62
     4
100
AcDbLine
 10
0.0
 20
297.0
 30
0.0
 11
0.0
 21
0.0
 31
0.0
  0
LINE
  5
86
330
4B
100
AcDbEntity
  8
1
  6
PHANTOM
 62
     4
100
AcDbLine
 10
210.0
 20
297.0
 30
0.0
 11
0.0
 21
297.0
 31
0.0
  0
LINE
  5
87
330
4B
100
AcDbEntity
  8
1
  6
PHANTOM
 62
     4
100
AcDbLine
 10
210.0
 20
0.0
 30
0.0
 11
210.0
 21
297.0
 31
0.0
  0
LINE
  5
88
330
4B
100
AcDbEntity
  8
1
  6
PHANTOM
 62
     4
100
AcDbLine
 10
0.0
 20
0.0
 30
0.0
 11
210.0
 21
0.0
 31
0.0
  0
LINE
  5
89
330
4B
100
AcDbEntity
  8
1
  6
Continuous
 62
     7
100
AcDbLine
 10
25.0
 20
41.0
 30
0.0
 11
200.0
 21
41.0
 31
0.0
  0
LINE
  5
8A
330
4B
100
AcDbEntity
  8
1
  6
Continuous
 62
     7
100
AcDbLine
 10
200.0
 20
27.0
 30
0.0
 11
25.0
 21
27.0
 31
0.0
  0
LINE
  5
8B
330
4B
100
AcDbEntity
  8
1
  6
Continuous
 62
     2
100
AcDbLine
 10
33.0
 20
41.0
 30
0.0
 11
33.0
 21
27.0
 31
0.0
  0
LINE
  5
8C
330
4B
100
AcDbEntity
  8
1
  6
Continuous
 62
     2
100
AcDbLine
 10
55.0
 20
287.0000000000003
 30
0.0
 11
55.0
 21
277.0000000000003
 31
0.0
  0
LINE
  5
8D
330
4B
100
AcDbEntity
  8
1
  6
Continuous
 62
     2
100
AcDbLine
 10
40.0
 20
287.0000000000003
 30
0.0
 11
40.0
 21
277.0000000000003
 31
0.0
  0
LINE
  5
8E
330
4B
100
AcDbEntity
  8
1
  6
Continuous
 62
     7
100
AcDbLine
 10
25.0
 20
10.0
 30
0.0
 11
25.0
 21
148.5
 31
0.0
  0
LINE
  5
8F
330
4B
100
AcDbEntity
  8
1
  6
Continuous
 62
     2
100
AcDbLine
 10
55.0
 20
277.0000000000003
 30
0.0
 11
25.0
 21
277.0000000000003
 31
0.0
  0
LINE
  5
90
330
4B
100
AcDbEntity
  8
1
  6
Continuous
 62
     2
100
AcDbLine
 10
166.0
 20
27.0
 30
0.0
 11
166.0
 21
10.0
 31
0.0
  0
LINE
  5
91
330
4B
100
AcDbEntity
  8
1
  6
Continuous
 62
     2
100
AcDbLine
 10
132.0
 20
27.0
 30
0.0
 11
132.0
 21
10.0
 31
0.0
  0
LINE
  5
92
330
4B
100
AcDbEntity
  8
1
  6
Continuous
 62
     2
100
AcDbLine
 10
149.0
 20
27.0
 30
0.0
 11
149.0
 21
10.0
 31
0.0
  0
LINE
  5
93
330
4B
100
AcDbEntity
  8
1
  6
Continuous
 62
     2
100
AcDbLine
 10
115.0
 20
27.0
 30
0.0
 11
115.0
 21
10.0
 31
0.0
  0
LINE
  5
94
330
4B
100
AcDbEntity
  8
1
  6
Continuous
 62
     2
100
AcDbLine
 10
98.0
 20
27.0
 30
0.0
 11
98.0
 21
10.0
 31
0.0
  0
LINE
  5
95
330
4B
100
AcDbEntity
  8
1
  6
Continuous
 62
     2
100
AcDbLine
 10
166.0
 20
20.0
 30
0.0
 11
200.0
 21
20.0
 31
0.0
  0
LINE
  5
96
330
4B
100
AcDbEntity
  8
1
  6
Continuous
 62
     2
100
AcDbLine
 10
105.0
 20
287.0000000000003
 30
0.0
 11
105.0
 21
292.0000000000003
 31
0.0
  0
LINE
  5
97
330
4B
100
AcDbEntity
  8
1
  6
Continuous
 62
     7
100
AcDbLine
 10
105.0
 20
287.0000000000003
 30
0.0
 11
25.0
 21
287.0000000000003
 31
0.0
  0
LINE
  5
98
330
4B
100
AcDbEntity
  8
1
  6
Continuous
 62
     2
100
AcDbLine
 10
25.0
 20
148.5
 30
0.0
 11
20.0
 21
148.5
 31
0.0
  0
LINE
  5
99
330
4B
100
AcDbEntity
  8
1
  6
Continuous
 62
     7
100
AcDbLine
 10
25.0
 20
148.5
 30
0.0
 11
25.0
 21
287.0000000000003
 31
0.0
  0
LINE
  5
9A
330
4B
100
AcDbEntity
  8
1
  6
Continuous
 62
     2
100
AcDbLine
 10
200.0
 20
148.5
 30
0.0
 11
205.0
 21
148.5
 31
0.0
  0
LINE
  5
9B
330
4B
100
AcDbEntity
  8
1
  6
Continuous
 62
     7
100
AcDbLine
 10
200.0
 20
148.5
 30
0.0
 11
200.0
 21
287.0000000000003
 31
0.0
  0
LINE
  5
9C
330
4B
100
AcDbEntity
  8
1
  6
Continuous
 62
     2
100
AcDbLine
 10
105.0
 20
10.0
 30
0.0
 11
105.0
 21
5.0
 31
0.0
  0
LINE
  5
9D
330
4B
100
AcDbEntity
  8
1
  6
Continuous
 62
     7
100
AcDbLine
 10
105.0
 20
10.0
 30
0.0
 11
200.0
 21
10.0
 31
0.0
  0
CIRCLE
  5
9E
330
4B
100
AcDbEntity
  8
1
  6
DOT_CENTER
 62
     7
100
AcDbCircle
 10
89.5
 20
18.0
 30
0.0
 40
0.0999999999999943
  0
CIRCLE
  5
9F
330
4B
100
AcDbEntity
  8
1
  6
DOT_CENTER
 62
     7
100
AcDbCircle
 10
89.5
 20
16.0
 30
0.0
 40
0.0999999999999943
  0
CIRCLE
  5
A0
330
4B
100
AcDbEntity
  8
1
  6
Continuous
 62
     7
100
AcDbCircle
 10
187.0
 20
23.5
 30
0.0
 40
2.0
  0
CIRCLE
  5
A1
330
4B
100
AcDbEntity
  8
1
  6
Continuous
 62
     7
100
AcDbCircle
 10
187.0
 20
23.5
 30
0.0
 40
1.200000000000102
  0
CIRCLE
  5
A2
330
4B
100
AcDbEntity
  8
1
  6
Continuous
 62
     7
100
AcDbCircle
 10
154.5
 20
12.5
 30
0.0
 40
0.3000000000000114
  0
CIRCLE
  5
A3
330
4B
100
AcDbEntity
  8
1
  6
Continuous
 62
     7
100
AcDbCircle
 10
160.5
 20
12.5
 30
0.0
 40
0.3000000000000114
  0
CIRCLE
  5
A4
330
4B
100
AcDbEntity
  8
1
  6
Continuous
 62
     7
100
AcDbCircle
 10
143.5
 20
12.5
 30
0.0
 40
0.3000000000000114
  0
CIRCLE
  5
A5
330
4B
100
AcDbEntity
  8
1
  6
Continuous
 62
     7
100
AcDbCircle
 10
137.5
 20
12.5
 30
0.0
 40
0.3000000000000114
  0
CIRCLE
  5
A6
330
4B
100
AcDbEntity
  8
1
  6
Continuous
 62
     7
100
AcDbCircle
 10
126.5
 20
12.5
 30
0.0
 40
0.2999999999999972
  0
CIRCLE
  5
A7
330
4B
100
AcDbEntity
  8
1
  6
Continuous
 62
     7
100
AcDbCircle
 10
120.5
 20
12.5
 30
0.0
 40
0.2999999999999972
  0
CIRCLE
  5
A8
330
4B
100
AcDbEntity
  8
1
  6
Continuous
 62
     7
100
AcDbCircle
 10
109.5
 20
12.5
 30
0.0
 40
0.2999999999999972
  0
CIRCLE
  5
A9
330
4B
100
AcDbEntity
  8
1
  6
Continuous
 62
     7
100
AcDbCircle
 10
103.5
 20
12.5
 30
0.0
 40
0.2999999999999972
  0
MTEXT
  5
AB
330
4B
100
AcDbEntity
  8
1
 62
   250
100
AcDbMText
 10
25.0
 20
5.0
 30
0.0
 40
3.5
 41
0.0
 71
     4
 72
     1
  1
備考欄の文字列 原点位置=4
  7
CONVERTER_11
 73
     1
 44
0.54545454545455
  0
MTEXT
  5
AC
330
4B
100
AcDbEntity
  8
1
 62
     2
100
AcDbMText
 10
89.5
 20
24.0
 30
0.0
 40
3.5
 41
0.0
 71
     5
 72
     1
  1
尺度
  7
CONVERTER_11
 73
     1
 44
0.54545454545455
  0
MTEXT
  5
AD
330
4B
100
AcDbEntity
  8
1
 62
     2
100
AcDbMText
 10
135.5
 20
25.0
 30
0.0
 40
3.0
 41
0.0
 71
     5
 72
     1
  1
製図
  7
CONVERTER_11
 73
     1
 44
0.59090909090909
  0
MTEXT
  5
AE
330
4B
100
AcDbEntity
  8
1
 62
     2
100
AcDbMText
 10
152.5
 20
25.0
 30
0.0
 40
3.0
 41
0.0
 71
     5
 72
     1
  1
担当
  7
CONVERTER_11
 73
     1
 44
0.59090909090909
  0
MTEXT
  5
AF
330
4B
100
AcDbEntity
  8
1
 62
     2
100
AcDbMText
 10
118.5
 20
25.0
 30
0.0
 40
3.0
 41
0.0
 71
     5
 72
     1
  1
検図
  7
CONVERTER_11
 73
     1
 44
0.59090909090909
  0
MTEXT
  5
B0
330
4B
100
AcDbEntity
  8
1
 62
     2
100
AcDbMText
 10
175.0
 20
23.5
 30
0.0
 40
3.5
 41
0.0
 71
     5
 72
     1
  1
第三角法
  7
CONVERTER_11
 73
     1
 44
0.54545454545455
  0
MTEXT
  5
B1
330
4B
100
AcDbEntity
  8
1
 62
     2
100
AcDbMText
 10
101.5
 20
25.0
 30
0.0
 40
3.0
 41
0.0
 71
     5
 72
     1
  1
承認
  7
CONVERTER_11
 73
     1
 44
0.59090909090909
  0
MTEXT
  5
B2
330
4B
100
AcDbEntity
  8
1
 62
     2
100
AcDbMText
 10
29.0
 20
14.25
 30
0.0
 40
3.5
 41
0.0
 71
     5
 72
     1
  1
品番
  7
CONVERTER_11
 73
     1
 44
0.72727272727273
  0
MTEXT
  5
B3
330
4B
100
AcDbEntity
  8
1
 62
     2
100
AcDbMText
 10
29.0
 20
22.75
 30
0.0
 40
3.5
 41
0.0
 71
     5
 72
     1
  1
品名
  7
CONVERTER_11
 73
     1
 44
0.72727272727273
  0
MTEXT
  5
B4
330
4B
100
AcDbEntity
  8
1
 62
     2
100
AcDbMText
 10
29.0
 20
34.0
 30
0.0
 40
3.5
 41
0.0
 71
     5
 72
     1
  1
備考
  7
CONVERTER_11
 73
     1
 44
0.45454545454545
  0
MTEXT
  5
B5
330
4B
100
AcDbEntity
  8
1
 62
     2
100
AcDbMText
 10
32.5
 20
282.0000000000003
 30
0.0
 40
5.0
 41
0.0
 71
     5
 72
     1
  1
図番
  7
CONVERTER_11
 73
     1
 44
0.45454545454545
  0
MTEXT
  5
B6
330
4B
100
AcDbEntity
  8
1
 62
     7
100
AcDbMText
 10
171.5
 20
15.0
 30
0.0
 40
2.5
 41
0.0
 71
     5
 72
     1
  1
株式会社
  7
CONVERTER_11
 73
     1
 44
1.0
  0
MTEXT
  5
B7
330
4B
100
AcDbEntity
  8
1
 62
     7
100
AcDbMText
 10
188.5
 20
15.0
 30
0.0
 40
3.0
 41
0.0
 71
     5
 72
     1
  1
三栄水栓製作所
  7
CONVERTER_11
 73
     1
 44
1.0
  0
ENDBLK
  5
4D
330
4B
100
AcDbEntity
  8
0
100
AcDbBlockEnd
  0
BLOCK
  5
4F
330
4E
100
AcDbEntity
  8
0
100
AcDbBlockBegin
  2
_G37__1
 70
     0
 10
33.84539721003532
 20
203.2795817686476
 30
0.0
  3
_G37__1
  1

  0
MTEXT
  5
B9
330
4E
100
AcDbEntity
  8
2
 62
     2
100
AcDbMText
 10
216.1772449643254
 20
275.547717165527
 30
0.0
 40
3.2
 41
0.0
 71
     7
 72
     1
  1
2
  7
CONVERTER_12
 11
-0.9391645202226194
 21
-0.3434676170398271
 31
0.0
 73
     1
 44
1.0
  0
MTEXT
  5
BA
330
4E
100
AcDbEntity
  8
2
 62
     2
100
AcDbMText
 10
214.4448010723024
 20
274.9255622798858
 30
0.0
 40
3.2
 41
0.0
 71
     7
 72
     1
  1
5
  7
CONVERTER_12
 11
-0.9660026595408517
 21
-0.2585321290671649
 31
0.0
 73
     1
 44
1.0
  0
MTEXT
  5
BB
330
4E
100
AcDbEntity
  8
2
 62
     2
100
AcDbMText
 10
212.6638667235595
 20
274.4600395777514
 30
0.0
 40
3.2
 41
0.0
 71
     7
 72
     1
  1
/
  7
CONVERTER_12
 11
-0.9851762218947432
 21
-0.171545363718172
 31
0.0
 73
     1
 44
1.0
  0
MTEXT
  5
BC
330
4E
100
AcDbEntity
  8
2
 62
     2
100
AcDbMText
 10
210.8485724261744
 20
274.1548426665318
 30
0.0
 40
3.2
 41
0.0
 71
     7
 72
     1
  1
3
  7
CONVERTER_12
 11
-0.996533078050599
 21
-0.0831975020718697
 31
0.0
 73
     1
 44
1.0
  0
MTEXT
  5
BD
330
4E
100
AcDbEntity
  8
2
 62
     2
100
AcDbMText
 10
209.0133213111523
 20
274.0123930770498
 30
0.0
 40
3.2
 41
0.0
 71
     7
 72
     1
  1
2
  7
CONVERTER_12
 11
-0.999983119045241
 21
0.005810475415288072
 31
0.0
 73
     1
 44
1.0
  0
MTEXT
  5
BF
330
4E
100
AcDbEntity
  8
2
 62
     2
100
AcDbMText
 10
207.1672743104063
 20
273.9876494239105
 30
0.0
 40
3.2
 41
0.0
 71
     7
 72
     1
  1
×
  7
CONVERTER_13
 11
-0.9910813530358705
 21
0.1332582142480829
 31
0.0
 73
     1
 44
0.75727272727273
  0
MTEXT
  5
C0
330
4E
100
AcDbEntity
  8
2
 62
     2
100
AcDbMText
 10
203.7674708293574
 20
274.5119050177021
 30
0.0
 40
3.2
 41
0.0
 71
     7
 72
     1
  1
4
  7
CONVERTER_12
 11
-0.9660029911050836
 21
0.258530890177619
 31
0.0
 73
     1
 44
1.0
  0
MTEXT
  5
C1
330
4E
100
AcDbEntity
  8
2
 62
     2
100
AcDbMText
 10
201.9920852908053
 20
274.9981608456722
 30
0.0
 40
3.2
 41
0.0
 71
     7
 72
     1
  1
0
  7
CONVERTER_12
 11
-0.9391649607158382
 21
0.343466412569873
 31
0.0
 73
     1
 44
1.0
  0
ENDBLK
  5
50
330
4E
100
AcDbEntity
  8
0
100
AcDbBlockEnd
  0
BLOCK
  5
53
330
51
100
AcDbEntity
  8
0
100
AcDbBlockBegin
  2
パッキン小
 70
     0
 10
111.014337426512
 20
77.61632690225257
 30
0.0
  3
パッキン小
  1

  0
INSERT
  5
52
330
51
100
AcDbEntity
  8
0
100
AcDbBlockReference
  2
_G37__1
 10
33.84539721003532
 20
203.2795817686476
 30
0.0
  0
POINT
  5
C2
330
51
100
AcDbEntity
  8
4
 62
     7
100
AcDbPoint
 10
189.5833342519419
 20
222.6666666666672
 30
0.0
  0
POINT
  5
C3
330
51
100
AcDbEntity
  8
4
 62
     7
100
AcDbPoint
 10
189.5833342519419
 20
217.6666666666672
 30
0.0
  0
POINT
  5
C4
330
51
100
AcDbEntity
  8
4
 62
     7
100
AcDbPoint
 10
189.5833342546834
 20
215.6653017492355
 30
0.0
  0
POINT
  5
C5
330
51
100
AcDbEntity
  8
4
 62
     7
100
AcDbPoint
 10
189.5833342519419
 20
213.6666666666672
 30
0.0
  0
POINT
  5
C6
330
51
100
AcDbEntity
  8
4
 62
     7
100
AcDbPoint
 10
189.5833342519419
 20
212.1666666666673
 30
0.0
  0
POINT
  5
C7
330
51
100
AcDbEntity
  8
4
 62
     7
100
AcDbPoint
 10
189.5833342519419
 20
224.6666666666672
 30
0.0
  0
POINT
  5
C8
330
51
100
AcDbEntity
  8
4
 62
     7
100
AcDbPoint
 10
189.5833342519419
 20
222.6666666388354
 30
0.0
  0
POINT
  5
C9
330
51
100
AcDbEntity
  8
4
 62
     7
100
AcDbPoint
 10
189.5833342519419
 20
217.6666666666672
 30
0.0
  0
POINT
  5
CA
330
51
100
AcDbEntity
  8
4
 62
     7
100
AcDbPoint
 10
189.5833342519419
 20
215.6653017492355
 30
0.0
  0
POINT
  5
CB
330
51
100
AcDbEntity
  8
4
 62
     7
100
AcDbPoint
 10
226.3333345581706
 20
209.1666666666672
 30
0.0
  0
POINT
  5
CC
330
51
100
AcDbEntity
  8
4
 62
     7
100
AcDbPoint
 10
183.8333342519419
 20
235.1666666666668
 30
0.0
  0
POINT
  5
CD
330
51
100
AcDbEntity
  8
4
 62
     7
100
AcDbPoint
 10
189.5833342519419
 20
209.5983143160196
 30
0.0
  0
POINT
  5
CE
330
51
100
AcDbEntity
  8
4
 62
     7
100
AcDbPoint
 10
228.8333342519418
 20
213.1666666666672
 30
0.0
  0
POINT
  5
CF
330
51
100
AcDbEntity
  8
4
 62
     7
100
AcDbPoint
 10
232.8333342519419
 20
235.1676165749078
 30
0.0
  0
POINT
  5
D0
330
51
100
AcDbEntity
  8
4
 62
     7
100
AcDbPoint
 10
228.8333342519419
 20
213.1653016141266
 30
0.0
  0
POINT
  5
D1
330
51
100
AcDbEntity
  8
4
 62
     7
100
AcDbPoint
 10
189.5833333333332
 20
209.6666666666672
 30
0.0
  0
LINE
  5
D2
330
51
100
AcDbEntity
  8
3
  6
Continuous
 62
     7
100
AcDbLine
 10
232.8333354767024
 20
239.6694582658899
 30
0.0
 11
232.8333351705507
 21
235.1666666666668
 31
0.0
  0
LINE
  5
D3
330
51
100
AcDbEntity
  8
3
  6
Continuous
 62
     7
100
AcDbLine
 10
232.8333351705507
 20
235.1666666666668
 30
0.0
 11
228.0830175311046
 21
235.1666303781028
 31
0.0
  0
LINE
  5
D4
330
51
100
AcDbEntity
  8
3
  6
Continuous
 62
     7
100
AcDbLine
 10
227.0833354767023
 20
214.1666666666672
 30
0.0
 11
227.0833354767023
 21
215.303221335691
 31
0.0
  0
LINE
  5
D5
330
51
100
AcDbEntity
  8
3
  6
Continuous
 62
     7
100
AcDbLine
 10
227.0833354767023
 20
209.6680317192077
 30
0.0
 11
227.0833354767023
 21
211.8205628385622
 31
0.0
  0
LINE
  5
D6
330
51
100
AcDbEntity
  8
3
  6
Continuous
 62
     7
100
AcDbLine
 10
227.0833354767023
 20
209.6680317192077
 30
0.0
 11
226.3333351705507
 21
209.1680317192077
 31
0.0
  0
LINE
  5
D7
330
51
100
AcDbEntity
  8
3
  6
Continuous
 62
     7
100
AcDbLine
 10
220.3333354747657
 20
209.1680317192077
 30
0.0
 11
226.3328679686439
 21
209.1680317192077
 31
0.0
  0
LINE
  5
D8
330
51
100
AcDbEntity
  8
1
  6
DASHDOT_2
 62
     6
100
AcDbLine
 10
182.3333311242093
 20
294.6666666666669
 30
0.0
 11
235.7880466930713
 21
294.6666666666669
 31
0.0
  0
LINE
  5
D9
330
51
100
AcDbEntity
  8
1
  6
DASHDOT_2
 62
     6
100
AcDbLine
 10
208.3333314607923
 20
320.9434957749965
 30
0.0
 11
208.3333351667444
 21
268.9389343167694
 31
0.0
  0
LINE
  5
DA
330
51
100
AcDbEntity
  8
3
  6
Continuous
 62
     7
100
AcDbLine
 10
208.3333342519419
 20
209.6680317192077
 30
0.0
 11
227.0833354767023
 21
209.6680317192077
 31
0.0
  0
LINE
  5
DB
330
51
100
AcDbEntity
  8
3
  6
Continuous
 62
     7
100
AcDbLine
 10
227.5758603837244
 20
213.6680875993454
 30
0.0
 11
208.3333342519419
 21
213.6680317192077
 31
0.0
  0
LINE
  5
DC
330
51
100
AcDbEntity
  8
3
  6
Continuous
 62
     7
100
AcDbLine
 10
208.3333342519419
 20
217.6680317192077
 30
0.0
 11
227.6316927860582
 21
217.6680317192077
 31
0.0
  0
LINE
  5
DD
330
51
100
AcDbEntity
  8
3
  6
Continuous
 62
     7
100
AcDbLine
 10
208.3333354767023
 20
241.6666666666668
 30
0.0
 11
228.3333354767023
 21
241.6666666666668
 31
0.0
  0
LINE
  5
DE
330
51
100
AcDbEntity
  8
3
  6
Continuous
 62
     7
100
AcDbLine
 10
208.3333351705507
 20
209.1680317192077
 30
0.0
 11
220.3333351704117
 21
209.1680317192077
 31
0.0
  0
LINE
  5
DF
330
51
100
AcDbEntity
  8
3
  6
Continuous
 62
     7
100
AcDbLine
 10
208.3333342519419
 20
224.6679065531684
 30
0.0
 11
227.5445614109083
 21
224.6679065531684
 31
0.0
  0
LINE
  5
E0
330
51
100
AcDbEntity
  8
3
  6
Continuous
 62
     7
100
AcDbLine
 10
227.5903568921652
 20
217.6680317192077
 30
0.0
 11
230.7232369199953
 21
217.6680317192077
 31
0.0
  0
LINE
  5
E1
330
51
100
AcDbEntity
  8
3
  6
Continuous
 62
     7
100
AcDbLine
 10
227.4290436642026
 20
215.778819944389
 30
0.0
 11
230.8466703699951
 21
216.8875528322493
 31
0.0
  0
LINE
  5
E2
330
51
100
AcDbEntity
  8
3
  6
Continuous
 62
     7
100
AcDbLine
 10
227.5833354767023
 20
213.6680317192077
 30
0.0
 11
228.3213917470621
 21
213.6680317192077
 31
0.0
  0
LINE
  5
E3
330
51
100
AcDbEntity
  8
3
  6
Continuous
 62
     7
100
AcDbLine
 10
227.4072719795478
 20
212.2899041220951
 30
0.0
 11
228.4974549380648
 21
212.7000554882153
 31
0.0
  0
LINE
  5
E4
330
51
100
AcDbEntity
  8
3
  6
Continuous
 62
     7
100
AcDbLine
 10
208.3333342519419
 20
235.1666666666668
 30
0.0
 11
228.0830175311046
 21
235.1666303781028
 31
0.0
  0
LINE
  5
E5
330
51
100
AcDbEntity
  8
3
  6
Continuous
 62
     7
100
AcDbLine
 10
227.0833353004544
 20
218.16627194259
 30
0.0
 11
227.0833342789585
 21
222.3161658892043
 31
0.0
  0
LINE
  5
E6
330
51
100
AcDbEntity
  8
3
  6
Continuous
 62
     7
100
AcDbLine
 10
227.4290424664588
 20
222.7917646209773
 30
0.0
 11
230.8067677019417
 21
223.8875528322493
 31
0.0
  0
LINE
  5
E7
330
51
100
AcDbEntity
  8
3
  6
Continuous
 62
     7
100
AcDbLine
 10
227.0833452384734
 20
225.1680297705467
 30
0.0
 11
227.0833100972868
 21
234.1847818424618
 31
0.0
  0
LINE
  5
E8
330
51
100
AcDbEntity
  8
3
  6
Continuous
 62
     7
100
AcDbLine
 10
227.5833452384696
 20
224.6680317192077
 30
0.0
 11
230.7190289024157
 21
224.6680317192077
 31
0.0
  0
LINE
  5
E9
330
51
100
AcDbEntity
  8
3
  6
Continuous
 62
     7
100
AcDbLine
 10
185.833333296353
 20
241.6700406340958
 30
0.0
 11
188.3333333333331
 21
241.6666666666668
 31
0.0
  0
LINE
  5
EA
330
51
100
AcDbEntity
  8
3
  6
Continuous
 62
     7
100
AcDbLine
 10
183.833333333333
 20
239.6694582658899
 30
0.0
 11
183.8333336394848
 21
235.1666666666668
 31
0.0
  0
LINE
  5
EB
330
51
100
AcDbEntity
  8
3
  6
Continuous
 62
     7
100
AcDbLine
 10
183.8333336394848
 20
235.1666666666668
 30
0.0
 11
188.5836512789308
 21
235.1666303781028
 31
0.0
  0
LINE
  5
EC
330
51
100
AcDbEntity
  8
3
  6
Continuous
 62
     7
100
AcDbLine
 10
189.5833333333332
 20
214.1666666666672
 30
0.0
 11
189.5833333333331
 21
215.303221335691
 31
0.0
  0
LINE
  5
ED
330
51
100
AcDbEntity
  8
3
  6
Continuous
 62
     7
100
AcDbLine
 10
189.5833333333332
 20
209.6680317192077
 30
0.0
 11
189.5833333333332
 21
211.8205628385622
 31
0.0
  0
LINE
  5
EE
330
51
100
AcDbEntity
  8
3
  6
Continuous
 62
     7
100
AcDbLine
 10
189.5833333333332
 20
209.6680317192077
 30
0.0
 11
190.3333336394848
 21
209.1680317192077
 31
0.0
  0
LINE
  5
EF
330
51
100
AcDbEntity
  8
3
  6
Continuous
 62
     7
100
AcDbLine
 10
196.3333333352698
 20
209.1680317192077
 30
0.0
 11
190.3338008413915
 21
209.1680317192077
 31
0.0
  0
LINE
  5
F0
330
51
100
AcDbEntity
  8
3
  6
Continuous
 62
     7
100
AcDbLine
 10
208.3333345580935
 20
209.6680317192077
 30
0.0
 11
189.5833333333332
 21
209.6680317192077
 31
0.0
  0
LINE
  5
F1
330
51
100
AcDbEntity
  8
3
  6
Continuous
 62
     7
100
AcDbLine
 10
189.090808426311
 20
213.6680875993454
 30
0.0
 11
208.3333345580935
 21
213.6680317192077
 31
0.0
  0
LINE
  5
F2
330
51
100
AcDbEntity
  8
3
  6
Continuous
 62
     7
100
AcDbLine
 10
208.3333345580935
 20
217.6680317192077
 30
0.0
 11
189.0349760239772
 21
217.6680317192077
 31
0.0
  0
LINE
  5
F3
330
51
100
AcDbEntity
  8
3
  6
Continuous
 62
     7
100
AcDbLine
 10
208.3333333333332
 20
241.6666666666668
 30
0.0
 11
188.3333333333331
 21
241.6666666666668
 31
0.0
  0
LINE
  5
F4
330
51
100
AcDbEntity
  8
3
  6
Continuous
 62
     7
100
AcDbLine
 10
208.3333336394848
 20
209.1680317192077
 30
0.0
 11
196.3333336396237
 21
209.1680317192077
 31
0.0
  0
LINE
  5
F5
330
51
100
AcDbEntity
  8
3
  6
Continuous
 62
     7
100
AcDbLine
 10
208.3333345580935
 20
224.6679065531684
 30
0.0
 11
189.1221073991272
 21
224.6679065531684
 31
0.0
  0
LINE
  5
F6
330
51
100
AcDbEntity
  8
3
  6
Continuous
 62
     7
100
AcDbLine
 10
189.0763119178704
 20
217.6680317192077
 30
0.0
 11
185.9434318900401
 21
217.6680317192077
 31
0.0
  0
LINE
  5
F7
330
51
100
AcDbEntity
  8
3
  6
Continuous
 62
     7
100
AcDbLine
 10
189.2376251458328
 20
215.778819944389
 30
0.0
 11
185.8199984400405
 21
216.8875528322493
 31
0.0
  0
LINE
  5
F8
330
51
100
AcDbEntity
  8
3
  6
Continuous
 62
     7
100
AcDbLine
 10
189.0833333333332
 20
213.6680317192077
 30
0.0
 11
188.3452770629735
 21
213.6680317192077
 31
0.0
  0
LINE
  5
F9
330
51
100
AcDbEntity
  8
3
  6
Continuous
 62
     7
100
AcDbLine
 10
189.2593968304877
 20
212.2899041220951
 30
0.0
 11
188.1692138719708
 21
212.7000554882153
 31
0.0
  0
LINE
  5
FA
330
51
100
AcDbEntity
  8
3
  6
Continuous
 62
     7
100
AcDbLine
 10
208.3333345580935
 20
235.1666666666668
 30
0.0
 11
188.5836512789308
 21
235.1666303781028
 31
0.0
  0
LINE
  5
FB
330
51
100
AcDbEntity
  8
3
  6
Continuous
 62
     7
100
AcDbLine
 10
189.583333509581
 20
218.16627194259
 30
0.0
 11
189.5833345310769
 21
222.3161658892043
 31
0.0
  0
LINE
  5
FC
330
51
100
AcDbEntity
  8
3
  6
Continuous
 62
     7
100
AcDbLine
 10
189.2376263435766
 20
222.7917646209773
 30
0.0
 11
185.8599011080939
 21
223.8875528322493
 31
0.0
  0
LINE
  5
FD
330
51
100
AcDbEntity
  8
3
  6
Continuous
 62
     7
100
AcDbLine
 10
189.583323571562
 20
225.1680297705467
 30
0.0
 11
189.5833587127487
 21
234.1847818424618
 31
0.0
  0
LINE
  5
FE
330
51
100
AcDbEntity
  8
3
  6
Continuous
 62
     7
100
AcDbLine
 10
189.0833235715658
 20
224.6680317192077
 30
0.0
 11
185.9476399076198
 21
224.6680317192077
 31
0.0
  0
LINE
  5
FF
330
51
100
AcDbEntity
  8
3
  6
Continuous
 62
     7
100
AcDbLine
 10
208.3333342519419
 20
222.6666666666672
 30
0.0
 11
227.0833342519419
 21
222.6666666666672
 31
0.0
  0
LINE
  5
100
330
51
100
AcDbEntity
  8
3
  6
Continuous
 62
     7
100
AcDbLine
 10
208.3333345580935
 20
222.6666666666672
 30
0.0
 11
189.5833345580935
 21
222.6666666666672
 31
0.0
  0
LINE
  5
101
330
51
100
AcDbEntity
  8
3
  6
Continuous
 62
     7
100
AcDbLine
 10
208.3333342519419
 20
215.6653017577908
 30
0.0
 11
227.0833342519419
 21
215.6653017577908
 31
0.0
  0
LINE
  5
102
330
51
100
AcDbEntity
  8
3
  6
Continuous
 62
     7
100
AcDbLine
 10
208.3333345580935
 20
215.6653017577908
 30
0.0
 11
189.5833345580935
 21
215.6653017577908
 31
0.0
  0
LINE
  5
103
330
51
100
AcDbEntity
  8
3
  6
Continuous
 62
     7
100
AcDbLine
 10
208.3333342519419
 20
212.1666666666673
 30
0.0
 11
227.0833342519419
 21
212.1666666666673
 31
0.0
  0
LINE
  5
104
330
51
100
AcDbEntity
  8
3
  6
Continuous
 62
     7
100
AcDbLine
 10
208.3333345580935
 20
212.1666666666673
 30
0.0
 11
189.5833345580935
 21
212.1666666666673
 31
0.0
  0
LINE
  5
105
330
51
100
AcDbEntity
  8
3
  6
Continuous
 62
     7
100
AcDbLine
 10
230.8333355136826
 20
241.6700406340958
 30
0.0
 11
228.3333354767023
 21
241.6666666666668
 31
0.0
  0
ARC
  5
106
330
51
100
AcDbEntity
  8
3
  6
Continuous
 62
     7
100
AcDbCircle
 10
230.8333355136826
 20
239.6700406340958
 30
0.0
 40
2.0
100
AcDbArc
 50
0.0
 51
90.0
  0
ARC
  5
107
330
51
100
AcDbEntity
  8
3
  6
Continuous
 62
     7
100
AcDbCircle
 10
227.5833354767023
 20
215.303221335691
 30
0.0
 40
0.4999999999999116
100
AcDbArc
 50
107.9738938761788
 51
180.0
  0
ARC
  5
108
330
51
100
AcDbEntity
  8
3
  6
Continuous
 62
     7
100
AcDbCircle
 10
227.583335299437
 20
218.1685763246764
 30
0.0
 40
0.499999999999999
100
AcDbArc
 50
180.00365506216
 51
269.9584052724643
  0
ARC
  5
109
330
51
100
AcDbEntity
  8
3
  6
Continuous
 62
     7
100
AcDbCircle
 10
227.5833354767023
 20
214.1680317192077
 30
0.0
 40
0.5
100
AcDbArc
 50
179.9999999999772
 51
270.0
  0
ARC
  5
10A
330
51
100
AcDbEntity
  8
3
  6
Continuous
 62
     7
100
AcDbCircle
 10
227.5833354767023
 20
211.8205628385622
 30
0.0
 40
0.4999999999999232
100
AcDbArc
 50
110.6174294112596
 51
180.0
  0
ARC
  5
10B
330
51
100
AcDbEntity
  8
3
  6
Continuous
 62
     7
100
AcDbCircle
 10
228.0831453460345
 20
234.1666303862718
 30
0.0
 40
0.9999999999993321
100
AcDbArc
 50
90.00732325606343
 51
178.9599410506645
  0
ARC
  5
10C
330
51
100
AcDbEntity
  8
3
  6
Continuous
 62
     7
100
AcDbCircle
 10
230.7232369199953
 20
217.2680317192078
 30
0.0
 40
0.4000000000000604
100
AcDbArc
 50
287.9738938761813
 51
90.0
  0
ARC
  5
10D
330
51
100
AcDbEntity
  8
3
  6
Continuous
 62
     7
100
AcDbCircle
 10
228.3213917470621
 20
213.1680317192077
 30
0.0
 40
0.4999999999999098
100
AcDbArc
 50
290.6174294112462
 51
90.0
  0
ARC
  5
10E
330
51
100
AcDbEntity
  8
3
  6
Continuous
 62
     7
100
AcDbCircle
 10
230.6833342519419
 20
224.2680317192078
 30
0.0
 40
0.4000000000000604
100
AcDbArc
 50
287.9738938761813
 51
90.0
  0
ARC
  5
10F
330
51
100
AcDbEntity
  8
3
  6
Continuous
 62
     7
100
AcDbCircle
 10
227.5833342789585
 20
222.3161660122794
 30
0.0
 40
0.4999999999997947
100
AcDbArc
 50
107.9738938761797
 51
180.0000141033672
  0
ARC
  5
110
330
51
100
AcDbEntity
  8
3
  6
Continuous
 62
     7
100
AcDbCircle
 10
227.5833452384696
 20
225.1680317192077
 30
0.0
 40
0.4999999999999887
100
AcDbArc
 50
180.000223300103
 51
270.0
  0
ARC
  5
111
330
51
100
AcDbEntity
  8
3
  6
Continuous
 62
     7
100
AcDbCircle
 10
185.833333296353
 20
239.6700406340958
 30
0.0
 40
2.0
100
AcDbArc
 50
90.0
 51
180.0
  0
ARC
  5
112
330
51
100
AcDbEntity
  8
3
  6
Continuous
 62
     7
100
AcDbCircle
 10
189.0833333333331
 20
215.303221335691
 30
0.0
 40
0.5
100
AcDbArc
 50
0.0
 51
72.02610612382122
  0
ARC
  5
113
330
51
100
AcDbEntity
  8
3
  6
Continuous
 62
     7
100
AcDbCircle
 10
189.0833335105984
 20
218.1685763246764
 30
0.0
 40
0.4999999999999613
100
AcDbArc
 50
270.0415947275357
 51
359.99634493784
  0
ARC
  5
114
330
51
100
AcDbEntity
  8
3
  6
Continuous
 62
     7
100
AcDbCircle
 10
189.0833333333332
 20
214.1680317192077
 30
0.0
 40
0.5
100
AcDbArc
 50
270.0
 51
0.0000000000228
  0
ARC
  5
115
330
51
100
AcDbEntity
  8
3
  6
Continuous
 62
     7
100
AcDbCircle
 10
189.0833333333332
 20
211.8205628385622
 30
0.0
 40
0.5
100
AcDbArc
 50
0.0
 51
69.38257058875264
  0
ARC
  5
116
330
51
100
AcDbEntity
  8
3
  6
Continuous
 62
     7
100
AcDbCircle
 10
188.5835234640011
 20
234.1666303862718
 30
0.0
 40
0.9999999999999832
100
AcDbArc
 50
1.04005894933567
 51
89.9926767439496
  0
ARC
  5
117
330
51
100
AcDbEntity
  8
3
  6
Continuous
 62
     7
100
AcDbCircle
 10
185.9434318900401
 20
217.2680317192078
 30
0.0
 40
0.399999999999892
100
AcDbArc
 50
90.0
 51
252.0261061238497
  0
ARC
  5
118
330
51
100
AcDbEntity
  8
3
  6
Continuous
 62
     7
100
AcDbCircle
 10
188.3452770629735
 20
213.1680317192077
 30
0.0
 40
0.5
100
AcDbArc
 50
90.0
 51
249.3825705887538
  0
ARC
  5
119
330
51
100
AcDbEntity
  8
3
  6
Continuous
 62
     7
100
AcDbCircle
 10
185.9833345580935
 20
224.2680317192078
 30
0.0
 40
0.399999999999892
100
AcDbArc
 50
90.0
 51
252.0261061238497
  0
ARC
  5
11A
330
51
100
AcDbEntity
  8
3
  6
Continuous
 62
     7
100
AcDbCircle
 10
189.0833345310769
 20
222.3161660122794
 30
0.0
 40
0.5000000000000151
100
AcDbArc
 50
359.9999858966328
 51
72.0261061238172
  0
ARC
  5
11B
330
51
100
AcDbEntity
  8
3
  6
Continuous
 62
     7
100
AcDbCircle
 10
189.0833235715658
 20
225.1680317192077
 30
0.0
 40
0.5
100
AcDbArc
 50
270.0
 51
359.999776699897
  0
CIRCLE
  5
11C
330
51
100
AcDbEntity
  8
1
  6
Continuous
 62
     7
100
AcDbCircle
 10
208.3333333333332
 20
154.1666666666666
 30
0.0
 40
12.0
  0
CIRCLE
  5
11D
330
51
100
AcDbEntity
  8
1
  6
Continuous
 62
     7
100
AcDbCircle
 10
208.3333333333332
 20
154.1666666666666
 30
0.0
 40
18.75
  0
CIRCLE
  5
11E
330
51
100
AcDbEntity
  8
1
  6
Continuous
 62
     7
100
AcDbCircle
 10
208.3333333333332
 20
154.1666666666666
 30
0.0
 40
20.5
  0
CIRCLE
  5
11F
330
51
100
AcDbEntity
  8
1
  6
Continuous
 62
     7
100
AcDbCircle
 10
208.3333333333332
 20
154.1666666666666
 30
0.0
 40
22.75
  0
CIRCLE
  5
120
330
51
100
AcDbEntity
  8
1
  6
Continuous
 62
     7
100
AcDbCircle
 10
208.3333333333332
 20
154.1666666666666
 30
0.0
 40
24.5
  0
CIRCLE
  5
121
330
51
100
AcDbEntity
  8
2
  6
Continuous
 62
     7
100
AcDbCircle
 10
208.3333311242093
 20
294.6666666666669
 30
0.0
 40
10.0
  0
CIRCLE
  5
122
330
51
100
AcDbEntity
  8
2
  6
Continuous
 62
     7
100
AcDbCircle
 10
208.3333311242093
 20
294.6666666666669
 30
0.0
 40
12.5
  0
CIRCLE
  5
123
330
51
100
AcDbEntity
  8
2
  6
Continuous
 62
     7
100
AcDbCircle
 10
208.3333311242093
 20
294.6666666666669
 30
0.0
 40
13.5
  0
CIRCLE
  5
124
330
51
100
AcDbEntity
  8
2
  6
Continuous
 62
     7
100
AcDbCircle
 10
208.3333311242093
 20
294.6666666666669
 30
0.0
 40
16.0
  0
CIRCLE
  5
125
330
51
100
AcDbEntity
  8
2
  6
Continuous
 62
     7
100
AcDbCircle
 10
208.3333311242093
 20
294.6666666666669
 30
0.0
 40
17.0
  0
CIRCLE
  5
126
330
51
100
AcDbEntity
  8
2
  6
Continuous
 62
     7
100
AcDbCircle
 10
208.3333311242093
 20
294.6666666666669
 30
0.0
 40
20.0
  0
CIRCLE
  5
127
330
51
100
AcDbEntity
  8
2
  6
Continuous
 62
     7
100
AcDbCircle
 10
208.3333311242093
 20
294.6666666666669
 30
0.0
 40
24.5
  0
MTEXT
  5
128
330
51
100
AcDbEntity
  8
2
 62
     2
100
AcDbMText
 10
187.6812553289234
 20
294.2783722763535
 30
0.0
 40
3.2
 41
0.0
 71
     7
 72
     1
  1
A
  7
CONVERTER_12
 11
6.123233995736770E-17
 21
1.0
 31
0.0
 73
     1
 44
1.0
  0
ENDBLK
  5
54
330
51
100
AcDbEntity
  8
0
100
AcDbBlockEnd
  0
BLOCK
  5
56
330
55
100
AcDbEntity
  8
0
100
AcDbBlockBegin
  2
_G37__2
 70
     0
 10
-82.8212707912304
 20
192.8457142911169
 30
0.0
  3
_G37__2
  1

  0
MTEXT
  5
129
330
55
100
AcDbEntity
  8
2
 62
     2
100
AcDbMText
 10
94.18254781467063
 20
268.1215539102553
 30
0.0
 40
3.2
 41
0.0
 71
     7
 72
     1
  1
8
  7
CONVERTER_12
 11
-0.9950974450669539
 21
-0.09889931658621681
 31
0.0
 73
     1
 44
1.0
  0
MTEXT
  5
12A
330
55
100
AcDbEntity
  8
2
 62
     2
100
AcDbMText
 10
96.91431947290164
 20
268.5261847891253
 30
0.0
 40
3.2
 41
0.0
 71
     7
 72
     1
  1
3
  7
CONVERTER_12
 11
-0.9859037739665288
 21
-0.1673133242708291
 31
0.0
 73
     1
 44
1.0
  0
MTEXT
  5
12B
330
55
100
AcDbEntity
  8
2
 62
     2
100
AcDbMText
 10
93.26666666666662
 20
268.0166672040783
 30
0.0
 40
3.2
 41
0.0
 71
     7
 72
     1
  1
×
  7
CONVERTER_13
 11
-1.0
 21
-1.898821519314990E-15
 31
0.0
 73
     1
 44
0.75727272727273
  0
MTEXT
  5
12C
330
55
100
AcDbEntity
  8
2
 62
     2
100
AcDbMText
 10
89.82706028276561
 20
268.0682017098943
 30
0.0
 40
3.2
 41
0.0
 71
     7
 72
     1
  1
5
  7
CONVERTER_12
 11
-0.9950974450669545
 21
0.09889931658620967
 31
0.0
 73
     1
 44
1.0
  0
MTEXT
  5
12D
330
55
100
AcDbEntity
  8
2
 62
     2
100
AcDbMText
 10
87.99645989877763
 20
268.2584834702919
 30
0.0
 40
3.2
 41
0.0
 71
     7
 72
     1
  1
0
  7
CONVERTER_12
 11
-0.9859037739665301
 21
0.1673133242708221
 31
0.0
 73
     1
 44
1.0
  0
ENDBLK
  5
57
330
55
100
AcDbEntity
  8
0
100
AcDbBlockEnd
  0
BLOCK
  5
5A
330
58
100
AcDbEntity
  8
0
100
AcDbBlockBegin
  2
パッキン大
 70
     0
 10
164.1666666666666
 20
-84.83333333333344
 30
0.0
  3
パッキン大
  1

  0
INSERT
  5
59
330
58
100
AcDbEntity
  8
0
100
AcDbBlockReference
  2
_G37__2
 10
-82.8212707912304
 20
192.8457142911169
 30
0.0
  0
POINT
  5
12E
330
58
100
AcDbEntity
  8
4
 62
     7
100
AcDbPoint
 10
123.1666669728178
 20
234.6666666665538
 30
0.0
  0
POINT
  5
12F
330
58
100
AcDbEntity
  8
4
 62
     7
100
AcDbPoint
 10
117.6666512613319
 20
208.6665895153779
 30
0.0
  0
POINT
  5
130
330
58
100
AcDbEntity
  8
4
 62
     7
100
AcDbPoint
 10
119.9166666666668
 20
234.6666666665568
 30
0.0
  0
POINT
  5
131
330
58
100
AcDbEntity
  8
4
 62
     7
100
AcDbPoint
 10
115.1668005019643
 20
204.6666666666671
 30
0.0
  0
POINT
  5
132
330
58
100
AcDbEntity
  8
4
 62
     7
100
AcDbPoint
 10
60.16666636051512
 20
234.6666666665538
 30
0.0
  0
POINT
  5
133
330
58
100
AcDbEntity
  8
4
 62
     7
100
AcDbPoint
 10
67.41673045043522
 20
207.6621518299461
 30
0.0
  0
POINT
  5
134
330
58
100
AcDbEntity
  8
4
 62
     7
100
AcDbPoint
 10
67.16666661917863
 20
228.1666666665568
 30
0.0
  0
POINT
  5
135
330
58
100
AcDbEntity
  8
4
 62
     7
100
AcDbPoint
 10
67.16666661917863
 20
229.6666666665568
 30
0.0
  0
POINT
  5
136
330
58
100
AcDbEntity
  8
4
 62
     7
100
AcDbPoint
 10
67.41673045043522
 20
209.1665895153779
 30
0.0
  0
POINT
  5
137
330
58
100
AcDbEntity
  8
4
 62
     7
100
AcDbPoint
 10
67.41673045043522
 20
207.6621518299461
 30
0.0
  0
POINT
  5
138
330
58
100
AcDbEntity
  8
4
 62
     7
100
AcDbPoint
 10
62.91705594930433
 20
229.1666666665568
 30
0.0
  0
POINT
  5
139
330
58
100
AcDbEntity
  8
4
 62
     7
100
AcDbPoint
 10
120.4166663605068
 20
229.1666666665568
 30
0.0
  0
POINT
  5
13A
330
58
100
AcDbEntity
  8
4
 62
     7
100
AcDbPoint
 10
65.66666694179042
 20
208.6665895153779
 30
0.0
  0
POINT
  5
13B
330
58
100
AcDbEntity
  8
4
 62
     7
100
AcDbPoint
 10
117.6666512613319
 20
208.6627370257375
 30
0.0
  0
POINT
  5
13C
330
58
100
AcDbEntity
  8
4
 62
     7
100
AcDbPoint
 10
67.41673045042653
 20
205.1665898107646
 30
0.0
  0
LINE
  5
13D
330
58
100
AcDbEntity
  8
3
  6
Continuous
 62
     7
100
AcDbLine
 10
116.416666524523
 20
215.6666666667227
 30
0.0
 11
120.0179040198168
 21
215.6666666665574
 31
0.0
  0
LINE
  5
13E
330
58
100
AcDbEntity
  8
3
  6
Continuous
 62
     7
100
AcDbLine
 10
115.9166665245665
 20
216.1666621427965
 30
0.0
 11
115.9166031890497
 21
223.166723010258
 31
0.0
  0
LINE
  5
13F
330
58
100
AcDbEntity
  8
3
  6
Continuous
 62
     7
100
AcDbLine
 10
115.9166031890497
 20
232.6933710685589
 30
0.0
 11
115.9166666862029
 21
230.1666541014618
 31
0.0
  0
LINE
  5
140
330
58
100
AcDbEntity
  8
3
  6
Continuous
 62
     7
100
AcDbLine
 10
116.416666686022
 20
229.6666666666108
 30
0.0
 11
120.0179040198168
 21
229.6666666664458
 31
0.0
  0
LINE
  5
141
330
58
100
AcDbEntity
  8
3
  6
Continuous
 62
     7
100
AcDbLine
 10
115.9166667036468
 20
209.666743817514
 30
0.0
 11
115.9166665088023
 21
213.2906651954649
 31
0.0
  0
LINE
  5
142
330
58
100
AcDbEntity
  8
3
  6
Continuous
 62
     7
100
AcDbLine
 10
116.277975102514
 20
213.7710372231183
 30
0.0
 11
120.1265449117808
 21
214.8821655977261
 31
0.0
  0
LINE
  5
143
330
58
100
AcDbEntity
  8
3
  6
Continuous
 62
     7
100
AcDbLine
 10
116.277975102514
 20
227.7710372231188
 30
0.0
 11
120.1265449117808
 21
228.8821655977258
 31
0.0
  0
LINE
  5
144
330
58
100
AcDbEntity
  8
3
  6
Continuous
 62
     7
100
AcDbLine
 10
115.9166028828981
 20
223.1653016141331
 30
0.0
 11
115.9166665088023
 21
227.2906651954649
 31
0.0
  0
LINE
  5
145
330
58
100
AcDbEntity
  8
3
  6
Continuous
 62
     7
100
AcDbLine
 10
115.9166031890497
 20
205.1666666664475
 30
0.0
 11
115.1666667036448
 21
204.6666666664504
 31
0.0
  0
LINE
  5
146
330
58
100
AcDbEntity
  8
3
  6
Continuous
 62
     7
100
AcDbLine
 10
115.9166031890497
 20
205.1666666664475
 30
0.0
 11
115.9166667036467
 21
207.3161488870603
 31
0.0
  0
LINE
  5
147
330
58
100
AcDbEntity
  8
3
  6
Continuous
 62
     7
100
AcDbLine
 10
110.1666669728182
 20
204.6666666664508
 30
0.0
 11
115.1666667036448
 21
204.6666666664504
 31
0.0
  0
LINE
  5
148
330
58
100
AcDbEntity
  8
3
  6
Continuous
 62
     7
100
AcDbLine
 10
116.4166667036467
 20
209.166743817514
 30
0.0
 11
117.1666667036468
 21
209.166743817514
 31
0.0
  0
LINE
  5
149
330
58
100
AcDbEntity
  8
3
  6
Continuous
 62
     7
100
AcDbLine
 10
116.240603512644
 20
207.7841251180527
 30
0.0
 11
117.3413611791218
 21
208.1982549273166
 31
0.0
  0
LINE
  5
14A
330
58
100
AcDbEntity
  8
3
  6
Continuous
 62
     7
100
AcDbLine
 10
123.1666669728178
 20
234.6666666665538
 30
0.0
 11
117.8859458181238
 21
234.6666836802827
 31
0.0
  0
LINE
  5
14B
330
58
100
AcDbEntity
  8
3
  6
Continuous
 62
     7
100
AcDbLine
 10
122.1666682338528
 20
241.6650785648648
 30
0.0
 11
116.6666669728182
 21
241.6574367540489
 31
0.0
  0
LINE
  5
14C
330
58
100
AcDbEntity
  8
3
  6
Continuous
 62
     7
100
AcDbLine
 10
123.1666669728178
 20
240.6666666667519
 30
0.0
 11
123.1666669728178
 21
234.6653016141268
 31
0.0
  0
LINE
  5
14D
330
58
100
AcDbEntity
  8
3
  6
Continuous
 62
     7
100
AcDbLine
 10
91.66666666666663
 20
241.6666666666668
 30
0.0
 11
116.6666669728182
 21
241.6574367540489
 31
0.0
  0
LINE
  5
14E
330
58
100
AcDbEntity
  8
3
  6
Continuous
 62
     7
100
AcDbLine
 10
91.66668593256682
 20
204.6666666664508
 30
0.0
 11
110.1666862387184
 21
204.6666666664508
 31
0.0
  0
LINE
  5
14F
330
58
100
AcDbEntity
  8
3
  6
Continuous
 62
     7
100
AcDbLine
 10
117.8233205422768
 20
234.6647482065378
 30
0.0
 11
91.66666636050684
 21
234.6666666666668
 31
0.0
  0
LINE
  5
150
330
58
100
AcDbEntity
  8
3
  6
Continuous
 62
     7
100
AcDbLine
 10
116.1666663605068
 20
229.6666666665568
 30
0.0
 11
91.66666666666663
 21
229.6666666665568
 31
0.0
  0
LINE
  5
151
330
58
100
AcDbEntity
  8
3
  6
Continuous
 62
     7
100
AcDbLine
 10
115.9166663974869
 20
227.6667231638579
 30
0.0
 11
91.66666636050684
 21
227.6667231638579
 31
0.0
  0
LINE
  5
152
330
58
100
AcDbEntity
  8
3
  6
Continuous
 62
     7
100
AcDbLine
 10
115.9166663974869
 20
215.6666666666687
 30
0.0
 11
91.66666636050684
 21
215.6666666666687
 31
0.0
  0
LINE
  5
153
330
58
100
AcDbEntity
  8
3
  6
Continuous
 62
     7
100
AcDbLine
 10
115.9166663974869
 20
213.6666666666671
 30
0.0
 11
91.66666636050684
 21
213.6666666666671
 31
0.0
  0
LINE
  5
154
330
58
100
AcDbEntity
  8
3
  6
Continuous
 62
     7
100
AcDbLine
 10
115.9166663974869
 20
209.1667232660352
 30
0.0
 11
91.66666666666663
 21
209.1667232660352
 31
0.0
  0
LINE
  5
155
330
58
100
AcDbEntity
  8
3
  6
Continuous
 62
     7
100
AcDbLine
 10
115.9166663974869
 20
207.6621518299461
 30
0.0
 11
91.66666666666663
 21
207.6621518299461
 31
0.0
  0
LINE
  5
156
330
58
100
AcDbEntity
  8
3
  6
Continuous
 62
     7
100
AcDbLine
 10
115.9166031890497
 20
205.1666666664475
 30
0.0
 11
91.66666666666663
 21
205.1666666664508
 31
0.0
  0
LINE
  5
157
330
58
100
AcDbEntity
  8
3
  6
Continuous
 62
     7
100
AcDbLine
 10
66.91666680881023
 20
215.6666666667227
 30
0.0
 11
63.31542931351623
 21
215.6666666665574
 31
0.0
  0
LINE
  5
158
330
58
100
AcDbEntity
  8
3
  6
Continuous
 62
     7
100
AcDbLine
 10
67.41666680876683
 20
216.1666621427965
 30
0.0
 11
67.41673014428363
 21
223.166723010258
 31
0.0
  0
LINE
  5
159
330
58
100
AcDbEntity
  8
3
  6
Continuous
 62
     7
100
AcDbLine
 10
67.41673014428363
 20
232.6933710685589
 30
0.0
 11
67.41666664713043
 21
230.1666541014618
 31
0.0
  0
LINE
  5
15A
330
58
100
AcDbEntity
  8
3
  6
Continuous
 62
     7
100
AcDbLine
 10
66.91666664731133
 20
229.6666666666108
 30
0.0
 11
63.31542931351623
 21
229.6666666664458
 31
0.0
  0
LINE
  5
15B
330
58
100
AcDbEntity
  8
3
  6
Continuous
 62
     7
100
AcDbLine
 10
67.41666662968653
 20
209.666743817514
 30
0.0
 11
67.41666682453103
 21
213.2906651954649
 31
0.0
  0
LINE
  5
15C
330
58
100
AcDbEntity
  8
3
  6
Continuous
 62
     7
100
AcDbLine
 10
67.05535823081932
 20
213.7710372231183
 30
0.0
 11
63.20678842155253
 21
214.8821655977261
 31
0.0
  0
LINE
  5
15D
330
58
100
AcDbEntity
  8
3
  6
Continuous
 62
     7
100
AcDbLine
 10
67.05535823081932
 20
227.7710372231188
 30
0.0
 11
63.20678842155253
 21
228.8821655977258
 31
0.0
  0
LINE
  5
15E
330
58
100
AcDbEntity
  8
3
  6
Continuous
 62
     7
100
AcDbLine
 10
67.41673045043522
 20
223.1653016141331
 30
0.0
 11
67.41666682453103
 21
227.2906651954649
 31
0.0
  0
LINE
  5
15F
330
58
100
AcDbEntity
  8
3
  6
Continuous
 62
     7
100
AcDbLine
 10
67.41673014428363
 20
205.1666666664475
 30
0.0
 11
67.41666662968653
 21
207.3161488870603
 31
0.0
  0
LINE
  5
160
330
58
100
AcDbEntity
  8
3
  6
Continuous
 62
     7
100
AcDbLine
 10
73.16666636051512
 20
204.6666666664508
 30
0.0
 11
68.16666662968844
 21
204.6666666664504
 31
0.0
  0
LINE
  5
161
330
58
100
AcDbEntity
  8
3
  6
Continuous
 62
     7
100
AcDbLine
 10
66.91666662968653
 20
209.166743817514
 30
0.0
 11
66.16666662968653
 21
209.166743817514
 31
0.0
  0
LINE
  5
162
330
58
100
AcDbEntity
  8
3
  6
Continuous
 62
     7
100
AcDbLine
 10
67.09272982068933
 20
207.7841251180527
 30
0.0
 11
65.99197215421123
 21
208.1982549273166
 31
0.0
  0
LINE
  5
163
330
58
100
AcDbEntity
  8
3
  6
Continuous
 62
     7
100
AcDbLine
 10
60.16666636051512
 20
234.6666666665538
 30
0.0
 11
65.44738751520973
 21
234.6666836802827
 31
0.0
  0
LINE
  5
164
330
58
100
AcDbEntity
  8
3
  6
Continuous
 62
     7
100
AcDbLine
 10
61.16666509948063
 20
241.6650785648648
 30
0.0
 11
66.66666636051522
 21
241.6574367540489
 31
0.0
  0
LINE
  5
165
330
58
100
AcDbEntity
  8
3
  6
Continuous
 62
     7
100
AcDbLine
 10
60.16666636051522
 20
240.6666666667519
 30
0.0
 11
60.16666636051502
 21
234.6653016141268
 31
0.0
  0
LINE
  5
166
330
58
100
AcDbEntity
  8
3
  6
Continuous
 62
     7
100
AcDbLine
 10
91.66666666666663
 20
241.6666666666668
 30
0.0
 11
66.66666636051522
 21
241.6574367540489
 31
0.0
  0
LINE
  5
167
330
58
100
AcDbEntity
  8
3
  6
Continuous
 62
     7
100
AcDbLine
 10
91.66664740076652
 20
204.6666666664508
 30
0.0
 11
73.16664709461493
 21
204.6666666664508
 31
0.0
  0
LINE
  5
168
330
58
100
AcDbEntity
  8
3
  6
Continuous
 62
     7
100
AcDbLine
 10
65.51001279105633
 20
234.6647482065378
 30
0.0
 11
91.66666697282653
 21
234.6666666666668
 31
0.0
  0
LINE
  5
169
330
58
100
AcDbEntity
  8
3
  6
Continuous
 62
     7
100
AcDbLine
 10
67.16666697282653
 20
229.6666666665568
 30
0.0
 11
91.66666666666663
 21
229.6666666665568
 31
0.0
  0
LINE
  5
16A
330
58
100
AcDbEntity
  8
3
  6
Continuous
 62
     7
100
AcDbLine
 10
67.41666693584642
 20
227.6667231638579
 30
0.0
 11
91.66666697282653
 21
227.6667231638579
 31
0.0
  0
LINE
  5
16B
330
58
100
AcDbEntity
  8
3
  6
Continuous
 62
     7
100
AcDbLine
 10
67.41666693584642
 20
215.6666666666687
 30
0.0
 11
91.66666697282653
 21
215.6666666666687
 31
0.0
  0
LINE
  5
16C
330
58
100
AcDbEntity
  8
3
  6
Continuous
 62
     7
100
AcDbLine
 10
67.41666693584642
 20
213.6666666666671
 30
0.0
 11
91.66666697282653
 21
213.6666666666671
 31
0.0
  0
LINE
  5
16D
330
58
100
AcDbEntity
  8
3
  6
Continuous
 62
     7
100
AcDbLine
 10
67.41666693584632
 20
209.1667232660352
 30
0.0
 11
91.66666666666663
 21
209.1667232660352
 31
0.0
  0
LINE
  5
16E
330
58
100
AcDbEntity
  8
3
  6
Continuous
 62
     7
100
AcDbLine
 10
67.41666693584642
 20
207.6621518299461
 30
0.0
 11
91.66666666666663
 21
207.6621518299461
 31
0.0
  0
LINE
  5
16F
330
58
100
AcDbEntity
  8
3
  6
Continuous
 62
     7
100
AcDbLine
 10
67.41673014428363
 20
205.1666666664475
 30
0.0
 11
91.66666666666663
 21
205.1666666664508
 31
0.0
  0
LINE
  5
170
330
58
100
AcDbEntity
  8
3
  6
Continuous
 62
     7
100
AcDbLine
 10
67.41673014428363
 20
205.1666666664475
 30
0.0
 11
68.16666662968844
 21
204.6666666664504
 31
0.0
  0
ARC
  5
171
330
58
100
AcDbEntity
  8
3
  6
Continuous
 62
     7
100
AcDbCircle
 10
116.416666524546
 20
216.1666666667227
 30
0.0
 40
0.4999999999999739
100
AcDbArc
 50
180.0005184037571
 51
269.9999999973635
  0
ARC
  5
172
330
58
100
AcDbEntity
  8
3
  6
Continuous
 62
     7
100
AcDbCircle
 10
116.416666686045
 20
230.1666666666108
 30
0.0
 40
0.4999999999999861
100
AcDbArc
 50
180.0014398600142
 51
269.9999999973635
  0
ARC
  5
173
330
58
100
AcDbEntity
  8
3
  6
Continuous
 62
     7
100
AcDbCircle
 10
116.4166665087428
 20
213.2906574839138
 30
0.0
 40
0.4999999999998963
100
AcDbArc
 50
106.1040646925994
 51
179.9991163213378
  0
ARC
  5
174
330
58
100
AcDbEntity
  8
3
  6
Continuous
 62
     7
100
AcDbCircle
 10
120.0162773840208
 20
215.2666666670637
 30
0.0
 40
0.4000000000000781
100
AcDbArc
 50
286.0018753883353
 51
90.00000108561034
  0
ARC
  5
175
330
58
100
AcDbEntity
  8
3
  6
Continuous
 62
     7
100
AcDbCircle
 10
116.4166665087428
 20
227.2906574839138
 30
0.0
 40
0.5000000000003878
100
AcDbArc
 50
106.1040646925831
 51
179.9991163213378
  0
ARC
  5
176
330
58
100
AcDbEntity
  8
3
  6
Continuous
 62
     7
100
AcDbCircle
 10
120.0162773840208
 20
229.2666666670638
 30
0.0
 40
0.4000000000004606
100
AcDbArc
 50
286.0018753883195
 51
90.00000108561034
  0
ARC
  5
177
330
58
100
AcDbEntity
  8
3
  6
Continuous
 62
     7
100
AcDbCircle
 10
116.4166667036468
 20
209.666743817514
 30
0.0
 40
0.5
100
AcDbArc
 50
180.0
 51
269.9999999999886
  0
ARC
  5
178
330
58
100
AcDbEntity
  8
3
  6
Continuous
 62
     7
100
AcDbCircle
 10
116.4166667036467
 20
207.3161488870603
 30
0.0
 40
0.4999999999999098
100
AcDbArc
 50
110.6174294112462
 51
180.0
  0
ARC
  5
179
330
58
100
AcDbEntity
  8
3
  6
Continuous
 62
     7
100
AcDbCircle
 10
117.1666667036467
 20
208.666743817514
 30
0.0
 40
0.5000000000001122
100
AcDbArc
 50
288.6432299259955
 51
89.9999999999886
  0
ARC
  5
17A
330
58
100
AcDbEntity
  8
3
  6
Continuous
 62
     7
100
AcDbCircle
 10
117.9164072176729
 20
232.6669156632899
 30
0.0
 40
1.999999999999568
100
AcDbArc
 50
90.87267978693762
 51
179.2425404997804
  0
ARC
  5
17B
330
58
100
AcDbEntity
  8
3
  6
Continuous
 62
     7
100
AcDbCircle
 10
122.1666682338528
 20
240.6650785648648
 30
0.0
 40
1.0
100
AcDbArc
 50
0.0
 51
90.0
  0
ARC
  5
17C
330
58
100
AcDbEntity
  8
3
  6
Continuous
 62
     7
100
AcDbCircle
 10
66.91666680878723
 20
216.1666666667227
 30
0.0
 40
0.5
100
AcDbArc
 50
270.0000000026365
 51
359.9994815962429
  0
ARC
  5
17D
330
58
100
AcDbEntity
  8
3
  6
Continuous
 62
     7
100
AcDbCircle
 10
66.91666664728822
 20
230.1666666666108
 30
0.0
 40
0.5
100
AcDbArc
 50
270.0000000026478
 51
359.9985601399858
  0
ARC
  5
17E
330
58
100
AcDbEntity
  8
3
  6
Continuous
 62
     7
100
AcDbCircle
 10
66.91666682459054
 20
213.2906574839138
 30
0.0
 40
0.4999999999999671
100
AcDbArc
 50
0.00088367866217
 51
73.89593530740063
  0
ARC
  5
17F
330
58
100
AcDbEntity
  8
3
  6
Continuous
 62
     7
100
AcDbCircle
 10
63.31705594931253
 20
215.2666666670637
 30
0.0
 40
0.4000000000000057
100
AcDbArc
 50
89.99999891440392
 51
253.9981246116647
  0
ARC
  5
180
330
58
100
AcDbEntity
  8
3
  6
Continuous
 62
     7
100
AcDbCircle
 10
66.91666682459054
 20
227.2906574839138
 30
0.0
 40
0.4999999999999671
100
AcDbArc
 50
0.00088367866217
 51
73.89593530741689
  0
ARC
  5
181
330
58
100
AcDbEntity
  8
3
  6
Continuous
 62
     7
100
AcDbCircle
 10
63.31705594931253
 20
229.2666666670638
 30
0.0
 40
0.4000000000000057
100
AcDbArc
 50
89.99999891440392
 51
253.9981246116805
  0
ARC
  5
182
330
58
100
AcDbEntity
  8
3
  6
Continuous
 62
     7
100
AcDbCircle
 10
66.91666662968653
 20
209.666743817514
 30
0.0
 40
0.5
100
AcDbArc
 50
270.0
 51
0.0
  0
ARC
  5
183
330
58
100
AcDbEntity
  8
3
  6
Continuous
 62
     7
100
AcDbCircle
 10
66.91666662968653
 20
207.3161488870603
 30
0.0
 40
0.5
100
AcDbArc
 50
0.0
 51
69.38257058874312
  0
ARC
  5
184
330
58
100
AcDbEntity
  8
3
  6
Continuous
 62
     7
100
AcDbCircle
 10
66.16666662968653
 20
208.666743817514
 30
0.0
 40
0.5
100
AcDbArc
 50
90.0
 51
251.3567700740477
  0
ARC
  5
185
330
58
100
AcDbEntity
  8
3
  6
Continuous
 62
     7
100
AcDbCircle
 10
65.41692611566103
 20
232.6669156632899
 30
0.0
 40
2.000000000000027
100
AcDbArc
 50
0.75745950021982
 51
89.12732021308803
  0
ARC
  5
186
330
58
100
AcDbEntity
  8
3
  6
Continuous
 62
     7
100
AcDbCircle
 10
61.16666509948063
 20
240.6650785648648
 30
0.0
 40
1.0
100
AcDbArc
 50
90.0
 51
180.0
  0
CIRCLE
  5
187
330
58
100
AcDbEntity
  8
3
  6
Continuous
 62
     7
100
AcDbCircle
 10
91.66666666666663
 20
294.6666666666669
 30
0.0
 40
31.49999999999997
  0
CIRCLE
  5
188
330
58
100
AcDbEntity
  8
3
  6
Continuous
 62
     7
100
AcDbCircle
 10
91.66666666666663
 20
294.6666666666669
 30
0.0
 40
24.99999999999997
  0
CIRCLE
  5
189
330
58
100
AcDbEntity
  8
3
  6
Continuous
 62
     7
100
AcDbCircle
 10
91.66666666666663
 20
294.6666666666669
 30
0.0
 40
19.99999999999997
  0
CIRCLE
  5
18A
330
58
100
AcDbEntity
  8
3
  6
Continuous
 62
     7
100
AcDbCircle
 10
91.66666666666663
 20
294.6666666666669
 30
0.0
 40
18.99999999999997
  0
CIRCLE
  5
18B
330
58
100
AcDbEntity
  8
3
  6
Continuous
 62
     7
100
AcDbCircle
 10
91.66666666666663
 20
294.6666666666669
 30
0.0
 40
17.49999999999997
  0
CIRCLE
  5
18C
330
58
100
AcDbEntity
  8
1
  6
Continuous
 62
     7
100
AcDbCircle
 10
91.66666666666663
 20
154.1666666666666
 30
0.0
 40
18.49999999999997
  0
CIRCLE
  5
18D
330
58
100
AcDbEntity
  8
1
  6
Continuous
 62
     7
100
AcDbCircle
 10
91.66666666666663
 20
154.1666666666666
 30
0.0
 40
25.99999999999997
  0
CIRCLE
  5
18E
330
58
100
AcDbEntity
  8
1
  6
Continuous
 62
     7
100
AcDbCircle
 10
91.66666666666663
 20
154.1666666666666
 30
0.0
 40
28.74999999999997
  0
CIRCLE
  5
18F
330
58
100
AcDbEntity
  8
1
  6
Continuous
 62
     7
100
AcDbCircle
 10
91.66666666666663
 20
154.1666666666666
 30
0.0
 40
31.50000156718617
  0
CIRCLE
  5
190
330
58
100
AcDbEntity
  8
1
  6
Continuous
 62
     7
100
AcDbCircle
 10
91.66666666666663
 20
154.1666666666666
 30
0.0
 40
24.25000003698017
  0
MTEXT
  5
191
330
58
100
AcDbEntity
  8
2
 62
     2
100
AcDbMText
 10
65.13117064044764
 20
293.949082208805
 30
0.0
 40
3.2
 41
0.0
 71
     7
 72
     1
  1
B
  7
CONVERTER_12
 11
6.123233995736770E-17
 21
1.0
 31
0.0
 73
     1
 44
1.0
  0
ENDBLK
  5
5B
330
58
100
AcDbEntity
  8
0
100
AcDbBlockEnd
  0
BLOCK
  5
1BA
330
1B1
100
AcDbEntity
  8
0
100
AcDbBlockBegin
  2
*D6
 70
     1
 10
0.0
 20
0.0
 30
0.0
  3
*D6
  1

  0
LINE
  5
1B2
330
1B1
100
AcDbEntity
  8
1
  6
Continuous
 62
     2
100
AcDbLine
 10
138.1666666666667
 20
241.6650785648648
 30
0.0
 11
138.1666666666667
 21
250.9984118981982
 31
0.0
  0
LINE
  5
1B3
330
1B1
100
AcDbEntity
  8
1
  6
Continuous
 62
     2
100
AcDbLine
 10
138.1666666666667
 20
234.6653016141268
 30
0.0
 11
138.1666666666667
 21
241.6650785648648
 31
0.0
  0
LINE
  5
1B4
330
1B1
100
AcDbEntity
  8
1
  6
Continuous
 62
     2
100
AcDbLine
 10
138.1666666666667
 20
225.3319682807935
 30
0.0
 11
138.1666666666667
 21
234.6653016141268
 31
0.0
  0
LINE
  5
1B5
330
1B1
100
AcDbEntity
  8
1
  6
Continuous
 62
     2
100
AcDbLine
 10
122.1666682338528
 20
241.6650785648648
 30
0.0
 11
139.5
 21
241.6650785648648
 31
0.0
  0
LINE
  5
1B6
330
1B1
100
AcDbEntity
  8
1
  6
Continuous
 62
     2
100
AcDbLine
 10
123.1666669728179
 20
234.6653016141268
 30
0.0
 11
139.5
 21
234.6653016141268
 31
0.0
  0
SOLID
  5
1B7
330
1B1
100
AcDbEntity
  8
1
 62
     2
100
AcDbTrace
 10
138.7810449887412
 20
229.9986349474601
 30
0.0
 11
137.5522883445921
 21
229.9986349474601
 31
0.0
 12
138.1666666666667
 22
234.6653016141268
 32
0.0
 13
138.1666666666667
 23
234.6653016141268
 33
0.0
  0
SOLID
  5
1B8
330
1B1
100
AcDbEntity
  8
1
 62
     2
100
AcDbTrace
 10
137.5522883445921
 20
246.3317452315315
 30
0.0
 11
138.7810449887412
 21
246.3317452315315
 31
0.0
 12
138.1666666666667
 22
241.6650785648648
 32
0.0
 13
138.1666666666667
 23
241.6650785648648
 33
0.0
  0
MTEXT
  5
1B9
330
1B1
100
AcDbEntity
  8
1
 62
     7
100
AcDbMText
 10
136.8333333333333
 20
236.534125178623
 30
0.0
 40
4.66666666666667
 41
0.0
 71
     7
 72
     1
  1
7
  7
CONVERTER_14
 11
0.0
 21
1.0
 31
0.0
 73
     1
 44
0.60024009603842
  0
ENDBLK
  5
1BB
330
1B1
100
AcDbEntity
  8
0
100
AcDbBlockEnd
  0
BLOCK
  5
1C5
330
1BE
100
AcDbEntity
  8
0
100
AcDbBlockBegin
  2
*D7
 70
     1
 10
0.0
 20
0.0
 30
0.0
  3
*D7
  1

  0
LINE
  5
1BF
330
1BE
100
AcDbEntity
  8
1
  6
Continuous
 62
     2
100
AcDbLine
 10
150.1666666666667
 20
241.6650785648648
 30
0.0
 11
150.1666666666667
 21
204.666666666667
 31
0.0
  0
LINE
  5
1C0
330
1BE
100
AcDbEntity
  8
1
  6
Continuous
 62
     2
100
AcDbLine
 10
115.1668005019644
 20
204.666666666667
 30
0.0
 11
151.5
 21
204.666666666667
 31
0.0
  0
LINE
  5
1C1
330
1BE
100
AcDbEntity
  8
1
  6
Continuous
 62
     2
100
AcDbLine
 10
122.1666682338528
 20
241.6650785648648
 30
0.0
 11
151.5
 21
241.6650785648648
 31
0.0
  0
SOLID
  5
1C2
330
1BE
100
AcDbEntity
  8
1
 62
     2
100
AcDbTrace
 10
150.7810449887412
 20
236.9984118981982
 30
0.0
 11
149.5522883445921
 21
236.9984118981982
 31
0.0
 12
150.1666666666667
 22
241.6650785648648
 32
0.0
 13
150.1666666666667
 23
241.6650785648648
 33
0.0
  0
SOLID
  5
1C3
330
1BE
100
AcDbEntity
  8
1
 62
     2
100
AcDbTrace
 10
149.5522883445921
 20
209.3333333333336
 30
0.0
 11
150.7810449887412
 21
209.3333333333336
 31
0.0
 12
150.1666666666667
 22
204.666666666667
 32
0.0
 13
150.1666666666667
 23
204.666666666667
 33
0.0
  0
MTEXT
  5
1C4
330
1BE
100
AcDbEntity
  8
1
 62
     7
100
AcDbMText
 10
148.8333333333333
 20
219.354561046452
 30
0.0
 40
4.66666666666667
 41
0.0
 71
     7
 72
     1
  1
37
  7
CONVERTER_14
 11
0.0
 21
1.0
 31
0.0
 73
     1
 44
0.60024009603842
  0
ENDBLK
  5
1C6
330
1BE
100
AcDbEntity
  8
0
100
AcDbBlockEnd
  0
BLOCK
  5
1D2
330
1C9
100
AcDbEntity
  8
0
100
AcDbBlockBegin
  2
*D8
 70
     1
 10
0.0
 20
0.0
 30
0.0
  3
*D8
  1

  0
LINE
  5
1CA
330
1C9
100
AcDbEntity
  8
1
  6
Continuous
 62
     2
100
AcDbLine
 10
247.8333311242093
 20
241.6700406340958
 30
0.0
 11
247.8333311242093
 21
251.0033739674292
 31
0.0
  0
LINE
  5
1CB
330
1C9
100
AcDbEntity
  8
1
  6
Continuous
 62
     2
100
AcDbLine
 10
247.8333311242093
 20
235.1666666666668
 30
0.0
 11
247.8333311242093
 21
241.6700406340958
 31
0.0
  0
LINE
  5
1CC
330
1C9
100
AcDbEntity
  8
1
  6
Continuous
 62
     2
100
AcDbLine
 10
247.8333311242093
 20
220.0090713682903
 30
0.0
 11
247.8333311242093
 21
235.1666666666668
 31
0.0
  0
LINE
  5
1CD
330
1C9
100
AcDbEntity
  8
1
  6
Continuous
 62
     2
100
AcDbLine
 10
230.8333355136826
 20
241.6700406340958
 30
0.0
 11
249.1666644575427
 21
241.6700406340958
 31
0.0
  0
LINE
  5
1CE
330
1C9
100
AcDbEntity
  8
1
  6
Continuous
 62
     2
100
AcDbLine
 10
232.8333351705507
 20
235.1666666666668
 30
0.0
 11
249.1666644575427
 21
235.1666666666668
 31
0.0
  0
SOLID
  5
1CF
330
1C9
100
AcDbEntity
  8
1
 62
     2
100
AcDbTrace
 10
248.4477094462838
 20
230.5000000000001
 30
0.0
 11
247.2189528021348
 21
230.5000000000001
 31
0.0
 12
247.8333311242093
 22
235.1666666666668
 32
0.0
 13
247.8333311242093
 23
235.1666666666668
 33
0.0
  0
SOLID
  5
1D0
330
1C9
100
AcDbEntity
  8
1
 62
     2
100
AcDbTrace
 10
247.2189528021348
 20
246.3367073007625
 30
0.0
 11
248.4477094462838
 21
246.3367073007625
 31
0.0
 12
247.8333311242093
 22
241.6700406340958
 32
0.0
 13
247.8333311242093
 23
241.6700406340958
 33
0.0
  0
MTEXT
  5
1D1
330
1C9
100
AcDbEntity
  8
1
 62
     7
100
AcDbMText
 10
246.0333311242093
 20
220.0090713682903
 30
0.0
 40
4.66666666666667
 41
0.0
 71
     7
 72
     1
  1
6,5
  7
CONVERTER_14
 11
0.0
 21
1.0
 31
0.0
 73
     1
 44
0.60024009603842
  0
ENDBLK
  5
1D3
330
1C9
100
AcDbEntity
  8
0
100
AcDbBlockEnd
  0
BLOCK
  5
1DD
330
1D6
100
AcDbEntity
  8
0
100
AcDbBlockBegin
  2
*D9
 70
     1
 10
0.0
 20
0.0
 30
0.0
  3
*D9
  1

  0
LINE
  5
1D7
330
1D6
100
AcDbEntity
  8
1
  6
Continuous
 62
     2
100
AcDbLine
 10
259.8333311242093
 20
209.1680317192077
 30
0.0
 11
259.8333311242093
 21
241.6700406340958
 31
0.0
  0
LINE
  5
1D8
330
1D6
100
AcDbEntity
  8
1
  6
Continuous
 62
     2
100
AcDbLine
 10
230.8333355136826
 20
241.6700406340958
 30
0.0
 11
261.1666644575427
 21
241.6700406340958
 31
0.0
  0
LINE
  5
1D9
330
1D6
100
AcDbEntity
  8
1
  6
Continuous
 62
     2
100
AcDbLine
 10
226.3333351705507
 20
209.1680317192077
 30
0.0
 11
261.1666644575427
 21
209.1680317192077
 31
0.0
  0
SOLID
  5
1DA
330
1D6
100
AcDbEntity
  8
1
 62
     2
100
AcDbTrace
 10
259.2189528021348
 20
213.8346983858744
 30
0.0
 11
260.4477094462839
 21
213.8346983858744
 31
0.0
 12
259.8333311242093
 22
209.1680317192077
 32
0.0
 13
259.8333311242093
 23
209.1680317192077
 33
0.0
  0
SOLID
  5
1DB
330
1D6
100
AcDbEntity
  8
1
 62
     2
100
AcDbTrace
 10
260.4477094462839
 20
237.0033739674292
 30
0.0
 11
259.2189528021348
 21
237.0033739674292
 31
0.0
 12
259.8333311242093
 22
241.6700406340958
 32
0.0
 13
259.8333311242093
 23
241.6700406340958
 33
0.0
  0
MTEXT
  5
1DC
330
1D6
100
AcDbEntity
  8
1
 62
     7
100
AcDbMText
 10
258.0333311242093
 20
218.8285569861054
 30
0.0
 40
4.66666666666667
 41
0.0
 71
     7
 72
     1
  1
32,5
  7
CONVERTER_14
 11
0.0
 21
1.0
 31
0.0
 73
     1
 44
0.60024009603842
  0
ENDBLK
  5
1DE
330
1D6
100
AcDbEntity
  8
0
100
AcDbBlockEnd
  0
BLOCK
  5
1E6
330
1E1
100
AcDbEntity
  8
0
100
AcDbBlockBegin
  2
*D10
 70
     1
 10
0.0
 20
0.0
 30
0.0
  3
*D10
  1

  0
LINE
  5
1E2
330
1E1
100
AcDbEntity
  8
1
  6
Continuous
 62
     2
100
AcDbLine
 10
71.3442754217323
 20
261.9672719614462
 30
0.0
 11
117.1922942490455
 21
335.7382394631375
 31
0.0
  0
SOLID
  5
1E3
330
1E1
100
AcDbEntity
  8
1
 62
     2
100
AcDbTrace
 10
110.2355848685699
 20
325.708582124825
 30
0.0
 11
111.2792108037308
 21
325.059977624378
 31
0.0
 12
108.2940776852492
 22
321.4207168800293
 32
0.0
 13
108.2940776852492
 23
321.4207168800293
 33
0.0
  0
SOLID
  5
1E4
330
1E1
100
AcDbEntity
  8
1
 62
     2
100
AcDbTrace
 10
73.09774846476328
 20
263.6247512085088
 30
0.0
 11
72.05412252960247
 21
264.2733557089558
 31
0.0
 12
75.03925564808401
 22
267.9126164533045
 32
0.0
 13
75.03925564808401
 23
267.9126164533045
 33
0.0
  0
MTEXT
  5
1E5
330
1E1
100
AcDbEntity
  8
1
 62
     7
100
AcDbMText
 10
110.3449449290771
 20
327.2465790731303
 30
0.0
 40
4.66666666666667
 41
0.0
 71
     7
 72
     1
  1
\C7;{\Fgdt;n}\C7;63
  7
CONVERTER_14
 11
0.5278543180502421
 21
0.8493349274083304
 31
0.0
 73
     1
 44
0.60024009603842
  0
ENDBLK
  5
1E7
330
1E1
100
AcDbEntity
  8
0
100
AcDbBlockEnd
  0
BLOCK
  5
1EE
330
1E9
100
AcDbEntity
  8
0
100
AcDbBlockBegin
  2
*D11
 70
     1
 10
0.0
 20
0.0
 30
0.0
  3
*D11
  1

  0
LINE
  5
1EA
330
1E9
100
AcDbEntity
  8
1
  6
Continuous
 62
     2
100
AcDbLine
 10
191.6205815722923
 20
291.5547536834843
 30
0.0
 11
247.7353280653024
 21
302.0033161786704
 31
0.0
  0
SOLID
  5
1EB
330
1E9
100
AcDbEntity
  8
1
 62
     2
100
AcDbTrace
 10
222.6397096468209
 20
297.9554514576652
 30
0.0
 11
222.8646381029444
 21
296.7474572191995
 31
0.0
 12
218.1643602723957
 22
296.4972037155978
 32
0.0
 13
218.1643602723957
 23
296.4972037155978
 33
0.0
  0
SOLID
  5
1EC
330
1E9
100
AcDbEntity
  8
1
 62
     2
100
AcDbTrace
 10
194.0269526015976
 20
291.3778818756687
 30
0.0
 11
193.8020241454741
 21
292.5858761141344
 31
0.0
 12
198.5023019760229
 22
292.836129617736
 32
0.0
 13
198.5023019760229
 23
292.836129617736
 33
0.0
  0
MTEXT
  5
1ED
330
1E9
100
AcDbEntity
  8
1
 62
     7
100
AcDbMText
 10
236.8475289010084
 20
301.3322586201194
 30
0.0
 40
4.66666666666667
 41
0.0
 71
     7
 72
     1
  1
\C7;{\Fgdt;n}\C7;20
  7
CONVERTER_14
 11
0.9831029148186431
 21
0.1830537048930941
 31
0.0
 73
     1
 44
0.60024009603842
  0
ENDBLK
  5
1EF
330
1E9
100
AcDbEntity
  8
0
100
AcDbBlockEnd
  0
BLOCK
  5
1F6
330
1F1
100
AcDbEntity
  8
0
100
AcDbBlockBegin
  2
*D12
 70
     1
 10
0.0
 20
0.0
 30
0.0
  3
*D12
  1

  0
LINE
  5
1F2
330
1F1
100
AcDbEntity
  8
1
  6
Continuous
 62
     2
100
AcDbLine
 10
191.4832592246873
 20
284.8521327000979
 30
0.0
 11
242.8189783952995
 21
314.7532608675401
 31
0.0
  0
SOLID
  5
1F3
330
1F1
100
AcDbEntity
  8
1
 62
     2
100
AcDbTrace
 10
222.8579326984727
 20
303.8377001022174
 30
0.0
 11
223.476377509788
 21
302.775923804734
 31
0.0
 12
219.1346592649286
 22
300.9580345939548
 32
0.0
 13
219.1346592649286
 23
300.9580345939548
 33
0.0
  0
SOLID
  5
1F4
330
1F1
100
AcDbEntity
  8
1
 62
     2
100
AcDbTrace
 10
193.8087295499459
 20
285.4956332311165
 30
0.0
 11
193.1902847386306
 21
286.5574095285999
 31
0.0
 12
197.5320029834901
 22
288.375298739379
 32
0.0
 13
197.5320029834901
 23
288.375298739379
 33
0.0
  0
MTEXT
  5
1F5
330
1F1
100
AcDbEntity
  8
1
 62
     7
100
AcDbMText
 10
232.7925088027738
 20
310.4562390617951
 30
0.0
 40
4.66666666666667
 41
0.0
 71
     7
 72
     1
  1
\C7;{\Fgdt;n}\C7;25
  7
CONVERTER_14
 11
0.8641062512575398
 21
0.5033094341830293
 31
0.0
 73
     1
 44
0.60024009603842
  0
ENDBLK
  5
1F7
330
1F1
100
AcDbEntity
  8
0
100
AcDbBlockEnd
  0
BLOCK
  5
1FE
330
1F9
100
AcDbEntity
  8
0
100
AcDbBlockBegin
  2
*D13
 70
     1
 10
0.0
 20
0.0
 30
0.0
  3
*D13
  1

  0
LINE
  5
1FA
330
1F9
100
AcDbEntity
  8
1
  6
Continuous
 62
     2
100
AcDbLine
 10
193.2458248562393
 20
277.3067370984352
 30
0.0
 11
235.068373616128
 21
325.4284404429396
 31
0.0
  0
SOLID
  5
1FB
330
1F9
100
AcDbEntity
  8
1
 62
     2
100
AcDbTrace
 10
221.4265006229883
 20
310.6684629505217
 30
0.0
 11
222.3539410055502
 21
309.8624249691996
 31
0.0
 12
218.8289876584493
 22
306.7431394097846
 32
0.0
 13
218.8289876584493
 23
306.7431394097846
 33
0.0
  0
SOLID
  5
1FC
330
1F9
100
AcDbEntity
  8
1
 62
     2
100
AcDbTrace
 10
195.2401616254303
 20
278.6648703828121
 30
0.0
 11
194.3127212428683
 21
279.4709083641342
 31
0.0
 12
197.8376745899693
 22
282.5901939235492
 32
0.0
 13
197.8376745899693
 23
282.5901939235492
 33
0.0
  0
MTEXT
  5
1FD
330
1F9
100
AcDbEntity
  8
1
 62
     7
100
AcDbMText
 10
226.9599399660324
 20
318.1313319312832
 30
0.0
 40
4.66666666666667
 41
0.0
 71
     7
 72
     1
  1
\C7;{\Fgdt;n}\C7;32
  7
CONVERTER_14
 11
0.6559785333900011
 21
0.7547795464448565
 31
0.0
 73
     1
 44
0.60024009603842
  0
ENDBLK
  5
1FF
330
1F9
100
AcDbEntity
  8
0
100
AcDbBlockEnd
  0
BLOCK
  5
206
330
201
100
AcDbEntity
  8
0
100
AcDbBlockBegin
  2
*D14
 70
     1
 10
0.0
 20
0.0
 30
0.0
  3
*D14
  1

  0
LINE
  5
202
330
201
100
AcDbEntity
  8
1
  6
Continuous
 62
     2
100
AcDbLine
 10
196.9245121796733
 20
265.3053170673928
 30
0.0
 11
224.2528175246972
 21
335.6365170883417
 31
0.0
  0
SOLID
  5
203
330
201
100
AcDbEntity
  8
1
 62
     2
100
AcDbTrace
 10
218.3243864421456
 20
322.0756199265238
 30
0.0
 11
219.4697182961548
 21
321.6305830350955
 31
0.0
 12
217.2068569699597
 22
317.5032719105468
 32
0.0
 13
217.2068569699597
 23
317.5032719105468
 33
0.0
  0
SOLID
  5
204
330
201
100
AcDbEntity
  8
1
 62
     2
100
AcDbTrace
 10
198.3422758062731
 20
267.2577134068101
 30
0.0
 11
197.1969439522639
 21
267.7027502982384
 31
0.0
 12
199.4598052784591
 22
271.830061422787
 32
0.0
 13
199.4598052784591
 23
271.830061422787
 33
0.0
  0
MTEXT
  5
205
330
201
100
AcDbEntity
  8
1
 62
     7
100
AcDbMText
 10
219.0887557499287
 20
326.0278254565293
 30
0.0
 40
4.66666666666667
 41
0.0
 71
     7
 72
     1
  1
\C7;{\Fgdt;n}\C7;49
  7
CONVERTER_14
 11
0.3621847283979714
 21
0.9321063364848925
 31
0.0
 73
     1
 44
0.60024009603842
  0
ENDBLK
  5
207
330
201
100
AcDbEntity
  8
0
100
AcDbBlockEnd
  0
BLOCK
  5
20E
330
209
100
AcDbEntity
  8
0
100
AcDbBlockBegin
  2
*D15
 70
     1
 10
0.0
 20
0.0
 30
0.0
  3
*D15
  1

  0
LINE
  5
20A
330
209
100
AcDbEntity
  8
1
  6
Continuous
 62
     2
100
AcDbLine
 10
190.8723580883712
 20
146.6757158929115
 30
0.0
 11
248.2019792073266
 21
171.2707550390805
 31
0.0
  0
SOLID
  5
20B
330
209
100
AcDbEntity
  8
1
 62
     2
100
AcDbTrace
 10
223.4077531394163
 20
161.302288994844
 30
0.0
 11
223.8922034306923
 21
160.1730632398141
 31
0.0
 12
219.3613176985724
 22
158.8977934711436
 32
0.0
 13
219.3613176985724
 23
158.8977934711436
 33
0.0
  0
SOLID
  5
20C
330
209
100
AcDbEntity
  8
1
 62
     2
100
AcDbTrace
 10
193.2589135272502
 20
147.0310443384893
 30
0.0
 11
192.7744632359741
 21
148.1602700935192
 31
0.0
 12
197.3053489680941
 22
149.4355398621897
 32
0.0
 13
197.3053489680941
 23
149.4355398621897
 33
0.0
  0
MTEXT
  5
20D
330
209
100
AcDbEntity
  8
1
 62
     7
100
AcDbMText
 10
237.7266058906356
 20
168.2275588960678
 30
0.0
 40
4.66666666666667
 41
0.0
 71
     7
 72
     1
  1
\C7;{\Fgdt;n}\C7;24
  7
CONVERTER_14
 11
0.9189986971032653
 21
0.3942605670397443
 31
0.0
 73
     1
 44
0.60024009603842
  0
ENDBLK
  5
20F
330
209
100
AcDbEntity
  8
0
100
AcDbBlockEnd
  0
BLOCK
  5
216
330
211
100
AcDbEntity
  8
0
100
AcDbBlockBegin
  2
*D16
 70
     1
 10
0.0
 20
0.0
 30
0.0
  3
*D16
  1

  0
LINE
  5
212
330
211
100
AcDbEntity
  8
1
  6
Continuous
 62
     2
100
AcDbLine
 10
187.993234711278
 20
132.4562339661176
 30
0.0
 11
239.8695741913374
 21
187.8275376141459
 31
0.0
  0
SOLID
  5
213
330
211
100
AcDbEntity
  8
1
 62
     2
100
AcDbTrace
 10
226.6297798769951
 20
174.5943712785086
 30
0.0
 11
227.5264803283615
 21
173.7542693852482
 31
0.0
 12
223.8875263972579
 22
170.7687622612041
 32
0.0
 13
223.8875263972579
 23
170.7687622612041
 33
0.0
  0
SOLID
  5
214
330
211
100
AcDbEntity
  8
1
 62
     2
100
AcDbTrace
 10
190.0368867896714
 20
133.7389620548246
 30
0.0
 11
189.140186338305
 21
134.579063948085
 31
0.0
 12
192.7791402694087
 22
137.5645710721291
 32
0.0
 13
192.7791402694087
 23
137.5645710721291
 33
0.0
  0
MTEXT
  5
215
330
211
100
AcDbEntity
  8
1
 62
     7
100
AcDbMText
 10
227.1655465642978
 20
176.900356731072
 30
0.0
 40
4.66666666666667
 41
0.0
 71
     7
 72
     1
  1
\C7;{\Fgdt;n}\C7;45,5
  7
CONVERTER_14
 11
0.6837007940186633
 21
0.7297624437159324
 31
0.0
 73
     1
 44
0.60024009603842
  0
ENDBLK
  5
217
330
211
100
AcDbEntity
  8
0
100
AcDbBlockEnd
  0
BLOCK
  5
21E
330
219
100
AcDbEntity
  8
0
100
AcDbBlockBegin
  2
*D17
 70
     1
 10
0.0
 20
0.0
 30
0.0
  3
*D17
  1

  0
LINE
  5
21A
330
219
100
AcDbEntity
  8
1
  6
Continuous
 62
     2
100
AcDbLine
 10
66.7815028570804
 20
148.6008224207272
 30
0.0
 11
142.7834396427111
 21
165.5995026695428
 31
0.0
  0
SOLID
  5
21B
330
219
100
AcDbEntity
  8
1
 62
     2
100
AcDbTrace
 10
114.1406572891503
 20
159.8227828843194
 30
0.0
 11
114.4088560380718
 21
158.6236530658188
 31
0.0
 12
109.7206090383273
 22
158.2046320999953
 32
0.0
 13
109.7206090383273
 23
158.2046320999953
 33
0.0
  0
SOLID
  5
21C
330
219
100
AcDbEntity
  8
1
 62
     2
100
AcDbTrace
 10
69.19267604418299
 20
148.5105504490139
 30
0.0
 11
68.92447729526155
 21
149.7096802675145
 31
0.0
 12
73.61272429500605
 22
150.1287012333381
 32
0.0
 13
73.61272429500605
 23
150.1287012333381
 33
0.0
  0
MTEXT
  5
21D
330
219
100
AcDbEntity
  8
1
 62
     7
100
AcDbMText
 10
131.9267926163174
 20
164.5375684751668
 30
0.0
 40
4.66666666666667
 41
0.0
 71
     7
 72
     1
  1
\C7;{\Fgdt;n}\C7;37
  7
CONVERTER_14
 11
0.975888776846521
 21
0.2182684018015462
 31
0.0
 73
     1
 44
0.60024009603842
  0
ENDBLK
  5
21F
330
219
100
AcDbEntity
  8
0
100
AcDbBlockEnd
  0
BLOCK
  5
226
330
221
100
AcDbEntity
  8
0
100
AcDbBlockBegin
  2
*D18
 70
     1
 10
0.0
 20
0.0
 30
0.0
  3
*D18
  1

  0
LINE
  5
222
330
221
100
AcDbEntity
  8
1
  6
Continuous
 62
     2
100
AcDbLine
 10
64.77137434099734
 20
130.6144746090939
 30
0.0
 11
134.9234647052711
 21
192.0466198891307
 31
0.0
  0
SOLID
  5
223
330
221
100
AcDbEntity
  8
1
 62
     2
100
AcDbTrace
 10
116.4018012767908
 20
176.6438592772392
 30
0.0
 11
117.2113093180501
 21
175.7194461544001
 31
0.0
 12
113.2957479075895
 22
173.1072406989803
 32
0.0
 13
113.2957479075895
 23
173.1072406989803
 33
0.0
  0
SOLID
  5
224
330
221
100
AcDbEntity
  8
1
 62
     2
100
AcDbTrace
 10
66.93153205654241
 20
131.689474056094
 30
0.0
 11
66.1220240152832
 21
132.6138871789331
 31
0.0
 12
70.03758542574379
 22
135.2260926343529
 32
0.0
 13
70.03758542574379
 23
135.2260926343529
 33
0.0
  0
MTEXT
  5
225
330
221
100
AcDbEntity
  8
1
 62
     7
100
AcDbMText
 10
121.204037688508
 20
182.4251375536633
 30
0.0
 40
4.66666666666667
 41
0.0
 71
     7
 72
     1
  1
\C7;{\Fgdt;n}\C7;57,5
  7
CONVERTER_14
 11
0.7523158692494911
 21
0.6588025750370005
 31
0.0
 73
     1
 44
0.60024009603842
  0
ENDBLK
  5
227
330
221
100
AcDbEntity
  8
0
100
AcDbBlockEnd
  0
BLOCK
  5
22E
330
229
100
AcDbEntity
  8
0
100
AcDbBlockBegin
  2
*D19
 70
     1
 10
0.0
 20
0.0
 30
0.0
  3
*D19
  1

  0
LINE
  5
22A
330
229
100
AcDbEntity
  8
1
  6
Continuous
 62
     2
100
AcDbLine
 10
71.27184149677333
 20
278.5405665091743
 30
0.0
 11
130.1066236276397
 21
325.0609745775498
 31
0.0
  0
SOLID
  5
22B
330
229
100
AcDbEntity
  8
1
 62
     2
100
AcDbTrace
 10
109.8501283076067
 20
309.8274811100341
 30
0.0
 11
110.6122457196349
 21
308.8636243048892
 31
0.0
 12
106.5705773677425
 22
306.4511244740655
 32
0.0
 13
106.5705773677425
 23
306.4511244740655
 33
0.0
  0
SOLID
  5
22C
330
229
100
AcDbEntity
  8
1
 62
     2
100
AcDbTrace
 10
73.48320502572655
 20
279.5058522232999
 30
0.0
 11
72.7210876136984
 21
280.4697090284447
 31
0.0
 12
76.76275596559076
 22
282.8822088592684
 32
0.0
 13
76.76275596559076
 23
282.8822088592684
 33
0.0
  0
MTEXT
  5
22D
330
229
100
AcDbEntity
  8
1
 62
     7
100
AcDbMText
 10
120.787029753946
 20
319.3917895463217
 30
0.0
 40
4.66666666666667
 41
0.0
 71
     7
 72
     1
  1
\C7;{\Fgdt;n}\C7;38
  7
CONVERTER_14
 11
0.784416352688204
 21
0.6202346214420276
 31
0.0
 73
     1
 44
0.60024009603842
  0
ENDBLK
  5
22F
330
229
100
AcDbEntity
  8
0
100
AcDbBlockEnd
  0
BLOCK
  5
236
330
231
100
AcDbEntity
  8
0
100
AcDbBlockBegin
  2
*D20
 70
     1
 10
0.0
 20
0.0
 30
0.0
  3
*D20
  1

  0
LINE
  5
232
330
231
100
AcDbEntity
  8
1
  6
Continuous
 62
     2
100
AcDbLine
 10
68.7147734712068
 20
286.0957508028749
 30
0.0
 11
137.4099676584583
 21
311.7485683988656
 31
0.0
  0
SOLID
  5
233
330
231
100
AcDbEntity
  8
1
 62
     2
100
AcDbTrace
 10
112.2177352758771
 20
302.9968617936295
 30
0.0
 11
112.6475952682884
 21
301.8457478646613
 31
0.0
 12
108.0608760919951
 22
300.7887494265185
 32
0.0
 13
108.0608760919951
 23
300.7887494265185
 33
0.0
  0
SOLID
  5
234
330
231
100
AcDbEntity
  8
1
 62
     2
100
AcDbTrace
 10
71.11559805745618
 20
286.3364715397044
 30
0.0
 11
70.6857380650449
 21
287.4875854686726
 31
0.0
 12
75.27245724133817
 22
288.5445839068155
 32
0.0
 13
75.27245724133817
 23
288.5445839068155
 33
0.0
  0
MTEXT
  5
235
330
231
100
AcDbEntity
  8
1
 62
     7
100
AcDbMText
 10
126.8009723599045
 20
309.2101224876529
 30
0.0
 40
4.66666666666667
 41
0.0
 71
     7
 72
     1
  1
\C7;{\Fgdt;n}\C7;35
  7
CONVERTER_14
 11
0.9368119671616273
 21
0.3498333005629429
 31
0.0
 73
     1
 44
0.60024009603842
  0
ENDBLK
  5
237
330
231
100
AcDbEntity
  8
0
100
AcDbBlockEnd
  0
ENDSEC
  0
SECTION
  2
ENTITIES
  0
INSERT
  5
5C
330
1F
100
AcDbEntity
  8
1
100
AcDbBlockReference
  2
開示A4
 10
0.0
 20
0.0
 30
0.0
 41
1.33333333333333
 42
1.33333333333333
 43
1.33333333333333
  0
INSERT
  5
5D
330
1F
100
AcDbEntity
  8
0
100
AcDbBlockReference
  2
パッキン小
 10
111.014337426512
 20
77.61632690225257
 30
0.0
  0
INSERT
  5
5E
330
1F
100
AcDbEntity
  8
0
100
AcDbBlockReference
  2
パッキン大
 10
164.1666666666666
 20
-84.83333333333344
 30
0.0
  0
LINE
  5
192
330
1F
100
AcDbEntity
  8
1
  6
DASH_CENTER
 62
     2
100
AcDbLine
 10
208.3333333333332
 20
247.6666666666668
 30
0.0
 11
208.3333333333332
 21
203.1680317192077
 31
0.0
  0
LINE
  5
193
330
1F
100
AcDbEntity
  8
1
  6
DASH_CENTER
 62
     2
100
AcDbLine
 10
91.66666666666663
 20
247.6666666666668
 30
0.0
 11
91.66666666666663
 21
199.1666666664508
 31
0.0
  0
LINE
  5
194
330
1F
100
AcDbEntity
  8
1
  6
DASH_CENTER
 62
     2
100
AcDbLine
 10
91.66666666666663
 20
257.1666666666669
 30
0.0
 11
91.66666666666663
 21
332.1666666666669
 31
0.0
  0
LINE
  5
195
330
1F
100
AcDbEntity
  8
1
  6
DASH_CENTER
 62
     2
100
AcDbLine
 10
54.16666666666663
 20
294.6666666666669
 30
0.0
 11
129.1666666666666
 21
294.6666666666669
 31
0.0
  0
LINE
  5
196
330
1F
100
AcDbEntity
  8
1
  6
DASH_CENTER
 62
     2
100
AcDbLine
 10
177.8333311242093
 20
294.6666666666669
 30
0.0
 11
238.8333311242093
 21
294.6666666666669
 31
0.0
  0
LINE
  5
197
330
1F
100
AcDbEntity
  8
1
  6
DASH_CENTER
 62
     2
100
AcDbLine
 10
208.3333313736266
 20
325.1666666666669
 30
0.0
 11
208.3333335471195
 21
264.1666666666671
 31
0.0
  0
LINE
  5
198
330
1F
100
AcDbEntity
  8
1
  6
DASH_CENTER
 62
     2
100
AcDbLine
 10
91.66666666666663
 20
191.6666682338528
 30
0.0
 11
91.66666666666663
 21
116.6666650994804
 31
0.0
  0
LINE
  5
199
330
1F
100
AcDbEntity
  8
1
  6
DASH_CENTER
 62
     2
100
AcDbLine
 10
54.16666509948044
 20
154.1666666666666
 30
0.0
 11
129.1666682338528
 21
154.1666666666666
 31
0.0
  0
LINE
  5
19A
330
1F
100
AcDbEntity
  8
1
  6
DASH_CENTER
 62
     2
100
AcDbLine
 10
208.3333333333332
 20
184.6666666666666
 30
0.0
 11
208.3333333333332
 21
123.6666666666666
 31
0.0
  0
LINE
  5
19B
330
1F
100
AcDbEntity
  8
1
  6
DASH_CENTER
 62
     2
100
AcDbLine
 10
177.8333333333332
 20
154.1666666666666
 30
0.0
 11
238.8333333333332
 21
154.1666666666666
 31
0.0
  0
LINE
  5
19C
330
1F
100
AcDbEntity
  8
1
  6
Continuous
 62
     2
100
AcDbLine
 10
72.66666666666663
 20
102.1666666666666
 30
0.0
 11
110.6666666666666
 21
102.1666666666666
 31
0.0
  0
LINE
  5
19D
330
1F
100
AcDbEntity
  8
1
  6
Continuous
 62
     2
100
AcDbLine
 10
189.3333333333332
 20
102.1666666666666
 30
0.0
 11
227.3333333333332
 21
102.1666666666666
 31
0.0
  0
MTEXT
  5
19F
330
1F
100
AcDbEntity
  8
1
 62
     7
100
AcDbMText
 10
134.3333333333333
 20
16.66666666666666
 30
0.0
 40
3.33333333333333
 41
0.0
 71
     5
 72
     1
  1
17
  7
CONVERTER_14
 73
     1
 44
0.7202881152461
  0
MTEXT
  5
1A0
330
1F
100
AcDbEntity
  8
1
 62
     7
100
AcDbMText
 10
149.6666666666666
 20
16.66666666666666
 30
0.0
 40
3.33333333333333
 41
0.0
 71
     5
 72
     1
  1
25
  7
CONVERTER_14
 73
     1
 44
0.7202881152461
  0
MTEXT
  5
1A1
330
1F
100
AcDbEntity
  8
1
 62
     7
100
AcDbMText
 10
141.9999999999999
 20
16.66666666666666
 30
0.0
 40
3.33333333333333
 41
0.0
 71
     5
 72
     1
  1
4
  7
CONVERTER_14
 73
     1
 44
0.7202881152461
  0
MTEXT
  5
1A2
330
1F
100
AcDbEntity
  8
1
 62
     7
100
AcDbMText
 10
164.6666666666666
 20
16.66666666666666
 30
0.0
 40
3.33333333333333
 41
0.0
 71
     5
 72
     1
  1
4
  7
CONVERTER_14
 73
     1
 44
0.7202881152461
  0
MTEXT
  5
1A3
330
1F
100
AcDbEntity
  8
1
 62
     7
100
AcDbMText
 10
172.3333333333333
 20
16.66666666666666
 30
0.0
 40
3.33333333333333
 41
0.0
 71
     5
 72
     1
  1
25
  7
CONVERTER_14
 73
     1
 44
0.7202881152461
  0
MTEXT
  5
1A4
330
1F
100
AcDbEntity
  8
1
 62
     7
100
AcDbMText
 10
157.0
 20
16.66666666666666
 30
0.0
 40
3.33333333333333
 41
0.0
 71
     5
 72
     1
  1
17
  7
CONVERTER_14
 73
     1
 44
0.7202881152461
  0
MTEXT
  5
1A5
330
1F
100
AcDbEntity
  8
1
 62
     7
100
AcDbMText
 10
210.0
 20
16.66666666666666
 30
0.0
 40
3.33333333333333
 41
0.0
 71
     5
 72
     1
  1
4
  7
CONVERTER_14
 73
     1
 44
0.7202881152461
  0
MTEXT
  5
1A6
330
1F
100
AcDbEntity
  8
1
 62
     7
100
AcDbMText
 10
217.6666666666667
 20
16.66666666666666
 30
0.0
 40
3.33333333333333
 41
0.0
 71
     5
 72
     1
  1
21
  7
CONVERTER_14
 73
     1
 44
0.7202881152461
  0
MTEXT
  5
1A7
330
1F
100
AcDbEntity
  8
1
 62
     7
100
AcDbMText
 10
202.3333333333333
 20
16.66666666666666
 30
0.0
 40
3.33333333333333
 41
0.0
 71
     5
 72
     1
  1
17
  7
CONVERTER_14
 73
     1
 44
0.7202881152461
  0
MTEXT
  5
1A8
330
1F
100
AcDbEntity
  8
1
 62
     7
100
AcDbMText
 10
76.0
 20
19.0
 30
0.0
 40
4.66666666666667
 41
0.0
 71
     5
 72
     1
  1
H70-902
  7
CONVERTER_14
 73
     1
 44
0.7202881152461
  0
MTEXT
  5
1A9
330
1F
100
AcDbEntity
  8
1
 62
     7
100
AcDbMText
 10
76.0
 20
30.33333333333334
 30
0.0
 40
4.66666666666667
 41
0.0
 71
     5
 72
     1
  1
クリーンパッキン
  7
CONVERTER_11
 73
     1
 44
0.54545454545455
  0
MTEXT
  5
1AA
330
1F
100
AcDbEntity
  8
1
 62
     7
100
AcDbMText
 10
113.6666666666667
 20
22.66666666666667
 30
0.0
 40
4.66666666666667
 41
0.0
 71
     5
 72
     1
  1
1
  7
CONVERTER_14
 73
     1
 44
0.7202881152461
  0
MTEXT
  5
1AB
330
1F
100
AcDbEntity
  8
1
 62
     7
100
AcDbMText
 10
125.0
 20
22.66666666666667
 30
0.0
 40
4.66666666666667
 41
0.0
 71
     5
 72
     1
  1
1,5
  7
CONVERTER_14
 73
     1
 44
0.7202881152461
  0
MTEXT
  5
1AC
330
1F
100
AcDbEntity
  8
1
 62
     7
100
AcDbMText
 10
179.6666666666667
 20
16.66666666666666
 30
0.0
 40
3.33333333333333
 41
0.0
 71
     5
 72
     1
  1
17
  7
CONVERTER_14
 73
     1
 44
0.7202881152461
  0
MTEXT
  5
1AD
330
1F
100
AcDbEntity
  8
1
 62
     7
100
AcDbMText
 10
195.0
 20
16.66666666666666
 30
0.0
 40
3.33333333333333
 41
0.0
 71
     5
 72
     1
  1
21
  7
CONVERTER_14
 73
     1
 44
0.7202881152461
  0
MTEXT
  5
1AE
330
1F
100
AcDbEntity
  8
1
 62
     7
100
AcDbMText
 10
187.3333333333333
 20
16.66666666666666
 30
0.0
 40
3.33333333333333
 41
0.0
 71
     5
 72
     1
  1
4
  7
CONVERTER_14
 73
     1
 44
0.7202881152461
  0
MTEXT
  5
1AF
330
1F
100
AcDbEntity
  8
1
 62
     7
100
AcDbMText
 10
91.66666666666663
 20
108.1666666666666
 30
0.0
 40
6.66666666666667
 41
0.0
 71
     5
 72
     1
  1
大パッキン
  7
CONVERTER_11
 73
     1
 44
0.54545454545455
  0
MTEXT
  5
1B0
330
1F
100
AcDbEntity
  8
1
 62
     7
100
AcDbMText
 10
208.3333333333332
 20
108.1666666666666
 30
0.0
 40
6.66666666666667
 41
0.0
 71
     5
 72
     1
  1
小パッキン
  7
CONVERTER_11
 73
     1
 44
0.54545454545455
  0
DIMENSION
  5
1BD
330
1F
100
AcDbEntity
  8
1
100
AcDbDimension
  2
*D6
 10
138.1666666666667
 20
234.6653016141268
 30
0.0
 11
134.5
 21
237.934125178623
 31
0.0
 70
    32
  1
<>
 71
     5
 42
-1.0
 53
90.0
  3
ME10_DIM_10
100
AcDbAlignedDimension
 13
122.1666682338528
 23
241.6650785648648
 33
0.0
 14
123.1666669728178
 24
234.6653016141268
 34
0.0
 50
90.0
100
AcDbRotatedDimension
  0
DIMENSION
  5
1C8
330
1F
100
AcDbEntity
  8
1
100
AcDbDimension
  2
*D7
 10
150.1666666666667
 20
241.6650785648648
 30
0.0
 11
146.5
 21
222.854561046452
 31
0.0
 70
    32
  1
<>
 71
     5
 42
-1.0
 53
90.0
  3
ME10_DIM_11
100
AcDbAlignedDimension
 13
115.1668005019643
 23
204.6666666666671
 33
0.0
 14
122.1666682338528
 24
241.6650785648648
 34
0.0
 50
90.0
100
AcDbRotatedDimension
  0
DIMENSION
  5
1D5
330
1F
100
AcDbEntity
  8
1
100
AcDbDimension
  2
*D8
 10
247.8333311242093
 20
235.1666666666668
 30
0.0
 11
243.9333311242093
 21
224.325738034957
 31
0.0
 70
    32
  1
<>
 71
     5
 42
-1.0
 53
90.0
  3
ME10_DIM_12
100
AcDbAlignedDimension
 13
230.8333355136826
 23
241.6700406340958
 33
0.0
 14
232.8333351705507
 24
235.1666666666668
 34
0.0
 50
90.0
100
AcDbRotatedDimension
  0
DIMENSION
  5
1E0
330
1F
100
AcDbEntity
  8
1
100
AcDbDimension
  2
*D9
 10
259.8333311242093
 20
209.1680317192077
 30
0.0
 11
255.9333311242093
 21
225.245223652772
 31
0.0
 70
    32
  1
<>
 71
     5
 42
-1.0
 53
90.0
  3
ME10_DIM_13
100
AcDbAlignedDimension
 13
230.8333355136826
 23
241.6700406340958
 33
0.0
 14
226.3333351705507
 24
209.1680317192077
 34
0.0
 50
90.0
100
AcDbRotatedDimension
  0
INSERT
  5
1E8
330
1F
100
AcDbEntity
  8
1
100
AcDbBlockReference
  2
*D10
 10
0.0
 20
0.0
 30
0.0
  0
INSERT
  5
1F0
330
1F
100
AcDbEntity
  8
1
100
AcDbBlockReference
  2
*D11
 10
0.0
 20
0.0
 30
0.0
  0
INSERT
  5
1F8
330
1F
100
AcDbEntity
  8
1
100
AcDbBlockReference
  2
*D12
 10
0.0
 20
0.0
 30
0.0
  0
INSERT
  5
200
330
1F
100
AcDbEntity
  8
1
100
AcDbBlockReference
  2
*D13
 10
0.0
 20
0.0
 30
0.0
  0
INSERT
  5
208
330
1F
100
AcDbEntity
  8
1
100
AcDbBlockReference
  2
*D14
 10
0.0
 20
0.0
 30
0.0
  0
INSERT
  5
210
330
1F
100
AcDbEntity
  8
1
100
AcDbBlockReference
  2
*D15
 10
0.0
 20
0.0
 30
0.0
  0
INSERT
  5
218
330
1F
100
AcDbEntity
  8
1
100
AcDbBlockReference
  2
*D16
 10
0.0
 20
0.0
 30
0.0
  0
INSERT
  5
220
330
1F
100
AcDbEntity
  8
1
100
AcDbBlockReference
  2
*D17
 10
0.0
 20
0.0
 30
0.0
  0
INSERT
  5
228
330
1F
100
AcDbEntity
  8
1
100
AcDbBlockReference
  2
*D18
 10
0.0
 20
0.0
 30
0.0
  0
INSERT
  5
230
330
1F
100
AcDbEntity
  8
1
100
AcDbBlockReference
  2
*D19
 10
0.0
 20
0.0
 30
0.0
  0
INSERT
  5
238
330
1F
100
AcDbEntity
  8
1
100
AcDbBlockReference
  2
*D20
 10
0.0
 20
0.0
 30
0.0
  0
ENDSEC
  0
SECTION
  2
OBJECTS
  0
DICTIONARY
  5
C
330
0
100
AcDbDictionary
281
     1
  3
ACAD_GROUP
350
D
  3
ACAD_LAYOUT
350
1A
  3
ACAD_MATERIAL
350
3B
  3
ACAD_MLEADERSTYLE
350
23B
  3
ACAD_MLINESTYLE
350
17
  3
ACAD_PLOTSETTINGS
350
19
  3
ACAD_PLOTSTYLENAME
350
E
  3
ACAD_VISUALSTYLE
350
2A
  3
AcDbVariableDictionary
350
239
  0
DICTIONARY
  5
D
102
{ACAD_REACTORS
330
C
102
}
330
C
100
AcDbDictionary
281
     1
  0
DICTIONARY
  5
1A
102
{ACAD_REACTORS
330
C
102
}
330
C
100
AcDbDictionary
281
     1
  3
Layout1
350
1E
  3
Layout2
350
26
  3
Model
350
22
  0
DICTIONARY
  5
3B
102
{ACAD_REACTORS
330
C
102
}
330
C
100
AcDbDictionary
281
     1
  3
ByBlock
350
3D
  3
ByLayer
350
3C
  3
Global
350
3E
  0
DICTIONARY
  5
23B
102
{ACAD_REACTORS
330
C
102
}
330
C
100
AcDbDictionary
281
     1
  0
DICTIONARY
  5
17
102
{ACAD_REACTORS
330
C
102
}
330
C
100
AcDbDictionary
281
     1
  3
Standard
350
18
  0
DICTIONARY
  5
19
102
{ACAD_REACTORS
330
C
102
}
330
C
100
AcDbDictionary
281
     1
  0
ACDBDICTIONARYWDFLT
  5
E
102
{ACAD_REACTORS
330
C
102
}
330
C
100
AcDbDictionary
281
     1
  3
Normal
350
F
100
AcDbDictionaryWithDefault
340
F
  0
DICTIONARY
  5
2A
102
{ACAD_REACTORS
330
C
102
}
330
C
100
AcDbDictionary
281
     1
  3
2dWireframe
350
2F
  3
3D Hidden
350
31
  3
3dWireframe
350
30
  3
Basic
350
32
  3
Brighten
350
36
  3
ColorChange
350
3A
  3
Conceptual
350
34
  3
Dim
350
35
  3
Facepattern
350
39
  3
Flat
350
2B
  3
FlatWithEdges
350
2C
  3
Gouraud
350
2D
  3
GouraudWithEdges
350
2E
  3
Linepattern
350
38
  3
Realistic
350
33
  3
Thicken
350
37
  0
DICTIONARY
  5
239
102
{ACAD_REACTORS
330
C
102
}
330
C
100
AcDbDictionary
281
     1
  3
DIMASSOC
350
23C
  3
HIDETEXT
350
23D
  0
LAYOUT
  5
1E
102
{ACAD_REACTORS
330
1A
102
}
330
1A
100
AcDbPlotSettings
  1

  2
none_device
  4

  6

 40
0.0
 41
0.0
 42
0.0
 43
0.0
 44
0.0
 45
0.0
 46
0.0
 47
0.0
 48
0.0
 49
0.0
140
0.0
141
0.0
142
1.0
143
1.0
 70
   688
 72
     0
 73
     0
 74
     5
  7

 75
    16
147
1.0
148
0.0
149
0.0
100
AcDbLayout
  1
Layout1
 70
     1
 71
     1
 10
0.0
 20
0.0
 11
12.0
 21
9.0
 12
0.0
 22
0.0
 32
0.0
 14
1.00000000000000E+20
 24
1.00000000000000E+20
 34
1.00000000000000E+20
 15
-1.00000000000000E+20
 25
-1.00000000000000E+20
 35
-1.00000000000000E+20
146
0.0
 13
0.0
 23
0.0
 33
0.0
 16
1.0
 26
0.0
 36
0.0
 17
0.0
 27
1.0
 37
0.0
 76
     0
330
1B
  0
LAYOUT
  5
26
102
{ACAD_REACTORS
330
1A
102
}
330
1A
100
AcDbPlotSettings
  1

  2
none_device
  4

  6

 40
0.0
 41
0.0
 42
0.0
 43
0.0
 44
0.0
 45
0.0
 46
0.0
 47
0.0
 48
0.0
 49
0.0
140
0.0
141
0.0
142
1.0
143
1.0
 70
   688
 72
     0
 73
     0
 74
     5
  7

 75
    16
147
1.0
148
0.0
149
0.0
100
AcDbLayout
  1
Layout2
 70
     1
 71
     2
 10
0.0
 20
0.0
 11
0.0
 21
0.0
 12
0.0
 22
0.0
 32
0.0
 14
0.0
 24
0.0
 34
0.0
 15
0.0
 25
0.0
 35
0.0
146
0.0
 13
0.0
 23
0.0
 33
0.0
 16
1.0
 26
0.0
 36
0.0
 17
0.0
 27
1.0
 37
0.0
 76
     0
330
23
  0
LAYOUT
  5
22
102
{ACAD_REACTORS
330
1A
102
}
330
1A
100
AcDbPlotSettings
  1

  2
none_device
  4

  6

 40
0.0
 41
0.0
 42
0.0
 43
0.0
 44
0.0
 45
0.0
 46
0.0
 47
0.0
 48
0.0
 49
0.0
140
0.0
141
0.0
142
1.0
143
1.0
 70
  1712
 72
     0
 73
     0
 74
     0
  7

 75
     0
147
1.0
148
0.0
149
0.0
100
AcDbLayout
  1
Model
 70
     1
 71
     0
 10
0.0
 20
0.0
 11
12.0
 21
9.0
 12
0.0
 22
0.0
 32
0.0
 14
0.0
 24
0.0
 34
0.0
 15
280.0
 25
396.0
 35
0.0
146
0.0
 13
0.0
 23
0.0
 33
0.0
 16
1.0
 26
0.0
 36
0.0
 17
0.0
 27
1.0
 37
0.0
 76
     0
330
1F
331
29
  0
MATERIAL
  5
3D
102
{ACAD_REACTORS
330
3B
102
}
102
{ACAD_XDICTIONARY
360
260
102
}
330
3B
100
AcDbMaterial
  1
ByBlock
  0
MATERIAL
  5
3C
102
{ACAD_REACTORS
330
3B
102
}
102
{ACAD_XDICTIONARY
360
25E
102
}
330
3B
100
AcDbMaterial
  1
ByLayer
  0
MATERIAL
  5
3E
102
{ACAD_REACTORS
330
3B
102
}
102
{ACAD_XDICTIONARY
360
262
102
}
330
3B
100
AcDbMaterial
  1
Global
  0
MLINESTYLE
  5
18
102
{ACAD_REACTORS
330
17
102
}
330
17
100
AcDbMlineStyle
  2
Standard
 70
     0
  3

 62
   256
 51
90.0
 52
90.0
 71
     2
 49
0.5
 62
   256
  6
BYLAYER
 49
-0.5
 62
   256
  6
BYLAYER
  0
ACDBPLACEHOLDER
  5
F
102
{ACAD_REACTORS
330
E
102
}
330
E
  0
VISUALSTYLE
  5
2F
102
{ACAD_REACTORS
330
2A
102
}
102
{ACAD_XDICTIONARY
360
246
102
}
330
2A
100
AcDbVisualStyle
  2
2dWireframe
 70
     4
 71
     0
 72
     2
 73
     0
 90
        0
 40
-0.6
 41
-30.0
 62
     5
 63
     7
 74
     1
 91
        4
 64
     7
 65
   257
 75
     1
175
     1
 42
1.0
 92
        0
 66
   257
 43
1.0
 76
     1
 77
     6
 78
     2
 67
     7
 79
     5
170
     0
171
     0
290
     0
174
     0
 93
        1
 44
0.0
173
     0
291
     0
 45
0.0
1001
ACAD
1000
AcDbSavedByObjectVersion
1070
     0
  0
VISUALSTYLE
  5
31
102
{ACAD_REACTORS
330
2A
102
}
102
{ACAD_XDICTIONARY
360
24A
102
}
330
2A
100
AcDbVisualStyle
  2
3D Hidden
 70
     6
 71
     1
 72
     2
 73
     2
 90
        0
 40
-0.6
 41
-30.0
 62
     5
 63
     7
 74
     2
 91
        2
 64
     7
 65
   257
 75
     2
175
     1
 42
40.0
 92
        0
 66
   257
 43
1.0
 76
     1
 77
     6
 78
     2
 67
     7
 79
     3
170
     0
171
     0
290
     0
174
     0
 93
        1
 44
0.0
173
     0
291
     0
 45
0.0
1001
ACAD
1000
AcDbSavedByObjectVersion
1070
     0
  0
VISUALSTYLE
  5
30
102
{ACAD_REACTORS
330
2A
102
}
102
{ACAD_XDICTIONARY
360
248
102
}
330
2A
100
AcDbVisualStyle
  2
3dWireframe
 70
     5
 71
     0
 72
     2
 73
     0
 90
        0
 40
-0.6
 41
-30.0
 62
     5
 63
     7
 74
     1
 91
        4
 64
     7
 65
   257
 75
     1
175
     1
 42
1.0
 92
        0
 66
   257
 43
1.0
 76
     1
 77
     6
 78
     2
 67
     7
 79
     5
170
     0
171
     0
290
     0
174
     0
 93
        1
 44
0.0
173
     0
291
     0
 45
0.0
1001
ACAD
1000
AcDbSavedByObjectVersion
1070
     0
  0
VISUALSTYLE
  5
32
102
{ACAD_REACTORS
330
2A
102
}
102
{ACAD_XDICTIONARY
360
24C
102
}
330
2A
100
AcDbVisualStyle
  2
Basic
 70
     7
 71
     1
 72
     0
 73
     1
 90
        0
 40
-0.6
 41
-30.0
 62
     5
 63
     7
 74
     0
 91
        4
 64
     7
 65
   257
 75
     1
175
     1
 42
1.0
 92
        8
 66
     7
 43
1.0
 76
     1
 77
     6
 78
     2
 67
     7
 79
     5
170
     0
171
     0
290
     0
174
     0
 93
        1
 44
0.0
173
     0
291
     1
 45
0.0
1001
ACAD
1000
AcDbSavedByObjectVersion
1070
     0
  0
VISUALSTYLE
  5
36
102
{ACAD_REACTORS
330
2A
102
}
102
{ACAD_XDICTIONARY
360
254
102
}
330
2A
100
AcDbVisualStyle
  2
Brighten
 70
    12
 71
     2
 72
     2
 73
     0
 90
        0
 40
-0.6
 41
-30.0
 62
     5
 63
     7
 74
     1
 91
        4
 64
     7
 65
   257
 75
     1
175
     1
 42
1.0
 92
        8
 66
     7
 43
1.0
 76
     1
 77
     6
 78
     2
 67
     7
 79
     5
170
     0
171
     0
290
     0
174
     0
 93
        1
 44
50.0
173
     0
291
     1
 45
0.0
1001
ACAD
1000
AcDbSavedByObjectVersion
1070
     0
  0
VISUALSTYLE
  5
3A
102
{ACAD_REACTORS
330
2A
102
}
102
{ACAD_XDICTIONARY
360
25C
102
}
330
2A
100
AcDbVisualStyle
  2
ColorChange
 70
    16
 71
     2
 72
     2
 73
     3
 90
        0
 40
-0.6
 41
-30.0
 62
     5
 63
     8
 74
     1
 91
        4
 64
     7
 65
   257
 75
     1
175
     1
 42
1.0
 92
        8
 66
     8
 43
1.0
 76
     1
 77
     6
 78
     2
 67
     7
 79
     5
170
     0
171
     0
290
     0
174
     0
 93
        1
 44
0.0
173
     0
291
     1
 45
0.0
1001
ACAD
1000
AcDbSavedByObjectVersion
1070
     0
  0
VISUALSTYLE
  5
34
102
{ACAD_REACTORS
330
2A
102
}
102
{ACAD_XDICTIONARY
360
250
102
}
330
2A
100
AcDbVisualStyle
  2
Conceptual
 70
     9
 71
     3
 72
     2
 73
     0
 90
        0
 40
-0.6
 41
-30.0
 62
     5
 63
     7
 74
     2
 91
        2
 64
     7
 65
   257
 75
     1
175
     1
 42
40.0
 92
        8
 66
     7
 43
1.0
 76
     1
 77
     6
 78
     2
 67
     7
 79
     3
170
     0
171
     0
290
     0
174
     0
 93
        1
 44
0.0
173
     0
291
     0
 45
0.0
1001
ACAD
1000
AcDbSavedByObjectVersion
1070
     0
  0
VISUALSTYLE
  5
35
102
{ACAD_REACTORS
330
2A
102
}
102
{ACAD_XDICTIONARY
360
252
102
}
330
2A
100
AcDbVisualStyle
  2
Dim
 70
    11
 71
     2
 72
     2
 73
     0
 90
        0
 40
-0.6
 41
-30.0
 62
     5
 63
     7
 74
     1
 91
        4
 64
     7
 65
   257
 75
     1
175
     1
 42
1.0
 92
        8
 66
     7
 43
1.0
 76
     1
 77
     6
 78
     2
 67
     7
 79
     5
170
     0
171
     0
290
     0
174
     0
 93
        1
 44
-50.0
173
     0
291
     1
 45
0.0
1001
ACAD
1000
AcDbSavedByObjectVersion
1070
     0
  0
VISUALSTYLE
  5
39
102
{ACAD_REACTORS
330
2A
102
}
102
{ACAD_XDICTIONARY
360
25A
102
}
330
2A
100
AcDbVisualStyle
  2
Facepattern
 70
    15
 71
     2
 72
     2
 73
     0
 90
        0
 40
-0.6
 41
-30.0
 62
     5
 63
     7
 74
     1
 91
        4
 64
     7
 65
   257
 75
     1
175
     1
 42
1.0
 92
        8
 66
     7
 43
1.0
 76
     1
 77
     6
 78
     2
 67
     7
 79
     5
170
     0
171
     0
290
     0
174
     0
 93
        1
 44
0.0
173
     0
291
     1
 45
0.0
1001
ACAD
1000
AcDbSavedByObjectVersion
1070
     0
  0
VISUALSTYLE
  5
2B
102
{ACAD_REACTORS
330
2A
102
}
102
{ACAD_XDICTIONARY
360
23E
102
}
330
2A
100
AcDbVisualStyle
  2
Flat
 70
     0
 71
     2
 72
     1
 73
     1
 90
        2
 40
-0.6
 41
30.0
 62
     5
 63
     7
 74
     0
 91
        4
 64
     7
 65
   257
 75
     1
175
     1
 42
1.0
 92
        8
 66
     7
 43
1.0
 76
     1
 77
     6
 78
     2
 67
     7
 79
     5
170
     0
171
     0
290
     0
174
     0
 93
       13
 44
0.0
173
     0
291
     1
 45
0.0
1001
ACAD
1000
AcDbSavedByObjectVersion
1070
     0
  0
VISUALSTYLE
  5
2C
102
{ACAD_REACTORS
330
2A
102
}
102
{ACAD_XDICTIONARY
360
240
102
}
330
2A
100
AcDbVisualStyle
  2
FlatWithEdges
 70
     1
 71
     2
 72
     1
 73
     1
 90
        2
 40
-0.6
 41
30.0
 62
     5
 63
     7
 74
     1
 91
        4
 64
     7
 65
   257
 75
     1
175
     1
 42
1.0
 92
        0
 66
   257
 43
1.0
 76
     1
 77
     6
 78
     2
 67
     7
 79
     5
170
     0
171
     0
290
     0
174
     0
 93
       13
 44
0.0
173
     0
291
     1
 45
0.0
1001
ACAD
1000
AcDbSavedByObjectVersion
1070
     0
  0
VISUALSTYLE
  5
2D
102
{ACAD_REACTORS
330
2A
102
}
102
{ACAD_XDICTIONARY
360
242
102
}
330
2A
100
AcDbVisualStyle
  2
Gouraud
 70
     2
 71
     2
 72
     2
 73
     1
 90
        2
 40
-0.6
 41
30.0
 62
     5
 63
     7
 74
     0
 91
        4
 64
     7
 65
   257
 75
     1
175
     1
 42
1.0
 92
        0
 66
     7
 43
1.0
 76
     1
 77
     6
 78
     2
 67
     7
 79
     5
170
     0
171
     0
290
     0
174
     0
 93
       13
 44
0.0
173
     0
291
     1
 45
0.0
1001
ACAD
1000
AcDbSavedByObjectVersion
1070
     0
  0
VISUALSTYLE
  5
2E
102
{ACAD_REACTORS
330
2A
102
}
102
{ACAD_XDICTIONARY
360
244
102
}
330
2A
100
AcDbVisualStyle
  2
GouraudWithEdges
 70
     3
 71
     2
 72
     2
 73
     1
 90
        2
 40
-0.6
 41
30.0
 62
     5
 63
     7
 74
     1
 91
        4
 64
     7
 65
   257
 75
     1
175
     1
 42
1.0
 92
        0
 66
   257
 43
1.0
 76
     1
 77
     6
 78
     2
 67
     7
 79
     5
170
     0
171
     0
290
     0
174
     0
 93
       13
 44
0.0
173
     0
291
     1
 45
0.0
1001
ACAD
1000
AcDbSavedByObjectVersion
1070
     0
  0
VISUALSTYLE
  5
38
102
{ACAD_REACTORS
330
2A
102
}
102
{ACAD_XDICTIONARY
360
258
102
}
330
2A
100
AcDbVisualStyle
  2
Linepattern
 70
    14
 71
     2
 72
     2
 73
     0
 90
        0
 40
-0.6
 41
-30.0
 62
     5
 63
     7
 74
     1
 91
        4
 64
     7
 65
   257
 75
     7
175
     7
 42
1.0
 92
        8
 66
     7
 43
1.0
 76
     1
 77
     6
 78
     2
 67
     7
 79
     5
170
     0
171
     0
290
     0
174
     0
 93
        1
 44
0.0
173
     0
291
     1
 45
0.0
1001
ACAD
1000
AcDbSavedByObjectVersion
1070
     0
  0
VISUALSTYLE
  5
33
102
{ACAD_REACTORS
330
2A
102
}
102
{ACAD_XDICTIONARY
360
24E
102
}
330
2A
100
AcDbVisualStyle
  2
Realistic
 70
     8
 71
     2
 72
     2
 73
     0
 90
        0
 40
-0.6
 41
-30.0
 62
     5
 63
     7
 74
     1
 91
        0
 64
     7
 65
   257
 75
     1
175
     1
 42
1.0
 92
        8
 66
     8
 43
1.0
 76
     1
 77
     6
 78
     2
 67
     7
 79
     5
170
     0
171
     0
290
     0
174
     0
 93
       13
 44
0.0
173
     0
291
     0
 45
0.0
1001
ACAD
1000
AcDbSavedByObjectVersion
1070
     0
  0
VISUALSTYLE
  5
37
102
{ACAD_REACTORS
330
2A
102
}
102
{ACAD_XDICTIONARY
360
256
102
}
330
2A
100
AcDbVisualStyle
  2
Thicken
 70
    13
 71
     2
 72
     2
 73
     0
 90
        0
 40
-0.6
 41
-30.0
 62
     5
 63
     7
 74
     1
 91
        4
 64
     7
 65
   257
 75
     1
175
     1
 42
1.0
 92
       12
 66
     7
 43
1.0
 76
     1
 77
     6
 78
     2
 67
     7
 79
     5
170
     0
171
     0
290
     0
174
     0
 93
        1
 44
0.0
173
     0
291
     1
 45
0.0
1001
ACAD
1000
AcDbSavedByObjectVersion
1070
     0
  0
DICTIONARYVAR
  5
23C
102
{ACAD_REACTORS
330
239
102
}
330
239
100
DictionaryVariables
280
     0
  1
2
  0
DICTIONARYVAR
  5
23D
102
{ACAD_REACTORS
330
239
102
}
330
239
100
DictionaryVariables
280
     0
  1
1
  0
DICTIONARY
  5
260
330
3D
100
AcDbDictionary
280
     1
281
     1
  3
ACAD_XREC_ROUNDTRIP
360
261
  0
DICTIONARY
  5
25E
330
3C
100
AcDbDictionary
280
     1
281
     1
  3
ACAD_XREC_ROUNDTRIP
360
25F
  0
DICTIONARY
  5
262
330
3E
100
AcDbDictionary
280
     1
281
     1
  3
ACAD_XREC_ROUNDTRIP
360
263
  0
DICTIONARY
  5
246
330
2F
100
AcDbDictionary
280
     1
281
     1
  3
ACAD_XREC_ROUNDTRIP
360
247
  0
DICTIONARY
  5
24A
330
31
100
AcDbDictionary
280
     1
281
     1
  3
ACAD_XREC_ROUNDTRIP
360
24B
  0
DICTIONARY
  5
248
330
30
100
AcDbDictionary
280
     1
281
     1
  3
ACAD_XREC_ROUNDTRIP
360
249
  0
DICTIONARY
  5
24C
330
32
100
AcDbDictionary
280
     1
281
     1
  3
ACAD_XREC_ROUNDTRIP
360
24D
  0
DICTIONARY
  5
254
330
36
100
AcDbDictionary
280
     1
281
     1
  3
ACAD_XREC_ROUNDTRIP
360
255
  0
DICTIONARY
  5
25C
330
3A
100
AcDbDictionary
280
     1
281
     1
  3
ACAD_XREC_ROUNDTRIP
360
25D
  0
DICTIONARY
  5
250
330
34
100
AcDbDictionary
280
     1
281
     1
  3
ACAD_XREC_ROUNDTRIP
360
251
  0
DICTIONARY
  5
252
330
35
100
AcDbDictionary
280
     1
281
     1
  3
ACAD_XREC_ROUNDTRIP
360
253
  0
DICTIONARY
  5
25A
330
39
100
AcDbDictionary
280
     1
281
     1
  3
ACAD_XREC_ROUNDTRIP
360
25B
  0
DICTIONARY
  5
23E
330
2B
100
AcDbDictionary
280
     1
281
     1
  3
ACAD_XREC_ROUNDTRIP
360
23F
  0
DICTIONARY
  5
240
330
2C
100
AcDbDictionary
280
     1
281
     1
  3
ACAD_XREC_ROUNDTRIP
360
241
  0
DICTIONARY
  5
242
330
2D
100
AcDbDictionary
280
     1
281
     1
  3
ACAD_XREC_ROUNDTRIP
360
243
  0
DICTIONARY
  5
244
330
2E
100
AcDbDictionary
280
     1
281
     1
  3
ACAD_XREC_ROUNDTRIP
360
245
  0
DICTIONARY
  5
258
330
38
100
AcDbDictionary
280
     1
281
     1
  3
ACAD_XREC_ROUNDTRIP
360
259
  0
DICTIONARY
  5
24E
330
33
100
AcDbDictionary
280
     1
281
     1
  3
ACAD_XREC_ROUNDTRIP
360
24F
  0
DICTIONARY
  5
256
330
37
100
AcDbDictionary
280
     1
281
     1
  3
ACAD_XREC_ROUNDTRIP
360
257
  0
XRECORD
  5
261
102
{ACAD_REACTORS
330
260
102
}
330
260
100
AcDbXrecord
280
     1
102
MATERIAL
148
0.0
149
0.0
149
0.0
 93
        0
 94
      127
282
     0
 72
     1
 77
     1
171
     1
175
     1
179
     1
273
     0
  0
XRECORD
  5
25F
102
{ACAD_REACTORS
330
25E
102
}
330
25E
100
AcDbXrecord
280
     1
102
MATERIAL
148
0.0
149
0.0
149
0.0
 93
        0
 94
      127
282
     0
 72
     1
 77
     1
171
     1
175
     1
179
     1
273
     0
  0
XRECORD
  5
263
102
{ACAD_REACTORS
330
262
102
}
330
262
100
AcDbXrecord
280
     1
102
MATERIAL
148
0.0
149
0.0
149
0.0
 93
        0
 94
      127
282
     0
 72
     1
 77
     1
171
     1
175
     1
179
     1
273
     0
  0
XRECORD
  5
247
102
{ACAD_REACTORS
330
246
102
}
330
246
100
AcDbXrecord
280
     1
102
RTVSPropertyOp0
 70
     1
102
RTVSPropertyOp1
 70
     1
102
RTVSPropertyOp2
 70
     1
102
RTVSPropertyOp3
 70
     1
102
RTVSPropertyOp4
 70
     1
102
RTVSPropertyOp5
 70
     1
102
RTVSPropertyOp6
 70
     1
102
RTVSPropertyOp7
 70
     1
102
RTVSPropertyOp8
 70
     1
102
RTVSPropertyOp9
 70
     1
102
RTVSPropertyOp10
 70
     1
102
RTVSPropertyOp11
 70
     1
102
RTVSPropertyOp12
 70
     1
102
RTVSPropertyOp13
 70
     1
102
RTVSPropertyOp14
 70
     1
102
RTVSPropertyOp15
 70
     1
102
RTVSPropertyOp16
 70
     1
102
RTVSPropertyOp17
 70
     1
102
RTVSPropertyOp18
 70
     1
102
RTVSPropertyOp19
 70
     1
102
RTVSPropertyOp20
 70
     1
102
RTVSPropertyOp21
 70
     1
102
RTVSPropertyOp22
 70
     1
102
RTVSPropertyOp23
 70
     1
102
RTVSPropertyOp24
 70
     1
102
RTVSPropertyOp25
 70
     1
102
RTVSPropertyOp26
 70
     1
102
RTVSPropertyOp27
 70
     1
102
RTVSPropertyOp28
 70
     1
102
RTVSPropertyOp29
 70
     1
102
RTVSPropertyOp30
 70
     1
102
RTVSPropertyOp31
 70
     1
102
RTVSPropertyOp32
 70
     1
  0
XRECORD
  5
24B
102
{ACAD_REACTORS
330
24A
102
}
330
24A
100
AcDbXrecord
280
     1
102
RTVSPropertyOp0
 70
     1
102
RTVSPropertyOp1
 70
     1
102
RTVSPropertyOp2
 70
     1
102
RTVSPropertyOp3
 70
     1
102
RTVSPropertyOp4
 70
     1
102
RTVSPropertyOp5
 70
     1
102
RTVSPropertyOp6
 70
     1
102
RTVSPropertyOp7
 70
     1
102
RTVSPropertyOp8
 70
     1
102
RTVSPropertyOp9
 70
     1
102
RTVSPropertyOp10
 70
     1
102
RTVSPropertyOp11
 70
     1
102
RTVSPropertyOp12
 70
     1
102
RTVSPropertyOp13
 70
     1
102
RTVSPropertyOp14
 70
     1
102
RTVSPropertyOp15
 70
     1
102
RTVSPropertyOp16
 70
     1
102
RTVSPropertyOp17
 70
     1
102
RTVSPropertyOp18
 70
     1
102
RTVSPropertyOp19
 70
     1
102
RTVSPropertyOp20
 70
     1
102
RTVSPropertyOp21
 70
     1
102
RTVSPropertyOp22
 70
     1
102
RTVSPropertyOp23
 70
     1
102
RTVSPropertyOp24
 70
     1
102
RTVSPropertyOp25
 70
     1
102
RTVSPropertyOp26
 70
     1
102
RTVSPropertyOp27
 70
     1
102
RTVSPropertyOp28
 70
     1
102
RTVSPropertyOp29
 70
     1
102
RTVSPropertyOp30
 70
     1
102
RTVSPropertyOp31
 70
     1
102
RTVSPropertyOp32
 70
     1
  0
XRECORD
  5
249
102
{ACAD_REACTORS
330
248
102
}
330
248
100
AcDbXrecord
280
     1
102
RTVSPropertyOp0
 70
     1
102
RTVSPropertyOp1
 70
     1
102
RTVSPropertyOp2
 70
     1
102
RTVSPropertyOp3
 70
     1
102
RTVSPropertyOp4
 70
     1
102
RTVSPropertyOp5
 70
     1
102
RTVSPropertyOp6
 70
     1
102
RTVSPropertyOp7
 70
     1
102
RTVSPropertyOp8
 70
     1
102
RTVSPropertyOp9
 70
     1
102
RTVSPropertyOp10
 70
     1
102
RTVSPropertyOp11
 70
     1
102
RTVSPropertyOp12
 70
     1
102
RTVSPropertyOp13
 70
     1
102
RTVSPropertyOp14
 70
     1
102
RTVSPropertyOp15
 70
     1
102
RTVSPropertyOp16
 70
     1
102
RTVSPropertyOp17
 70
     1
102
RTVSPropertyOp18
 70
     1
102
RTVSPropertyOp19
 70
     1
102
RTVSPropertyOp20
 70
     1
102
RTVSPropertyOp21
 70
     1
102
RTVSPropertyOp22
 70
     1
102
RTVSPropertyOp23
 70
     1
102
RTVSPropertyOp24
 70
     1
102
RTVSPropertyOp25
 70
     1
102
RTVSPropertyOp26
 70
     1
102
RTVSPropertyOp27
 70
     1
102
RTVSPropertyOp28
 70
     1
102
RTVSPropertyOp29
 70
     1
102
RTVSPropertyOp30
 70
     1
102
RTVSPropertyOp31
 70
     1
102
RTVSPropertyOp32
 70
     1
  0
XRECORD
  5
24D
102
{ACAD_REACTORS
330
24C
102
}
330
24C
100
AcDbXrecord
280
     1
102
RTVSPropertyOp0
 70
     1
102
RTVSPropertyOp1
 70
     1
102
RTVSPropertyOp2
 70
     1
102
RTVSPropertyOp3
 70
     1
102
RTVSPropertyOp4
 70
     1
102
RTVSPropertyOp5
 70
     1
102
RTVSPropertyOp6
 70
     1
102
RTVSPropertyOp7
 70
     1
102
RTVSPropertyOp8
 70
     1
102
RTVSPropertyOp9
 70
     1
102
RTVSPropertyOp10
 70
     1
102
RTVSPropertyOp11
 70
     1
102
RTVSPropertyOp12
 70
     1
102
RTVSPropertyOp13
 70
     1
102
RTVSPropertyOp14
 70
     1
102
RTVSPropertyOp15
 70
     1
102
RTVSPropertyOp16
 70
     1
102
RTVSPropertyOp17
 70
     1
102
RTVSPropertyOp18
 70
     1
102
RTVSPropertyOp19
 70
     1
102
RTVSPropertyOp20
 70
     1
102
RTVSPropertyOp21
 70
     1
102
RTVSPropertyOp22
 70
     1
102
RTVSPropertyOp23
 70
     1
102
RTVSPropertyOp24
 70
     1
102
RTVSPropertyOp25
 70
     1
102
RTVSPropertyOp26
 70
     1
102
RTVSPropertyOp27
 70
     1
102
RTVSPropertyOp28
 70
     1
102
RTVSPropertyOp29
 70
     1
102
RTVSPropertyOp30
 70
     1
102
RTVSPropertyOp31
 70
     1
102
RTVSPropertyOp32
 70
     1
  0
XRECORD
  5
255
102
{ACAD_REACTORS
330
254
102
}
330
254
100
AcDbXrecord
280
     1
102
RTVSPropertyOp0
 70
     1
102
RTVSPropertyOp1
 70
     1
102
RTVSPropertyOp2
 70
     1
102
RTVSPropertyOp3
 70
     1
102
RTVSPropertyOp4
 70
     1
102
RTVSPropertyOp5
 70
     1
102
RTVSPropertyOp6
 70
     1
102
RTVSPropertyOp7
 70
     1
102
RTVSPropertyOp8
 70
     1
102
RTVSPropertyOp9
 70
     1
102
RTVSPropertyOp10
 70
     1
102
RTVSPropertyOp11
 70
     1
102
RTVSPropertyOp12
 70
     1
102
RTVSPropertyOp13
 70
     1
102
RTVSPropertyOp14
 70
     1
102
RTVSPropertyOp15
 70
     1
102
RTVSPropertyOp16
 70
     1
102
RTVSPropertyOp17
 70
     1
102
RTVSPropertyOp18
 70
     1
102
RTVSPropertyOp19
 70
     1
102
RTVSPropertyOp20
 70
     1
102
RTVSPropertyOp21
 70
     1
102
RTVSPropertyOp22
 70
     1
102
RTVSPropertyOp23
 70
     1
102
RTVSPropertyOp24
 70
     1
102
RTVSPropertyOp25
 70
     1
102
RTVSPropertyOp26
 70
     1
102
RTVSPropertyOp27
 70
     1
102
RTVSPropertyOp28
 70
     1
102
RTVSPropertyOp29
 70
     1
102
RTVSPropertyOp30
 70
     1
102
RTVSPropertyOp31
 70
     1
102
RTVSPropertyOp32
 70
     1
  0
XRECORD
  5
25D
102
{ACAD_REACTORS
330
25C
102
}
330
25C
100
AcDbXrecord
280
     1
102
RTVSPropertyOp0
 70
     1
102
RTVSPropertyOp1
 70
     1
102
RTVSPropertyOp2
 70
     1
102
RTVSPropertyOp3
 70
     1
102
RTVSPropertyOp4
 70
     1
102
RTVSPropertyOp5
 70
     1
102
RTVSPropertyOp6
 70
     1
102
RTVSPropertyOp7
 70
     1
102
RTVSPropertyOp8
 70
     1
102
RTVSPropertyOp9
 70
     1
102
RTVSPropertyOp10
 70
     1
102
RTVSPropertyOp11
 70
     1
102
RTVSPropertyOp12
 70
     1
102
RTVSPropertyOp13
 70
     1
102
RTVSPropertyOp14
 70
     1
102
RTVSPropertyOp15
 70
     1
102
RTVSPropertyOp16
 70
     1
102
RTVSPropertyOp17
 70
     1
102
RTVSPropertyOp18
 70
     1
102
RTVSPropertyOp19
 70
     1
102
RTVSPropertyOp20
 70
     1
102
RTVSPropertyOp21
 70
     1
102
RTVSPropertyOp22
 70
     1
102
RTVSPropertyOp23
 70
     1
102
RTVSPropertyOp24
 70
     1
102
RTVSPropertyOp25
 70
     1
102
RTVSPropertyOp26
 70
     1
102
RTVSPropertyOp27
 70
     1
102
RTVSPropertyOp28
 70
     1
102
RTVSPropertyOp29
 70
     1
102
RTVSPropertyOp30
 70
     1
102
RTVSPropertyOp31
 70
     1
102
RTVSPropertyOp32
 70
     1
  0
XRECORD
  5
251
102
{ACAD_REACTORS
330
250
102
}
330
250
100
AcDbXrecord
280
     1
102
RTVSPropertyOp0
 70
     1
102
RTVSPropertyOp1
 70
     1
102
RTVSPropertyOp2
 70
     1
102
RTVSPropertyOp3
 70
     1
102
RTVSPropertyOp4
 70
     1
102
RTVSPropertyOp5
 70
     1
102
RTVSPropertyOp6
 70
     1
102
RTVSPropertyOp7
 70
     1
102
RTVSPropertyOp8
 70
     1
102
RTVSPropertyOp9
 70
     1
102
RTVSPropertyOp10
 70
     1
102
RTVSPropertyOp11
 70
     1
102
RTVSPropertyOp12
 70
     1
102
RTVSPropertyOp13
 70
     1
102
RTVSPropertyOp14
 70
     1
102
RTVSPropertyOp15
 70
     1
102
RTVSPropertyOp16
 70
     1
102
RTVSPropertyOp17
 70
     1
102
RTVSPropertyOp18
 70
     1
102
RTVSPropertyOp19
 70
     1
102
RTVSPropertyOp20
 70
     1
102
RTVSPropertyOp21
 70
     1
102
RTVSPropertyOp22
 70
     1
102
RTVSPropertyOp23
 70
     1
102
RTVSPropertyOp24
 70
     1
102
RTVSPropertyOp25
 70
     1
102
RTVSPropertyOp26
 70
     1
102
RTVSPropertyOp27
 70
     1
102
RTVSPropertyOp28
 70
     1
102
RTVSPropertyOp29
 70
     1
102
RTVSPropertyOp30
 70
     1
102
RTVSPropertyOp31
 70
     1
102
RTVSPropertyOp32
 70
     1
  0
XRECORD
  5
253
102
{ACAD_REACTORS
330
252
102
}
330
252
100
AcDbXrecord
280
     1
102
RTVSPropertyOp0
 70
     1
102
RTVSPropertyOp1
 70
     1
102
RTVSPropertyOp2
 70
     1
102
RTVSPropertyOp3
 70
     1
102
RTVSPropertyOp4
 70
     1
102
RTVSPropertyOp5
 70
     1
102
RTVSPropertyOp6
 70
     1
102
RTVSPropertyOp7
 70
     1
102
RTVSPropertyOp8
 70
     1
102
RTVSPropertyOp9
 70
     1
102
RTVSPropertyOp10
 70
     1
102
RTVSPropertyOp11
 70
     1
102
RTVSPropertyOp12
 70
     1
102
RTVSPropertyOp13
 70
     1
102
RTVSPropertyOp14
 70
     1
102
RTVSPropertyOp15
 70
     1
102
RTVSPropertyOp16
 70
     1
102
RTVSPropertyOp17
 70
     1
102
RTVSPropertyOp18
 70
     1
102
RTVSPropertyOp19
 70
     1
102
RTVSPropertyOp20
 70
     1
102
RTVSPropertyOp21
 70
     1
102
RTVSPropertyOp22
 70
     1
102
RTVSPropertyOp23
 70
     1
102
RTVSPropertyOp24
 70
     1
102
RTVSPropertyOp25
 70
     1
102
RTVSPropertyOp26
 70
     1
102
RTVSPropertyOp27
 70
     1
102
RTVSPropertyOp28
 70
     1
102
RTVSPropertyOp29
 70
     1
102
RTVSPropertyOp30
 70
     1
102
RTVSPropertyOp31
 70
     1
102
RTVSPropertyOp32
 70
     1
  0
XRECORD
  5
25B
102
{ACAD_REACTORS
330
25A
102
}
330
25A
100
AcDbXrecord
280
     1
102
RTVSPropertyOp0
 70
     1
102
RTVSPropertyOp1
 70
     1
102
RTVSPropertyOp2
 70
     1
102
RTVSPropertyOp3
 70
     1
102
RTVSPropertyOp4
 70
     1
102
RTVSPropertyOp5
 70
     1
102
RTVSPropertyOp6
 70
     1
102
RTVSPropertyOp7
 70
     1
102
RTVSPropertyOp8
 70
     1
102
RTVSPropertyOp9
 70
     1
102
RTVSPropertyOp10
 70
     1
102
RTVSPropertyOp11
 70
     1
102
RTVSPropertyOp12
 70
     1
102
RTVSPropertyOp13
 70
     1
102
RTVSPropertyOp14
 70
     1
102
RTVSPropertyOp15
 70
     1
102
RTVSPropertyOp16
 70
     1
102
RTVSPropertyOp17
 70
     1
102
RTVSPropertyOp18
 70
     1
102
RTVSPropertyOp19
 70
     1
102
RTVSPropertyOp20
 70
     1
102
RTVSPropertyOp21
 70
     1
102
RTVSPropertyOp22
 70
     1
102
RTVSPropertyOp23
 70
     1
102
RTVSPropertyOp24
 70
     1
102
RTVSPropertyOp25
 70
     1
102
RTVSPropertyOp26
 70
     1
102
RTVSPropertyOp27
 70
     1
102
RTVSPropertyOp28
 70
     1
102
RTVSPropertyOp29
 70
     1
102
RTVSPropertyOp30
 70
     1
102
RTVSPropertyOp31
 70
     1
102
RTVSPropertyOp32
 70
     1
  0
XRECORD
  5
23F
102
{ACAD_REACTORS
330
23E
102
}
330
23E
100
AcDbXrecord
280
     1
102
RTVSPropertyOp0
 70
     1
102
RTVSPropertyOp1
 70
     1
102
RTVSPropertyOp2
 70
     1
102
RTVSPropertyOp3
 70
     1
102
RTVSPropertyOp4
 70
     1
102
RTVSPropertyOp5
 70
     1
102
RTVSPropertyOp6
 70
     1
102
RTVSPropertyOp7
 70
     1
102
RTVSPropertyOp8
 70
     1
102
RTVSPropertyOp9
 70
     1
102
RTVSPropertyOp10
 70
     1
102
RTVSPropertyOp11
 70
     1
102
RTVSPropertyOp12
 70
     1
102
RTVSPropertyOp13
 70
     1
102
RTVSPropertyOp14
 70
     1
102
RTVSPropertyOp15
 70
     1
102
RTVSPropertyOp16
 70
     1
102
RTVSPropertyOp17
 70
     1
102
RTVSPropertyOp18
 70
     1
102
RTVSPropertyOp19
 70
     1
102
RTVSPropertyOp20
 70
     1
102
RTVSPropertyOp21
 70
     1
102
RTVSPropertyOp22
 70
     1
102
RTVSPropertyOp23
 70
     1
102
RTVSPropertyOp24
 70
     1
102
RTVSPropertyOp25
 70
     1
102
RTVSPropertyOp26
 70
     1
102
RTVSPropertyOp27
 70
     1
102
RTVSPropertyOp28
 70
     1
102
RTVSPropertyOp29
 70
     1
102
RTVSPropertyOp30
 70
     1
102
RTVSPropertyOp31
 70
     1
102
RTVSPropertyOp32
 70
     1
  0
XRECORD
  5
241
102
{ACAD_REACTORS
330
240
102
}
330
240
100
AcDbXrecord
280
     1
102
RTVSPropertyOp0
 70
     1
102
RTVSPropertyOp1
 70
     1
102
RTVSPropertyOp2
 70
     1
102
RTVSPropertyOp3
 70
     1
102
RTVSPropertyOp4
 70
     1
102
RTVSPropertyOp5
 70
     1
102
RTVSPropertyOp6
 70
     1
102
RTVSPropertyOp7
 70
     1
102
RTVSPropertyOp8
 70
     1
102
RTVSPropertyOp9
 70
     1
102
RTVSPropertyOp10
 70
     1
102
RTVSPropertyOp11
 70
     1
102
RTVSPropertyOp12
 70
     1
102
RTVSPropertyOp13
 70
     1
102
RTVSPropertyOp14
 70
     1
102
RTVSPropertyOp15
 70
     1
102
RTVSPropertyOp16
 70
     1
102
RTVSPropertyOp17
 70
     1
102
RTVSPropertyOp18
 70
     1
102
RTVSPropertyOp19
 70
     1
102
RTVSPropertyOp20
 70
     1
102
RTVSPropertyOp21
 70
     1
102
RTVSPropertyOp22
 70
     1
102
RTVSPropertyOp23
 70
     1
102
RTVSPropertyOp24
 70
     1
102
RTVSPropertyOp25
 70
     1
102
RTVSPropertyOp26
 70
     1
102
RTVSPropertyOp27
 70
     1
102
RTVSPropertyOp28
 70
     1
102
RTVSPropertyOp29
 70
     1
102
RTVSPropertyOp30
 70
     1
102
RTVSPropertyOp31
 70
     1
102
RTVSPropertyOp32
 70
     1
  0
XRECORD
  5
243
102
{ACAD_REACTORS
330
242
102
}
330
242
100
AcDbXrecord
280
     1
102
RTVSPropertyOp0
 70
     1
102
RTVSPropertyOp1
 70
     1
102
RTVSPropertyOp2
 70
     1
102
RTVSPropertyOp3
 70
     1
102
RTVSPropertyOp4
 70
     1
102
RTVSPropertyOp5
 70
     1
102
RTVSPropertyOp6
 70
     1
102
RTVSPropertyOp7
 70
     1
102
RTVSPropertyOp8
 70
     1
102
RTVSPropertyOp9
 70
     1
102
RTVSPropertyOp10
 70
     1
102
RTVSPropertyOp11
 70
     1
102
RTVSPropertyOp12
 70
     1
102
RTVSPropertyOp13
 70
     1
102
RTVSPropertyOp14
 70
     1
102
RTVSPropertyOp15
 70
     1
102
RTVSPropertyOp16
 70
     1
102
RTVSPropertyOp17
 70
     1
102
RTVSPropertyOp18
 70
     1
102
RTVSPropertyOp19
 70
     1
102
RTVSPropertyOp20
 70
     1
102
RTVSPropertyOp21
 70
     1
102
RTVSPropertyOp22
 70
     1
102
RTVSPropertyOp23
 70
     1
102
RTVSPropertyOp24
 70
     1
102
RTVSPropertyOp25
 70
     1
102
RTVSPropertyOp26
 70
     1
102
RTVSPropertyOp27
 70
     1
102
RTVSPropertyOp28
 70
     1
102
RTVSPropertyOp29
 70
     1
102
RTVSPropertyOp30
 70
     1
102
RTVSPropertyOp31
 70
     1
102
RTVSPropertyOp32
 70
     1
  0
XRECORD
  5
245
102
{ACAD_REACTORS
330
244
102
}
330
244
100
AcDbXrecord
280
     1
102
RTVSPropertyOp0
 70
     1
102
RTVSPropertyOp1
 70
     1
102
RTVSPropertyOp2
 70
     1
102
RTVSPropertyOp3
 70
     1
102
RTVSPropertyOp4
 70
     1
102
RTVSPropertyOp5
 70
     1
102
RTVSPropertyOp6
 70
     1
102
RTVSPropertyOp7
 70
     1
102
RTVSPropertyOp8
 70
     1
102
RTVSPropertyOp9
 70
     1
102
RTVSPropertyOp10
 70
     1
102
RTVSPropertyOp11
 70
     1
102
RTVSPropertyOp12
 70
     1
102
RTVSPropertyOp13
 70
     1
102
RTVSPropertyOp14
 70
     1
102
RTVSPropertyOp15
 70
     1
102
RTVSPropertyOp16
 70
     1
102
RTVSPropertyOp17
 70
     1
102
RTVSPropertyOp18
 70
     1
102
RTVSPropertyOp19
 70
     1
102
RTVSPropertyOp20
 70
     1
102
RTVSPropertyOp21
 70
     1
102
RTVSPropertyOp22
 70
     1
102
RTVSPropertyOp23
 70
     1
102
RTVSPropertyOp24
 70
     1
102
RTVSPropertyOp25
 70
     1
102
RTVSPropertyOp26
 70
     1
102
RTVSPropertyOp27
 70
     1
102
RTVSPropertyOp28
 70
     1
102
RTVSPropertyOp29
 70
     1
102
RTVSPropertyOp30
 70
     1
102
RTVSPropertyOp31
 70
     1
102
RTVSPropertyOp32
 70
     1
  0
XRECORD
  5
259
102
{ACAD_REACTORS
330
258
102
}
330
258
100
AcDbXrecord
280
     1
102
RTVSPropertyOp0
 70
     1
102
RTVSPropertyOp1
 70
     1
102
RTVSPropertyOp2
 70
     1
102
RTVSPropertyOp3
 70
     1
102
RTVSPropertyOp4
 70
     1
102
RTVSPropertyOp5
 70
     1
102
RTVSPropertyOp6
 70
     1
102
RTVSPropertyOp7
 70
     1
102
RTVSPropertyOp8
 70
     1
102
RTVSPropertyOp9
 70
     1
102
RTVSPropertyOp10
 70
     1
102
RTVSPropertyOp11
 70
     1
102
RTVSPropertyOp12
 70
     1
102
RTVSPropertyOp13
 70
     1
102
RTVSPropertyOp14
 70
     1
102
RTVSPropertyOp15
 70
     1
102
RTVSPropertyOp16
 70
     1
102
RTVSPropertyOp17
 70
     1
102
RTVSPropertyOp18
 70
     1
102
RTVSPropertyOp19
 70
     1
102
RTVSPropertyOp20
 70
     1
102
RTVSPropertyOp21
 70
     1
102
RTVSPropertyOp22
 70
     1
102
RTVSPropertyOp23
 70
     1
102
RTVSPropertyOp24
 70
     1
102
RTVSPropertyOp25
 70
     1
102
RTVSPropertyOp26
 70
     1
102
RTVSPropertyOp27
 70
     1
102
RTVSPropertyOp28
 70
     1
102
RTVSPropertyOp29
 70
     1
102
RTVSPropertyOp30
 70
     1
102
RTVSPropertyOp31
 70
     1
102
RTVSPropertyOp32
 70
     1
  0
XRECORD
  5
24F
102
{ACAD_REACTORS
330
24E
102
}
330
24E
100
AcDbXrecord
280
     1
102
RTVSPropertyOp0
 70
     1
102
RTVSPropertyOp1
 70
     1
102
RTVSPropertyOp2
 70
     1
102
RTVSPropertyOp3
 70
     1
102
RTVSPropertyOp4
 70
     1
102
RTVSPropertyOp5
 70
     1
102
RTVSPropertyOp6
 70
     1
102
RTVSPropertyOp7
 70
     1
102
RTVSPropertyOp8
 70
     1
102
RTVSPropertyOp9
 70
     1
102
RTVSPropertyOp10
 70
     1
102
RTVSPropertyOp11
 70
     1
102
RTVSPropertyOp12
 70
     1
102
RTVSPropertyOp13
 70
     1
102
RTVSPropertyOp14
 70
     1
102
RTVSPropertyOp15
 70
     1
102
RTVSPropertyOp16
 70
     1
102
RTVSPropertyOp17
 70
     1
102
RTVSPropertyOp18
 70
     1
102
RTVSPropertyOp19
 70
     1
102
RTVSPropertyOp20
 70
     1
102
RTVSPropertyOp21
 70
     1
102
RTVSPropertyOp22
 70
     1
102
RTVSPropertyOp23
 70
     1
102
RTVSPropertyOp24
 70
     1
102
RTVSPropertyOp25
 70
     1
102
RTVSPropertyOp26
 70
     1
102
RTVSPropertyOp27
 70
     1
102
RTVSPropertyOp28
 70
     1
102
RTVSPropertyOp29
 70
     1
102
RTVSPropertyOp30
 70
     1
102
RTVSPropertyOp31
 70
     1
102
RTVSPropertyOp32
 70
     1
  0
XRECORD
  5
257
102
{ACAD_REACTORS
330
256
102
}
330
256
100
AcDbXrecord
280
     1
102
RTVSPropertyOp0
 70
     1
102
RTVSPropertyOp1
 70
     1
102
RTVSPropertyOp2
 70
     1
102
RTVSPropertyOp3
 70
     1
102
RTVSPropertyOp4
 70
     1
102
RTVSPropertyOp5
 70
     1
102
RTVSPropertyOp6
 70
     1
102
RTVSPropertyOp7
 70
     1
102
RTVSPropertyOp8
 70
     1
102
RTVSPropertyOp9
 70
     1
102
RTVSPropertyOp10
 70
     1
102
RTVSPropertyOp11
 70
     1
102
RTVSPropertyOp12
 70
     1
102
RTVSPropertyOp13
 70
     1
102
RTVSPropertyOp14
 70
     1
102
RTVSPropertyOp15
 70
     1
102
RTVSPropertyOp16
 70
     1
102
RTVSPropertyOp17
 70
     1
102
RTVSPropertyOp18
 70
     1
102
RTVSPropertyOp19
 70
     1
102
RTVSPropertyOp20
 70
     1
102
RTVSPropertyOp21
 70
     1
102
RTVSPropertyOp22
 70
     1
102
RTVSPropertyOp23
 70
     1
102
RTVSPropertyOp24
 70
     1
102
RTVSPropertyOp25
 70
     1
102
RTVSPropertyOp26
 70
     1
102
RTVSPropertyOp27
 70
     1
102
RTVSPropertyOp28
 70
     1
102
RTVSPropertyOp29
 70
     1
102
RTVSPropertyOp30
 70
     1
102
RTVSPropertyOp31
 70
     1
102
RTVSPropertyOp32
 70
     1
  0
ENDSEC
  0
EOF
