  0
SECTION
  2
HEADER
  9
$ACADVER
  1
AC1015
  9
$ACADMAINTVER
 70
     6
  9
$DWGCODEPAGE
  3
ANSI_932
  9
$INSBASE
 10
0.0
 20
0.0
 30
0.0
  9
$EXTMIN
 10
-0.00000000000002
 20
0.0
 30
0.0
  9
$EXTMAX
 10
315.0
 20
445.5
 30
0.0
  9
$LIMMIN
 10
0.0
 20
0.0
  9
$LIMMAX
 10
12.0
 20
9.0
  9
$ORTHOMODE
 70
     0
  9
$REGENMODE
 70
     1
  9
$FILLMODE
 70
     1
  9
$QTEXTMODE
 70
     0
  9
$MIRRTEXT
 70
     1
  9
$LTSCALE
 40
1.0
  9
$ATTMODE
 70
     1
  9
$TEXTSIZE
 40
0.2
  9
$TRACEWID
 40
0.05
  9
$TEXTSTYLE
  7
Standard
  9
$CLAYER
  8
0
  9
$CELTYPE
  6
ByLayer
  9
$CECOLOR
 62
   256
  9
$CELTSCALE
 40
1.0
  9
$DISPSILH
 70
     0
  9
$DIMSCALE
 40
1.0
  9
$DIMASZ
 40
0.18
  9
$DIMEXO
 40
0.0625
  9
$DIMDLI
 40
0.38
  9
$DIMRND
 40
0.0
  9
$DIMDLE
 40
0.0
  9
$DIMEXE
 40
0.18
  9
$DIMTP
 40
0.0
  9
$DIMTM
 40
0.0
  9
$DIMTXT
 40
0.18
  9
$DIMCEN
 40
0.09
  9
$DIMTSZ
 40
0.0
  9
$DIMTOL
 70
     0
  9
$DIMLIM
 70
     0
  9
$DIMTIH
 70
     1
  9
$DIMTOH
 70
     1
  9
$DIMSE1
 70
     0
  9
$DIMSE2
 70
     0
  9
$DIMTAD
 70
     0
  9
$DIMZIN
 70
     0
  9
$DIMBLK
  1

  9
$DIMASO
 70
     1
  9
$DIMSHO
 70
     1
  9
$DIMPOST
  1

  9
$DIMAPOST
  1

  9
$DIMALT
 70
     0
  9
$DIMALTD
 70
     2
  9
$DIMALTF
 40
25.4
  9
$DIMLFAC
 40
1.0
  9
$DIMTOFL
 70
     0
  9
$DIMTVP
 40
0.0
  9
$DIMTIX
 70
     0
  9
$DIMSOXD
 70
     0
  9
$DIMSAH
 70
     0
  9
$DIMBLK1
  1

  9
$DIMBLK2
  1

  9
$DIMSTYLE
  2
Standard
  9
$DIMCLRD
 70
     0
  9
$DIMCLRE
 70
     0
  9
$DIMCLRT
 70
     0
  9
$DIMTFAC
 40
1.0
  9
$DIMGAP
 40
0.09
  9
$DIMJUST
 70
     0
  9
$DIMSD1
 70
     0
  9
$DIMSD2
 70
     0
  9
$DIMTOLJ
 70
     1
  9
$DIMTZIN
 70
     0
  9
$DIMALTZ
 70
     0
  9
$DIMALTTZ
 70
     0
  9
$DIMUPT
 70
     0
  9
$DIMDEC
 70
     4
  9
$DIMTDEC
 70
     4
  9
$DIMALTU
 70
     2
  9
$DIMALTTD
 70
     2
  9
$DIMTXSTY
  7
Standard
  9
$DIMAUNIT
 70
     0
  9
$DIMADEC
 70
     0
  9
$DIMALTRND
 40
0.0
  9
$DIMAZIN
 70
     0
  9
$DIMDSEP
 70
    46
  9
$DIMATFIT
 70
     3
  9
$DIMFRAC
 70
     0
  9
$DIMLDRBLK
  1

  9
$DIMLUNIT
 70
     2
  9
$DIMLWD
 70
    -2
  9
$DIMLWE
 70
    -2
  9
$DIMTMOVE
 70
     0
  9
$LUNITS
 70
     2
  9
$LUPREC
 70
     4
  9
$SKETCHINC
 40
0.1
  9
$FILLETRAD
 40
0.5
  9
$AUNITS
 70
     0
  9
$AUPREC
 70
     0
  9
$MENU
  1
.
  9
$ELEVATION
 40
0.0
  9
$PELEVATION
 40
0.0
  9
$THICKNESS
 40
0.0
  9
$LIMCHECK
 70
     0
  9
$CHAMFERA
 40
0.5
  9
$CHAMFERB
 40
0.5
  9
$CHAMFERC
 40
1.0
  9
$CHAMFERD
 40
0.0
  9
$SKPOLY
 70
     0
  9
$TDCREATE
 40
2459639.550709688
  9
$TDUCREATE
 40
2459639.175709688
  9
$TDUPDATE
 40
2459639.550711678
  9
$TDUUPDATE
 40
2459639.175711678
  9
$TDINDWG
 40
0.0000000116
  9
$TDUSRTIMER
 40
0.0000000116
  9
$USRTIMER
 70
     1
  9
$ANGBASE
 50
0.0
  9
$ANGDIR
 70
     0
  9
$PDMODE
 70
     0
  9
$PDSIZE
 40
0.0
  9
$PLINEWID
 40
0.0
  9
$SPLFRAME
 70
     0
  9
$SPLINETYPE
 70
     6
  9
$SPLINESEGS
 70
     8
  9
$HANDSEED
  5
1BA
  9
$SURFTAB1
 70
     6
  9
$SURFTAB2
 70
     6
  9
$SURFTYPE
 70
     6
  9
$SURFU
 70
     6
  9
$SURFV
 70
     6
  9
$UCSBASE
  2

  9
$UCSNAME
  2

  9
$UCSORG
 10
0.0
 20
0.0
 30
0.0
  9
$UCSXDIR
 10
1.0
 20
0.0
 30
0.0
  9
$UCSYDIR
 10
0.0
 20
1.0
 30
0.0
  9
$UCSORTHOREF
  2

  9
$UCSORTHOVIEW
 70
     0
  9
$UCSORGTOP
 10
0.0
 20
0.0
 30
0.0
  9
$UCSORGBOTTOM
 10
0.0
 20
0.0
 30
0.0
  9
$UCSORGLEFT
 10
0.0
 20
0.0
 30
0.0
  9
$UCSORGRIGHT
 10
0.0
 20
0.0
 30
0.0
  9
$UCSORGFRONT
 10
0.0
 20
0.0
 30
0.0
  9
$UCSORGBACK
 10
0.0
 20
0.0
 30
0.0
  9
$PUCSBASE
  2

  9
$PUCSNAME
  2

  9
$PUCSORG
 10
0.0
 20
0.0
 30
0.0
  9
$PUCSXDIR
 10
1.0
 20
0.0
 30
0.0
  9
$PUCSYDIR
 10
0.0
 20
1.0
 30
0.0
  9
$PUCSORTHOREF
  2

  9
$PUCSORTHOVIEW
 70
     0
  9
$PUCSORGTOP
 10
0.0
 20
0.0
 30
0.0
  9
$PUCSORGBOTTOM
 10
0.0
 20
0.0
 30
0.0
  9
$PUCSORGLEFT
 10
0.0
 20
0.0
 30
0.0
  9
$PUCSORGRIGHT
 10
0.0
 20
0.0
 30
0.0
  9
$PUCSORGFRONT
 10
0.0
 20
0.0
 30
0.0
  9
$PUCSORGBACK
 10
0.0
 20
0.0
 30
0.0
  9
$USERI1
 70
     0
  9
$USERI2
 70
     0
  9
$USERI3
 70
     0
  9
$USERI4
 70
     0
  9
$USERI5
 70
     0
  9
$USERR1
 40
18.1
  9
$USERR2
 40
0.0
  9
$USERR3
 40
0.0
  9
$USERR4
 40
0.0
  9
$USERR5
 40
0.0
  9
$WORLDVIEW
 70
     1
  9
$SHADEDGE
 70
     3
  9
$SHADEDIF
 70
    70
  9
$TILEMODE
 70
     1
  9
$MAXACTVP
 70
    64
  9
$PINSBASE
 10
0.0
 20
0.0
 30
0.0
  9
$PLIMCHECK
 70
     0
  9
$PEXTMIN
 10
1.00000000000000E+20
 20
1.00000000000000E+20
 30
1.00000000000000E+20
  9
$PEXTMAX
 10
-1.00000000000000E+20
 20
-1.00000000000000E+20
 30
-1.00000000000000E+20
  9
$PLIMMIN
 10
0.0
 20
0.0
  9
$PLIMMAX
 10
12.0
 20
9.0
  9
$UNITMODE
 70
     0
  9
$VISRETAIN
 70
     1
  9
$PLINEGEN
 70
     0
  9
$PSLTSCALE
 70
     1
  9
$TREEDEPTH
 70
  3020
  9
$CMLSTYLE
  2
Standard
  9
$CMLJUST
 70
     0
  9
$CMLSCALE
 40
1.0
  9
$PROXYGRAPHICS
 70
     1
  9
$MEASUREMENT
 70
     1
  9
$CELWEIGHT
370
    -1
  9
$ENDCAPS
280
     0
  9
$JOINSTYLE
280
     0
  9
$LWDISPLAY
290
     0
  9
$INSUNITS
 70
     4
  9
$HYPERLINKBASE
  1

  9
$STYLESHEET
  1

  9
$XEDIT
290
     1
  9
$CEPSNTYPE
380
     0
  9
$PSTYLEMODE
290
     1
  9
$FINGERPRINTGUID
  2
{0F6EFC67-D27C-402B-A26A-65C5556EC6DD}
  9
$VERSIONGUID
  2
{FAEB1C32-E019-11D5-929B-00C0DF256EC4}
  9
$EXTNAMES
290
     1
  9
$PSVPSCALE
 40
0.0
  9
$OLESTARTUP
290
     0
  0
ENDSEC
  0
SECTION
  2
CLASSES
  0
CLASS
  1
ACDBDICTIONARYWDFLT
  2
AcDbDictionaryWithDefault
  3
ObjectDBX Classes
 90
        0
280
     0
281
     0
  0
CLASS
  1
VISUALSTYLE
  2
AcDbVisualStyle
  3
ObjectDBX Classes
 90
     4095
280
     0
281
     0
  0
CLASS
  1
MATERIAL
  2
AcDbMaterial
  3
ObjectDBX Classes
 90
     1153
280
     0
281
     0
  0
CLASS
  1
DICTIONARYVAR
  2
AcDbDictionaryVar
  3
ObjectDBX Classes
 90
        0
280
     0
281
     0
  0
CLASS
  1
ACDBPLACEHOLDER
  2
AcDbPlaceHolder
  3
ObjectDBX Classes
 90
        0
280
     0
281
     0
  0
CLASS
  1
LAYOUT
  2
AcDbLayout
  3
ObjectDBX Classes
 90
        0
280
     0
281
     0
  0
ENDSEC
  0
SECTION
  2
TABLES
  0
TABLE
  2
VPORT
  5
8
330
0
100
AcDbSymbolTable
 70
     1
  0
VPORT
  5
29
330
8
100
AcDbSymbolTableRecord
100
AcDbViewportTableRecord
  2
*Active
 70
     0
 10
0.0
 20
0.0
 11
1.0
 21
1.0
 12
157.5
 22
222.75
 13
0.0
 23
0.0
 14
0.5
 24
0.5
 15
0.5
 25
0.5
 16
0.0
 26
0.0
 36
1.0
 17
0.0
 27
0.0
 37
0.0
 40
490.05
 41
1.60267857142857
 42
50.0
 43
0.0
 44
0.0
 50
0.0
 51
0.0
 71
     0
 72
   100
 73
     1
 74
     3
 75
     0
 76
     0
 77
     0
 78
     0
281
     0
 65
     1
110
0.0
120
0.0
130
0.0
111
1.0
121
0.0
131
0.0
112
0.0
122
1.0
132
0.0
 79
     0
146
0.0
  0
ENDTAB
  0
TABLE
  2
LTYPE
  5
5
330
0
100
AcDbSymbolTable
 70
     8
  0
LTYPE
  5
14
330
5
100
AcDbSymbolTableRecord
100
AcDbLinetypeTableRecord
  2
ByBlock
 70
     0
  3

 72
    65
 73
     0
 40
0.0
  0
LTYPE
  5
15
330
5
100
AcDbSymbolTableRecord
100
AcDbLinetypeTableRecord
  2
ByLayer
 70
     0
  3

 72
    65
 73
     0
 40
0.0
  0
LTYPE
  5
16
330
5
100
AcDbSymbolTableRecord
100
AcDbLinetypeTableRecord
  2
Continuous
 70
     0
  3
Solid line
 72
    65
 73
     0
 40
0.0
  0
LTYPE
  5
3F
330
5
100
AcDbSymbolTableRecord
100
AcDbLinetypeTableRecord
  2
DASHED
 70
     0
  3
Dashed
 72
    65
 73
     2
 40
15.0
 49
7.0
 74
     0
 49
-8.0
 74
     0
  0
LTYPE
  5
40
330
5
100
AcDbSymbolTableRecord
100
AcDbLinetypeTableRecord
  2
DOTTED
 70
     0
  3
Dotted
 72
    65
 73
     2
 40
1.0
 49
0.0
 74
     0
 49
-1.0
 74
     0
  0
LTYPE
  5
41
330
5
100
AcDbSymbolTableRecord
100
AcDbLinetypeTableRecord
  2
DOT_CENTER
 70
     0
  3
Dot_Center
 72
    65
 73
     4
 40
14.0
 49
12.0
 74
     0
 49
-1.0
 74
     0
 49
0.0
 74
     0
 49
-1.0
 74
     0
  0
LTYPE
  5
42
330
5
100
AcDbSymbolTableRecord
100
AcDbLinetypeTableRecord
  2
LONG_DASHED
 70
     0
  3
Long_Dashed
 72
    65
 73
     2
 40
15.0
 49
10.0
 74
     0
 49
-5.0
 74
     0
  0
LTYPE
  5
43
330
5
100
AcDbSymbolTableRecord
100
AcDbLinetypeTableRecord
  2
DASH_CENTER
 70
     0
  3
Dash_Center
 72
    65
 73
     4
 40
14.0
 49
11.0
 74
     0
 49
-1.0
 74
     0
 49
1.0
 74
     0
 49
-1.0
 74
     0
  0
LTYPE
  5
44
330
5
100
AcDbSymbolTableRecord
100
AcDbLinetypeTableRecord
  2
PHANTOM
 70
     0
  3
Phantom
 72
    65
 73
     6
 40
13.0
 49
10.0
 74
     0
 49
-1.0
 74
     0
 49
0.0
 74
     0
 49
-1.0
 74
     0
 49
0.0
 74
     0
 49
-1.0
 74
     0
  0
LTYPE
  5
45
330
5
100
AcDbSymbolTableRecord
100
AcDbLinetypeTableRecord
  2
CENTER_DASH_DASH
 70
     0
  3
Center_Dash_Dash
 72
    65
 73
     6
 40
14.0
 49
9.0
 74
     0
 49
-1.0
 74
     0
 49
1.0
 74
     0
 49
-1.0
 74
     0
 49
1.0
 74
     0
 49
-1.0
 74
     0
  0
ENDTAB
  0
TABLE
  2
LAYER
  5
2
330
0
100
AcDbSymbolTable
 70
     3
  0
LAYER
  5
10
330
2
100
AcDbSymbolTableRecord
100
AcDbLayerTableRecord
  2
0
 70
     0
 62
     7
  6
Continuous
370
    -3
390
F
  0
LAYER
  5
46
330
2
100
AcDbSymbolTableRecord
100
AcDbLayerTableRecord
  2
1
 70
     0
 62
     7
  6
Continuous
370
    -3
390
F
  0
LAYER
  5
47
330
2
100
AcDbSymbolTableRecord
100
AcDbLayerTableRecord
  2
_U_30EC_U_30A4_U_30E4_U_30FC_1
 70
     0
 62
     7
  6
Continuous
370
    -3
390
F
  0
ENDTAB
  0
TABLE
  2
STYLE
  5
3
330
0
100
AcDbSymbolTable
 70
     3
  0
STYLE
  5
11
330
3
100
AcDbSymbolTableRecord
100
AcDbTextStyleTableRecord
  2
Standard
 70
     0
 40
0.0
 41
1.0
 50
0.0
 71
     0
 42
0.2
  3
txt
  4

  0
STYLE
  5
BA
330
3
100
AcDbSymbolTableRecord
100
AcDbTextStyleTableRecord
  2
CONVERTER_11
 70
     0
 40
0.0
 41
0.89
 50
0.0
 71
     0
 42
0.2
  3
MS Mincho.ttf
  4

1001
ACAD
1000
MS Mincho
1071
    32785
  0
STYLE
  5
141
330
3
100
AcDbSymbolTableRecord
100
AcDbTextStyleTableRecord
  2
CONVERTER_12
 70
     0
 40
0.0
 41
0.9
 50
0.0
 71
     0
 42
0.2
  3
txt.shx
  4

  0
ENDTAB
  0
TABLE
  2
VIEW
  5
6
330
0
100
AcDbSymbolTable
 70
     0
  0
ENDTAB
  0
TABLE
  2
UCS
  5
7
330
0
100
AcDbSymbolTable
 70
     0
  0
ENDTAB
  0
TABLE
  2
APPID
  5
9
330
0
100
AcDbSymbolTable
 70
     1
  0
APPID
  5
12
330
9
100
AcDbSymbolTableRecord
100
AcDbRegAppTableRecord
  2
ACAD
 70
     0
  0
ENDTAB
  0
TABLE
  2
DIMSTYLE
  5
A
330
0
100
AcDbSymbolTable
 70
     7
100
AcDbDimStyleTable
  0
DIMSTYLE
105
27
330
A
100
AcDbSymbolTableRecord
100
AcDbDimStyleTableRecord
  2
Standard
 70
     0
178
     0
340
11
  0
DIMSTYLE
105
157
102
{ACAD_REACTORS
330
158
102
}
330
A
100
AcDbSymbolTableRecord
100
AcDbDimStyleTableRecord
  2
ME10_DIM_10
 70
     0
 41
5.25
 42
0.0
 44
3.0
 73
     0
 74
     0
 77
     1
 78
     8
140
4.5
147
3.0
172
     1
173
     1
174
     1
175
     1
176
     2
177
     2
271
     2
178
     7
271
     2
340
141
  0
DIMSTYLE
105
162
102
{ACAD_REACTORS
330
163
102
}
330
A
100
AcDbSymbolTableRecord
100
AcDbDimStyleTableRecord
  2
ME10_DIM_11
 70
     0
 41
4.5
 42
0.0
 44
3.0
 73
     0
 74
     0
 77
     1
 78
     8
140
4.5
147
3.0
172
     1
173
     1
174
     1
175
     1
176
     2
177
     2
271
     2
178
     7
271
     2
340
141
  0
DIMSTYLE
105
16D
102
{ACAD_REACTORS
330
16E
102
}
330
A
100
AcDbSymbolTableRecord
100
AcDbDimStyleTableRecord
  2
ME10_DIM_12
 70
     0
 41
4.5
 42
0.0
 44
3.0
 73
     0
 74
     0
 77
     1
 78
     8
140
4.5
147
3.0
172
     1
173
     1
174
     1
175
     1
176
     2
177
     2
271
     2
178
     7
271
     2
340
141
  0
DIMSTYLE
105
177
102
{ACAD_REACTORS
330
178
102
}
330
A
100
AcDbSymbolTableRecord
100
AcDbDimStyleTableRecord
  2
ME10_DIM_13
 70
     0
  3
{\Fgdt;n}<>
 41
4.5
 42
0.0
 44
3.0
 73
     0
 74
     0
 75
     1
 76
     1
 77
     1
 78
     8
140
4.5
147
3.0
172
     1
173
     1
174
     1
175
     1
176
     2
177
     2
271
     2
178
     7
271
     2
340
141
  0
DIMSTYLE
105
182
102
{ACAD_REACTORS
330
183
102
}
330
A
100
AcDbSymbolTableRecord
100
AcDbDimStyleTableRecord
  2
ME10_DIM_14
 70
     0
  3
{\Fgdt;n}<>
 41
4.5
 42
0.0
 44
3.0
 73
     0
 74
     0
 77
     1
 78
     8
140
4.5
147
3.0
172
     1
173
     1
174
     1
175
     1
176
     2
177
     2
271
     2
178
     7
271
     2
340
141
  0
DIMSTYLE
105
18D
102
{ACAD_REACTORS
330
18E
102
}
330
A
100
AcDbSymbolTableRecord
100
AcDbDimStyleTableRecord
  2
ME10_DIM_15
 70
     0
 41
5.25
 42
0.0
 44
3.0
 73
     0
 74
     0
 77
     1
 78
     8
140
4.5
147
3.0
172
     1
173
     1
174
     1
175
     1
176
     2
177
     2
271
     2
178
     7
271
     2
340
141
  0
ENDTAB
  0
TABLE
  2
BLOCK_RECORD
  5
1
330
0
100
AcDbSymbolTable
 70
    11
  0
BLOCK_RECORD
  5
1F
330
1
100
AcDbSymbolTableRecord
100
AcDbBlockTableRecord
  2
*Model_Space
340
22
  0
BLOCK_RECORD
  5
1B
330
1
100
AcDbSymbolTableRecord
100
AcDbBlockTableRecord
  2
*Paper_Space
340
1E
  0
BLOCK_RECORD
  5
23
330
1
100
AcDbSymbolTableRecord
100
AcDbBlockTableRecord
  2
*Paper_Space0
340
26
  0
BLOCK_RECORD
  5
48
330
1
100
AcDbSymbolTableRecord
100
AcDbBlockTableRecord
  2
開示A4
340
0
102
{BLKREFS
331
4C
102
}
  0
BLOCK_RECORD
  5
4B
330
1
100
AcDbSymbolTableRecord
100
AcDbBlockTableRecord
  2
開示A4枠
340
0
102
{BLKREFS
331
55
102
}
  0
BLOCK_RECORD
  5
4F
330
1
100
AcDbSymbolTableRecord
100
AcDbBlockTableRecord
  2
paipu
340
0
102
{BLKREFS
331
56
102
}
  0
BLOCK_RECORD
  5
52
330
1
100
AcDbSymbolTableRecord
100
AcDbBlockTableRecord
  2
1
340
0
102
{BLKREFS
331
57
102
}
  0
BLOCK_RECORD
  5
14E
330
1
100
AcDbSymbolTableRecord
100
AcDbBlockTableRecord
  2
*D5
340
0
  0
BLOCK_RECORD
  5
159
330
1
100
AcDbSymbolTableRecord
100
AcDbBlockTableRecord
  2
*D6
340
0
  0
BLOCK_RECORD
  5
164
330
1
100
AcDbSymbolTableRecord
100
AcDbBlockTableRecord
  2
*D7
340
0
  0
BLOCK_RECORD
  5
16F
330
1
100
AcDbSymbolTableRecord
100
AcDbBlockTableRecord
  2
*D8
340
0
  0
BLOCK_RECORD
  5
179
330
1
100
AcDbSymbolTableRecord
100
AcDbBlockTableRecord
  2
*D9
340
0
  0
BLOCK_RECORD
  5
184
330
1
100
AcDbSymbolTableRecord
100
AcDbBlockTableRecord
  2
*D10
340
0
  0
ENDTAB
  0
ENDSEC
  0
SECTION
  2
BLOCKS
  0
BLOCK
  5
20
330
1F
100
AcDbEntity
  8
0
100
AcDbBlockBegin
  2
*Model_Space
 70
     0
 10
0.0
 20
0.0
 30
0.0
  3
*Model_Space
  1

  0
ENDBLK
  5
21
330
1F
100
AcDbEntity
  8
0
100
AcDbBlockEnd
  0
BLOCK
  5
1C
330
1B
100
AcDbEntity
 67
     1
  8
0
100
AcDbBlockBegin
  2
*Paper_Space
 70
     0
 10
0.0
 20
0.0
 30
0.0
  3
*Paper_Space
  1

  0
ENDBLK
  5
1D
330
1B
100
AcDbEntity
 67
     1
  8
0
100
AcDbBlockEnd
  0
BLOCK
  5
24
330
23
100
AcDbEntity
  8
0
100
AcDbBlockBegin
  2
*Paper_Space0
 70
     0
 10
0.0
 20
0.0
 30
0.0
  3
*Paper_Space0
  1

  0
ENDBLK
  5
25
330
23
100
AcDbEntity
  8
0
100
AcDbBlockEnd
  0
BLOCK
  5
49
330
48
100
AcDbEntity
  8
0
100
AcDbBlockBegin
  2
開示A4
 70
     0
 10
-0.00000000000001
 20
0.0
 30
0.0
  3
開示A4
  1

  0
POINT
  5
58
330
48
100
AcDbEntity
  8
1
 62
     4
100
AcDbPoint
 10
183.0
 20
15.00000000000001
 30
0.0
  0
POINT
  5
59
330
48
100
AcDbEntity
  8
1
 62
     4
100
AcDbPoint
 10
93.75000000000001
 20
17.0
 30
0.0
  0
POINT
  5
5A
330
48
100
AcDbEntity
  8
1
 62
     4
100
AcDbPoint
 10
85.25000000000001
 20
17.0
 30
0.0
  0
POINT
  5
5B
330
48
100
AcDbEntity
  8
1
 62
     4
100
AcDbPoint
 10
106.5
 20
19.00000000000001
 30
0.0
  0
POINT
  5
5C
330
48
100
AcDbEntity
  8
1
 62
     4
100
AcDbPoint
 10
106.5
 20
12.5
 30
0.0
  0
POINT
  5
5D
330
48
100
AcDbEntity
  8
1
 62
     4
100
AcDbPoint
 10
112.25
 20
12.5
 30
0.0
  0
POINT
  5
5E
330
48
100
AcDbEntity
  8
1
 62
     4
100
AcDbPoint
 10
100.75
 20
12.5
 30
0.0
  0
POINT
  5
5F
330
48
100
AcDbEntity
  8
1
 62
     4
100
AcDbPoint
 10
123.5
 20
19.00000000000001
 30
0.0
  0
POINT
  5
60
330
48
100
AcDbEntity
  8
1
 62
     4
100
AcDbPoint
 10
123.5
 20
12.5
 30
0.0
  0
POINT
  5
61
330
48
100
AcDbEntity
  8
1
 62
     4
100
AcDbPoint
 10
129.25
 20
12.5
 30
0.0
  0
POINT
  5
62
330
48
100
AcDbEntity
  8
1
 62
     4
100
AcDbPoint
 10
117.75
 20
12.5
 30
0.0
  0
POINT
  5
63
330
48
100
AcDbEntity
  8
1
 62
     4
100
AcDbPoint
 10
140.5
 20
19.00000000000001
 30
0.0
  0
POINT
  5
64
330
48
100
AcDbEntity
  8
1
 62
     4
100
AcDbPoint
 10
140.5
 20
12.5
 30
0.0
  0
POINT
  5
65
330
48
100
AcDbEntity
  8
1
 62
     4
100
AcDbPoint
 10
146.25
 20
12.5
 30
0.0
  0
POINT
  5
66
330
48
100
AcDbEntity
  8
1
 62
     4
100
AcDbPoint
 10
134.75
 20
12.5
 30
0.0
  0
POINT
  5
67
330
48
100
AcDbEntity
  8
1
 62
     4
100
AcDbPoint
 10
151.75
 20
12.5
 30
0.0
  0
POINT
  5
68
330
48
100
AcDbEntity
  8
1
 62
     4
100
AcDbPoint
 10
163.25
 20
12.5
 30
0.0
  0
POINT
  5
69
330
48
100
AcDbEntity
  8
1
 62
     4
100
AcDbPoint
 10
157.5
 20
12.5
 30
0.0
  0
POINT
  5
6A
330
48
100
AcDbEntity
  8
1
 62
     4
100
AcDbPoint
 10
57.00000000000001
 20
14.25
 30
0.0
  0
POINT
  5
6B
330
48
100
AcDbEntity
  8
1
 62
     4
100
AcDbPoint
 10
57.00000000000001
 20
22.75000000000001
 30
0.0
  0
POINT
  5
6C
330
48
100
AcDbEntity
  8
1
 62
     4
100
AcDbPoint
 10
47.50000000000001
 20
282.0000000000003
 30
0.0
  0
POINT
  5
6D
330
48
100
AcDbEntity
  8
1
 62
     4
100
AcDbPoint
 10
157.5
 20
19.00000000000001
 30
0.0
  0
POINT
  5
6E
330
48
100
AcDbEntity
  8
1
 62
     4
100
AcDbPoint
 10
57.00000000000001
 20
16.25
 30
0.0
  0
POINT
  5
6F
330
48
100
AcDbEntity
  8
1
 62
     4
100
AcDbPoint
 10
57.00000000000001
 20
24.75000000000001
 30
0.0
  0
POINT
  5
70
330
48
100
AcDbEntity
  8
1
 62
     4
100
AcDbPoint
 10
57.00000000000001
 20
20.75000000000001
 30
0.0
  0
POINT
  5
71
330
48
100
AcDbEntity
  8
1
 62
     4
100
AcDbPoint
 10
57.00000000000001
 20
12.25
 30
0.0
  0
POINT
  5
72
330
48
100
AcDbEntity
  8
1
 62
     4
100
AcDbPoint
 10
34.00000000000001
 20
34.00000000000001
 30
0.0
  0
LINE
  5
77
330
48
100
AcDbEntity
  8
1
  6
Continuous
 62
     7
100
AcDbLine
 10
105.0
 20
10.0
 30
0.0
 11
200.0
 21
10.0
 31
0.0
  0
LINE
  5
78
330
48
100
AcDbEntity
  8
1
  6
Continuous
 62
     2
100
AcDbLine
 10
105.0
 20
10.0
 30
0.0
 11
105.0
 21
5.0
 31
0.0
  0
LINE
  5
79
330
48
100
AcDbEntity
  8
1
  6
Continuous
 62
     7
100
AcDbLine
 10
200.0
 20
148.5
 30
0.0
 11
200.0
 21
287.0000000000003
 31
0.0
  0
LINE
  5
7A
330
48
100
AcDbEntity
  8
1
  6
Continuous
 62
     2
100
AcDbLine
 10
200.0
 20
148.5
 30
0.0
 11
205.0
 21
148.5
 31
0.0
  0
LINE
  5
7B
330
48
100
AcDbEntity
  8
1
  6
Continuous
 62
     7
100
AcDbLine
 10
25.00000000000001
 20
148.5
 30
0.0
 11
25.00000000000001
 21
287.0000000000003
 31
0.0
  0
LINE
  5
7C
330
48
100
AcDbEntity
  8
1
  6
Continuous
 62
     2
100
AcDbLine
 10
25.00000000000001
 20
148.5
 30
0.0
 11
20.00000000000001
 21
148.5
 31
0.0
  0
LINE
  5
7D
330
48
100
AcDbEntity
  8
1
  6
Continuous
 62
     7
100
AcDbLine
 10
105.0
 20
287.0000000000003
 30
0.0
 11
25.00000000000001
 21
287.0000000000003
 31
0.0
  0
LINE
  5
7E
330
48
100
AcDbEntity
  8
1
  6
Continuous
 62
     2
100
AcDbLine
 10
105.0
 20
287.0000000000003
 30
0.0
 11
105.0
 21
292.0000000000003
 31
0.0
  0
LINE
  5
7F
330
48
100
AcDbEntity
  8
1
  6
Continuous
 62
     2
100
AcDbLine
 10
166.0
 20
20.00000000000001
 30
0.0
 11
200.0
 21
20.00000000000001
 31
0.0
  0
LINE
  5
80
330
48
100
AcDbEntity
  8
1
  6
Continuous
 62
     2
100
AcDbLine
 10
98.00000000000001
 20
27.00000000000001
 30
0.0
 11
98.00000000000001
 21
9.99999999999999
 31
0.0
  0
LINE
  5
81
330
48
100
AcDbEntity
  8
1
  6
Continuous
 62
     2
100
AcDbLine
 10
115.0
 20
27.00000000000001
 30
0.0
 11
115.0
 21
9.99999999999999
 31
0.0
  0
LINE
  5
82
330
48
100
AcDbEntity
  8
1
  6
Continuous
 62
     2
100
AcDbLine
 10
149.0
 20
27.00000000000001
 30
0.0
 11
149.0
 21
10.0
 31
0.0
  0
LINE
  5
83
330
48
100
AcDbEntity
  8
1
  6
Continuous
 62
     2
100
AcDbLine
 10
132.0
 20
27.00000000000001
 30
0.0
 11
132.0
 21
9.99999999999999
 31
0.0
  0
LINE
  5
84
330
48
100
AcDbEntity
  8
1
  6
Continuous
 62
     2
100
AcDbLine
 10
166.0
 20
27.00000000000001
 30
0.0
 11
166.0
 21
10.0
 31
0.0
  0
LINE
  5
85
330
48
100
AcDbEntity
  8
1
  6
Continuous
 62
     2
100
AcDbLine
 10
55.00000000000001
 20
277.0000000000003
 30
0.0
 11
25.00000000000001
 21
277.0000000000003
 31
0.0
  0
LINE
  5
86
330
48
100
AcDbEntity
  8
1
  6
Continuous
 62
     7
100
AcDbLine
 10
25.00000000000001
 20
10.0
 30
0.0
 11
25.00000000000001
 21
148.5
 31
0.0
  0
LINE
  5
87
330
48
100
AcDbEntity
  8
1
  6
Continuous
 62
     2
100
AcDbLine
 10
40.00000000000001
 20
287.0000000000003
 30
0.0
 11
40.00000000000001
 21
277.0000000000003
 31
0.0
  0
LINE
  5
88
330
48
100
AcDbEntity
  8
1
  6
Continuous
 62
     2
100
AcDbLine
 10
55.00000000000001
 20
287.0000000000003
 30
0.0
 11
55.00000000000001
 21
277.0000000000003
 31
0.0
  0
LINE
  5
89
330
48
100
AcDbEntity
  8
1
  6
Continuous
 62
     2
100
AcDbLine
 10
33.00000000000001
 20
41.00000000000001
 30
0.0
 11
33.00000000000001
 21
27.0
 31
0.0
  0
LINE
  5
8A
330
48
100
AcDbEntity
  8
1
  6
Continuous
 62
     7
100
AcDbLine
 10
200.0
 20
27.00000000000001
 30
0.0
 11
25.00000000000001
 21
27.00000000000001
 31
0.0
  0
LINE
  5
8B
330
48
100
AcDbEntity
  8
1
  6
Continuous
 62
     7
100
AcDbLine
 10
25.00000000000001
 20
41.0
 30
0.0
 11
200.0
 21
41.0
 31
0.0
  0
LINE
  5
8C
330
48
100
AcDbEntity
  8
1
  6
PHANTOM
 62
     4
100
AcDbLine
 10
-0.00000000000001
 20
0.0
 30
0.0
 11
210.0
 21
0.0
 31
0.0
  0
LINE
  5
8D
330
48
100
AcDbEntity
  8
1
  6
PHANTOM
 62
     4
100
AcDbLine
 10
210.0
 20
0.0
 30
0.0
 11
210.0
 21
297.0
 31
0.0
  0
LINE
  5
8E
330
48
100
AcDbEntity
  8
1
  6
PHANTOM
 62
     4
100
AcDbLine
 10
210.0
 20
297.0
 30
0.0
 11
-0.00000000000001
 21
297.0
 31
0.0
  0
LINE
  5
8F
330
48
100
AcDbEntity
  8
1
  6
PHANTOM
 62
     4
100
AcDbLine
 10
-0.00000000000001
 20
297.0
 30
0.0
 11
-0.00000000000001
 21
0.0
 31
0.0
  0
LINE
  5
90
330
48
100
AcDbEntity
  8
1
  6
Continuous
 62
     7
100
AcDbLine
 10
25.00000000000001
 20
10.0
 30
0.0
 11
105.0
 21
10.0
 31
0.0
  0
LINE
  5
91
330
48
100
AcDbEntity
  8
1
  6
Continuous
 62
     7
100
AcDbLine
 10
200.0
 20
10.0
 30
0.0
 11
200.0
 21
148.5
 31
0.0
  0
LINE
  5
92
330
48
100
AcDbEntity
  8
1
  6
Continuous
 62
     7
100
AcDbLine
 10
200.0
 20
287.0000000000003
 30
0.0
 11
105.0
 21
287.0000000000003
 31
0.0
  0
LINE
  5
93
330
48
100
AcDbEntity
  8
1
  6
Continuous
 62
     2
100
AcDbLine
 10
25.00000000000001
 20
18.50000000000001
 30
0.0
 11
81.00000000000001
 21
18.50000000000001
 31
0.0
  0
LINE
  5
94
330
48
100
AcDbEntity
  8
1
  6
Continuous
 62
     2
100
AcDbLine
 10
33.00000000000001
 20
27.0
 30
0.0
 11
33.00000000000001
 21
10.0
 31
0.0
  0
LINE
  5
95
330
48
100
AcDbEntity
  8
1
  6
Continuous
 62
     7
100
AcDbLine
 10
191.0
 20
24.7
 30
0.0
 11
191.0
 21
22.30000000000001
 31
0.0
  0
LINE
  5
96
330
48
100
AcDbEntity
  8
1
  6
Continuous
 62
     7
100
AcDbLine
 10
191.0
 20
24.7
 30
0.0
 11
196.0
 21
25.50000000000001
 31
0.0
  0
LINE
  5
97
330
48
100
AcDbEntity
  8
1
  6
Continuous
 62
     7
100
AcDbLine
 10
196.0
 20
25.50000000000001
 30
0.0
 11
196.0
 21
21.50000000000001
 31
0.0
  0
LINE
  5
98
330
48
100
AcDbEntity
  8
1
  6
Continuous
 62
     7
100
AcDbLine
 10
196.0
 20
21.50000000000001
 30
0.0
 11
191.0
 21
22.30000000000001
 31
0.0
  0
LINE
  5
99
330
48
100
AcDbEntity
  8
1
  6
DOT_CENTER
 62
     2
100
AcDbLine
 10
184.0
 20
23.50000000000001
 30
0.0
 11
197.0
 21
23.50000000000001
 31
0.0
  0
LINE
  5
9A
330
48
100
AcDbEntity
  8
1
  6
DOT_CENTER
 62
     2
100
AcDbLine
 10
187.0
 20
26.50000000000001
 30
0.0
 11
187.0
 21
20.50000000000001
 31
0.0
  0
LINE
  5
9B
330
48
100
AcDbEntity
  8
1
  6
Continuous
 62
     2
100
AcDbLine
 10
81.00000000000001
 20
27.00000000000001
 30
0.0
 11
81.00000000000001
 21
10.0
 31
0.0
  0
CIRCLE
  5
9C
330
48
100
AcDbEntity
  8
1
  6
Continuous
 62
     7
100
AcDbCircle
 10
103.5
 20
12.5
 30
0.0
 40
0.2999999999999972
  0
CIRCLE
  5
9D
330
48
100
AcDbEntity
  8
1
  6
Continuous
 62
     7
100
AcDbCircle
 10
109.5
 20
12.5
 30
0.0
 40
0.2999999999999972
  0
CIRCLE
  5
9E
330
48
100
AcDbEntity
  8
1
  6
Continuous
 62
     7
100
AcDbCircle
 10
120.5
 20
12.5
 30
0.0
 40
0.2999999999999972
  0
CIRCLE
  5
9F
330
48
100
AcDbEntity
  8
1
  6
Continuous
 62
     7
100
AcDbCircle
 10
126.5
 20
12.5
 30
0.0
 40
0.2999999999999972
  0
CIRCLE
  5
A0
330
48
100
AcDbEntity
  8
1
  6
Continuous
 62
     7
100
AcDbCircle
 10
137.5
 20
12.5
 30
0.0
 40
0.3000000000000114
  0
CIRCLE
  5
A1
330
48
100
AcDbEntity
  8
1
  6
Continuous
 62
     7
100
AcDbCircle
 10
143.5
 20
12.5
 30
0.0
 40
0.3000000000000114
  0
CIRCLE
  5
A2
330
48
100
AcDbEntity
  8
1
  6
Continuous
 62
     7
100
AcDbCircle
 10
160.5
 20
12.5
 30
0.0
 40
0.3000000000000114
  0
CIRCLE
  5
A3
330
48
100
AcDbEntity
  8
1
  6
Continuous
 62
     7
100
AcDbCircle
 10
154.5
 20
12.5
 30
0.0
 40
0.3000000000000114
  0
CIRCLE
  5
A4
330
48
100
AcDbEntity
  8
1
  6
Continuous
 62
     7
100
AcDbCircle
 10
187.0
 20
23.50000000000001
 30
0.0
 40
1.200000000000102
  0
CIRCLE
  5
A5
330
48
100
AcDbEntity
  8
1
  6
Continuous
 62
     7
100
AcDbCircle
 10
187.0
 20
23.50000000000001
 30
0.0
 40
2.0
  0
CIRCLE
  5
A6
330
48
100
AcDbEntity
  8
1
  6
DOT_CENTER
 62
     7
100
AcDbCircle
 10
89.50000000000001
 20
16.0
 30
0.0
 40
0.1000000000000227
  0
CIRCLE
  5
A7
330
48
100
AcDbEntity
  8
1
  6
DOT_CENTER
 62
     7
100
AcDbCircle
 10
89.50000000000001
 20
18.0
 30
0.0
 40
0.1000000000000227
  0
SPLINE
  5
A8
102
{ACAD_REACTORS
330
C7
102
}
330
48
100
AcDbEntity
  8
_U_30EC_U_30A4_U_30E4_U_30FC_1
  6
Continuous
 62
     2
100
AcDbSpline
210
0.0
220
0.0
230
1.0
 70
     8
 71
     3
 72
    24
 73
    20
 74
    18
 42
0.000000001
 43
0.0000000001
 44
0.00000001
 40
0.0
 40
0.0
 40
0.0
 40
0.0
 40
0.221107500875377
 40
0.427321858624525
 40
0.508017467923926
 40
0.5914835907870175
 40
0.8143265690192611
 40
1.05465130268657
 40
1.29545269402316
 40
1.518109231328814
 40
1.540864321905429
 40
1.59512646062269
 40
1.659890947896004
 40
1.714153085187362
 40
1.736908174961663
 40
1.764951100735349
 40
1.801562291220939
 40
1.953914424543611
 40
2.126104167379696
 40
2.126104167379696
 40
2.126104167379696
 40
2.126104167379696
 10
185.9375369556889
 20
15.58989295113015
 30
0.0
 10
185.9112579081812
 20
15.53097628234373
 30
0.0
 10
185.8604698894426
 20
15.41711139679257
 30
0.0
 10
185.8131784839111
 20
15.14441958233115
 30
0.0
 10
185.7043482802617
 20
15.24445482575454
 30
0.0
 10
185.5514800279638
 20
15.27118593367332
 30
0.0
 10
185.7686155181198
 20
15.48518135017632
 30
0.0
 10
185.7838483674381
 20
15.70332117782487
 30
0.0
 10
185.8906889492001
 20
15.88451579066426
 30
0.0
 10
185.8305380947077
 20
16.16913226311401
 30
0.0
 10
185.9334317395402
 20
16.14114089222451
 30
0.0
 10
185.977993346815
 20
16.13243251602299
 30
0.0
 10
186.0380842395397
 20
16.12139654183355
 30
0.0
 10
186.0756619587438
 20
16.10767523055559
 30
0.0
 10
186.1252466928606
 20
16.10756076160223
 30
0.0
 10
186.0930158919325
 20
16.07306592398623
 30
0.0
 10
186.0171802221881
 20
16.08404104537965
 30
0.0
 10
186.0429447159693
 20
15.89858969582449
 30
0.0
 10
186.005589676385
 20
15.80702313549588
 30
0.0
 10
185.9857704961609
 20
15.75844135397705
 30
0.0
 11
185.9375369556889
 21
15.58989295113015
 31
0.0
 11
185.8616471328552
 21
15.38221708318559
 31
0.0
 11
185.7717402238433
 21
15.19663392356192
 31
0.0
 11
185.701149392311
 21
15.23573272563551
 31
0.0
 11
185.6245525192651
 21
15.2688916318772
 31
0.0
 11
185.7214026947455
 21
15.46958801203538
 31
0.0
 11
185.7994641467471
 21
15.69688163177024
 31
0.0
 11
185.858971692972
 21
15.93021436608691
 31
0.0
 11
185.9001601511226
 21
16.14902808999054
 31
0.0
 11
185.9224183822214
 21
16.14429889221395
 31
0.0
 11
185.975495702534
 21
16.13302157443899
 31
0.0
 11
186.0388460525844
 21
16.11956154999792
 31
0.0
 11
186.091923372897
 21
16.10828423222296
 31
0.0
 11
186.1141816039958
 21
16.10355503444637
 31
0.0
 11
186.096409715746
 21
16.0818625084101
 31
0.0
 11
186.0606122998071
 21
16.07418628445367
 31
0.0
 11
186.028195330148
 21
15.92532288171314
 31
0.0
 11
185.9857704961609
 21
15.75844135397705
 31
0.0
  0
SPLINE
  5
A9
102
{ACAD_REACTORS
330
C7
102
}
330
48
100
AcDbEntity
  8
_U_30EC_U_30A4_U_30E4_U_30FC_1
  6
Continuous
 62
     2
100
AcDbSpline
210
0.0
220
0.0
230
1.0
 70
     8
 71
     3
 72
    70
 73
    66
 74
    64
 42
0.000000001
 43
0.0000000001
 44
0.00000001
 40
0.0
 40
0.0
 40
0.0
 40
0.0
 40
0.0241731073021472
 40
0.0846058988987013
 40
0.1631685280353284
 40
0.2417311571789756
 40
0.3021639488292751
 40
0.3263370654895541
 40
0.3533118254248881
 40
0.4228783438922111
 40
0.5179999095313402
 40
0.6216398239466102
 40
0.7167613891499706
 40
0.7863279069649863
 40
0.8133026791761836
 40
0.8372943998771674
 40
0.8945054261372869
 40
0.9627895541962639
 40
1.020000580349074
 40
1.043992300975172
 40
1.071934345522902
 40
1.113121768772915
 40
1.14522519933224
 40
1.225483775412775
 40
1.329819923771483
 40
1.434156071994373
 40
1.514414647795794
 40
1.546518078208402
 40
1.578974764260176
 40
1.662678849314171
 40
1.777131373668391
 40
1.901833377474782
 40
2.016285900500572
 40
2.099989982527939
 40
2.132446666570297
 40
2.15878235448602
 40
2.21672086790781
 40
2.274659381334233
 40
2.300995069256167
 40
2.333451754066139
 40
2.41715583654382
 40
2.53160835898526
 40
2.656310362283755
 40
2.770762886388887
 40
2.854466971340052
 40
2.886923657363859
 40
2.913597976833293
 40
2.982389642875095
 40
3.076451716946957
 40
3.17893726045857
 40
3.272999334739971
 40
3.341791001059191
 40
3.368465320663503
 40
3.396976080738725
 40
3.472140811845961
 40
3.57840819030865
 40
3.700226892456087
 40
3.822045594634304
 40
3.928312973256411
 40
4.003477705314808
 40
4.031988456866873
 40
4.058324144797673
 40
4.116262658236842
 40
4.174201171400648
 40
4.200536849608584
 40
4.200536849608584
 40
4.200536849608584
 40
4.200536849608584
 10
185.9857704961609
 20
15.75844135397705
 30
0.0
 10
185.9938259544679
 20
15.75844359811686
 30
0.0
 10
186.0220200663241
 20
15.75845146032798
 30
0.0
 10
186.0765534803672
 20
15.75830754828372
 30
0.0
 10
186.1482891808604
 20
15.75909120499898
 30
0.0
 10
186.2236240137062
 20
15.75627570463811
 30
0.0
 10
186.2713052366438
 20
15.76298403400957
 30
0.0
 10
186.3195071245616
 20
15.75197563692433
 30
0.0
 10
186.3062571799873
 20
15.80546402997033
 30
0.0
 10
186.3151093964539
 20
15.86049583543092
 30
0.0
 10
186.3108698036285
 20
15.95419908726109
 30
0.0
 10
186.313348348128
 20
16.04959482218532
 30
0.0
 10
186.309093870606
 20
16.14356821983387
 30
0.0
 10
186.3179818665846
 20
16.19795062438012
 30
0.0
 10
186.3046977409945
 20
16.25233997691461
 30
0.0
 10
186.3514119277109
 20
16.23842216335358
 30
0.0
 10
186.3943254545736
 20
16.24103877374043
 30
0.0
 10
186.4605443456685
 20
16.23648422450755
 30
0.0
 10
186.5013342271798
 20
16.22778162134162
 30
0.0
 10
186.5525145690819
 20
16.23531799890195
 30
0.0
 10
186.52537204872
 20
16.19349970223285
 30
0.0
 10
186.4803096055707
 20
16.20284992072596
 30
0.0
 10
186.4942065045051
 20
16.13841207371837
 30
0.0
 10
186.4858414431653
 20
16.07378219627399
 30
0.0
 10
186.4903632178398
 20
15.97529141193887
 30
0.0
 10
186.4854741311167
 20
15.8759593284257
 30
0.0
 10
186.4950258992082
 20
15.81293115552969
 30
0.0
 10
186.47997614552
 20
15.74964011499788
 30
0.0
 10
186.5449159457208
 20
15.76515072944269
 30
0.0
 10
186.6116246399496
 20
15.75499387697812
 30
0.0
 10
186.7241435470828
 20
15.75988800099367
 30
0.0
 10
186.8390235448953
 20
15.75691204732783
 30
0.0
 10
186.9519871999747
 20
15.76221664184991
 30
0.0
 10
187.0176267597677
 20
15.75107306472089
 30
0.0
 10
187.0816276691053
 20
15.76744532319857
 30
0.0
 10
187.0703142889189
 20
15.71761689905274
 30
0.0
 10
187.077533987151
 20
15.67416715212123
 30
0.0
 10
187.0703142611268
 20
15.63071745587445
 30
0.0
 10
187.0816277175994
 20
15.58088895196876
 30
0.0
 10
187.0176263598971
 20
15.59726166091362
 30
0.0
 10
186.951992124046
 20
15.58611271661588
 30
0.0
 10
186.838997431733
 20
15.59144857206854
 30
0.0
 10
186.7242456548644
 20
15.58834345663822
 30
0.0
 10
186.611318368686
 20
15.59364894682588
 30
0.0
 10
186.5455220903585
 20
15.58257300019594
 30
0.0
 10
186.4816097975358
 20
15.59887597847617
 30
0.0
 10
186.4936015165126
 20
15.54423524395742
 30
0.0
 10
186.4862104613006
 20
15.48854295047842
 30
0.0
 10
186.4892684841982
 20
15.3964968914057
 30
0.0
 10
186.4893422785683
 20
15.30179109873102
 30
0.0
 10
186.4860313578359
 20
15.20952782902266
 30
0.0
 10
186.4939505989903
 20
15.1543576873614
 30
0.0
 10
186.4815076611617
 20
15.10058169100137
 30
0.0
 10
186.5389116551632
 20
15.11453768862782
 30
0.0
 10
186.5994708140382
 20
15.10511457884227
 30
0.0
 10
186.7048680855081
 20
15.10942885928705
 30
0.0
 10
186.8204294070622
 20
15.10835504612032
 30
0.0
 10
186.9359688877797
 20
15.10725965900995
 30
0.0
 10
187.0414181130841
 20
15.11162525770633
 30
0.0
 10
187.1018680471805
 20
15.10209426030672
 30
0.0
 10
187.1592837739109
 20
15.1161728960638
 30
0.0
 10
187.1477773876709
 20
15.06707153265683
 30
0.0
 10
187.1537566781749
 20
15.02564658018649
 30
0.0
 10
187.1520311050801
 20
14.97651677966695
 30
0.0
 10
187.1521500122971
 20
14.94854428447607
 30
0.0
 10
187.1521871691833
 20
14.93980288195949
 30
0.0
 11
185.9857704961609
 21
15.75844135397705
 31
0.0
 11
186.0099436128282
 21
15.75844135397705
 31
0.0
 11
186.0703764044962
 21
15.75844135397705
 31
0.0
 11
186.1489390336648
 21
15.75844135397705
 31
0.0
 11
186.2275016628334
 21
15.75844135397705
 31
0.0
 11
186.2879344545015
 21
15.75844135397705
 31
0.0
 11
186.3121075711687
 21
15.75844135397705
 31
0.0
 11
186.3121075711687
 21
15.78541612620063
 31
0.0
 11
186.3121075711687
 21
15.85498264404039
 31
0.0
 11
186.3121075711687
 21
15.95010420924985
 31
0.0
 11
186.3121075711687
 21
16.05374412358256
 31
0.0
 11
186.3121075711687
 21
16.14886568879202
 31
0.0
 11
186.3121075711687
 21
16.21843220663178
 31
0.0
 11
186.3121075711687
 21
16.24540697885536
 31
0.0
 11
186.3360407604892
 21
16.243732131078
 31
0.0
 11
186.3931122119458
 21
16.23973826330121
 31
0.0
 11
186.461229750781
 21
16.23497138885795
 31
0.0
 11
186.5183012022376
 21
16.23097752108117
 31
0.0
 11
186.5422343915581
 21
16.22930267330381
 31
0.0
 11
186.5274972731229
 21
16.2055629337264
 31
0.0
 11
186.4886640249976
 21
16.19183767331312
 31
0.0
 11
186.4886640249976
 21
16.15973424225119
 31
0.0
 11
186.4886640249976
 21
16.07947566459636
 31
0.0
 11
186.4886640249976
 21
15.97513951364509
 31
0.0
 11
186.4886640249976
 21
15.87080336269381
 31
0.0
 11
186.4886640249976
 21
15.79054478503898
 31
0.0
 11
186.4886640249976
 21
15.75844135397705
 31
0.0
 11
186.5211207110824
 21
15.75844135397705
 31
0.0
 11
186.6048247962486
 21
15.75844135397705
 31
0.0
 11
186.7192773208634
 21
15.75844135397705
 31
0.0
 11
186.8439793252946
 21
15.75844135397705
 31
0.0
 11
186.9584318499095
 21
15.75844135397705
 31
0.0
 11
187.0421359350756
 21
15.75844135397705
 31
0.0
 11
187.0745926211604
 21
15.75844135397705
 31
0.0
 11
187.0745926211604
 21
15.73210566604961
 31
0.0
 11
187.0745926211604
 21
15.67416715260924
 31
0.0
 11
187.0745926211604
 21
15.61622863916888
 31
0.0
 11
187.0745926211604
 21
15.58989295124144
 31
0.0
 11
187.0421359350756
 21
15.58989295124144
 31
0.0
 11
186.9584318499095
 21
15.58989295124144
 31
0.0
 11
186.8439793252946
 21
15.58989295124144
 31
0.0
 11
186.7192773208634
 21
15.58989295124144
 31
0.0
 11
186.6048247962485
 21
15.58989295124144
 31
0.0
 11
186.5211207110824
 21
15.58989295124144
 31
0.0
 11
186.4886640249976
 21
15.58989295124144
 31
0.0
 11
186.4886640249976
 21
15.56321863152022
 31
0.0
 11
186.4886640249976
 21
15.49442696487075
 31
0.0
 11
186.4886640249976
 21
15.40036489006434
 31
0.0
 11
186.4886640249976
 21
15.29787934587228
 31
0.0
 11
186.4886640249976
 21
15.20381727106587
 31
0.0
 11
186.4886640249976
 21
15.1350256044164
 31
0.0
 11
186.4886640249976
 21
15.10835128469518
 31
0.0
 11
186.5171747850993
 21
15.10835128469518
 31
0.0
 11
186.5923395162766
 21
15.10835128469518
 31
0.0
 11
186.6986068948376
 21
15.10835128469518
 31
0.0
 11
186.8204255970904
 21
15.10835128469518
 31
0.0
 11
186.9422442993433
 21
15.10835128469518
 31
0.0
 11
187.0485116779043
 21
15.10835128469518
 31
0.0
 11
187.1236764090816
 21
15.10835128469518
 31
0.0
 11
187.1521871691833
 21
15.10835128469518
 31
0.0
 11
187.1521871691833
 21
15.08201559676773
 31
0.0
 11
187.1521871691833
 21
15.02407708332734
 31
0.0
 11
187.1521871691833
 21
14.96613856988694
 31
0.0
 11
187.1521871691833
 21
14.93980288195949
 31
0.0
  0
SPLINE
  5
AA
102
{ACAD_REACTORS
330
C7
102
}
330
48
100
AcDbEntity
  8
_U_30EC_U_30A4_U_30E4_U_30FC_1
  6
Continuous
 62
     2
100
AcDbSpline
210
0.0
220
0.0
230
1.0
 70
     8
 71
     3
 72
    62
 73
    58
 74
    56
 42
0.000000001
 43
0.0000000001
 44
0.00000001
 40
0.0
 40
0.0
 40
0.0
 40
0.0
 40
0.0598250028308485
 40
0.2024846486897331
 40
0.3727558389221031
 40
0.515415484793607
 40
0.5752404975785339
 40
0.9332326775487201
 40
1.290451762839469
 40
1.602077253145869
 40
1.699931634112126
 40
1.79935975642504
 40
2.27012014965708
 40
2.804661928461548
 40
2.882342287383261
 40
3.076543185719111
 40
3.329004354835578
 40
3.581465524568405
 40
3.775666424543693
 40
3.853346784558313
 40
3.899120679595058
 40
3.984129341792056
 40
4.029903236817405
 40
4.105797496059561
 40
4.295533144152521
 40
4.542189486611762
 40
4.788845828875709
 40
4.978581476410095
 40
5.054475735244337
 40
5.621734664339355
 40
6.130867242037366
 40
6.225249780948612
 40
6.318913039727311
 40
6.663579954558927
 40
7.047498900224775
 40
7.435230791575703
 40
7.498943906668115
 40
7.650875181210108
 40
7.832212509001619
 40
7.984143783697005
 40
8.047856898903131
 40
8.091554632732642
 40
8.172707566964307
 40
8.216405300768036
 40
8.289021782160921
 40
8.462184160757294
 40
8.668861838005375
 40
8.842024215263967
 40
8.914640695475162
 40
8.989881580861368
 40
9.15541152882727
 40
9.320941477744052
 40
9.396182352487301
 40
9.454709011143848
 40
9.583467660170783
 40
9.712226309013062
 40
9.770752957989515
 40
9.770752957989515
 40
9.770752957989515
 40
9.770752957989515
 10
187.1521871691833
 20
14.93980288195949
 30
0.0
 10
187.1322348171623
 20
14.93980875568671
 30
0.0
 10
187.0647037716466
 20
14.93982863806156
 30
0.0
 10
186.9410612161788
 20
14.93949362520325
 30
0.0
 10
186.7863180150056
 20
14.9410767375051
 30
0.0
 10
186.669734948248
 20
14.93686078860495
 30
0.0
 10
186.455094263424
 20
14.95215205331625
 30
0.0
 10
186.8518948407228
 20
14.59198721286192
 30
0.0
 10
186.8945656069268
 20
14.37510503397166
 30
0.0
 10
187.3189162146611
 20
14.19325062511446
 30
0.0
 10
187.1439821496074
 20
14.08985196568072
 30
0.0
 10
187.0194523925083
 20
13.87831523212723
 30
0.0
 10
186.7666277235943
 20
14.34806081001562
 30
0.0
 10
186.4797602893627
 20
14.99511516984523
 30
0.0
 10
186.490633592666
 20
14.68782672154695
 30
0.0
 10
186.488289277796
 20
14.5228861697178
 30
0.0
 10
186.4861096126411
 20
14.28879670711694
 30
0.0
 10
186.4980774396346
 20
14.04498072421783
 30
0.0
 10
186.4687984740631
 20
13.89855796860985
 30
0.0
 10
186.511452262547
 20
13.75113490174538
 30
0.0
 10
186.423981400564
 20
13.7668579730622
 30
0.0
 10
186.3768527606744
 20
13.76694303543455
 30
0.0
 10
186.2898973207713
 20
13.75109425482909
 30
0.0
 10
186.3313474021722
 20
13.89527771422762
 30
0.0
 10
186.3029875004285
 20
14.03855052698456
 30
0.0
 10
186.3145973775299
 20
14.27674947365264
 30
0.0
 10
186.3124175648272
 20
14.50517235240346
 30
0.0
 10
186.3103111127993
 20
14.66705729375994
 30
0.0
 10
186.3208035438324
 20
14.98153709333752
 30
0.0
 10
186.0128963252893
 20
14.29229470872435
 30
0.0
 10
185.7055258267457
 20
13.81476750243053
 30
0.0
 10
185.5851367066274
 20
14.03741112637427
 30
0.0
 10
185.4074607910722
 20
14.15011034955568
 30
0.0
 10
185.8853326362893
 20
14.3254814346546
 30
0.0
 10
185.9353959057208
 20
14.5609192925203
 30
0.0
 10
186.3583799621717
 20
14.95322989344607
 30
0.0
 10
186.127675427354
 20
14.93655307029065
 30
0.0
 10
186.004968585934
 20
14.9426951894877
 30
0.0
 10
185.8325483095662
 20
14.93312822699573
 30
0.0
 10
185.7213224694447
 20
14.95448818489664
 30
0.0
 10
185.6025779627448
 20
14.92136265357419
 30
0.0
 10
185.6183169706685
 20
15.00203900606883
 30
0.0
 10
185.6178550933763
 20
15.04645414290854
 30
0.0
 10
185.6027881889931
 20
15.12967081778534
 30
0.0
 10
185.7372380935443
 20
15.09062651983884
 30
0.0
 10
185.8619755545747
 20
15.11739729328423
 30
0.0
 10
186.062875523728
 20
15.10063949044053
 30
0.0
 10
186.1921540949353
 20
15.12204225913005
 30
0.0
 10
186.3328419928294
 20
15.08868778853421
 30
0.0
 10
186.2980927452615
 20
15.22651875785069
 30
0.0
 10
186.3222185666713
 20
15.34963257349481
 30
0.0
 10
186.2967086182393
 20
15.47024055670336
 30
0.0
 10
186.3333251146684
 20
15.60539865141495
 30
0.0
 10
186.2211417027769
 20
15.58094545781891
 30
0.0
 10
186.1280356457136
 20
15.59307749842022
 30
0.0
 10
186.0191547579819
 20
15.58957630069994
 30
0.0
 10
185.9569697640964
 20
15.58981755951603
 30
0.0
 10
185.9375369557246
 20
15.58989295124144
 30
0.0
 11
187.1521871691833
 21
14.93980288195949
 31
0.0
 11
187.0923621563982
 21
14.93980288195949
 31
0.0
 11
186.949702510526
 21
14.93980288195949
 31
0.0
 11
186.7794313202913
 21
14.93980288195949
 31
0.0
 11
186.6367716744191
 21
14.93980288195949
 31
0.0
 11
186.576946661634
 21
14.93980288195949
 31
0.0
 11
186.7679960754842
 21
14.6370512796689
 31
0.0
 11
186.994127278563
 21
14.36051890576684
 31
0.0
 11
187.2244526173371
 21
14.15061253493457
 31
0.0
 11
187.1521596330704
 21
14.08466403668716
 31
0.0
 11
187.0879364402643
 21
14.0087605905256
 31
0.0
 11
186.7732818215558
 21
14.35891458349363
 31
0.0
 11
186.4886640249976
 21
14.81138295143602
 31
0.0
 11
186.4886640249976
 21
14.73370259137314
 31
0.0
 11
186.4886640249976
 21
14.53950169121594
 31
0.0
 11
186.4886640249976
 21
14.28704052101157
 31
0.0
 11
186.4886640249976
 21
14.03457935080721
 31
0.0
 11
186.4886640249976
 21
13.84037845065
 31
0.0
 11
186.4886640249976
 21
13.76269809058712
 31
0.0
 11
186.4428901295605
 21
13.76269809058712
 31
0.0
 11
186.3578814666058
 21
13.76269809058712
 31
0.0
 11
186.3121075711687
 21
13.76269809058712
 31
0.0
 11
186.3121075711687
 21
13.8385923498274
 31
0.0
 11
186.3121075711687
 21
14.02832799792811
 31
0.0
 11
186.3121075711687
 21
14.27498434045904
 31
0.0
 11
186.3121075711687
 21
14.52164068298996
 31
0.0
 11
186.3121075711687
 21
14.71137633109067
 31
0.0
 11
186.3121075711687
 21
14.78727059033095
 31
0.0
 11
185.9987626399266
 21
14.31440946197693
 31
0.0
 11
185.6352328662148
 21
13.95795177109382
 31
0.0
 11
185.5773927461627
 21
14.03253450545022
 31
0.0
 11
185.5094852305341
 21
14.09704322939243
 31
0.0
 11
185.7750721898319
 21
14.3167221979589
 31
0.0
 11
186.0233764972061
 21
14.60953395971697
 31
0.0
 11
186.226498280526
 21
14.93980288195949
 31
0.0
 11
186.1627851652721
 21
14.93980288195949
 31
0.0
 11
186.0108538904359
 21
14.93980288195949
 31
0.0
 11
185.8295165624055
 21
14.93980288195949
 31
0.0
 11
185.6775852875693
 21
14.93980288195949
 31
0.0
 11
185.6138721723154
 21
14.93980288195949
 31
0.0
 11
185.6138721723154
 21
14.98350061600208
 31
0.0
 11
185.6138721723154
 21
15.06465355065259
 31
0.0
 11
185.6138721723154
 21
15.10835128469518
 31
0.0
 11
185.6864886537961
 21
15.10835128469518
 31
0.0
 11
185.8596510327118
 21
15.10835128469518
 31
0.0
 11
186.0663287107723
 21
15.10835128469518
 31
0.0
 11
186.239491089688
 21
15.10835128469518
 31
0.0
 11
186.3121075711687
 21
15.10835128469518
 31
0.0
 11
186.3121075711687
 21
15.18359217009304
 31
0.0
 11
186.3121075711687
 21
15.34912211796831
 31
0.0
 11
186.3121075711687
 21
15.51465206584359
 31
0.0
 11
186.3121075711687
 21
15.58989295124144
 31
0.0
 11
186.2535809125055
 21
15.58989295124144
 31
0.0
 11
186.1248222634467
 21
15.58989295124144
 31
0.0
 11
185.9960636143877
 21
15.58989295124144
 31
0.0
 11
185.9375369557246
 21
15.58989295124144
 31
0.0
  0
SPLINE
  5
AB
102
{ACAD_REACTORS
330
C8
102
}
330
48
100
AcDbEntity
  8
_U_30EC_U_30A4_U_30E4_U_30FC_1
  6
Continuous
 62
     2
100
AcDbSpline
210
0.0
220
0.0
230
1.0
 70
    11
 71
     3
 72
   124
 73
   120
 74
   118
 42
0.000000001
 43
0.0000000001
 44
0.00000001
 40
0.0
 40
0.0
 40
0.0
 40
0.0
 40
0.027818722962451
 40
0.1011590162384269
 40
0.2048470170590239
 40
0.3237088716559245
 40
0.4425707262522
 40
0.5462587270699547
 40
0.6195990203311798
 40
0.647417752257866
 40
0.6750060736115224
 40
0.7357003855242759
 40
0.7963946998054492
 40
0.8239830245571784
 40
0.8540933811102878
 40
0.9373396629409558
 40
1.063094687343237
 40
1.220731268638075
 40
1.399622220914749
 40
1.589140358637734
 40
1.7786584964239
 40
1.957549448940511
 40
2.11518603087316
 40
2.240941056914465
 40
2.324187341760534
 40
2.354297700109384
 40
2.38188602467189
 40
2.442580338710479
 40
2.503274652750503
 40
2.53086297731461
 40
2.560983949278563
 40
2.640393784452908
 40
2.752662861759132
 40
2.881361560118148
 40
3.010060258455195
 40
3.122329335705342
 40
3.201739170817956
 40
3.231860142753317
 40
3.264298024030373
 40
3.352343701778245
 40
3.482095226868769
 40
3.639650650173031
 40
3.811108022565485
 40
3.982565394927994
 40
4.140120818152575
 40
4.269872343141286
 40
4.357918020802349
 40
4.390355902043978
 40
4.423256253992547
 40
4.508104530073068
 40
4.624121560636836
 40
4.750528176031593
 40
4.86654520660204
 40
4.951393482691997
 40
4.984293834645398
 40
5.011450833242312
 40
5.071196230152094
 40
5.130941627057168
 40
5.158098625648832
 40
5.190998977601523
 40
5.275847253689348
 40
5.391864284256783
 40
5.518270899648328
 40
5.634287930209367
 40
5.719136206288041
 40
5.752036558235928
 40
5.782130946282954
 40
5.862783906229128
 40
5.979550131774995
 40
6.117984316640402
 40
6.263641154587947
 40
6.402075339414153
 40
6.518841564907947
 40
6.599494524815529
 40
6.629588912848766
 40
6.654403028226342
 40
6.71357514948811
 40
6.784199939329427
 40
6.843372060493529
 40
6.868186175802775
 40
6.896246243201855
 40
6.939586233758251
 40
6.967846564564879
 40
7.043584251089817
 40
7.153234334451676
 40
7.283231855734425
 40
7.420011856035459
 40
7.550009376579811
 40
7.65965945883521
 40
7.735397144417203
 40
7.763657474851375
 40
7.796409728011032
 40
7.880876065096307
 40
7.996370852465692
 40
8.122208446418588
 40
8.237703224799182
 40
8.322169562010876
 40
8.35492181520589
 40
8.38207881330767
 40
8.441824209206972
 40
8.50156960524012
 40
8.528726603485696
 40
8.561478856695745
 40
8.645945193877795
 40
8.761439980865307
 40
8.887277580764449
 40
9.00277236200097
 40
9.08723869666119
 40
9.119990949235644
 40
9.152428830613344
 40
9.24047450863856
 40
9.37022603414951
 40
9.527781457984396
 40
9.699238830981384
 40
9.870696203978577
 40
10.028251627814
 40
10.15800315332562
 40
10.24604883135117
 40
10.27848670378519
 40
10.27848670378519
 40
10.27848670378519
 40
10.27848670378519
 10
195.3821827564383
 20
14.01410517385757
 30
0.0
 10
195.3914554737523
 20
14.01410498511274
 30
0.0
 10
195.4251744536861
 20
14.01410430876714
 30
0.0
 10
195.4934706812465
 20
14.01411807243305
 30
0.0
 10
195.592014171158
 20
14.01403224219544
 30
0.0
 10
195.7062066464812
 20
14.01441755612251
 30
0.0
 10
195.818589441707
 20
14.01300835897545
 30
0.0
 10
195.9214376600118
 20
14.01719117422243
 30
0.0
 10
195.9806839874849
 20
14.00823089251983
 30
0.0
 10
196.0371265937032
 20
14.02164434526061
 30
0.0
 10
196.0246255586955
 20
13.97087198613361
 30
0.0
 10
196.0329549635704
 20
13.92589320939067
 30
0.0
 10
196.0248170841119
 20
13.88056752990488
 30
0.0
 10
196.0370529214457
 20
13.82931932408466
 30
0.0
 10
195.9747773490333
 20
13.84447955365276
 30
0.0
 10
195.9060513026868
 20
13.83359750710742
 30
0.0
 10
195.7782756749592
 20
13.83911304747972
 30
0.0
 10
195.6262984511643
 20
13.83700851253698
 30
0.0
 10
195.4502695972523
 20
13.83771002588473
 30
0.0
 10
195.2644431934287
 20
13.83745237531291
 30
0.0
 10
195.0786167437175
 20
13.83771005144602
 30
0.0
 10
194.9025880142168
 20
13.83700841847731
 30
0.0
 10
194.7506104154195
 20
13.83911332229989
 30
0.0
 10
194.6228357664554
 20
13.8335968076764
 30
0.0
 10
194.554107783658
 20
13.84448077125942
 30
0.0
 10
194.4918349042883
 20
13.82931786684209
 30
0.0
 10
194.5040616290017
 20
13.88057510805171
 30
0.0
 10
194.4960004462597
 20
13.92582473272425
 30
0.0
 10
194.5040675809892
 20
13.97106357955323
 30
0.0
 10
194.4918238487083
 20
14.02234176909958
 30
0.0
 10
194.5525017120697
 20
14.00749577363134
 30
0.0
 10
194.6162810745736
 20
14.01756448170735
 30
0.0
 10
194.7277314353502
 20
14.01294644211999
 30
0.0
 10
194.8497533443824
 20
14.01413328905469
 30
0.0
 10
194.9719538137823
 20
14.01515863900634
 30
0.0
 10
195.0829794287392
 20
14.01092475623402
 30
0.0
 10
195.1476517413958
 20
14.02018584521739
 30
0.0
 10
195.2091162810501
 20
14.00604423049682
 30
0.0
 10
195.1930065601336
 20
14.07235527884517
 30
0.0
 10
195.2042980327358
 20
14.14447790121976
 30
0.0
 10
195.1987400822561
 20
14.27513760888286
 30
0.0
 10
195.2008035061691
 20
14.42607323708242
 30
0.0
 10
195.2000167127295
 20
14.59335873107886
 30
0.0
 10
195.2007845215627
 20
14.76061110332304
 30
0.0
 10
195.1988038785628
 20
14.91163289269914
 30
0.0
 10
195.2041306156621
 20
15.04206069552996
 30
0.0
 10
195.1933101388425
 20
15.11465442605899
 30
0.0
 10
195.2090326429875
 20
15.18150469436799
 30
0.0
 10
195.143270813249
 20
15.16580512490825
 30
0.0
 10
195.0756367830764
 20
15.17609243083996
 30
0.0
 10
194.9615885293809
 20
15.17113786847123
 30
0.0
 10
194.8451242674902
 20
15.17414128030475
 30
0.0
 10
194.7306554121477
 20
15.16880303143389
 30
0.0
 10
194.6640324657812
 20
15.18001268074826
 30
0.0
 10
194.5990769715185
 20
15.16349132665012
 30
0.0
 10
194.6107989758708
 20
15.2147372047706
 30
0.0
 10
194.6032830189121
 20
15.25950333784091
 30
0.0
 10
194.6107989878835
 20
15.30426944897962
 30
0.0
 10
194.5990769505347
 20
15.35551536129741
 30
0.0
 10
194.66403263392
 20
15.33899381766815
 30
0.0
 10
194.7306533339821
 20
15.35020571373944
 30
0.0
 10
194.8451352858063
 20
15.34485436710664
 30
0.0
 10
194.9615454436962
 20
15.34791188771117
 30
0.0
 10
195.0757660174641
 20
15.34278499010708
 30
0.0
 10
195.1430150439227
 20
15.35345733355598
 30
0.0
 10
195.2083325941438
 20
15.33742082669077
 30
0.0
 10
195.1941391448553
 20
15.39949685750054
 30
0.0
 10
195.2036059462994
 20
15.46586761628762
 30
0.0
 10
195.1990269004085
 20
15.58239972741966
 30
0.0
 10
195.2007696555948
 20
15.71426685022376
 30
0.0
 10
195.1997551495391
 20
15.85615960150273
 30
0.0
 10
195.2017191344373
 20
15.9876905070258
 30
0.0
 10
195.1964668553851
 20
16.10524577283002
 30
0.0
 10
195.2073408763474
 20
16.16947789001584
 30
0.0
 10
195.1919536641853
 20
16.23108802545047
 30
0.0
 10
195.24075915378
 20
16.21702407382111
 30
0.0
 10
195.2853995564726
 20
16.21954742075314
 30
0.0
 10
195.3538643946742
 20
16.2151279740171
 30
0.0
 10
195.3959106169102
 20
16.20613025544035
 30
0.0
 10
195.4487544758775
 20
16.2141171486651
 30
0.0
 10
195.4207035002014
 20
16.17113917611674
 30
0.0
 10
195.3749142248594
 20
16.18259552043837
 30
0.0
 10
195.3869539073264
 20
16.12173520005137
 30
0.0
 10
195.3796086070641
 20
16.05769299468773
 30
0.0
 10
195.3831195826162
 20
15.94909368863911
 30
0.0
 10
195.3819806760173
 20
15.82494319144753
 30
0.0
 10
195.3819174780263
 20
15.69189719829878
 30
0.0
 10
195.3832872966867
 20
15.56797381249555
 30
0.0
 10
195.3791638801314
 20
15.45868337849339
 30
0.0
 10
195.3877763103564
 20
15.3960858009417
 30
0.0
 10
195.3746757454401
 20
15.33740133296365
 30
0.0
 10
195.4393884328198
 20
15.35362113810902
 30
0.0
 10
195.5060405953155
 20
15.34270260383311
 30
0.0
 10
195.6198779541103
 20
15.34793740173756
 30
0.0
 10
195.7357259122097
 20
15.34485547516913
 30
0.0
 10
195.849692426328
 20
15.35018259812512
 30
0.0
 10
195.91603410181
 20
15.33904208166543
 30
0.0
 10
195.9807188525479
 20
15.35546979593178
 30
0.0
 10
195.9689820772722
 20
15.30425925210051
 30
0.0
 10
195.9765168063041
 20
15.25950334121001
 30
0.0
 10
195.9689820992258
 20
15.21474739010028
 30
0.0
 10
195.9807188140737
 20
15.16353690871041
 30
0.0
 10
195.9160344075252
 20
15.17996427794221
 30
0.0
 10
195.8496886430824
 20
15.1688278444727
 30
0.0
 10
195.7357459487012
 20
15.17413115893121
 30
0.0
 10
195.6197995623054
 20
15.17114764593544
 30
0.0
 10
195.5062756882122
 20
15.17606892268395
 30
0.0
 10
195.4389231318804
 20
15.1658508751352
 30
0.0
 10
195.3734285122495
 20
15.18145996138816
 30
0.0
 10
195.3891713619218
 20
15.11463851827411
 30
0.0
 10
195.3783275998212
 20
15.04207057815879
 30
0.0
 10
195.3836581629793
 20
14.91162247614417
 30
0.0
 10
195.3817136151854
 20
14.76064558185226
 30
0.0
 10
195.3823133683214
 20
14.59322243934158
 30
0.0
 10
195.3821506559605
 20
14.42656176118372
 30
0.0
 10
195.3821895488135
 20
14.27360142921636
 30
0.0
 10
195.38218164131
 20
14.14849178985705
 30
0.0
 10
195.3821828382744
 20
14.0650789099142
 30
0.0
 10
195.3821827716208
 20
14.02491778281976
 30
0.0
 10
195.3821827564383
 20
14.01410517385757
 30
0.0
 11
195.3821827564383
 21
14.01410517385757
 31
0.0
 11
195.4100014883675
 21
14.01410517385757
 31
0.0
 11
195.4833417816353
 21
14.01410517385757
 31
0.0
 11
195.5870297824622
 21
14.01410517385757
 31
0.0
 11
195.7058916370687
 21
14.01410517385757
 31
0.0
 11
195.8247534916751
 21
14.01410517385757
 31
0.0
 11
195.928441492502
 21
14.01410517385757
 31
0.0
 11
196.0017817857698
 21
14.01410517385757
 31
0.0
 11
196.029600517699
 21
14.01410517385757
 31
0.0
 11
196.029600517699
 21
13.9865168492117
 31
0.0
 11
196.029600517699
 21
13.92582253499077
 31
0.0
 11
196.029600517699
 21
13.86512822076984
 31
0.0
 11
196.029600517699
 21
13.83753989612397
 31
0.0
 11
195.9994901593494
 21
13.83753989612397
 31
0.0
 11
195.9162438745004
 21
13.83753989612397
 31
0.0
 11
195.7904888484521
 21
13.83753989612397
 31
0.0
 11
195.6328522665041
 21
13.83753989612397
 31
0.0
 11
195.4539613139564
 21
13.83753989612397
 31
0.0
 11
195.2644431761089
 21
13.83753989612397
 31
0.0
 11
195.0749250382613
 21
13.83753989612397
 31
0.0
 11
194.8960340857136
 21
13.83753989612397
 31
0.0
 11
194.7383975037656
 21
13.83753989612397
 31
0.0
 11
194.6126424777172
 21
13.83753989612397
 31
0.0
 11
194.5293961928683
 21
13.83753989612397
 31
0.0
 11
194.4992858345187
 21
13.83753989612397
 31
0.0
 11
194.4992858345187
 21
13.86512822076984
 31
0.0
 11
194.4992858345187
 21
13.92582253499077
 31
0.0
 11
194.4992858345187
 21
13.9865168492117
 31
0.0
 11
194.4992858345187
 21
14.01410517385757
 31
0.0
 11
194.5294068064947
 21
14.01410517385757
 31
0.0
 11
194.608816641704
 21
14.01410517385757
 31
0.0
 11
194.721085719069
 21
14.01410517385757
 31
0.0
 11
194.8497844175118
 21
14.01410517385757
 31
0.0
 11
194.9784831159545
 21
14.01410517385757
 31
0.0
 11
195.0907521933195
 21
14.01410517385757
 31
0.0
 11
195.1701620285289
 21
14.01410517385757
 31
0.0
 11
195.2002830005048
 21
14.01410517385757
 31
0.0
 11
195.2002830005048
 21
14.04654305523835
 31
0.0
 11
195.2002830005048
 21
14.1345887332719
 31
0.0
 11
195.2002830005048
 21
14.26434025879503
 31
0.0
 11
195.2002830005048
 21
14.42189568264454
 31
0.0
 11
195.2002830005048
 21
14.59335305565724
 31
0.0
 11
195.2002830005048
 21
14.76481042866994
 31
0.0
 11
195.2002830005048
 21
14.92236585251945
 31
0.0
 11
195.2002830005048
 21
15.05211737804258
 31
0.0
 11
195.2002830005048
 21
15.14016305607613
 31
0.0
 11
195.2002830005048
 21
15.17260093745691
 31
0.0
 11
195.1673826485529
 21
15.17260093745691
 31
0.0
 11
195.0825343724662
 21
15.17260093745691
 31
0.0
 11
194.9665173418988
 21
15.17260093745691
 31
0.0
 11
194.8401107265044
 21
15.17260093745691
 31
0.0
 11
194.724093695937
 21
15.17260093745691
 31
0.0
 11
194.6392454198503
 21
15.17260093745691
 31
0.0
 11
194.6063450678984
 21
15.17260093745691
 31
0.0
 11
194.6063450678984
 21
15.19975793614803
 31
0.0
 11
194.6063450678984
 21
15.2595033332685
 31
0.0
 11
194.6063450678984
 21
15.31924873038898
 31
0.0
 11
194.6063450678984
 21
15.3464057290801
 31
0.0
 11
194.6392454198504
 21
15.3464057290801
 31
0.0
 11
194.724093695937
 21
15.3464057290801
 31
0.0
 11
194.8401107265044
 21
15.3464057290801
 31
0.0
 11
194.9665173418988
 21
15.3464057290801
 31
0.0
 11
195.0825343724662
 21
15.3464057290801
 31
0.0
 11
195.1673826485529
 21
15.3464057290801
 31
0.0
 11
195.2002830005048
 21
15.3464057290801
 31
0.0
 11
195.2002830005048
 21
15.3765001173137
 31
0.0
 11
195.2002830005048
 21
15.45715307777974
 31
0.0
 11
195.2002830005048
 21
15.57391930412609
 31
0.0
 11
195.2002830005048
 21
15.71235349000063
 31
0.0
 11
195.2002830005048
 21
15.85801032905124
 31
0.0
 11
195.2002830005048
 21
15.99644451492578
 31
0.0
 11
195.2002830005048
 21
16.11321074127214
 31
0.0
 11
195.2002830005048
 21
16.19386370173817
 31
0.0
 11
195.2002830005048
 21
16.22395808997177
 31
0.0
 11
195.2250405288618
 21
16.22228324219442
 31
0.0
 11
195.2840777118669
 21
16.21828937441765
 31
0.0
 11
195.3545414464214
 21
16.21352249997441
 31
0.0
 11
195.4135786294265
 21
16.20952863219765
 31
0.0
 11
195.4383361577835
 21
16.20785378442029
 31
0.0
 11
195.423306722403
 21
16.1841581420651
 31
0.0
 11
195.3821827564383
 21
16.17047697887404
 31
0.0
 11
195.3821827564383
 21
16.14221664794832
 31
0.0
 11
195.3821827564383
 21
16.0664789610674
 31
0.0
 11
195.3821827564383
 21
15.95682887707561
 31
0.0
 11
195.3821827564383
 21
15.82683135481731
 31
0.0
 11
195.3821827564383
 21
15.69005135313683
 31
0.0
 11
195.3821827564383
 21
15.56005383087853
 31
0.0
 11
195.3821827564383
 21
15.45040374688674
 31
0.0
 11
195.3821827564383
 21
15.37466606000582
 31
0.0
 11
195.3821827564383
 21
15.3464057290801
 31
0.0
 11
195.4149350096115
 21
15.3464057290801
 31
0.0
 11
195.4994013467422
 21
15.3464057290801
 31
0.0
 11
195.6148961342476
 21
15.3464057290801
 31
0.0
 11
195.7407337385445
 21
15.3464057290801
 31
0.0
 11
195.8562285260498
 21
15.3464057290801
 31
0.0
 11
195.9406948631806
 21
15.3464057290801
 31
0.0
 11
195.9734471163538
 21
15.3464057290801
 31
0.0
 11
195.9734471163538
 21
15.31924873038898
 31
0.0
 11
195.9734471163538
 21
15.2595033332685
 31
0.0
 11
195.9734471163538
 21
15.19975793614803
 31
0.0
 11
195.9734471163538
 21
15.17260093745691
 31
0.0
 11
195.9406948631806
 21
15.17260093745691
 31
0.0
 11
195.8562285260498
 21
15.17260093745691
 31
0.0
 11
195.7407337385445
 21
15.17260093745691
 31
0.0
 11
195.6148961342476
 21
15.17260093745691
 31
0.0
 11
195.4994013467422
 21
15.17260093745691
 31
0.0
 11
195.4149350096114
 21
15.17260093745691
 31
0.0
 11
195.3821827564383
 21
15.17260093745691
 31
0.0
 11
195.3821827564383
 21
15.14016305607613
 31
0.0
 11
195.3821827564383
 21
15.05211737804258
 31
0.0
 11
195.3821827564383
 21
14.92236585251945
 31
0.0
 11
195.3821827564383
 21
14.76481042866994
 31
0.0
 11
195.3821827564383
 21
14.59335305565724
 31
0.0
 11
195.3821827564383
 21
14.42189568264454
 31
0.0
 11
195.3821827564383
 21
14.26434025879503
 31
0.0
 11
195.3821827564383
 21
14.1345887332719
 31
0.0
 11
195.3821827564383
 21
14.04654305523835
 31
0.0
 11
195.3821827564383
 21
14.01410517385757
 31
0.0
  0
SPLINE
  5
AC
102
{ACAD_REACTORS
330
C9
102
}
330
48
100
AcDbEntity
  8
_U_30EC_U_30A4_U_30E4_U_30FC_1
  6
Continuous
 62
     2
100
AcDbSpline
210
0.0
220
0.0
230
1.0
 70
    11
 71
     3
 72
   131
 73
   127
 74
   125
 42
0.000000001
 43
0.0000000001
 44
0.00000001
 40
0.0
 40
0.0
 40
0.0
 40
0.0
 40
0.0195577029826198
 40
0.0426490537461581
 40
0.2863607575856625
 40
0.534494843618929
 40
0.7842238845573187
 40
0.8737315789467373
 40
0.9803832810312889
 40
1.092842274517037
 40
1.199761146656796
 40
1.2897887681865
 40
1.35157358078619
 40
1.370727117561419
 40
1.416400936017829
 40
1.470914848355973
 40
1.516588666791762
 40
1.535742203552843
 40
1.634216592293195
 40
1.760283341175031
 40
1.897966686682092
 40
2.031216387368915
 40
2.049689751137909
 40
2.101115601646845
 40
2.179502577739962
 40
2.278859318314077
 40
2.393194462258734
 40
2.516516648383848
 40
2.642834515405977
 40
2.766156701983479
 40
2.880491846754593
 40
2.979848588358636
 40
3.058235565443813
 40
3.109661416668967
 40
3.128134780704143
 40
3.14678374238646
 40
3.19125434331532
 40
3.244332157315979
 40
3.288802758225883
 40
3.307451719895126
 40
3.327717853844739
 40
3.383747753580098
 40
3.468388665924488
 40
3.574487837698797
 40
3.694892515728901
 40
3.82244994685204
 40
3.950007377920429
 40
4.070412055800521
 40
4.176511227368076
 40
4.261152139501522
 40
4.317182039076716
 40
4.337448172964635
 40
4.620011002696244
 40
4.885096638397514
 40
4.94537304351833
 40
5.014107710488648
 40
5.070481727652047
 40
5.319246955636571
 40
5.584812164506042
 40
5.859000912056895
 40
6.133746937542077
 40
6.40173221296888
 40
6.420736683995471
 40
6.472845717451121
 40
6.550702743894049
 40
6.646951193874258
 40
6.754234497930582
 40
6.86519608658736
 40
6.972479390357818
 40
7.06872783977198
 40
7.146584865450989
 40
7.198693898189219
 40
7.217698368905359
 40
7.234950401630836
 40
7.276089864269879
 40
7.325191803515986
 40
7.366331266090369
 40
7.383583298769719
 40
7.402779163492096
 40
7.453386443254527
 40
7.524934666445529
 40
7.606953361405869
 40
7.68897205642902
 40
7.760520279784271
 40
7.811127559734513
 40
7.830323424546134
 40
7.847844055299764
 40
7.894799345666805
 40
7.962779392744493
 40
8.04337429356054
 40
8.128174145149446
 40
8.20876904481725
 40
8.276749090376951
 40
8.32370437966951
 40
8.341225010056244
 40
8.358497614800392
 40
8.401679126686597
 40
8.457815092185655
 40
8.51395105772806
 40
8.557132569708015
 40
8.574405174505058
 40
8.602340668616419
 40
8.643455660539962
 40
8.66322527196663
 40
8.715345156564277
 40
8.789031889628612
 40
8.873502045520341
 40
8.957972194323965
 40
9.031658925567855
 40
9.083778811234547
 40
9.103548423003009
 40
9.119550083123546
 40
9.160817522379848
 40
9.217244429110213
 40
9.278724491644699
 40
9.335151398295483
 40
9.376418837357779
 40
9.392420497300566
 40
9.401196302734785
 40
9.41749422938426
 40
9.426270027749533
 40
9.440875075477566
 40
9.475702496998744
 40
9.517270709865906
 40
9.552098131994073
 40
9.566703169884281
 40
9.566703169884281
 40
9.566703169884281
 40
9.566703169884281
 10
194.6170254148479
 20
15.67015871511028
 30
0.0
 10
194.6134345093371
 20
15.6645369070216
 30
0.0
 10
194.6056039123625
 20
15.65227754419112
 30
0.0
 10
194.5129968974546
 20
15.61601916040965
 30
0.0
 10
194.4887622233247
 20
15.40148444212716
 30
0.0
 10
194.3858709845938
 20
15.22197284509707
 30
0.0
 10
194.1220492364305
 20
15.03615573798146
 30
0.0
 10
194.2845471569179
 20
14.95959336566081
 30
0.0
 10
194.3607225760838
 20
14.89856693195442
 30
0.0
 10
194.4492171072758
 20
14.83515804544759
 30
0.0
 10
194.5389930233111
 20
14.77525634219561
 30
0.0
 10
194.5883817636046
 20
14.72102154849207
 30
0.0
 10
194.6745708157382
 20
14.69286240541834
 30
0.0
 10
194.641126067423
 20
14.65713309652811
 30
0.0
 10
194.621467116631
 20
14.62550387991906
 30
0.0
 10
194.5919888217882
 20
14.58475872796069
 30
0.0
 10
194.5688989446031
 20
14.55504663489643
 30
0.0
 10
194.5380205968357
 20
14.50211422668494
 30
0.0
 10
194.472919336574
 20
14.62740334938902
 30
0.0
 10
194.3796000122415
 20
14.68213900233934
 30
0.0
 10
194.2950636285138
 20
14.73916423939343
 30
0.0
 10
194.1722498125743
 20
14.89675287427523
 30
0.0
 10
194.1764450847301
 20
14.82035806766836
 30
0.0
 10
194.1751478652677
 20
14.77361280161296
 30
0.0
 10
194.1758126448076
 20
14.695847858126
 30
0.0
 10
194.1755549986957
 20
14.59902068324423
 30
0.0
 10
194.1756431239921
 20
14.48650279078809
 30
0.0
 10
194.1756077302282
 20
14.365240859457
 30
0.0
 10
194.1756511758278
 20
14.24086897858961
 30
0.0
 10
194.1755199942406
 20
14.11967683631337
 30
0.0
 10
194.1759477562046
 20
14.00691148919743
 30
0.0
 10
194.174667820231
 20
13.91082913768744
 30
0.0
 10
194.1779759851044
 20
13.831138264687
 30
0.0
 10
194.1715197740086
 20
13.78815175788784
 30
0.0
 10
194.1806208705556
 20
13.74955432372043
 30
0.0
 10
194.1447910339935
 20
13.7581088772407
 30
0.0
 10
194.1115223815252
 20
13.75342519985446
 30
0.0
 10
194.060456257604
 20
13.75351298759784
 30
0.0
 10
194.0269723972813
 20
13.75794430283821
 30
0.0
 10
193.9907585408754
 20
13.74960793842509
 30
0.0
 10
194.0009782568665
 20
13.79145277179284
 30
0.0
 10
193.9936487887773
 20
13.83778560820173
 30
0.0
 10
193.9973633136103
 20
13.92374831106015
 30
0.0
 10
193.9959480554896
 20
14.02605142704849
 30
0.0
 10
193.9964105554638
 20
14.14453223931512
 30
0.0
 10
193.996277368623
 20
14.26957683153355
 30
0.0
 10
193.9963015910045
 20
14.3947582810705
 30
0.0
 10
193.9963354925551
 20
14.51286645379058
 30
0.0
 10
193.9962060293132
 20
14.61628748709516
 30
0.0
 10
193.9965507549081
 20
14.69932036153667
 30
0.0
 10
193.995869827869
 20
14.75143368521243
 30
0.0
 10
193.9994586600624
 20
14.87912907821361
 30
0.0
 10
193.7826171386436
 20
14.58048716819621
 30
0.0
 10
193.6021354921951
 20
14.35263981511515
 30
0.0
 10
193.5490322295611
 20
14.49373443289814
 30
0.0
 10
193.5200429133149
 20
14.54325767560943
 30
0.0
 10
193.419664806282
 20
14.64641779790107
 30
0.0
 10
193.7405127723261
 20
14.7269503502378
 30
0.0
 10
193.868989700543
 20
14.91066283036435
 30
0.0
 10
194.0906454325358
 20
15.11931995771763
 30
0.0
 10
194.1770224894068
 20
15.29339211228345
 30
0.0
 10
194.4549394229074
 20
15.56967051342512
 30
0.0
 10
194.3346247839284
 20
15.56534559551115
 30
0.0
 10
194.2863197351348
 20
15.56614856202553
 30
0.0
 10
194.2102377454905
 20
15.56574582146585
 30
0.0
 10
194.116701000975
 20
15.56590275611611
 30
0.0
 10
194.0117594788557
 20
15.56582502576224
 30
0.0
 10
193.9033887738717
 20
15.56595464378556
 30
0.0
 10
193.7981454235897
 20
15.56554393490692
 30
0.0
 10
193.7056237819412
 20
15.56682073671592
 30
0.0
 10
193.6268130800707
 20
15.5634076653485
 30
0.0
 10
193.5839674565379
 20
15.57023350036321
 30
0.0
 10
193.5449499586516
 20
15.56065064201124
 30
0.0
 10
193.5526365271863
 20
15.59420779565543
 30
0.0
 10
193.5485464404312
 20
15.62523550322234
 30
0.0
 10
193.5485531368814
 20
15.672365292709
 30
0.0
 10
193.5526239724911
 20
15.70340941646779
 30
0.0
 10
193.5449495574582
 20
15.73701861635901
 30
0.0
 10
193.5834819405495
 20
15.72748410420872
 30
0.0
 10
193.624122801448
 20
15.73397435498071
 30
0.0
 10
193.6951471850463
 20
15.73100150650254
 30
0.0
 10
193.7729318149633
 20
15.73174761399158
 30
0.0
 10
193.8507292246474
 20
15.73247814044525
 30
0.0
 10
193.9217232089907
 20
15.7295423551416
 30
0.0
 10
193.962427979182
 20
15.73595468772952
 30
0.0
 10
194.000985348991
 20
15.72650524176004
 30
0.0
 10
193.9927342754927
 20
15.76264692158784
 30
0.0
 10
193.9982346669358
 20
15.80129837613227
 30
0.0
 10
193.9955754206163
 20
15.86913528561839
 30
0.0
 10
193.9965815471533
 20
15.9459164153874
 30
0.0
 10
193.9960178018319
 20
16.02849393582757
 30
0.0
 10
193.9970714526592
 20
16.10517329229878
 30
0.0
 10
193.994267586313
 20
16.173319907767
 30
0.0
 10
194.0000702721304
 20
16.21132399809346
 30
0.0
 10
193.9915654551158
 20
16.24758448077646
 30
0.0
 10
194.0255610233125
 20
16.23755723771853
 30
0.0
 10
194.05945756831
 20
16.24073266813706
 30
0.0
 10
194.1126669060346
 20
16.2350896564061
 30
0.0
 10
194.1660768574483
 20
16.23434774436425
 30
0.0
 10
194.199591464949
 20
16.2281922348298
 30
0.0
 10
194.2388086183039
 20
16.23346029773593
 30
0.0
 10
194.2120263698492
 20
16.1925338079349
 30
0.0
 10
194.1708111001723
 20
16.20371204538111
 30
0.0
 10
194.1782641540874
 20
16.15867056192124
 30
0.0
 10
194.1742227952184
 20
16.11412278028144
 30
0.0
 10
194.176171404964
 20
16.04223572621703
 30
0.0
 10
194.1752364849758
 20
15.96168630588771
 30
0.0
 10
194.176510719003
 20
15.88173995404994
 30
0.0
 10
194.1732043793863
 20
15.80841837083183
 30
0.0
 10
194.1802106179961
 20
15.76688643002568
 30
0.0
 10
194.1701440380126
 20
15.72752418568113
 30
0.0
 10
194.2029814803921
 20
15.73468063430981
 30
0.0
 10
194.236457729648
 20
15.73027243137945
 30
0.0
 10
194.2915053476019
 20
15.73217943347897
 30
0.0
 10
194.3489502595314
 20
15.73185366407288
 30
0.0
 10
194.4023026248309
 20
15.73106308733081
 30
0.0
 10
194.4398540896638
 20
15.73313959118074
 30
0.0
 10
194.4623172523237
 20
15.73022338167109
 30
0.0
 10
194.4751678073731
 20
15.73572552644056
 30
0.0
 10
194.4858255685888
 20
15.7380111819779
 30
0.0
 10
194.4986635650143
 20
15.74494972588052
 30
0.0
 10
194.5145991033071
 20
15.72853046313672
 30
0.0
 10
194.5410623920891
 20
15.71709122319449
 30
0.0
 10
194.5726805253757
 20
15.6964468783519
 30
0.0
 10
194.5987255892151
 20
15.68116869628295
 30
0.0
 10
194.6128517723973
 20
15.67266976323184
 30
0.0
 10
194.6170254148479
 20
15.67015871511028
 30
0.0
 11
194.6170254148479
 21
15.67015871511028
 31
0.0
 11
194.6049990002243
 21
15.65473571164188
 31
0.0
 11
194.5848961795565
 21
15.64337406233916
 31
0.0
 11
194.4778986355813
 21
15.42440620231159
 31
0.0
 11
194.3477039934324
 21
15.21317201512161
 31
0.0
 11
194.1996540366071
 21
15.01206059027479
 31
0.0
 11
194.2734958253735
 21
14.96147384935379
 31
0.0
 11
194.36056643118
 21
14.89988411653739
 31
0.0
 11
194.4518003750404
 21
14.83413160594425
 31
0.0
 11
194.5381321779687
 21
14.77105653169304
 31
0.0
 11
194.6104963609787
 21
14.71749910790241
 31
0.0
 11
194.6598274450843
 21
14.68029954869104
 31
0.0
 11
194.6486940702213
 21
14.66471410869494
 31
0.0
 11
194.6221452532403
 21
14.62754882870424
 31
0.0
 11
194.5904579555533
 21
14.58319026871533
 31
0.0
 11
194.5639091385723
 21
14.54602498872462
 31
0.0
 11
194.5527757637093
 21
14.53043954872852
 31
0.0
 11
194.4807013362947
 21
14.59754008690618
 31
0.0
 11
194.385285698538
 21
14.67993354174669
 31
0.0
 11
194.279326415217
 21
14.76785017366916
 31
0.0
 11
194.175621051109
 21
14.85152024309267
 31
0.0
 11
194.175621051109
 21
14.83304687900863
 31
0.0
 11
194.175621051109
 21
14.78162102763955
 31
0.0
 11
194.175621051109
 21
14.70323405030999
 31
0.0
 11
194.175621051109
 21
14.60387730834449
 31
0.0
 11
194.175621051109
 21
14.4895421630676
 31
0.0
 11
194.175621051109
 21
14.36621997580389
 31
0.0
 11
194.175621051109
 21
14.2399021078779
 31
0.0
 11
194.175621051109
 21
14.11657992061419
 31
0.0
 11
194.175621051109
 21
14.0022447753373
 31
0.0
 11
194.175621051109
 21
13.9028880333718
 31
0.0
 11
194.175621051109
 21
13.82450105604223
 31
0.0
 11
194.175621051109
 21
13.77307520467316
 31
0.0
 11
194.175621051109
 21
13.75460184058912
 31
0.0
 11
194.1569720893626
 21
13.75460184058912
 31
0.0
 11
194.1125014882749
 21
13.75460184058912
 31
0.0
 11
194.0594236740736
 21
13.75460184058912
 31
0.0
 11
194.0149530729859
 21
13.75460184058912
 31
0.0
 11
193.9963041112395
 21
13.75460184058912
 31
0.0
 11
193.9963041112395
 21
13.77486797460219
 31
0.0
 11
193.9963041112395
 21
13.83089787452066
 31
0.0
 11
193.9963041112395
 21
13.91553878716347
 31
0.0
 11
193.9963041112395
 21
14.02163795934953
 31
0.0
 11
193.9963041112395
 21
14.14204263789775
 31
0.0
 11
193.9963041112395
 21
14.26960006962705
 31
0.0
 11
193.9963041112395
 21
14.39715750135636
 31
0.0
 11
193.9963041112395
 21
14.51756217990458
 31
0.0
 11
193.9963041112395
 21
14.62366135209064
 31
0.0
 11
193.9963041112395
 21
14.70830226473344
 31
0.0
 11
193.9963041112395
 21
14.76433216465193
 31
0.0
 11
193.9963041112395
 21
14.78459829866499
 31
0.0
 11
193.7883272849481
 21
14.59331998274057
 31
0.0
 11
193.5763486358425
 21
14.43414885430811
 31
0.0
 11
193.5495629014482
 21
14.48814671952095
 31
0.0
 11
193.5138765415024
 21
14.54689140572026
 31
0.0
 11
193.4799697494124
 21
14.59192871537977
 31
0.0
 11
193.6830287742319
 21
14.73563387201055
 31
0.0
 11
193.881853195826
 21
14.91168423529989
 31
0.0
 11
194.0677041444178
 21
15.11327514524951
 31
0.0
 11
194.2318427502303
 21
15.3336019418611
 31
0.0
 11
194.3655301434864
 21
15.56585996513636
 31
0.0
 11
194.3465256724482
 21
15.56585996513636
 31
0.0
 11
194.2944166389562
 21
15.56585996513636
 31
0.0
 11
194.2165596124447
 21
15.56585996513636
 31
0.0
 11
194.1203111623478
 21
15.56585996513636
 31
0.0
 11
194.0130278580997
 21
15.56585996513636
 31
0.0
 11
193.9020662691345
 21
15.56585996513636
 31
0.0
 11
193.7947829648864
 21
15.56585996513636
 31
0.0
 11
193.6985345147895
 21
15.56585996513636
 31
0.0
 11
193.620677488278
 21
15.56585996513636
 31
0.0
 11
193.568568454786
 21
15.56585996513636
 31
0.0
 11
193.5495639837478
 21
15.56585996513636
 31
0.0
 11
193.5495639837478
 21
15.58311199790982
 31
0.0
 11
193.5495639837478
 21
15.62425146067732
 31
0.0
 11
193.5495639837478
 21
15.67335340010949
 31
0.0
 11
193.5495639837478
 21
15.71449286287699
 31
0.0
 11
193.5495639837478
 21
15.73174489565045
 31
0.0
 11
193.5687598486009
 21
15.73174489565045
 31
0.0
 11
193.6193671286684
 21
15.73174489565045
 31
0.0
 11
193.690915352212
 21
15.73174489565045
 31
0.0
 11
193.7729340474937
 21
15.73174489565045
 31
0.0
 11
193.8549527427753
 21
15.73174489565045
 31
0.0
 11
193.9265009663189
 21
15.73174489565045
 31
0.0
 11
193.9771082463864
 21
15.73174489565045
 31
0.0
 11
193.9963041112395
 21
15.73174489565045
 31
0.0
 11
193.9963041112395
 21
15.74926552655218
 31
0.0
 11
193.9963041112395
 21
15.79622081736882
 31
0.0
 11
193.9963041112395
 21
15.86420086526753
 31
0.0
 11
193.9963041112395
 21
15.94479576741549
 31
0.0
 11
193.9963041112395
 21
16.02959562097986
 31
0.0
 11
193.9963041112395
 21
16.11019052312782
 31
0.0
 11
193.9963041112395
 21
16.17817057102653
 31
0.0
 11
193.9963041112395
 21
16.22512586184317
 31
0.0
 11
193.9963041112395
 21
16.2426464927449
 31
0.0
 11
194.0135484112111
 21
16.24165806167519
 31
0.0
 11
194.0566591611401
 21
16.23918698400091
 31
0.0
 11
194.1127031360477
 21
16.23597458302435
 31
0.0
 11
194.1687471109553
 21
16.2327621820478
 31
0.0
 11
194.2118578608843
 21
16.23029110437352
 31
0.0
 11
194.2291021608559
 21
16.22930267330381
 31
0.0
 11
194.2143774674851
 21
16.2055629337264
 31
0.0
 11
194.175621051109
 21
16.19183767331312
 31
0.0
 11
194.175621051109
 21
16.17206806177293
 31
0.0
 11
194.175621051109
 21
16.11994817680333
 31
0.0
 11
194.175621051109
 21
16.04626144288079
 31
0.0
 11
194.175621051109
 21
15.96179128448179
 31
0.0
 11
194.175621051109
 21
15.87732112608278
 31
0.0
 11
194.175621051109
 21
15.80363439216024
 31
0.0
 11
194.175621051109
 21
15.75151450719064
 31
0.0
 11
194.175621051109
 21
15.73174489565045
 31
0.0
 11
194.1916227112935
 21
15.73174489565045
 31
0.0
 11
194.232890150717
 21
15.73174489565045
 31
0.0
 11
194.2893170576837
 21
15.73174489565045
 31
0.0
 11
194.3507971204981
 21
15.73174489565045
 31
0.0
 11
194.4072240274648
 21
15.73174489565045
 31
0.0
 11
194.4484914668882
 21
15.73174489565045
 31
0.0
 11
194.4644931270728
 21
15.73174489565045
 31
0.0
 11
194.4728206422924
 21
15.73451387455921
 31
0.0
 11
194.4882860277004
 21
15.73965626396118
 31
0.0
 11
194.49661354292
 21
15.74242524286994
 31
0.0
 11
194.5091363776005
 21
15.73490952398294
 31
0.0
 11
194.5389985218386
 21
15.71698742509854
 31
0.0
 11
194.5746404359293
 21
15.69559653288168
 31
0.0
 11
194.6045025801674
 21
15.67767443399729
 31
0.0
 11
194.6170254148479
 21
15.67015871511028
 31
0.0
  0
SPLINE
  5
AD
102
{ACAD_REACTORS
330
CA
102
}
330
48
100
AcDbEntity
  8
_U_30EC_U_30A4_U_30E4_U_30FC_1
  6
Continuous
 62
     2
100
AcDbSpline
210
0.0
220
0.0
230
1.0
 70
    11
 71
     3
 72
    91
 73
    87
 74
    85
 42
0.000000001
 43
0.0000000001
 44
0.00000001
 40
0.0
 40
0.0
 40
0.0
 40
0.0
 40
0.0267532254356701
 40
0.0856103386464102
 40
0.1444674521996621
 40
0.1712206856618514
 40
0.2039416005642536
 40
0.2955601971652484
 40
0.4362601844616918
 40
0.616225284450725
 40
0.8256392189704698
 40
1.054685709844411
 40
1.293548478893531
 40
1.532411247938303
 40
1.761457738799568
 40
1.970871673298537
 40
2.150836773256732
 40
2.291536760495593
 40
2.3831553568367
 40
2.41587628410132
 40
2.442629517487965
 40
2.501486630949095
 40
2.560343744424242
 40
2.587096977826515
 40
2.617068194440942
 40
2.699247336756083
 40
2.822032643466396
 40
2.973822353257925
 40
3.143014704823368
 40
3.318007936879947
 40
3.48720028818678
 40
3.63898999754826
 40
3.761775303794759
 40
3.843954445753094
 40
3.87392566222979
 40
3.890812773500497
 40
3.907699884771676
 40
3.937960767857282
 40
3.980983618142314
 40
4.199085915228459
 40
4.43944433923725
 40
4.677588241260894
 40
5.05069831783778
 40
5.448212454763166
 40
5.855291218044691
 40
6.138575438885367
 40
6.417434507584195
 40
6.444551104393879
 40
6.50420761736318
 40
6.563864130314505
 40
6.590980727104099
 40
6.848609460381482
 40
7.10961199066844
 40
7.352910904446105
 40
7.557830220705476
 40
7.587518925913393
 40
7.652834077375811
 40
7.718149228845746
 40
7.747837934062049
 40
7.854880190301003
 40
7.976511257403541
 40
8.369487896592343
 40
8.757514959223636
 40
9.126072419331098
 40
9.460639380392161
 40
9.746695593035902
 40
9.77756994311868
 40
9.80705032093178
 40
9.830377336128912
 40
9.886003295435987
 40
9.952395569429903
 40
10.00802152870626
 40
10.03134854388218
 40
10.21356951009589
 40
10.42203479292871
 40
10.66154556731064
 40
10.91693789564304
 40
11.15832906556565
 40
11.18982674596623
 40
11.27286608520407
 40
11.39026653033349
 40
11.52484752840885
 40
11.65942852648447
 40
11.77682897161483
 40
11.85986831085682
 40
11.89136598230428
 40
11.89136598230428
 40
11.89136598230428
 40
11.89136598230428
 10
190.7027885008196
 20
14.70699600701772
 30
0.0
 10
190.7028237765288
 20
14.71587847311985
 30
0.0
 10
190.7029366710796
 20
14.74430237047346
 30
0.0
 10
190.7012984568489
 20
14.79409639169803
 30
0.0
 10
190.7069750292911
 20
14.83657564478154
 30
0.0
 10
190.6956928731706
 20
14.88730154856847
 30
0.0
 10
190.7632296979031
 20
14.87012900740109
 30
0.0
 10
190.83880292107
 20
14.88290227165996
 30
0.0
 10
190.9828357056
 20
14.87629729457382
 30
0.0
 10
191.1569419185427
 20
14.87888462206466
 30
0.0
 10
191.3639599611003
 20
14.87800591955553
 30
0.0
 10
191.5894688172378
 20
14.87828207920027
 30
0.0
 10
191.8251162293406
 20
14.87818339658662
 30
0.0
 10
192.0607640531348
 20
14.87828184412767
 30
0.0
 10
192.2862717580626
 20
14.87800678190789
 30
0.0
 10
192.4932934632805
 20
14.87888186270735
 30
0.0
 10
192.6673888915288
 20
14.87630522678446
 30
0.0
 10
192.8114492071986
 20
14.88288290449213
 30
0.0
 10
192.8869691915293
 20
14.87016243405604
 30
0.0
 10
192.9545776037029
 20
14.88726400191686
 30
0.0
 10
192.9430840140676
 20
14.8367478580294
 30
0.0
 10
192.9505104581733
 20
14.79253252226501
 30
0.0
 10
192.9428838927986
 20
14.7486796650361
 30
0.0
 10
192.9546489459425
 20
14.69878374479327
 30
0.0
 10
192.8930788491983
 20
14.71393227712512
 30
0.0
 10
192.8256791738672
 20
14.70310665350673
 30
0.0
 10
192.7013004056221
 20
14.70852031626236
 30
0.0
 10
192.555442823657
 20
14.70649205390785
 30
0.0
 10
192.3893576440085
 20
14.70715777578387
 30
0.0
 10
192.2188412621724
 20
14.70689643521242
 30
0.0
 10
192.0519790855388
 20
14.70721553391094
 30
0.0
 10
191.9087346827105
 20
14.70635302590762
 30
0.0
 10
191.7773313869834
 20
14.70863300482988
 30
0.0
 10
191.7239859134656
 20
14.70407704374202
 30
0.0
 10
191.6485188456912
 20
14.70999914992877
 30
0.0
 10
191.6769075779232
 20
14.70094169343353
 30
0.0
 10
191.7033652409542
 20
14.6972591226893
 30
0.0
 10
191.6633522907701
 20
14.66654271968275
 30
0.0
 10
191.5713663691867
 20
14.67667591174634
 30
0.0
 10
191.543939620707
 20
14.43032502247785
 30
0.0
 10
191.4478793967234
 20
14.27499558764375
 30
0.0
 10
191.1917277964473
 20
13.94525417931569
 30
0.0
 10
191.7627537732762
 20
14.08430022210452
 30
0.0
 10
192.0173656320516
 20
14.08291779973363
 30
0.0
 10
192.6279647048617
 20
13.99790569242085
 30
0.0
 10
192.3340698578083
 20
14.29685417558204
 30
0.0
 10
192.0133304286516
 20
14.44330856901779
 30
0.0
 10
192.1313543360434
 20
14.50025540818286
 30
0.0
 10
192.1724716466261
 20
14.52420099873348
 30
0.0
 10
192.2156812394411
 20
14.5459975881123
 30
0.0
 10
192.3174574094449
 20
14.60928721253904
 30
0.0
 10
192.4328867625248
 20
14.3514715140878
 30
0.0
 10
192.6329591642277
 20
14.21616041113683
 30
0.0
 10
192.7269077387228
 20
14.03792795138882
 30
0.0
 10
192.9558829746392
 20
13.87997821027048
 30
0.0
 10
192.8596031846708
 20
13.829159725763
 30
0.0
 10
192.8167959763779
 20
13.79881292523055
 30
0.0
 10
192.7718243528779
 20
13.77466130281459
 30
0.0
 10
192.7121720925214
 20
13.72552146747569
 30
0.0
 10
192.6789731061325
 20
13.8599747567361
 30
0.0
 10
192.5582013350795
 20
14.0159426528658
 30
0.0
 10
192.1970976005979
 20
13.88569928059557
 30
0.0
 10
191.8385061955541
 20
13.90224694409483
 30
0.0
 10
191.457092045008
 20
13.89331229351865
 30
0.0
 10
191.170345528289
 20
13.82882671672407
 30
0.0
 10
190.8592055599715
 20
13.94230668192827
 30
0.0
 10
190.8268737818788
 20
13.83122259927767
 30
0.0
 10
190.7896178253318
 20
13.81196313850013
 30
0.0
 10
190.7865737632753
 20
13.85874784087297
 30
0.0
 10
190.7679892860607
 20
13.89806853919135
 30
0.0
 10
190.7512436616778
 20
13.95765983478233
 30
0.0
 10
190.7383730915754
 20
14.00201969871284
 30
0.0
 10
190.7042327806427
 20
14.09106331120199
 30
0.0
 10
190.9482714457754
 20
14.02181042943771
 30
0.0
 10
191.1441394486671
 20
14.00030369057744
 30
0.0
 10
191.2395426381277
 20
14.28226484478463
 30
0.0
 10
191.2945135769597
 20
14.44363045421124
 30
0.0
 10
191.5159619357155
 20
14.71391177589738
 30
0.0
 10
191.3849239381217
 20
14.70548446853735
 30
0.0
 10
191.3110026555853
 20
14.70779008496969
 30
0.0
 10
191.1977459876244
 20
14.70671378321658
 30
0.0
 10
191.0694251807484
 20
14.7070763907651
 30
0.0
 10
190.9404252030415
 20
14.70697724466086
 30
0.0
 10
190.828784094629
 20
14.70699932712572
 30
0.0
 10
190.7514663970026
 20
14.7069957918967
 30
0.0
 10
190.713287653201
 20
14.70699595845081
 30
0.0
 10
190.7027885008196
 20
14.70699600701772
 30
0.0
 11
190.7027885008196
 21
14.70699600701772
 31
0.0
 11
190.7027885008196
 21
14.73374924051797
 31
0.0
 11
190.7027885008196
 21
14.79260635421853
 31
0.0
 11
190.7027885008196
 21
14.85146346791909
 31
0.0
 11
190.7027885008196
 21
14.87821670141935
 31
0.0
 11
190.7355094280989
 21
14.87821670141935
 31
0.0
 11
190.8271280244809
 21
14.87821670141935
 31
0.0
 11
190.9678280117818
 21
14.87821670141935
 31
0.0
 11
191.1477931118179
 21
14.87821670141935
 31
0.0
 11
191.3572070464054
 21
14.87821670141935
 31
0.0
 11
191.5862535373604
 21
14.87821670141935
 31
0.0
 11
191.8251163064992
 21
14.87821670141935
 31
0.0
 11
192.0639790756381
 21
14.87821670141935
 31
0.0
 11
192.2930255665931
 21
14.87821670141935
 31
0.0
 11
192.5024395011806
 21
14.87821670141935
 31
0.0
 11
192.6824046012167
 21
14.87821670141935
 31
0.0
 11
192.8231045885176
 21
14.87821670141935
 31
0.0
 11
192.9147231848996
 21
14.87821670141935
 31
0.0
 11
192.9474441121789
 21
14.87821670141935
 31
0.0
 11
192.9474441121789
 21
14.85146346791909
 31
0.0
 11
192.9474441121789
 21
14.79260635421853
 31
0.0
 11
192.9474441121789
 21
14.73374924051797
 31
0.0
 11
192.9474441121789
 21
14.70699600701772
 31
0.0
 11
192.9174728954758
 21
14.70699600701772
 31
0.0
 11
192.8352937529027
 21
14.70699600701772
 31
0.0
 11
192.7125084457639
 21
14.70699600701772
 31
0.0
 11
192.5607187353642
 21
14.70699600701772
 31
0.0
 11
192.3915263830077
 21
14.70699600701772
 31
0.0
 11
192.2165331499991
 21
14.70699600701772
 31
0.0
 11
192.0473407976426
 21
14.70699600701772
 31
0.0
 11
191.8955510872428
 21
14.70699600701772
 31
0.0
 11
191.7727657801042
 21
14.70699600701772
 31
0.0
 11
191.690586637531
 21
14.70699600701772
 31
0.0
 11
191.6606154208279
 21
14.70699600701772
 31
0.0
 11
191.6766359412525
 21
14.70165583340794
 31
0.0
 11
191.6926564616771
 21
14.69631565979815
 31
0.0
 11
191.670615568142
 21
14.67558114591443
 31
0.0
 11
191.6284861855363
 21
14.6668587153611
 31
0.0
 11
191.5365235541377
 21
14.46909247312657
 31
0.0
 11
191.4279078521763
 21
14.25467511978509
 31
0.0
 11
191.3127500824807
 21
14.0462255905162
 31
0.0
 11
191.685736667502
 21
14.05582441253029
 31
0.0
 11
192.083070003615
 21
14.06781232404995
 31
0.0
 11
192.4899342191145
 21
14.08102711828532
 31
0.0
 11
192.2983119496978
 21
14.28966761302481
 31
0.0
 11
192.0966752013698
 21
14.48229420151831
 31
0.0
 11
192.1204947794749
 21
14.49525327269564
 31
0.0
 11
192.1728978513061
 21
14.52376322928576
 31
0.0
 11
192.2253009231374
 21
14.55227318587587
 31
0.0
 11
192.2491205012425
 21
14.5652322570532
 31
0.0
 11
192.4387101558627
 21
14.39079508370268
 31
0.0
 11
192.6200310940435
 21
14.20305846374091
 31
0.0
 11
192.7777729231147
 21
14.01782380992436
 31
0.0
 11
192.8966252504058
 21
13.85089253500949
 31
0.0
 11
192.8715408217923
 21
13.83501202286069
 31
0.0
 11
192.8163550788425
 21
13.80007489613332
 31
0.0
 11
192.7611693358928
 21
13.76513776940596
 31
0.0
 11
192.7360849072793
 21
13.74925725725716
 31
0.0
 11
192.6775518151612
 21
13.8388782468181
 31
0.0
 11
192.6050015078457
 21
13.93650288221032
 31
0.0
 11
192.2125412924095
 21
13.91636286943759
 31
0.0
 11
191.824947406956
 21
13.89803302999773
 31
0.0
 11
191.4567378976213
 21
13.88202178722395
 31
0.0
 11
191.1224308105412
 21
13.86883756444947
 31
0.0
 11
190.8365441918518
 21
13.8589887850075
 31
0.0
 11
190.821186232174
 21
13.83220523466695
 31
0.0
 11
190.7937434290546
 21
13.82143559057245
 31
0.0
 11
190.7867927192319
 21
13.84370299445577
 31
0.0
 11
190.7702179496548
 21
13.89680218833139
 31
0.0
 11
190.7504351601596
 21
13.96017864553777
 31
0.0
 11
190.7338603905825
 21
14.01327783941338
 31
0.0
 11
190.7269096807598
 21
14.0355452432967
 31
0.0
 11
190.9091199859153
 21
14.03751638912953
 31
0.0
 11
191.1174975848588
 21
14.04356211829472
 31
0.0
 11
191.2303203127216
 21
14.25483550301554
 31
0.0
 11
191.3407936722035
 21
14.48509813155879
 31
0.0
 11
191.4358254265627
 21
14.70699600701772
 31
0.0
 11
191.4043277461597
 21
14.70699600701772
 31
0.0
 11
191.3212884069153
 21
14.70699600701772
 31
0.0
 11
191.2038879617768
 21
14.70699600701772
 31
0.0
 11
191.0693069636912
 21
14.70699600701772
 31
0.0
 11
190.9347259656055
 21
14.70699600701772
 31
0.0
 11
190.817325520467
 21
14.70699600701772
 31
0.0
 11
190.7342861812226
 21
14.70699600701772
 31
0.0
 11
190.7027885008196
 21
14.70699600701772
 31
0.0
  0
SPLINE
  5
AE
102
{ACAD_REACTORS
330
CB
102
}
330
48
100
AcDbEntity
  8
_U_30EC_U_30A4_U_30E4_U_30FC_1
  6
Continuous
 62
     2
100
AcDbSpline
210
0.0
220
0.0
230
1.0
 70
    11
 71
     3
 72
    35
 73
    31
 74
    29
 42
0.000000001
 43
0.0000000001
 44
0.00000001
 40
0.0
 40
0.0
 40
0.0
 40
0.0
 40
0.0335231036620645
 40
0.0713218571712051
 40
0.4278866681487029
 40
0.8116865841964049
 40
1.198190238000062
 40
1.561379546812689
 40
1.659983174622065
 40
1.759315573807201
 40
2.132719617231086
 40
2.525233363588837
 40
2.910815397779702
 40
3.265244364303294
 40
3.592606723582033
 40
3.964386154603982
 40
4.359942131737804
 40
4.758154118639309
 40
4.843846538699917
 40
4.93665006554324
 40
5.256616602537319
 40
5.581707404416052
 40
5.899719158308147
 40
6.198363494280753
 40
6.466301046615783
 40
6.493895311537105
 40
6.559697020196897
 40
6.638234543442472
 40
6.704036252154225
 40
6.731630508423031
 40
6.731630508423031
 40
6.731630508423031
 40
6.731630508423031
 10
191.9736010568669
 20
16.23463843719134
 30
0.0
 10
191.9676006097789
 20
16.22480690542323
 30
0.0
 10
191.9548344099157
 20
16.20388988579798
 30
0.0
 10
191.7949362006554
 20
16.17127126532689
 30
0.0
 10
192.2322025842337
 20
15.88206680336702
 30
0.0
 10
192.4345394828262
 20
15.68041138358439
 30
0.0
 10
192.6819564267973
 20
15.43749387603277
 30
0.0
 10
193.1831513624606
 20
15.36047662757777
 30
0.0
 10
193.012556219897
 20
15.21876939174656
 30
0.0
 10
192.9383299463202
 20
15.01710366209108
 30
0.0
 10
192.6131432248188
 20
15.36956287174726
 30
0.0
 10
192.3277741670664
 20
15.53175212559561
 30
0.0
 10
192.0337604077658
 20
15.73687130053048
 30
0.0
 10
191.8084452691134
 20
16.21827488595455
 30
0.0
 10
191.5993085055521
 20
15.75343046609223
 30
0.0
 10
191.3207873674834
 20
15.54350952252912
 30
0.0
 10
191.0371383177209
 20
15.37424456359984
 30
0.0
 10
190.7078639527831
 20
15.00142360907938
 30
0.0
 10
190.6277012318224
 20
15.19708014459002
 30
0.0
 10
190.4759724909744
 20
15.32491104190597
 30
0.0
 10
190.9083395826794
 20
15.40454031765936
 30
0.0
 10
191.0962565329766
 20
15.60026634915473
 30
0.0
 10
191.3468477420502
 20
15.81632996916755
 30
0.0
 10
191.5714350470162
 20
15.98190992300059
 30
0.0
 10
191.6259775409711
 20
16.26133964636826
 30
0.0
 10
191.7494661029011
 20
16.24737950408079
 30
0.0
 10
191.806027334452
 20
16.24521268867647
 30
0.0
 10
191.8761870984944
 20
16.2404685988136
 30
0.0
 10
191.9333414022105
 20
16.23709429350541
 30
0.0
 10
191.9644190320839
 20
16.23519854711119
 30
0.0
 10
191.9736010568669
 20
16.23463843719134
 30
0.0
 11
191.9736010568669
 21
16.23463843719134
 31
0.0
 11
191.9525319069884
 21
16.20856374969785
 31
0.0
 11
191.9174464559425
 21
16.19450114553469
 31
0.0
 11
192.1512374769094
 21
15.92527961131382
 31
0.0
 11
192.4414585957566
 21
15.6741340796926
 31
0.0
 11
192.7612797483684
 21
15.45710987618784
 31
0.0
 11
193.0838708706289
 21
15.29025232631638
 31
0.0
 11
193.0213299868076
 21
15.21402035584928
 31
0.0
 11
192.9688035818975
 21
15.12971197913424
 31
0.0
 11
192.6436279095814
 21
15.3132640483158
 31
0.0
 11
192.3237227768436
 21
15.54070139743428
 31
0.0
 11
192.0354200158608
 21
15.79673855123309
 31
0.0
 11
191.8050514588095
 21
16.06609003445566
 31
0.0
 11
191.5995531719516
 21
15.81126348721036
 31
0.0
 11
191.3288301341535
 21
15.55645182277756
 31
0.0
 11
191.0119538423246
 21
15.31969466354856
 31
0.0
 11
190.6679957933741
 21
15.11903163191467
 31
0.0
 11
190.6218855341338
 21
15.19126067703553
 31
0.0
 11
190.5636970460348
 21
15.26355586798967
 31
0.0
 11
190.8433040489015
 21
15.41911456961745
 31
0.0
 11
191.1093004621154
 21
15.60601009790405
 31
0.0
 11
191.3499997459746
 21
15.81384496285209
 31
0.0
 11
191.5537153607774
 21
16.03222167446416
 31
0.0
 11
191.7087607668218
 21
16.25074274274287
 31
0.0
 11
191.7363041569865
 21
16.24906789496551
 31
0.0
 11
191.8019845489177
 21
16.24507402718873
 31
0.0
 11
191.880377274771
 21
16.24030715274548
 31
0.0
 11
191.9460576667022
 21
16.2363132849687
 31
0.0
 11
191.9736010568669
 21
16.23463843719134
 31
0.0
  0
SPLINE
  5
AF
102
{ACAD_REACTORS
330
CC
102
}
330
48
100
AcDbEntity
  8
_U_30EC_U_30A4_U_30E4_U_30FC_1
  6
Continuous
 62
     2
100
AcDbSpline
210
0.0
220
0.0
230
1.0
 70
    11
 71
     3
 72
    15
 73
    11
 74
     9
 42
0.000000001
 43
0.0000000001
 44
0.00000001
 40
0.0
 40
0.0
 40
0.0
 40
0.0
 40
0.2785535985096574
 40
0.5215624748198874
 40
0.6076917376040509
 40
0.6938210001741243
 40
0.9405019146455056
 40
1.22169140348914
 40
1.300471877081057
 40
1.379252341684822
 40
1.379252341684822
 40
1.379252341684822
 40
1.379252341684822
 10
189.5681493630999
 20
16.22930267330381
 30
0.0
 10
189.6296017794178
 20
16.17691646592715
 30
0.0
 10
189.7446649974113
 20
16.07882876798222
 30
0.0
 10
190.0397348497243
 20
15.92889785897221
 30
0.0
 10
189.9025147631857
 20
15.84343227515014
 30
0.0
 10
189.8041227843778
 20
15.71085785201554
 30
0.0
 10
189.713003359065
 20
16.0161698578142
 30
0.0
 10
189.3636839480654
 20
16.07967869465374
 30
0.0
 10
189.5119258376571
 20
16.17896509880878
 30
0.0
 10
189.5494081874236
 20
16.21252348402382
 30
0.0
 10
189.5681493630999
 20
16.22930267330381
 30
0.0
 11
189.5681493630999
 21
16.22930267330381
 31
0.0
 11
189.7919222440596
 21
16.06341774278972
 31
0.0
 11
189.9695046306383
 21
15.89753281227564
 31
0.0
 11
189.9066308127979
 21
15.83866743034592
 31
0.0
 11
189.8437569949575
 21
15.7798020484162
 31
0.0
 11
189.6688535117725
 21
15.95375677059491
 31
0.0
 11
189.447825685614
 21
16.12757920110703
 31
0.0
 11
189.507987524357
 21
16.17844093720542
 31
0.0
 11
189.5681493630999
 21
16.22930267330381
 31
0.0
  0
SPLINE
  5
B0
102
{ACAD_REACTORS
330
CD
102
}
330
48
100
AcDbEntity
  8
_U_30EC_U_30A4_U_30E4_U_30FC_1
  6
Continuous
 62
     2
100
AcDbSpline
210
0.0
220
0.0
230
1.0
 70
    11
 71
     3
 72
    75
 73
    71
 74
    69
 42
0.000000001
 43
0.0000000001
 44
0.00000001
 40
0.0
 40
0.0
 40
0.0
 40
0.0
 40
0.0342546099129691
 40
0.1245622414432364
 40
0.2522385480897589
 40
0.3985991922940769
 40
0.5449598364980963
 40
0.6726361431439012
 40
0.7629437746737155
 40
0.7971983935298186
 40
1.101723623449685
 40
1.408591244036689
 40
1.433332471690393
 40
1.487763172450188
 40
1.542193873082013
 40
1.566935100592562
 40
1.923523931821875
 40
2.271755704953675
 40
2.590579755100919
 40
2.858943305581178
 40
2.889120339309196
 40
2.918305855191138
 40
2.941366645531261
 40
2.996357760973155
 40
3.061992318140704
 40
3.116983433626904
 40
3.140044223997584
 40
3.411273122936501
 40
3.732441619741167
 40
3.761068217532864
 40
3.83778749963043
 40
3.948858699126067
 40
4.080541049104445
 40
4.219093782625832
 40
4.350776132722384
 40
4.461847332405718
 40
4.538566614678452
 40
4.5671932125447
 40
4.594907573998958
 40
4.666381453557497
 40
4.764111044011107
 40
4.87059253812591
 40
4.968322128642361
 40
5.039796008287047
 40
5.067510369784506
 40
5.094263603185718
 40
5.153120716668351
 40
5.211977830150794
 40
5.238731063551798
 40
5.272290535139037
 40
5.363380529444898
 40
5.497618415781576
 40
5.660621563453818
 40
5.838007341749519
 40
6.01539311991087
 40
6.178396267038496
 40
6.312634151842447
 40
6.403724143059437
 40
6.437283612672532
 40
6.464036846261148
 40
6.522893960004762
 40
6.581751071484021
 40
6.608504301590967
 40
6.637253941281115
 40
6.711397748902966
 40
6.812778057283579
 40
6.923237199249355
 40
7.024617507623999
 40
7.098761315207652
 40
7.127510946007602
 40
7.127510946007602
 40
7.127510946007602
 40
7.127510946007602
 10
188.4418622390564
 20
14.95849128473265
 30
0.0
 10
188.4418622819707
 20
14.9470731340872
 30
0.0
 10
188.4418624481128
 20
14.9055525784263
 30
0.0
 10
188.4418593081786
 20
14.82146922003772
 30
0.0
 10
188.4418788279801
 20
14.70004497322329
 30
0.0
 10
188.4417912187737
 20
14.55980494047448
 30
0.0
 10
188.442111623523
 20
14.42006556794576
 30
0.0
 10
188.441160590974
 20
14.29745038894928
 30
0.0
 10
188.4431978595967
 20
14.21587074438042
 30
0.0
 10
188.4349433178747
 20
14.06271267077697
 30
0.0
 10
188.74307979409
 20
14.22560236054721
 30
0.0
 10
189.0350645173737
 20
14.39482938688003
 30
0.0
 10
189.0408354448707
 20
14.25973235781911
 30
0.0
 10
189.0455471719891
 20
14.21617221160445
 30
0.0
 10
189.0482535411917
 20
14.17211249350545
 30
0.0
 10
189.0672545672961
 20
14.02272590363136
 30
0.0
 10
188.6583942247302
 20
14.08681172241261
 30
0.0
 10
188.3793710348833
 20
13.97296341411017
 30
0.0
 10
188.1018081587165
 20
13.87364095811141
 30
0.0
 10
187.8099837184401
 20
13.91630687596356
 30
0.0
 10
187.7869144678658
 20
13.8132167974454
 30
0.0
 10
187.7537474383333
 20
13.7869109124447
 30
0.0
 10
187.7480653962739
 20
13.83455309036304
 30
0.0
 10
187.7284214559044
 20
13.8718033611507
 30
0.0
 10
187.7095089485623
 20
13.93007387847564
 30
0.0
 10
187.6942849867707
 20
13.97385201007805
 30
0.0
 10
187.6477246372934
 20
14.08759421046311
 30
0.0
 10
187.9890897312451
 20
14.05576301120046
 30
0.0
 10
188.2679649367387
 20
14.0216143510648
 30
0.0
 10
188.2617753034907
 20
14.16913976479652
 30
0.0
 10
188.2630935452773
 20
14.24013150908832
 30
0.0
 10
188.2624831689948
 20
14.34719767958661
 30
0.0
 10
188.2625871570725
 20
14.47398529785998
 30
0.0
 10
188.2629987964055
 20
14.6084924349605
 30
0.0
 10
188.2613907841969
 20
14.73395549951185
 30
0.0
 10
188.2659902567924
 20
14.84505246719118
 30
0.0
 10
188.256418650221
 20
14.90761886800689
 30
0.0
 10
188.2704001783691
 20
14.96595388295002
 30
0.0
 10
188.2147384386704
 20
14.95289710582239
 30
0.0
 10
188.1575655197821
 20
14.96136307749499
 30
0.0
 10
188.0616048925648
 20
14.95729976080637
 30
0.0
 10
187.963376752282
 20
14.95970889852476
 30
0.0
 10
187.8672582457561
 20
14.95551600613388
 30
0.0
 10
187.8104648525811
 20
14.96429346441164
 30
0.0
 10
187.7550356873384
 20
14.95094936850121
 30
0.0
 10
187.7670679427917
 20
15.00036910959257
 30
0.0
 10
187.7592003173938
 20
15.04393988030396
 30
0.0
 10
187.7666295563828
 20
15.08830469118525
 30
0.0
 10
187.7551930564144
 20
15.13902297763991
 30
0.0
 10
187.8232102370132
 20
15.12162460757743
 30
0.0
 10
187.8968496879747
 20
15.13417450237189
 30
0.0
 10
188.0325064058211
 20
15.12799677011097
 30
0.0
 10
188.1884909024525
 20
15.13029203093084
 30
0.0
 10
188.3615926358143
 20
15.1294096826253
 30
0.0
 10
188.5346942964181
 20
15.13029207142408
 30
0.0
 10
188.6906789811216
 20
15.1279966295555
 30
0.0
 10
188.8263351889797
 20
15.13417486262432
 30
0.0
 10
188.8999756705652
 20
15.12162394218335
 30
0.0
 10
188.9679914174724
 20
15.13902373012142
 30
0.0
 10
188.9565590885922
 20
15.08830130414555
 30
0.0
 10
188.9639539458297
 20
15.04397060811109
 30
0.0
 10
188.956203991227
 20
15.00028307550197
 30
0.0
 10
188.9681203741877
 20
14.95063590098477
 30
0.0
 10
188.9108170223616
 20
14.96461411338426
 30
0.0
 10
188.8520145789773
 20
14.95539755673255
 30
0.0
 10
188.7525293633199
 20
14.9595226816493
 30
0.0
 10
188.649428009835
 20
14.95822760025889
 30
0.0
 10
188.5537846354573
 20
14.95854077077641
 30
0.0
 10
188.4857467971617
 20
14.95848776697146
 30
0.0
 10
188.4514462213443
 20
14.95849051871657
 30
0.0
 10
188.4418622390564
 20
14.95849128473265
 30
0.0
 11
188.4418622390564
 21
14.95849128473265
 31
0.0
 11
188.4418622390564
 21
14.92423666587186
 31
0.0
 11
188.4418622390564
 21
14.83392903432976
 31
0.0
 11
188.4418622390564
 21
14.70625272766679
 31
0.0
 11
188.4418622390564
 21
14.5598920834434
 31
0.0
 11
188.4418622390564
 21
14.41353143922
 31
0.0
 11
188.4418622390564
 21
14.28585513255703
 31
0.0
 11
188.4418622390564
 21
14.19554750101493
 31
0.0
 11
188.4418622390564
 21
14.16129288215414
 31
0.0
 11
188.7391932644567
 21
14.22709475713769
 31
0.0
 11
189.0384623627245
 21
14.29496038212072
 31
0.0
 11
189.0405487124976
 21
14.27030727882828
 31
0.0
 11
189.0451386819987
 21
14.2160704515849
 31
0.0
 11
189.0497286514996
 21
14.16183362434152
 31
0.0
 11
189.0518150012728
 21
14.13718052104908
 31
0.0
 11
188.705639688924
 21
14.05163370140898
 31
0.0
 11
188.3669653138838
 21
13.97060877629901
 31
0.0
 11
188.0563731516688
 21
13.89862764024928
 31
0.0
 11
187.7944444777955
 21
13.8402121877899
 31
0.0
 11
187.7817515029292
 21
13.81283442738012
 31
0.0
 11
187.7569794787513
 21
13.79740260446735
 31
0.0
 11
187.7491867589501
 21
13.81910683390636
 31
0.0
 11
187.7306041194242
 21
13.87086307333786
 31
0.0
 11
187.70842483999
 21
13.93263664943352
 31
0.0
 11
187.689842200464
 21
13.98439288886502
 31
0.0
 11
187.6820494806628
 21
14.00609711830403
 31
0.0
 11
187.9482776335931
 21
14.05794001759666
 31
0.0
 11
188.2626334936289
 21
14.1237396877191
 31
0.0
 11
188.2626334936289
 21
14.15236628569624
 31
0.0
 11
188.2626334936289
 21
14.22908556827499
 31
0.0
 11
188.2626334936289
 21
14.34015676842631
 31
0.0
 11
188.2626334936289
 21
14.47183911912118
 31
0.0
 11
188.2626334936289
 21
14.61039185333057
 31
0.0
 11
188.2626334936289
 21
14.74207420402543
 31
0.0
 11
188.2626334936289
 21
14.85314540417675
 31
0.0
 11
188.2626334936289
 21
14.9298646867555
 31
0.0
 11
188.2626334936289
 21
14.95849128473265
 31
0.0
 11
188.2349191321108
 21
14.95849128473265
 31
0.0
 11
188.1634452524063
 21
14.95849128473265
 31
0.0
 11
188.06571566179
 21
14.95849128473265
 31
0.0
 11
187.9592341675364
 21
14.95849128473265
 31
0.0
 11
187.8615045769201
 21
14.95849128473265
 31
0.0
 11
187.7900306972156
 21
14.95849128473265
 31
0.0
 11
187.7623163356975
 21
14.95849128473265
 31
0.0
 11
187.7623163356975
 21
14.9852445182329
 31
0.0
 11
187.7623163356975
 21
15.04410163193345
 31
0.0
 11
187.7623163356975
 21
15.10295874563399
 31
0.0
 11
187.7623163356975
 21
15.12971197913424
 31
0.0
 11
187.7958758072874
 21
15.12971197913424
 31
0.0
 11
187.8869658016031
 21
15.12971197913424
 31
0.0
 11
188.0212036879629
 21
15.12971197913424
 31
0.0
 11
188.1842068356856
 21
15.12971197913424
 31
0.0
 11
188.3615926140897
 21
15.12971197913424
 31
0.0
 11
188.5389783924938
 21
15.12971197913424
 31
0.0
 11
188.7019815402164
 21
15.12971197913424
 31
0.0
 11
188.8362194265763
 21
15.12971197913424
 31
0.0
 11
188.9273094208918
 21
15.12971197913424
 31
0.0
 11
188.9608688924818
 21
15.12971197913424
 31
0.0
 11
188.9608688924818
 21
15.10295874563399
 31
0.0
 11
188.9608688924818
 21
15.04410163193344
 31
0.0
 11
188.9608688924818
 21
14.9852445182329
 31
0.0
 11
188.9608688924818
 21
14.95849128473265
 31
0.0
 11
188.9321192527877
 21
14.95849128473265
 31
0.0
 11
188.8579754451555
 21
14.95849128473265
 31
0.0
 11
188.7565951367604
 21
14.95849128473265
 31
0.0
 11
188.6461359947778
 21
14.95849128473265
 31
0.0
 11
188.5447556863827
 21
14.95849128473265
 31
0.0
 11
188.4706118787505
 21
14.95849128473265
 31
0.0
 11
188.4418622390564
 21
14.95849128473265
 31
0.0
  0
SPLINE
  5
B1
102
{ACAD_REACTORS
330
CE
102
}
330
48
100
AcDbEntity
  8
_U_30EC_U_30A4_U_30E4_U_30FC_1
  6
Continuous
 62
     2
100
AcDbSpline
210
0.0
220
0.0
230
1.0
 70
    11
 71
     3
 72
    91
 73
    87
 74
    85
 42
0.000000001
 43
0.0000000001
 44
0.00000001
 40
0.0
 40
0.0
 40
0.0
 40
0.0
 40
0.0345987051695718
 40
0.1258134969461369
 40
0.2547723404888987
 40
0.4026032099154125
 40
0.5504340793416704
 40
0.679392922883608
 40
0.7706077146571035
 40
0.8052064287780925
 40
1.124852390615281
 40
1.427402236308877
 40
1.706356627453519
 40
1.955541417875204
 40
2.169485938566349
 40
2.344350786664804
 40
2.480568411561954
 40
2.590440557428976
 40
2.64918992715113
 40
2.749320643306334
 40
2.912632739880039
 40
3.147745656000236
 40
3.244827496385126
 40
3.338490056946719
 40
3.583815413207146
 40
3.761423943238506
 40
3.88695610436267
 40
3.98585545188683
 40
4.091766255337714
 40
4.250186473811907
 40
4.422734315084552
 40
4.628285684838645
 40
4.872093227758477
 40
5.152549652145589
 40
5.464967135837572
 40
5.803201477852491
 40
6.16036298881397
 40
6.193449448276025
 40
6.28417038550168
 40
6.41971813876455
 40
6.5872850463858
 40
6.774063446723714
 40
6.967245678113697
 40
7.154024078817683
 40
7.321590987026068
 40
7.457138740890427
 40
7.547859678556163
 40
7.580946138182723
 40
7.608533084714775
 40
7.669224367077751
 40
7.729915649429968
 40
7.757502595950019
 40
7.790278062553472
 40
7.880146277430971
 40
8.014419963180433
 40
8.180411842397934
 40
8.365434637679403
 40
8.556801071622704
 40
8.741823866830817
 40
8.907815745916327
 40
9.042089431507481
 40
9.131957646249607
 40
9.164733112797183
 40
9.415425063140104
 40
9.667986180958568
 40
9.694169807462735
 40
9.756607686047694
 40
9.8311303153225
 40
9.893568193899965
 40
9.919751820398782
 40
9.95096796469062
 40
9.996421631210728
 40
10.22087981037461
 40
10.44341866197549
 40
10.47847970788862
 40
10.57091337438762
 40
10.70159545461236
 40
10.85140174170367
 40
11.00120802880484
 40
11.1318901090739
 40
11.22432377583018
 40
11.25938480938964
 40
11.28697175596152
 40
11.34766303835926
 40
11.40835432042076
 40
11.43594125892111
 40
11.43594125892111
 40
11.43594125892111
 40
11.43594125892111
 10
190.0818114333289
 20
15.55242795125078
 30
0.0
 10
190.0702785844941
 20
15.55242790287916
 30
0.0
 10
190.0283409444998
 20
15.55242773704165
 30
0.0
 10
189.9434129719026
 20
15.5524312580091
 30
0.0
 10
189.8207688553128
 20
15.55240926435879
 30
0.0
 10
189.6791206916993
 20
15.55250801177055
 30
0.0
 10
189.537975369849
 20
15.55214686232421
 30
0.0
 10
189.4141351317904
 20
15.5532188360909
 30
0.0
 10
189.3317217825382
 20
15.55092249091269
 30
0.0
 10
189.1727791229692
 20
15.56048569373422
 30
0.0
 10
189.3503402353375
 20
15.19785394311371
 30
0.0
 10
189.3379739205452
 20
14.95243127723115
 30
0.0
 10
189.4064519473864
 20
14.66862501324835
 30
0.0
 10
189.469302432097
 20
14.43250999939035
 30
0.0
 10
189.5452253431729
 20
14.2332674039613
 30
0.0
 10
189.6303189577016
 20
14.07745347451373
 30
0.0
 10
189.7244607592935
 20
13.97657857781392
 30
0.0
 10
189.8282648207728
 20
13.92465852638965
 30
0.0
 10
189.9125872030774
 20
13.97606484379617
 30
0.0
 10
189.9351322179451
 20
14.09144544037517
 30
0.0
 10
189.9745730975371
 20
14.2188514970238
 30
0.0
 10
189.9202919734942
 20
14.53622328086755
 30
0.0
 10
190.0451218072473
 20
14.38982180140906
 30
0.0
 10
190.2019291513603
 20
14.35795300331171
 30
0.0
 10
190.0947720007057
 20
14.12421357767628
 30
0.0
 10
190.0808711209867
 20
13.95972776583656
 30
0.0
 10
190.0234709467225
 20
13.83130869122483
 30
0.0
 10
189.9335020145008
 20
13.76018802352826
 30
0.0
 10
189.8095274657877
 20
13.74432324142254
 30
0.0
 10
189.663427319686
 20
13.77993797554171
 30
0.0
 10
189.5243894320284
 20
13.90000570500277
 30
0.0
 10
189.4102003962144
 20
14.0743568255032
 30
0.0
 10
189.3146141301486
 20
14.2994660311124
 30
0.0
 10
189.2318652572625
 20
14.56388246006442
 30
0.0
 10
189.1807179256411
 20
14.88187933098543
 30
0.0
 10
189.0770189207339
 20
15.15543728488913
 30
0.0
 10
189.2042841208519
 20
15.56005818612866
 30
0.0
 10
189.0357890623019
 20
15.5511236784968
 30
0.0
 10
188.9511995787076
 20
15.55315961418363
 30
0.0
 10
188.8189876387628
 20
15.55213937388407
 30
0.0
 10
188.6560505094103
 20
15.5525323031843
 30
0.0
 10
188.4733759170532
 20
15.55235696313369
 30
0.0
 10
188.2847057373383
 20
15.55260105307469
 30
0.0
 10
188.1014469020189
 20
15.55185657906237
 30
0.0
 10
187.9404746832718
 20
15.55416360522426
 30
0.0
 10
187.8029808335276
 20
15.54799804883663
 30
0.0
 10
187.728959037231
 20
15.56032838458213
 30
0.0
 10
187.6613215186856
 20
15.54329323723556
 30
0.0
 10
187.673237371927
 20
15.59524438447529
 30
0.0
 10
187.6655677285694
 20
15.64071424966529
 30
0.0
 10
187.6732592225115
 20
15.68614453703706
 30
0.0
 10
187.6613141797762
 20
15.7380239598457
 30
0.0
 10
187.7283588305867
 20
15.72119143490264
 30
0.0
 10
187.8017375665677
 20
15.73335409092671
 30
0.0
 10
187.9379128305271
 20
15.72727231074958
 30
0.0
 10
188.0973811801513
 20
15.72954834315058
 30
0.0
 10
188.2789173085836
 20
15.72881233998961
 30
0.0
 10
188.4658034862179
 20
15.72905954196134
 30
0.0
 10
188.6468012316836
 20
15.72886400799253
 30
0.0
 10
188.8080802578878
 20
15.72932234714839
 30
0.0
 10
188.9393882124887
 20
15.72812673751206
 30
0.0
 10
189.0225051322596
 20
15.73051347319742
 30
0.0
 10
189.1556236547815
 20
15.72230605725465
 30
0.0
 10
189.0645893502658
 20
15.97752868952655
 30
0.0
 10
188.9789633074419
 20
16.24164358328247
 30
0.0
 10
189.0990589003455
 20
16.22904442969165
 30
0.0
 10
189.1514264948544
 20
16.22694235763075
 30
0.0
 10
189.2214497569715
 20
16.22535399889657
 30
0.0
 10
189.2671922337817
 20
16.21602567538113
 30
0.0
 10
189.3220812646933
 20
16.22545966915427
 30
0.0
 10
189.2963574785681
 20
16.17733028655172
 30
0.0
 10
189.1825397571452
 20
16.18266829744168
 30
0.0
 10
189.3159346621136
 20
15.95449174576776
 30
0.0
 10
189.194365873547
 20
15.72156856595923
 30
0.0
 10
189.3223188769413
 20
15.73087258884438
 30
0.0
 10
189.4049048406461
 20
15.7280100175468
 30
0.0
 10
189.5307214850824
 20
15.72923437412302
 30
0.0
 10
189.6741469838057
 20
15.72932431888965
 30
0.0
 10
189.8157420951728
 20
15.72746163183853
 30
0.0
 10
189.9459127249967
 20
15.73333075937163
 30
0.0
 10
190.0193452286191
 20
15.72070340823204
 30
0.0
 10
190.0891112922096
 20
15.73877563110412
 30
0.0
 10
190.0775772605396
 20
15.68612850546326
 30
0.0
 10
190.0833184346682
 20
15.64221317686548
 30
0.0
 10
190.0816615770911
 20
15.5908998267655
 30
0.0
 10
190.081775756167
 20
15.56158792021635
 30
0.0
 10
190.0818114333289
 20
15.55242795125078
 30
0.0
 11
190.0818114333289
 21
15.55242795125078
 31
0.0
 11
190.0472127192051
 21
15.55242795125078
 31
0.0
 11
189.9559979274241
 21
15.55242795125078
 31
0.0
 11
189.8270390838717
 21
15.55242795125078
 31
0.0
 11
189.6792082144335
 21
15.55242795125078
 31
0.0
 11
189.5313773449954
 21
15.55242795125078
 31
0.0
 11
189.402418501443
 21
15.55242795125078
 31
0.0
 11
189.311203709662
 21
15.55242795125078
 31
0.0
 11
189.2766049955382
 21
15.55242795125078
 31
0.0
 11
189.3083140497693
 21
15.23435864930121
 31
0.0
 11
189.3527866656865
 21
14.93509522788081
 31
0.0
 11
189.4092389118319
 21
14.66191269512576
 31
0.0
 11
189.4768868567478
 21
14.42208605917227
 31
0.0
 11
189.5549465689761
 21
14.22289032815655
 31
0.0
 11
189.6426341170591
 21
14.07160051021478
 31
0.0
 11
189.7391655695388
 21
13.97549161348317
 31
0.0
 11
189.8437569949575
 21
13.94183864609792
 31
0.0
 11
189.8943077302786
 21
13.97177376978835
 31
0.0
 11
189.9310588991551
 21
14.06491619815047
 31
0.0
 11
189.9562640977528
 21
14.22627151712055
 31
0.0
 11
189.9721769222368
 21
14.46084531263482
 31
0.0
 11
190.0494082682583
 21
14.40202182306618
 31
0.0
 11
190.1327184184385
 21
14.3592188543269
 31
0.0
 11
190.1066365811217
 21
14.1152838866101
 31
0.0
 11
190.0673317805105
 21
13.94207902887562
 31
0.0
 11
190.0105702596765
 21
13.83011272445917
 31
0.0
 11
189.932118261691
 21
13.76989341669645
 31
0.0
 11
189.8277420296256
 21
13.75192954892317
 31
0.0
 11
189.6738595065097
 21
13.78957440012361
 31
0.0
 11
189.5388902376747
 21
13.89707348877403
 31
0.0
 11
189.4221739916163
 21
14.06627361744808
 31
0.0
 11
189.32305053683
 21
14.28902158871943
 31
0.0
 11
189.2408596418113
 21
14.55716420516172
 31
0.0
 11
189.1749410750559
 21
14.8625482693486
 31
0.0
 11
189.1246346050593
 21
15.19702058385374
 31
0.0
 11
189.0892800003171
 21
15.55242795125078
 31
0.0
 11
189.0561935405844
 21
15.55242795125078
 31
0.0
 11
188.9654726026075
 21
15.55242795125078
 31
0.0
 11
188.8299248482185
 21
15.55242795125078
 31
0.0
 11
188.6623579392495
 21
15.55242795125078
 31
0.0
 11
188.4755795375324
 21
15.55242795125078
 31
0.0
 11
188.2823973048992
 21
15.55242795125078
 31
0.0
 11
188.0956189031822
 21
15.55242795125078
 31
0.0
 11
187.9280519942131
 21
15.55242795125078
 31
0.0
 11
187.7925042398241
 21
15.55242795125078
 31
0.0
 11
187.7017833018473
 21
15.55242795125078
 31
0.0
 11
187.6686968421145
 21
15.55242795125078
 31
0.0
 11
187.6686968421145
 21
15.58001489785847
 31
0.0
 11
187.6686968421145
 21
15.64070618039538
 31
0.0
 11
187.6686968421145
 21
15.70139746293229
 31
0.0
 11
187.6686968421145
 21
15.72898440953998
 31
0.0
 11
187.7014723087631
 21
15.72898440953998
 31
0.0
 11
187.7913405237673
 21
15.72898440953998
 31
0.0
 11
187.9256142097148
 21
15.72898440953998
 31
0.0
 11
188.0916060891932
 21
15.72898440953998
 31
0.0
 11
188.2766288847901
 21
15.72898440953998
 31
0.0
 11
188.4679953190932
 21
15.72898440953998
 31
0.0
 11
188.6530181146902
 21
15.72898440953998
 31
0.0
 11
188.8190099941685
 21
15.72898440953998
 31
0.0
 11
188.953283680116
 21
15.72898440953998
 31
0.0
 11
189.0431518951202
 21
15.72898440953998
 31
0.0
 11
189.0759273617688
 21
15.72898440953998
 31
0.0
 11
189.0659183950103
 21
15.97947647544958
 31
0.0
 11
189.0599112510663
 21
16.23196614552531
 31
0.0
 11
189.0860575870659
 21
16.23056921608122
 31
0.0
 11
189.1484065421419
 21
16.22723807663761
 31
0.0
 11
189.2228230369099
 21
16.22326220052749
 31
0.0
 11
189.2851719919859
 21
16.21993106108388
 31
0.0
 11
189.3113183279855
 21
16.21853413163979
 31
0.0
 11
189.298293111304
 21
16.19016528616079
 31
0.0
 11
189.2551649266405
 21
16.17581274276164
 31
0.0
 11
189.2574991961821
 21
15.95136670115108
 31
0.0
 11
189.2658452735903
 21
15.72898440953998
 31
0.0
 11
189.3009063195165
 21
15.72898440953998
 31
0.0
 11
189.3933399860495
 21
15.72898440953998
 31
0.0
 11
189.5240220663201
 21
15.72898440953998
 31
0.0
 11
189.6738283534596
 21
15.72898440953998
 31
0.0
 11
189.8236346405991
 21
15.72898440953998
 31
0.0
 11
189.9543167208697
 21
15.72898440953998
 31
0.0
 11
190.0467503874027
 21
15.72898440953998
 31
0.0
 11
190.0818114333289
 21
15.72898440953998
 31
0.0
 11
190.0818114333289
 21
15.70139746293229
 31
0.0
 11
190.0818114333289
 21
15.64070618039538
 31
0.0
 11
190.0818114333289
 21
15.58001489785847
 31
0.0
 11
190.0818114333289
 21
15.55242795125078
 31
0.0
  0
SPLINE
  5
B2
102
{ACAD_REACTORS
330
CF
102
}
330
48
100
AcDbEntity
  8
_U_30EC_U_30A4_U_30E4_U_30FC_1
  6
Continuous
 62
     2
100
AcDbSpline
210
0.0
220
0.0
230
1.0
 70
    11
 71
     3
 72
   118
 73
   114
 74
   112
 42
0.000000001
 43
0.0000000001
 44
0.00000001
 40
0.0
 40
0.0
 40
0.0
 40
0.0
 40
0.1054708162973424
 40
0.2466098270051938
 40
0.3965912874591291
 40
0.5285525069754047
 40
0.6156245055642273
 40
0.64314341057976
 40
0.7036850037986319
 40
0.7642265984504745
 40
0.7917455052355062
 40
0.9287404319990077
 40
1.106572819088061
 40
1.287544879681061
 40
1.317578308030578
 40
1.399928030857216
 40
1.522968204799991
 40
1.675072986590612
 40
1.844616533180689
 40
2.019973001638753
 40
2.189516548880066
 40
2.341621331585404
 40
2.464661506320541
 40
2.547011229647104
 40
2.577044658168068
 40
2.603797890893139
 40
2.662655002908826
 40
2.721512114949638
 40
2.748265347702818
 40
2.774215307344894
 40
2.845959313407224
 40
2.954338556588423
 40
3.0901942275856
 40
3.244367517100564
 40
3.407699615844324
 40
3.571031714539474
 40
3.72520500392015
 40
3.86106067472965
 40
3.969439917716343
 40
4.041183923629015
 40
4.067133883213009
 40
4.311886746012195
 40
4.547897258335561
 40
4.764747083044005
 40
4.952749679951812
 40
5.045772974195941
 40
5.13786201964503
 40
5.330543169793081
 40
5.553448265244073
 40
5.795083855888232
 40
6.043293412177298
 40
6.285761695541249
 40
6.313902908752732
 40
6.384255941793322
 40
6.47571488476691
 40
6.567173827758973
 40
6.637526860839751
 40
6.665668074074114
 40
6.692018920328087
 40
6.749990782071151
 40
6.807962643790519
 40
6.83431349001799
 40
6.856393084245269
 40
6.913335195649893
 40
6.991194817302556
 40
7.076026942283818
 40
7.153886563725308
 40
7.21082867484489
 40
7.232908268931226
 40
7.258199334923747
 40
7.324875781592397
 40
7.419142481925054
 40
7.527204308841993
 40
7.635266135230571
 40
7.729532834168557
 40
7.79620927929288
 40
7.821500344594826
 40
7.844652988850896
 40
7.899863140541675
 40
7.965759128053842
 40
8.020969279771126
 40
8.044121924046593
 40
8.069356610160682
 40
8.109134395441453
 40
8.132238100191165
 40
8.19314786778653
 40
8.279261678876702
 40
8.377977512673917
 40
8.4766933471467
 40
8.562807160411754
 40
8.623716930826541
 40
8.646820636853493
 40
8.671988793774306
 40
8.734909185828217
 40
8.816705695188931
 40
8.898502204815502
 40
8.961422597377963
 40
8.986590754551075
 40
9.012941600733228
 40
9.070913462380311
 40
9.1288853240818
 40
9.155236170325121
 40
9.180404327929164
 40
9.243324721948238
 40
9.32512123421203
 40
9.406917746637685
 40
9.46983814197814
 40
9.495006288270915
 40
9.517811184379056
 40
9.572192090487055
 40
9.637098333281287
 40
9.691479239515486
 40
9.714284125643525
 40
9.714284125643525
 40
9.714284125643525
 40
9.714284125643525
 10
185.2874469028653
 20
15.2688916318772
 30
0.0
 10
185.3090990569037
 20
15.24111869242812
 30
0.0
 10
185.3597257109474
 20
15.17618054561237
 30
0.0
 10
185.4349383202591
 20
15.06891060312898
 30
0.0
 10
185.5248482274346
 20
14.95377438266625
 30
0.0
 10
185.5709169676673
 20
14.85357045748319
 30
0.0
 10
185.6655825294655
 20
14.78434006814943
 30
0.0
 10
185.6204439320412
 20
14.73771639678274
 30
0.0
 10
185.594704778579
 20
14.69660308866038
 30
0.0
 10
185.5645196708012
 20
14.66065971727939
 30
0.0
 10
185.5193684730562
 20
14.58579782596092
 30
0.0
 10
185.4710504458562
 20
14.80782524253605
 30
0.0
 10
185.3968539713073
 20
14.84510677337709
 30
0.0
 10
185.2836047324606
 20
15.11610202130601
 30
0.0
 10
185.288513357817
 20
15.00095328446228
 30
0.0
 10
185.2868486556306
 20
14.92836675781627
 30
0.0
 10
185.2876830076714
 20
14.80625588483986
 30
0.0
 10
185.2873609540264
 20
14.6591380081046
 30
0.0
 10
185.2875076912456
 20
14.49307063956557
 30
0.0
 10
185.2872950092722
 20
14.32187554608602
 30
0.0
 10
185.2879497252034
 20
14.15552828635498
 30
0.0
 10
185.2859192461139
 20
14.00935173055693
 30
0.0
 10
185.291346039993
 20
13.8847104747461
 30
0.0
 10
185.2804930868708
 20
13.81718656540626
 30
0.0
 10
185.2956739155555
 20
13.75549061417022
 30
0.0
 10
185.2457895108133
 20
13.76727503897002
 30
0.0
 10
185.2017150342522
 20
13.75943822779969
 30
0.0
 10
185.15823716302
 20
13.76760441372703
 30
0.0
 10
185.1092346786489
 20
13.75538056738468
 30
0.0
 10
185.1218731234824
 20
13.80960667249313
 30
0.0
 10
185.113018296845
 20
13.86936918907557
 30
0.0
 10
185.1175058770314
 20
13.97922029044371
 30
0.0
 10
185.1157960135991
 20
14.11029975405679
 30
0.0
 10
185.1163550915986
 20
14.26198011444328
 30
0.0
 10
185.1161928768694
 20
14.42211074929953
 30
0.0
 10
185.1162269924675
 20
14.58236865674566
 30
0.0
 10
185.1162514960127
 20
14.73370247520439
 30
0.0
 10
185.1161453543224
 20
14.86582156338601
 30
0.0
 10
185.1164299141932
 20
14.97294802533193
 30
0.0
 10
185.1158675547567
 20
15.03808619579473
 30
0.0
 10
185.118076508369
 20
15.16618957858676
 30
0.0
 10
185.0319435998602
 20
14.79097610391575
 30
0.0
 10
184.95551408185
 20
14.63918193123396
 30
0.0
 10
184.8660040767833
 20
14.47766206446305
 30
0.0
 10
184.7640413217327
 20
14.20471848820171
 30
0.0
 10
184.7187976491038
 20
14.3671734659651
 30
0.0
 10
184.6102355941671
 20
14.4560543205812
 30
0.0
 10
184.7995791751753
 20
14.60549794961409
 30
0.0
 10
184.85653405457
 20
14.79749136974925
 30
0.0
 10
184.9717520993352
 20
15.02899622906757
 30
0.0
 10
184.9940151630133
 20
15.21797259759063
 30
0.0
 10
185.1771905152139
 20
15.49454089325931
 30
0.0
 10
185.0538033597552
 20
15.48698978832095
 30
0.0
 10
184.9925684166834
 20
15.48856772366119
 30
0.0
 10
184.9081999617064
 20
15.48882592573673
 30
0.0
 10
184.8204235085965
 20
15.48544845751206
 30
0.0
 10
184.7656768696123
 20
15.49394814982021
 30
0.0
 10
184.7104703026024
 20
15.48048561049788
 30
0.0
 10
184.7222823035537
 20
15.52931442126764
 30
0.0
 10
184.7142496151793
 20
15.57269004896709
 30
0.0
 10
184.7228186104679
 20
15.61509438309573
 30
0.0
 10
184.7102943409157
 20
15.66267796552118
 30
0.0
 10
184.7555101538735
 20
15.65267212995109
 30
0.0
 10
184.8014815562723
 20
15.65894105174061
 30
0.0
 10
184.877722204771
 20
15.65593561405872
 30
0.0
 10
184.9561296131993
 20
15.65770448278541
 30
0.0
 10
185.0323992648932
 20
15.65464793981659
 30
0.0
 10
185.0783009459475
 20
15.66103971376177
 30
0.0
 10
185.12317339654
 20
15.65093822978896
 30
0.0
 10
185.1105552275634
 20
15.70157201581898
 30
0.0
 10
185.1191936582707
 20
15.7550126188207
 30
0.0
 10
185.1152361595443
 20
15.8486325513168
 30
0.0
 10
185.1162325068335
 20
15.95112606688924
 30
0.0
 10
185.1171927413073
 20
16.05353270248163
 30
0.0
 10
185.1133211458005
 20
16.14735929609321
 30
0.0
 10
185.1217789814364
 20
16.20036542840353
 30
0.0
 10
185.1093075932835
 20
16.25211435651188
 30
0.0
 10
185.1542106389849
 20
16.23850747226757
 30
0.0
 10
185.1955083836772
 20
16.24100480320585
 30
0.0
 10
185.259534428105
 20
16.23648060574488
 30
0.0
 10
185.2986111148786
 20
16.22781003043309
 30
0.0
 10
185.3476543498742
 20
16.23515102070687
 30
0.0
 10
185.322508003059
 20
16.19602896051758
 30
0.0
 10
185.2815901333723
 20
16.20563842455807
 30
0.0
 10
185.2910109616604
 20
16.15540148169779
 30
0.0
 10
185.2855647318746
 20
16.1038594563949
 30
0.0
 10
185.2881699601804
 20
16.0195970758452
 30
0.0
 10
185.2870102202153
 20
15.92559135583408
 30
0.0
 10
185.2883591064231
 20
15.83196865395526
 30
0.0
 10
185.2849970101508
 20
15.74679517552223
 30
0.0
 10
185.2920959917769
 20
15.69716856072044
 30
0.0
 10
185.2812569154545
 20
15.64993694969989
 30
0.0
 10
185.3304010225245
 20
15.66201674936851
 30
0.0
 10
185.3794877630147
 20
15.65447393363011
 30
0.0
 10
185.4573714280642
 20
15.65686070361432
 30
0.0
 10
185.5350365172896
 20
15.65899381905415
 30
0.0
 10
185.5845393931355
 20
15.65193391922455
 30
0.0
 10
185.6344594750639
 20
15.66360151936214
 30
0.0
 10
185.6223198516881
 20
15.61540235371393
 30
0.0
 10
185.6305838229144
 20
15.57249219801236
 30
0.0
 10
185.6223198650783
 20
15.52958201851385
 30
0.0
 10
185.6344594549855
 20
15.48138288754865
 30
0.0
 10
185.5845395158746
 20
15.49305034471511
 30
0.0
 10
185.5350350651203
 20
15.48599202435046
 30
0.0
 10
185.4573784382972
 20
15.48811665228604
 30
0.0
 10
185.379464386576
 20
15.49053389365761
 30
0.0
 10
185.3304500352715
 20
15.48291848194486
 30
0.0
 10
185.2813246108943
 20
15.49507952557594
 30
0.0
 10
185.291555998857
 20
15.45073013424158
 30
0.0
 10
185.2856677678054
 20
15.40925436202913
 30
0.0
 10
185.2878788305569
 20
15.34915394315304
 30
0.0
 10
185.2874109346146
 20
15.3022578276289
 30
0.0
 10
185.2874386992913
 20
15.27650146418197
 30
0.0
 10
185.2874469028653
 20
15.2688916318772
 30
0.0
 11
185.2874469028653
 21
15.2688916318772
 31
0.0
 11
185.3516977534484
 21
15.18524999634257
 31
0.0
 11
185.4348258835499
 21
15.07118889748221
 31
0.0
 11
185.5216831568896
 21
14.94891767195723
 31
0.0
 11
185.5971214371872
 21
14.84064565642876
 31
0.0
 11
185.6459925881626
 21
14.7685821875579
 31
0.0
 11
185.6296821285093
 21
14.74641782124399
 31
0.0
 11
185.5937991172719
 21
14.69765621535339
 31
0.0
 11
185.5579161060346
 21
14.64889460946279
 31
0.0
 11
185.5416056463813
 21
14.62673024314888
 31
0.0
 11
185.4763067109446
 21
14.74716139023813
 31
0.0
 11
185.3848434243234
 21
14.89966983670207
 31
0.0
 11
185.2874469028653
 21
15.05219788193142
 31
0.0
 11
185.2874469028653
 21
15.02216445328253
 31
0.0
 11
185.2874469028653
 21
14.93981472956783
 31
0.0
 11
185.2874469028653
 21
14.81677455413528
 31
0.0
 11
185.2874469028653
 21
14.66466977033283
 31
0.0
 11
185.2874469028653
 21
14.49512622150845
 31
0.0
 11
185.2874469028653
 21
14.31976975101009
 31
0.0
 11
185.2874469028653
 21
14.15022620218571
 31
0.0
 11
185.2874469028653
 21
13.99812141838326
 31
0.0
 11
185.2874469028653
 21
13.87508124295071
 31
0.0
 11
185.2874469028653
 21
13.79273151923601
 31
0.0
 11
185.2874469028653
 21
13.76269809058712
 31
0.0
 11
185.2606936700409
 21
13.76269809058712
 31
0.0
 11
185.2018365578272
 21
13.76269809058712
 31
0.0
 11
185.1429794456134
 21
13.76269809058712
 31
0.0
 11
185.116226212789
 21
13.76269809058712
 31
0.0
 11
185.116226212789
 21
13.7886480503125
 31
0.0
 11
185.116226212789
 21
13.86039205661208
 31
0.0
 11
185.116226212789
 21
13.96877130017102
 31
0.0
 11
185.116226212789
 21
14.10462697167447
 31
0.0
 11
185.116226212789
 21
14.25880026180761
 31
0.0
 11
185.116226212789
 21
14.42213236125558
 31
0.0
 11
185.116226212789
 21
14.58546446070356
 31
0.0
 11
185.116226212789
 21
14.7396377508367
 31
0.0
 11
185.116226212789
 21
14.87549342234015
 31
0.0
 11
185.116226212789
 21
14.98387266589909
 31
0.0
 11
185.116226212789
 21
15.05561667219867
 31
0.0
 11
185.116226212789
 21
15.08156663192405
 31
0.0
 11
185.0379865861721
 21
14.84965603302372
 31
0.0
 11
184.9497110789303
 21
14.63077616328678
 31
0.0
 11
184.8544106930045
 21
14.43598991333546
 31
0.0
 11
184.7550964303356
 21
14.27636017379201
 31
0.0
 11
184.7109198342406
 21
14.35822446196598
 31
0.0
 11
184.658805738348
 21
14.43414885430811
 31
0.0
 11
184.7627302590299
 21
14.59640087926757
 31
0.0
 11
184.8629319864735
 21
14.79551465421781
 31
0.0
 11
184.9550446607901
 21
15.01890447916196
 31
0.0
 11
185.0347020220912
 21
15.2539846541032
 31
0.0
 11
185.097537810488
 21
15.48816947904466
 31
0.0
 11
185.0693965972142
 21
15.48816947904466
 31
0.0
 11
184.9990435640297
 21
15.48816947904466
 31
0.0
 11
184.9075846208898
 21
15.48816947904466
 31
0.0
 11
184.8161256777499
 21
15.48816947904466
 31
0.0
 11
184.7457726445654
 21
15.48816947904466
 31
0.0
 11
184.7176314312916
 21
15.48816947904466
 31
0.0
 11
184.7176314312916
 21
15.51452032539223
 31
0.0
 11
184.7176314312916
 21
15.57249218735689
 31
0.0
 11
184.7176314312916
 21
15.63046404932155
 31
0.0
 11
184.7176314312916
 21
15.65681489566912
 31
0.0
 11
184.739711025602
 21
15.65681489566912
 31
0.0
 11
184.7966531372444
 21
15.65681489566912
 31
0.0
 11
184.8745127592862
 21
15.65681489566912
 31
0.0
 11
184.9593448847944
 21
15.65681489566912
 31
0.0
 11
185.0372045068361
 21
15.65681489566912
 31
0.0
 11
185.0941466184786
 21
15.65681489566912
 31
0.0
 11
185.116226212789
 21
15.65681489566912
 31
0.0
 11
185.116226212789
 21
15.68210596174353
 31
0.0
 11
185.116226212789
 21
15.74878240866697
 31
0.0
 11
185.116226212789
 21
15.84304910948977
 31
0.0
 11
185.116226212789
 21
15.95111093726224
 31
0.0
 11
185.116226212789
 21
16.05917276503471
 31
0.0
 11
185.116226212789
 21
16.15343946585751
 31
0.0
 11
185.116226212789
 21
16.22011591278095
 31
0.0
 11
185.116226212789
 21
16.24540697885536
 31
0.0
 11
185.1393181988665
 21
16.243732131078
 31
0.0
 11
185.1943837041284
 21
16.23973826330122
 31
0.0
 11
185.2601070491184
 21
16.23497138885796
 31
0.0
 11
185.3151725543802
 21
16.23097752108117
 31
0.0
 11
185.3382645404578
 21
16.22930267330381
 31
0.0
 11
185.3249012644362
 21
16.20789677921191
 31
0.0
 11
185.2874469028653
 21
16.19450114553469
 31
0.0
 11
185.2874469028653
 21
16.17139743948578
 31
0.0
 11
185.2874469028653
 21
16.11048766899319
 31
0.0
 11
185.2874469028653
 21
16.02437385553816
 31
0.0
 11
185.2874469028653
 21
15.9256580206019
 31
0.0
 11
185.2874469028653
 21
15.82694218566565
 31
0.0
 11
185.2874469028653
 21
15.74082837221061
 31
0.0
 11
185.2874469028653
 21
15.67991860171803
 31
0.0
 11
185.2874469028653
 21
15.65681489566912
 31
0.0
 11
185.3126150604809
 21
15.65681489566912
 31
0.0
 11
185.3755354545199
 21
15.65681489566912
 31
0.0
 11
185.4573319667706
 21
15.65681489566912
 31
0.0
 11
185.5391284790212
 21
15.65681489566912
 31
0.0
 11
185.6020488730602
 21
15.65681489566912
 31
0.0
 11
185.6272170306758
 21
15.65681489566912
 31
0.0
 11
185.6272170306758
 21
15.63046404932155
 31
0.0
 11
185.6272170306758
 21
15.57249218735689
 31
0.0
 11
185.6272170306758
 21
15.51452032539223
 31
0.0
 11
185.6272170306758
 21
15.48816947904466
 31
0.0
 11
185.6020488730602
 21
15.48816947904466
 31
0.0
 11
185.5391284790212
 21
15.48816947904466
 31
0.0
 11
185.4573319667705
 21
15.48816947904466
 31
0.0
 11
185.3755354545199
 21
15.48816947904466
 31
0.0
 11
185.3126150604809
 21
15.48816947904466
 31
0.0
 11
185.2874469028653
 21
15.48816947904466
 31
0.0
 11
185.2874469028653
 21
15.46536458293924
 31
0.0
 11
185.2874469028653
 21
15.41098367684171
 31
0.0
 11
185.2874469028653
 21
15.34607743408014
 31
0.0
 11
185.2874469028653
 21
15.29169652798262
 31
0.0
 11
185.2874469028653
 21
15.2688916318772
 31
0.0
  0
SPLINE
  5
B3
102
{ACAD_REACTORS
330
D0
102
}
330
48
100
AcDbEntity
  8
_U_30EC_U_30A4_U_30E4_U_30FC_1
  6
Continuous
 62
     2
100
AcDbSpline
210
0.0
220
0.0
230
1.0
 70
    11
 71
     3
 72
    47
 73
    43
 74
    41
 42
0.000000001
 43
0.0000000001
 44
0.00000001
 40
0.0
 40
0.0
 40
0.0
 40
0.0
 40
0.2207912809957213
 40
0.4459404186303042
 40
0.4902387190459256
 40
0.5327473892722205
 40
0.5742260451225534
 40
0.6155432630560826
 40
0.6568164066315745
 40
0.6982511618780672
 40
0.7407663929317176
 40
0.7851366743175237
 40
1.010288833836323
 40
1.231080507002173
 40
1.451765243652403
 40
1.676638205891687
 40
1.720461045359656
 40
1.830018144043521
 40
1.972442372353152
 40
2.114866600677522
 40
2.224423699395147
 40
2.268246538883388
 40
2.493628801207215
 40
2.715602830286619
 40
2.934211330706366
 40
3.149502369855355
 40
3.231387784851
 40
3.318231873854036
 40
3.405143198198024
 40
3.48697030172046
 40
3.702258172493897
 40
3.920866283534122
 40
4.142839325931915
 40
4.368221903865375
 40
4.412044743359854
 40
4.52160184209587
 40
4.66402607045235
 40
4.806450298809058
 40
4.916007397546751
 40
4.959830237043074
 40
5.184703515847105
 40
5.405387250767482
 40
5.405387250767482
 40
5.405387250767482
 40
5.405387250767482
 10
182.6507427258645
 20
15.73406440953872
 30
0.0
 10
182.6568139420003
 20
15.79758482501211
 30
0.0
 10
182.6690762107242
 20
15.92587938689627
 30
0.0
 10
182.5604706879413
 20
16.20166220174076
 30
0.0
 10
182.6761985896603
 20
16.17188133432053
 30
0.0
 10
182.7171842509016
 20
16.16765556262821
 30
0.0
 10
182.7591205797518
 20
16.16310446389607
 30
0.0
 10
182.800419662571
 20
16.16201982929485
 30
0.0
 10
182.8417032115555
 20
16.16310338195227
 30
0.0
 10
182.8836148270647
 20
16.16766112711344
 30
0.0
 10
182.9245983549019
 20
16.17187430209728
 30
0.0
 10
183.0404922843488
 20
16.20177611317533
 30
0.0
 10
182.9295652727456
 20
15.92339806609889
 30
0.0
 10
182.9574856365267
 20
15.74283140824953
 30
0.0
 10
182.9404267346969
 20
15.50961042346471
 30
0.0
 10
182.9414637282102
 20
15.34906622543145
 30
0.0
 10
182.9414099399405
 20
15.22284817558722
 30
0.0
 10
182.9414277372481
 20
15.12428963336241
 30
0.0
 10
182.941418858108
 20
14.99280702442963
 30
0.0
 10
182.9414263928033
 20
14.86132844968649
 30
0.0
 10
182.9414129405129
 20
14.7627622269409
 30
0.0
 10
182.9414531717491
 20
14.63639735624152
 30
0.0
 10
182.9406746403818
 20
14.4748206882287
 30
0.0
 10
182.9565958319266
 20
14.24361821892915
 30
0.0
 10
182.9333468885408
 20
14.05874351972002
 30
0.0
 10
183.0360183444365
 20
13.78935602770056
 30
0.0
 10
182.8820238362836
 20
13.82660112685818
 30
0.0
 10
182.8004129802832
 20
13.82137994680535
 30
0.0
 10
182.7188192292583
 20
13.82660620378352
 30
0.0
 10
182.5648513666841
 20
13.78937069885387
 30
0.0
 10
182.6674183421918
 20
14.0587512986288
 30
0.0
 10
182.6442045316087
 20
14.24361585325414
 30
0.0
 10
182.6600444655139
 20
14.47482218565639
 30
0.0
 10
182.6593296313426
 20
14.63639712308503
 30
0.0
 10
182.6593664569907
 20
14.76276231210521
 30
0.0
 10
182.659354900027
 20
14.86132756635981
 30
0.0
 10
182.6593575019214
 20
14.9928112741722
 30
0.0
 10
182.6593648531779
 20
15.124275480312
 30
0.0
 10
182.6593442541351
 20
15.22287786275325
 30
0.0
 10
182.6594082192028
 20
15.34896149354427
 30
0.0
 10
182.6581733947591
 20
15.51210091383771
 30
0.0
 10
182.6532040396745
 20
15.66054183777549
 30
0.0
 10
182.6507427258645
 20
15.73406440953872
 30
0.0
 11
182.6507427258645
 21
15.73406440953872
 31
0.0
 11
182.6417328200379
 21
15.95467178795577
 31
0.0
 11
182.6318769706146
 21
16.17960510387179
 31
0.0
 11
182.6756985840801
 21
16.17312391463728
 31
0.0
 11
182.7178400934215
 21
16.16754892331925
 31
0.0
 11
182.759137140979
 21
16.16367167505631
 31
0.0
 11
182.8004341885365
 21
16.16238072887607
 31
0.0
 11
182.841687138873
 21
16.16367167505631
 31
0.0
 11
182.8829400892097
 21
16.16754892331925
 31
0.0
 11
182.9250882131343
 21
16.17312391463728
 31
0.0
 11
182.9689825870145
 21
16.17960510387179
 31
0.0
 11
182.9590577693891
 21
15.95467178795577
 31
0.0
 11
182.950038420831
 21
15.73406440953872
 31
0.0
 11
182.9435638463435
 21
15.51347467001054
 31
0.0
 11
182.9414218238286
 21
15.28861190965007
 31
0.0
 11
182.9414218238286
 21
15.24478907015486
 31
0.0
 11
182.9414218238286
 21
15.13523197141682
 31
0.0
 11
182.9414218238286
 21
14.99280774305737
 31
0.0
 11
182.9414218238286
 21
14.85038351469792
 31
0.0
 11
182.9414218238286
 21
14.74082641595989
 31
0.0
 11
182.9414218238286
 21
14.69700357646467
 31
0.0
 11
182.9435638463435
 21
14.47163149318767
 31
0.0
 11
182.950038420831
 21
14.2497519099098
 31
0.0
 11
182.9590577693891
 21
14.0313295488533
 31
0.0
 11
182.9689825870145
 21
13.81626739612928
 31
0.0
 11
182.887261616877
 21
13.82145433189186
 31
0.0
 11
182.8004341885365
 21
13.82315538223863
 31
0.0
 11
182.7135395119339
 21
13.82145433189186
 31
0.0
 11
182.6318769706146
 21
13.81626739612928
 31
0.0
 11
182.6417328200379
 21
14.0313295488533
 31
0.0
 11
182.6507427258645
 21
14.2497519099098
 31
0.0
 11
182.6571833838798
 21
14.47163149318766
 31
0.0
 11
182.6593583588023
 21
14.69700357646467
 31
0.0
 11
182.6593583588023
 21
14.74082641595988
 31
0.0
 11
182.6593583588023
 21
14.85038351469792
 31
0.0
 11
182.6593583588023
 21
14.99280774305737
 31
0.0
 11
182.6593583588023
 21
15.13523197141682
 31
0.0
 11
182.6593583588023
 21
15.24478907015486
 31
0.0
 11
182.6593583588023
 21
15.28861190965007
 31
0.0
 11
182.6571833838798
 21
15.51347467001054
 31
0.0
 11
182.6507427258645
 21
15.73406440953872
 31
0.0
  0
SPLINE
  5
B4
102
{ACAD_REACTORS
330
D1
102
}
330
48
100
AcDbEntity
  8
_U_30EC_U_30A4_U_30E4_U_30FC_1
  6
Continuous
 62
     2
100
AcDbSpline
210
0.0
220
0.0
230
1.0
 70
    11
 71
     3
 72
   110
 73
   106
 74
   104
 42
0.000000001
 43
0.0000000001
 44
0.00000001
 40
0.0
 40
0.0
 40
0.0
 40
0.0
 40
0.2203406257277737
 40
0.4407808782838091
 40
0.5952494494615068
 40
0.7488431659393071
 40
0.9023581831309057
 40
1.056801968670404
 40
1.210736449099905
 40
1.363041386539783
 40
1.515315729683126
 40
1.669377239148077
 40
1.721611652756564
 40
1.773199502942947
 40
1.824933793209993
 40
1.877110426487969
 40
1.982682281206732
 40
2.078781667087541
 40
2.172809640822262
 40
2.271937807378916
 40
2.378349933379309
 40
2.494131557736497
 40
2.626681683943631
 40
2.783145050796059
 40
2.890701232940912
 40
2.993130312454806
 40
3.099869730691795
 40
3.220237816691288
 40
3.352695482737577
 40
3.481732806389828
 40
3.593499473690359
 40
3.674323013331873
 40
3.817951711952822
 40
3.94616712079382
 40
4.061405053453505
 40
4.166480796003146
 40
4.262478775059184
 40
4.35073667355114
 40
4.433071991254026
 40
4.511216293814627
 40
4.564262454117949
 40
4.61847441557156
 40
4.670128488754163
 40
4.722296879126362
 40
4.819540945314231
 40
4.931194984128088
 40
5.04999604025773
 40
5.168643755415276
 40
5.283970811762488
 40
5.392260784910313
 40
5.486512254876388
 40
5.559178233949787
 40
5.591425852853447
 40
5.62621596963784
 40
5.667155838674367
 40
5.717449290214173
 40
5.738402360944788
 40
5.784499116553757
 40
5.83059587216473
 40
5.851548942897589
 40
5.873019280661703
 40
5.924217778408245
 40
5.985325662817624
 40
6.036524160567641
 40
6.057994498334169
 40
6.236847789607419
 40
6.381409928945594
 40
6.493190424178624
 40
6.574067534230434
 40
6.691018086205528
 40
6.814881554220445
 40
6.944307823240398
 40
7.071266716066022
 40
7.193488604461867
 40
7.309042773128094
 40
7.414007203170719
 40
7.505140441886475
 40
7.531150360599633
 40
7.559221645322219
 40
7.587202218920885
 40
7.612569159499089
 40
7.662550809480968
 40
7.702878875764086
 40
7.857328205230901
 40
8.010799568088546
 40
8.165256399657496
 40
8.322232698713835
 40
8.479564855016521
 40
8.635216230290725
 40
8.790882550925643
 40
8.948305154947208
 40
9.168271839032885
 40
9.38735898098717
 40
9.608047961033408
 40
9.832914234792602
 40
9.858338694962937
 40
9.925366817229945
 40
10.02013071422753
 40
10.12876249858991
 40
10.23739428295242
 40
10.33215817995184
 40
10.39918630222387
 40
10.42461076239776
 40
10.64992019336936
 40
10.87188524531181
 40
10.87188524531181
 40
10.87188524531181
 40
10.87188524531181
 10
179.9057788376618
 20
15.7392326039819
 30
0.0
 10
179.9092864933541
 20
15.80616462073804
 30
0.0
 10
179.9163033987662
 20
15.94005891915858
 30
0.0
 10
179.8198027599072
 20
16.22548554971469
 30
0.0
 10
180.0510134726108
 20
16.16284386190283
 30
0.0
 10
180.1919290057156
 20
16.17001554055992
 30
0.0
 10
180.3490417757588
 20
16.16235883078244
 30
0.0
 10
180.5025913427287
 20
16.1625275228304
 30
0.0
 10
180.6545104935081
 20
16.16182040535432
 30
0.0
 10
180.8142214813231
 20
16.17210158351639
 30
0.0
 10
180.9408972601117
 20
16.15496511080751
 30
0.0
 10
181.137082112208
 20
16.22727260107145
 30
0.0
 10
181.1034395279078
 20
16.12640699080117
 30
0.0
 10
181.1052011317184
 20
16.0761925394767
 30
0.0
 10
181.1027342073458
 20
16.02712335586466
 30
0.0
 10
181.1347076966011
 20
15.94063490846999
 30
0.0
 10
181.0010399903256
 20
15.98997438608336
 30
0.0
 10
180.9172208688056
 20
15.98430634314168
 30
0.0
 10
180.8173861139324
 20
15.99465516706298
 30
0.0
 10
180.7186576720145
 20
16.00086450411087
 30
0.0
 10
180.612153277111
 20
16.00697763816778
 30
0.0
 10
180.4910511698059
 20
16.01588883484585
 30
0.0
 10
180.3703381502453
 20
16.00521605912384
 30
0.0
 10
180.1812553843437
 20
16.06468503080367
 30
0.0
 10
180.212902850531
 20
15.90558320077539
 30
0.0
 10
180.1995563316834
 20
15.80839128339905
 30
0.0
 10
180.197495842645
 20
15.69634065110103
 30
0.0
 10
180.195818804467
 20
15.57699685629351
 30
0.0
 10
180.1973336794233
 20
15.4503259215511
 30
0.0
 10
180.195658247867
 20
15.32301588016117
 30
0.0
 10
180.2058844271657
 20
15.22451566404463
 30
0.0
 10
180.1779006596583
 20
15.0838870262563
 30
0.0
 10
180.3508029999305
 20
15.13989551134095
 30
0.0
 10
180.4645020202772
 20
15.12719951478497
 30
0.0
 10
180.5840151672239
 20
15.13448377051255
 30
0.0
 10
180.6888491425071
 20
15.13878017056755
 30
0.0
 10
180.7843084898612
 20
15.14330568258977
 30
0.0
 10
180.8763823507032
 20
15.15149201146199
 30
0.0
 10
180.9476551782439
 20
15.14643850638112
 30
0.0
 10
181.0544931705685
 20
15.18536425031673
 30
0.0
 10
181.0226603598036
 20
15.10517122005879
 30
0.0
 10
181.0266164503929
 20
15.05562936846033
 30
0.0
 10
181.0234502392013
 20
15.00557478039819
 30
0.0
 10
181.0550791490584
 20
14.92128847612022
 30
0.0
 10
180.9210133677692
 20
14.97425365495157
 30
0.0
 10
180.82923227932
 20
14.96540080890441
 30
0.0
 10
180.7079729189603
 20
14.97570049965154
 30
0.0
 10
180.5914113119771
 20
14.97748911767502
 30
0.0
 10
180.4783375745879
 20
14.97787017109695
 30
0.0
 10
180.3679246308471
 20
14.98415449472181
 30
0.0
 10
180.289812406784
 20
14.97189133255364
 30
0.0
 10
180.1913625833644
 20
15.00453887616125
 30
0.0
 10
180.2012355173561
 20
14.94769748054205
 30
0.0
 10
180.1973923244402
 20
14.91392130557983
 30
0.0
 10
180.1966789884268
 20
14.87119604709411
 30
0.0
 10
180.1963369642975
 20
14.83401607262153
 30
0.0
 10
180.1963834255346
 20
14.79487237370771
 30
0.0
 10
180.1963649429927
 20
14.75716849497686
 30
0.0
 10
180.1963703431806
 20
14.71944955232402
 30
0.0
 10
180.1963697214201
 20
14.6899432474515
 30
0.0
 10
180.1963698151545
 20
14.65873577699301
 30
0.0
 10
180.1963704287921
 20
14.61414424908085
 30
0.0
 10
180.1963671499336
 20
14.5596395650885
 30
0.0
 10
180.1963759623481
 20
14.51505540201448
 30
0.0
 10
180.1963359653417
 20
14.4311780858574
 30
0.0
 10
180.1976024270255
 20
14.31737520677678
 30
0.0
 10
180.1950274117842
 20
14.16830395933709
 30
0.0
 10
180.2065009381719
 20
14.06597203813905
 30
0.0
 10
180.1823506222264
 20
13.93338903885834
 30
0.0
 10
180.3332993946476
 20
13.97895732272021
 30
0.0
 10
180.4428436671556
 20
13.96427012162349
 30
0.0
 10
180.573397047392
 20
13.96920435125062
 30
0.0
 10
180.6990312209514
 20
13.97257705323363
 30
0.0
 10
180.81887306256
 20
13.97711497498772
 30
0.0
 10
180.9391362611427
 20
13.99048536182005
 30
0.0
 10
181.0222761663515
 20
13.98068712782595
 30
0.0
 10
181.1456080421075
 20
14.0412621462332
 30
0.0
 10
181.1244269203956
 20
13.98532460134021
 30
0.0
 10
181.1235950270116
 20
13.95939249372346
 30
0.0
 10
181.1218963707558
 20
13.93197256190938
 30
0.0
 10
181.1217974888829
 20
13.89738195206385
 30
0.0
 10
181.1203659301329
 20
13.86050408220768
 30
0.0
 10
181.153280419219
 20
13.76846841021807
 30
0.0
 10
180.9551306988107
 20
13.84132015974832
 30
0.0
 10
180.8300548294891
 20
13.81825726508607
 30
0.0
 10
180.6673071295155
 20
13.82454021985786
 30
0.0
 10
180.5129366450001
 20
13.82260943909927
 30
0.0
 10
180.3566670436943
 20
13.82393762599269
 30
0.0
 10
180.1970544465282
 20
13.82059872487863
 30
0.0
 10
180.0540326342237
 20
13.83265795728241
 30
0.0
 10
179.8197144881628
 20
13.76952001976919
 30
0.0
 10
179.9173810751197
 20
14.05620527466318
 30
0.0
 10
179.9006868780059
 20
14.24988308142661
 30
0.0
 10
179.9146296709684
 20
14.47848242880295
 30
0.0
 10
179.9142987846632
 20
14.63384593955049
 30
0.0
 10
179.9143078119263
 20
14.73966336444125
 30
0.0
 10
179.9143055876316
 20
14.80205784124214
 30
0.0
 10
179.9143065551888
 20
14.89220425248327
 30
0.0
 10
179.9143065473261
 20
14.99621167157438
 30
0.0
 10
179.9143053861102
 20
15.10022131375296
 30
0.0
 10
179.9143090971502
 20
15.19036243688768
 30
0.0
 10
179.9143011051051
 20
15.25276803097215
 30
0.0
 10
179.9143334275018
 20
15.35868835961119
 30
0.0
 10
179.9131440788319
 20
15.5162671654474
 30
0.0
 10
179.9082216489256
 20
15.66528219822065
 30
0.0
 10
179.9057788376618
 20
15.7392326039819
 30
0.0
 11
179.9057788376618
 21
15.7392326039819
 31
0.0
 11
179.896691822374
 21
15.95938578101018
 31
0.0
 11
179.8868249573133
 21
16.17960510387179
 31
0.0
 11
180.04115751414
 21
16.17312391463728
 31
0.0
 11
180.1946500189046
 21
16.16754892331925
 31
0.0
 11
180.3481160653366
 21
16.16367167505631
 31
0.0
 11
180.5025544554939
 21
16.16238072887607
 31
0.0
 11
180.6564835227473
 21
16.16367167505631
 31
0.0
 11
180.80873910046
 21
16.16754892331925
 31
0.0
 11
180.9609113551074
 21
16.17312391463728
 31
0.0
 11
181.1148364762483
 21
16.17960510387179
 31
0.0
 11
181.1070811703123
 21
16.12794961777358
 31
0.0
 11
181.1044991623591
 21
16.07642642334204
 31
0.0
 11
181.1070811703123
 21
16.0247566056466
 31
0.0
 11
181.1148364762483
 21
15.97315954836785
 31
0.0
 11
181.0094874054411
 21
15.98001446156058
 31
0.0
 11
180.913637570006
 21
15.98693552058657
 31
0.0
 11
180.8198593171903
 21
15.99378381919598
 31
0.0
 11
180.7209679915881
 21
16.0006321178054
 31
0.0
 11
180.6147532199924
 21
16.00710999974824
 31
0.0
 11
180.4991060528038
 21
16.01268829835794
 31
0.0
 11
180.3666126447258
 21
16.01656554662088
 31
0.0
 11
180.2101546018423
 21
16.01785649280112
 31
0.0
 11
180.2062663293721
 21
15.91037061609187
 31
0.0
 11
180.20153800484
 21
15.80805072896465
 31
0.0
 11
180.1976607566749
 21
15.70138175329687
 31
0.0
 11
180.1963698105272
 21
15.5810205901325
 31
0.0
 11
180.1967799146836
 21
15.44856355891565
 31
0.0
 11
180.1980896021502
 21
15.31953288186455
 31
0.0
 11
180.1994074577049
 21
15.20777398432308
 31
0.0
 11
180.199819115366
 21
15.12695149302384
 31
0.0
 11
180.3434452935874
 21
15.1278025694125
 31
0.0
 11
180.4716343930758
 21
15.13039989580076
 31
0.0
 11
180.5868078221795
 21
15.13425509545254
 31
0.0
 11
180.691775631222
 21
15.13901649302076
 31
0.0
 11
180.7876346289421
 21
15.14418027774175
 31
0.0
 11
180.8757413374193
 21
15.14934406246267
 31
0.0
 11
180.9578881438496
 21
15.15491243919739
 31
0.0
 11
181.0357692335571
 21
15.16132086801524
 31
0.0
 11
181.0280180445186
 21
15.10884407115336
 31
0.0
 11
181.0254328449317
 21
15.05469378470858
 31
0.0
 11
181.0280180445186
 21
15.00310444444367
 31
0.0
 11
181.0357692335571
 21
14.95151510417882
 31
0.0
 11
180.9389813454014
 21
14.96092324653757
 31
0.0
 11
180.8275950722015
 21
14.96865128473012
 31
0.0
 11
180.7089261429373
 21
14.97425273438145
 31
0.0
 11
180.5903167449213
 21
14.97726788195011
 31
0.0
 11
180.4750025117521
 21
14.97898767361639
 31
0.0
 11
180.36672619507
 21
14.98070746528258
 31
0.0
 11
180.2724839317708
 21
14.98202486979617
 31
0.0
 11
180.199819115366
 21
14.98243607639328
 31
0.0
 11
180.199407457705
 21
14.9501910850819
 31
0.0
 11
180.1980896021502
 21
14.91542593752116
 31
0.0
 11
180.1967799146836
 21
14.87450702260085
 31
0.0
 11
180.1963698105272
 21
14.82421524309952
 31
0.0
 11
180.1963698105272
 21
14.80326217235822
 31
0.0
 11
180.1963698105272
 21
14.75716541672736
 31
0.0
 11
180.1963698105272
 21
14.71106866109651
 31
0.0
 11
180.1963698105272
 21
14.69011559035521
 31
0.0
 11
180.1963698105272
 21
14.6686452525828
 31
0.0
 11
180.1963698105272
 21
14.61744675481784
 31
0.0
 11
180.1963698105272
 21
14.55633887038868
 31
0.0
 11
180.1963698105272
 21
14.50514037262371
 31
0.0
 11
180.1963698105272
 21
14.4836700348513
 31
0.0
 11
180.1967799146836
 21
14.30481721371548
 31
0.0
 11
180.1980896021502
 21
14.16026100715442
 31
0.0
 11
180.2002868589709
 21
14.04850210961289
 31
0.0
 11
180.2032586986985
 21
13.96767961831365
 31
0.0
 11
180.3202092517447
 21
13.96767961831365
 31
0.0
 11
180.4440727208746
 21
13.96767961831365
 31
0.0
 11
180.5734925526422
 21
13.96897056449389
 31
0.0
 11
180.7003922282244
 21
13.97284781275683
 31
0.0
 11
180.8224658067973
 21
13.97886708358865
 31
0.0
 11
180.9377587499463
 21
13.98663260442002
 31
0.0
 11
181.0421754573518
 21
13.99734161483402
 31
0.0
 11
181.1320599255448
 21
14.01237656274692
 31
0.0
 11
181.1264254031191
 21
13.98698427976715
 31
0.0
 11
181.1234433285423
 21
13.95907184053802
 31
0.0
 11
181.12213398812
 21
13.93112191867001
 31
0.0
 11
181.1217235369195
 21
13.90575829888472
 31
0.0
 11
181.1243087365064
 21
13.85584355063325
 31
0.0
 11
181.1320599255448
 21
13.81626739612928
 31
0.0
 11
180.9776977178344
 21
13.82145433189186
 31
0.0
 11
180.8242357818765
 21
13.82315538223863
 31
0.0
 11
180.6697789496483
 21
13.82315538223863
 31
0.0
 11
180.5128026496768
 21
13.82315538223863
 31
0.0
 11
180.3554704921536
 21
13.82315538223863
 31
0.0
 11
180.199819115366
 21
13.82315538223863
 31
0.0
 11
180.0441620874241
 21
13.82145433189186
 31
0.0
 11
179.8868249573133
 21
13.81626739612928
 31
0.0
 11
179.896691822374
 21
14.0360126738521
 31
0.0
 11
179.9057788376618
 21
14.25491128490852
 31
0.0
 11
179.91217215184
 21
14.47550763902003
 31
0.0
 11
179.9143063455009
 21
14.70036378479715
 31
0.0
 11
179.9143063455009
 21
14.72578824496874
 31
0.0
 11
179.9143063455009
 21
14.79281636723931
 31
0.0
 11
179.9143063455009
 21
14.88758026424253
 31
0.0
 11
179.9143063455009
 21
14.99621204861207
 31
0.0
 11
179.9143063455009
 21
15.10484383298162
 31
0.0
 11
179.9143063455009
 21
15.19960772998484
 31
0.0
 11
179.9143063455009
 21
15.2666358522554
 31
0.0
 11
179.9143063455009
 21
15.292060312427
 31
0.0
 11
179.91217215184
 21
15.51735963528735
 31
0.0
 11
179.9057788376618
 21
15.7392326039819
 31
0.0
  0
SPLINE
  5
B5
102
{ACAD_REACTORS
330
D2
102
}
330
48
100
AcDbEntity
  8
_U_30EC_U_30A4_U_30E4_U_30FC_1
  6
Continuous
 62
     2
100
AcDbSpline
210
0.0
220
0.0
230
1.0
 70
    11
 71
     3
 72
    95
 73
    91
 74
    89
 42
0.000000001
 43
0.0000000001
 44
0.00000001
 40
0.0
 40
0.0
 40
0.0
 40
0.0
 40
0.6550406656911482
 40
1.308087289031932
 40
1.420803739835805
 40
1.566130759770813
 40
1.75706734188847
 40
2.006513545026472
 40
2.08732826312156
 40
2.185328872295633
 40
2.294612454748368
 40
2.408936380534818
 40
2.526802767798564
 40
2.646360524615613
 40
2.762535723971582
 40
2.870057342870153
 40
2.966883448431651
 40
3.050803243518302
 40
3.11581822243661
 40
3.156030057150239
 40
3.213914225080141
 40
3.276689026450541
 40
3.342960320981319
 40
3.404230667150567
 40
3.453822809493367
 40
3.532499827188432
 40
3.63477518850716
 40
3.754909333008158
 40
3.889736761660659
 40
4.035769602175222
 40
4.187256681197605
 40
4.338733685675954
 40
4.48847873467611
 40
4.634708317831582
 40
4.771493189921269
 40
4.892686571561208
 40
5.199775528944444
 40
5.460353566929633
 40
5.667603142345508
 40
5.814722905404488
 40
5.828990806219786
 40
5.855488336304483
 40
5.869756237118815
 40
6.18979650776282
 40
6.531890469873014
 40
6.883053637017
 40
7.230512024911471
 40
7.566966656764578
 40
7.885203559707405
 40
8.172887439719208
 40
8.41801159406276
 40
8.443926721190682
 40
8.51076047061317
 40
8.602145393795679
 40
8.70171404164712
 40
8.79309896507535
 40
8.859932715057923
 40
8.885847842603573
 40
9.242301256612791
 40
9.589275455016741
 40
9.92180854316415
 40
10.23479624298465
 40
10.29968150889176
 40
10.35323493887764
 40
10.40154625355149
 40
10.46482922477825
 40
10.55973900668405
 40
10.69239545985617
 40
10.84920353475671
 40
11.01626328594779
 40
11.18672024367443
 40
11.35372582577211
 40
11.50257442292426
 40
11.61866495023291
 40
11.71329869152874
 40
11.82511050573907
 40
11.94464880845716
 40
12.06929242642506
 40
12.19707290435176
 40
12.32562632860529
 40
12.45034565331279
 40
12.56646595170328
 40
12.67099007414635
 40
12.76077625936783
 40
12.82703233506694
 40
12.87429132785993
 40
12.89831990323333
 40
12.92234847860021
 40
13.53984767410321
 40
14.18294284359366
 40
14.18294284359366
 40
14.18294284359366
 40
14.18294284359366
 10
177.3067935648021
 20
14.70898038201725
 30
0.0
 10
177.175201975855
 20
14.82265058603232
 30
0.0
 10
176.9124193802728
 20
15.04964496316158
 30
0.0
 10
176.399739344102
 20
15.89214462956287
 30
0.0
 10
176.4106654595362
 20
15.53423377577019
 30
0.0
 10
176.4041226527991
 20
15.39267392272132
 30
0.0
 10
176.4028026631773
 20
15.1942130529928
 30
0.0
 10
176.4018117602538
 20
15.02150296045982
 30
0.0
 10
176.4024101751974
 20
14.87865373257579
 30
0.0
 10
176.4038994301882
 20
14.78265005413357
 30
0.0
 10
176.4055683588472
 20
14.67545503263142
 30
0.0
 10
176.4071934954618
 20
14.56164211517582
 30
0.0
 10
176.4092429501685
 20
14.44441572604588
 30
0.0
 10
176.4123165501927
 20
14.3265641123297
 30
0.0
 10
176.4156339697043
 20
14.21228087320621
 30
0.0
 10
176.419360534028
 20
14.10521401867278
 30
0.0
 10
176.4217338161424
 20
14.01007408766921
 30
0.0
 10
176.4278718888357
 20
13.92558557205695
 30
0.0
 10
176.4239784495947
 20
13.86923087298142
 30
0.0
 10
176.4455230443077
 20
13.79825022472356
 30
0.0
 10
176.3680940058618
 20
13.82902677604484
 30
0.0
 10
176.3116353240191
 20
13.82011242517614
 30
0.0
 10
176.2540495896807
 20
13.82896218398276
 30
0.0
 10
176.1690163478472
 20
13.79738225225945
 30
0.0
 10
176.2009714146383
 20
13.88095155992191
 30
0.0
 10
176.1990705282539
 20
13.94882608968309
 30
0.0
 10
176.21079600473
 20
14.05233256764419
 30
0.0
 10
176.2164241053
 20
14.17002125616695
 30
0.0
 10
176.2237902178941
 20
14.30388609164423
 30
0.0
 10
176.232075970161
 20
14.44764152872632
 30
0.0
 10
176.2398851897427
 20
14.59714022843445
 30
0.0
 10
176.2457571222657
 20
14.74792549402078
 30
0.0
 10
176.2503667817969
 20
14.89699943878438
 30
0.0
 10
176.2542632117542
 20
15.04122913163022
 30
0.0
 10
176.2570715126564
 20
15.17583905213017
 30
0.0
 10
176.2576698755022
 20
15.36469614347355
 30
0.0
 10
176.261602386715
 20
15.58975494313153
 30
0.0
 10
176.2442175378499
 20
15.86367091125708
 30
0.0
 10
176.2850417342583
 20
16.02787112098595
 30
0.0
 10
176.1995153256001
 20
16.22749661465097
 30
0.0
 10
176.2660558907688
 20
16.22385458403978
 30
0.0
 10
176.283872427323
 20
16.22413447160854
 30
0.0
 10
176.4056801797504
 20
16.22632927398611
 30
0.0
 10
176.5080770335462
 20
15.94675118721515
 30
0.0
 10
176.7580021509355
 20
15.74563008536
 30
0.0
 10
176.9870035331111
 20
15.47792614987917
 30
0.0
 10
177.2245151213108
 20
15.22646413862376
 30
0.0
 10
177.4486090740772
 20
14.98969974061358
 30
0.0
 10
177.6750716283009
 20
14.73218692583079
 30
0.0
 10
177.8325687886515
 20
14.61649335056921
 30
0.0
 10
178.0472129612673
 20
14.27997152538793
 30
0.0
 10
178.0422645974618
 20
14.40464754091603
 30
0.0
 10
178.0433931602546
 20
14.46327691935737
 30
0.0
 10
178.0428877841516
 20
14.55043662371977
 30
0.0
 10
178.0430475158113
 20
14.64416143182872
 30
0.0
 10
178.0430054891318
 20
14.73018971297035
 30
0.0
 10
178.0430202040373
 20
14.79153891945496
 30
0.0
 10
178.0429706255983
 20
14.94135231520991
 30
0.0
 10
178.0458811522811
 20
15.17989612510105
 30
0.0
 10
178.0259521041162
 20
15.54486509868701
 30
0.0
 10
178.0750433936246
 20
15.80799631993411
 30
0.0
 10
177.9177951509182
 20
16.21928904947753
 30
0.0
 10
178.076211287242
 20
16.16398282551747
 30
0.0
 10
178.1311680478629
 20
16.16199686500176
 30
0.0
 10
178.182788776674
 20
16.16264778248251
 30
0.0
 10
178.2713198965366
 20
16.20369527738246
 30
0.0
 10
178.2204898303168
 20
16.05696326622987
 30
0.0
 10
178.2313389930283
 20
15.95019971954434
 30
0.0
 10
178.2166036994847
 20
15.79085705414113
 30
0.0
 10
178.2099976446204
 20
15.62853061652874
 30
0.0
 10
178.2014961399914
 20
15.45992521892396
 30
0.0
 10
178.1943227202199
 20
15.2981481470354
 30
0.0
 10
178.1889063215389
 20
15.15422331457933
 30
0.0
 10
178.1871713967649
 20
15.03437493466925
 30
0.0
 10
178.1875440672318
 20
14.92686101590514
 30
0.0
 10
178.1873656126263
 20
14.81820024645586
 30
0.0
 10
178.187701086314
 20
14.6995357016553
 30
0.0
 10
178.1890040622184
 20
14.57555163512741
 30
0.0
 10
178.1908887351574
 20
14.44858294171105
 30
0.0
 10
178.192500445485
 20
14.32153861551031
 30
0.0
 10
178.194140313743
 20
14.19854884492178
 30
0.0
 10
178.1962570745751
 20
14.08300931383759
 30
0.0
 10
178.1963848422364
 20
13.98090903955836
 30
0.0
 10
178.2006514396554
 20
13.89009848838156
 30
0.0
 10
178.1908440085289
 20
13.83213621208786
 30
0.0
 10
178.2118474771689
 20
13.76517130132029
 30
0.0
 10
178.1725639739897
 20
13.77291153966688
 30
0.0
 10
177.9595307117747
 20
13.75755254145192
 30
0.0
 10
177.7636297943186
 20
14.3140305809447
 30
0.0
 10
177.4611197631544
 20
14.5755603534851
 30
0.0
 10
177.3067935648021
 20
14.70898038201725
 30
0.0
 11
177.3067935648021
 21
14.70898038201725
 31
0.0
 11
176.8595529338511
 21
15.18757635411977
 31
0.0
 11
176.4124049070643
 21
15.6635264928897
 31
0.0
 11
176.4089664262494
 21
15.55086249986232
 31
0.0
 11
176.40556101835
 21
15.40557538184309
 31
0.0
 11
176.4029636920274
 21
15.21465645827967
 31
0.0
 11
176.4021126156603
 21
14.96521170139756
 31
0.0
 11
176.4025239230289
 21
14.88439802954279
 31
0.0
 11
176.4038420329817
 21
14.78640628477561
 31
0.0
 11
176.4055192267718
 21
14.67713557299739
 31
0.0
 11
176.4072367127518
 21
14.56282454872039
 31
0.0
 11
176.4094007838772
 21
14.44497802965266
 31
0.0
 11
176.4124049070643
 21
14.32545802100199
 31
0.0
 11
176.4158359733138
 21
14.20933349846156
 31
0.0
 11
176.4192928929998
 21
14.1018674655023
 31
0.0
 11
176.4227085253088
 21
14.00510162351264
 31
0.0
 11
176.4261896983793
 21
13.92125406276972
 31
0.0
 11
176.4296006184313
 21
13.8563286200776
 31
0.0
 11
176.4330776843148
 21
13.81626739612928
 31
0.0
 11
176.3754263821571
 21
13.82145433189186
 31
0.0
 11
176.3126746318309
 21
13.82315538223863
 31
0.0
 11
176.2464251717157
 21
13.82145433189186
 31
0.0
 11
176.1853747739675
 21
13.81626739612928
 31
0.0
 11
176.1926772737812
 21
13.8653189412559
 31
0.0
 11
176.2008793569054
 21
13.94356725720856
 31
0.0
 11
176.2090098822348
 21
14.04551893253029
 31
0.0
 11
176.2163406441397
 21
14.16542920159752
 31
0.0
 11
176.2236358280421
 21
14.3000591234389
 31
0.0
 11
176.2318444255596
 21
14.44586107652745
 31
0.0
 11
176.2395504149465
 21
14.59715203135073
 31
0.0
 11
176.2455763002093
 21
14.74850913200734
 31
0.0
 11
176.2503046247416
 21
14.89817951391435
 31
0.0
 11
176.254192897212
 21
15.04435739582222
 31
0.0
 11
176.2567527408965
 21
15.18111831592696
 31
0.0
 11
176.2576324804574
 21
15.3023085068689
 31
0.0
 11
176.257192610677
 21
15.60939715262544
 31
0.0
 11
176.2559126888347
 21
15.86997204839365
 31
0.0
 11
176.2528658717893
 21
16.07719922716125
 31
0.0
 11
176.2473049112763
 21
16.22421385386062
 31
0.0
 11
176.2615728121469
 21
16.22421385386062
 31
0.0
 11
176.2880703423352
 21
16.22421385386062
 31
0.0
 11
176.3023382432058
 21
16.22421385386062
 31
0.0
 11
176.5194743650277
 21
15.98910179662773
 31
0.0
 11
176.7512744123079
 21
15.73751281231561
 31
0.0
 11
176.9894816018839
 21
15.4794955554357
 31
0.0
 11
177.2260074557521
 21
15.22497079855489
 31
0.0
 11
177.4555698717705
 21
14.97899759549137
 31
0.0
 11
177.6731797360103
 21
14.74678934034107
 31
0.0
 11
177.8713724913707
 21
14.53826680567099
 31
0.0
 11
178.0430143099086
 21
14.36326697932589
 31
0.0
 11
178.0430143099086
 21
14.38918210687043
 31
0.0
 11
178.0430143099086
 21
14.45601585685371
 31
0.0
 11
178.0430143099086
 21
14.54740078030025
 31
0.0
 11
178.0430143099086
 21
14.64696942823453
 31
0.0
 11
178.0430143099086
 21
14.73835435168106
 31
0.0
 11
178.0430143099086
 21
14.80518810166435
 31
0.0
 11
178.0430143099086
 21
14.83110322920889
 31
0.0
 11
178.0417233637609
 21
15.18755430550867
 31
0.0
 11
178.0378461155958
 21
15.53450684014415
 31
0.0
 11
178.0296197790002
 21
15.86693815950552
 31
0.0
 11
178.0154535467228
 21
16.17960510387179
 31
0.0
 11
178.0790351249618
 21
16.16666367158334
 31
0.0
 11
178.1324170159611
 21
16.16238072887607
 31
0.0
 11
178.1805381084833
 21
16.16666367158334
 31
0.0
 11
178.2424836798197
 21
16.17960510387179
 31
0.0
 11
178.2351216487575
 21
16.084981284451
 31
0.0
 11
178.2269790968818
 21
15.95257496503965
 31
0.0
 11
178.2183705364004
 21
15.79600336785656
 31
0.0
 11
178.2097547223215
 21
15.62916593734271
 31
0.0
 11
178.2016187850288
 21
15.4589032550936
 31
0.0
 11
178.1942501393835
 21
15.292060312427
 31
0.0
 11
178.1891406931522
 21
15.1432994357281
 31
0.0
 11
178.1874503478904
 21
15.02722121527101
 31
0.0
 11
178.1874503478904
 21
14.93258747397519
 31
0.0
 11
178.1874503478904
 21
14.82077565976707
 31
0.0
 11
178.1878461204497
 21
14.70123801222749
 31
0.0
 11
178.1890819450708
 21
14.5766005209392
 31
0.0
 11
178.1908392193317
 21
14.44883212687391
 31
0.0
 11
178.1925303477608
 21
14.32028982655879
 31
0.0
 11
178.1942876220214
 21
14.19558288214555
 31
0.0
 11
178.1959787504505
 21
14.07947489606349
 31
0.0
 11
178.1972884379172
 21
13.97495896727017
 31
0.0
 11
178.1976985420735
 21
13.88517371555652
 31
0.0
 11
178.1976985420735
 21
13.81891763918416
 31
0.0
 11
178.1976985420735
 21
13.77165864614041
 31
0.0
 11
178.1736699662976
 21
13.77165864614041
 31
0.0
 11
178.1496413905217
 21
13.77165864614041
 31
0.0
 11
177.7410729200423
 21
14.2346673526219
 31
0.0
 11
177.3067935648021
 21
14.70898038201725
 31
0.0
  0
SPLINE
  5
B6
102
{ACAD_REACTORS
330
D3
102
}
330
48
100
AcDbEntity
  8
_U_30EC_U_30A4_U_30E4_U_30FC_1
  6
Continuous
 62
     2
100
AcDbSpline
210
0.0
220
0.0
230
1.0
 70
    11
 71
     3
 72
    25
 73
    21
 74
    19
 42
0.000000001
 43
0.0000000001
 44
0.00000001
 40
0.0
 40
0.0
 40
0.0
 40
0.0
 40
0.0911479969064821
 40
0.1858117896204668
 40
0.2804128399734491
 40
0.371588919071451
 40
0.4679080494218708
 40
0.5642683809229231
 40
0.6605683222644991
 40
0.7569653015810256
 40
0.8561348172522739
 40
1.092615965104292
 40
1.374867658141875
 40
1.611348812011601
 40
1.710518328425249
 40
1.809403163726568
 40
2.04520546329407
 40
2.32664691762213
 40
2.562449217190592
 40
2.661334043833911
 40
2.661334043833911
 40
2.661334043833911
 40
2.661334043833911
 10
173.2683700567199
 20
14.88614538197292
 30
0.0
 10
173.2987525917923
 20
14.88598079714555
 30
0.0
 10
173.3606895889111
 20
14.88564528689922
 30
0.0
 10
173.454135696033
 20
14.88269055451999
 30
0.0
 10
173.5475095236357
 20
14.87977752877151
 30
0.0
 10
173.6417760753476
 20
14.87894201643416
 30
0.0
 10
173.7354964790967
 20
14.87996644658046
 30
0.0
 10
173.8352040303204
 20
14.87916977470972
 30
0.0
 10
173.9188949546313
 20
14.8892141023522
 30
0.0
 10
174.0637996315045
 20
14.86234617674165
 30
0.0
 10
173.9396132444801
 20
15.0366553028005
 30
0.0
 10
173.8965867286282
 20
15.19651711006091
 30
0.0
 10
173.780892214221
 20
15.45518458550216
 30
0.0
 10
173.7017565431257
 20
15.59231052861858
 30
0.0
 10
173.6431576621816
 20
15.80937033134077
 30
0.0
 10
173.5864803939438
 20
15.59266134213428
 30
0.0
 10
173.5052809900478
 20
15.45327012438236
 30
0.0
 10
173.4063701281487
 20
15.20406969370194
 30
0.0
 10
173.325362509426
 20
15.01925830226074
 30
0.0
 10
173.2813683325838
 20
14.91650446856116
 30
0.0
 10
173.2683700567199
 20
14.88614538197292
 30
0.0
 11
173.2683700567199
 21
14.88614538197292
 31
0.0
 11
173.359513773782
 21
14.8852612326676
 31
0.0
 11
173.4541428297581
 21
14.88269697919598
 31
0.0
 11
173.5487082179706
 21
14.88009965280777
 31
0.0
 11
173.6398803250196
 21
14.8792485764191
 31
0.0
 11
173.7361985777706
 21
14.87965978301621
 31
0.0
 11
173.8325499034376
 21
14.88097718752971
 31
0.0
 11
173.9288262638286
 21
14.88310818579312
 31
0.0
 11
174.0251753846343
 21
14.88614538197292
 31
0.0
 11
173.9854633323141
 21
14.9770164219502
 31
0.0
 11
173.8907653613968
 21
15.19370890189602
 31
0.0
 11
173.7777387509471
 21
15.45234186183135
 31
0.0
 11
173.6830407800297
 21
15.66903434177717
 31
0.0
 11
173.6433287277095
 21
15.75990538175445
 31
0.0
 11
173.6043330259266
 21
15.66903434177717
 31
0.0
 11
173.5113432755212
 21
15.45234186183135
 31
0.0
 11
173.4003555089082
 21
15.19370890189602
 31
0.0
 11
173.3073657585028
 21
14.9770164219502
 31
0.0
 11
173.2683700567199
 21
14.88614538197292
 31
0.0
  0
SPLINE
  5
B7
102
{ACAD_REACTORS
330
D3
102
}
330
48
100
AcDbEntity
  8
_U_30EC_U_30A4_U_30E4_U_30FC_1
  6
Continuous
 62
     2
100
AcDbSpline
210
0.0
220
0.0
230
1.0
 70
    11
 71
     3
 72
    57
 73
    53
 74
    51
 42
0.000000001
 43
0.0000000001
 44
0.00000001
 40
0.0
 40
0.0
 40
0.0
 40
0.0
 40
0.0471632082809231
 40
0.091486105463215
 40
0.1357762519702386
 40
0.182652700161068
 40
0.2295203288572589
 40
0.2737751972220759
 40
0.3181310461543069
 40
0.3652607198398508
 40
0.4571007286314344
 40
0.5671851029165189
 40
0.6894623283868276
 40
0.8181758272545547
 40
0.9510087229273827
 40
1.085852229674046
 40
1.218126164475282
 40
1.343545131142373
 40
1.45453720295679
 40
1.567187607530799
 40
1.680710966642417
 40
1.794226869736782
 40
1.900009184247581
 40
2.00408586044786
 40
2.108162674451748
 40
2.214000150155293
 40
2.496038577352129
 40
2.762350745479268
 40
2.997275353279397
 40
3.185110082137713
 40
3.246407890063939
 40
3.31260755021267
 40
3.378877742711572
 40
3.440140399651426
 40
4.100501696006437
 40
4.754913085563503
 40
5.411331693423898
 40
6.07789043256868
 40
6.110575292670959
 40
6.143260152775739
 40
6.367989363395132
 40
6.610525374951529
 40
6.863389136467292
 40
7.119380025547584
 40
7.376036605091072
 40
7.631164770966278
 40
7.876722425456396
 40
8.104953735855927
 40
8.312916685924268
 40
8.49773029494128
 40
8.651018984313831
 40
8.764738853624554
 40
8.764738853624554
 40
8.764738853624554
 40
8.764738853624554
 10
174.7922649500513
 20
13.81626739612928
 30
0.0
 10
174.7766616726931
 20
13.81826231079079
 30
0.0
 10
174.7463947960302
 20
13.822132013603
 30
0.0
 10
174.7010994202252
 20
13.82341984967269
 30
0.0
 10
174.6559553129349
 20
13.82308683554052
 30
0.0
 10
174.6099017123399
 20
13.82314658674225
 30
0.0
 10
174.5640496172097
 20
13.82325813650002
 30
0.0
 10
174.5183711648165
 20
13.82277833456591
 30
0.0
 10
174.4750811541608
 20
13.82461109618722
 30
0.0
 10
174.4039947951514
 20
13.80049556814658
 30
0.0
 10
174.4057477261441
 20
13.92184693977251
 30
0.0
 10
174.358619637057
 20
14.00726239751234
 30
0.0
 10
174.3191478251762
 20
14.12486929345133
 30
0.0
 10
174.2706635532646
 20
14.24232752540442
 30
0.0
 10
174.2201017402522
 20
14.36405935761507
 30
0.0
 10
174.1718634610476
 20
14.49075967862463
 30
0.0
 10
174.1135232947595
 20
14.59933687784955
 30
0.0
 10
174.0980892667261
 20
14.75620657134409
 30
0.0
 10
173.9566586330636
 20
14.72373446548322
 30
0.0
 10
173.8508397414903
 20
14.73512888682179
 30
0.0
 10
173.7358569725222
 20
14.73392591514616
 30
0.0
 10
173.6253142252141
 20
14.73506945347408
 30
0.0
 10
173.5176583522783
 20
14.73418350037526
 30
0.0
 10
173.4121322529242
 20
14.73416602390519
 30
0.0
 10
173.3109192682012
 20
14.72714032472415
 30
0.0
 10
173.1266804827753
 20
14.75135859859867
 30
0.0
 10
173.1157393685411
 20
14.44741691121885
 30
0.0
 10
173.008769163475
 20
14.22353177253397
 30
0.0
 10
172.9098148604347
 20
14.03895314292497
 30
0.0
 10
172.9225090524007
 20
13.79530204804207
 30
0.0
 10
172.8050091716397
 20
13.82508046753198
 30
0.0
 10
172.742205586831
 20
13.82258089509604
 30
0.0
 10
172.6785872093399
 20
13.82344075102806
 30
0.0
 10
172.3946014194075
 20
13.78098039941947
 30
0.0
 10
173.0251638499381
 20
14.50081952444786
 30
0.0
 10
173.1087645289071
 20
15.0127653943573
 30
0.0
 10
173.4929252789339
 20
15.53353743550043
 30
0.0
 10
173.4777208288565
 20
16.23519626253214
 30
0.0
 10
173.7239265722697
 20
16.22345633081256
 30
0.0
 10
173.8256346157561
 20
16.23225004452773
 30
0.0
 10
173.8249752035818
 20
15.98059650730346
 30
0.0
 10
173.9428317155829
 20
15.79818020733958
 30
0.0
 10
174.0315515260484
 20
15.55563740662865
 30
0.0
 10
174.1322292485259
 20
15.32340030530127
 30
0.0
 10
174.2311142712243
 20
15.08674644566912
 30
0.0
 10
174.3299676990669
 20
14.85461739170093
 30
0.0
 10
174.4256166390925
 20
14.63122222788787
 30
0.0
 10
174.5159904573271
 20
14.42272549049317
 30
0.0
 10
174.5989944568189
 20
14.2330844852932
 30
0.0
 10
174.6726088582799
 20
14.066631060681
 30
0.0
 10
174.7342815895545
 20
13.92917699626097
 30
0.0
 10
174.7749458885604
 20
13.84999239430034
 30
0.0
 10
174.7922649500513
 20
13.81626739612928
 30
0.0
 11
174.7922649500513
 21
13.81626739612928
 31
0.0
 11
174.7453878317448
 21
13.82145433189186
 31
0.0
 11
174.7010975896125
 21
13.82315538223863
 31
0.0
 11
174.6568074431729
 21
13.82315538223863
 31
0.0
 11
174.6099309947159
 21
13.82315538223863
 31
0.0
 11
174.5630633657033
 21
13.82315538223863
 31
0.0
 11
174.5188084970408
 21
13.82315538223863
 31
0.0
 11
174.4744852776854
 21
13.82145433189186
 31
0.0
 11
174.4276419021443
 21
13.81626739612928
 31
0.0
 11
174.3992532136325
 21
13.90360966173244
 31
0.0
 11
174.3622721815898
 21
14.0072965627482
 31
0.0
 11
174.3188386236701
 21
14.12159987001127
 31
0.0
 11
174.2711055866937
 21
14.24113531268969
 31
0.0
 11
174.2208160133237
 21
14.36408057307564
 31
0.0
 11
174.1696467003932
 21
14.48883822929446
 31
0.0
 11
174.1197531801326
 21
14.61134141502772
 31
0.0
 11
174.0733119111841
 21
14.72784517367917
 31
0.0
 11
173.9623611907589
 21
14.73087465284506
 31
0.0
 11
173.8497309225089
 21
14.7330045486779
 31
0.0
 11
173.7362152069449
 21
14.7343219531914
 31
0.0
 11
173.62270004768
 21
14.73473315978852
 31
0.0
 11
173.5169185312816
 21
14.7343219531914
 31
0.0
 11
173.4128501919225
 21
14.7330045486779
 31
0.0
 11
173.3087951724045
 21
14.73087465284506
 31
0.0
 11
173.2030010615596
 21
14.72784517367917
 31
0.0
 11
173.0980914750139
 21
14.4660443751335
 31
0.0
 11
173.0034868690331
 21
14.2171023265846
 31
0.0
 11
172.9252231210298
 21
13.99559756969557
 31
0.0
 11
172.8693431224555
 21
13.81626739612928
 31
0.0
 11
172.8082651639442
 21
13.82145433189186
 31
0.0
 11
172.742087361813
 21
13.82315538223863
 31
0.0
 11
172.6758390041282
 21
13.82145433189186
 31
0.0
 11
172.6147963233938
 21
13.81626739612928
 31
0.0
 11
172.889968495193
 21
14.41656508695142
 31
0.0
 11
173.158294573417
 21
15.01343642360776
 31
0.0
 11
173.4240277350405
 21
15.61366245644381
 31
0.0
 11
173.6914740737033
 21
16.22421385386062
 31
0.0
 11
173.7241589339806
 21
16.22421385386062
 31
0.0
 11
173.7568437942579
 21
16.22421385386062
 31
0.0
 11
173.8428300681057
 21
16.01658539037084
 31
0.0
 11
173.9357285813609
 21
15.79254614563517
 31
0.0
 11
174.0328714521463
 21
15.55908663180468
 31
0.0
 11
174.1317936458031
 21
15.32298128464144
 31
0.0
 11
174.2315341249927
 21
15.08649780379783
 31
0.0
 11
174.3313071129353
 21
14.85168781253709
 31
0.0
 11
174.4280608257448
 21
14.6259949219685
 31
0.0
 11
174.5188084970408
 21
14.4165805209792
 31
0.0
 11
174.6022150834546
 21
14.22607611130461
 31
0.0
 11
174.6770293263377
 21
14.05708232662467
 31
0.0
 11
174.7410729186603
 21
13.91781337700667
 31
0.0
 11
174.7922649500513
 21
13.81626739612928
 31
0.0
  0
SPLINE
  5
B8
102
{ACAD_REACTORS
330
D4
102
}
330
48
100
AcDbEntity
  8
_U_30EC_U_30A4_U_30E4_U_30FC_1
  6
Continuous
 62
     2
100
AcDbSpline
210
0.0
220
0.0
230
1.0
 70
    11
 71
     3
 72
    99
 73
    95
 74
    93
 42
0.000000001
 43
0.0000000001
 44
0.00000001
 40
0.0
 40
0.0
 40
0.0
 40
0.0
 40
0.0796417172272862
 40
0.162176854235597
 40
0.2486489160957623
 40
0.3404969668524581
 40
0.4381912511164604
 40
0.5434463660244906
 40
0.6518115192847226
 40
0.7530190937886798
 40
0.8492196919725086
 40
0.9419290312998707
 40
1.03424966357005
 40
1.129078600620201
 40
1.226697027573247
 40
1.327220425421709
 40
1.470572134938023
 40
1.595489863371215
 40
1.719934125348402
 40
1.850576620127425
 40
1.989059629987308
 40
2.134139054226823
 40
2.280698007207216
 40
2.424529739039484
 40
2.565929576985809
 40
2.708239260773536
 40
2.861717887443654
 40
3.045168540347357
 40
3.183798301138607
 40
3.314813961455454
 40
3.442083470447304
 40
3.569912708372962
 40
3.702177512509358
 40
3.842307559659526
 40
3.992872223245929
 40
4.156750662218318
 40
4.31098186110754
 40
4.445859909322586
 40
4.572393936131578
 40
4.701656719781978
 40
4.768279086008466
 40
4.8359606978984
 40
4.912788918729333
 40
5.006285208481533
 40
5.026909478751609
 40
5.047533749021174
 40
5.101808031471244
 40
5.162325165538525
 40
5.226919745995845
 40
5.294231806596718
 40
5.364544852554865
 40
5.438319055467911
 40
5.517877651324246
 40
5.607647714861558
 40
5.700449642544405
 40
5.788251142364136
 40
5.872714706039768
 40
5.955167292575283
 40
6.037192395190372
 40
6.120669181469104
 40
6.206848616686344
 40
6.296680855416765
 40
6.442558392872586
 40
6.568190371608274
 40
6.692904567360359
 40
6.824220446557135
 40
6.963121850329371
 40
7.107843738851159
 40
7.25343166390727
 40
7.395187468036693
 40
7.533140753237749
 40
7.670550457175237
 40
7.816236511769254
 40
7.987691657359218
 40
8.14227742196926
 40
8.293662615415018
 40
8.442962460879281
 40
8.591598316185319
 40
8.743678992361774
 40
8.903725323699184
 40
9.07630700889053
 40
9.265578604680586
 40
9.45920379536076
 40
9.617619810273547
 40
9.753609671361906
 40
9.874873300004078
 40
9.954520184977781
 40
10.02416413719245
 40
10.09769764405445
 40
10.18909955924972
 40
10.20974586420134
 40
10.23039218263379
 40
10.30057101881264
 40
10.37632012987545
 40
10.37632012987545
 40
10.37632012987545
 40
10.37632012987545
 10
170.1465954835851
 20
14.13795663215994
 30
0.0
 10
170.1632217851219
 20
14.11720608845313
 30
0.0
 10
170.1970784206578
 20
14.07495111711905
 30
0.0
 10
170.2599822541036
 20
14.0202981139207
 30
0.0
 10
170.3332500940393
 20
13.97299025121051
 30
0.0
 10
170.4175969238636
 20
13.93527231437935
 30
0.0
 10
170.5132240615459
 20
13.91040619731951
 30
0.0
 10
170.6171853775346
 20
13.90309559345937
 30
0.0
 10
170.7224020220405
 20
13.91142322794053
 30
0.0
 10
170.8206626371334
 20
13.94149179651528
 30
0.0
 10
170.9058986427548
 20
13.98848822971879
 30
0.0
 10
170.9779220206104
 20
14.0495299125085
 30
0.0
 10
171.0350917709096
 20
14.12412969578587
 30
0.0
 10
171.0767868747439
 20
14.21002464660173
 30
0.0
 10
171.1026952846292
 20
14.30485850432211
 30
0.0
 10
171.1118037332652
 20
14.41854979038366
 30
0.0
 10
171.0986864796487
 20
14.54332587770779
 30
0.0
 10
171.0325330334414
 20
14.66014719171892
 30
0.0
 10
170.9369370919568
 20
14.74512539577372
 30
0.0
 10
170.8249681022369
 20
14.81416684459163
 30
0.0
 10
170.6993659583269
 20
14.87204142045887
 30
0.0
 10
170.5656691620857
 20
14.92373723284346
 30
0.0
 10
170.4313122818831
 20
14.97899092397178
 30
0.0
 10
170.3051983986877
 20
15.04939770641647
 30
0.0
 10
170.1926579987535
 20
15.13785540731254
 30
0.0
 10
170.0969963064458
 20
15.2498106786847
 30
0.0
 10
170.0334157151826
 20
15.39949910101383
 30
0.0
 10
170.0200706505015
 20
15.55932794385141
 30
0.0
 10
170.0320510987449
 20
15.71048405306845
 30
0.0
 10
170.071229892884
 20
15.83809244591539
 30
0.0
 10
170.135498775091
 20
15.95080874030845
 30
0.0
 10
170.223820499974
 20
16.04648609268686
 30
0.0
 10
170.3338091207627
 20
16.12354214985753
 30
0.0
 10
170.4632284401265
 20
16.18151396936277
 30
0.0
 10
170.6111838967793
 20
16.21739177588822
 30
0.0
 10
170.7682069455487
 20
16.22746719050564
 30
0.0
 10
170.917494046643
 20
16.2186363776259
 30
0.0
 10
171.059625361417
 20
16.19074899340352
 30
0.0
 10
171.1595922609625
 20
16.13413314701138
 30
0.0
 10
171.3125074736185
 20
16.08674602105507
 30
0.0
 10
171.2455131717168
 20
16.00197553001184
 30
0.0
 10
171.2296479120269
 20
15.93438901873484
 30
0.0
 10
171.1978750531296
 20
15.86926092793189
 30
0.0
 10
171.2150202209571
 20
15.76723453256955
 30
0.0
 10
171.1666427208231
 20
15.77493211681902
 30
0.0
 10
171.1315789440766
 20
15.76806771724809
 30
0.0
 10
171.1296697985718
 20
15.83263831158195
 30
0.0
 10
171.0985692931988
 20
15.87825639621395
 30
0.0
 10
171.0664551628456
 20
15.93561036628455
 30
0.0
 10
171.0208038475168
 20
15.98540462692559
 30
0.0
 10
170.9658508218387
 20
16.02994813718995
 30
0.0
 10
170.9010841173007
 20
16.0676398883655
 30
0.0
 10
170.8232377310597
 20
16.09283375791352
 30
0.0
 10
170.7355160553352
 20
16.0993123099811
 30
0.0
 10
170.6452903277807
 20
16.09235709285607
 30
0.0
 10
170.5594594694064
 20
16.06909190460921
 30
0.0
 10
170.4828343638596
 20
16.03131644107544
 30
0.0
 10
170.41652656362
 20
15.98051641089574
 30
0.0
 10
170.3622560536964
 20
15.9173114340721
 30
0.0
 10
170.3224925345459
 20
15.84276455710367
 30
0.0
 10
170.2976775510587
 20
15.75917313997763
 30
0.0
 10
170.289212426287
 20
15.65192948382285
 30
0.0
 10
170.3019697987103
 20
15.52965457267559
 30
0.0
 10
170.3681548409273
 20
15.41149724291211
 30
0.0
 10
170.4640977399832
 20
15.32606325709527
 30
0.0
 10
170.5757914963182
 20
15.25583362306722
 30
0.0
 10
170.7010863668702
 20
15.19659162305304
 30
0.0
 10
170.8349823941448
 20
15.14616708086132
 30
0.0
 10
170.9689930333149
 20
15.09322516984382
 30
0.0
 10
171.0950885316915
 20
15.02750170625175
 30
0.0
 10
171.2076216638418
 20
14.94480352537321
 30
0.0
 10
171.3031370284232
 20
14.83996006310074
 30
0.0
 10
171.3672706486962
 20
14.69937117251569
 30
0.0
 10
171.3811103725278
 20
14.54065409451592
 30
0.0
 10
171.367395471223
 20
14.38153155217874
 30
0.0
 10
171.3244739153984
 20
14.2348382881921
 30
0.0
 10
171.2545906329065
 20
14.10119796587141
 30
0.0
 10
171.1574592213829
 20
13.98532387699293
 30
0.0
 10
171.0347806023657
 20
13.89089981770086
 30
0.0
 10
170.8874408413167
 20
13.82179270651982
 30
0.0
 10
170.7177132497125
 20
13.77953210858853
 30
0.0
 10
170.5317404979596
 20
13.76781736230407
 30
0.0
 10
170.3528955926183
 20
13.77809486683437
 30
0.0
 10
170.1881733753743
 20
13.81966573769153
 30
0.0
 10
170.0834410841056
 20
13.88797642883941
 30
0.0
 10
169.9350960790365
 20
13.93675219032106
 30
0.0
 10
169.9980378194729
 20
14.02976591290841
 30
0.0
 10
170.007227443006
 20
14.1029653624828
 30
0.0
 10
170.0303711301232
 20
14.16936294501346
 30
0.0
 10
170.0034588335315
 20
14.2697480952758
 30
0.0
 10
170.0521338956339
 20
14.26234033517378
 30
0.0
 10
170.0916530580697
 20
14.26894063620895
 30
0.0
 10
170.0996204944701
 20
14.19078703218931
 30
0.0
 10
170.1305436967923
 20
14.15600927375856
 30
0.0
 10
170.1465954835851
 20
14.13795663215994
 30
0.0
 11
170.1465954835851
 21
14.13795663215994
 31
0.0
 11
170.1982038075864
 21
14.07729869814736
 31
0.0
 11
170.2601105501335
 21
14.0227129516332
 31
0.0
 11
170.3327764009802
 21
13.97583980928383
 31
0.0
 11
170.4166468655843
 21
13.93839906276537
 31
0.0
 11
170.511221073241
 21
13.91390636311877
 31
0.0
 11
170.6161603327165
 21
13.90575829888472
 31
0.0
 11
170.7240739497552
 21
13.91564048638223
 31
0.0
 11
170.8208419941616
 21
13.94528704887482
 31
0.0
 11
170.9050776083319
 21
13.99175118948819
 31
0.0
 11
170.9756144207687
 21
14.05191413218149
 31
0.0
 11
171.031944210998
 21
14.1250581946632
 31
0.0
 11
171.0736690016003
 21
14.21021434047522
 31
0.0
 11
171.0994680808032
 21
14.30436190989612
 31
0.0
 11
171.1080824729446
 21
14.4045155209822
 31
0.0
 11
171.0878517703357
 21
14.54643250879397
 31
0.0
 11
171.0272522666731
 21
14.65566684036386
 31
0.0
 11
170.9364971286285
 21
14.74081306430094
 31
0.0
 11
170.826010188474
 21
14.81052746532517
 31
0.0
 11
170.7008523531254
 21
14.86979854169922
 31
0.0
 11
170.5662951950999
 21
14.9240425347412
 31
0.0
 11
170.4316884277007
 21
14.98201274306004
 31
0.0
 11
170.3065802017258
 21
15.05297399304232
 31
0.0
 11
170.196027609828
 21
15.14113315968695
 31
0.0
 11
170.1053381235265
 21
15.25080295132617
 31
0.0
 11
170.0447055469484
 21
15.39179720476315
 31
0.0
 11
170.0245079172553
 21
15.57413260402313
 31
0.0
 11
170.0374030471347
 21
15.71216131926642
 31
0.0
 11
170.0761016659391
 21
15.83733128451289
 31
0.0
 11
170.1393141731506
 21
15.94779262129084
 31
0.0
 11
170.2257499954545
 21
16.04196885390621
 31
0.0
 11
170.3336492808962
 21
16.1184654077065
 31
0.0
 11
170.4613526283328
 21
16.17615670109487
 31
0.0
 11
170.6075393259923
 21
16.21220066809973
 31
0.0
 11
170.770976856545
 21
16.22421385386062
 31
0.0
 11
170.9248918431289
 21
16.21434269066864
 31
0.0
 11
171.0564887242607
 21
16.18477329831497
 31
0.0
 11
171.172563634494
 21
16.13439993895252
 31
0.0
 11
171.2800792741122
 21
16.06264163167877
 31
0.0
 11
171.2516994050444
 21
16.00236624106886
 31
0.0
 11
171.2284855254283
 21
15.93879017337648
 31
0.0
 11
171.2078381040801
 21
15.86478841992269
 31
0.0
 11
171.1871840681487
 21
15.77360197897328
 31
0.0
 11
171.1665597978415
 21
15.77360197897328
 31
0.0
 11
171.1459355275343
 21
15.77360197897328
 31
0.0
 11
171.1256706495791
 21
15.82395108486347
 31
0.0
 11
171.0994658759421
 21
15.87850045116929
 31
0.0
 11
171.0650468924451
 21
15.93316116296115
 31
0.0
 11
171.0203554612937
 21
15.98349593725411
 31
0.0
 11
170.9657333359511
 21
16.02777175321529
 31
0.0
 11
170.9016722004326
 21
16.06436142334501
 31
0.0
 11
170.825968296114
 21
16.08882545979727
 31
0.0
 11
170.7365722046449
 21
16.09701100667022
 31
0.0
 11
170.6440937174207
 21
16.08926973931101
 31
0.0
 11
170.5594072091645
 21
16.06609003445566
 31
0.0
 11
170.483702448884
 21
16.02863495634008
 31
0.0
 11
170.4183754766516
 21
15.97832774281102
 31
0.0
 11
170.3650487887664
 21
15.9160029337988
 31
0.0
 11
170.3254809233901
 21
15.84249947895607
 31
0.0
 11
170.3009523754711
 21
15.75988443557391
 31
0.0
 11
170.2927954104108
 21
15.67042329844352
 31
0.0
 11
170.3130095765617
 21
15.52595308146574
 31
0.0
 11
170.373625616682
 21
15.41591177072937
 31
0.0
 11
170.4643479320758
 21
15.33033670130631
 31
0.0
 11
170.5748676948813
 21
15.25941954854625
 31
0.0
 11
170.7000089937719
 21
15.19914305550579
 31
0.0
 11
170.8345826882553
 21
15.14590447913021
 31
0.0
 11
170.9691729191968
 21
15.09039489581074
 31
0.0
 11
171.0942976816297
 21
15.0237728124941
 31
0.0
 11
171.204800907977
 21
14.94118863716749
 31
0.0
 11
171.2955397598288
 21
14.83800003476272
 31
0.0
 11
171.3561557999489
 21
14.70552315979584
 31
0.0
 11
171.3763699660998
 21
14.53526378483839
 31
0.0
 11
171.3621839747998
 21
14.38133030397411
 31
0.0
 11
171.3196087009193
 21
14.23605531269097
 31
0.0
 11
171.2499752884265
 21
14.10398854189067
 31
0.0
 11
171.1544992078713
 21
13.99007218775248
 31
0.0
 11
171.0341060772624
 21
13.89715272597017
 31
0.0
 11
170.8896160201846
 21
13.8283235766818
 31
0.0
 11
170.7223519532713
 21
13.78581275203967
 31
0.0
 11
170.5336103348226
 21
13.77165864614041
 31
0.0
 11
170.3405031726387
 21
13.78581275203967
 31
0.0
 11
170.1878975900911
 21
13.8283235766818
 31
0.0
 11
170.0661897942203
 21
13.88899033013889
 31
0.0
 11
169.9660261826363
 21
13.95734322942737
 31
0.0
 11
169.9922320587039
 21
14.03255545163076
 31
0.0
 11
170.0090121537618
 21
14.10014767383612
 31
0.0
 11
170.0206196447852
 21
14.17275926235962
 31
0.0
 11
170.0313606254139
 21
14.26352788212859
 31
0.0
 11
170.0520069443315
 21
14.26352788212859
 31
0.0
 11
170.0726532632492
 21
14.26352788212859
 31
0.0
 11
170.1048916391629
 21
14.20119204881084
 31
0.0
 11
170.1465954835851
 21
14.13795663215994
 31
0.0
  0
LWPOLYLINE
  5
B9
102
{ACAD_REACTORS
330
C6
102
}
330
48
100
AcDbEntity
  8
_U_30EC_U_30A4_U_30E4_U_30FC_1
  6
Continuous
 62
     2
100
AcDbPolyline
 90
        5
 70
     1
 43
0.0
 10
192.4578138032672
 20
15.39722336795624
 10
192.4578138032672
 20
15.22875434022058
 10
191.1602971697031
 20
15.22875434022058
 10
191.1602971697031
 20
15.39722336795624
 10
192.4578138032672
 20
15.39722336795624
  0
MTEXT
  5
BB
330
48
100
AcDbEntity
  8
1
 62
     2
100
AcDbMText
 10
32.50000000000001
 20
282.0000000000003
 30
0.0
 40
5.0
 41
0.0
 71
     5
 72
     1
  1
図番
  7
CONVERTER_11
 73
     1
 44
0.45454545454545
  0
MTEXT
  5
BC
330
48
100
AcDbEntity
  8
1
 62
     2
100
AcDbMText
 10
29.00000000000001
 20
34.00000000000001
 30
0.0
 40
3.5
 41
0.0
 71
     5
 72
     1
  1
備考
  7
CONVERTER_11
 73
     1
 44
0.45454545454545
  0
MTEXT
  5
BD
330
48
100
AcDbEntity
  8
1
 62
     2
100
AcDbMText
 10
29.00000000000001
 20
22.75
 30
0.0
 40
3.5
 41
0.0
 71
     5
 72
     1
  1
品名
  7
CONVERTER_11
 73
     1
 44
0.72727272727273
  0
MTEXT
  5
BE
330
48
100
AcDbEntity
  8
1
 62
     2
100
AcDbMText
 10
29.00000000000001
 20
14.25
 30
0.0
 40
3.5
 41
0.0
 71
     5
 72
     1
  1
品番
  7
CONVERTER_11
 73
     1
 44
0.72727272727273
  0
MTEXT
  5
BF
330
48
100
AcDbEntity
  8
1
 62
     2
100
AcDbMText
 10
101.5
 20
25.00000000000001
 30
0.0
 40
3.0
 41
0.0
 71
     5
 72
     1
  1
承認
  7
CONVERTER_11
 73
     1
 44
0.59090909090909
  0
MTEXT
  5
C0
330
48
100
AcDbEntity
  8
1
 62
     2
100
AcDbMText
 10
175.0
 20
23.50000000000001
 30
0.0
 40
3.5
 41
0.0
 71
     5
 72
     1
  1
第三角法
  7
CONVERTER_11
 73
     1
 44
0.54545454545455
  0
MTEXT
  5
C1
330
48
100
AcDbEntity
  8
1
 62
     2
100
AcDbMText
 10
118.5
 20
25.00000000000001
 30
0.0
 40
3.0
 41
0.0
 71
     5
 72
     1
  1
検図
  7
CONVERTER_11
 73
     1
 44
0.59090909090909
  0
MTEXT
  5
C2
330
48
100
AcDbEntity
  8
1
 62
     2
100
AcDbMText
 10
152.5
 20
25.00000000000001
 30
0.0
 40
3.0
 41
0.0
 71
     5
 72
     1
  1
設計
  7
CONVERTER_11
 73
     1
 44
0.59090909090909
  0
MTEXT
  5
C3
330
48
100
AcDbEntity
  8
1
 62
     2
100
AcDbMText
 10
135.5
 20
25.00000000000001
 30
0.0
 40
3.0
 41
0.0
 71
     5
 72
     1
  1
製図
  7
CONVERTER_11
 73
     1
 44
0.59090909090909
  0
MTEXT
  5
C4
330
48
100
AcDbEntity
  8
1
 62
     2
100
AcDbMText
 10
89.50000000000001
 20
24.00000000000001
 30
0.0
 40
3.5
 41
0.0
 71
     5
 72
     1
  1
尺度
  7
CONVERTER_11
 73
     1
 44
0.54545454545455
  0
MTEXT
  5
C5
330
48
100
AcDbEntity
  8
1
 62
   250
100
AcDbMText
 10
25.00000000000001
 20
5.0
 30
0.0
 40
3.5
 41
0.0
 71
     4
 72
     1
  1
備考欄の文字列 原点位置=4
  7
CONVERTER_11
 73
     1
 44
0.54545454545455
  0
HATCH
  5
C6
330
48
100
AcDbEntity
  8
1
  6
Continuous
 62
     2
100
AcDbHatch
 10
0.0
 20
0.0
 30
0.0
210
0.0
220
0.0
230
1.0
  2
CUSTOM0
 70
     0
 71
     1
 91
        1
 92
        1
 93
        4
 72
     1
 10
192.4578138032672
 20
15.39722336795624
 11
192.4578138032672
 21
15.22875434022058
 72
     1
 10
192.4578138032672
 20
15.22875434022058
 11
191.1602971697031
 21
15.22875434022058
 72
     1
 10
191.1602971697031
 20
15.22875434022058
 11
191.1602971697031
 21
15.39722336795624
 72
     1
 10
191.1602971697031
 20
15.39722336795624
 11
192.4578138032672
 21
15.39722336795624
 97
        1
330
B9
 75
     1
 76
     2
 52
45.0
 41
0.1
 77
     0
 78
     1
 53
45.0
 43
0.0
 44
0.0
 45
-0.282842712474619
 46
0.0
 79
     0
 98
        1
 10
0.0
 20
0.0
  0
HATCH
  5
C7
330
48
100
AcDbEntity
  8
1
  6
Continuous
 62
     2
100
AcDbHatch
 10
0.0
 20
0.0
 30
0.0
210
0.0
220
0.0
230
1.0
  2
CUSTOM1
 70
     0
 71
     1
 91
        1
 92
        1
 93
        3
 72
     4
 94
        3
 73
     0
 74
     0
 95
       24
 96
       20
 40
0.0
 40
0.0
 40
0.0
 40
0.0
 40
0.221107500875377
 40
0.427321858624525
 40
0.508017467923926
 40
0.5914835907870175
 40
0.8143265690192611
 40
1.05465130268657
 40
1.29545269402316
 40
1.518109231328814
 40
1.540864321905429
 40
1.59512646062269
 40
1.659890947896004
 40
1.714153085187362
 40
1.736908174961663
 40
1.764951100735349
 40
1.801562291220939
 40
1.953914424543611
 40
2.126104167379696
 40
2.126104167379696
 40
2.126104167379696
 40
2.126104167379696
 10
185.9375369556889
 20
15.58989295113015
 10
185.9112579081812
 20
15.53097628234373
 10
185.8604698894426
 20
15.41711139679257
 10
185.8131784839111
 20
15.14441958233115
 10
185.7043482802617
 20
15.24445482575454
 10
185.5514800279638
 20
15.27118593367332
 10
185.7686155181198
 20
15.48518135017632
 10
185.7838483674381
 20
15.70332117782487
 10
185.8906889492001
 20
15.88451579066426
 10
185.8305380947077
 20
16.16913226311401
 10
185.9334317395402
 20
16.14114089222451
 10
185.977993346815
 20
16.13243251602299
 10
186.0380842395397
 20
16.12139654183355
 10
186.0756619587438
 20
16.10767523055559
 10
186.1252466928606
 20
16.10756076160223
 10
186.0930158919325
 20
16.07306592398623
 10
186.0171802221881
 20
16.08404104537965
 10
186.0429447159693
 20
15.89858969582449
 10
186.005589676385
 20
15.80702313549588
 10
185.9857704961609
 20
15.75844135397705
 72
     4
 94
        3
 73
     0
 74
     0
 95
       70
 96
       66
 40
0.0
 40
0.0
 40
0.0
 40
0.0
 40
0.0241731073021472
 40
0.0846058988987013
 40
0.1631685280353284
 40
0.2417311571789756
 40
0.3021639488292751
 40
0.3263370654895541
 40
0.3533118254248881
 40
0.4228783438922111
 40
0.5179999095313402
 40
0.6216398239466102
 40
0.7167613891499706
 40
0.7863279069649863
 40
0.8133026791761836
 40
0.8372943998771674
 40
0.8945054261372869
 40
0.9627895541962639
 40
1.020000580349074
 40
1.043992300975172
 40
1.071934345522902
 40
1.113121768772915
 40
1.14522519933224
 40
1.225483775412775
 40
1.329819923771483
 40
1.434156071994373
 40
1.514414647795794
 40
1.546518078208402
 40
1.578974764260176
 40
1.662678849314171
 40
1.777131373668391
 40
1.901833377474782
 40
2.016285900500572
 40
2.099989982527939
 40
2.132446666570297
 40
2.15878235448602
 40
2.21672086790781
 40
2.274659381334233
 40
2.300995069256167
 40
2.333451754066139
 40
2.41715583654382
 40
2.53160835898526
 40
2.656310362283755
 40
2.770762886388887
 40
2.854466971340052
 40
2.886923657363859
 40
2.913597976833293
 40
2.982389642875095
 40
3.076451716946957
 40
3.17893726045857
 40
3.272999334739971
 40
3.341791001059191
 40
3.368465320663503
 40
3.396976080738725
 40
3.472140811845961
 40
3.57840819030865
 40
3.700226892456087
 40
3.822045594634304
 40
3.928312973256411
 40
4.003477705314808
 40
4.031988456866873
 40
4.058324144797673
 40
4.116262658236842
 40
4.174201171400648
 40
4.200536849608584
 40
4.200536849608584
 40
4.200536849608584
 40
4.200536849608584
 10
185.9857704961609
 20
15.75844135397705
 10
185.9938259544679
 20
15.75844359811686
 10
186.0220200663241
 20
15.75845146032798
 10
186.0765534803672
 20
15.75830754828372
 10
186.1482891808604
 20
15.75909120499898
 10
186.2236240137062
 20
15.75627570463811
 10
186.2713052366438
 20
15.76298403400957
 10
186.3195071245616
 20
15.75197563692433
 10
186.3062571799873
 20
15.80546402997033
 10
186.3151093964539
 20
15.86049583543092
 10
186.3108698036285
 20
15.95419908726109
 10
186.313348348128
 20
16.04959482218532
 10
186.309093870606
 20
16.14356821983387
 10
186.3179818665846
 20
16.19795062438012
 10
186.3046977409945
 20
16.25233997691461
 10
186.3514119277109
 20
16.23842216335358
 10
186.3943254545736
 20
16.24103877374043
 10
186.4605443456685
 20
16.23648422450755
 10
186.5013342271798
 20
16.22778162134162
 10
186.5525145690819
 20
16.23531799890195
 10
186.52537204872
 20
16.19349970223285
 10
186.4803096055707
 20
16.20284992072596
 10
186.4942065045051
 20
16.13841207371837
 10
186.4858414431653
 20
16.07378219627399
 10
186.4903632178398
 20
15.97529141193887
 10
186.4854741311167
 20
15.8759593284257
 10
186.4950258992082
 20
15.81293115552969
 10
186.47997614552
 20
15.74964011499788
 10
186.5449159457208
 20
15.76515072944269
 10
186.6116246399496
 20
15.75499387697812
 10
186.7241435470828
 20
15.75988800099367
 10
186.8390235448953
 20
15.75691204732783
 10
186.9519871999747
 20
15.76221664184991
 10
187.0176267597677
 20
15.75107306472089
 10
187.0816276691053
 20
15.76744532319857
 10
187.0703142889189
 20
15.71761689905274
 10
187.077533987151
 20
15.67416715212123
 10
187.0703142611268
 20
15.63071745587445
 10
187.0816277175994
 20
15.58088895196876
 10
187.0176263598971
 20
15.59726166091362
 10
186.951992124046
 20
15.58611271661588
 10
186.838997431733
 20
15.59144857206854
 10
186.7242456548644
 20
15.58834345663822
 10
186.611318368686
 20
15.59364894682588
 10
186.5455220903585
 20
15.58257300019594
 10
186.4816097975358
 20
15.59887597847617
 10
186.4936015165126
 20
15.54423524395742
 10
186.4862104613006
 20
15.48854295047842
 10
186.4892684841982
 20
15.3964968914057
 10
186.4893422785683
 20
15.30179109873102
 10
186.4860313578359
 20
15.20952782902266
 10
186.4939505989903
 20
15.1543576873614
 10
186.4815076611617
 20
15.10058169100137
 10
186.5389116551632
 20
15.11453768862782
 10
186.5994708140382
 20
15.10511457884227
 10
186.7048680855081
 20
15.10942885928705
 10
186.8204294070622
 20
15.10835504612032
 10
186.9359688877797
 20
15.10725965900995
 10
187.0414181130841
 20
15.11162525770633
 10
187.1018680471805
 20
15.10209426030672
 10
187.1592837739109
 20
15.1161728960638
 10
187.1477773876709
 20
15.06707153265683
 10
187.1537566781749
 20
15.02564658018649
 10
187.1520311050801
 20
14.97651677966695
 10
187.1521500122971
 20
14.94854428447607
 10
187.1521871691833
 20
14.93980288195949
 72
     4
 94
        3
 73
     0
 74
     0
 95
       62
 96
       58
 40
0.0
 40
0.0
 40
0.0
 40
0.0
 40
0.0598250028308485
 40
0.2024846486897331
 40
0.3727558389221031
 40
0.515415484793607
 40
0.5752404975785339
 40
0.9332326775487201
 40
1.290451762839469
 40
1.602077253145869
 40
1.699931634112126
 40
1.79935975642504
 40
2.27012014965708
 40
2.804661928461548
 40
2.882342287383261
 40
3.076543185719111
 40
3.329004354835578
 40
3.581465524568405
 40
3.775666424543693
 40
3.853346784558313
 40
3.899120679595058
 40
3.984129341792056
 40
4.029903236817405
 40
4.105797496059561
 40
4.295533144152521
 40
4.542189486611762
 40
4.788845828875709
 40
4.978581476410095
 40
5.054475735244337
 40
5.621734664339355
 40
6.130867242037366
 40
6.225249780948612
 40
6.318913039727311
 40
6.663579954558927
 40
7.047498900224775
 40
7.435230791575703
 40
7.498943906668115
 40
7.650875181210108
 40
7.832212509001619
 40
7.984143783697005
 40
8.047856898903131
 40
8.091554632732642
 40
8.172707566964307
 40
8.216405300768036
 40
8.289021782160921
 40
8.462184160757294
 40
8.668861838005375
 40
8.842024215263967
 40
8.914640695475162
 40
8.989881580861368
 40
9.15541152882727
 40
9.320941477744052
 40
9.396182352487301
 40
9.454709011143848
 40
9.583467660170783
 40
9.712226309013062
 40
9.770752957989515
 40
9.770752957989515
 40
9.770752957989515
 40
9.770752957989515
 10
187.1521871691833
 20
14.93980288195949
 10
187.1322348171623
 20
14.93980875568671
 10
187.0647037716466
 20
14.93982863806156
 10
186.9410612161788
 20
14.93949362520325
 10
186.7863180150056
 20
14.9410767375051
 10
186.669734948248
 20
14.93686078860495
 10
186.455094263424
 20
14.95215205331625
 10
186.8518948407228
 20
14.59198721286192
 10
186.8945656069268
 20
14.37510503397166
 10
187.3189162146611
 20
14.19325062511446
 10
187.1439821496074
 20
14.08985196568072
 10
187.0194523925083
 20
13.87831523212723
 10
186.7666277235943
 20
14.34806081001562
 10
186.4797602893627
 20
14.99511516984523
 10
186.490633592666
 20
14.68782672154695
 10
186.488289277796
 20
14.5228861697178
 10
186.4861096126411
 20
14.28879670711694
 10
186.4980774396346
 20
14.04498072421783
 10
186.4687984740631
 20
13.89855796860985
 10
186.511452262547
 20
13.75113490174538
 10
186.423981400564
 20
13.7668579730622
 10
186.3768527606744
 20
13.76694303543455
 10
186.2898973207713
 20
13.75109425482909
 10
186.3313474021722
 20
13.89527771422762
 10
186.3029875004285
 20
14.03855052698456
 10
186.3145973775299
 20
14.27674947365264
 10
186.3124175648272
 20
14.50517235240346
 10
186.3103111127993
 20
14.66705729375994
 10
186.3208035438324
 20
14.98153709333752
 10
186.0128963252893
 20
14.29229470872435
 10
185.7055258267457
 20
13.81476750243053
 10
185.5851367066274
 20
14.03741112637427
 10
185.4074607910722
 20
14.15011034955568
 10
185.8853326362893
 20
14.3254814346546
 10
185.9353959057208
 20
14.5609192925203
 10
186.3583799621717
 20
14.95322989344607
 10
186.127675427354
 20
14.93655307029065
 10
186.004968585934
 20
14.9426951894877
 10
185.8325483095662
 20
14.93312822699573
 10
185.7213224694447
 20
14.95448818489664
 10
185.6025779627448
 20
14.92136265357419
 10
185.6183169706685
 20
15.00203900606883
 10
185.6178550933763
 20
15.04645414290854
 10
185.6027881889931
 20
15.12967081778534
 10
185.7372380935443
 20
15.09062651983884
 10
185.8619755545747
 20
15.11739729328423
 10
186.062875523728
 20
15.10063949044053
 10
186.1921540949353
 20
15.12204225913005
 10
186.3328419928294
 20
15.08868778853421
 10
186.2980927452615
 20
15.22651875785069
 10
186.3222185666713
 20
15.34963257349481
 10
186.2967086182393
 20
15.47024055670336
 10
186.3333251146684
 20
15.60539865141495
 10
186.2211417027769
 20
15.58094545781891
 10
186.1280356457136
 20
15.59307749842022
 10
186.0191547579819
 20
15.58957630069994
 10
185.9569697640964
 20
15.58981755951603
 10
185.9375369557246
 20
15.58989295124144
 97
        3
330
AA
330
A8
330
A9
 75
     1
 76
     2
 52
45.0
 41
0.1
 77
     0
 78
     1
 53
45.0
 43
0.0
 44
0.0
 45
-0.282842712474619
 46
0.0
 79
     0
 98
        1
 10
0.0
 20
0.0
  0
HATCH
  5
C8
330
48
100
AcDbEntity
  8
1
  6
Continuous
 62
     2
100
AcDbHatch
 10
0.0
 20
0.0
 30
0.0
210
0.0
220
0.0
230
1.0
  2
CUSTOM2
 70
     0
 71
     1
 91
        1
 92
        1
 93
        1
 72
     4
 94
        3
 73
     0
 74
     0
 95
      124
 96
      120
 40
0.0
 40
0.0
 40
0.0
 40
0.0
 40
0.027818722962451
 40
0.1011590162384269
 40
0.2048470170590239
 40
0.3237088716559245
 40
0.4425707262522
 40
0.5462587270699547
 40
0.6195990203311798
 40
0.647417752257866
 40
0.6750060736115224
 40
0.7357003855242759
 40
0.7963946998054492
 40
0.8239830245571784
 40
0.8540933811102878
 40
0.9373396629409558
 40
1.063094687343237
 40
1.220731268638075
 40
1.399622220914749
 40
1.589140358637734
 40
1.7786584964239
 40
1.957549448940511
 40
2.11518603087316
 40
2.240941056914465
 40
2.324187341760534
 40
2.354297700109384
 40
2.38188602467189
 40
2.442580338710479
 40
2.503274652750503
 40
2.53086297731461
 40
2.560983949278563
 40
2.640393784452908
 40
2.752662861759132
 40
2.881361560118148
 40
3.010060258455195
 40
3.122329335705342
 40
3.201739170817956
 40
3.231860142753317
 40
3.264298024030373
 40
3.352343701778245
 40
3.482095226868769
 40
3.639650650173031
 40
3.811108022565485
 40
3.982565394927994
 40
4.140120818152575
 40
4.269872343141286
 40
4.357918020802349
 40
4.390355902043978
 40
4.423256253992547
 40
4.508104530073068
 40
4.624121560636836
 40
4.750528176031593
 40
4.86654520660204
 40
4.951393482691997
 40
4.984293834645398
 40
5.011450833242312
 40
5.071196230152094
 40
5.130941627057168
 40
5.158098625648832
 40
5.190998977601523
 40
5.275847253689348
 40
5.391864284256783
 40
5.518270899648328
 40
5.634287930209367
 40
5.719136206288041
 40
5.752036558235928
 40
5.782130946282954
 40
5.862783906229128
 40
5.979550131774995
 40
6.117984316640402
 40
6.263641154587947
 40
6.402075339414153
 40
6.518841564907947
 40
6.599494524815529
 40
6.629588912848766
 40
6.654403028226342
 40
6.71357514948811
 40
6.784199939329427
 40
6.843372060493529
 40
6.868186175802775
 40
6.896246243201855
 40
6.939586233758251
 40
6.967846564564879
 40
7.043584251089817
 40
7.153234334451676
 40
7.283231855734425
 40
7.420011856035459
 40
7.550009376579811
 40
7.65965945883521
 40
7.735397144417203
 40
7.763657474851375
 40
7.796409728011032
 40
7.880876065096307
 40
7.996370852465692
 40
8.122208446418588
 40
8.237703224799182
 40
8.322169562010876
 40
8.35492181520589
 40
8.38207881330767
 40
8.441824209206972
 40
8.50156960524012
 40
8.528726603485696
 40
8.561478856695745
 40
8.645945193877795
 40
8.761439980865307
 40
8.887277580764449
 40
9.00277236200097
 40
9.08723869666119
 40
9.119990949235644
 40
9.152428830613344
 40
9.24047450863856
 40
9.37022603414951
 40
9.527781457984396
 40
9.699238830981384
 40
9.870696203978577
 40
10.028251627814
 40
10.15800315332562
 40
10.24604883135117
 40
10.27848670378519
 40
10.27848670378519
 40
10.27848670378519
 40
10.27848670378519
 10
195.3821827564383
 20
14.01410517385757
 10
195.3914554737523
 20
14.01410498511274
 10
195.4251744536861
 20
14.01410430876714
 10
195.4934706812465
 20
14.01411807243305
 10
195.592014171158
 20
14.01403224219544
 10
195.7062066464812
 20
14.01441755612251
 10
195.818589441707
 20
14.01300835897545
 10
195.9214376600118
 20
14.01719117422243
 10
195.9806839874849
 20
14.00823089251983
 10
196.0371265937032
 20
14.02164434526061
 10
196.0246255586955
 20
13.97087198613361
 10
196.0329549635704
 20
13.92589320939067
 10
196.0248170841119
 20
13.88056752990488
 10
196.0370529214457
 20
13.82931932408466
 10
195.9747773490333
 20
13.84447955365276
 10
195.9060513026868
 20
13.83359750710742
 10
195.7782756749592
 20
13.83911304747972
 10
195.6262984511643
 20
13.83700851253698
 10
195.4502695972523
 20
13.83771002588473
 10
195.2644431934287
 20
13.83745237531291
 10
195.0786167437175
 20
13.83771005144602
 10
194.9025880142168
 20
13.83700841847731
 10
194.7506104154195
 20
13.83911332229989
 10
194.6228357664554
 20
13.8335968076764
 10
194.554107783658
 20
13.84448077125942
 10
194.4918349042883
 20
13.82931786684209
 10
194.5040616290017
 20
13.88057510805171
 10
194.4960004462597
 20
13.92582473272425
 10
194.5040675809892
 20
13.97106357955323
 10
194.4918238487083
 20
14.02234176909958
 10
194.5525017120697
 20
14.00749577363134
 10
194.6162810745736
 20
14.01756448170735
 10
194.7277314353502
 20
14.01294644211999
 10
194.8497533443824
 20
14.01413328905469
 10
194.9719538137823
 20
14.01515863900634
 10
195.0829794287392
 20
14.01092475623402
 10
195.1476517413958
 20
14.02018584521739
 10
195.2091162810501
 20
14.00604423049682
 10
195.1930065601336
 20
14.07235527884517
 10
195.2042980327358
 20
14.14447790121976
 10
195.1987400822561
 20
14.27513760888286
 10
195.2008035061691
 20
14.42607323708242
 10
195.2000167127295
 20
14.59335873107886
 10
195.2007845215627
 20
14.76061110332304
 10
195.1988038785628
 20
14.91163289269914
 10
195.2041306156621
 20
15.04206069552996
 10
195.1933101388425
 20
15.11465442605899
 10
195.2090326429875
 20
15.18150469436799
 10
195.143270813249
 20
15.16580512490825
 10
195.0756367830764
 20
15.17609243083996
 10
194.9615885293809
 20
15.17113786847123
 10
194.8451242674902
 20
15.17414128030475
 10
194.7306554121477
 20
15.16880303143389
 10
194.6640324657812
 20
15.18001268074826
 10
194.5990769715185
 20
15.16349132665012
 10
194.6107989758708
 20
15.2147372047706
 10
194.6032830189121
 20
15.25950333784091
 10
194.6107989878835
 20
15.30426944897962
 10
194.5990769505347
 20
15.35551536129741
 10
194.66403263392
 20
15.33899381766815
 10
194.7306533339821
 20
15.35020571373944
 10
194.8451352858063
 20
15.34485436710664
 10
194.9615454436962
 20
15.34791188771117
 10
195.0757660174641
 20
15.34278499010708
 10
195.1430150439227
 20
15.35345733355598
 10
195.2083325941438
 20
15.33742082669077
 10
195.1941391448553
 20
15.39949685750054
 10
195.2036059462994
 20
15.46586761628762
 10
195.1990269004085
 20
15.58239972741966
 10
195.2007696555948
 20
15.71426685022376
 10
195.1997551495391
 20
15.85615960150273
 10
195.2017191344373
 20
15.9876905070258
 10
195.1964668553851
 20
16.10524577283002
 10
195.2073408763474
 20
16.16947789001584
 10
195.1919536641853
 20
16.23108802545047
 10
195.24075915378
 20
16.21702407382111
 10
195.2853995564726
 20
16.21954742075314
 10
195.3538643946742
 20
16.2151279740171
 10
195.3959106169102
 20
16.20613025544035
 10
195.4487544758775
 20
16.2141171486651
 10
195.4207035002014
 20
16.17113917611674
 10
195.3749142248594
 20
16.18259552043837
 10
195.3869539073264
 20
16.12173520005137
 10
195.3796086070641
 20
16.05769299468773
 10
195.3831195826162
 20
15.94909368863911
 10
195.3819806760173
 20
15.82494319144753
 10
195.3819174780263
 20
15.69189719829878
 10
195.3832872966867
 20
15.56797381249555
 10
195.3791638801314
 20
15.45868337849339
 10
195.3877763103564
 20
15.3960858009417
 10
195.3746757454401
 20
15.33740133296365
 10
195.4393884328198
 20
15.35362113810902
 10
195.5060405953155
 20
15.34270260383311
 10
195.6198779541103
 20
15.34793740173756
 10
195.7357259122097
 20
15.34485547516913
 10
195.849692426328
 20
15.35018259812512
 10
195.91603410181
 20
15.33904208166543
 10
195.9807188525479
 20
15.35546979593178
 10
195.9689820772722
 20
15.30425925210051
 10
195.9765168063041
 20
15.25950334121001
 10
195.9689820992258
 20
15.21474739010028
 10
195.9807188140737
 20
15.16353690871041
 10
195.9160344075252
 20
15.17996427794221
 10
195.8496886430824
 20
15.1688278444727
 10
195.7357459487012
 20
15.17413115893121
 10
195.6197995623054
 20
15.17114764593544
 10
195.5062756882122
 20
15.17606892268395
 10
195.4389231318804
 20
15.1658508751352
 10
195.3734285122495
 20
15.18145996138816
 10
195.3891713619218
 20
15.11463851827411
 10
195.3783275998212
 20
15.04207057815879
 10
195.3836581629793
 20
14.91162247614417
 10
195.3817136151854
 20
14.76064558185226
 10
195.3823133683214
 20
14.59322243934158
 10
195.3821506559605
 20
14.42656176118372
 10
195.3821895488135
 20
14.27360142921636
 10
195.38218164131
 20
14.14849178985705
 10
195.3821828382744
 20
14.0650789099142
 10
195.3821827716208
 20
14.02491778281976
 10
195.3821827564383
 20
14.01410517385757
 97
        1
330
AB
 75
     1
 76
     2
 52
45.0
 41
0.1
 77
     0
 78
     1
 53
45.0
 43
0.0
 44
0.0
 45
-0.282842712474619
 46
0.0
 79
     0
 98
        1
 10
0.0
 20
0.0
  0
HATCH
  5
C9
330
48
100
AcDbEntity
  8
1
  6
Continuous
 62
     2
100
AcDbHatch
 10
0.0
 20
0.0
 30
0.0
210
0.0
220
0.0
230
1.0
  2
CUSTOM3
 70
     0
 71
     1
 91
        1
 92
        1
 93
        1
 72
     4
 94
        3
 73
     0
 74
     0
 95
      131
 96
      127
 40
0.0
 40
0.0
 40
0.0
 40
0.0
 40
0.0195577029826198
 40
0.0426490537461581
 40
0.2863607575856625
 40
0.534494843618929
 40
0.7842238845573187
 40
0.8737315789467373
 40
0.9803832810312889
 40
1.092842274517037
 40
1.199761146656796
 40
1.2897887681865
 40
1.35157358078619
 40
1.370727117561419
 40
1.416400936017829
 40
1.470914848355973
 40
1.516588666791762
 40
1.535742203552843
 40
1.634216592293195
 40
1.760283341175031
 40
1.897966686682092
 40
2.031216387368915
 40
2.049689751137909
 40
2.101115601646845
 40
2.179502577739962
 40
2.278859318314077
 40
2.393194462258734
 40
2.516516648383848
 40
2.642834515405977
 40
2.766156701983479
 40
2.880491846754593
 40
2.979848588358636
 40
3.058235565443813
 40
3.109661416668967
 40
3.128134780704143
 40
3.14678374238646
 40
3.19125434331532
 40
3.244332157315979
 40
3.288802758225883
 40
3.307451719895126
 40
3.327717853844739
 40
3.383747753580098
 40
3.468388665924488
 40
3.574487837698797
 40
3.694892515728901
 40
3.82244994685204
 40
3.950007377920429
 40
4.070412055800521
 40
4.176511227368076
 40
4.261152139501522
 40
4.317182039076716
 40
4.337448172964635
 40
4.620011002696244
 40
4.885096638397514
 40
4.94537304351833
 40
5.014107710488648
 40
5.070481727652047
 40
5.319246955636571
 40
5.584812164506042
 40
5.859000912056895
 40
6.133746937542077
 40
6.40173221296888
 40
6.420736683995471
 40
6.472845717451121
 40
6.550702743894049
 40
6.646951193874258
 40
6.754234497930582
 40
6.86519608658736
 40
6.972479390357818
 40
7.06872783977198
 40
7.146584865450989
 40
7.198693898189219
 40
7.217698368905359
 40
7.234950401630836
 40
7.276089864269879
 40
7.325191803515986
 40
7.366331266090369
 40
7.383583298769719
 40
7.402779163492096
 40
7.453386443254527
 40
7.524934666445529
 40
7.606953361405869
 40
7.68897205642902
 40
7.760520279784271
 40
7.811127559734513
 40
7.830323424546134
 40
7.847844055299764
 40
7.894799345666805
 40
7.962779392744493
 40
8.04337429356054
 40
8.128174145149446
 40
8.20876904481725
 40
8.276749090376951
 40
8.32370437966951
 40
8.341225010056244
 40
8.358497614800392
 40
8.401679126686597
 40
8.457815092185655
 40
8.51395105772806
 40
8.557132569708015
 40
8.574405174505058
 40
8.602340668616419
 40
8.643455660539962
 40
8.66322527196663
 40
8.715345156564277
 40
8.789031889628612
 40
8.873502045520341
 40
8.957972194323965
 40
9.031658925567855
 40
9.083778811234547
 40
9.103548423003009
 40
9.119550083123546
 40
9.160817522379848
 40
9.217244429110213
 40
9.278724491644699
 40
9.335151398295483
 40
9.376418837357779
 40
9.392420497300566
 40
9.401196302734785
 40
9.41749422938426
 40
9.426270027749533
 40
9.440875075477566
 40
9.475702496998744
 40
9.517270709865906
 40
9.552098131994073
 40
9.566703169884281
 40
9.566703169884281
 40
9.566703169884281
 40
9.566703169884281
 10
194.6170254148479
 20
15.67015871511028
 10
194.6134345093371
 20
15.6645369070216
 10
194.6056039123625
 20
15.65227754419112
 10
194.5129968974546
 20
15.61601916040965
 10
194.4887622233247
 20
15.40148444212716
 10
194.3858709845938
 20
15.22197284509707
 10
194.1220492364305
 20
15.03615573798146
 10
194.2845471569179
 20
14.95959336566081
 10
194.3607225760838
 20
14.89856693195442
 10
194.4492171072758
 20
14.83515804544759
 10
194.5389930233111
 20
14.77525634219561
 10
194.5883817636046
 20
14.72102154849207
 10
194.6745708157382
 20
14.69286240541834
 10
194.641126067423
 20
14.65713309652811
 10
194.621467116631
 20
14.62550387991906
 10
194.5919888217882
 20
14.58475872796069
 10
194.5688989446031
 20
14.55504663489643
 10
194.5380205968357
 20
14.50211422668494
 10
194.472919336574
 20
14.62740334938902
 10
194.3796000122415
 20
14.68213900233934
 10
194.2950636285138
 20
14.73916423939343
 10
194.1722498125743
 20
14.89675287427523
 10
194.1764450847301
 20
14.82035806766836
 10
194.1751478652677
 20
14.77361280161296
 10
194.1758126448076
 20
14.695847858126
 10
194.1755549986957
 20
14.59902068324423
 10
194.1756431239921
 20
14.48650279078809
 10
194.1756077302282
 20
14.365240859457
 10
194.1756511758278
 20
14.24086897858961
 10
194.1755199942406
 20
14.11967683631337
 10
194.1759477562046
 20
14.00691148919743
 10
194.174667820231
 20
13.91082913768744
 10
194.1779759851044
 20
13.831138264687
 10
194.1715197740086
 20
13.78815175788784
 10
194.1806208705556
 20
13.74955432372043
 10
194.1447910339935
 20
13.7581088772407
 10
194.1115223815252
 20
13.75342519985446
 10
194.060456257604
 20
13.75351298759784
 10
194.0269723972813
 20
13.75794430283821
 10
193.9907585408754
 20
13.74960793842509
 10
194.0009782568665
 20
13.79145277179284
 10
193.9936487887773
 20
13.83778560820173
 10
193.9973633136103
 20
13.92374831106015
 10
193.9959480554896
 20
14.02605142704849
 10
193.9964105554638
 20
14.14453223931512
 10
193.996277368623
 20
14.26957683153355
 10
193.9963015910045
 20
14.3947582810705
 10
193.9963354925551
 20
14.51286645379058
 10
193.9962060293132
 20
14.61628748709516
 10
193.9965507549081
 20
14.69932036153667
 10
193.995869827869
 20
14.75143368521243
 10
193.9994586600624
 20
14.87912907821361
 10
193.7826171386436
 20
14.58048716819621
 10
193.6021354921951
 20
14.35263981511515
 10
193.5490322295611
 20
14.49373443289814
 10
193.5200429133149
 20
14.54325767560943
 10
193.419664806282
 20
14.64641779790107
 10
193.7405127723261
 20
14.7269503502378
 10
193.868989700543
 20
14.91066283036435
 10
194.0906454325358
 20
15.11931995771763
 10
194.1770224894068
 20
15.29339211228345
 10
194.4549394229074
 20
15.56967051342512
 10
194.3346247839284
 20
15.56534559551115
 10
194.2863197351348
 20
15.56614856202553
 10
194.2102377454905
 20
15.56574582146585
 10
194.116701000975
 20
15.56590275611611
 10
194.0117594788557
 20
15.56582502576224
 10
193.9033887738717
 20
15.56595464378556
 10
193.7981454235897
 20
15.56554393490692
 10
193.7056237819412
 20
15.56682073671592
 10
193.6268130800707
 20
15.5634076653485
 10
193.5839674565379
 20
15.57023350036321
 10
193.5449499586516
 20
15.56065064201124
 10
193.5526365271863
 20
15.59420779565543
 10
193.5485464404312
 20
15.62523550322234
 10
193.5485531368814
 20
15.672365292709
 10
193.5526239724911
 20
15.70340941646779
 10
193.5449495574582
 20
15.73701861635901
 10
193.5834819405495
 20
15.72748410420872
 10
193.624122801448
 20
15.73397435498071
 10
193.6951471850463
 20
15.73100150650254
 10
193.7729318149633
 20
15.73174761399158
 10
193.8507292246474
 20
15.73247814044525
 10
193.9217232089907
 20
15.7295423551416
 10
193.962427979182
 20
15.73595468772952
 10
194.000985348991
 20
15.72650524176004
 10
193.9927342754927
 20
15.76264692158784
 10
193.9982346669358
 20
15.80129837613227
 10
193.9955754206163
 20
15.86913528561839
 10
193.9965815471533
 20
15.9459164153874
 10
193.9960178018319
 20
16.02849393582757
 10
193.9970714526592
 20
16.10517329229878
 10
193.994267586313
 20
16.173319907767
 10
194.0000702721304
 20
16.21132399809346
 10
193.9915654551158
 20
16.24758448077646
 10
194.0255610233125
 20
16.23755723771853
 10
194.05945756831
 20
16.24073266813706
 10
194.1126669060346
 20
16.2350896564061
 10
194.1660768574483
 20
16.23434774436425
 10
194.199591464949
 20
16.2281922348298
 10
194.2388086183039
 20
16.23346029773593
 10
194.2120263698492
 20
16.1925338079349
 10
194.1708111001723
 20
16.20371204538111
 10
194.1782641540874
 20
16.15867056192124
 10
194.1742227952184
 20
16.11412278028144
 10
194.176171404964
 20
16.04223572621703
 10
194.1752364849758
 20
15.96168630588771
 10
194.176510719003
 20
15.88173995404994
 10
194.1732043793863
 20
15.80841837083183
 10
194.1802106179961
 20
15.76688643002568
 10
194.1701440380126
 20
15.72752418568113
 10
194.2029814803921
 20
15.73468063430981
 10
194.236457729648
 20
15.73027243137945
 10
194.2915053476019
 20
15.73217943347897
 10
194.3489502595314
 20
15.73185366407288
 10
194.4023026248309
 20
15.73106308733081
 10
194.4398540896638
 20
15.73313959118074
 10
194.4623172523237
 20
15.73022338167109
 10
194.4751678073731
 20
15.73572552644056
 10
194.4858255685888
 20
15.7380111819779
 10
194.4986635650143
 20
15.74494972588052
 10
194.5145991033071
 20
15.72853046313672
 10
194.5410623920891
 20
15.71709122319449
 10
194.5726805253757
 20
15.6964468783519
 10
194.5987255892151
 20
15.68116869628295
 10
194.6128517723973
 20
15.67266976323184
 10
194.6170254148479
 20
15.67015871511028
 97
        1
330
AC
 75
     1
 76
     2
 52
45.0
 41
0.1
 77
     0
 78
     1
 53
45.0
 43
0.0
 44
0.0
 45
-0.282842712474619
 46
0.0
 79
     0
 98
        1
 10
0.0
 20
0.0
  0
HATCH
  5
CA
330
48
100
AcDbEntity
  8
1
  6
Continuous
 62
     2
100
AcDbHatch
 10
0.0
 20
0.0
 30
0.0
210
0.0
220
0.0
230
1.0
  2
CUSTOM4
 70
     0
 71
     1
 91
        1
 92
        1
 93
        1
 72
     4
 94
        3
 73
     0
 74
     0
 95
       91
 96
       87
 40
0.0
 40
0.0
 40
0.0
 40
0.0
 40
0.0267532254356701
 40
0.0856103386464102
 40
0.1444674521996621
 40
0.1712206856618514
 40
0.2039416005642536
 40
0.2955601971652484
 40
0.4362601844616918
 40
0.616225284450725
 40
0.8256392189704698
 40
1.054685709844411
 40
1.293548478893531
 40
1.532411247938303
 40
1.761457738799568
 40
1.970871673298537
 40
2.150836773256732
 40
2.291536760495593
 40
2.3831553568367
 40
2.41587628410132
 40
2.442629517487965
 40
2.501486630949095
 40
2.560343744424242
 40
2.587096977826515
 40
2.617068194440942
 40
2.699247336756083
 40
2.822032643466396
 40
2.973822353257925
 40
3.143014704823368
 40
3.318007936879947
 40
3.48720028818678
 40
3.63898999754826
 40
3.761775303794759
 40
3.843954445753094
 40
3.87392566222979
 40
3.890812773500497
 40
3.907699884771676
 40
3.937960767857282
 40
3.980983618142314
 40
4.199085915228459
 40
4.43944433923725
 40
4.677588241260894
 40
5.05069831783778
 40
5.448212454763166
 40
5.855291218044691
 40
6.138575438885367
 40
6.417434507584195
 40
6.444551104393879
 40
6.50420761736318
 40
6.563864130314505
 40
6.590980727104099
 40
6.848609460381482
 40
7.10961199066844
 40
7.352910904446105
 40
7.557830220705476
 40
7.587518925913393
 40
7.652834077375811
 40
7.718149228845746
 40
7.747837934062049
 40
7.854880190301003
 40
7.976511257403541
 40
8.369487896592343
 40
8.757514959223636
 40
9.126072419331098
 40
9.460639380392161
 40
9.746695593035902
 40
9.77756994311868
 40
9.80705032093178
 40
9.830377336128912
 40
9.886003295435987
 40
9.952395569429903
 40
10.00802152870626
 40
10.03134854388218
 40
10.21356951009589
 40
10.42203479292871
 40
10.66154556731064
 40
10.91693789564304
 40
11.15832906556565
 40
11.18982674596623
 40
11.27286608520407
 40
11.39026653033349
 40
11.52484752840885
 40
11.65942852648447
 40
11.77682897161483
 40
11.85986831085682
 40
11.89136598230428
 40
11.89136598230428
 40
11.89136598230428
 40
11.89136598230428
 10
190.7027885008196
 20
14.70699600701772
 10
190.7028237765288
 20
14.71587847311985
 10
190.7029366710796
 20
14.74430237047346
 10
190.7012984568489
 20
14.79409639169803
 10
190.7069750292911
 20
14.83657564478154
 10
190.6956928731706
 20
14.88730154856847
 10
190.7632296979031
 20
14.87012900740109
 10
190.83880292107
 20
14.88290227165996
 10
190.9828357056
 20
14.87629729457382
 10
191.1569419185427
 20
14.87888462206466
 10
191.3639599611003
 20
14.87800591955553
 10
191.5894688172378
 20
14.87828207920027
 10
191.8251162293406
 20
14.87818339658662
 10
192.0607640531348
 20
14.87828184412767
 10
192.2862717580626
 20
14.87800678190789
 10
192.4932934632805
 20
14.87888186270735
 10
192.6673888915288
 20
14.87630522678446
 10
192.8114492071986
 20
14.88288290449213
 10
192.8869691915293
 20
14.87016243405604
 10
192.9545776037029
 20
14.88726400191686
 10
192.9430840140676
 20
14.8367478580294
 10
192.9505104581733
 20
14.79253252226501
 10
192.9428838927986
 20
14.7486796650361
 10
192.9546489459425
 20
14.69878374479327
 10
192.8930788491983
 20
14.71393227712512
 10
192.8256791738672
 20
14.70310665350673
 10
192.7013004056221
 20
14.70852031626236
 10
192.555442823657
 20
14.70649205390785
 10
192.3893576440085
 20
14.70715777578387
 10
192.2188412621724
 20
14.70689643521242
 10
192.0519790855388
 20
14.70721553391094
 10
191.9087346827105
 20
14.70635302590762
 10
191.7773313869834
 20
14.70863300482988
 10
191.7239859134656
 20
14.70407704374202
 10
191.6485188456912
 20
14.70999914992877
 10
191.6769075779232
 20
14.70094169343353
 10
191.7033652409542
 20
14.6972591226893
 10
191.6633522907701
 20
14.66654271968275
 10
191.5713663691867
 20
14.67667591174634
 10
191.543939620707
 20
14.43032502247785
 10
191.4478793967234
 20
14.27499558764375
 10
191.1917277964473
 20
13.94525417931569
 10
191.7627537732762
 20
14.08430022210452
 10
192.0173656320516
 20
14.08291779973363
 10
192.6279647048617
 20
13.99790569242085
 10
192.3340698578083
 20
14.29685417558204
 10
192.0133304286516
 20
14.44330856901779
 10
192.1313543360434
 20
14.50025540818286
 10
192.1724716466261
 20
14.52420099873348
 10
192.2156812394411
 20
14.5459975881123
 10
192.3174574094449
 20
14.60928721253904
 10
192.4328867625248
 20
14.3514715140878
 10
192.6329591642277
 20
14.21616041113683
 10
192.7269077387228
 20
14.03792795138882
 10
192.9558829746392
 20
13.87997821027048
 10
192.8596031846708
 20
13.829159725763
 10
192.8167959763779
 20
13.79881292523055
 10
192.7718243528779
 20
13.77466130281459
 10
192.7121720925214
 20
13.72552146747569
 10
192.6789731061325
 20
13.8599747567361
 10
192.5582013350795
 20
14.0159426528658
 10
192.1970976005979
 20
13.88569928059557
 10
191.8385061955541
 20
13.90224694409483
 10
191.457092045008
 20
13.89331229351865
 10
191.170345528289
 20
13.82882671672407
 10
190.8592055599715
 20
13.94230668192827
 10
190.8268737818788
 20
13.83122259927767
 10
190.7896178253318
 20
13.81196313850013
 10
190.7865737632753
 20
13.85874784087297
 10
190.7679892860607
 20
13.89806853919135
 10
190.7512436616778
 20
13.95765983478233
 10
190.7383730915754
 20
14.00201969871284
 10
190.7042327806427
 20
14.09106331120199
 10
190.9482714457754
 20
14.02181042943771
 10
191.1441394486671
 20
14.00030369057744
 10
191.2395426381277
 20
14.28226484478463
 10
191.2945135769597
 20
14.44363045421124
 10
191.5159619357155
 20
14.71391177589738
 10
191.3849239381217
 20
14.70548446853735
 10
191.3110026555853
 20
14.70779008496969
 10
191.1977459876244
 20
14.70671378321658
 10
191.0694251807484
 20
14.7070763907651
 10
190.9404252030415
 20
14.70697724466086
 10
190.828784094629
 20
14.70699932712572
 10
190.7514663970026
 20
14.7069957918967
 10
190.713287653201
 20
14.70699595845081
 10
190.7027885008196
 20
14.70699600701772
 97
        1
330
AD
 75
     1
 76
     2
 52
45.0
 41
0.1
 77
     0
 78
     1
 53
45.0
 43
0.0
 44
0.0
 45
-0.282842712474619
 46
0.0
 79
     0
 98
        1
 10
0.0
 20
0.0
  0
HATCH
  5
CB
330
48
100
AcDbEntity
  8
1
  6
Continuous
 62
     2
100
AcDbHatch
 10
0.0
 20
0.0
 30
0.0
210
0.0
220
0.0
230
1.0
  2
CUSTOM5
 70
     0
 71
     1
 91
        1
 92
        1
 93
        1
 72
     4
 94
        3
 73
     0
 74
     0
 95
       35
 96
       31
 40
0.0
 40
0.0
 40
0.0
 40
0.0
 40
0.0335231036620645
 40
0.0713218571712051
 40
0.4278866681487029
 40
0.8116865841964049
 40
1.198190238000062
 40
1.561379546812689
 40
1.659983174622065
 40
1.759315573807201
 40
2.132719617231086
 40
2.525233363588837
 40
2.910815397779702
 40
3.265244364303294
 40
3.592606723582033
 40
3.964386154603982
 40
4.359942131737804
 40
4.758154118639309
 40
4.843846538699917
 40
4.93665006554324
 40
5.256616602537319
 40
5.581707404416052
 40
5.899719158308147
 40
6.198363494280753
 40
6.466301046615783
 40
6.493895311537105
 40
6.559697020196897
 40
6.638234543442472
 40
6.704036252154225
 40
6.731630508423031
 40
6.731630508423031
 40
6.731630508423031
 40
6.731630508423031
 10
191.9736010568669
 20
16.23463843719134
 10
191.9676006097789
 20
16.22480690542323
 10
191.9548344099157
 20
16.20388988579798
 10
191.7949362006554
 20
16.17127126532689
 10
192.2322025842337
 20
15.88206680336702
 10
192.4345394828262
 20
15.68041138358439
 10
192.6819564267973
 20
15.43749387603277
 10
193.1831513624606
 20
15.36047662757777
 10
193.012556219897
 20
15.21876939174656
 10
192.9383299463202
 20
15.01710366209108
 10
192.6131432248188
 20
15.36956287174726
 10
192.3277741670664
 20
15.53175212559561
 10
192.0337604077658
 20
15.73687130053048
 10
191.8084452691134
 20
16.21827488595455
 10
191.5993085055521
 20
15.75343046609223
 10
191.3207873674834
 20
15.54350952252912
 10
191.0371383177209
 20
15.37424456359984
 10
190.7078639527831
 20
15.00142360907938
 10
190.6277012318224
 20
15.19708014459002
 10
190.4759724909744
 20
15.32491104190597
 10
190.9083395826794
 20
15.40454031765936
 10
191.0962565329766
 20
15.60026634915473
 10
191.3468477420502
 20
15.81632996916755
 10
191.5714350470162
 20
15.98190992300059
 10
191.6259775409711
 20
16.26133964636826
 10
191.7494661029011
 20
16.24737950408079
 10
191.806027334452
 20
16.24521268867647
 10
191.8761870984944
 20
16.2404685988136
 10
191.9333414022105
 20
16.23709429350541
 10
191.9644190320839
 20
16.23519854711119
 10
191.9736010568669
 20
16.23463843719134
 97
        1
330
AE
 75
     1
 76
     2
 52
45.0
 41
0.1
 77
     0
 78
     1
 53
45.0
 43
0.0
 44
0.0
 45
-0.282842712474619
 46
0.0
 79
     0
 98
        1
 10
0.0
 20
0.0
  0
HATCH
  5
CC
330
48
100
AcDbEntity
  8
1
  6
Continuous
 62
     2
100
AcDbHatch
 10
0.0
 20
0.0
 30
0.0
210
0.0
220
0.0
230
1.0
  2
CUSTOM6
 70
     0
 71
     1
 91
        1
 92
        1
 93
        1
 72
     4
 94
        3
 73
     0
 74
     0
 95
       15
 96
       11
 40
0.0
 40
0.0
 40
0.0
 40
0.0
 40
0.2785535985096574
 40
0.5215624748198874
 40
0.6076917376040509
 40
0.6938210001741243
 40
0.9405019146455056
 40
1.22169140348914
 40
1.300471877081057
 40
1.379252341684822
 40
1.379252341684822
 40
1.379252341684822
 40
1.379252341684822
 10
189.5681493630999
 20
16.22930267330381
 10
189.6296017794178
 20
16.17691646592715
 10
189.7446649974113
 20
16.07882876798222
 10
190.0397348497243
 20
15.92889785897221
 10
189.9025147631857
 20
15.84343227515014
 10
189.8041227843778
 20
15.71085785201554
 10
189.713003359065
 20
16.0161698578142
 10
189.3636839480654
 20
16.07967869465374
 10
189.5119258376571
 20
16.17896509880878
 10
189.5494081874236
 20
16.21252348402382
 10
189.5681493630999
 20
16.22930267330381
 97
        1
330
AF
 75
     1
 76
     2
 52
45.0
 41
0.1
 77
     0
 78
     1
 53
45.0
 43
0.0
 44
0.0
 45
-0.282842712474619
 46
0.0
 79
     0
 98
        1
 10
0.0
 20
0.0
  0
HATCH
  5
CD
330
48
100
AcDbEntity
  8
1
  6
Continuous
 62
     2
100
AcDbHatch
 10
0.0
 20
0.0
 30
0.0
210
0.0
220
0.0
230
1.0
  2
CUSTOM7
 70
     0
 71
     1
 91
        1
 92
        1
 93
        1
 72
     4
 94
        3
 73
     0
 74
     0
 95
       75
 96
       71
 40
0.0
 40
0.0
 40
0.0
 40
0.0
 40
0.0342546099129691
 40
0.1245622414432364
 40
0.2522385480897589
 40
0.3985991922940769
 40
0.5449598364980963
 40
0.6726361431439012
 40
0.7629437746737155
 40
0.7971983935298186
 40
1.101723623449685
 40
1.408591244036689
 40
1.433332471690393
 40
1.487763172450188
 40
1.542193873082013
 40
1.566935100592562
 40
1.923523931821875
 40
2.271755704953675
 40
2.590579755100919
 40
2.858943305581178
 40
2.889120339309196
 40
2.918305855191138
 40
2.941366645531261
 40
2.996357760973155
 40
3.061992318140704
 40
3.116983433626904
 40
3.140044223997584
 40
3.411273122936501
 40
3.732441619741167
 40
3.761068217532864
 40
3.83778749963043
 40
3.948858699126067
 40
4.080541049104445
 40
4.219093782625832
 40
4.350776132722384
 40
4.461847332405718
 40
4.538566614678452
 40
4.5671932125447
 40
4.594907573998958
 40
4.666381453557497
 40
4.764111044011107
 40
4.87059253812591
 40
4.968322128642361
 40
5.039796008287047
 40
5.067510369784506
 40
5.094263603185718
 40
5.153120716668351
 40
5.211977830150794
 40
5.238731063551798
 40
5.272290535139037
 40
5.363380529444898
 40
5.497618415781576
 40
5.660621563453818
 40
5.838007341749519
 40
6.01539311991087
 40
6.178396267038496
 40
6.312634151842447
 40
6.403724143059437
 40
6.437283612672532
 40
6.464036846261148
 40
6.522893960004762
 40
6.581751071484021
 40
6.608504301590967
 40
6.637253941281115
 40
6.711397748902966
 40
6.812778057283579
 40
6.923237199249355
 40
7.024617507623999
 40
7.098761315207652
 40
7.127510946007602
 40
7.127510946007602
 40
7.127510946007602
 40
7.127510946007602
 10
188.4418622390564
 20
14.95849128473265
 10
188.4418622819707
 20
14.9470731340872
 10
188.4418624481128
 20
14.9055525784263
 10
188.4418593081786
 20
14.82146922003772
 10
188.4418788279801
 20
14.70004497322329
 10
188.4417912187737
 20
14.55980494047448
 10
188.442111623523
 20
14.42006556794576
 10
188.441160590974
 20
14.29745038894928
 10
188.4431978595967
 20
14.21587074438042
 10
188.4349433178747
 20
14.06271267077697
 10
188.74307979409
 20
14.22560236054721
 10
189.0350645173737
 20
14.39482938688003
 10
189.0408354448707
 20
14.25973235781911
 10
189.0455471719891
 20
14.21617221160445
 10
189.0482535411917
 20
14.17211249350545
 10
189.0672545672961
 20
14.02272590363136
 10
188.6583942247302
 20
14.08681172241261
 10
188.3793710348833
 20
13.97296341411017
 10
188.1018081587165
 20
13.87364095811141
 10
187.8099837184401
 20
13.91630687596356
 10
187.7869144678658
 20
13.8132167974454
 10
187.7537474383333
 20
13.7869109124447
 10
187.7480653962739
 20
13.83455309036304
 10
187.7284214559044
 20
13.8718033611507
 10
187.7095089485623
 20
13.93007387847564
 10
187.6942849867707
 20
13.97385201007805
 10
187.6477246372934
 20
14.08759421046311
 10
187.9890897312451
 20
14.05576301120046
 10
188.2679649367387
 20
14.0216143510648
 10
188.2617753034907
 20
14.16913976479652
 10
188.2630935452773
 20
14.24013150908832
 10
188.2624831689948
 20
14.34719767958661
 10
188.2625871570725
 20
14.47398529785998
 10
188.2629987964055
 20
14.6084924349605
 10
188.2613907841969
 20
14.73395549951185
 10
188.2659902567924
 20
14.84505246719118
 10
188.256418650221
 20
14.90761886800689
 10
188.2704001783691
 20
14.96595388295002
 10
188.2147384386704
 20
14.95289710582239
 10
188.1575655197821
 20
14.96136307749499
 10
188.0616048925648
 20
14.95729976080637
 10
187.963376752282
 20
14.95970889852476
 10
187.8672582457561
 20
14.95551600613388
 10
187.8104648525811
 20
14.96429346441164
 10
187.7550356873384
 20
14.95094936850121
 10
187.7670679427917
 20
15.00036910959257
 10
187.7592003173938
 20
15.04393988030396
 10
187.7666295563828
 20
15.08830469118525
 10
187.7551930564144
 20
15.13902297763991
 10
187.8232102370132
 20
15.12162460757743
 10
187.8968496879747
 20
15.13417450237189
 10
188.0325064058211
 20
15.12799677011097
 10
188.1884909024525
 20
15.13029203093084
 10
188.3615926358143
 20
15.1294096826253
 10
188.5346942964181
 20
15.13029207142408
 10
188.6906789811216
 20
15.1279966295555
 10
188.8263351889797
 20
15.13417486262432
 10
188.8999756705652
 20
15.12162394218335
 10
188.9679914174724
 20
15.13902373012142
 10
188.9565590885922
 20
15.08830130414555
 10
188.9639539458297
 20
15.04397060811109
 10
188.956203991227
 20
15.00028307550197
 10
188.9681203741877
 20
14.95063590098477
 10
188.9108170223616
 20
14.96461411338426
 10
188.8520145789773
 20
14.95539755673255
 10
188.7525293633199
 20
14.9595226816493
 10
188.649428009835
 20
14.95822760025889
 10
188.5537846354573
 20
14.95854077077641
 10
188.4857467971617
 20
14.95848776697146
 10
188.4514462213443
 20
14.95849051871657
 10
188.4418622390564
 20
14.95849128473265
 97
        1
330
B0
 75
     1
 76
     2
 52
45.0
 41
0.1
 77
     0
 78
     1
 53
45.0
 43
0.0
 44
0.0
 45
-0.282842712474619
 46
0.0
 79
     0
 98
        1
 10
0.0
 20
0.0
  0
HATCH
  5
CE
330
48
100
AcDbEntity
  8
1
  6
Continuous
 62
     2
100
AcDbHatch
 10
0.0
 20
0.0
 30
0.0
210
0.0
220
0.0
230
1.0
  2
CUSTOM8
 70
     0
 71
     1
 91
        1
 92
        1
 93
        1
 72
     4
 94
        3
 73
     0
 74
     0
 95
       91
 96
       87
 40
0.0
 40
0.0
 40
0.0
 40
0.0
 40
0.0345987051695718
 40
0.1258134969461369
 40
0.2547723404888987
 40
0.4026032099154125
 40
0.5504340793416704
 40
0.679392922883608
 40
0.7706077146571035
 40
0.8052064287780925
 40
1.124852390615281
 40
1.427402236308877
 40
1.706356627453519
 40
1.955541417875204
 40
2.169485938566349
 40
2.344350786664804
 40
2.480568411561954
 40
2.590440557428976
 40
2.64918992715113
 40
2.749320643306334
 40
2.912632739880039
 40
3.147745656000236
 40
3.244827496385126
 40
3.338490056946719
 40
3.583815413207146
 40
3.761423943238506
 40
3.88695610436267
 40
3.98585545188683
 40
4.091766255337714
 40
4.250186473811907
 40
4.422734315084552
 40
4.628285684838645
 40
4.872093227758477
 40
5.152549652145589
 40
5.464967135837572
 40
5.803201477852491
 40
6.16036298881397
 40
6.193449448276025
 40
6.28417038550168
 40
6.41971813876455
 40
6.5872850463858
 40
6.774063446723714
 40
6.967245678113697
 40
7.154024078817683
 40
7.321590987026068
 40
7.457138740890427
 40
7.547859678556163
 40
7.580946138182723
 40
7.608533084714775
 40
7.669224367077751
 40
7.729915649429968
 40
7.757502595950019
 40
7.790278062553472
 40
7.880146277430971
 40
8.014419963180433
 40
8.180411842397934
 40
8.365434637679403
 40
8.556801071622704
 40
8.741823866830817
 40
8.907815745916327
 40
9.042089431507481
 40
9.131957646249607
 40
9.164733112797183
 40
9.415425063140104
 40
9.667986180958568
 40
9.694169807462735
 40
9.756607686047694
 40
9.8311303153225
 40
9.893568193899965
 40
9.919751820398782
 40
9.95096796469062
 40
9.996421631210728
 40
10.22087981037461
 40
10.44341866197549
 40
10.47847970788862
 40
10.57091337438762
 40
10.70159545461236
 40
10.85140174170367
 40
11.00120802880484
 40
11.1318901090739
 40
11.22432377583018
 40
11.25938480938964
 40
11.28697175596152
 40
11.34766303835926
 40
11.40835432042076
 40
11.43594125892111
 40
11.43594125892111
 40
11.43594125892111
 40
11.43594125892111
 10
190.0818114333289
 20
15.55242795125078
 10
190.0702785844941
 20
15.55242790287916
 10
190.0283409444998
 20
15.55242773704165
 10
189.9434129719026
 20
15.5524312580091
 10
189.8207688553128
 20
15.55240926435879
 10
189.6791206916993
 20
15.55250801177055
 10
189.537975369849
 20
15.55214686232421
 10
189.4141351317904
 20
15.5532188360909
 10
189.3317217825382
 20
15.55092249091269
 10
189.1727791229692
 20
15.56048569373422
 10
189.3503402353375
 20
15.19785394311371
 10
189.3379739205452
 20
14.95243127723115
 10
189.4064519473864
 20
14.66862501324835
 10
189.469302432097
 20
14.43250999939035
 10
189.5452253431729
 20
14.2332674039613
 10
189.6303189577016
 20
14.07745347451373
 10
189.7244607592935
 20
13.97657857781392
 10
189.8282648207728
 20
13.92465852638965
 10
189.9125872030774
 20
13.97606484379617
 10
189.9351322179451
 20
14.09144544037517
 10
189.9745730975371
 20
14.2188514970238
 10
189.9202919734942
 20
14.53622328086755
 10
190.0451218072473
 20
14.38982180140906
 10
190.2019291513603
 20
14.35795300331171
 10
190.0947720007057
 20
14.12421357767628
 10
190.0808711209867
 20
13.95972776583656
 10
190.0234709467225
 20
13.83130869122483
 10
189.9335020145008
 20
13.76018802352826
 10
189.8095274657877
 20
13.74432324142254
 10
189.663427319686
 20
13.77993797554171
 10
189.5243894320284
 20
13.90000570500277
 10
189.4102003962144
 20
14.0743568255032
 10
189.3146141301486
 20
14.2994660311124
 10
189.2318652572625
 20
14.56388246006442
 10
189.1807179256411
 20
14.88187933098543
 10
189.0770189207339
 20
15.15543728488913
 10
189.2042841208519
 20
15.56005818612866
 10
189.0357890623019
 20
15.5511236784968
 10
188.9511995787076
 20
15.55315961418363
 10
188.8189876387628
 20
15.55213937388407
 10
188.6560505094103
 20
15.5525323031843
 10
188.4733759170532
 20
15.55235696313369
 10
188.2847057373383
 20
15.55260105307469
 10
188.1014469020189
 20
15.55185657906237
 10
187.9404746832718
 20
15.55416360522426
 10
187.8029808335276
 20
15.54799804883663
 10
187.728959037231
 20
15.56032838458213
 10
187.6613215186856
 20
15.54329323723556
 10
187.673237371927
 20
15.59524438447529
 10
187.6655677285694
 20
15.64071424966529
 10
187.6732592225115
 20
15.68614453703706
 10
187.6613141797762
 20
15.7380239598457
 10
187.7283588305867
 20
15.72119143490264
 10
187.8017375665677
 20
15.73335409092671
 10
187.9379128305271
 20
15.72727231074958
 10
188.0973811801513
 20
15.72954834315058
 10
188.2789173085836
 20
15.72881233998961
 10
188.4658034862179
 20
15.72905954196134
 10
188.6468012316836
 20
15.72886400799253
 10
188.8080802578878
 20
15.72932234714839
 10
188.9393882124887
 20
15.72812673751206
 10
189.0225051322596
 20
15.73051347319742
 10
189.1556236547815
 20
15.72230605725465
 10
189.0645893502658
 20
15.97752868952655
 10
188.9789633074419
 20
16.24164358328247
 10
189.0990589003455
 20
16.22904442969165
 10
189.1514264948544
 20
16.22694235763075
 10
189.2214497569715
 20
16.22535399889657
 10
189.2671922337817
 20
16.21602567538113
 10
189.3220812646933
 20
16.22545966915427
 10
189.2963574785681
 20
16.17733028655172
 10
189.1825397571452
 20
16.18266829744168
 10
189.3159346621136
 20
15.95449174576776
 10
189.194365873547
 20
15.72156856595923
 10
189.3223188769413
 20
15.73087258884438
 10
189.4049048406461
 20
15.7280100175468
 10
189.5307214850824
 20
15.72923437412302
 10
189.6741469838057
 20
15.72932431888965
 10
189.8157420951728
 20
15.72746163183853
 10
189.9459127249967
 20
15.73333075937163
 10
190.0193452286191
 20
15.72070340823204
 10
190.0891112922096
 20
15.73877563110412
 10
190.0775772605396
 20
15.68612850546326
 10
190.0833184346682
 20
15.64221317686548
 10
190.0816615770911
 20
15.5908998267655
 10
190.081775756167
 20
15.56158792021635
 10
190.0818114333289
 20
15.55242795125078
 97
        1
330
B1
 75
     1
 76
     2
 52
45.0
 41
0.1
 77
     0
 78
     1
 53
45.0
 43
0.0
 44
0.0
 45
-0.282842712474619
 46
0.0
 79
     0
 98
        1
 10
0.0
 20
0.0
  0
HATCH
  5
CF
330
48
100
AcDbEntity
  8
1
  6
Continuous
 62
     2
100
AcDbHatch
 10
0.0
 20
0.0
 30
0.0
210
0.0
220
0.0
230
1.0
  2
CUSTOM9
 70
     0
 71
     1
 91
        1
 92
        1
 93
        1
 72
     4
 94
        3
 73
     0
 74
     0
 95
      118
 96
      114
 40
0.0
 40
0.0
 40
0.0
 40
0.0
 40
0.1054708162973424
 40
0.2466098270051938
 40
0.3965912874591291
 40
0.5285525069754047
 40
0.6156245055642273
 40
0.64314341057976
 40
0.7036850037986319
 40
0.7642265984504745
 40
0.7917455052355062
 40
0.9287404319990077
 40
1.106572819088061
 40
1.287544879681061
 40
1.317578308030578
 40
1.399928030857216
 40
1.522968204799991
 40
1.675072986590612
 40
1.844616533180689
 40
2.019973001638753
 40
2.189516548880066
 40
2.341621331585404
 40
2.464661506320541
 40
2.547011229647104
 40
2.577044658168068
 40
2.603797890893139
 40
2.662655002908826
 40
2.721512114949638
 40
2.748265347702818
 40
2.774215307344894
 40
2.845959313407224
 40
2.954338556588423
 40
3.0901942275856
 40
3.244367517100564
 40
3.407699615844324
 40
3.571031714539474
 40
3.72520500392015
 40
3.86106067472965
 40
3.969439917716343
 40
4.041183923629015
 40
4.067133883213009
 40
4.311886746012195
 40
4.547897258335561
 40
4.764747083044005
 40
4.952749679951812
 40
5.045772974195941
 40
5.13786201964503
 40
5.330543169793081
 40
5.553448265244073
 40
5.795083855888232
 40
6.043293412177298
 40
6.285761695541249
 40
6.313902908752732
 40
6.384255941793322
 40
6.47571488476691
 40
6.567173827758973
 40
6.637526860839751
 40
6.665668074074114
 40
6.692018920328087
 40
6.749990782071151
 40
6.807962643790519
 40
6.83431349001799
 40
6.856393084245269
 40
6.913335195649893
 40
6.991194817302556
 40
7.076026942283818
 40
7.153886563725308
 40
7.21082867484489
 40
7.232908268931226
 40
7.258199334923747
 40
7.324875781592397
 40
7.419142481925054
 40
7.527204308841993
 40
7.635266135230571
 40
7.729532834168557
 40
7.79620927929288
 40
7.821500344594826
 40
7.844652988850896
 40
7.899863140541675
 40
7.965759128053842
 40
8.020969279771126
 40
8.044121924046593
 40
8.069356610160682
 40
8.109134395441453
 40
8.132238100191165
 40
8.19314786778653
 40
8.279261678876702
 40
8.377977512673917
 40
8.4766933471467
 40
8.562807160411754
 40
8.623716930826541
 40
8.646820636853493
 40
8.671988793774306
 40
8.734909185828217
 40
8.816705695188931
 40
8.898502204815502
 40
8.961422597377963
 40
8.986590754551075
 40
9.012941600733228
 40
9.070913462380311
 40
9.1288853240818
 40
9.155236170325121
 40
9.180404327929164
 40
9.243324721948238
 40
9.32512123421203
 40
9.406917746637685
 40
9.46983814197814
 40
9.495006288270915
 40
9.517811184379056
 40
9.572192090487055
 40
9.637098333281287
 40
9.691479239515486
 40
9.714284125643525
 40
9.714284125643525
 40
9.714284125643525
 40
9.714284125643525
 10
185.2874469028653
 20
15.2688916318772
 10
185.3090990569037
 20
15.24111869242812
 10
185.3597257109474
 20
15.17618054561237
 10
185.4349383202591
 20
15.06891060312898
 10
185.5248482274346
 20
14.95377438266625
 10
185.5709169676673
 20
14.85357045748319
 10
185.6655825294655
 20
14.78434006814943
 10
185.6204439320412
 20
14.73771639678274
 10
185.594704778579
 20
14.69660308866038
 10
185.5645196708012
 20
14.66065971727939
 10
185.5193684730562
 20
14.58579782596092
 10
185.4710504458562
 20
14.80782524253605
 10
185.3968539713073
 20
14.84510677337709
 10
185.2836047324606
 20
15.11610202130601
 10
185.288513357817
 20
15.00095328446228
 10
185.2868486556306
 20
14.92836675781627
 10
185.2876830076714
 20
14.80625588483986
 10
185.2873609540264
 20
14.6591380081046
 10
185.2875076912456
 20
14.49307063956557
 10
185.2872950092722
 20
14.32187554608602
 10
185.2879497252034
 20
14.15552828635498
 10
185.2859192461139
 20
14.00935173055693
 10
185.291346039993
 20
13.8847104747461
 10
185.2804930868708
 20
13.81718656540626
 10
185.2956739155555
 20
13.75549061417022
 10
185.2457895108133
 20
13.76727503897002
 10
185.2017150342522
 20
13.75943822779969
 10
185.15823716302
 20
13.76760441372703
 10
185.1092346786489
 20
13.75538056738468
 10
185.1218731234824
 20
13.80960667249313
 10
185.113018296845
 20
13.86936918907557
 10
185.1175058770314
 20
13.97922029044371
 10
185.1157960135991
 20
14.11029975405679
 10
185.1163550915986
 20
14.26198011444328
 10
185.1161928768694
 20
14.42211074929953
 10
185.1162269924675
 20
14.58236865674566
 10
185.1162514960127
 20
14.73370247520439
 10
185.1161453543224
 20
14.86582156338601
 10
185.1164299141932
 20
14.97294802533193
 10
185.1158675547567
 20
15.03808619579473
 10
185.118076508369
 20
15.16618957858676
 10
185.0319435998602
 20
14.79097610391575
 10
184.95551408185
 20
14.63918193123396
 10
184.8660040767833
 20
14.47766206446305
 10
184.7640413217327
 20
14.20471848820171
 10
184.7187976491038
 20
14.3671734659651
 10
184.6102355941671
 20
14.4560543205812
 10
184.7995791751753
 20
14.60549794961409
 10
184.85653405457
 20
14.79749136974925
 10
184.9717520993352
 20
15.02899622906757
 10
184.9940151630133
 20
15.21797259759063
 10
185.1771905152139
 20
15.49454089325931
 10
185.0538033597552
 20
15.48698978832095
 10
184.9925684166834
 20
15.48856772366119
 10
184.9081999617064
 20
15.48882592573673
 10
184.8204235085965
 20
15.48544845751206
 10
184.7656768696123
 20
15.49394814982021
 10
184.7104703026024
 20
15.48048561049788
 10
184.7222823035537
 20
15.52931442126764
 10
184.7142496151793
 20
15.57269004896709
 10
184.7228186104679
 20
15.61509438309573
 10
184.7102943409157
 20
15.66267796552118
 10
184.7555101538735
 20
15.65267212995109
 10
184.8014815562723
 20
15.65894105174061
 10
184.877722204771
 20
15.65593561405872
 10
184.9561296131993
 20
15.65770448278541
 10
185.0323992648932
 20
15.65464793981659
 10
185.0783009459475
 20
15.66103971376177
 10
185.12317339654
 20
15.65093822978896
 10
185.1105552275634
 20
15.70157201581898
 10
185.1191936582707
 20
15.7550126188207
 10
185.1152361595443
 20
15.8486325513168
 10
185.1162325068335
 20
15.95112606688924
 10
185.1171927413073
 20
16.05353270248163
 10
185.1133211458005
 20
16.14735929609321
 10
185.1217789814364
 20
16.20036542840353
 10
185.1093075932835
 20
16.25211435651188
 10
185.1542106389849
 20
16.23850747226757
 10
185.1955083836772
 20
16.24100480320585
 10
185.259534428105
 20
16.23648060574488
 10
185.2986111148786
 20
16.22781003043309
 10
185.3476543498742
 20
16.23515102070687
 10
185.322508003059
 20
16.19602896051758
 10
185.2815901333723
 20
16.20563842455807
 10
185.2910109616604
 20
16.15540148169779
 10
185.2855647318746
 20
16.1038594563949
 10
185.2881699601804
 20
16.0195970758452
 10
185.2870102202153
 20
15.92559135583408
 10
185.2883591064231
 20
15.83196865395526
 10
185.2849970101508
 20
15.74679517552223
 10
185.2920959917769
 20
15.69716856072044
 10
185.2812569154545
 20
15.64993694969989
 10
185.3304010225245
 20
15.66201674936851
 10
185.3794877630147
 20
15.65447393363011
 10
185.4573714280642
 20
15.65686070361432
 10
185.5350365172896
 20
15.65899381905415
 10
185.5845393931355
 20
15.65193391922455
 10
185.6344594750639
 20
15.66360151936214
 10
185.6223198516881
 20
15.61540235371393
 10
185.6305838229144
 20
15.57249219801236
 10
185.6223198650783
 20
15.52958201851385
 10
185.6344594549855
 20
15.48138288754865
 10
185.5845395158746
 20
15.49305034471511
 10
185.5350350651203
 20
15.48599202435046
 10
185.4573784382972
 20
15.48811665228604
 10
185.379464386576
 20
15.49053389365761
 10
185.3304500352715
 20
15.48291848194486
 10
185.2813246108943
 20
15.49507952557594
 10
185.291555998857
 20
15.45073013424158
 10
185.2856677678054
 20
15.40925436202913
 10
185.2878788305569
 20
15.34915394315304
 10
185.2874109346146
 20
15.3022578276289
 10
185.2874386992913
 20
15.27650146418197
 10
185.2874469028653
 20
15.2688916318772
 97
        1
330
B2
 75
     1
 76
     2
 52
45.0
 41
0.1
 77
     0
 78
     1
 53
45.0
 43
0.0
 44
0.0
 45
-0.282842712474619
 46
0.0
 79
     0
 98
        1
 10
0.0
 20
0.0
  0
HATCH
  5
D0
330
48
100
AcDbEntity
  8
1
  6
Continuous
 62
     2
100
AcDbHatch
 10
0.0
 20
0.0
 30
0.0
210
0.0
220
0.0
230
1.0
  2
CUSTOM10
 70
     0
 71
     1
 91
        1
 92
        1
 93
        1
 72
     4
 94
        3
 73
     0
 74
     0
 95
       47
 96
       43
 40
0.0
 40
0.0
 40
0.0
 40
0.0
 40
0.2207912809957213
 40
0.4459404186303042
 40
0.4902387190459256
 40
0.5327473892722205
 40
0.5742260451225534
 40
0.6155432630560826
 40
0.6568164066315745
 40
0.6982511618780672
 40
0.7407663929317176
 40
0.7851366743175237
 40
1.010288833836323
 40
1.231080507002173
 40
1.451765243652403
 40
1.676638205891687
 40
1.720461045359656
 40
1.830018144043521
 40
1.972442372353152
 40
2.114866600677522
 40
2.224423699395147
 40
2.268246538883388
 40
2.493628801207215
 40
2.715602830286619
 40
2.934211330706366
 40
3.149502369855355
 40
3.231387784851
 40
3.318231873854036
 40
3.405143198198024
 40
3.48697030172046
 40
3.702258172493897
 40
3.920866283534122
 40
4.142839325931915
 40
4.368221903865375
 40
4.412044743359854
 40
4.52160184209587
 40
4.66402607045235
 40
4.806450298809058
 40
4.916007397546751
 40
4.959830237043074
 40
5.184703515847105
 40
5.405387250767482
 40
5.405387250767482
 40
5.405387250767482
 40
5.405387250767482
 10
182.6507427258645
 20
15.73406440953872
 10
182.6568139420003
 20
15.79758482501211
 10
182.6690762107242
 20
15.92587938689627
 10
182.5604706879413
 20
16.20166220174076
 10
182.6761985896603
 20
16.17188133432053
 10
182.7171842509016
 20
16.16765556262821
 10
182.7591205797518
 20
16.16310446389607
 10
182.800419662571
 20
16.16201982929485
 10
182.8417032115555
 20
16.16310338195227
 10
182.8836148270647
 20
16.16766112711344
 10
182.9245983549019
 20
16.17187430209728
 10
183.0404922843488
 20
16.20177611317533
 10
182.9295652727456
 20
15.92339806609889
 10
182.9574856365267
 20
15.74283140824953
 10
182.9404267346969
 20
15.50961042346471
 10
182.9414637282102
 20
15.34906622543145
 10
182.9414099399405
 20
15.22284817558722
 10
182.9414277372481
 20
15.12428963336241
 10
182.941418858108
 20
14.99280702442963
 10
182.9414263928033
 20
14.86132844968649
 10
182.9414129405129
 20
14.7627622269409
 10
182.9414531717491
 20
14.63639735624152
 10
182.9406746403818
 20
14.4748206882287
 10
182.9565958319266
 20
14.24361821892915
 10
182.9333468885408
 20
14.05874351972002
 10
183.0360183444365
 20
13.78935602770056
 10
182.8820238362836
 20
13.82660112685818
 10
182.8004129802832
 20
13.82137994680535
 10
182.7188192292583
 20
13.82660620378352
 10
182.5648513666841
 20
13.78937069885387
 10
182.6674183421918
 20
14.0587512986288
 10
182.6442045316087
 20
14.24361585325414
 10
182.6600444655139
 20
14.47482218565639
 10
182.6593296313426
 20
14.63639712308503
 10
182.6593664569907
 20
14.76276231210521
 10
182.659354900027
 20
14.86132756635981
 10
182.6593575019214
 20
14.9928112741722
 10
182.6593648531779
 20
15.124275480312
 10
182.6593442541351
 20
15.22287786275325
 10
182.6594082192028
 20
15.34896149354427
 10
182.6581733947591
 20
15.51210091383771
 10
182.6532040396745
 20
15.66054183777549
 10
182.6507427258645
 20
15.73406440953872
 97
        1
330
B3
 75
     1
 76
     2
 52
45.0
 41
0.1
 77
     0
 78
     1
 53
45.0
 43
0.0
 44
0.0
 45
-0.282842712474619
 46
0.0
 79
     0
 98
        1
 10
0.0
 20
0.0
  0
HATCH
  5
D1
330
48
100
AcDbEntity
  8
1
  6
Continuous
 62
     2
100
AcDbHatch
 10
0.0
 20
0.0
 30
0.0
210
0.0
220
0.0
230
1.0
  2
CUSTOM11
 70
     0
 71
     1
 91
        1
 92
        1
 93
        1
 72
     4
 94
        3
 73
     0
 74
     0
 95
      110
 96
      106
 40
0.0
 40
0.0
 40
0.0
 40
0.0
 40
0.2203406257277737
 40
0.4407808782838091
 40
0.5952494494615068
 40
0.7488431659393071
 40
0.9023581831309057
 40
1.056801968670404
 40
1.210736449099905
 40
1.363041386539783
 40
1.515315729683126
 40
1.669377239148077
 40
1.721611652756564
 40
1.773199502942947
 40
1.824933793209993
 40
1.877110426487969
 40
1.982682281206732
 40
2.078781667087541
 40
2.172809640822262
 40
2.271937807378916
 40
2.378349933379309
 40
2.494131557736497
 40
2.626681683943631
 40
2.783145050796059
 40
2.890701232940912
 40
2.993130312454806
 40
3.099869730691795
 40
3.220237816691288
 40
3.352695482737577
 40
3.481732806389828
 40
3.593499473690359
 40
3.674323013331873
 40
3.817951711952822
 40
3.94616712079382
 40
4.061405053453505
 40
4.166480796003146
 40
4.262478775059184
 40
4.35073667355114
 40
4.433071991254026
 40
4.511216293814627
 40
4.564262454117949
 40
4.61847441557156
 40
4.670128488754163
 40
4.722296879126362
 40
4.819540945314231
 40
4.931194984128088
 40
5.04999604025773
 40
5.168643755415276
 40
5.283970811762488
 40
5.392260784910313
 40
5.486512254876388
 40
5.559178233949787
 40
5.591425852853447
 40
5.62621596963784
 40
5.667155838674367
 40
5.717449290214173
 40
5.738402360944788
 40
5.784499116553757
 40
5.83059587216473
 40
5.851548942897589
 40
5.873019280661703
 40
5.924217778408245
 40
5.985325662817624
 40
6.036524160567641
 40
6.057994498334169
 40
6.236847789607419
 40
6.381409928945594
 40
6.493190424178624
 40
6.574067534230434
 40
6.691018086205528
 40
6.814881554220445
 40
6.944307823240398
 40
7.071266716066022
 40
7.193488604461867
 40
7.309042773128094
 40
7.414007203170719
 40
7.505140441886475
 40
7.531150360599633
 40
7.559221645322219
 40
7.587202218920885
 40
7.612569159499089
 40
7.662550809480968
 40
7.702878875764086
 40
7.857328205230901
 40
8.010799568088546
 40
8.165256399657496
 40
8.322232698713835
 40
8.479564855016521
 40
8.635216230290725
 40
8.790882550925643
 40
8.948305154947208
 40
9.168271839032885
 40
9.38735898098717
 40
9.608047961033408
 40
9.832914234792602
 40
9.858338694962937
 40
9.925366817229945
 40
10.02013071422753
 40
10.12876249858991
 40
10.23739428295242
 40
10.33215817995184
 40
10.39918630222387
 40
10.42461076239776
 40
10.64992019336936
 40
10.87188524531181
 40
10.87188524531181
 40
10.87188524531181
 40
10.87188524531181
 10
179.9057788376618
 20
15.7392326039819
 10
179.9092864933541
 20
15.80616462073804
 10
179.9163033987662
 20
15.94005891915858
 10
179.8198027599072
 20
16.22548554971469
 10
180.0510134726108
 20
16.16284386190283
 10
180.1919290057156
 20
16.17001554055992
 10
180.3490417757588
 20
16.16235883078244
 10
180.5025913427287
 20
16.1625275228304
 10
180.6545104935081
 20
16.16182040535432
 10
180.8142214813231
 20
16.17210158351639
 10
180.9408972601117
 20
16.15496511080751
 10
181.137082112208
 20
16.22727260107145
 10
181.1034395279078
 20
16.12640699080117
 10
181.1052011317184
 20
16.0761925394767
 10
181.1027342073458
 20
16.02712335586466
 10
181.1347076966011
 20
15.94063490846999
 10
181.0010399903256
 20
15.98997438608336
 10
180.9172208688056
 20
15.98430634314168
 10
180.8173861139324
 20
15.99465516706298
 10
180.7186576720145
 20
16.00086450411087
 10
180.612153277111
 20
16.00697763816778
 10
180.4910511698059
 20
16.01588883484585
 10
180.3703381502453
 20
16.00521605912384
 10
180.1812553843437
 20
16.06468503080367
 10
180.212902850531
 20
15.90558320077539
 10
180.1995563316834
 20
15.80839128339905
 10
180.197495842645
 20
15.69634065110103
 10
180.195818804467
 20
15.57699685629351
 10
180.1973336794233
 20
15.4503259215511
 10
180.195658247867
 20
15.32301588016117
 10
180.2058844271657
 20
15.22451566404463
 10
180.1779006596583
 20
15.0838870262563
 10
180.3508029999305
 20
15.13989551134095
 10
180.4645020202772
 20
15.12719951478497
 10
180.5840151672239
 20
15.13448377051255
 10
180.6888491425071
 20
15.13878017056755
 10
180.7843084898612
 20
15.14330568258977
 10
180.8763823507032
 20
15.15149201146199
 10
180.9476551782439
 20
15.14643850638112
 10
181.0544931705685
 20
15.18536425031673
 10
181.0226603598036
 20
15.10517122005879
 10
181.0266164503929
 20
15.05562936846033
 10
181.0234502392013
 20
15.00557478039819
 10
181.0550791490584
 20
14.92128847612022
 10
180.9210133677692
 20
14.97425365495157
 10
180.82923227932
 20
14.96540080890441
 10
180.7079729189603
 20
14.97570049965154
 10
180.5914113119771
 20
14.97748911767502
 10
180.4783375745879
 20
14.97787017109695
 10
180.3679246308471
 20
14.98415449472181
 10
180.289812406784
 20
14.97189133255364
 10
180.1913625833644
 20
15.00453887616125
 10
180.2012355173561
 20
14.94769748054205
 10
180.1973923244402
 20
14.91392130557983
 10
180.1966789884268
 20
14.87119604709411
 10
180.1963369642975
 20
14.83401607262153
 10
180.1963834255346
 20
14.79487237370771
 10
180.1963649429927
 20
14.75716849497686
 10
180.1963703431806
 20
14.71944955232402
 10
180.1963697214201
 20
14.6899432474515
 10
180.1963698151545
 20
14.65873577699301
 10
180.1963704287921
 20
14.61414424908085
 10
180.1963671499336
 20
14.5596395650885
 10
180.1963759623481
 20
14.51505540201448
 10
180.1963359653417
 20
14.4311780858574
 10
180.1976024270255
 20
14.31737520677678
 10
180.1950274117842
 20
14.16830395933709
 10
180.2065009381719
 20
14.06597203813905
 10
180.1823506222264
 20
13.93338903885834
 10
180.3332993946476
 20
13.97895732272021
 10
180.4428436671556
 20
13.96427012162349
 10
180.573397047392
 20
13.96920435125062
 10
180.6990312209514
 20
13.97257705323363
 10
180.81887306256
 20
13.97711497498772
 10
180.9391362611427
 20
13.99048536182005
 10
181.0222761663515
 20
13.98068712782595
 10
181.1456080421075
 20
14.0412621462332
 10
181.1244269203956
 20
13.98532460134021
 10
181.1235950270116
 20
13.95939249372346
 10
181.1218963707558
 20
13.93197256190938
 10
181.1217974888829
 20
13.89738195206385
 10
181.1203659301329
 20
13.86050408220768
 10
181.153280419219
 20
13.76846841021807
 10
180.9551306988107
 20
13.84132015974832
 10
180.8300548294891
 20
13.81825726508607
 10
180.6673071295155
 20
13.82454021985786
 10
180.5129366450001
 20
13.82260943909927
 10
180.3566670436943
 20
13.82393762599269
 10
180.1970544465282
 20
13.82059872487863
 10
180.0540326342237
 20
13.83265795728241
 10
179.8197144881628
 20
13.76952001976919
 10
179.9173810751197
 20
14.05620527466318
 10
179.9006868780059
 20
14.24988308142661
 10
179.9146296709684
 20
14.47848242880295
 10
179.9142987846632
 20
14.63384593955049
 10
179.9143078119263
 20
14.73966336444125
 10
179.9143055876316
 20
14.80205784124214
 10
179.9143065551888
 20
14.89220425248327
 10
179.9143065473261
 20
14.99621167157438
 10
179.9143053861102
 20
15.10022131375296
 10
179.9143090971502
 20
15.19036243688768
 10
179.9143011051051
 20
15.25276803097215
 10
179.9143334275018
 20
15.35868835961119
 10
179.9131440788319
 20
15.5162671654474
 10
179.9082216489256
 20
15.66528219822065
 10
179.9057788376618
 20
15.7392326039819
 97
        1
330
B4
 75
     1
 76
     2
 52
45.0
 41
0.1
 77
     0
 78
     1
 53
45.0
 43
0.0
 44
0.0
 45
-0.282842712474619
 46
0.0
 79
     0
 98
        1
 10
0.0
 20
0.0
  0
HATCH
  5
D2
330
48
100
AcDbEntity
  8
1
  6
Continuous
 62
     2
100
AcDbHatch
 10
0.0
 20
0.0
 30
0.0
210
0.0
220
0.0
230
1.0
  2
CUSTOM12
 70
     0
 71
     1
 91
        1
 92
        1
 93
        1
 72
     4
 94
        3
 73
     0
 74
     0
 95
       95
 96
       91
 40
0.0
 40
0.0
 40
0.0
 40
0.0
 40
0.6550406656911482
 40
1.308087289031932
 40
1.420803739835805
 40
1.566130759770813
 40
1.75706734188847
 40
2.006513545026472
 40
2.08732826312156
 40
2.185328872295633
 40
2.294612454748368
 40
2.408936380534818
 40
2.526802767798564
 40
2.646360524615613
 40
2.762535723971582
 40
2.870057342870153
 40
2.966883448431651
 40
3.050803243518302
 40
3.11581822243661
 40
3.156030057150239
 40
3.213914225080141
 40
3.276689026450541
 40
3.342960320981319
 40
3.404230667150567
 40
3.453822809493367
 40
3.532499827188432
 40
3.63477518850716
 40
3.754909333008158
 40
3.889736761660659
 40
4.035769602175222
 40
4.187256681197605
 40
4.338733685675954
 40
4.48847873467611
 40
4.634708317831582
 40
4.771493189921269
 40
4.892686571561208
 40
5.199775528944444
 40
5.460353566929633
 40
5.667603142345508
 40
5.814722905404488
 40
5.828990806219786
 40
5.855488336304483
 40
5.869756237118815
 40
6.18979650776282
 40
6.531890469873014
 40
6.883053637017
 40
7.230512024911471
 40
7.566966656764578
 40
7.885203559707405
 40
8.172887439719208
 40
8.41801159406276
 40
8.443926721190682
 40
8.51076047061317
 40
8.602145393795679
 40
8.70171404164712
 40
8.79309896507535
 40
8.859932715057923
 40
8.885847842603573
 40
9.242301256612791
 40
9.589275455016741
 40
9.92180854316415
 40
10.23479624298465
 40
10.29968150889176
 40
10.35323493887764
 40
10.40154625355149
 40
10.46482922477825
 40
10.55973900668405
 40
10.69239545985617
 40
10.84920353475671
 40
11.01626328594779
 40
11.18672024367443
 40
11.35372582577211
 40
11.50257442292426
 40
11.61866495023291
 40
11.71329869152874
 40
11.82511050573907
 40
11.94464880845716
 40
12.06929242642506
 40
12.19707290435176
 40
12.32562632860529
 40
12.45034565331279
 40
12.56646595170328
 40
12.67099007414635
 40
12.76077625936783
 40
12.82703233506694
 40
12.87429132785993
 40
12.89831990323333
 40
12.92234847860021
 40
13.53984767410321
 40
14.18294284359366
 40
14.18294284359366
 40
14.18294284359366
 40
14.18294284359366
 10
177.3067935648021
 20
14.70898038201725
 10
177.175201975855
 20
14.82265058603232
 10
176.9124193802728
 20
15.04964496316158
 10
176.399739344102
 20
15.89214462956287
 10
176.4106654595362
 20
15.53423377577019
 10
176.4041226527991
 20
15.39267392272132
 10
176.4028026631773
 20
15.1942130529928
 10
176.4018117602538
 20
15.02150296045982
 10
176.4024101751974
 20
14.87865373257579
 10
176.4038994301882
 20
14.78265005413357
 10
176.4055683588472
 20
14.67545503263142
 10
176.4071934954618
 20
14.56164211517582
 10
176.4092429501685
 20
14.44441572604588
 10
176.4123165501927
 20
14.3265641123297
 10
176.4156339697043
 20
14.21228087320621
 10
176.419360534028
 20
14.10521401867278
 10
176.4217338161424
 20
14.01007408766921
 10
176.4278718888357
 20
13.92558557205695
 10
176.4239784495947
 20
13.86923087298142
 10
176.4455230443077
 20
13.79825022472356
 10
176.3680940058618
 20
13.82902677604484
 10
176.3116353240191
 20
13.82011242517614
 10
176.2540495896807
 20
13.82896218398276
 10
176.1690163478472
 20
13.79738225225945
 10
176.2009714146383
 20
13.88095155992191
 10
176.1990705282539
 20
13.94882608968309
 10
176.21079600473
 20
14.05233256764419
 10
176.2164241053
 20
14.17002125616695
 10
176.2237902178941
 20
14.30388609164423
 10
176.232075970161
 20
14.44764152872632
 10
176.2398851897427
 20
14.59714022843445
 10
176.2457571222657
 20
14.74792549402078
 10
176.2503667817969
 20
14.89699943878438
 10
176.2542632117542
 20
15.04122913163022
 10
176.2570715126564
 20
15.17583905213017
 10
176.2576698755022
 20
15.36469614347355
 10
176.261602386715
 20
15.58975494313153
 10
176.2442175378499
 20
15.86367091125708
 10
176.2850417342583
 20
16.02787112098595
 10
176.1995153256001
 20
16.22749661465097
 10
176.2660558907688
 20
16.22385458403978
 10
176.283872427323
 20
16.22413447160854
 10
176.4056801797504
 20
16.22632927398611
 10
176.5080770335462
 20
15.94675118721515
 10
176.7580021509355
 20
15.74563008536
 10
176.9870035331111
 20
15.47792614987917
 10
177.2245151213108
 20
15.22646413862376
 10
177.4486090740772
 20
14.98969974061358
 10
177.6750716283009
 20
14.73218692583079
 10
177.8325687886515
 20
14.61649335056921
 10
178.0472129612673
 20
14.27997152538793
 10
178.0422645974618
 20
14.40464754091603
 10
178.0433931602546
 20
14.46327691935737
 10
178.0428877841516
 20
14.55043662371977
 10
178.0430475158113
 20
14.64416143182872
 10
178.0430054891318
 20
14.73018971297035
 10
178.0430202040373
 20
14.79153891945496
 10
178.0429706255983
 20
14.94135231520991
 10
178.0458811522811
 20
15.17989612510105
 10
178.0259521041162
 20
15.54486509868701
 10
178.0750433936246
 20
15.80799631993411
 10
177.9177951509182
 20
16.21928904947753
 10
178.076211287242
 20
16.16398282551747
 10
178.1311680478629
 20
16.16199686500176
 10
178.182788776674
 20
16.16264778248251
 10
178.2713198965366
 20
16.20369527738246
 10
178.2204898303168
 20
16.05696326622987
 10
178.2313389930283
 20
15.95019971954434
 10
178.2166036994847
 20
15.79085705414113
 10
178.2099976446204
 20
15.62853061652874
 10
178.2014961399914
 20
15.45992521892396
 10
178.1943227202199
 20
15.2981481470354
 10
178.1889063215389
 20
15.15422331457933
 10
178.1871713967649
 20
15.03437493466925
 10
178.1875440672318
 20
14.92686101590514
 10
178.1873656126263
 20
14.81820024645586
 10
178.187701086314
 20
14.6995357016553
 10
178.1890040622184
 20
14.57555163512741
 10
178.1908887351574
 20
14.44858294171105
 10
178.192500445485
 20
14.32153861551031
 10
178.194140313743
 20
14.19854884492178
 10
178.1962570745751
 20
14.08300931383759
 10
178.1963848422364
 20
13.98090903955836
 10
178.2006514396554
 20
13.89009848838156
 10
178.1908440085289
 20
13.83213621208786
 10
178.2118474771689
 20
13.76517130132029
 10
178.1725639739897
 20
13.77291153966688
 10
177.9595307117747
 20
13.75755254145192
 10
177.7636297943186
 20
14.3140305809447
 10
177.4611197631544
 20
14.5755603534851
 10
177.3067935648021
 20
14.70898038201725
 97
        1
330
B5
 75
     1
 76
     2
 52
45.0
 41
0.1
 77
     0
 78
     1
 53
45.0
 43
0.0
 44
0.0
 45
-0.282842712474619
 46
0.0
 79
     0
 98
        1
 10
0.0
 20
0.0
  0
HATCH
  5
D3
330
48
100
AcDbEntity
  8
1
  6
Continuous
 62
     2
100
AcDbHatch
 10
0.0
 20
0.0
 30
0.0
210
0.0
220
0.0
230
1.0
  2
CUSTOM13
 70
     0
 71
     1
 91
        2
 92
        1
 93
        1
 72
     4
 94
        3
 73
     0
 74
     0
 95
       57
 96
       53
 40
0.0
 40
0.0
 40
0.0
 40
0.0
 40
0.0471632082809231
 40
0.091486105463215
 40
0.1357762519702386
 40
0.182652700161068
 40
0.2295203288572589
 40
0.2737751972220759
 40
0.3181310461543069
 40
0.3652607198398508
 40
0.4571007286314344
 40
0.5671851029165189
 40
0.6894623283868276
 40
0.8181758272545547
 40
0.9510087229273827
 40
1.085852229674046
 40
1.218126164475282
 40
1.343545131142373
 40
1.45453720295679
 40
1.567187607530799
 40
1.680710966642417
 40
1.794226869736782
 40
1.900009184247581
 40
2.00408586044786
 40
2.108162674451748
 40
2.214000150155293
 40
2.496038577352129
 40
2.762350745479268
 40
2.997275353279397
 40
3.185110082137713
 40
3.246407890063939
 40
3.31260755021267
 40
3.378877742711572
 40
3.440140399651426
 40
4.100501696006437
 40
4.754913085563503
 40
5.411331693423898
 40
6.07789043256868
 40
6.110575292670959
 40
6.143260152775739
 40
6.367989363395132
 40
6.610525374951529
 40
6.863389136467292
 40
7.119380025547584
 40
7.376036605091072
 40
7.631164770966278
 40
7.876722425456396
 40
8.104953735855927
 40
8.312916685924268
 40
8.49773029494128
 40
8.651018984313831
 40
8.764738853624554
 40
8.764738853624554
 40
8.764738853624554
 40
8.764738853624554
 10
174.7922649500513
 20
13.81626739612928
 10
174.7766616726931
 20
13.81826231079079
 10
174.7463947960302
 20
13.822132013603
 10
174.7010994202252
 20
13.82341984967269
 10
174.6559553129349
 20
13.82308683554052
 10
174.6099017123399
 20
13.82314658674225
 10
174.5640496172097
 20
13.82325813650002
 10
174.5183711648165
 20
13.82277833456591
 10
174.4750811541608
 20
13.82461109618722
 10
174.4039947951514
 20
13.80049556814658
 10
174.4057477261441
 20
13.92184693977251
 10
174.358619637057
 20
14.00726239751234
 10
174.3191478251762
 20
14.12486929345133
 10
174.2706635532646
 20
14.24232752540442
 10
174.2201017402522
 20
14.36405935761507
 10
174.1718634610476
 20
14.49075967862463
 10
174.1135232947595
 20
14.59933687784955
 10
174.0980892667261
 20
14.75620657134409
 10
173.9566586330636
 20
14.72373446548322
 10
173.8508397414903
 20
14.73512888682179
 10
173.7358569725222
 20
14.73392591514616
 10
173.6253142252141
 20
14.73506945347408
 10
173.5176583522783
 20
14.73418350037526
 10
173.4121322529242
 20
14.73416602390519
 10
173.3109192682012
 20
14.72714032472415
 10
173.1266804827753
 20
14.75135859859867
 10
173.1157393685411
 20
14.44741691121885
 10
173.008769163475
 20
14.22353177253397
 10
172.9098148604347
 20
14.03895314292497
 10
172.9225090524007
 20
13.79530204804207
 10
172.8050091716397
 20
13.82508046753198
 10
172.742205586831
 20
13.82258089509604
 10
172.6785872093399
 20
13.82344075102806
 10
172.3946014194075
 20
13.78098039941947
 10
173.0251638499381
 20
14.50081952444786
 10
173.1087645289071
 20
15.0127653943573
 10
173.4929252789339
 20
15.53353743550043
 10
173.4777208288565
 20
16.23519626253214
 10
173.7239265722697
 20
16.22345633081256
 10
173.8256346157561
 20
16.23225004452773
 10
173.8249752035818
 20
15.98059650730346
 10
173.9428317155829
 20
15.79818020733958
 10
174.0315515260484
 20
15.55563740662865
 10
174.1322292485259
 20
15.32340030530127
 10
174.2311142712243
 20
15.08674644566912
 10
174.3299676990669
 20
14.85461739170093
 10
174.4256166390925
 20
14.63122222788787
 10
174.5159904573271
 20
14.42272549049317
 10
174.5989944568189
 20
14.2330844852932
 10
174.6726088582799
 20
14.066631060681
 10
174.7342815895545
 20
13.92917699626097
 10
174.7749458885604
 20
13.84999239430034
 10
174.7922649500513
 20
13.81626739612928
 97
        1
330
B7
 92
       16
 93
        1
 72
     4
 94
        3
 73
     0
 74
     0
 95
       25
 96
       21
 40
0.0
 40
0.0
 40
0.0
 40
0.0
 40
0.0911479969064821
 40
0.1858117896204668
 40
0.2804128399734491
 40
0.371588919071451
 40
0.4679080494218708
 40
0.5642683809229231
 40
0.6605683222644991
 40
0.7569653015810256
 40
0.8561348172522739
 40
1.092615965104292
 40
1.374867658141875
 40
1.611348812011601
 40
1.710518328425249
 40
1.809403163726568
 40
2.04520546329407
 40
2.32664691762213
 40
2.562449217190592
 40
2.661334043833911
 40
2.661334043833911
 40
2.661334043833911
 40
2.661334043833911
 10
173.2683700567199
 20
14.88614538197292
 10
173.2987525917923
 20
14.88598079714555
 10
173.3606895889111
 20
14.88564528689922
 10
173.454135696033
 20
14.88269055451999
 10
173.5475095236357
 20
14.87977752877151
 10
173.6417760753476
 20
14.87894201643416
 10
173.7354964790967
 20
14.87996644658046
 10
173.8352040303204
 20
14.87916977470972
 10
173.9188949546313
 20
14.8892141023522
 10
174.0637996315045
 20
14.86234617674165
 10
173.9396132444801
 20
15.0366553028005
 10
173.8965867286282
 20
15.19651711006091
 10
173.780892214221
 20
15.45518458550216
 10
173.7017565431257
 20
15.59231052861858
 10
173.6431576621816
 20
15.80937033134077
 10
173.5864803939438
 20
15.59266134213428
 10
173.5052809900478
 20
15.45327012438236
 10
173.4063701281487
 20
15.20406969370194
 10
173.325362509426
 20
15.01925830226074
 10
173.2813683325838
 20
14.91650446856116
 10
173.2683700567199
 20
14.88614538197292
 97
        1
330
B6
 75
     1
 76
     2
 52
45.0
 41
0.1
 77
     0
 78
     1
 53
45.0
 43
0.0
 44
0.0
 45
-0.282842712474619
 46
0.0
 79
     0
 98
        1
 10
0.0
 20
0.0
  0
HATCH
  5
D4
330
48
100
AcDbEntity
  8
1
  6
Continuous
 62
     2
100
AcDbHatch
 10
0.0
 20
0.0
 30
0.0
210
0.0
220
0.0
230
1.0
  2
CUSTOM14
 70
     0
 71
     1
 91
        1
 92
        1
 93
        1
 72
     4
 94
        3
 73
     0
 74
     0
 95
       99
 96
       95
 40
0.0
 40
0.0
 40
0.0
 40
0.0
 40
0.0796417172272862
 40
0.162176854235597
 40
0.2486489160957623
 40
0.3404969668524581
 40
0.4381912511164604
 40
0.5434463660244906
 40
0.6518115192847226
 40
0.7530190937886798
 40
0.8492196919725086
 40
0.9419290312998707
 40
1.03424966357005
 40
1.129078600620201
 40
1.226697027573247
 40
1.327220425421709
 40
1.470572134938023
 40
1.595489863371215
 40
1.719934125348402
 40
1.850576620127425
 40
1.989059629987308
 40
2.134139054226823
 40
2.280698007207216
 40
2.424529739039484
 40
2.565929576985809
 40
2.708239260773536
 40
2.861717887443654
 40
3.045168540347357
 40
3.183798301138607
 40
3.314813961455454
 40
3.442083470447304
 40
3.569912708372962
 40
3.702177512509358
 40
3.842307559659526
 40
3.992872223245929
 40
4.156750662218318
 40
4.31098186110754
 40
4.445859909322586
 40
4.572393936131578
 40
4.701656719781978
 40
4.768279086008466
 40
4.8359606978984
 40
4.912788918729333
 40
5.006285208481533
 40
5.026909478751609
 40
5.047533749021174
 40
5.101808031471244
 40
5.162325165538525
 40
5.226919745995845
 40
5.294231806596718
 40
5.364544852554865
 40
5.438319055467911
 40
5.517877651324246
 40
5.607647714861558
 40
5.700449642544405
 40
5.788251142364136
 40
5.872714706039768
 40
5.955167292575283
 40
6.037192395190372
 40
6.120669181469104
 40
6.206848616686344
 40
6.296680855416765
 40
6.442558392872586
 40
6.568190371608274
 40
6.692904567360359
 40
6.824220446557135
 40
6.963121850329371
 40
7.107843738851159
 40
7.25343166390727
 40
7.395187468036693
 40
7.533140753237749
 40
7.670550457175237
 40
7.816236511769254
 40
7.987691657359218
 40
8.14227742196926
 40
8.293662615415018
 40
8.442962460879281
 40
8.591598316185319
 40
8.743678992361774
 40
8.903725323699184
 40
9.07630700889053
 40
9.265578604680586
 40
9.45920379536076
 40
9.617619810273547
 40
9.753609671361906
 40
9.874873300004078
 40
9.954520184977781
 40
10.02416413719245
 40
10.09769764405445
 40
10.18909955924972
 40
10.20974586420134
 40
10.23039218263379
 40
10.30057101881264
 40
10.37632012987545
 40
10.37632012987545
 40
10.37632012987545
 40
10.37632012987545
 10
170.1465954835851
 20
14.13795663215994
 10
170.1632217851219
 20
14.11720608845313
 10
170.1970784206578
 20
14.07495111711905
 10
170.2599822541036
 20
14.0202981139207
 10
170.3332500940393
 20
13.97299025121051
 10
170.4175969238636
 20
13.93527231437935
 10
170.5132240615459
 20
13.91040619731951
 10
170.6171853775346
 20
13.90309559345937
 10
170.7224020220405
 20
13.91142322794053
 10
170.8206626371334
 20
13.94149179651528
 10
170.9058986427548
 20
13.98848822971879
 10
170.9779220206104
 20
14.0495299125085
 10
171.0350917709096
 20
14.12412969578587
 10
171.0767868747439
 20
14.21002464660173
 10
171.1026952846292
 20
14.30485850432211
 10
171.1118037332652
 20
14.41854979038366
 10
171.0986864796487
 20
14.54332587770779
 10
171.0325330334414
 20
14.66014719171892
 10
170.9369370919568
 20
14.74512539577372
 10
170.8249681022369
 20
14.81416684459163
 10
170.6993659583269
 20
14.87204142045887
 10
170.5656691620857
 20
14.92373723284346
 10
170.4313122818831
 20
14.97899092397178
 10
170.3051983986877
 20
15.04939770641647
 10
170.1926579987535
 20
15.13785540731254
 10
170.0969963064458
 20
15.2498106786847
 10
170.0334157151826
 20
15.39949910101383
 10
170.0200706505015
 20
15.55932794385141
 10
170.0320510987449
 20
15.71048405306845
 10
170.071229892884
 20
15.83809244591539
 10
170.135498775091
 20
15.95080874030845
 10
170.223820499974
 20
16.04648609268686
 10
170.3338091207627
 20
16.12354214985753
 10
170.4632284401265
 20
16.18151396936277
 10
170.6111838967793
 20
16.21739177588822
 10
170.7682069455487
 20
16.22746719050564
 10
170.917494046643
 20
16.2186363776259
 10
171.059625361417
 20
16.19074899340352
 10
171.1595922609625
 20
16.13413314701138
 10
171.3125074736185
 20
16.08674602105507
 10
171.2455131717168
 20
16.00197553001184
 10
171.2296479120269
 20
15.93438901873484
 10
171.1978750531296
 20
15.86926092793189
 10
171.2150202209571
 20
15.76723453256955
 10
171.1666427208231
 20
15.77493211681902
 10
171.1315789440766
 20
15.76806771724809
 10
171.1296697985718
 20
15.83263831158195
 10
171.0985692931988
 20
15.87825639621395
 10
171.0664551628456
 20
15.93561036628455
 10
171.0208038475168
 20
15.98540462692559
 10
170.9658508218387
 20
16.02994813718995
 10
170.9010841173007
 20
16.0676398883655
 10
170.8232377310597
 20
16.09283375791352
 10
170.7355160553352
 20
16.0993123099811
 10
170.6452903277807
 20
16.09235709285607
 10
170.5594594694064
 20
16.06909190460921
 10
170.4828343638596
 20
16.03131644107544
 10
170.41652656362
 20
15.98051641089574
 10
170.3622560536964
 20
15.9173114340721
 10
170.3224925345459
 20
15.84276455710367
 10
170.2976775510587
 20
15.75917313997763
 10
170.289212426287
 20
15.65192948382285
 10
170.3019697987103
 20
15.52965457267559
 10
170.3681548409273
 20
15.41149724291211
 10
170.4640977399832
 20
15.32606325709527
 10
170.5757914963182
 20
15.25583362306722
 10
170.7010863668702
 20
15.19659162305304
 10
170.8349823941448
 20
15.14616708086132
 10
170.9689930333149
 20
15.09322516984382
 10
171.0950885316915
 20
15.02750170625175
 10
171.2076216638418
 20
14.94480352537321
 10
171.3031370284232
 20
14.83996006310074
 10
171.3672706486962
 20
14.69937117251569
 10
171.3811103725278
 20
14.54065409451592
 10
171.367395471223
 20
14.38153155217874
 10
171.3244739153984
 20
14.2348382881921
 10
171.2545906329065
 20
14.10119796587141
 10
171.1574592213829
 20
13.98532387699293
 10
171.0347806023657
 20
13.89089981770086
 10
170.8874408413167
 20
13.82179270651982
 10
170.7177132497125
 20
13.77953210858853
 10
170.5317404979596
 20
13.76781736230407
 10
170.3528955926183
 20
13.77809486683437
 10
170.1881733753743
 20
13.81966573769153
 10
170.0834410841056
 20
13.88797642883941
 10
169.9350960790365
 20
13.93675219032106
 10
169.9980378194729
 20
14.02976591290841
 10
170.007227443006
 20
14.1029653624828
 10
170.0303711301232
 20
14.16936294501346
 10
170.0034588335315
 20
14.2697480952758
 10
170.0521338956339
 20
14.26234033517378
 10
170.0916530580697
 20
14.26894063620895
 10
170.0996204944701
 20
14.19078703218931
 10
170.1305436967923
 20
14.15600927375856
 10
170.1465954835851
 20
14.13795663215994
 97
        1
330
B8
 75
     1
 76
     2
 52
45.0
 41
0.1
 77
     0
 78
     1
 53
45.0
 43
0.0
 44
0.0
 45
-0.282842712474619
 46
0.0
 79
     0
 98
        1
 10
0.0
 20
0.0
  0
ENDBLK
  5
4A
330
48
100
AcDbEntity
  8
0
100
AcDbBlockEnd
  0
BLOCK
  5
4D
330
4B
100
AcDbEntity
  8
0
100
AcDbBlockBegin
  2
開示A4枠
 70
     0
 10
0.00000000000009
 20
0.00000000000004
 30
0.0
  3
開示A4枠
  1

  0
INSERT
  5
4C
330
4B
100
AcDbEntity
  8
1
100
AcDbBlockReference
  2
開示A4
 10
-0.00000000000002
 20
0.0
 30
0.0
 41
1.5
 42
1.5
 43
1.5
  0
ENDBLK
  5
4E
330
4B
100
AcDbEntity
  8
0
100
AcDbBlockEnd
  0
BLOCK
  5
50
330
4F
100
AcDbEntity
  8
0
100
AcDbBlockBegin
  2
paipu
 70
     0
 10
154.0845159912797
 20
162.525245583856
 30
0.0
  3
paipu
  1

  0
LINE
  5
D5
330
4F
100
AcDbEntity
  8
1
  6
Continuous
 62
     7
100
AcDbLine
 10
54.01679256438588
 20
202.4828762821412
 30
0.0
 11
54.01679256438588
 21
134.9480811175806
 31
0.0
  0
LINE
  5
D6
330
4F
100
AcDbEntity
  8
1
  6
Continuous
 62
     7
100
AcDbLine
 10
86.0167925643859
 20
202.4828762821412
 30
0.0
 11
86.0167925643859
 21
134.9480811175806
 31
0.0
  0
LINE
  5
D7
330
4F
100
AcDbEntity
  8
1
  6
Continuous
 62
     7
100
AcDbLine
 10
54.01679256438588
 20
203.9513021150611
 30
0.0
 11
54.01679256438588
 21
202.4828762821412
 31
0.0
  0
LINE
  5
D8
330
4F
100
AcDbEntity
  8
1
  6
Continuous
 62
     7
100
AcDbLine
 10
86.0167925643859
 20
203.9513021150611
 30
0.0
 11
86.0167925643859
 21
202.4828762821412
 31
0.0
  0
LINE
  5
D9
330
4F
100
AcDbEntity
  8
1
  6
Continuous
 62
     7
100
AcDbLine
 10
278.0390974555246
 20
330.7298270481008
 30
0.0
 11
278.9808070786592
 21
330.7298270481008
 31
0.0
  0
LINE
  5
DA
330
4F
100
AcDbEntity
  8
1
  6
Continuous
 62
     7
100
AcDbLine
 10
234.31543200613
 20
327.1298270481009
 30
0.0
 11
234.31543200613
 21
296.3364424796109
 31
0.0
  0
LINE
  5
DB
330
4F
100
AcDbEntity
  8
1
  6
Continuous
 62
     7
100
AcDbLine
 10
239.3485091636803
 20
327.1298270481009
 30
0.0
 11
239.3485091636803
 21
296.3298270481008
 31
0.0
  0
LINE
  5
DC
330
4F
100
AcDbEntity
  8
1
  6
Continuous
 62
     7
100
AcDbLine
 10
126.5073515250044
 20
327.7298270481008
 30
0.0
 11
233.2989023195968
 21
327.7298270481008
 31
0.0
  0
LINE
  5
DD
330
4F
100
AcDbEntity
  8
1
  6
Continuous
 62
     7
100
AcDbLine
 10
126.5073515250044
 20
295.7298270481008
 30
0.0
 11
233.2989023195968
 21
295.7298270481008
 31
0.0
  0
LINE
  5
DE
330
4F
100
AcDbEntity
  8
1
  6
Continuous
 62
     7
100
AcDbLine
 10
235.2600636709786
 20
295.53563380501
 30
0.0
 11
238.3181312400706
 21
294.9240202911917
 31
0.0
  0
LINE
  5
DF
330
4F
100
AcDbEntity
  8
1
  6
Continuous
 62
     7
100
AcDbLine
 10
238.3181312400706
 20
328.53563380501
 30
0.0
 11
235.2600636709786
 21
327.9240202911917
 31
0.0
  0
LINE
  5
E0
330
4F
100
AcDbEntity
  8
1
  6
Continuous
 62
     7
100
AcDbLine
 10
277.2890974555246
 20
294.7298270481008
 30
0.0
 11
240.2792925914525
 21
294.7298270481008
 31
0.0
  0
LINE
  5
E1
330
4F
100
AcDbEntity
  8
1
  6
Continuous
 62
     7
100
AcDbLine
 10
240.2792925914525
 20
328.7298270481008
 30
0.0
 11
277.2890974555246
 21
328.7298270481008
 31
0.0
  0
LINE
  5
E2
330
4F
100
AcDbEntity
  8
1
  6
Continuous
 62
     7
100
AcDbLine
 10
277.2890974555246
 20
293.4798270481008
 30
0.0
 11
277.2890974555246
 21
294.7298270481008
 31
0.0
  0
LINE
  5
E3
330
4F
100
AcDbEntity
  8
1
  6
Continuous
 62
     7
100
AcDbLine
 10
277.2890974555246
 20
329.9798270481008
 30
0.0
 11
277.2890974555246
 21
294.7298270481008
 31
0.0
  0
LINE
  5
E4
330
4F
100
AcDbEntity
  8
1
  6
Continuous
 62
     7
100
AcDbLine
 10
278.0390974555246
 20
292.7298270481008
 30
0.0
 11
278.0390974555246
 21
329.9798270481008
 31
0.0
  0
LINE
  5
E5
330
4F
100
AcDbEntity
  8
1
  6
Continuous
 62
     2
100
AcDbLine
 10
277.2890974555246
 20
293.4798270481008
 30
0.0
 11
279.0154858045669
 21
293.4798270481008
 31
0.0
  0
LINE
  5
E6
330
4F
100
AcDbEntity
  8
1
  6
Continuous
 62
     2
100
AcDbLine
 10
277.2890974555246
 20
329.9798270481008
 30
0.0
 11
278.9808070786592
 21
329.9798270481008
 31
0.0
  0
LINE
  5
E7
330
4F
100
AcDbEntity
  8
1
  6
Continuous
 62
     7
100
AcDbLine
 10
278.0390974555246
 20
330.7298270481008
 30
0.0
 11
278.0390974555246
 21
329.9798270481008
 31
0.0
  0
LINE
  5
E8
330
4F
100
AcDbEntity
  8
1
  6
Continuous
 62
     7
100
AcDbLine
 10
278.0390974555246
 20
292.7298270481008
 30
0.0
 11
278.9808070786591
 21
292.7298270481008
 31
0.0
  0
LINE
  5
E9
330
4F
100
AcDbEntity
  8
1
  6
Continuous
 62
     7
100
AcDbLine
 10
277.2890974555246
 20
293.4798270481008
 30
0.0
 11
278.0390974555246
 21
292.7298270481008
 31
0.0
  0
LINE
  5
EA
330
4F
100
AcDbEntity
  8
1
  6
Continuous
 62
     7
100
AcDbLine
 10
277.2890974555246
 20
329.9798270481008
 30
0.0
 11
278.0390974555246
 21
330.7298270481008
 31
0.0
  0
LINE
  5
EB
330
4F
100
AcDbEntity
  8
1
  6
Continuous
 62
     7
100
AcDbLine
 10
278.0390974555246
 20
231.7298270481008
 30
0.0
 11
278.9808070786592
 21
231.7298270481008
 31
0.0
  0
LINE
  5
EC
330
4F
100
AcDbEntity
  8
1
  6
Continuous
 62
     7
100
AcDbLine
 10
54.01679256438588
 20
206.9852644015628
 30
0.0
 11
54.01679256438588
 21
203.9513021150611
 31
0.0
  0
LINE
  5
ED
330
4F
100
AcDbEntity
  8
1
  6
Continuous
 62
     7
100
AcDbLine
 10
86.0167925643859
 20
206.9852644015628
 30
0.0
 11
86.0167925643859
 21
203.9513021150611
 31
0.0
  0
LINE
  5
EE
330
4F
100
AcDbEntity
  8
1
  6
Continuous
 62
     7
100
AcDbLine
 10
86.0167925643859
 20
212.7298270481008
 30
0.0
 11
86.0167925643859
 21
206.9852644015628
 31
0.0
  0
LINE
  5
EF
330
4F
100
AcDbEntity
  8
1
  6
Continuous
 62
     7
100
AcDbLine
 10
54.01679256438588
 20
212.7298270481008
 30
0.0
 11
54.01679256438588
 21
206.9852644015628
 31
0.0
  0
LINE
  5
F0
330
4F
100
AcDbEntity
  8
1
  6
Continuous
 62
     7
100
AcDbLine
 10
179.7951941099346
 20
210.8633407004802
 30
0.0
 11
115.1936430260196
 21
146.2617896165654
 31
0.0
  0
LINE
  5
F1
330
4F
100
AcDbEntity
  8
1
  6
Continuous
 62
     7
100
AcDbLine
 10
234.31543200613
 20
228.1298270481008
 30
0.0
 11
234.31543200613
 21
197.3364424796109
 31
0.0
  0
LINE
  5
F2
330
4F
100
AcDbEntity
  8
1
  6
Continuous
 62
     7
100
AcDbLine
 10
239.3485091636803
 20
228.1298270481008
 30
0.0
 11
239.3485091636803
 21
197.3298270481008
 31
0.0
  0
LINE
  5
F3
330
4F
100
AcDbEntity
  8
1
  6
Continuous
 62
     7
100
AcDbLine
 10
115.6179070947315
 20
145.8375255478535
 30
0.0
 11
126.5073515250044
 21
134.9480811175806
 31
0.0
  0
LINE
  5
F4
330
4F
100
AcDbEntity
  8
1
  6
Continuous
 62
     7
100
AcDbLine
 10
126.5073515250044
 20
134.9480811175806
 30
0.0
 11
137.8210600239891
 21
123.6343726185959
 31
0.0
  0
LINE
  5
F5
330
4F
100
AcDbEntity
  8
1
  6
Continuous
 62
     7
100
AcDbLine
 10
222.9287077623139
 20
228.7298270481008
 30
0.0
 11
233.2989023195968
 21
228.7298270481008
 31
0.0
  0
LINE
  5
F6
330
4F
100
AcDbEntity
  8
1
  6
Continuous
 62
     7
100
AcDbLine
 10
222.9287077623139
 20
196.7298270481008
 30
0.0
 11
233.2989023195968
 21
196.7298270481008
 31
0.0
  0
LINE
  5
F7
330
4F
100
AcDbEntity
  8
1
  6
Continuous
 62
     7
100
AcDbLine
 10
137.8210600239891
 20
123.6343726185959
 30
0.0
 11
202.422611107904
 21
188.2359237025107
 31
0.0
  0
LINE
  5
F8
330
4F
100
AcDbEntity
  8
1
  6
Continuous
 62
     7
100
AcDbLine
 10
115.1936430260196
 20
146.2617896165654
 30
0.0
 11
115.6179070947315
 21
145.8375255478535
 31
0.0
  0
LINE
  5
F9
330
4F
100
AcDbEntity
  8
1
  6
Continuous
 62
     7
100
AcDbLine
 10
235.2600636709786
 20
196.53563380501
 30
0.0
 11
238.3181312400706
 21
195.9240202911916
 31
0.0
  0
LINE
  5
FA
330
4F
100
AcDbEntity
  8
1
  6
Continuous
 62
     7
100
AcDbLine
 10
238.3181312400706
 20
229.53563380501
 30
0.0
 11
235.2600636709786
 21
228.9240202911917
 31
0.0
  0
LINE
  5
FB
330
4F
100
AcDbEntity
  8
1
  6
Continuous
 62
     7
100
AcDbLine
 10
277.2890974555246
 20
195.7298270481008
 30
0.0
 11
240.2792925914525
 21
195.7298270481008
 31
0.0
  0
LINE
  5
FC
330
4F
100
AcDbEntity
  8
1
  6
Continuous
 62
     7
100
AcDbLine
 10
240.2792925914525
 20
229.7298270481008
 30
0.0
 11
277.2890974555246
 21
229.7298270481008
 31
0.0
  0
LINE
  5
FD
330
4F
100
AcDbEntity
  8
1
  6
Continuous
 62
     7
100
AcDbLine
 10
277.2890974555246
 20
194.4798270481008
 30
0.0
 11
277.2890974555246
 21
195.7298270481008
 31
0.0
  0
LINE
  5
FE
330
4F
100
AcDbEntity
  8
1
  6
Continuous
 62
     7
100
AcDbLine
 10
277.2890974555246
 20
230.9798270481008
 30
0.0
 11
277.2890974555246
 21
195.7298270481008
 31
0.0
  0
LINE
  5
FF
330
4F
100
AcDbEntity
  8
1
  6
Continuous
 62
     7
100
AcDbLine
 10
278.0390974555246
 20
193.7298270481008
 30
0.0
 11
278.0390974555246
 21
230.9798270481008
 31
0.0
  0
LINE
  5
100
330
4F
100
AcDbEntity
  8
1
  6
Continuous
 62
     2
100
AcDbLine
 10
277.2890974555246
 20
194.4798270481008
 30
0.0
 11
279.0154858045669
 21
194.4798270481008
 31
0.0
  0
LINE
  5
101
330
4F
100
AcDbEntity
  8
1
  6
Continuous
 62
     2
100
AcDbLine
 10
277.2890974555246
 20
230.9798270481008
 30
0.0
 11
278.9808070786592
 21
230.9798270481008
 31
0.0
  0
LINE
  5
102
330
4F
100
AcDbEntity
  8
1
  6
Continuous
 62
     7
100
AcDbLine
 10
278.0390974555246
 20
231.7298270481008
 30
0.0
 11
278.0390974555246
 21
230.9798270481008
 31
0.0
  0
LINE
  5
103
330
4F
100
AcDbEntity
  8
1
  6
Continuous
 62
     7
100
AcDbLine
 10
278.0390974555246
 20
193.7298270481008
 30
0.0
 11
278.9808070786591
 21
193.7298270481008
 31
0.0
  0
LINE
  5
104
330
4F
100
AcDbEntity
  8
1
  6
Continuous
 62
     7
100
AcDbLine
 10
277.2890974555246
 20
194.4798270481008
 30
0.0
 11
278.0390974555246
 21
193.7298270481008
 31
0.0
  0
LINE
  5
105
330
4F
100
AcDbEntity
  8
1
  6
Continuous
 62
     7
100
AcDbLine
 10
277.2890974555246
 20
230.9798270481008
 30
0.0
 11
278.0390974555246
 21
231.7298270481008
 31
0.0
  0
ARC
  5
106
330
4F
100
AcDbEntity
  8
1
  6
Continuous
 62
     7
100
AcDbCircle
 10
70.0167925643859
 20
212.7298270481008
 30
0.0
 40
19.00000000000003
100
AcDbArc
 50
0.0
 51
212.6368975035537
  0
ARC
  5
107
330
4F
100
AcDbEntity
  8
1
  6
Continuous
 62
     7
100
AcDbCircle
 10
70.0167925643859
 20
212.7298270481008
 30
0.0
 40
18.99999999999999
100
AcDbArc
 50
327.3631024964463
 51
0.0
  0
ARC
  5
108
330
4F
100
AcDbEntity
  8
1
  6
Continuous
 62
     2
100
AcDbCircle
 10
70.0167925643859
 20
212.7298270481008
 30
0.0
 40
18.25000000000003
100
AcDbArc
 50
0.0
 51
208.7517185020812
  0
ARC
  5
109
330
4F
100
AcDbEntity
  8
1
  6
Continuous
 62
     2
100
AcDbCircle
 10
70.0167925643859
 20
212.7298270481008
 30
0.0
 40
18.24999999999998
100
AcDbArc
 50
331.2482814979188
 51
0.0
  0
ARC
  5
10A
330
4F
100
AcDbEntity
  8
1
  6
Continuous
 62
     7
100
AcDbCircle
 10
70.0167925643859
 20
212.7298270481008
 30
0.0
 40
17.00000000000003
100
AcDbArc
 50
0.0
 51
199.7499227956424
  0
ARC
  5
10B
330
4F
100
AcDbEntity
  8
1
  6
Continuous
 62
     7
100
AcDbCircle
 10
70.0167925643859
 20
212.7298270481008
 30
0.0
 40
16.99999999999999
100
AcDbArc
 50
340.2500772043576
 51
0.0
  0
ARC
  5
10C
330
4F
100
AcDbEntity
  8
1
  6
Continuous
 62
     7
100
AcDbCircle
 10
70.0167925643859
 20
212.7298270481008
 30
0.0
 40
16.0
100
AcDbArc
 50
0.0
 51
180.0
  0
ARC
  5
10D
330
4F
100
AcDbEntity
  8
1
  6
Continuous
 62
     7
100
AcDbCircle
 10
222.9287077623139
 20
167.7298270481008
 30
0.0
 40
61.0
100
AcDbArc
 50
90.0
 51
134.9999999999999
  0
ARC
  5
10E
330
4F
100
AcDbEntity
  8
1
  6
Continuous
 62
     7
100
AcDbCircle
 10
222.9287077623139
 20
167.7298270481008
 30
0.0
 40
29.0
100
AcDbArc
 50
90.0
 51
135.0
  0
ARC
  5
10F
330
4F
100
AcDbEntity
  8
1
  6
Continuous
 62
     7
100
AcDbCircle
 10
240.2792925914525
 20
304.7298270481008
 30
0.0
 40
9.999999999999888
100
AcDbArc
 50
258.6900675259794
 51
270.0
  0
ARC
  5
110
330
4F
100
AcDbEntity
  8
1
  6
Continuous
 62
     7
100
AcDbCircle
 10
233.2989023195968
 20
285.7298270481008
 30
0.0
 40
9.999999999999982
100
AcDbArc
 50
78.69006752597998
 51
90.0
  0
ARC
  5
111
330
4F
100
AcDbEntity
  8
1
  6
Continuous
 62
     7
100
AcDbCircle
 10
233.2989023195968
 20
337.7298270481008
 30
0.0
 40
10.0
100
AcDbArc
 50
270.0
 51
281.3099324740202
  0
ARC
  5
112
330
4F
100
AcDbEntity
  8
1
  6
Continuous
 62
     7
100
AcDbCircle
 10
240.2792925914525
 20
318.7298270481008
 30
0.0
 40
10.0
100
AcDbArc
 50
90.0
 51
101.3099324740205
  0
ARC
  5
113
330
4F
100
AcDbEntity
  8
1
  6
Continuous
 62
     7
100
AcDbCircle
 10
240.2792925914525
 20
205.7298270481008
 30
0.0
 40
10.0
100
AcDbArc
 50
258.6900675259795
 51
270.0
  0
ARC
  5
114
330
4F
100
AcDbEntity
  8
1
  6
Continuous
 62
     7
100
AcDbCircle
 10
233.2989023195968
 20
186.7298270481008
 30
0.0
 40
10.00000000000001
100
AcDbArc
 50
78.69006752598
 51
90.0
  0
ARC
  5
115
330
4F
100
AcDbEntity
  8
1
  6
Continuous
 62
     7
100
AcDbCircle
 10
233.2989023195968
 20
238.7298270481008
 30
0.0
 40
10.0
100
AcDbArc
 50
270.0
 51
281.3099324740202
  0
ARC
  5
116
330
4F
100
AcDbEntity
  8
1
  6
Continuous
 62
     7
100
AcDbCircle
 10
240.2792925914525
 20
219.7298270481008
 30
0.0
 40
10.0
100
AcDbArc
 50
90.0
 51
101.3099324740205
  0
ENDBLK
  5
51
330
4F
100
AcDbEntity
  8
0
100
AcDbBlockEnd
  0
BLOCK
  5
53
330
52
100
AcDbEntity
  8
0
100
AcDbBlockBegin
  2
1
 70
     0
 10
238.8161082406073
 20
232.5992559725871
 30
0.0
  3
1
  1

  0
LINE
  5
117
330
52
100
AcDbEntity
  8
1
  6
Continuous
 62
     7
100
AcDbLine
 10
278.9808070786591
 20
291.2298270481008
 30
0.0
 11
290.9808070786591
 21
291.2298270481008
 31
0.0
  0
LINE
  5
118
330
52
100
AcDbEntity
  8
1
  6
Continuous
 62
     7
100
AcDbLine
 10
278.9808070786592
 20
332.2298270481008
 30
0.0
 11
290.9808070786591
 21
332.2298270481008
 31
0.0
  0
LINE
  5
119
330
52
100
AcDbEntity
  8
1
  6
Continuous
 62
     7
100
AcDbLine
 10
290.9808070786591
 20
332.2298270481008
 30
0.0
 11
290.9808070786591
 21
327.9798270481008
 31
0.0
  0
LINE
  5
11A
330
52
100
AcDbEntity
  8
1
  6
Continuous
 62
     7
100
AcDbLine
 10
290.9808070786591
 20
327.9798270481008
 30
0.0
 11
290.9808070786591
 21
311.7298270481008
 31
0.0
  0
LINE
  5
11B
330
52
100
AcDbEntity
  8
1
  6
Continuous
 62
     7
100
AcDbLine
 10
278.9808070786592
 20
332.2298270481008
 30
0.0
 11
278.9808070786591
 21
291.2298270481008
 31
0.0
  0
LINE
  5
11C
330
52
100
AcDbEntity
  8
1
  6
Continuous
 62
     7
100
AcDbLine
 10
290.9808070786591
 20
295.4798270481008
 30
0.0
 11
290.9808070786591
 21
291.2298270481008
 31
0.0
  0
LINE
  5
11D
330
52
100
AcDbEntity
  8
1
  6
Continuous
 62
     7
100
AcDbLine
 10
290.9808070786591
 20
311.7298270481008
 30
0.0
 11
290.9808070786591
 21
295.4798270481008
 31
0.0
  0
LINE
  5
11E
330
52
100
AcDbEntity
  8
1
  6
Continuous
 62
     7
100
AcDbLine
 10
54.01679256438588
 20
198.2960703183602
 30
0.0
 11
51.73560336228138
 21
199.6131155182677
 31
0.0
  0
LINE
  5
11F
330
52
100
AcDbEntity
  8
1
  6
Continuous
 62
     7
100
AcDbLine
 10
90.5167925643859
 20
212.7298270481008
 30
0.0
 11
90.51679256438592
 21
203.4562085526051
 31
0.0
  0
LINE
  5
120
330
52
100
AcDbEntity
  8
1
  6
Continuous
 62
     7
100
AcDbLine
 10
72.23560336228138
 20
235.1201570734297
 30
0.0
 11
88.29798176649041
 21
225.8465385779339
 31
0.0
  0
LINE
  5
121
330
52
100
AcDbEntity
  8
1
  6
Continuous
 62
     7
100
AcDbLine
 10
88.29798176649038
 20
199.6131155182677
 30
0.0
 11
86.01679256438592
 21
198.2960703183602
 31
0.0
  0
LINE
  5
122
330
52
100
AcDbEntity
  8
1
  6
Continuous
 62
     7
100
AcDbLine
 10
49.51679256438588
 20
203.4562085526051
 30
0.0
 11
49.51679256438588
 21
222.0034455435965
 31
0.0
  0
LINE
  5
123
330
52
100
AcDbEntity
  8
1
  6
Continuous
 62
     7
100
AcDbLine
 10
51.73560336228138
 20
225.8465385779339
 30
0.0
 11
67.79798176649038
 21
235.1201570734297
 31
0.0
  0
LINE
  5
124
330
52
100
AcDbEntity
  8
1
  6
Continuous
 62
     7
100
AcDbLine
 10
90.5167925643859
 20
222.0034455435965
 30
0.0
 11
90.5167925643859
 21
212.7298270481008
 31
0.0
  0
LINE
  5
125
330
52
100
AcDbEntity
  8
1
  6
Continuous
 62
     7
100
AcDbLine
 10
290.9808070786591
 20
233.2298270481008
 30
0.0
 11
290.9808070786591
 21
228.9798270481008
 31
0.0
  0
LINE
  5
126
330
52
100
AcDbEntity
  8
1
  6
Continuous
 62
     7
100
AcDbLine
 10
290.9808070786591
 20
228.9798270481008
 30
0.0
 11
290.9808070786591
 21
212.7298270481008
 31
0.0
  0
LINE
  5
127
330
52
100
AcDbEntity
  8
1
  6
Continuous
 62
     7
100
AcDbLine
 10
278.9808070786592
 20
233.2298270481008
 30
0.0
 11
278.9808070786591
 21
192.2298270481008
 31
0.0
  0
LINE
  5
128
330
52
100
AcDbEntity
  8
1
  6
Continuous
 62
     7
100
AcDbLine
 10
290.9808070786591
 20
196.4798270481008
 30
0.0
 11
290.9808070786591
 21
192.2298270481008
 31
0.0
  0
LINE
  5
129
330
52
100
AcDbEntity
  8
1
  6
Continuous
 62
     7
100
AcDbLine
 10
290.9808070786591
 20
212.7298270481008
 30
0.0
 11
290.9808070786591
 21
196.4798270481008
 31
0.0
  0
ARC
  5
12A
330
52
100
AcDbEntity
  8
1
  6
Continuous
 62
     7
100
AcDbCircle
 10
284.9808070786592
 20
225.232004004164
 30
0.0
 40
9.998258520468701
100
AcDbArc
 50
53.12261722693919
 51
93.96706339693549
  0
ARC
  5
12B
330
52
100
AcDbEntity
  8
1
  6
Continuous
 62
     7
100
AcDbCircle
 10
70.01679256438592
 20
212.7298270481008
 30
0.0
 40
19.75
100
AcDbArc
 50
0.0
 51
215.8916993092546
  0
ARC
  5
12C
330
52
100
AcDbEntity
  8
1
  6
Continuous
 62
     7
100
AcDbCircle
 10
70.01679256438592
 20
212.7298270481008
 30
0.0
 40
19.74999999999998
100
AcDbArc
 50
324.1083006907452
 51
0.0
  0
ARC
  5
12D
330
52
100
AcDbEntity
  8
1
  6
Continuous
 62
     7
100
AcDbCircle
 10
70.01679256438592
 20
212.7298270481008
 30
0.0
 40
20.49999999999997
100
AcDbArc
 50
0.0
 51
218.694739921871
  0
ARC
  5
12E
330
52
100
AcDbEntity
  8
1
  6
Continuous
 62
     7
100
AcDbCircle
 10
70.01679256438592
 20
212.7298270481008
 30
0.0
 40
20.49999999999997
100
AcDbArc
 50
321.3052600781289
 51
0.0
  0
ARC
  5
12F
330
52
100
AcDbEntity
  8
1
  6
Continuous
 62
     7
100
AcDbCircle
 10
70.01679256438592
 20
212.7298270481008
 30
0.0
 40
22.50000000000007
100
AcDbArc
 50
84.34064672860195
 51
90.0
  0
ARC
  5
130
330
52
100
AcDbEntity
  8
1
  6
Continuous
 62
     7
100
AcDbCircle
 10
70.01679256438592
 20
212.7298270481008
 30
0.0
 40
22.49999999999998
100
AcDbArc
 50
24.34064672860191
 51
35.65935327139814
  0
ARC
  5
131
330
52
100
AcDbEntity
  8
1
  6
Continuous
 62
     7
100
AcDbCircle
 10
70.01679256438592
 20
212.7298270481008
 30
0.0
 40
22.5
100
AcDbArc
 50
90.0
 51
95.65935327139827
  0
ARC
  5
132
330
52
100
AcDbEntity
  8
1
  6
Continuous
 62
     7
100
AcDbCircle
 10
70.01679256438592
 20
212.7298270481008
 30
0.0
 40
22.49999999999993
100
AcDbArc
 50
324.3406467286019
 51
335.6593532713981
  0
ARC
  5
133
330
52
100
AcDbEntity
  8
1
  6
Continuous
 62
     7
100
AcDbCircle
 10
70.01679256438592
 20
212.7298270481008
 30
0.0
 40
22.50000000000004
100
AcDbArc
 50
204.3406467286018
 51
215.659353271398
  0
ARC
  5
134
330
52
100
AcDbEntity
  8
1
  6
Continuous
 62
     7
100
AcDbCircle
 10
70.01679256438592
 20
212.7298270481008
 30
0.0
 40
22.50000000000001
100
AcDbArc
 50
144.340646728602
 51
155.6593532713982
  0
ARC
  5
135
330
52
100
AcDbEntity
  8
1
  6
Continuous
 62
     7
100
AcDbCircle
 10
284.9808070786592
 20
225.232004004164
 30
0.0
 40
9.998258520468843
100
AcDbArc
 50
93.96706339693549
 51
126.8773827730614
  0
ARC
  5
136
330
52
100
AcDbEntity
  8
1
  6
Continuous
 62
     7
100
AcDbCircle
 10
284.9808070786591
 20
200.2276500920376
 30
0.0
 40
9.998258520468791
100
AcDbArc
 50
233.1226172269387
 51
306.8773827730612
  0
ENDBLK
  5
54
330
52
100
AcDbEntity
  8
0
100
AcDbBlockEnd
  0
BLOCK
  5
155
330
14E
100
AcDbEntity
  8
0
100
AcDbBlockBegin
  2
*D5
 70
     1
 10
0.0
 20
0.0
 30
0.0
  3
*D5
  1

  0
LINE
  5
14F
330
14E
100
AcDbEntity
  8
1
  6
Continuous
 62
     2
100
AcDbLine
 10
49.51679256438595
 20
249.2298270481008
 30
0.0
 11
90.51679256438592
 21
249.2298270481008
 31
0.0
  0
LINE
  5
150
330
14E
100
AcDbEntity
  8
1
  6
Continuous
 62
     2
100
AcDbLine
 10
90.51679256438592
 20
222.0034455435965
 30
0.0
 11
90.51679256438592
 21
252.2298270481008
 31
0.0
  0
LINE
  5
151
330
14E
100
AcDbEntity
  8
1
  6
Continuous
 62
     2
100
AcDbLine
 10
49.51679256438595
 20
222.0034455435965
 30
0.0
 11
49.51679256438595
 21
252.2298270481008
 31
0.0
  0
SOLID
  5
152
330
14E
100
AcDbEntity
  8
1
 62
     2
100
AcDbTrace
 10
54.76679256438595
 20
249.9210026604346
 30
0.0
 11
54.76679256438595
 21
248.538651435767
 31
0.0
 12
49.51679256438595
 22
249.2298270481008
 32
0.0
 13
49.51679256438595
 23
249.2298270481008
 33
0.0
  0
SOLID
  5
153
330
14E
100
AcDbEntity
  8
1
 62
     2
100
AcDbTrace
 10
85.26679256438592
 20
248.538651435767
 30
0.0
 11
85.26679256438592
 21
249.9210026604346
 31
0.0
 12
90.51679256438592
 22
249.2298270481008
 32
0.0
 13
90.51679256438592
 23
249.2298270481008
 33
0.0
  0
MTEXT
  5
154
330
14E
100
AcDbEntity
  8
1
 62
     7
100
AcDbMText
 10
67.31679256438592
 20
252.2298270481008
 30
0.0
 40
4.5
 41
0.0
 71
     7
 72
     1
  1
41
  7
CONVERTER_12
 11
0.9999999999970619
 21
2.424068405545306E-6
 31
0.0
 73
     1
 44
0.60024009603842
  0
ENDBLK
  5
156
330
14E
100
AcDbEntity
  8
0
100
AcDbBlockEnd
  0
BLOCK
  5
160
330
159
100
AcDbEntity
  8
0
100
AcDbBlockBegin
  2
*D6
 70
     1
 10
0.0
 20
0.0
 30
0.0
  3
*D6
  1

  0
LINE
  5
15A
330
159
100
AcDbEntity
  8
1
  6
Continuous
 62
     2
100
AcDbLine
 10
105.294148089408
 20
156.161284553177
 30
0.0
 11
183.0758940199282
 21
233.9430304836972
 31
0.0
  0
LINE
  5
15B
330
159
100
AcDbEntity
  8
1
  6
Continuous
 62
     2
100
AcDbLine
 10
204.2890974555246
 20
212.7298270481008
 30
0.0
 11
180.9545736763685
 21
236.0643508272569
 31
0.0
  0
LINE
  5
15C
330
159
100
AcDbEntity
  8
1
  6
Continuous
 62
     2
100
AcDbLine
 10
115.1936430260196
 20
146.2617896165654
 30
0.0
 11
103.1728277458483
 21
158.2826048967366
 31
0.0
  0
SOLID
  5
15D
330
159
100
AcDbEntity
  8
1
 62
     2
100
AcDbTrace
 10
108.0572129226286
 20
159.7621807506354
 30
0.0
 11
108.8950442868663
 21
158.9243493863976
 31
0.0
 12
105.294148089408
 22
156.161284553177
 32
0.0
 13
105.294148089408
 23
156.161284553177
 33
0.0
  0
SOLID
  5
15E
330
159
100
AcDbEntity
  8
1
 62
     2
100
AcDbTrace
 10
180.3128291867076
 20
230.3421342862389
 30
0.0
 11
179.4749978224698
 21
231.1799656504766
 31
0.0
 12
183.0758940199282
 22
233.9430304836972
 32
0.0
 13
183.0758940199282
 23
233.9430304836972
 33
0.0
  0
MTEXT
  5
15F
330
159
100
AcDbEntity
  8
1
 62
     7
100
AcDbMText
 10
133.9270110123968
 20
189.0367881632851
 30
0.0
 40
4.5
 41
0.0
 71
     7
 72
     1
  1
110
  7
CONVERTER_12
 11
0.7071067811865476
 21
0.7071067811865475
 31
0.0
 73
     1
 44
0.60024009603842
  0
ENDBLK
  5
161
330
159
100
AcDbEntity
  8
0
100
AcDbBlockEnd
  0
BLOCK
  5
16B
330
164
100
AcDbEntity
  8
0
100
AcDbBlockBegin
  2
*D7
 70
     1
 10
0.0
 20
0.0
 30
0.0
  3
*D7
  1

  0
LINE
  5
165
330
164
100
AcDbEntity
  8
1
  6
Continuous
 62
     2
100
AcDbLine
 10
204.2890974555246
 20
249.2063065481712
 30
0.0
 11
284.2890974555246
 21
249.2063065481712
 31
0.0
  0
LINE
  5
166
330
164
100
AcDbEntity
  8
1
  6
Continuous
 62
     2
100
AcDbLine
 10
284.2890974555246
 20
235.2063065481712
 30
0.0
 11
284.2890974555246
 21
252.2063065481712
 31
0.0
  0
LINE
  5
167
330
164
100
AcDbEntity
  8
1
  6
Continuous
 62
     2
100
AcDbLine
 10
204.2890974555246
 20
212.7298270481007
 30
0.0
 11
204.2890974555246
 21
252.2063065481712
 31
0.0
  0
SOLID
  5
168
330
164
100
AcDbEntity
  8
1
 62
     2
100
AcDbTrace
 10
208.7890974555246
 20
249.7987427873145
 30
0.0
 11
208.7890974555246
 21
248.6138703090279
 31
0.0
 12
204.2890974555246
 22
249.2063065481712
 32
0.0
 13
204.2890974555246
 23
249.2063065481712
 33
0.0
  0
SOLID
  5
169
330
164
100
AcDbEntity
  8
1
 62
     2
100
AcDbTrace
 10
279.7890974555246
 20
248.6138703090279
 30
0.0
 11
279.7890974555246
 21
249.7987427873145
 31
0.0
 12
284.2890974555246
 22
249.2063065481712
 32
0.0
 13
284.2890974555246
 23
249.2063065481712
 33
0.0
  0
MTEXT
  5
16A
330
164
100
AcDbEntity
  8
1
 62
     7
100
AcDbMText
 10
241.0023352439382
 20
252.2063065481712
 30
0.0
 40
4.5
 41
0.0
 71
     7
 72
     1
  1
80
  7
CONVERTER_12
 11
0.9999999999970619
 21
2.424068405545306E-6
 31
0.0
 73
     1
 44
0.60024009603842
  0
ENDBLK
  5
16C
330
164
100
AcDbEntity
  8
0
100
AcDbBlockEnd
  0
BLOCK
  5
175
330
16F
100
AcDbEntity
  8
0
100
AcDbBlockBegin
  2
*D8
 70
     1
 10
0.0
 20
0.0
 30
0.0
  3
*D8
  1

  0
LINE
  5
170
330
16F
100
AcDbEntity
  8
1
  6
Continuous
 62
     2
100
AcDbLine
 10
262.9366426991152
 20
195.7298270481008
 30
0.0
 11
262.9366426991152
 21
178.1865597345134
 31
0.0
  0
LINE
  5
171
330
16F
100
AcDbEntity
  8
1
  6
Continuous
 62
     2
100
AcDbLine
 10
262.9366426991152
 20
195.7298270481008
 30
0.0
 11
262.9366426991152
 21
229.7298270481008
 31
0.0
  0
SOLID
  5
172
330
16F
100
AcDbEntity
  8
1
 62
     2
100
AcDbTrace
 10
263.5290789382585
 20
225.2298270481008
 30
0.0
 11
262.3442064599719
 21
225.2298270481008
 31
0.0
 12
262.9366426991152
 22
229.7298270481008
 32
0.0
 13
262.9366426991152
 23
229.7298270481008
 33
0.0
  0
SOLID
  5
173
330
16F
100
AcDbEntity
  8
1
 62
     2
100
AcDbTrace
 10
262.3442064599719
 20
200.2298270481008
 30
0.0
 11
263.5290789382585
 21
200.2298270481008
 31
0.0
 12
262.9366426991152
 22
195.7298270481008
 32
0.0
 13
262.9366426991152
 23
195.7298270481008
 33
0.0
  0
MTEXT
  5
174
330
16F
100
AcDbEntity
  8
1
 62
     7
100
AcDbMText
 10
259.9366426991152
 20
179.8965597345134
 30
0.0
 40
4.5
 41
0.0
 71
     7
 72
     1
  1
\C7;{\Fgdt;n}\C7;34
  7
CONVERTER_12
 11
0.0
 21
1.0
 31
0.0
 73
     1
 44
0.60024009603842
  0
ENDBLK
  5
176
330
16F
100
AcDbEntity
  8
0
100
AcDbBlockEnd
  0
BLOCK
  5
180
330
179
100
AcDbEntity
  8
0
100
AcDbBlockBegin
  2
*D9
 70
     1
 10
0.0
 20
0.0
 30
0.0
  3
*D9
  1

  0
LINE
  5
17A
330
179
100
AcDbEntity
  8
1
  6
Continuous
 62
     2
100
AcDbLine
 10
103.8799345270349
 20
134.9480811175806
 30
0.0
 11
126.5073515250044
 21
112.3206641196111
 31
0.0
  0
LINE
  5
17B
330
179
100
AcDbEntity
  8
1
  6
Continuous
 62
     2
100
AcDbLine
 10
137.8210600239892
 20
123.6343726185958
 30
0.0
 11
124.3860311814447
 21
110.1993437760514
 31
0.0
  0
LINE
  5
17C
330
179
100
AcDbEntity
  8
1
  6
Continuous
 62
     2
100
AcDbLine
 10
115.1936430260196
 20
146.2617896165654
 30
0.0
 11
101.7586141834752
 21
132.826760774021
 31
0.0
  0
SOLID
  5
17D
330
179
100
AcDbEntity
  8
1
 62
     2
100
AcDbTrace
 10
107.4808307244932
 20
132.18501628436
 30
0.0
 11
106.6429993602555
 21
131.3471849201223
 31
0.0
 12
103.8799345270349
 22
134.9480811175806
 32
0.0
 13
103.8799345270349
 23
134.9480811175806
 33
0.0
  0
SOLID
  5
17E
330
179
100
AcDbEntity
  8
1
 62
     2
100
AcDbTrace
 10
122.906455327546
 20
115.0837289528316
 30
0.0
 11
123.7442866917838
 21
115.9215603170694
 31
0.0
 12
126.5073515250044
 22
112.3206641196111
 32
0.0
 13
126.5073515250044
 23
112.3206641196111
 33
0.0
  0
MTEXT
  5
17F
330
179
100
AcDbEntity
  8
1
 62
     7
100
AcDbMText
 10
114.2284422697
 20
128.8422140620347
 30
0.0
 40
4.5
 41
0.0
 71
     7
 72
     1
  1
\C7;{\Fgdt;n}\C7;32
  7
CONVERTER_12
 11
0.7071067811865474
 21
-0.7071067811865477
 31
0.0
 73
     1
 44
0.60024009603842
  0
ENDBLK
  5
181
330
179
100
AcDbEntity
  8
0
100
AcDbBlockEnd
  0
BLOCK
  5
18B
330
184
100
AcDbEntity
  8
0
100
AcDbBlockBegin
  2
*D10
 70
     1
 10
0.0
 20
0.0
 30
0.0
  3
*D10
  1

  0
LINE
  5
185
330
184
100
AcDbEntity
  8
1
  6
Continuous
 62
     2
100
AcDbLine
 10
230.2488144050974
 20
134.9480811175806
 30
0.0
 11
230.2488144050974
 21
212.7298270481008
 31
0.0
  0
LINE
  5
186
330
184
100
AcDbEntity
  8
1
  6
Continuous
 62
     2
100
AcDbLine
 10
204.2890974555246
 20
212.7298270481008
 30
0.0
 11
233.2488144050974
 21
212.7298270481008
 31
0.0
  0
LINE
  5
187
330
184
100
AcDbEntity
  8
1
  6
Continuous
 62
     2
100
AcDbLine
 10
126.5073515250043
 20
134.9480811175806
 30
0.0
 11
233.2488144050974
 21
134.9480811175806
 31
0.0
  0
SOLID
  5
188
330
184
100
AcDbEntity
  8
1
 62
     2
100
AcDbTrace
 10
230.9399900174312
 20
207.4798270481008
 30
0.0
 11
229.5576387927636
 21
207.4798270481008
 31
0.0
 12
230.2488144050974
 22
212.7298270481008
 32
0.0
 13
230.2488144050974
 23
212.7298270481008
 33
0.0
  0
SOLID
  5
189
330
184
100
AcDbEntity
  8
1
 62
     2
100
AcDbTrace
 10
229.5576387927636
 20
140.1980811175806
 30
0.0
 11
230.9399900174312
 21
140.1980811175806
 31
0.0
 12
230.2488144050974
 22
134.9480811175806
 32
0.0
 13
230.2488144050974
 23
134.9480811175806
 33
0.0
  0
MTEXT
  5
18A
330
184
100
AcDbEntity
  8
1
 62
     7
100
AcDbMText
 10
227.2488144050974
 20
160.5997393780416
 30
0.0
 40
4.5
 41
0.0
 71
     7
 72
     1
  1
78
  7
CONVERTER_12
 11
0.0
 21
1.0
 31
0.0
 73
     1
 44
0.60024009603842
  0
ENDBLK
  5
18C
330
184
100
AcDbEntity
  8
0
100
AcDbBlockEnd
  0
ENDSEC
  0
SECTION
  2
ENTITIES
  0
INSERT
  5
55
330
1F
100
AcDbEntity
  8
0
100
AcDbBlockReference
  2
開示A4枠
 10
0.00000000000009
 20
0.00000000000004
 30
0.0
  0
INSERT
  5
56
330
1F
100
AcDbEntity
  8
1
100
AcDbBlockReference
  2
paipu
 10
154.0845159912797
 20
162.525245583856
 30
0.0
  0
INSERT
  5
57
330
1F
100
AcDbEntity
  8
0
100
AcDbBlockReference
  2
1
 10
238.8161082406073
 20
232.5992559725871
 30
0.0
  0
LINE
  5
137
330
1F
100
AcDbEntity
  8
1
  6
DASH_CENTER
 62
     2
100
AcDbLine
 10
126.5073515250044
 20
330.7298270481008
 30
0.0
 11
126.5073515250044
 21
292.7298270481008
 31
0.0
  0
LINE
  5
138
330
1F
100
AcDbEntity
  8
1
  6
DASH_CENTER
 62
     2
100
AcDbLine
 10
51.01679256438588
 20
134.9480811175806
 30
0.0
 11
89.0167925643859
 21
134.9480811175806
 31
0.0
  0
LINE
  5
139
330
1F
100
AcDbEntity
  8
1
  6
DASH_CENTER
 62
     2
100
AcDbLine
 10
113.1887077623139
 20
311.7298270481008
 30
0.0
 11
293.9808070786591
 21
311.7298270481008
 31
0.0
  0
LINE
  5
13A
330
1F
100
AcDbEntity
  8
1
  6
DASH_CENTER
 62
     2
100
AcDbLine
 10
70.01679256438592
 20
120.2298270481008
 30
0.0
 11
70.01679256438592
 21
241.7298270481008
 31
0.0
  0
LINE
  5
13B
330
1F
100
AcDbEntity
  8
1
  6
DASH_CENTER
 62
     2
100
AcDbLine
 10
95.51679256438591
 20
212.7298270481008
 30
0.0
 11
44.51679256438588
 21
212.7298270481008
 31
0.0
  0
LINE
  5
13C
330
1F
100
AcDbEntity
  8
1
  6
DASH_CENTER
 62
     2
100
AcDbLine
 10
204.2890974555246
 20
212.7298270481008
 30
0.0
 11
222.9287077623139
 21
212.7298270481008
 31
0.0
  0
LINE
  5
13D
330
1F
100
AcDbEntity
  8
1
  6
DASH_CENTER
 62
     2
100
AcDbLine
 10
191.1089026089193
 20
199.5496322014955
 30
0.0
 11
204.2890974555246
 21
212.7298270481008
 31
0.0
  0
LINE
  5
13E
330
1F
100
AcDbEntity
  8
1
  6
DASH_CENTER
 62
     2
100
AcDbLine
 10
123.4046004329653
 20
131.8453300255415
 30
0.0
 11
191.1089026089193
 21
199.5496322014955
 31
0.0
  0
LINE
  5
13F
330
1F
100
AcDbEntity
  8
1
  6
DASH_CENTER
 62
     2
100
AcDbLine
 10
222.9287077623139
 20
212.7298270481008
 30
0.0
 11
293.9808070786591
 21
212.7298270481008
 31
0.0
  0
ARC
  5
140
330
1F
100
AcDbEntity
  8
1
  6
DASH_CENTER
 62
     2
100
AcDbCircle
 10
222.9287077623139
 20
167.7298270481008
 30
0.0
 40
45.0
100
AcDbArc
 50
90.0
 51
134.9999999999999
  0
MTEXT
  5
142
330
1F
100
AcDbEntity
  8
1
 62
     7
100
AcDbMText
 10
236.25
 20
18.75
 30
0.0
 40
3.75
 41
0.0
 71
     5
 72
     1
  1
6
  7
CONVERTER_12
 73
     1
 44
0.7202881152461
  0
MTEXT
  5
143
330
1F
100
AcDbEntity
  8
1
 62
     7
100
AcDbMText
 10
227.625
 20
18.75
 30
0.0
 40
3.75
 41
0.0
 71
     5
 72
     1
  1
04
  7
CONVERTER_12
 73
     1
 44
0.7202881152461
  0
MTEXT
  5
144
330
1F
100
AcDbEntity
  8
1
 62
     7
100
AcDbMText
 10
210.75
 20
18.75
 30
0.0
 40
3.75
 41
0.0
 71
     5
 72
     1
  1
6
  7
CONVERTER_12
 73
     1
 44
0.7202881152461
  0
MTEXT
  5
145
330
1F
100
AcDbEntity
  8
1
 62
     7
100
AcDbMText
 10
202.125
 20
18.75
 30
0.0
 40
3.75
 41
0.0
 71
     5
 72
     1
  1
04
  7
CONVERTER_12
 73
     1
 44
0.7202881152461
  0
MTEXT
  5
146
330
1F
100
AcDbEntity
  8
1
 62
     7
100
AcDbMText
 10
185.25
 20
18.75
 30
0.0
 40
3.75
 41
0.0
 71
     5
 72
     1
  1
6
  7
CONVERTER_12
 73
     1
 44
0.7202881152461
  0
MTEXT
  5
147
330
1F
100
AcDbEntity
  8
1
 62
     7
100
AcDbMText
 10
176.625
 20
18.75
 30
0.0
 40
3.75
 41
0.0
 71
     5
 72
     1
  1
04
  7
CONVERTER_12
 73
     1
 44
0.7202881152461
  0
MTEXT
  5
148
330
1F
100
AcDbEntity
  8
1
 62
     7
100
AcDbMText
 10
151.125
 20
18.75
 30
0.0
 40
3.75
 41
0.0
 71
     5
 72
     1
  1
04
  7
CONVERTER_12
 73
     1
 44
0.7202881152461
  0
MTEXT
  5
149
330
1F
100
AcDbEntity
  8
1
 62
     7
100
AcDbMText
 10
159.75
 20
18.75
 30
0.0
 40
3.75
 41
0.0
 71
     5
 72
     1
  1
6
  7
CONVERTER_12
 73
     1
 44
0.7202881152461
  0
MTEXT
  5
14A
330
1F
100
AcDbEntity
  8
1
 62
     7
100
AcDbMText
 10
127.8750000000004
 20
25.49999999999997
 30
0.0
 40
5.25
 41
0.0
 71
     5
 72
     1
  1
1
  7
CONVERTER_12
 73
     1
 44
0.7202881152461
  0
MTEXT
  5
14B
330
1F
100
AcDbEntity
  8
1
 62
     7
100
AcDbMText
 10
85.50000000000043
 20
34.125
 30
0.0
 40
5.25
 41
0.0
 71
     5
 72
     1
  1
45゜洗浄管下部32mm
  7
CONVERTER_11
 73
     1
 44
0.54545454545455
  0
MTEXT
  5
14C
330
1F
100
AcDbEntity
  8
1
 62
     7
100
AcDbMText
 10
85.50000000000043
 20
21.37499999999994
 30
0.0
 40
5.25
 41
0.0
 71
     5
 72
     1
  1
H80-1-45
  7
CONVERTER_12
 73
     1
 44
0.7202881152461
  0
MTEXT
  5
14D
330
1F
100
AcDbEntity
  8
1
 62
     7
100
AcDbMText
 10
140.6250000000004
 20
25.49999999999997
 30
0.0
 40
5.25
 41
0.0
 71
     5
 72
     1
  1
1,5
  7
CONVERTER_12
 73
     1
 44
0.7202881152461
  0
DIMENSION
  5
158
330
1F
100
AcDbEntity
  8
1
100
AcDbDimension
  2
*D5
 10
49.51679256438595
 20
249.2298270481008
 30
0.0
 11
70.01679256438592
 21
254.4798270481008
 31
0.0
 70
    33
  1
<>
 71
     5
 42
-1.0
 53
0.00013888888889
  3
ME10_DIM_10
100
AcDbAlignedDimension
 13
90.5167925643859
 23
222.0034455435965
 33
0.0
 14
49.51679256438587
 24
222.0034455435965
 34
0.0
  0
DIMENSION
  5
163
330
1F
100
AcDbEntity
  8
1
100
AcDbDimension
  2
*D6
 10
105.294148089408
 20
156.161284553177
 30
0.0
 11
135.1998032185326
 21
193.4915608847604
 31
0.0
 70
    32
  1
110
 71
     5
 42
-1.0
 53
45.00000000000001
  3
ME10_DIM_11
100
AcDbAlignedDimension
 13
204.2890974555246
 23
212.7298270481008
 33
0.0
 14
115.1936430260196
 24
146.2617896165654
 34
0.0
 50
45.00000000000001
100
AcDbRotatedDimension
  0
DIMENSION
  5
16E
330
1F
100
AcDbEntity
  8
1
100
AcDbDimension
  2
*D7
 10
204.2890974555246
 20
249.2063065481712
 30
0.0
 11
244.3773352439382
 21
254.4563065481712
 31
0.0
 70
    32
  1
<>
 71
     5
 42
-1.0
 53
0.00013888888889
  3
ME10_DIM_12
100
AcDbAlignedDimension
 13
284.2890974555246
 23
235.2063065481713
 33
0.0
 14
204.2890974555246
 24
212.7298270481008
 34
0.0
100
AcDbRotatedDimension
  0
DIMENSION
  5
178
330
1F
100
AcDbEntity
  8
1
100
AcDbDimension
  2
*D8
 10
262.9366426991152
 20
229.7298270481008
 30
0.0
 11
257.6866426991152
 21
184.2615597345134
 31
0.0
 70
    33
  1
<>
 71
     5
 42
-1.0
 53
90.0
  3
ME10_DIM_13
100
AcDbAlignedDimension
 13
240.2792925914525
 23
195.7298270481008
 33
0.0
 14
240.2792925914525
 24
229.7298270481008
 34
0.0
  0
DIMENSION
  5
183
330
1F
100
AcDbEntity
  8
1
100
AcDbDimension
  2
*D9
 10
103.8799345270349
 20
134.9480811175806
 30
0.0
 11
118.905953627249
 21
127.3466832198252
 31
0.0
 70
    33
  1
<>
 71
     5
 42
-1.0
 53
-45.0
  3
ME10_DIM_14
100
AcDbAlignedDimension
 13
137.8210600239891
 23
123.6343726185959
 33
0.0
 14
115.1936430260196
 24
146.2617896165654
 34
0.0
  0
DIMENSION
  5
18E
330
1F
100
AcDbEntity
  8
1
100
AcDbDimension
  2
*D10
 10
230.2488144050974
 20
212.7298270481008
 30
0.0
 11
224.9988144050974
 21
163.9747393780416
 31
0.0
 70
    32
  1
78
 71
     5
 42
-1.0
 53
90.0
  3
ME10_DIM_15
100
AcDbAlignedDimension
 13
126.5073515250044
 23
134.9480811175806
 33
0.0
 14
204.2890974555246
 24
212.7298270481008
 34
0.0
 50
90.0
100
AcDbRotatedDimension
  0
ENDSEC
  0
SECTION
  2
OBJECTS
  0
DICTIONARY
  5
C
330
0
100
AcDbDictionary
281
     1
  3
ACAD_GROUP
350
D
  3
ACAD_LAYOUT
350
1A
  3
ACAD_MATERIAL
350
3B
  3
ACAD_MLEADERSTYLE
350
191
  3
ACAD_MLINESTYLE
350
17
  3
ACAD_PLOTSETTINGS
350
19
  3
ACAD_PLOTSTYLENAME
350
E
  3
ACAD_VISUALSTYLE
350
2A
  3
AcDbVariableDictionary
350
18F
  0
DICTIONARY
  5
D
102
{ACAD_REACTORS
330
C
102
}
330
C
100
AcDbDictionary
281
     1
  0
DICTIONARY
  5
1A
102
{ACAD_REACTORS
330
C
102
}
330
C
100
AcDbDictionary
281
     1
  3
Layout1
350
1E
  3
Layout2
350
26
  3
Model
350
22
  0
DICTIONARY
  5
3B
102
{ACAD_REACTORS
330
C
102
}
330
C
100
AcDbDictionary
281
     1
  3
ByBlock
350
3D
  3
ByLayer
350
3C
  3
Global
350
3E
  0
DICTIONARY
  5
191
102
{ACAD_REACTORS
330
C
102
}
330
C
100
AcDbDictionary
281
     1
  0
DICTIONARY
  5
17
102
{ACAD_REACTORS
330
C
102
}
330
C
100
AcDbDictionary
281
     1
  3
Standard
350
18
  0
DICTIONARY
  5
19
102
{ACAD_REACTORS
330
C
102
}
330
C
100
AcDbDictionary
281
     1
  0
ACDBDICTIONARYWDFLT
  5
E
102
{ACAD_REACTORS
330
C
102
}
330
C
100
AcDbDictionary
281
     1
  3
Normal
350
F
100
AcDbDictionaryWithDefault
340
F
  0
DICTIONARY
  5
2A
102
{ACAD_REACTORS
330
C
102
}
330
C
100
AcDbDictionary
281
     1
  3
2dWireframe
350
2F
  3
3D Hidden
350
31
  3
3dWireframe
350
30
  3
Basic
350
32
  3
Brighten
350
36
  3
ColorChange
350
3A
  3
Conceptual
350
34
  3
Dim
350
35
  3
Facepattern
350
39
  3
Flat
350
2B
  3
FlatWithEdges
350
2C
  3
Gouraud
350
2D
  3
GouraudWithEdges
350
2E
  3
Linepattern
350
38
  3
Realistic
350
33
  3
Thicken
350
37
  0
DICTIONARY
  5
18F
102
{ACAD_REACTORS
330
C
102
}
330
C
100
AcDbDictionary
281
     1
  3
DIMASSOC
350
192
  3
HIDETEXT
350
193
  0
LAYOUT
  5
1E
102
{ACAD_REACTORS
330
1A
102
}
330
1A
100
AcDbPlotSettings
  1

  2
none_device
  4

  6

 40
0.0
 41
0.0
 42
0.0
 43
0.0
 44
0.0
 45
0.0
 46
0.0
 47
0.0
 48
0.0
 49
0.0
140
0.0
141
0.0
142
1.0
143
1.0
 70
   688
 72
     0
 73
     0
 74
     5
  7

 75
    16
147
1.0
148
0.0
149
0.0
100
AcDbLayout
  1
Layout1
 70
     1
 71
     1
 10
0.0
 20
0.0
 11
12.0
 21
9.0
 12
0.0
 22
0.0
 32
0.0
 14
1.00000000000000E+20
 24
1.00000000000000E+20
 34
1.00000000000000E+20
 15
-1.00000000000000E+20
 25
-1.00000000000000E+20
 35
-1.00000000000000E+20
146
0.0
 13
0.0
 23
0.0
 33
0.0
 16
1.0
 26
0.0
 36
0.0
 17
0.0
 27
1.0
 37
0.0
 76
     0
330
1B
  0
LAYOUT
  5
26
102
{ACAD_REACTORS
330
1A
102
}
330
1A
100
AcDbPlotSettings
  1

  2
none_device
  4

  6

 40
0.0
 41
0.0
 42
0.0
 43
0.0
 44
0.0
 45
0.0
 46
0.0
 47
0.0
 48
0.0
 49
0.0
140
0.0
141
0.0
142
1.0
143
1.0
 70
   688
 72
     0
 73
     0
 74
     5
  7

 75
    16
147
1.0
148
0.0
149
0.0
100
AcDbLayout
  1
Layout2
 70
     1
 71
     2
 10
0.0
 20
0.0
 11
0.0
 21
0.0
 12
0.0
 22
0.0
 32
0.0
 14
0.0
 24
0.0
 34
0.0
 15
0.0
 25
0.0
 35
0.0
146
0.0
 13
0.0
 23
0.0
 33
0.0
 16
1.0
 26
0.0
 36
0.0
 17
0.0
 27
1.0
 37
0.0
 76
     0
330
23
  0
LAYOUT
  5
22
102
{ACAD_REACTORS
330
1A
102
}
330
1A
100
AcDbPlotSettings
  1

  2
none_device
  4

  6

 40
0.0
 41
0.0
 42
0.0
 43
0.0
 44
0.0
 45
0.0
 46
0.0
 47
0.0
 48
0.0
 49
0.0
140
0.0
141
0.0
142
1.0
143
1.0
 70
  1712
 72
     0
 73
     0
 74
     0
  7

 75
     0
147
1.0
148
0.0
149
0.0
100
AcDbLayout
  1
Model
 70
     1
 71
     0
 10
0.0
 20
0.0
 11
12.0
 21
9.0
 12
0.0
 22
0.0
 32
0.0
 14
-0.00000000000002
 24
0.0
 34
0.0
 15
315.0
 25
445.5
 35
0.0
146
0.0
 13
0.0
 23
0.0
 33
0.0
 16
1.0
 26
0.0
 36
0.0
 17
0.0
 27
1.0
 37
0.0
 76
     0
330
1F
331
29
  0
MATERIAL
  5
3D
102
{ACAD_REACTORS
330
3B
102
}
102
{ACAD_XDICTIONARY
360
1B6
102
}
330
3B
100
AcDbMaterial
  1
ByBlock
  0
MATERIAL
  5
3C
102
{ACAD_REACTORS
330
3B
102
}
102
{ACAD_XDICTIONARY
360
1B4
102
}
330
3B
100
AcDbMaterial
  1
ByLayer
  0
MATERIAL
  5
3E
102
{ACAD_REACTORS
330
3B
102
}
102
{ACAD_XDICTIONARY
360
1B8
102
}
330
3B
100
AcDbMaterial
  1
Global
  0
MLINESTYLE
  5
18
102
{ACAD_REACTORS
330
17
102
}
330
17
100
AcDbMlineStyle
  2
Standard
 70
     0
  3

 62
   256
 51
90.0
 52
90.0
 71
     2
 49
0.5
 62
   256
  6
BYLAYER
 49
-0.5
 62
   256
  6
BYLAYER
  0
ACDBPLACEHOLDER
  5
F
102
{ACAD_REACTORS
330
E
102
}
330
E
  0
VISUALSTYLE
  5
2F
102
{ACAD_REACTORS
330
2A
102
}
102
{ACAD_XDICTIONARY
360
19C
102
}
330
2A
100
AcDbVisualStyle
  2
2dWireframe
 70
     4
 71
     0
 72
     2
 73
     0
 90
        0
 40
-0.6
 41
-30.0
 62
     5
 63
     7
 74
     1
 91
        4
 64
     7
 65
   257
 75
     1
175
     1
 42
1.0
 92
        0
 66
   257
 43
1.0
 76
     1
 77
     6
 78
     2
 67
     7
 79
     5
170
     0
171
     0
290
     0
174
     0
 93
        1
 44
0.0
173
     0
291
     0
 45
0.0
1001
ACAD
1000
AcDbSavedByObjectVersion
1070
     0
  0
VISUALSTYLE
  5
31
102
{ACAD_REACTORS
330
2A
102
}
102
{ACAD_XDICTIONARY
360
1A0
102
}
330
2A
100
AcDbVisualStyle
  2
3D Hidden
 70
     6
 71
     1
 72
     2
 73
     2
 90
        0
 40
-0.6
 41
-30.0
 62
     5
 63
     7
 74
     2
 91
        2
 64
     7
 65
   257
 75
     2
175
     1
 42
40.0
 92
        0
 66
   257
 43
1.0
 76
     1
 77
     6
 78
     2
 67
     7
 79
     3
170
     0
171
     0
290
     0
174
     0
 93
        1
 44
0.0
173
     0
291
     0
 45
0.0
1001
ACAD
1000
AcDbSavedByObjectVersion
1070
     0
  0
VISUALSTYLE
  5
30
102
{ACAD_REACTORS
330
2A
102
}
102
{ACAD_XDICTIONARY
360
19E
102
}
330
2A
100
AcDbVisualStyle
  2
3dWireframe
 70
     5
 71
     0
 72
     2
 73
     0
 90
        0
 40
-0.6
 41
-30.0
 62
     5
 63
     7
 74
     1
 91
        4
 64
     7
 65
   257
 75
     1
175
     1
 42
1.0
 92
        0
 66
   257
 43
1.0
 76
     1
 77
     6
 78
     2
 67
     7
 79
     5
170
     0
171
     0
290
     0
174
     0
 93
        1
 44
0.0
173
     0
291
     0
 45
0.0
1001
ACAD
1000
AcDbSavedByObjectVersion
1070
     0
  0
VISUALSTYLE
  5
32
102
{ACAD_REACTORS
330
2A
102
}
102
{ACAD_XDICTIONARY
360
1A2
102
}
330
2A
100
AcDbVisualStyle
  2
Basic
 70
     7
 71
     1
 72
     0
 73
     1
 90
        0
 40
-0.6
 41
-30.0
 62
     5
 63
     7
 74
     0
 91
        4
 64
     7
 65
   257
 75
     1
175
     1
 42
1.0
 92
        8
 66
     7
 43
1.0
 76
     1
 77
     6
 78
     2
 67
     7
 79
     5
170
     0
171
     0
290
     0
174
     0
 93
        1
 44
0.0
173
     0
291
     1
 45
0.0
1001
ACAD
1000
AcDbSavedByObjectVersion
1070
     0
  0
VISUALSTYLE
  5
36
102
{ACAD_REACTORS
330
2A
102
}
102
{ACAD_XDICTIONARY
360
1AA
102
}
330
2A
100
AcDbVisualStyle
  2
Brighten
 70
    12
 71
     2
 72
     2
 73
     0
 90
        0
 40
-0.6
 41
-30.0
 62
     5
 63
     7
 74
     1
 91
        4
 64
     7
 65
   257
 75
     1
175
     1
 42
1.0
 92
        8
 66
     7
 43
1.0
 76
     1
 77
     6
 78
     2
 67
     7
 79
     5
170
     0
171
     0
290
     0
174
     0
 93
        1
 44
50.0
173
     0
291
     1
 45
0.0
1001
ACAD
1000
AcDbSavedByObjectVersion
1070
     0
  0
VISUALSTYLE
  5
3A
102
{ACAD_REACTORS
330
2A
102
}
102
{ACAD_XDICTIONARY
360
1B2
102
}
330
2A
100
AcDbVisualStyle
  2
ColorChange
 70
    16
 71
     2
 72
     2
 73
     3
 90
        0
 40
-0.6
 41
-30.0
 62
     5
 63
     8
 74
     1
 91
        4
 64
     7
 65
   257
 75
     1
175
     1
 42
1.0
 92
        8
 66
     8
 43
1.0
 76
     1
 77
     6
 78
     2
 67
     7
 79
     5
170
     0
171
     0
290
     0
174
     0
 93
        1
 44
0.0
173
     0
291
     1
 45
0.0
1001
ACAD
1000
AcDbSavedByObjectVersion
1070
     0
  0
VISUALSTYLE
  5
34
102
{ACAD_REACTORS
330
2A
102
}
102
{ACAD_XDICTIONARY
360
1A6
102
}
330
2A
100
AcDbVisualStyle
  2
Conceptual
 70
     9
 71
     3
 72
     2
 73
     0
 90
        0
 40
-0.6
 41
-30.0
 62
     5
 63
     7
 74
     2
 91
        2
 64
     7
 65
   257
 75
     1
175
     1
 42
40.0
 92
        8
 66
     7
 43
1.0
 76
     1
 77
     6
 78
     2
 67
     7
 79
     3
170
     0
171
     0
290
     0
174
     0
 93
        1
 44
0.0
173
     0
291
     0
 45
0.0
1001
ACAD
1000
AcDbSavedByObjectVersion
1070
     0
  0
VISUALSTYLE
  5
35
102
{ACAD_REACTORS
330
2A
102
}
102
{ACAD_XDICTIONARY
360
1A8
102
}
330
2A
100
AcDbVisualStyle
  2
Dim
 70
    11
 71
     2
 72
     2
 73
     0
 90
        0
 40
-0.6
 41
-30.0
 62
     5
 63
     7
 74
     1
 91
        4
 64
     7
 65
   257
 75
     1
175
     1
 42
1.0
 92
        8
 66
     7
 43
1.0
 76
     1
 77
     6
 78
     2
 67
     7
 79
     5
170
     0
171
     0
290
     0
174
     0
 93
        1
 44
-50.0
173
     0
291
     1
 45
0.0
1001
ACAD
1000
AcDbSavedByObjectVersion
1070
     0
  0
VISUALSTYLE
  5
39
102
{ACAD_REACTORS
330
2A
102
}
102
{ACAD_XDICTIONARY
360
1B0
102
}
330
2A
100
AcDbVisualStyle
  2
Facepattern
 70
    15
 71
     2
 72
     2
 73
     0
 90
        0
 40
-0.6
 41
-30.0
 62
     5
 63
     7
 74
     1
 91
        4
 64
     7
 65
   257
 75
     1
175
     1
 42
1.0
 92
        8
 66
     7
 43
1.0
 76
     1
 77
     6
 78
     2
 67
     7
 79
     5
170
     0
171
     0
290
     0
174
     0
 93
        1
 44
0.0
173
     0
291
     1
 45
0.0
1001
ACAD
1000
AcDbSavedByObjectVersion
1070
     0
  0
VISUALSTYLE
  5
2B
102
{ACAD_REACTORS
330
2A
102
}
102
{ACAD_XDICTIONARY
360
194
102
}
330
2A
100
AcDbVisualStyle
  2
Flat
 70
     0
 71
     2
 72
     1
 73
     1
 90
        2
 40
-0.6
 41
30.0
 62
     5
 63
     7
 74
     0
 91
        4
 64
     7
 65
   257
 75
     1
175
     1
 42
1.0
 92
        8
 66
     7
 43
1.0
 76
     1
 77
     6
 78
     2
 67
     7
 79
     5
170
     0
171
     0
290
     0
174
     0
 93
       13
 44
0.0
173
     0
291
     1
 45
0.0
1001
ACAD
1000
AcDbSavedByObjectVersion
1070
     0
  0
VISUALSTYLE
  5
2C
102
{ACAD_REACTORS
330
2A
102
}
102
{ACAD_XDICTIONARY
360
196
102
}
330
2A
100
AcDbVisualStyle
  2
FlatWithEdges
 70
     1
 71
     2
 72
     1
 73
     1
 90
        2
 40
-0.6
 41
30.0
 62
     5
 63
     7
 74
     1
 91
        4
 64
     7
 65
   257
 75
     1
175
     1
 42
1.0
 92
        0
 66
   257
 43
1.0
 76
     1
 77
     6
 78
     2
 67
     7
 79
     5
170
     0
171
     0
290
     0
174
     0
 93
       13
 44
0.0
173
     0
291
     1
 45
0.0
1001
ACAD
1000
AcDbSavedByObjectVersion
1070
     0
  0
VISUALSTYLE
  5
2D
102
{ACAD_REACTORS
330
2A
102
}
102
{ACAD_XDICTIONARY
360
198
102
}
330
2A
100
AcDbVisualStyle
  2
Gouraud
 70
     2
 71
     2
 72
     2
 73
     1
 90
        2
 40
-0.6
 41
30.0
 62
     5
 63
     7
 74
     0
 91
        4
 64
     7
 65
   257
 75
     1
175
     1
 42
1.0
 92
        0
 66
     7
 43
1.0
 76
     1
 77
     6
 78
     2
 67
     7
 79
     5
170
     0
171
     0
290
     0
174
     0
 93
       13
 44
0.0
173
     0
291
     1
 45
0.0
1001
ACAD
1000
AcDbSavedByObjectVersion
1070
     0
  0
VISUALSTYLE
  5
2E
102
{ACAD_REACTORS
330
2A
102
}
102
{ACAD_XDICTIONARY
360
19A
102
}
330
2A
100
AcDbVisualStyle
  2
GouraudWithEdges
 70
     3
 71
     2
 72
     2
 73
     1
 90
        2
 40
-0.6
 41
30.0
 62
     5
 63
     7
 74
     1
 91
        4
 64
     7
 65
   257
 75
     1
175
     1
 42
1.0
 92
        0
 66
   257
 43
1.0
 76
     1
 77
     6
 78
     2
 67
     7
 79
     5
170
     0
171
     0
290
     0
174
     0
 93
       13
 44
0.0
173
     0
291
     1
 45
0.0
1001
ACAD
1000
AcDbSavedByObjectVersion
1070
     0
  0
VISUALSTYLE
  5
38
102
{ACAD_REACTORS
330
2A
102
}
102
{ACAD_XDICTIONARY
360
1AE
102
}
330
2A
100
AcDbVisualStyle
  2
Linepattern
 70
    14
 71
     2
 72
     2
 73
     0
 90
        0
 40
-0.6
 41
-30.0
 62
     5
 63
     7
 74
     1
 91
        4
 64
     7
 65
   257
 75
     7
175
     7
 42
1.0
 92
        8
 66
     7
 43
1.0
 76
     1
 77
     6
 78
     2
 67
     7
 79
     5
170
     0
171
     0
290
     0
174
     0
 93
        1
 44
0.0
173
     0
291
     1
 45
0.0
1001
ACAD
1000
AcDbSavedByObjectVersion
1070
     0
  0
VISUALSTYLE
  5
33
102
{ACAD_REACTORS
330
2A
102
}
102
{ACAD_XDICTIONARY
360
1A4
102
}
330
2A
100
AcDbVisualStyle
  2
Realistic
 70
     8
 71
     2
 72
     2
 73
     0
 90
        0
 40
-0.6
 41
-30.0
 62
     5
 63
     7
 74
     1
 91
        0
 64
     7
 65
   257
 75
     1
175
     1
 42
1.0
 92
        8
 66
     8
 43
1.0
 76
     1
 77
     6
 78
     2
 67
     7
 79
     5
170
     0
171
     0
290
     0
174
     0
 93
       13
 44
0.0
173
     0
291
     0
 45
0.0
1001
ACAD
1000
AcDbSavedByObjectVersion
1070
     0
  0
VISUALSTYLE
  5
37
102
{ACAD_REACTORS
330
2A
102
}
102
{ACAD_XDICTIONARY
360
1AC
102
}
330
2A
100
AcDbVisualStyle
  2
Thicken
 70
    13
 71
     2
 72
     2
 73
     0
 90
        0
 40
-0.6
 41
-30.0
 62
     5
 63
     7
 74
     1
 91
        4
 64
     7
 65
   257
 75
     1
175
     1
 42
1.0
 92
       12
 66
     7
 43
1.0
 76
     1
 77
     6
 78
     2
 67
     7
 79
     5
170
     0
171
     0
290
     0
174
     0
 93
        1
 44
0.0
173
     0
291
     1
 45
0.0
1001
ACAD
1000
AcDbSavedByObjectVersion
1070
     0
  0
DICTIONARYVAR
  5
192
102
{ACAD_REACTORS
330
18F
102
}
330
18F
100
DictionaryVariables
280
     0
  1
2
  0
DICTIONARYVAR
  5
193
102
{ACAD_REACTORS
330
18F
102
}
330
18F
100
DictionaryVariables
280
     0
  1
1
  0
DICTIONARY
  5
1B6
330
3D
100
AcDbDictionary
280
     1
281
     1
  3
ACAD_XREC_ROUNDTRIP
360
1B7
  0
DICTIONARY
  5
1B4
330
3C
100
AcDbDictionary
280
     1
281
     1
  3
ACAD_XREC_ROUNDTRIP
360
1B5
  0
DICTIONARY
  5
1B8
330
3E
100
AcDbDictionary
280
     1
281
     1
  3
ACAD_XREC_ROUNDTRIP
360
1B9
  0
DICTIONARY
  5
19C
330
2F
100
AcDbDictionary
280
     1
281
     1
  3
ACAD_XREC_ROUNDTRIP
360
19D
  0
DICTIONARY
  5
1A0
330
31
100
AcDbDictionary
280
     1
281
     1
  3
ACAD_XREC_ROUNDTRIP
360
1A1
  0
DICTIONARY
  5
19E
330
30
100
AcDbDictionary
280
     1
281
     1
  3
ACAD_XREC_ROUNDTRIP
360
19F
  0
DICTIONARY
  5
1A2
330
32
100
AcDbDictionary
280
     1
281
     1
  3
ACAD_XREC_ROUNDTRIP
360
1A3
  0
DICTIONARY
  5
1AA
330
36
100
AcDbDictionary
280
     1
281
     1
  3
ACAD_XREC_ROUNDTRIP
360
1AB
  0
DICTIONARY
  5
1B2
330
3A
100
AcDbDictionary
280
     1
281
     1
  3
ACAD_XREC_ROUNDTRIP
360
1B3
  0
DICTIONARY
  5
1A6
330
34
100
AcDbDictionary
280
     1
281
     1
  3
ACAD_XREC_ROUNDTRIP
360
1A7
  0
DICTIONARY
  5
1A8
330
35
100
AcDbDictionary
280
     1
281
     1
  3
ACAD_XREC_ROUNDTRIP
360
1A9
  0
DICTIONARY
  5
1B0
330
39
100
AcDbDictionary
280
     1
281
     1
  3
ACAD_XREC_ROUNDTRIP
360
1B1
  0
DICTIONARY
  5
194
330
2B
100
AcDbDictionary
280
     1
281
     1
  3
ACAD_XREC_ROUNDTRIP
360
195
  0
DICTIONARY
  5
196
330
2C
100
AcDbDictionary
280
     1
281
     1
  3
ACAD_XREC_ROUNDTRIP
360
197
  0
DICTIONARY
  5
198
330
2D
100
AcDbDictionary
280
     1
281
     1
  3
ACAD_XREC_ROUNDTRIP
360
199
  0
DICTIONARY
  5
19A
330
2E
100
AcDbDictionary
280
     1
281
     1
  3
ACAD_XREC_ROUNDTRIP
360
19B
  0
DICTIONARY
  5
1AE
330
38
100
AcDbDictionary
280
     1
281
     1
  3
ACAD_XREC_ROUNDTRIP
360
1AF
  0
DICTIONARY
  5
1A4
330
33
100
AcDbDictionary
280
     1
281
     1
  3
ACAD_XREC_ROUNDTRIP
360
1A5
  0
DICTIONARY
  5
1AC
330
37
100
AcDbDictionary
280
     1
281
     1
  3
ACAD_XREC_ROUNDTRIP
360
1AD
  0
XRECORD
  5
1B7
102
{ACAD_REACTORS
330
1B6
102
}
330
1B6
100
AcDbXrecord
280
     1
102
MATERIAL
148
0.0
149
0.0
149
0.0
 93
        0
 94
      127
282
     0
 72
     1
 77
     1
171
     1
175
     1
179
     1
273
     0
  0
XRECORD
  5
1B5
102
{ACAD_REACTORS
330
1B4
102
}
330
1B4
100
AcDbXrecord
280
     1
102
MATERIAL
148
0.0
149
0.0
149
0.0
 93
        0
 94
      127
282
     0
 72
     1
 77
     1
171
     1
175
     1
179
     1
273
     0
  0
XRECORD
  5
1B9
102
{ACAD_REACTORS
330
1B8
102
}
330
1B8
100
AcDbXrecord
280
     1
102
MATERIAL
148
0.0
149
0.0
149
0.0
 93
        0
 94
      127
282
     0
 72
     1
 77
     1
171
     1
175
     1
179
     1
273
     0
  0
XRECORD
  5
19D
102
{ACAD_REACTORS
330
19C
102
}
330
19C
100
AcDbXrecord
280
     1
102
RTVSPropertyOp0
 70
     1
102
RTVSPropertyOp1
 70
     1
102
RTVSPropertyOp2
 70
     1
102
RTVSPropertyOp3
 70
     1
102
RTVSPropertyOp4
 70
     1
102
RTVSPropertyOp5
 70
     1
102
RTVSPropertyOp6
 70
     1
102
RTVSPropertyOp7
 70
     1
102
RTVSPropertyOp8
 70
     1
102
RTVSPropertyOp9
 70
     1
102
RTVSPropertyOp10
 70
     1
102
RTVSPropertyOp11
 70
     1
102
RTVSPropertyOp12
 70
     1
102
RTVSPropertyOp13
 70
     1
102
RTVSPropertyOp14
 70
     1
102
RTVSPropertyOp15
 70
     1
102
RTVSPropertyOp16
 70
     1
102
RTVSPropertyOp17
 70
     1
102
RTVSPropertyOp18
 70
     1
102
RTVSPropertyOp19
 70
     1
102
RTVSPropertyOp20
 70
     1
102
RTVSPropertyOp21
 70
     1
102
RTVSPropertyOp22
 70
     1
102
RTVSPropertyOp23
 70
     1
102
RTVSPropertyOp24
 70
     1
102
RTVSPropertyOp25
 70
     1
102
RTVSPropertyOp26
 70
     1
102
RTVSPropertyOp27
 70
     1
102
RTVSPropertyOp28
 70
     1
102
RTVSPropertyOp29
 70
     1
102
RTVSPropertyOp30
 70
     1
102
RTVSPropertyOp31
 70
     1
102
RTVSPropertyOp32
 70
     1
  0
XRECORD
  5
1A1
102
{ACAD_REACTORS
330
1A0
102
}
330
1A0
100
AcDbXrecord
280
     1
102
RTVSPropertyOp0
 70
     1
102
RTVSPropertyOp1
 70
     1
102
RTVSPropertyOp2
 70
     1
102
RTVSPropertyOp3
 70
     1
102
RTVSPropertyOp4
 70
     1
102
RTVSPropertyOp5
 70
     1
102
RTVSPropertyOp6
 70
     1
102
RTVSPropertyOp7
 70
     1
102
RTVSPropertyOp8
 70
     1
102
RTVSPropertyOp9
 70
     1
102
RTVSPropertyOp10
 70
     1
102
RTVSPropertyOp11
 70
     1
102
RTVSPropertyOp12
 70
     1
102
RTVSPropertyOp13
 70
     1
102
RTVSPropertyOp14
 70
     1
102
RTVSPropertyOp15
 70
     1
102
RTVSPropertyOp16
 70
     1
102
RTVSPropertyOp17
 70
     1
102
RTVSPropertyOp18
 70
     1
102
RTVSPropertyOp19
 70
     1
102
RTVSPropertyOp20
 70
     1
102
RTVSPropertyOp21
 70
     1
102
RTVSPropertyOp22
 70
     1
102
RTVSPropertyOp23
 70
     1
102
RTVSPropertyOp24
 70
     1
102
RTVSPropertyOp25
 70
     1
102
RTVSPropertyOp26
 70
     1
102
RTVSPropertyOp27
 70
     1
102
RTVSPropertyOp28
 70
     1
102
RTVSPropertyOp29
 70
     1
102
RTVSPropertyOp30
 70
     1
102
RTVSPropertyOp31
 70
     1
102
RTVSPropertyOp32
 70
     1
  0
XRECORD
  5
19F
102
{ACAD_REACTORS
330
19E
102
}
330
19E
100
AcDbXrecord
280
     1
102
RTVSPropertyOp0
 70
     1
102
RTVSPropertyOp1
 70
     1
102
RTVSPropertyOp2
 70
     1
102
RTVSPropertyOp3
 70
     1
102
RTVSPropertyOp4
 70
     1
102
RTVSPropertyOp5
 70
     1
102
RTVSPropertyOp6
 70
     1
102
RTVSPropertyOp7
 70
     1
102
RTVSPropertyOp8
 70
     1
102
RTVSPropertyOp9
 70
     1
102
RTVSPropertyOp10
 70
     1
102
RTVSPropertyOp11
 70
     1
102
RTVSPropertyOp12
 70
     1
102
RTVSPropertyOp13
 70
     1
102
RTVSPropertyOp14
 70
     1
102
RTVSPropertyOp15
 70
     1
102
RTVSPropertyOp16
 70
     1
102
RTVSPropertyOp17
 70
     1
102
RTVSPropertyOp18
 70
     1
102
RTVSPropertyOp19
 70
     1
102
RTVSPropertyOp20
 70
     1
102
RTVSPropertyOp21
 70
     1
102
RTVSPropertyOp22
 70
     1
102
RTVSPropertyOp23
 70
     1
102
RTVSPropertyOp24
 70
     1
102
RTVSPropertyOp25
 70
     1
102
RTVSPropertyOp26
 70
     1
102
RTVSPropertyOp27
 70
     1
102
RTVSPropertyOp28
 70
     1
102
RTVSPropertyOp29
 70
     1
102
RTVSPropertyOp30
 70
     1
102
RTVSPropertyOp31
 70
     1
102
RTVSPropertyOp32
 70
     1
  0
XRECORD
  5
1A3
102
{ACAD_REACTORS
330
1A2
102
}
330
1A2
100
AcDbXrecord
280
     1
102
RTVSPropertyOp0
 70
     1
102
RTVSPropertyOp1
 70
     1
102
RTVSPropertyOp2
 70
     1
102
RTVSPropertyOp3
 70
     1
102
RTVSPropertyOp4
 70
     1
102
RTVSPropertyOp5
 70
     1
102
RTVSPropertyOp6
 70
     1
102
RTVSPropertyOp7
 70
     1
102
RTVSPropertyOp8
 70
     1
102
RTVSPropertyOp9
 70
     1
102
RTVSPropertyOp10
 70
     1
102
RTVSPropertyOp11
 70
     1
102
RTVSPropertyOp12
 70
     1
102
RTVSPropertyOp13
 70
     1
102
RTVSPropertyOp14
 70
     1
102
RTVSPropertyOp15
 70
     1
102
RTVSPropertyOp16
 70
     1
102
RTVSPropertyOp17
 70
     1
102
RTVSPropertyOp18
 70
     1
102
RTVSPropertyOp19
 70
     1
102
RTVSPropertyOp20
 70
     1
102
RTVSPropertyOp21
 70
     1
102
RTVSPropertyOp22
 70
     1
102
RTVSPropertyOp23
 70
     1
102
RTVSPropertyOp24
 70
     1
102
RTVSPropertyOp25
 70
     1
102
RTVSPropertyOp26
 70
     1
102
RTVSPropertyOp27
 70
     1
102
RTVSPropertyOp28
 70
     1
102
RTVSPropertyOp29
 70
     1
102
RTVSPropertyOp30
 70
     1
102
RTVSPropertyOp31
 70
     1
102
RTVSPropertyOp32
 70
     1
  0
XRECORD
  5
1AB
102
{ACAD_REACTORS
330
1AA
102
}
330
1AA
100
AcDbXrecord
280
     1
102
RTVSPropertyOp0
 70
     1
102
RTVSPropertyOp1
 70
     1
102
RTVSPropertyOp2
 70
     1
102
RTVSPropertyOp3
 70
     1
102
RTVSPropertyOp4
 70
     1
102
RTVSPropertyOp5
 70
     1
102
RTVSPropertyOp6
 70
     1
102
RTVSPropertyOp7
 70
     1
102
RTVSPropertyOp8
 70
     1
102
RTVSPropertyOp9
 70
     1
102
RTVSPropertyOp10
 70
     1
102
RTVSPropertyOp11
 70
     1
102
RTVSPropertyOp12
 70
     1
102
RTVSPropertyOp13
 70
     1
102
RTVSPropertyOp14
 70
     1
102
RTVSPropertyOp15
 70
     1
102
RTVSPropertyOp16
 70
     1
102
RTVSPropertyOp17
 70
     1
102
RTVSPropertyOp18
 70
     1
102
RTVSPropertyOp19
 70
     1
102
RTVSPropertyOp20
 70
     1
102
RTVSPropertyOp21
 70
     1
102
RTVSPropertyOp22
 70
     1
102
RTVSPropertyOp23
 70
     1
102
RTVSPropertyOp24
 70
     1
102
RTVSPropertyOp25
 70
     1
102
RTVSPropertyOp26
 70
     1
102
RTVSPropertyOp27
 70
     1
102
RTVSPropertyOp28
 70
     1
102
RTVSPropertyOp29
 70
     1
102
RTVSPropertyOp30
 70
     1
102
RTVSPropertyOp31
 70
     1
102
RTVSPropertyOp32
 70
     1
  0
XRECORD
  5
1B3
102
{ACAD_REACTORS
330
1B2
102
}
330
1B2
100
AcDbXrecord
280
     1
102
RTVSPropertyOp0
 70
     1
102
RTVSPropertyOp1
 70
     1
102
RTVSPropertyOp2
 70
     1
102
RTVSPropertyOp3
 70
     1
102
RTVSPropertyOp4
 70
     1
102
RTVSPropertyOp5
 70
     1
102
RTVSPropertyOp6
 70
     1
102
RTVSPropertyOp7
 70
     1
102
RTVSPropertyOp8
 70
     1
102
RTVSPropertyOp9
 70
     1
102
RTVSPropertyOp10
 70
     1
102
RTVSPropertyOp11
 70
     1
102
RTVSPropertyOp12
 70
     1
102
RTVSPropertyOp13
 70
     1
102
RTVSPropertyOp14
 70
     1
102
RTVSPropertyOp15
 70
     1
102
RTVSPropertyOp16
 70
     1
102
RTVSPropertyOp17
 70
     1
102
RTVSPropertyOp18
 70
     1
102
RTVSPropertyOp19
 70
     1
102
RTVSPropertyOp20
 70
     1
102
RTVSPropertyOp21
 70
     1
102
RTVSPropertyOp22
 70
     1
102
RTVSPropertyOp23
 70
     1
102
RTVSPropertyOp24
 70
     1
102
RTVSPropertyOp25
 70
     1
102
RTVSPropertyOp26
 70
     1
102
RTVSPropertyOp27
 70
     1
102
RTVSPropertyOp28
 70
     1
102
RTVSPropertyOp29
 70
     1
102
RTVSPropertyOp30
 70
     1
102
RTVSPropertyOp31
 70
     1
102
RTVSPropertyOp32
 70
     1
  0
XRECORD
  5
1A7
102
{ACAD_REACTORS
330
1A6
102
}
330
1A6
100
AcDbXrecord
280
     1
102
RTVSPropertyOp0
 70
     1
102
RTVSPropertyOp1
 70
     1
102
RTVSPropertyOp2
 70
     1
102
RTVSPropertyOp3
 70
     1
102
RTVSPropertyOp4
 70
     1
102
RTVSPropertyOp5
 70
     1
102
RTVSPropertyOp6
 70
     1
102
RTVSPropertyOp7
 70
     1
102
RTVSPropertyOp8
 70
     1
102
RTVSPropertyOp9
 70
     1
102
RTVSPropertyOp10
 70
     1
102
RTVSPropertyOp11
 70
     1
102
RTVSPropertyOp12
 70
     1
102
RTVSPropertyOp13
 70
     1
102
RTVSPropertyOp14
 70
     1
102
RTVSPropertyOp15
 70
     1
102
RTVSPropertyOp16
 70
     1
102
RTVSPropertyOp17
 70
     1
102
RTVSPropertyOp18
 70
     1
102
RTVSPropertyOp19
 70
     1
102
RTVSPropertyOp20
 70
     1
102
RTVSPropertyOp21
 70
     1
102
RTVSPropertyOp22
 70
     1
102
RTVSPropertyOp23
 70
     1
102
RTVSPropertyOp24
 70
     1
102
RTVSPropertyOp25
 70
     1
102
RTVSPropertyOp26
 70
     1
102
RTVSPropertyOp27
 70
     1
102
RTVSPropertyOp28
 70
     1
102
RTVSPropertyOp29
 70
     1
102
RTVSPropertyOp30
 70
     1
102
RTVSPropertyOp31
 70
     1
102
RTVSPropertyOp32
 70
     1
  0
XRECORD
  5
1A9
102
{ACAD_REACTORS
330
1A8
102
}
330
1A8
100
AcDbXrecord
280
     1
102
RTVSPropertyOp0
 70
     1
102
RTVSPropertyOp1
 70
     1
102
RTVSPropertyOp2
 70
     1
102
RTVSPropertyOp3
 70
     1
102
RTVSPropertyOp4
 70
     1
102
RTVSPropertyOp5
 70
     1
102
RTVSPropertyOp6
 70
     1
102
RTVSPropertyOp7
 70
     1
102
RTVSPropertyOp8
 70
     1
102
RTVSPropertyOp9
 70
     1
102
RTVSPropertyOp10
 70
     1
102
RTVSPropertyOp11
 70
     1
102
RTVSPropertyOp12
 70
     1
102
RTVSPropertyOp13
 70
     1
102
RTVSPropertyOp14
 70
     1
102
RTVSPropertyOp15
 70
     1
102
RTVSPropertyOp16
 70
     1
102
RTVSPropertyOp17
 70
     1
102
RTVSPropertyOp18
 70
     1
102
RTVSPropertyOp19
 70
     1
102
RTVSPropertyOp20
 70
     1
102
RTVSPropertyOp21
 70
     1
102
RTVSPropertyOp22
 70
     1
102
RTVSPropertyOp23
 70
     1
102
RTVSPropertyOp24
 70
     1
102
RTVSPropertyOp25
 70
     1
102
RTVSPropertyOp26
 70
     1
102
RTVSPropertyOp27
 70
     1
102
RTVSPropertyOp28
 70
     1
102
RTVSPropertyOp29
 70
     1
102
RTVSPropertyOp30
 70
     1
102
RTVSPropertyOp31
 70
     1
102
RTVSPropertyOp32
 70
     1
  0
XRECORD
  5
1B1
102
{ACAD_REACTORS
330
1B0
102
}
330
1B0
100
AcDbXrecord
280
     1
102
RTVSPropertyOp0
 70
     1
102
RTVSPropertyOp1
 70
     1
102
RTVSPropertyOp2
 70
     1
102
RTVSPropertyOp3
 70
     1
102
RTVSPropertyOp4
 70
     1
102
RTVSPropertyOp5
 70
     1
102
RTVSPropertyOp6
 70
     1
102
RTVSPropertyOp7
 70
     1
102
RTVSPropertyOp8
 70
     1
102
RTVSPropertyOp9
 70
     1
102
RTVSPropertyOp10
 70
     1
102
RTVSPropertyOp11
 70
     1
102
RTVSPropertyOp12
 70
     1
102
RTVSPropertyOp13
 70
     1
102
RTVSPropertyOp14
 70
     1
102
RTVSPropertyOp15
 70
     1
102
RTVSPropertyOp16
 70
     1
102
RTVSPropertyOp17
 70
     1
102
RTVSPropertyOp18
 70
     1
102
RTVSPropertyOp19
 70
     1
102
RTVSPropertyOp20
 70
     1
102
RTVSPropertyOp21
 70
     1
102
RTVSPropertyOp22
 70
     1
102
RTVSPropertyOp23
 70
     1
102
RTVSPropertyOp24
 70
     1
102
RTVSPropertyOp25
 70
     1
102
RTVSPropertyOp26
 70
     1
102
RTVSPropertyOp27
 70
     1
102
RTVSPropertyOp28
 70
     1
102
RTVSPropertyOp29
 70
     1
102
RTVSPropertyOp30
 70
     1
102
RTVSPropertyOp31
 70
     1
102
RTVSPropertyOp32
 70
     1
  0
XRECORD
  5
195
102
{ACAD_REACTORS
330
194
102
}
330
194
100
AcDbXrecord
280
     1
102
RTVSPropertyOp0
 70
     1
102
RTVSPropertyOp1
 70
     1
102
RTVSPropertyOp2
 70
     1
102
RTVSPropertyOp3
 70
     1
102
RTVSPropertyOp4
 70
     1
102
RTVSPropertyOp5
 70
     1
102
RTVSPropertyOp6
 70
     1
102
RTVSPropertyOp7
 70
     1
102
RTVSPropertyOp8
 70
     1
102
RTVSPropertyOp9
 70
     1
102
RTVSPropertyOp10
 70
     1
102
RTVSPropertyOp11
 70
     1
102
RTVSPropertyOp12
 70
     1
102
RTVSPropertyOp13
 70
     1
102
RTVSPropertyOp14
 70
     1
102
RTVSPropertyOp15
 70
     1
102
RTVSPropertyOp16
 70
     1
102
RTVSPropertyOp17
 70
     1
102
RTVSPropertyOp18
 70
     1
102
RTVSPropertyOp19
 70
     1
102
RTVSPropertyOp20
 70
     1
102
RTVSPropertyOp21
 70
     1
102
RTVSPropertyOp22
 70
     1
102
RTVSPropertyOp23
 70
     1
102
RTVSPropertyOp24
 70
     1
102
RTVSPropertyOp25
 70
     1
102
RTVSPropertyOp26
 70
     1
102
RTVSPropertyOp27
 70
     1
102
RTVSPropertyOp28
 70
     1
102
RTVSPropertyOp29
 70
     1
102
RTVSPropertyOp30
 70
     1
102
RTVSPropertyOp31
 70
     1
102
RTVSPropertyOp32
 70
     1
  0
XRECORD
  5
197
102
{ACAD_REACTORS
330
196
102
}
330
196
100
AcDbXrecord
280
     1
102
RTVSPropertyOp0
 70
     1
102
RTVSPropertyOp1
 70
     1
102
RTVSPropertyOp2
 70
     1
102
RTVSPropertyOp3
 70
     1
102
RTVSPropertyOp4
 70
     1
102
RTVSPropertyOp5
 70
     1
102
RTVSPropertyOp6
 70
     1
102
RTVSPropertyOp7
 70
     1
102
RTVSPropertyOp8
 70
     1
102
RTVSPropertyOp9
 70
     1
102
RTVSPropertyOp10
 70
     1
102
RTVSPropertyOp11
 70
     1
102
RTVSPropertyOp12
 70
     1
102
RTVSPropertyOp13
 70
     1
102
RTVSPropertyOp14
 70
     1
102
RTVSPropertyOp15
 70
     1
102
RTVSPropertyOp16
 70
     1
102
RTVSPropertyOp17
 70
     1
102
RTVSPropertyOp18
 70
     1
102
RTVSPropertyOp19
 70
     1
102
RTVSPropertyOp20
 70
     1
102
RTVSPropertyOp21
 70
     1
102
RTVSPropertyOp22
 70
     1
102
RTVSPropertyOp23
 70
     1
102
RTVSPropertyOp24
 70
     1
102
RTVSPropertyOp25
 70
     1
102
RTVSPropertyOp26
 70
     1
102
RTVSPropertyOp27
 70
     1
102
RTVSPropertyOp28
 70
     1
102
RTVSPropertyOp29
 70
     1
102
RTVSPropertyOp30
 70
     1
102
RTVSPropertyOp31
 70
     1
102
RTVSPropertyOp32
 70
     1
  0
XRECORD
  5
199
102
{ACAD_REACTORS
330
198
102
}
330
198
100
AcDbXrecord
280
     1
102
RTVSPropertyOp0
 70
     1
102
RTVSPropertyOp1
 70
     1
102
RTVSPropertyOp2
 70
     1
102
RTVSPropertyOp3
 70
     1
102
RTVSPropertyOp4
 70
     1
102
RTVSPropertyOp5
 70
     1
102
RTVSPropertyOp6
 70
     1
102
RTVSPropertyOp7
 70
     1
102
RTVSPropertyOp8
 70
     1
102
RTVSPropertyOp9
 70
     1
102
RTVSPropertyOp10
 70
     1
102
RTVSPropertyOp11
 70
     1
102
RTVSPropertyOp12
 70
     1
102
RTVSPropertyOp13
 70
     1
102
RTVSPropertyOp14
 70
     1
102
RTVSPropertyOp15
 70
     1
102
RTVSPropertyOp16
 70
     1
102
RTVSPropertyOp17
 70
     1
102
RTVSPropertyOp18
 70
     1
102
RTVSPropertyOp19
 70
     1
102
RTVSPropertyOp20
 70
     1
102
RTVSPropertyOp21
 70
     1
102
RTVSPropertyOp22
 70
     1
102
RTVSPropertyOp23
 70
     1
102
RTVSPropertyOp24
 70
     1
102
RTVSPropertyOp25
 70
     1
102
RTVSPropertyOp26
 70
     1
102
RTVSPropertyOp27
 70
     1
102
RTVSPropertyOp28
 70
     1
102
RTVSPropertyOp29
 70
     1
102
RTVSPropertyOp30
 70
     1
102
RTVSPropertyOp31
 70
     1
102
RTVSPropertyOp32
 70
     1
  0
XRECORD
  5
19B
102
{ACAD_REACTORS
330
19A
102
}
330
19A
100
AcDbXrecord
280
     1
102
RTVSPropertyOp0
 70
     1
102
RTVSPropertyOp1
 70
     1
102
RTVSPropertyOp2
 70
     1
102
RTVSPropertyOp3
 70
     1
102
RTVSPropertyOp4
 70
     1
102
RTVSPropertyOp5
 70
     1
102
RTVSPropertyOp6
 70
     1
102
RTVSPropertyOp7
 70
     1
102
RTVSPropertyOp8
 70
     1
102
RTVSPropertyOp9
 70
     1
102
RTVSPropertyOp10
 70
     1
102
RTVSPropertyOp11
 70
     1
102
RTVSPropertyOp12
 70
     1
102
RTVSPropertyOp13
 70
     1
102
RTVSPropertyOp14
 70
     1
102
RTVSPropertyOp15
 70
     1
102
RTVSPropertyOp16
 70
     1
102
RTVSPropertyOp17
 70
     1
102
RTVSPropertyOp18
 70
     1
102
RTVSPropertyOp19
 70
     1
102
RTVSPropertyOp20
 70
     1
102
RTVSPropertyOp21
 70
     1
102
RTVSPropertyOp22
 70
     1
102
RTVSPropertyOp23
 70
     1
102
RTVSPropertyOp24
 70
     1
102
RTVSPropertyOp25
 70
     1
102
RTVSPropertyOp26
 70
     1
102
RTVSPropertyOp27
 70
     1
102
RTVSPropertyOp28
 70
     1
102
RTVSPropertyOp29
 70
     1
102
RTVSPropertyOp30
 70
     1
102
RTVSPropertyOp31
 70
     1
102
RTVSPropertyOp32
 70
     1
  0
XRECORD
  5
1AF
102
{ACAD_REACTORS
330
1AE
102
}
330
1AE
100
AcDbXrecord
280
     1
102
RTVSPropertyOp0
 70
     1
102
RTVSPropertyOp1
 70
     1
102
RTVSPropertyOp2
 70
     1
102
RTVSPropertyOp3
 70
     1
102
RTVSPropertyOp4
 70
     1
102
RTVSPropertyOp5
 70
     1
102
RTVSPropertyOp6
 70
     1
102
RTVSPropertyOp7
 70
     1
102
RTVSPropertyOp8
 70
     1
102
RTVSPropertyOp9
 70
     1
102
RTVSPropertyOp10
 70
     1
102
RTVSPropertyOp11
 70
     1
102
RTVSPropertyOp12
 70
     1
102
RTVSPropertyOp13
 70
     1
102
RTVSPropertyOp14
 70
     1
102
RTVSPropertyOp15
 70
     1
102
RTVSPropertyOp16
 70
     1
102
RTVSPropertyOp17
 70
     1
102
RTVSPropertyOp18
 70
     1
102
RTVSPropertyOp19
 70
     1
102
RTVSPropertyOp20
 70
     1
102
RTVSPropertyOp21
 70
     1
102
RTVSPropertyOp22
 70
     1
102
RTVSPropertyOp23
 70
     1
102
RTVSPropertyOp24
 70
     1
102
RTVSPropertyOp25
 70
     1
102
RTVSPropertyOp26
 70
     1
102
RTVSPropertyOp27
 70
     1
102
RTVSPropertyOp28
 70
     1
102
RTVSPropertyOp29
 70
     1
102
RTVSPropertyOp30
 70
     1
102
RTVSPropertyOp31
 70
     1
102
RTVSPropertyOp32
 70
     1
  0
XRECORD
  5
1A5
102
{ACAD_REACTORS
330
1A4
102
}
330
1A4
100
AcDbXrecord
280
     1
102
RTVSPropertyOp0
 70
     1
102
RTVSPropertyOp1
 70
     1
102
RTVSPropertyOp2
 70
     1
102
RTVSPropertyOp3
 70
     1
102
RTVSPropertyOp4
 70
     1
102
RTVSPropertyOp5
 70
     1
102
RTVSPropertyOp6
 70
     1
102
RTVSPropertyOp7
 70
     1
102
RTVSPropertyOp8
 70
     1
102
RTVSPropertyOp9
 70
     1
102
RTVSPropertyOp10
 70
     1
102
RTVSPropertyOp11
 70
     1
102
RTVSPropertyOp12
 70
     1
102
RTVSPropertyOp13
 70
     1
102
RTVSPropertyOp14
 70
     1
102
RTVSPropertyOp15
 70
     1
102
RTVSPropertyOp16
 70
     1
102
RTVSPropertyOp17
 70
     1
102
RTVSPropertyOp18
 70
     1
102
RTVSPropertyOp19
 70
     1
102
RTVSPropertyOp20
 70
     1
102
RTVSPropertyOp21
 70
     1
102
RTVSPropertyOp22
 70
     1
102
RTVSPropertyOp23
 70
     1
102
RTVSPropertyOp24
 70
     1
102
RTVSPropertyOp25
 70
     1
102
RTVSPropertyOp26
 70
     1
102
RTVSPropertyOp27
 70
     1
102
RTVSPropertyOp28
 70
     1
102
RTVSPropertyOp29
 70
     1
102
RTVSPropertyOp30
 70
     1
102
RTVSPropertyOp31
 70
     1
102
RTVSPropertyOp32
 70
     1
  0
XRECORD
  5
1AD
102
{ACAD_REACTORS
330
1AC
102
}
330
1AC
100
AcDbXrecord
280
     1
102
RTVSPropertyOp0
 70
     1
102
RTVSPropertyOp1
 70
     1
102
RTVSPropertyOp2
 70
     1
102
RTVSPropertyOp3
 70
     1
102
RTVSPropertyOp4
 70
     1
102
RTVSPropertyOp5
 70
     1
102
RTVSPropertyOp6
 70
     1
102
RTVSPropertyOp7
 70
     1
102
RTVSPropertyOp8
 70
     1
102
RTVSPropertyOp9
 70
     1
102
RTVSPropertyOp10
 70
     1
102
RTVSPropertyOp11
 70
     1
102
RTVSPropertyOp12
 70
     1
102
RTVSPropertyOp13
 70
     1
102
RTVSPropertyOp14
 70
     1
102
RTVSPropertyOp15
 70
     1
102
RTVSPropertyOp16
 70
     1
102
RTVSPropertyOp17
 70
     1
102
RTVSPropertyOp18
 70
     1
102
RTVSPropertyOp19
 70
     1
102
RTVSPropertyOp20
 70
     1
102
RTVSPropertyOp21
 70
     1
102
RTVSPropertyOp22
 70
     1
102
RTVSPropertyOp23
 70
     1
102
RTVSPropertyOp24
 70
     1
102
RTVSPropertyOp25
 70
     1
102
RTVSPropertyOp26
 70
     1
102
RTVSPropertyOp27
 70
     1
102
RTVSPropertyOp28
 70
     1
102
RTVSPropertyOp29
 70
     1
102
RTVSPropertyOp30
 70
     1
102
RTVSPropertyOp31
 70
     1
102
RTVSPropertyOp32
 70
     1
  0
ENDSEC
  0
EOF
