  0
SECTION
  2
HEADER
  9
$ACADVER
  1
AC1015
  9
$ACADMAINTVER
 70
     6
  9
$DWGCODEPAGE
  3
ANSI_932
  9
$INSBASE
 10
0.0
 20
0.0
 30
0.0
  9
$EXTMIN
 10
0.0
 20
0.0
 30
0.0
  9
$EXTMAX
 10
525.0000000000001
 20
742.5000000000001
 30
0.0
  9
$LIMMIN
 10
0.0
 20
0.0
  9
$LIMMAX
 10
12.0
 20
9.0
  9
$ORTHOMODE
 70
     0
  9
$REGENMODE
 70
     1
  9
$FILLMODE
 70
     1
  9
$QTEXTMODE
 70
     0
  9
$MIRRTEXT
 70
     1
  9
$LTSCALE
 40
1.0
  9
$ATTMODE
 70
     1
  9
$TEXTSIZE
 40
0.2
  9
$TRACEWID
 40
0.05
  9
$TEXTSTYLE
  7
Standard
  9
$CLAYER
  8
0
  9
$CELTYPE
  6
ByLayer
  9
$CECOLOR
 62
   256
  9
$CELTSCALE
 40
1.0
  9
$DISPSILH
 70
     0
  9
$DIMSCALE
 40
1.0
  9
$DIMASZ
 40
0.18
  9
$DIMEXO
 40
0.0625
  9
$DIMDLI
 40
0.38
  9
$DIMRND
 40
0.0
  9
$DIMDLE
 40
0.0
  9
$DIMEXE
 40
0.18
  9
$DIMTP
 40
0.0
  9
$DIMTM
 40
0.0
  9
$DIMTXT
 40
0.18
  9
$DIMCEN
 40
0.09
  9
$DIMTSZ
 40
0.0
  9
$DIMTOL
 70
     0
  9
$DIMLIM
 70
     0
  9
$DIMTIH
 70
     1
  9
$DIMTOH
 70
     1
  9
$DIMSE1
 70
     0
  9
$DIMSE2
 70
     0
  9
$DIMTAD
 70
     0
  9
$DIMZIN
 70
     0
  9
$DIMBLK
  1

  9
$DIMASO
 70
     1
  9
$DIMSHO
 70
     1
  9
$DIMPOST
  1

  9
$DIMAPOST
  1

  9
$DIMALT
 70
     0
  9
$DIMALTD
 70
     2
  9
$DIMALTF
 40
25.4
  9
$DIMLFAC
 40
1.0
  9
$DIMTOFL
 70
     0
  9
$DIMTVP
 40
0.0
  9
$DIMTIX
 70
     0
  9
$DIMSOXD
 70
     0
  9
$DIMSAH
 70
     0
  9
$DIMBLK1
  1

  9
$DIMBLK2
  1

  9
$DIMSTYLE
  2
Standard
  9
$DIMCLRD
 70
     0
  9
$DIMCLRE
 70
     0
  9
$DIMCLRT
 70
     0
  9
$DIMTFAC
 40
1.0
  9
$DIMGAP
 40
0.09
  9
$DIMJUST
 70
     0
  9
$DIMSD1
 70
     0
  9
$DIMSD2
 70
     0
  9
$DIMTOLJ
 70
     1
  9
$DIMTZIN
 70
     0
  9
$DIMALTZ
 70
     0
  9
$DIMALTTZ
 70
     0
  9
$DIMUPT
 70
     0
  9
$DIMDEC
 70
     4
  9
$DIMTDEC
 70
     4
  9
$DIMALTU
 70
     2
  9
$DIMALTTD
 70
     2
  9
$DIMTXSTY
  7
Standard
  9
$DIMAUNIT
 70
     0
  9
$DIMADEC
 70
     0
  9
$DIMALTRND
 40
0.0
  9
$DIMAZIN
 70
     0
  9
$DIMDSEP
 70
    46
  9
$DIMATFIT
 70
     3
  9
$DIMFRAC
 70
     0
  9
$DIMLDRBLK
  1

  9
$DIMLUNIT
 70
     2
  9
$DIMLWD
 70
    -2
  9
$DIMLWE
 70
    -2
  9
$DIMTMOVE
 70
     0
  9
$LUNITS
 70
     2
  9
$LUPREC
 70
     4
  9
$SKETCHINC
 40
0.1
  9
$FILLETRAD
 40
0.5
  9
$AUNITS
 70
     0
  9
$AUPREC
 70
     0
  9
$MENU
  1
.
  9
$ELEVATION
 40
0.0
  9
$PELEVATION
 40
0.0
  9
$THICKNESS
 40
0.0
  9
$LIMCHECK
 70
     0
  9
$CHAMFERA
 40
0.5
  9
$CHAMFERB
 40
0.5
  9
$CHAMFERC
 40
1.0
  9
$CHAMFERD
 40
0.0
  9
$SKPOLY
 70
     0
  9
$TDCREATE
 40
2459640.700105452
  9
$TDUCREATE
 40
2459640.325105452
  9
$TDUPDATE
 40
2459640.700107616
  9
$TDUUPDATE
 40
2459640.325107616
  9
$TDINDWG
 40
0.0000000116
  9
$TDUSRTIMER
 40
0.0000000116
  9
$USRTIMER
 70
     1
  9
$ANGBASE
 50
0.0
  9
$ANGDIR
 70
     0
  9
$PDMODE
 70
     0
  9
$PDSIZE
 40
0.0
  9
$PLINEWID
 40
0.0
  9
$SPLFRAME
 70
     0
  9
$SPLINETYPE
 70
     6
  9
$SPLINESEGS
 70
     8
  9
$HANDSEED
  5
16E
  9
$SURFTAB1
 70
     6
  9
$SURFTAB2
 70
     6
  9
$SURFTYPE
 70
     6
  9
$SURFU
 70
     6
  9
$SURFV
 70
     6
  9
$UCSBASE
  2

  9
$UCSNAME
  2

  9
$UCSORG
 10
0.0
 20
0.0
 30
0.0
  9
$UCSXDIR
 10
1.0
 20
0.0
 30
0.0
  9
$UCSYDIR
 10
0.0
 20
1.0
 30
0.0
  9
$UCSORTHOREF
  2

  9
$UCSORTHOVIEW
 70
     0
  9
$UCSORGTOP
 10
0.0
 20
0.0
 30
0.0
  9
$UCSORGBOTTOM
 10
0.0
 20
0.0
 30
0.0
  9
$UCSORGLEFT
 10
0.0
 20
0.0
 30
0.0
  9
$UCSORGRIGHT
 10
0.0
 20
0.0
 30
0.0
  9
$UCSORGFRONT
 10
0.0
 20
0.0
 30
0.0
  9
$UCSORGBACK
 10
0.0
 20
0.0
 30
0.0
  9
$PUCSBASE
  2

  9
$PUCSNAME
  2

  9
$PUCSORG
 10
0.0
 20
0.0
 30
0.0
  9
$PUCSXDIR
 10
1.0
 20
0.0
 30
0.0
  9
$PUCSYDIR
 10
0.0
 20
1.0
 30
0.0
  9
$PUCSORTHOREF
  2

  9
$PUCSORTHOVIEW
 70
     0
  9
$PUCSORGTOP
 10
0.0
 20
0.0
 30
0.0
  9
$PUCSORGBOTTOM
 10
0.0
 20
0.0
 30
0.0
  9
$PUCSORGLEFT
 10
0.0
 20
0.0
 30
0.0
  9
$PUCSORGRIGHT
 10
0.0
 20
0.0
 30
0.0
  9
$PUCSORGFRONT
 10
0.0
 20
0.0
 30
0.0
  9
$PUCSORGBACK
 10
0.0
 20
0.0
 30
0.0
  9
$USERI1
 70
     0
  9
$USERI2
 70
     0
  9
$USERI3
 70
     0
  9
$USERI4
 70
     0
  9
$USERI5
 70
     0
  9
$USERR1
 40
18.1
  9
$USERR2
 40
0.0
  9
$USERR3
 40
0.0
  9
$USERR4
 40
0.0
  9
$USERR5
 40
0.0
  9
$WORLDVIEW
 70
     1
  9
$SHADEDGE
 70
     3
  9
$SHADEDIF
 70
    70
  9
$TILEMODE
 70
     1
  9
$MAXACTVP
 70
    64
  9
$PINSBASE
 10
0.0
 20
0.0
 30
0.0
  9
$PLIMCHECK
 70
     0
  9
$PEXTMIN
 10
1.00000000000000E+20
 20
1.00000000000000E+20
 30
1.00000000000000E+20
  9
$PEXTMAX
 10
-1.00000000000000E+20
 20
-1.00000000000000E+20
 30
-1.00000000000000E+20
  9
$PLIMMIN
 10
0.0
 20
0.0
  9
$PLIMMAX
 10
12.0
 20
9.0
  9
$UNITMODE
 70
     0
  9
$VISRETAIN
 70
     1
  9
$PLINEGEN
 70
     0
  9
$PSLTSCALE
 70
     1
  9
$TREEDEPTH
 70
  3020
  9
$CMLSTYLE
  2
Standard
  9
$CMLJUST
 70
     0
  9
$CMLSCALE
 40
1.0
  9
$PROXYGRAPHICS
 70
     1
  9
$MEASUREMENT
 70
     1
  9
$CELWEIGHT
370
    -1
  9
$ENDCAPS
280
     0
  9
$JOINSTYLE
280
     0
  9
$LWDISPLAY
290
     0
  9
$INSUNITS
 70
     4
  9
$HYPERLINKBASE
  1

  9
$STYLESHEET
  1

  9
$XEDIT
290
     1
  9
$CEPSNTYPE
380
     0
  9
$PSTYLEMODE
290
     1
  9
$FINGERPRINTGUID
  2
{EA57D83D-90C1-4498-8100-A4456B20F24D}
  9
$VERSIONGUID
  2
{FAEB1C32-E019-11D5-929B-00C0DF256EC4}
  9
$EXTNAMES
290
     1
  9
$PSVPSCALE
 40
0.0
  9
$OLESTARTUP
290
     0
  0
ENDSEC
  0
SECTION
  2
CLASSES
  0
CLASS
  1
ACDBDICTIONARYWDFLT
  2
AcDbDictionaryWithDefault
  3
ObjectDBX Classes
 90
        0
280
     0
281
     0
  0
CLASS
  1
VISUALSTYLE
  2
AcDbVisualStyle
  3
ObjectDBX Classes
 90
     4095
280
     0
281
     0
  0
CLASS
  1
MATERIAL
  2
AcDbMaterial
  3
ObjectDBX Classes
 90
     1153
280
     0
281
     0
  0
CLASS
  1
DICTIONARYVAR
  2
AcDbDictionaryVar
  3
ObjectDBX Classes
 90
        0
280
     0
281
     0
  0
CLASS
  1
ACDBPLACEHOLDER
  2
AcDbPlaceHolder
  3
ObjectDBX Classes
 90
        0
280
     0
281
     0
  0
CLASS
  1
LAYOUT
  2
AcDbLayout
  3
ObjectDBX Classes
 90
        0
280
     0
281
     0
  0
ENDSEC
  0
SECTION
  2
TABLES
  0
TABLE
  2
VPORT
  5
8
330
0
100
AcDbSymbolTable
 70
     1
  0
VPORT
  5
29
330
8
100
AcDbSymbolTableRecord
100
AcDbViewportTableRecord
  2
*Active
 70
     0
 10
0.0
 20
0.0
 11
1.0
 21
1.0
 12
262.5000000000001
 22
371.2500000000001
 13
0.0
 23
0.0
 14
0.5
 24
0.5
 15
0.5
 25
0.5
 16
0.0
 26
0.0
 36
1.0
 17
0.0
 27
0.0
 37
0.0
 40
816.7500000000002
 41
1.60267857142857
 42
50.0
 43
0.0
 44
0.0
 50
0.0
 51
0.0
 71
     0
 72
   100
 73
     1
 74
     3
 75
     0
 76
     0
 77
     0
 78
     0
281
     0
 65
     1
110
0.0
120
0.0
130
0.0
111
1.0
121
0.0
131
0.0
112
0.0
122
1.0
132
0.0
 79
     0
146
0.0
  0
ENDTAB
  0
TABLE
  2
LTYPE
  5
5
330
0
100
AcDbSymbolTable
 70
     8
  0
LTYPE
  5
14
330
5
100
AcDbSymbolTableRecord
100
AcDbLinetypeTableRecord
  2
ByBlock
 70
     0
  3

 72
    65
 73
     0
 40
0.0
  0
LTYPE
  5
15
330
5
100
AcDbSymbolTableRecord
100
AcDbLinetypeTableRecord
  2
ByLayer
 70
     0
  3

 72
    65
 73
     0
 40
0.0
  0
LTYPE
  5
16
330
5
100
AcDbSymbolTableRecord
100
AcDbLinetypeTableRecord
  2
Continuous
 70
     0
  3
Solid line
 72
    65
 73
     0
 40
0.0
  0
LTYPE
  5
3F
330
5
100
AcDbSymbolTableRecord
100
AcDbLinetypeTableRecord
  2
DASHED
 70
     0
  3
Dashed
 72
    65
 73
     2
 40
15.0
 49
7.0
 74
     0
 49
-8.0
 74
     0
  0
LTYPE
  5
40
330
5
100
AcDbSymbolTableRecord
100
AcDbLinetypeTableRecord
  2
DOTTED
 70
     0
  3
Dotted
 72
    65
 73
     2
 40
1.0
 49
0.0
 74
     0
 49
-1.0
 74
     0
  0
LTYPE
  5
41
330
5
100
AcDbSymbolTableRecord
100
AcDbLinetypeTableRecord
  2
DOT_CENTER
 70
     0
  3
Dot_Center
 72
    65
 73
     4
 40
14.0
 49
12.0
 74
     0
 49
-1.0
 74
     0
 49
0.0
 74
     0
 49
-1.0
 74
     0
  0
LTYPE
  5
42
330
5
100
AcDbSymbolTableRecord
100
AcDbLinetypeTableRecord
  2
LONG_DASHED
 70
     0
  3
Long_Dashed
 72
    65
 73
     2
 40
15.0
 49
10.0
 74
     0
 49
-5.0
 74
     0
  0
LTYPE
  5
43
330
5
100
AcDbSymbolTableRecord
100
AcDbLinetypeTableRecord
  2
DASH_CENTER
 70
     0
  3
Dash_Center
 72
    65
 73
     4
 40
14.0
 49
11.0
 74
     0
 49
-1.0
 74
     0
 49
1.0
 74
     0
 49
-1.0
 74
     0
  0
LTYPE
  5
44
330
5
100
AcDbSymbolTableRecord
100
AcDbLinetypeTableRecord
  2
PHANTOM
 70
     0
  3
Phantom
 72
    65
 73
     6
 40
13.0
 49
10.0
 74
     0
 49
-1.0
 74
     0
 49
0.0
 74
     0
 49
-1.0
 74
     0
 49
0.0
 74
     0
 49
-1.0
 74
     0
  0
LTYPE
  5
45
330
5
100
AcDbSymbolTableRecord
100
AcDbLinetypeTableRecord
  2
CENTER_DASH_DASH
 70
     0
  3
Center_Dash_Dash
 72
    65
 73
     6
 40
14.0
 49
9.0
 74
     0
 49
-1.0
 74
     0
 49
1.0
 74
     0
 49
-1.0
 74
     0
 49
1.0
 74
     0
 49
-1.0
 74
     0
  0
ENDTAB
  0
TABLE
  2
LAYER
  5
2
330
0
100
AcDbSymbolTable
 70
     3
  0
LAYER
  5
10
330
2
100
AcDbSymbolTableRecord
100
AcDbLayerTableRecord
  2
0
 70
     0
 62
     7
  6
Continuous
370
    -3
390
F
  0
LAYER
  5
46
330
2
100
AcDbSymbolTableRecord
100
AcDbLayerTableRecord
  2
1
 70
     0
 62
     7
  6
Continuous
370
    -3
390
F
  0
LAYER
  5
47
330
2
100
AcDbSymbolTableRecord
100
AcDbLayerTableRecord
  2
_U_30EC_U_30A4_U_30E4_U_30FC_1
 70
     0
 62
     7
  6
Continuous
370
    -3
390
F
  0
ENDTAB
  0
TABLE
  2
STYLE
  5
3
330
0
100
AcDbSymbolTable
 70
     3
  0
STYLE
  5
11
330
3
100
AcDbSymbolTableRecord
100
AcDbTextStyleTableRecord
  2
Standard
 70
     0
 40
0.0
 41
1.0
 50
0.0
 71
     0
 42
0.2
  3
txt
  4

  0
STYLE
  5
B2
330
3
100
AcDbSymbolTableRecord
100
AcDbTextStyleTableRecord
  2
CONVERTER_11
 70
     0
 40
0.0
 41
0.89
 50
0.0
 71
     0
 42
0.2
  3
MS Mincho.ttf
  4

1001
ACAD
1000
MS Mincho
1071
    32785
  0
STYLE
  5
FC
330
3
100
AcDbSymbolTableRecord
100
AcDbTextStyleTableRecord
  2
CONVERTER_12
 70
     0
 40
0.0
 41
0.9
 50
0.0
 71
     0
 42
0.2
  3
txt.shx
  4

  0
ENDTAB
  0
TABLE
  2
VIEW
  5
6
330
0
100
AcDbSymbolTable
 70
     0
  0
ENDTAB
  0
TABLE
  2
UCS
  5
7
330
0
100
AcDbSymbolTable
 70
     0
  0
ENDTAB
  0
TABLE
  2
APPID
  5
9
330
0
100
AcDbSymbolTable
 70
     1
  0
APPID
  5
12
330
9
100
AcDbSymbolTableRecord
100
AcDbRegAppTableRecord
  2
ACAD
 70
     0
  0
ENDTAB
  0
TABLE
  2
DIMSTYLE
  5
A
330
0
100
AcDbSymbolTable
 70
     4
100
AcDbDimStyleTable
  0
DIMSTYLE
105
27
330
A
100
AcDbSymbolTableRecord
100
AcDbDimStyleTableRecord
  2
Standard
 70
     0
178
     0
340
11
  0
DIMSTYLE
105
124
102
{ACAD_REACTORS
330
125
102
}
330
A
100
AcDbSymbolTableRecord
100
AcDbDimStyleTableRecord
  2
ME10_DIM_10
 70
     0
 41
7.5
 42
0.0
 44
5.0
 73
     0
 74
     0
 77
     1
 78
     8
140
7.5
147
5.0
172
     1
173
     1
174
     1
175
     1
176
     2
177
     2
271
     2
178
     7
271
     2
340
FC
  0
DIMSTYLE
105
12F
102
{ACAD_REACTORS
330
130
102
}
330
A
100
AcDbSymbolTableRecord
100
AcDbDimStyleTableRecord
  2
ME10_DIM_11
 70
     0
 41
7.5
 42
0.0
 44
5.0
 73
     0
 74
     0
 77
     1
 78
     8
140
7.5
147
5.0
172
     1
173
     1
174
     1
175
     1
176
     2
177
     2
271
     2
178
     7
271
     2
340
FC
  0
DIMSTYLE
105
13A
102
{ACAD_REACTORS
330
13B
102
}
330
A
100
AcDbSymbolTableRecord
100
AcDbDimStyleTableRecord
  2
ME10_DIM_12
 70
     0
  3
{\Fgdt;n}<>
 41
7.5
 42
0.0
 44
5.0
 73
     0
 74
     0
 77
     1
 78
     8
140
7.5
147
5.0
172
     1
173
     1
174
     1
175
     1
176
     2
177
     2
271
     2
178
     7
271
     2
340
FC
  0
ENDTAB
  0
TABLE
  2
BLOCK_RECORD
  5
1
330
0
100
AcDbSymbolTable
 70
     7
  0
BLOCK_RECORD
  5
1F
330
1
100
AcDbSymbolTableRecord
100
AcDbBlockTableRecord
  2
*Model_Space
340
22
  0
BLOCK_RECORD
  5
1B
330
1
100
AcDbSymbolTableRecord
100
AcDbBlockTableRecord
  2
*Paper_Space
340
1E
  0
BLOCK_RECORD
  5
23
330
1
100
AcDbSymbolTableRecord
100
AcDbBlockTableRecord
  2
*Paper_Space0
340
26
  0
BLOCK_RECORD
  5
48
330
1
100
AcDbSymbolTableRecord
100
AcDbBlockTableRecord
  2
開示A4
340
0
102
{BLKREFS
331
4C
102
}
  0
BLOCK_RECORD
  5
4B
330
1
100
AcDbSymbolTableRecord
100
AcDbBlockTableRecord
  2
開示A4枠
340
0
102
{BLKREFS
331
4F
102
}
  0
BLOCK_RECORD
  5
11B
330
1
100
AcDbSymbolTableRecord
100
AcDbBlockTableRecord
  2
*D3
340
0
  0
BLOCK_RECORD
  5
126
330
1
100
AcDbSymbolTableRecord
100
AcDbBlockTableRecord
  2
*D4
340
0
  0
BLOCK_RECORD
  5
131
330
1
100
AcDbSymbolTableRecord
100
AcDbBlockTableRecord
  2
*D5
340
0
  0
BLOCK_RECORD
  5
13C
330
1
100
AcDbSymbolTableRecord
100
AcDbBlockTableRecord
  2
*D6
340
0
102
{BLKREFS
331
142
102
}
  0
ENDTAB
  0
ENDSEC
  0
SECTION
  2
BLOCKS
  0
BLOCK
  5
20
330
1F
100
AcDbEntity
  8
0
100
AcDbBlockBegin
  2
*Model_Space
 70
     0
 10
0.0
 20
0.0
 30
0.0
  3
*Model_Space
  1

  0
ENDBLK
  5
21
330
1F
100
AcDbEntity
  8
0
100
AcDbBlockEnd
  0
BLOCK
  5
1C
330
1B
100
AcDbEntity
 67
     1
  8
0
100
AcDbBlockBegin
  2
*Paper_Space
 70
     0
 10
0.0
 20
0.0
 30
0.0
  3
*Paper_Space
  1

  0
ENDBLK
  5
1D
330
1B
100
AcDbEntity
 67
     1
  8
0
100
AcDbBlockEnd
  0
BLOCK
  5
24
330
23
100
AcDbEntity
  8
0
100
AcDbBlockBegin
  2
*Paper_Space0
 70
     0
 10
0.0
 20
0.0
 30
0.0
  3
*Paper_Space0
  1

  0
ENDBLK
  5
25
330
23
100
AcDbEntity
  8
0
100
AcDbBlockEnd
  0
BLOCK
  5
49
330
48
100
AcDbEntity
  8
0
100
AcDbBlockBegin
  2
開示A4
 70
     0
 10
0.0
 20
0.0
 30
0.0
  3
開示A4
  1

  0
POINT
  5
50
330
48
100
AcDbEntity
  8
1
 62
     4
100
AcDbPoint
 10
33.99999999999999
 20
34.00000000000001
 30
0.0
  0
POINT
  5
51
330
48
100
AcDbEntity
  8
1
 62
     4
100
AcDbPoint
 10
56.99999999999999
 20
12.25000000000001
 30
0.0
  0
POINT
  5
52
330
48
100
AcDbEntity
  8
1
 62
     4
100
AcDbPoint
 10
56.99999999999999
 20
20.75000000000001
 30
0.0
  0
POINT
  5
53
330
48
100
AcDbEntity
  8
1
 62
     4
100
AcDbPoint
 10
56.99999999999999
 20
24.75000000000001
 30
0.0
  0
POINT
  5
54
330
48
100
AcDbEntity
  8
1
 62
     4
100
AcDbPoint
 10
56.99999999999999
 20
16.25000000000001
 30
0.0
  0
POINT
  5
55
330
48
100
AcDbEntity
  8
1
 62
     4
100
AcDbPoint
 10
157.5000000000001
 20
19.00000000000001
 30
0.0
  0
POINT
  5
56
330
48
100
AcDbEntity
  8
1
 62
     4
100
AcDbPoint
 10
47.49999999999999
 20
282.0000000000002
 30
0.0
  0
POINT
  5
57
330
48
100
AcDbEntity
  8
1
 62
     4
100
AcDbPoint
 10
56.99999999999999
 20
22.75000000000001
 30
0.0
  0
POINT
  5
58
330
48
100
AcDbEntity
  8
1
 62
     4
100
AcDbPoint
 10
56.99999999999999
 20
14.25000000000001
 30
0.0
  0
POINT
  5
59
330
48
100
AcDbEntity
  8
1
 62
     4
100
AcDbPoint
 10
157.5000000000001
 20
12.50000000000001
 30
0.0
  0
POINT
  5
5A
330
48
100
AcDbEntity
  8
1
 62
     4
100
AcDbPoint
 10
163.2500000000001
 20
12.50000000000001
 30
0.0
  0
POINT
  5
5B
330
48
100
AcDbEntity
  8
1
 62
     4
100
AcDbPoint
 10
151.7500000000001
 20
12.50000000000001
 30
0.0
  0
POINT
  5
5C
330
48
100
AcDbEntity
  8
1
 62
     4
100
AcDbPoint
 10
134.7500000000001
 20
12.50000000000001
 30
0.0
  0
POINT
  5
5D
330
48
100
AcDbEntity
  8
1
 62
     4
100
AcDbPoint
 10
146.2500000000001
 20
12.50000000000001
 30
0.0
  0
POINT
  5
5E
330
48
100
AcDbEntity
  8
1
 62
     4
100
AcDbPoint
 10
140.5000000000001
 20
12.50000000000001
 30
0.0
  0
POINT
  5
5F
330
48
100
AcDbEntity
  8
1
 62
     4
100
AcDbPoint
 10
140.5000000000001
 20
19.00000000000001
 30
0.0
  0
POINT
  5
60
330
48
100
AcDbEntity
  8
1
 62
     4
100
AcDbPoint
 10
117.75
 20
12.50000000000001
 30
0.0
  0
POINT
  5
61
330
48
100
AcDbEntity
  8
1
 62
     4
100
AcDbPoint
 10
129.2500000000001
 20
12.50000000000001
 30
0.0
  0
POINT
  5
62
330
48
100
AcDbEntity
  8
1
 62
     4
100
AcDbPoint
 10
123.5
 20
12.50000000000001
 30
0.0
  0
POINT
  5
63
330
48
100
AcDbEntity
  8
1
 62
     4
100
AcDbPoint
 10
123.5
 20
19.00000000000001
 30
0.0
  0
POINT
  5
64
330
48
100
AcDbEntity
  8
1
 62
     4
100
AcDbPoint
 10
100.75
 20
12.50000000000001
 30
0.0
  0
POINT
  5
65
330
48
100
AcDbEntity
  8
1
 62
     4
100
AcDbPoint
 10
112.25
 20
12.50000000000001
 30
0.0
  0
POINT
  5
66
330
48
100
AcDbEntity
  8
1
 62
     4
100
AcDbPoint
 10
106.5
 20
12.50000000000001
 30
0.0
  0
POINT
  5
67
330
48
100
AcDbEntity
  8
1
 62
     4
100
AcDbPoint
 10
106.5
 20
19.00000000000001
 30
0.0
  0
POINT
  5
68
330
48
100
AcDbEntity
  8
1
 62
     4
100
AcDbPoint
 10
85.25
 20
17.00000000000001
 30
0.0
  0
POINT
  5
69
330
48
100
AcDbEntity
  8
1
 62
     4
100
AcDbPoint
 10
93.75
 20
17.00000000000001
 30
0.0
  0
POINT
  5
6A
330
48
100
AcDbEntity
  8
1
 62
     4
100
AcDbPoint
 10
183.0000000000001
 20
15.00000000000001
 30
0.0
  0
LINE
  5
6B
330
48
100
AcDbEntity
  8
1
  6
Continuous
 62
     2
100
AcDbLine
 10
81.0
 20
27.00000000000001
 30
0.0
 11
81.0
 21
10.00000000000002
 31
0.0
  0
LINE
  5
6C
330
48
100
AcDbEntity
  8
1
  6
DOT_CENTER
 62
     2
100
AcDbLine
 10
187.0000000000001
 20
26.50000000000001
 30
0.0
 11
187.0000000000001
 21
20.50000000000001
 31
0.0
  0
LINE
  5
6D
330
48
100
AcDbEntity
  8
1
  6
DOT_CENTER
 62
     2
100
AcDbLine
 10
184.0000000000001
 20
23.50000000000001
 30
0.0
 11
197.0000000000001
 21
23.50000000000001
 31
0.0
  0
LINE
  5
6E
330
48
100
AcDbEntity
  8
1
  6
Continuous
 62
     7
100
AcDbLine
 10
196.0000000000001
 20
21.50000000000001
 30
0.0
 11
191.0000000000001
 21
22.30000000000002
 31
0.0
  0
LINE
  5
6F
330
48
100
AcDbEntity
  8
1
  6
Continuous
 62
     7
100
AcDbLine
 10
196.0000000000001
 20
25.50000000000001
 30
0.0
 11
196.0000000000001
 21
21.50000000000001
 31
0.0
  0
LINE
  5
70
330
48
100
AcDbEntity
  8
1
  6
Continuous
 62
     7
100
AcDbLine
 10
191.0000000000001
 20
24.7
 30
0.0
 11
196.0000000000001
 21
25.50000000000001
 31
0.0
  0
LINE
  5
71
330
48
100
AcDbEntity
  8
1
  6
Continuous
 62
     7
100
AcDbLine
 10
191.0000000000001
 20
24.7
 30
0.0
 11
191.0000000000001
 21
22.30000000000002
 31
0.0
  0
LINE
  5
72
330
48
100
AcDbEntity
  8
1
  6
Continuous
 62
     2
100
AcDbLine
 10
32.99999999999999
 20
27.00000000000001
 30
0.0
 11
32.99999999999999
 21
10.00000000000002
 31
0.0
  0
LINE
  5
73
330
48
100
AcDbEntity
  8
1
  6
Continuous
 62
     2
100
AcDbLine
 10
25.0
 20
18.50000000000001
 30
0.0
 11
81.0
 21
18.50000000000001
 31
0.0
  0
LINE
  5
74
330
48
100
AcDbEntity
  8
1
  6
Continuous
 62
     7
100
AcDbLine
 10
200.0000000000001
 20
287.0000000000002
 30
0.0
 11
105.0
 21
287.0000000000002
 31
0.0
  0
LINE
  5
75
330
48
100
AcDbEntity
  8
1
  6
Continuous
 62
     7
100
AcDbLine
 10
200.0000000000001
 20
10.00000000000002
 30
0.0
 11
200.0000000000001
 21
148.5
 31
0.0
  0
LINE
  5
76
330
48
100
AcDbEntity
  8
1
  6
Continuous
 62
     7
100
AcDbLine
 10
25.0
 20
10.00000000000002
 30
0.0
 11
105.0
 21
10.00000000000002
 31
0.0
  0
LINE
  5
77
330
48
100
AcDbEntity
  8
1
  6
PHANTOM
 62
     4
100
AcDbLine
 10
0.0
 20
297.0000000000001
 30
0.0
 11
0.0
 21
0.0
 31
0.0
  0
LINE
  5
78
330
48
100
AcDbEntity
  8
1
  6
PHANTOM
 62
     4
100
AcDbLine
 10
210.0000000000001
 20
297.0000000000001
 30
0.0
 11
0.0
 21
297.0000000000001
 31
0.0
  0
LINE
  5
79
330
48
100
AcDbEntity
  8
1
  6
PHANTOM
 62
     4
100
AcDbLine
 10
210.0000000000001
 20
0.0
 30
0.0
 11
210.0000000000001
 21
297.0000000000001
 31
0.0
  0
LINE
  5
7A
330
48
100
AcDbEntity
  8
1
  6
PHANTOM
 62
     4
100
AcDbLine
 10
0.0
 20
0.0
 30
0.0
 11
210.0000000000001
 21
0.0
 31
0.0
  0
LINE
  5
7B
330
48
100
AcDbEntity
  8
1
  6
Continuous
 62
     7
100
AcDbLine
 10
25.0
 20
41.00000000000001
 30
0.0
 11
200.0000000000001
 21
41.00000000000001
 31
0.0
  0
LINE
  5
7C
330
48
100
AcDbEntity
  8
1
  6
Continuous
 62
     7
100
AcDbLine
 10
200.0000000000001
 20
27.00000000000001
 30
0.0
 11
25.0
 21
27.00000000000001
 31
0.0
  0
LINE
  5
7D
330
48
100
AcDbEntity
  8
1
  6
Continuous
 62
     2
100
AcDbLine
 10
32.99999999999999
 20
41.00000000000001
 30
0.0
 11
32.99999999999999
 21
27.00000000000001
 31
0.0
  0
LINE
  5
7E
330
48
100
AcDbEntity
  8
1
  6
Continuous
 62
     2
100
AcDbLine
 10
54.99999999999999
 20
287.0000000000002
 30
0.0
 11
54.99999999999999
 21
277.0000000000002
 31
0.0
  0
LINE
  5
7F
330
48
100
AcDbEntity
  8
1
  6
Continuous
 62
     2
100
AcDbLine
 10
39.99999999999999
 20
287.0000000000002
 30
0.0
 11
39.99999999999999
 21
277.0000000000002
 31
0.0
  0
LINE
  5
80
330
48
100
AcDbEntity
  8
1
  6
Continuous
 62
     7
100
AcDbLine
 10
25.0
 20
10.00000000000002
 30
0.0
 11
25.0
 21
148.5
 31
0.0
  0
LINE
  5
81
330
48
100
AcDbEntity
  8
1
  6
Continuous
 62
     2
100
AcDbLine
 10
54.99999999999999
 20
277.0000000000002
 30
0.0
 11
25.0
 21
277.0000000000002
 31
0.0
  0
LINE
  5
82
330
48
100
AcDbEntity
  8
1
  6
Continuous
 62
     2
100
AcDbLine
 10
166.0000000000001
 20
27.00000000000001
 30
0.0
 11
166.0000000000001
 21
10.00000000000002
 31
0.0
  0
LINE
  5
83
330
48
100
AcDbEntity
  8
1
  6
Continuous
 62
     2
100
AcDbLine
 10
132.0000000000001
 20
27.00000000000001
 30
0.0
 11
132.0000000000001
 21
9.99999999999999
 31
0.0
  0
LINE
  5
84
330
48
100
AcDbEntity
  8
1
  6
Continuous
 62
     2
100
AcDbLine
 10
149.0000000000001
 20
27.00000000000001
 30
0.0
 11
149.0000000000001
 21
10.00000000000002
 31
0.0
  0
LINE
  5
85
330
48
100
AcDbEntity
  8
1
  6
Continuous
 62
     2
100
AcDbLine
 10
115.0
 20
27.00000000000001
 30
0.0
 11
115.0
 21
9.99999999999999
 31
0.0
  0
LINE
  5
86
330
48
100
AcDbEntity
  8
1
  6
Continuous
 62
     2
100
AcDbLine
 10
98.0
 20
27.00000000000001
 30
0.0
 11
98.0
 21
9.99999999999999
 31
0.0
  0
LINE
  5
87
330
48
100
AcDbEntity
  8
1
  6
Continuous
 62
     2
100
AcDbLine
 10
166.0000000000001
 20
20.00000000000001
 30
0.0
 11
200.0000000000001
 21
20.00000000000001
 31
0.0
  0
LINE
  5
88
330
48
100
AcDbEntity
  8
1
  6
Continuous
 62
     2
100
AcDbLine
 10
105.0
 20
287.0000000000002
 30
0.0
 11
105.0
 21
292.0000000000002
 31
0.0
  0
LINE
  5
89
330
48
100
AcDbEntity
  8
1
  6
Continuous
 62
     7
100
AcDbLine
 10
105.0
 20
287.0000000000002
 30
0.0
 11
25.0
 21
287.0000000000002
 31
0.0
  0
LINE
  5
8A
330
48
100
AcDbEntity
  8
1
  6
Continuous
 62
     2
100
AcDbLine
 10
25.0
 20
148.5
 30
0.0
 11
20.0
 21
148.5
 31
0.0
  0
LINE
  5
8B
330
48
100
AcDbEntity
  8
1
  6
Continuous
 62
     7
100
AcDbLine
 10
25.0
 20
148.5
 30
0.0
 11
25.0
 21
287.0000000000002
 31
0.0
  0
LINE
  5
8C
330
48
100
AcDbEntity
  8
1
  6
Continuous
 62
     2
100
AcDbLine
 10
200.0000000000001
 20
148.5
 30
0.0
 11
205.0000000000001
 21
148.5
 31
0.0
  0
LINE
  5
8D
330
48
100
AcDbEntity
  8
1
  6
Continuous
 62
     7
100
AcDbLine
 10
200.0000000000001
 20
148.5
 30
0.0
 11
200.0000000000001
 21
287.0000000000002
 31
0.0
  0
LINE
  5
8E
330
48
100
AcDbEntity
  8
1
  6
Continuous
 62
     2
100
AcDbLine
 10
105.0
 20
10.00000000000002
 30
0.0
 11
105.0
 21
5.0
 31
0.0
  0
LINE
  5
8F
330
48
100
AcDbEntity
  8
1
  6
Continuous
 62
     7
100
AcDbLine
 10
105.0
 20
10.00000000000002
 30
0.0
 11
200.0000000000001
 21
10.00000000000002
 31
0.0
  0
CIRCLE
  5
94
330
48
100
AcDbEntity
  8
1
  6
DOT_CENTER
 62
     7
100
AcDbCircle
 10
89.5
 20
18.00000000000001
 30
0.0
 40
0.1000000000000227
  0
CIRCLE
  5
95
330
48
100
AcDbEntity
  8
1
  6
DOT_CENTER
 62
     7
100
AcDbCircle
 10
89.5
 20
16.00000000000001
 30
0.0
 40
0.1000000000000227
  0
CIRCLE
  5
96
330
48
100
AcDbEntity
  8
1
  6
Continuous
 62
     7
100
AcDbCircle
 10
187.0000000000001
 20
23.50000000000001
 30
0.0
 40
2.0
  0
CIRCLE
  5
97
330
48
100
AcDbEntity
  8
1
  6
Continuous
 62
     7
100
AcDbCircle
 10
187.0000000000001
 20
23.50000000000001
 30
0.0
 40
1.199999999999989
  0
CIRCLE
  5
98
330
48
100
AcDbEntity
  8
1
  6
Continuous
 62
     7
100
AcDbCircle
 10
154.5000000000001
 20
12.50000000000001
 30
0.0
 40
0.2999999999998977
  0
CIRCLE
  5
99
330
48
100
AcDbEntity
  8
1
  6
Continuous
 62
     7
100
AcDbCircle
 10
160.5000000000001
 20
12.50000000000001
 30
0.0
 40
0.2999999999998977
  0
CIRCLE
  5
9A
330
48
100
AcDbEntity
  8
1
  6
Continuous
 62
     7
100
AcDbCircle
 10
143.5000000000001
 20
12.50000000000001
 30
0.0
 40
0.2999999999998977
  0
CIRCLE
  5
9B
330
48
100
AcDbEntity
  8
1
  6
Continuous
 62
     7
100
AcDbCircle
 10
137.5000000000001
 20
12.50000000000001
 30
0.0
 40
0.2999999999998977
  0
CIRCLE
  5
9C
330
48
100
AcDbEntity
  8
1
  6
Continuous
 62
     7
100
AcDbCircle
 10
126.5
 20
12.50000000000001
 30
0.0
 40
0.2999999999999972
  0
CIRCLE
  5
9D
330
48
100
AcDbEntity
  8
1
  6
Continuous
 62
     7
100
AcDbCircle
 10
120.5
 20
12.50000000000001
 30
0.0
 40
0.2999999999999972
  0
CIRCLE
  5
9E
330
48
100
AcDbEntity
  8
1
  6
Continuous
 62
     7
100
AcDbCircle
 10
109.5
 20
12.50000000000001
 30
0.0
 40
0.2999999999999972
  0
CIRCLE
  5
9F
330
48
100
AcDbEntity
  8
1
  6
Continuous
 62
     7
100
AcDbCircle
 10
103.5
 20
12.50000000000001
 30
0.0
 40
0.2999999999999972
  0
SPLINE
  5
A0
102
{ACAD_REACTORS
330
BE
102
}
330
48
100
AcDbEntity
  8
_U_30EC_U_30A4_U_30E4_U_30FC_1
  6
Continuous
 62
     2
100
AcDbSpline
210
0.0
220
0.0
230
1.0
 70
    11
 71
     3
 72
    99
 73
    95
 74
    93
 42
0.000000001
 43
0.0000000001
 44
0.00000001
 40
0.0
 40
0.0
 40
0.0
 40
0.0
 40
0.0796417172272876
 40
0.1621768542355901
 40
0.2486489160958071
 40
0.3404969668524481
 40
0.4381912511164535
 40
0.5434463660244835
 40
0.6518115192847156
 40
0.7530190937886723
 40
0.8492196919725474
 40
0.941929031299806
 40
1.03424966357002
 40
1.129078600620184
 40
1.226697027573233
 40
1.327220425421699
 40
1.470572134938023
 40
1.595489863371244
 40
1.719934125348355
 40
1.850576620127444
 40
1.989059629987279
 40
2.134139054226844
 40
2.280698007207187
 40
2.424529739039512
 40
2.565929576985878
 40
2.708239260773574
 40
2.861717887443676
 40
3.045168540347396
 40
3.183798301138621
 40
3.314813961455522
 40
3.442083470447349
 40
3.569912708372887
 40
3.702177512509406
 40
3.842307559659523
 40
3.992872223245923
 40
4.156750662218425
 40
4.310981861107646
 40
4.445859909322663
 40
4.572393936131596
 40
4.701656719781975
 40
4.768279086008466
 40
4.835960697898416
 40
4.912788918729325
 40
5.006285208481512
 40
5.026909478751645
 40
5.047533749021267
 40
5.101808031471335
 40
5.162325165538638
 40
5.226919745995971
 40
5.29423180659675
 40
5.364544852554936
 40
5.438319055468027
 40
5.517877651324364
 40
5.607647714861677
 40
5.700449642544524
 40
5.788251142364258
 40
5.872714706039888
 40
5.955167292575462
 40
6.037192395190509
 40
6.120669181469196
 40
6.206848616686441
 40
6.29668085541688
 40
6.442558392872702
 40
6.568190371608386
 40
6.692904567360478
 40
6.824220446557224
 40
6.963121850329514
 40
7.107843738851357
 40
7.253431663907416
 40
7.395187468036788
 40
7.533140753237819
 40
7.670550457175468
 40
7.816236511769443
 40
7.98769165735939
 40
8.142277421969432
 40
8.293662615415201
 40
8.442962460879443
 40
8.591598316185513
 40
8.743678992361959
 40
8.903725323699367
 40
9.076307008890634
 40
9.265578604680575
 40
9.459203795360864
 40
9.617619810273624
 40
9.753609671362108
 40
9.874873300004255
 40
9.954520184977968
 40
10.02416413719267
 40
10.09769764405466
 40
10.18909955924994
 40
10.2097458642015
 40
10.2303921826339
 40
10.30057101881278
 40
10.37632012987556
 40
10.37632012987556
 40
10.37632012987556
 40
10.37632012987556
 10
170.1465954835851
 20
14.13795663215994
 30
0.0
 10
170.163221785122
 20
14.11720608845313
 30
0.0
 10
170.1970784206577
 20
14.07495111711905
 30
0.0
 10
170.2599822541036
 20
14.0202981139207
 30
0.0
 10
170.3332500940392
 20
13.97299025121053
 30
0.0
 10
170.4175969238636
 20
13.93527231437935
 30
0.0
 10
170.513224061546
 20
13.91040619731951
 30
0.0
 10
170.6171853775346
 20
13.90309559345937
 30
0.0
 10
170.7224020220405
 20
13.91142322794053
 30
0.0
 10
170.8206626371334
 20
13.9414917965153
 30
0.0
 10
170.9058986427549
 20
13.98848822971872
 30
0.0
 10
170.9779220206102
 20
14.04952991250858
 30
0.0
 10
171.0350917709096
 20
14.12412969578585
 30
0.0
 10
171.0767868747439
 20
14.21002464660173
 30
0.0
 10
171.1026952846292
 20
14.30485850432212
 30
0.0
 10
171.1118037332654
 20
14.41854979038366
 30
0.0
 10
171.0986864796487
 20
14.5433258777078
 30
0.0
 10
171.0325330334414
 20
14.66014719171889
 30
0.0
 10
170.9369370919569
 20
14.74512539577379
 30
0.0
 10
170.8249681022369
 20
14.81416684459156
 30
0.0
 10
170.699365958327
 20
14.8720414204589
 30
0.0
 10
170.5656691620857
 20
14.92373723284341
 30
0.0
 10
170.4313122818832
 20
14.97899092397181
 30
0.0
 10
170.3051983986877
 20
15.04939770641649
 30
0.0
 10
170.1926579987535
 20
15.1378554073125
 30
0.0
 10
170.0969963064457
 20
15.24981067868473
 30
0.0
 10
170.0334157151827
 20
15.39949910101386
 30
0.0
 10
170.0200706505015
 20
15.55932794385141
 30
0.0
 10
170.0320510987448
 20
15.71048405306848
 30
0.0
 10
170.0712298928842
 20
15.83809244591536
 30
0.0
 10
170.1354987750912
 20
15.95080874030839
 30
0.0
 10
170.2238204999739
 20
16.04648609268696
 30
0.0
 10
170.3338091207627
 20
16.12354214985746
 30
0.0
 10
170.4632284401265
 20
16.18151396936281
 30
0.0
 10
170.6111838967793
 20
16.21739177588822
 30
0.0
 10
170.7682069455487
 20
16.22746719050561
 30
0.0
 10
170.9174940466431
 20
16.21863637762589
 30
0.0
 10
171.059625361417
 20
16.19074899340352
 30
0.0
 10
171.1595922609626
 20
16.13413314701139
 30
0.0
 10
171.3125074736185
 20
16.08674602105506
 30
0.0
 10
171.2455131717168
 20
16.00197553001184
 30
0.0
 10
171.2296479120269
 20
15.93438901873484
 30
0.0
 10
171.1978750531297
 20
15.86926092793189
 30
0.0
 10
171.2150202209572
 20
15.76723453256951
 30
0.0
 10
171.1666427208232
 20
15.77493211681902
 30
0.0
 10
171.1315789440766
 20
15.76806771724806
 30
0.0
 10
171.1296697985718
 20
15.83263831158194
 30
0.0
 10
171.0985692931989
 20
15.87825639621397
 30
0.0
 10
171.0664551628456
 20
15.93561036628449
 30
0.0
 10
171.0208038475169
 20
15.98540462692567
 30
0.0
 10
170.9658508218387
 20
16.02994813718994
 30
0.0
 10
170.9010841173008
 20
16.06763988836548
 30
0.0
 10
170.8232377310596
 20
16.09283375791351
 30
0.0
 10
170.7355160553352
 20
16.09931230998112
 30
0.0
 10
170.6452903277806
 20
16.09235709285607
 30
0.0
 10
170.5594594694064
 20
16.06909190460921
 30
0.0
 10
170.4828343638596
 20
16.03131644107541
 30
0.0
 10
170.41652656362
 20
15.9805164108958
 30
0.0
 10
170.3622560536964
 20
15.91731143407208
 30
0.0
 10
170.322492534546
 20
15.84276455710365
 30
0.0
 10
170.2976775510588
 20
15.75917313997763
 30
0.0
 10
170.2892124262869
 20
15.65192948382284
 30
0.0
 10
170.3019697987104
 20
15.5296545726756
 30
0.0
 10
170.3681548409272
 20
15.41149724291207
 30
0.0
 10
170.4640977399832
 20
15.32606325709529
 30
0.0
 10
170.5757914963183
 20
15.25583362306721
 30
0.0
 10
170.7010863668702
 20
15.19659162305304
 30
0.0
 10
170.8349823941448
 20
15.14616708086134
 30
0.0
 10
170.968993033315
 20
15.09322516984381
 30
0.0
 10
171.0950885316916
 20
15.02750170625176
 30
0.0
 10
171.2076216638416
 20
14.94480352537313
 30
0.0
 10
171.3031370284235
 20
14.83996006310083
 30
0.0
 10
171.3672706486964
 20
14.69937117251567
 30
0.0
 10
171.3811103725278
 20
14.54065409451592
 30
0.0
 10
171.367395471223
 20
14.38153155217874
 30
0.0
 10
171.3244739153984
 20
14.2348382881921
 30
0.0
 10
171.2545906329067
 20
14.10119796587139
 30
0.0
 10
171.1574592213829
 20
13.98532387699292
 30
0.0
 10
171.0347806023657
 20
13.89089981770085
 30
0.0
 10
170.8874408413168
 20
13.82179270651984
 30
0.0
 10
170.7177132497126
 20
13.77953210858851
 30
0.0
 10
170.5317404979598
 20
13.76781736230408
 30
0.0
 10
170.3528955926184
 20
13.77809486683433
 30
0.0
 10
170.1881733753744
 20
13.81966573769158
 30
0.0
 10
170.0834410841056
 20
13.88797642883936
 30
0.0
 10
169.9350960790366
 20
13.93675219032107
 30
0.0
 10
169.9980378194729
 20
14.02976591290842
 30
0.0
 10
170.0072274430061
 20
14.1029653624828
 30
0.0
 10
170.0303711301232
 20
14.16936294501346
 30
0.0
 10
170.0034588335317
 20
14.26974809527579
 30
0.0
 10
170.052133895634
 20
14.2623403351738
 30
0.0
 10
170.0916530580697
 20
14.26894063620894
 30
0.0
 10
170.0996204944703
 20
14.19078703218936
 30
0.0
 10
170.1305436967923
 20
14.15600927375857
 30
0.0
 10
170.1465954835851
 20
14.13795663215994
 30
0.0
 11
170.1465954835851
 21
14.13795663215994
 31
0.0
 11
170.1982038075864
 21
14.07729869814736
 31
0.0
 11
170.2601105501335
 21
14.02271295163321
 31
0.0
 11
170.3327764009803
 21
13.97583980928383
 31
0.0
 11
170.4166468655843
 21
13.93839906276538
 31
0.0
 11
170.511221073241
 21
13.91390636311877
 31
0.0
 11
170.6161603327165
 21
13.90575829888472
 31
0.0
 11
170.7240739497552
 21
13.91564048638223
 31
0.0
 11
170.8208419941616
 21
13.94528704887482
 31
0.0
 11
170.9050776083319
 21
13.99175118948818
 31
0.0
 11
170.9756144207686
 21
14.05191413218149
 31
0.0
 11
171.0319442109979
 21
14.1250581946632
 31
0.0
 11
171.0736690016003
 21
14.21021434047522
 31
0.0
 11
171.0994680808032
 21
14.30436190989613
 31
0.0
 11
171.1080824729447
 21
14.4045155209822
 31
0.0
 11
171.0878517703357
 21
14.54643250879398
 31
0.0
 11
171.0272522666731
 21
14.65566684036388
 31
0.0
 11
170.9364971286286
 21
14.74081306430094
 31
0.0
 11
170.826010188474
 21
14.81052746532516
 31
0.0
 11
170.7008523531255
 21
14.86979854169921
 31
0.0
 11
170.5662951950999
 21
14.92404253474119
 31
0.0
 11
170.4316884277007
 21
14.98201274306003
 31
0.0
 11
170.3065802017258
 21
15.05297399304233
 31
0.0
 11
170.196027609828
 21
15.14113315968695
 31
0.0
 11
170.1053381235265
 21
15.25080295132618
 31
0.0
 11
170.0447055469484
 21
15.39179720476316
 31
0.0
 11
170.0245079172553
 21
15.57413260402315
 31
0.0
 11
170.0374030471347
 21
15.71216131926641
 31
0.0
 11
170.0761016659392
 21
15.8373312845129
 31
0.0
 11
170.1393141731507
 21
15.94779262129084
 31
0.0
 11
170.2257499954544
 21
16.0419688539062
 31
0.0
 11
170.3336492808963
 21
16.11846540770651
 31
0.0
 11
170.4613526283328
 21
16.17615670109488
 31
0.0
 11
170.6075393259923
 21
16.21220066809973
 31
0.0
 11
170.7709768565451
 21
16.2242138538606
 31
0.0
 11
170.924891843129
 21
16.21434269066862
 31
0.0
 11
171.0564887242608
 21
16.18477329831496
 31
0.0
 11
171.172563634494
 21
16.13439993895253
 31
0.0
 11
171.2800792741122
 21
16.06264163167877
 31
0.0
 11
171.2516994050444
 21
16.00236624106886
 31
0.0
 11
171.2284855254283
 21
15.93879017337646
 31
0.0
 11
171.2078381040801
 21
15.86478841992269
 31
0.0
 11
171.1871840681488
 21
15.77360197897327
 31
0.0
 11
171.1665597978416
 21
15.77360197897327
 31
0.0
 11
171.1459355275343
 21
15.77360197897327
 31
0.0
 11
171.1256706495791
 21
15.82395108486346
 31
0.0
 11
171.0994658759421
 21
15.8785004511693
 31
0.0
 11
171.0650468924451
 21
15.93316116296115
 31
0.0
 11
171.0203554612938
 21
15.98349593725412
 31
0.0
 11
170.9657333359511
 21
16.02777175321529
 31
0.0
 11
170.9016722004326
 21
16.064361423345
 31
0.0
 11
170.825968296114
 21
16.08882545979726
 31
0.0
 11
170.7365722046449
 21
16.09701100667023
 31
0.0
 11
170.6440937174207
 21
16.08926973931102
 31
0.0
 11
170.5594072091645
 21
16.06609003445565
 31
0.0
 11
170.483702448884
 21
16.02863495634008
 31
0.0
 11
170.4183754766515
 21
15.97832774281103
 31
0.0
 11
170.3650487887664
 21
15.91600293379879
 31
0.0
 11
170.3254809233902
 21
15.84249947895607
 31
0.0
 11
170.3009523754711
 21
15.75988443557391
 31
0.0
 11
170.2927954104108
 21
15.67042329844351
 31
0.0
 11
170.3130095765618
 21
15.52595308146573
 31
0.0
 11
170.373625616682
 21
15.41591177072935
 31
0.0
 11
170.4643479320758
 21
15.33033670130631
 31
0.0
 11
170.5748676948813
 21
15.25941954854626
 31
0.0
 11
170.700008993772
 21
15.19914305550579
 31
0.0
 11
170.8345826882554
 21
15.14590447913021
 31
0.0
 11
170.9691729191968
 21
15.09039489581074
 31
0.0
 11
171.0942976816297
 21
15.0237728124941
 31
0.0
 11
171.204800907977
 21
14.9411886371675
 31
0.0
 11
171.295539759829
 21
14.83800003476271
 31
0.0
 11
171.356155799949
 21
14.70552315979584
 31
0.0
 11
171.3763699660998
 21
14.53526378483839
 31
0.0
 11
171.3621839747998
 21
14.38133030397411
 31
0.0
 11
171.3196087009193
 21
14.23605531269096
 31
0.0
 11
171.2499752884265
 21
14.10398854189067
 31
0.0
 11
171.1544992078713
 21
13.99007218775246
 31
0.0
 11
171.0341060772624
 21
13.89715272597017
 31
0.0
 11
170.8896160201846
 21
13.8283235766818
 31
0.0
 11
170.7223519532714
 21
13.78581275203966
 31
0.0
 11
170.5336103348228
 21
13.77165864614041
 31
0.0
 11
170.3405031726388
 21
13.78581275203966
 31
0.0
 11
170.1878975900912
 21
13.8283235766818
 31
0.0
 11
170.0661897942203
 21
13.88899033013889
 31
0.0
 11
169.9660261826363
 21
13.95734322942736
 31
0.0
 11
169.9922320587039
 21
14.03255545163076
 31
0.0
 11
170.0090121537619
 21
14.10014767383613
 31
0.0
 11
170.0206196447853
 21
14.17275926235962
 31
0.0
 11
170.031360625414
 21
14.2635278821286
 31
0.0
 11
170.0520069443316
 21
14.2635278821286
 31
0.0
 11
170.0726532632492
 21
14.2635278821286
 31
0.0
 11
170.104891639163
 21
14.20119204881084
 31
0.0
 11
170.1465954835851
 21
14.13795663215994
 31
0.0
  0
SPLINE
  5
A1
102
{ACAD_REACTORS
330
BF
102
}
330
48
100
AcDbEntity
  8
_U_30EC_U_30A4_U_30E4_U_30FC_1
  6
Continuous
 62
     2
100
AcDbSpline
210
0.0
220
0.0
230
1.0
 70
    11
 71
     3
 72
    57
 73
    53
 74
    51
 42
0.000000001
 43
0.0000000001
 44
0.00000001
 40
0.0
 40
0.0
 40
0.0
 40
0.0
 40
0.0471632082809219
 40
0.0914861054632138
 40
0.1357762519701806
 40
0.1826527001610669
 40
0.2295203288572293
 40
0.27377519722216
 40
0.318131046154249
 40
0.3652607198397633
 40
0.4571007286313628
 40
0.5671851029164401
 40
0.6894623283867538
 40
0.8181758272544436
 40
0.9510087229273054
 40
1.085852229673964
 40
1.218126164475178
 40
1.343545131142239
 40
1.454537202956797
 40
1.567187607530863
 40
1.680710966642397
 40
1.794226869736846
 40
1.900009184247589
 40
2.004085860448039
 40
2.108162674451842
 40
2.214000150155357
 40
2.496038577352197
 40
2.762350745479343
 40
2.997275353279467
 40
3.185110082137744
 40
3.246407890064083
 40
3.3126075502127
 40
3.378877742711687
 40
3.440140399651455
 40
4.100501696006418
 40
4.754913085563484
 40
5.411331693423898
 40
6.07789043256869
 40
6.110575292670969
 40
6.143260152775749
 40
6.3679893633951
 40
6.610525374951479
 40
6.86338913646725
 40
7.119380025547578
 40
7.376036605091037
 40
7.631164770966271
 40
7.876722425456347
 40
8.104953735855851
 40
8.312916685924227
 40
8.497730294941261
 40
8.651018984313776
 40
8.764738853624502
 40
8.764738853624502
 40
8.764738853624502
 40
8.764738853624502
 10
174.7922649500513
 20
13.81626739612928
 30
0.0
 10
174.7766616726931
 20
13.81826231079078
 30
0.0
 10
174.7463947960302
 20
13.82213201360298
 30
0.0
 10
174.7010994202253
 20
13.82341984967268
 30
0.0
 10
174.6559553129349
 20
13.8230868355405
 30
0.0
 10
174.60990171234
 20
13.82314658674224
 30
0.0
 10
174.5640496172096
 20
13.8232581365
 30
0.0
 10
174.5183711648164
 20
13.8227783345659
 30
0.0
 10
174.4750811541608
 20
13.82461109618719
 30
0.0
 10
174.4039947951514
 20
13.80049556814659
 30
0.0
 10
174.4057477261441
 20
13.9218469397725
 30
0.0
 10
174.358619637057
 20
14.00726239751232
 30
0.0
 10
174.3191478251761
 20
14.12486929345129
 30
0.0
 10
174.2706635532647
 20
14.24232752540446
 30
0.0
 10
174.2201017402523
 20
14.36405935761507
 30
0.0
 10
174.1718634610478
 20
14.49075967862465
 30
0.0
 10
174.1135232947596
 20
14.59933687784954
 30
0.0
 10
174.0980892667263
 20
14.75620657134414
 30
0.0
 10
173.9566586330636
 20
14.72373446548321
 30
0.0
 10
173.8508397414903
 20
14.73512888682179
 30
0.0
 10
173.7358569725222
 20
14.73392591514615
 30
0.0
 10
173.6253142252141
 20
14.73506945347408
 30
0.0
 10
173.5176583522782
 20
14.73418350037526
 30
0.0
 10
173.4121322529242
 20
14.73416602390519
 30
0.0
 10
173.3109192682012
 20
14.72714032472415
 30
0.0
 10
173.1266804827754
 20
14.75135859859867
 30
0.0
 10
173.1157393685411
 20
14.44741691121884
 30
0.0
 10
173.008769163475
 20
14.22353177253396
 30
0.0
 10
172.9098148604346
 20
14.03895314292497
 30
0.0
 10
172.9225090524008
 20
13.79530204804207
 30
0.0
 10
172.8050091716397
 20
13.82508046753195
 30
0.0
 10
172.7422055868311
 20
13.82258089509603
 30
0.0
 10
172.67858720934
 20
13.82344075102804
 30
0.0
 10
172.3946014194078
 20
13.78098039941954
 30
0.0
 10
173.025163849938
 20
14.50081952444789
 30
0.0
 10
173.1087645289071
 20
15.01276539435731
 30
0.0
 10
173.4929252789339
 20
15.53353743550043
 30
0.0
 10
173.4777208288567
 20
16.23519626253211
 30
0.0
 10
173.7239265722698
 20
16.22345633081255
 30
0.0
 10
173.8256346157563
 20
16.2322500445277
 30
0.0
 10
173.8249752035818
 20
15.98059650730346
 30
0.0
 10
173.9428317155828
 20
15.79818020733956
 30
0.0
 10
174.0315515260485
 20
15.55563740662864
 30
0.0
 10
174.132229248526
 20
15.32340030530131
 30
0.0
 10
174.2311142712243
 20
15.08674644566909
 30
0.0
 10
174.329967699067
 20
14.85461739170097
 30
0.0
 10
174.4256166390925
 20
14.63122222788787
 30
0.0
 10
174.515990457327
 20
14.42272549049312
 30
0.0
 10
174.5989944568189
 20
14.23308448529319
 30
0.0
 10
174.6726088582799
 20
14.06663106068103
 30
0.0
 10
174.7342815895545
 20
13.92917699626096
 30
0.0
 10
174.7749458885604
 20
13.84999239430034
 30
0.0
 10
174.7922649500513
 20
13.81626739612928
 30
0.0
 11
174.7922649500513
 21
13.81626739612928
 31
0.0
 11
174.7453878317448
 21
13.82145433189185
 31
0.0
 11
174.7010975896125
 21
13.82315538223862
 31
0.0
 11
174.656807443173
 21
13.82315538223862
 31
0.0
 11
174.6099309947159
 21
13.82315538223862
 31
0.0
 11
174.5630633657034
 21
13.82315538223862
 31
0.0
 11
174.5188084970407
 21
13.82315538223862
 31
0.0
 11
174.4744852776854
 21
13.82145433189185
 31
0.0
 11
174.4276419021444
 21
13.81626739612928
 31
0.0
 11
174.3992532136325
 21
13.90360966173244
 31
0.0
 11
174.3622721815898
 21
14.00729656274818
 31
0.0
 11
174.3188386236701
 21
14.12159987001126
 31
0.0
 11
174.2711055866938
 21
14.24113531268968
 31
0.0
 11
174.2208160133238
 21
14.36408057307566
 31
0.0
 11
174.1696467003933
 21
14.48883822929447
 31
0.0
 11
174.1197531801328
 21
14.61134141502771
 31
0.0
 11
174.0733119111843
 21
14.72784517367917
 31
0.0
 11
173.9623611907589
 21
14.73087465284506
 31
0.0
 11
173.8497309225089
 21
14.7330045486779
 31
0.0
 11
173.736215206945
 21
14.7343219531914
 31
0.0
 11
173.62270004768
 21
14.73473315978852
 31
0.0
 11
173.5169185312816
 21
14.7343219531914
 31
0.0
 11
173.4128501919224
 21
14.7330045486779
 31
0.0
 11
173.3087951724045
 21
14.73087465284506
 31
0.0
 11
173.2030010615596
 21
14.72784517367917
 31
0.0
 11
173.0980914750139
 21
14.4660443751335
 31
0.0
 11
173.0034868690331
 21
14.21710232658459
 31
0.0
 11
172.9252231210298
 21
13.99559756969556
 31
0.0
 11
172.8693431224556
 21
13.81626739612928
 31
0.0
 11
172.8082651639442
 21
13.82145433189185
 31
0.0
 11
172.7420873618131
 21
13.82315538223862
 31
0.0
 11
172.6758390041282
 21
13.82145433189185
 31
0.0
 11
172.6147963233939
 21
13.81626739612928
 31
0.0
 11
172.889968495193
 21
14.41656508695142
 31
0.0
 11
173.158294573417
 21
15.01343642360776
 31
0.0
 11
173.4240277350405
 21
15.61366245644381
 31
0.0
 11
173.6914740737034
 21
16.2242138538606
 31
0.0
 11
173.7241589339807
 21
16.2242138538606
 31
0.0
 11
173.756843794258
 21
16.2242138538606
 31
0.0
 11
173.8428300681058
 21
16.01658539037084
 31
0.0
 11
173.9357285813609
 21
15.79254614563517
 31
0.0
 11
174.0328714521464
 21
15.55908663180468
 31
0.0
 11
174.1317936458032
 21
15.32298128464144
 31
0.0
 11
174.2315341249927
 21
15.08649780379784
 31
0.0
 11
174.3313071129354
 21
14.85168781253709
 31
0.0
 11
174.4280608257448
 21
14.62599492196849
 31
0.0
 11
174.5188084970407
 21
14.41658052097919
 31
0.0
 11
174.6022150834546
 21
14.2260761113046
 31
0.0
 11
174.6770293263378
 21
14.05708232662467
 31
0.0
 11
174.7410729186603
 21
13.91781337700668
 31
0.0
 11
174.7922649500513
 21
13.81626739612928
 31
0.0
  0
SPLINE
  5
A2
102
{ACAD_REACTORS
330
BF
102
}
330
48
100
AcDbEntity
  8
_U_30EC_U_30A4_U_30E4_U_30FC_1
  6
Continuous
 62
     2
100
AcDbSpline
210
0.0
220
0.0
230
1.0
 70
    11
 71
     3
 72
    25
 73
    21
 74
    19
 42
0.000000001
 43
0.0000000001
 44
0.00000001
 40
0.0
 40
0.0
 40
0.0
 40
0.0
 40
0.0911479969064538
 40
0.1858117896204951
 40
0.2804128399734206
 40
0.3715889190712804
 40
0.4679080494217571
 40
0.5642683809228377
 40
0.6605683222644989
 40
0.7569653015811388
 40
0.8561348172523872
 40
1.092615965104417
 40
1.374867658142034
 40
1.611348812011749
 40
1.710518328425408
 40
1.809403163726715
 40
2.04520546329424
 40
2.326646917622289
 40
2.562449217190762
 40
2.66133404383407
 40
2.66133404383407
 40
2.66133404383407
 40
2.66133404383407
 10
173.26837005672
 20
14.88614538197292
 30
0.0
 10
173.2987525917924
 20
14.88598079714555
 30
0.0
 10
173.3606895889112
 20
14.88564528689921
 30
0.0
 10
173.4541356960331
 20
14.88269055451999
 30
0.0
 10
173.5475095236358
 20
14.87977752877151
 30
0.0
 10
173.6417760753476
 20
14.87894201643416
 30
0.0
 10
173.7354964790966
 20
14.87996644658048
 30
0.0
 10
173.8352040303204
 20
14.87916977470972
 30
0.0
 10
173.9188949546314
 20
14.88921410235221
 30
0.0
 10
174.0637996315047
 20
14.86234617674162
 30
0.0
 10
173.9396132444803
 20
15.03665530280048
 30
0.0
 10
173.8965867286284
 20
15.19651711006093
 30
0.0
 10
173.780892214221
 20
15.45518458550213
 30
0.0
 10
173.7017565431258
 20
15.5923105286186
 30
0.0
 10
173.6431576621816
 20
15.80937033134077
 30
0.0
 10
173.586480393944
 20
15.59266134213426
 30
0.0
 10
173.5052809900477
 20
15.45327012438238
 30
0.0
 10
173.4063701281489
 20
15.20406969370192
 30
0.0
 10
173.3253625094259
 20
15.01925830226075
 30
0.0
 10
173.2813683325839
 20
14.91650446856117
 30
0.0
 10
173.26837005672
 20
14.88614538197292
 30
0.0
 11
173.26837005672
 21
14.88614538197292
 31
0.0
 11
173.3595137737821
 21
14.88526123266759
 31
0.0
 11
173.4541428297582
 21
14.88269697919598
 31
0.0
 11
173.5487082179706
 21
14.88009965280777
 31
0.0
 11
173.6398803250195
 21
14.8792485764191
 31
0.0
 11
173.7361985777706
 21
14.87965978301622
 31
0.0
 11
173.8325499034376
 21
14.88097718752972
 31
0.0
 11
173.9288262638287
 21
14.88310818579313
 31
0.0
 11
174.0251753846345
 21
14.88614538197292
 31
0.0
 11
173.9854633323143
 21
14.9770164219502
 31
0.0
 11
173.890765361397
 21
15.19370890189602
 31
0.0
 11
173.7777387509472
 21
15.45234186183135
 31
0.0
 11
173.6830407800298
 21
15.66903434177717
 31
0.0
 11
173.6433287277096
 21
15.75990538175445
 31
0.0
 11
173.6043330259267
 21
15.66903434177717
 31
0.0
 11
173.5113432755213
 21
15.45234186183135
 31
0.0
 11
173.4003555089083
 21
15.19370890189602
 31
0.0
 11
173.3073657585029
 21
14.9770164219502
 31
0.0
 11
173.26837005672
 21
14.88614538197292
 31
0.0
  0
SPLINE
  5
A3
102
{ACAD_REACTORS
330
C0
102
}
330
48
100
AcDbEntity
  8
_U_30EC_U_30A4_U_30E4_U_30FC_1
  6
Continuous
 62
     2
100
AcDbSpline
210
0.0
220
0.0
230
1.0
 70
    11
 71
     3
 72
    95
 73
    91
 74
    89
 42
0.000000001
 43
0.0000000001
 44
0.00000001
 40
0.0
 40
0.0
 40
0.0
 40
0.0
 40
0.6550406656911961
 40
1.308087289032016
 40
1.420803739835877
 40
1.566130759770884
 40
1.757067341888542
 40
2.006513545026544
 40
2.087328263121627
 40
2.185328872295696
 40
2.294612454748444
 40
2.408936380534881
 40
2.526802767798646
 40
2.646360524615694
 40
2.76253572397167
 40
2.870057342870244
 40
2.966883448431727
 40
3.050803243518359
 40
3.115818222436695
 40
3.156030057150309
 40
3.21391422508021
 40
3.276689026450525
 40
3.342960320981331
 40
3.404230667150635
 40
3.453822809493444
 40
3.532499827188512
 40
3.634775188507237
 40
3.754909333008231
 40
3.889736761660727
 40
4.035769602175276
 40
4.187256681197674
 40
4.338733685676017
 40
4.488478734676183
 40
4.634708317831659
 40
4.771493189921342
 40
4.892686571561284
 40
5.199775528944524
 40
5.46035356692971
 40
5.667603142345579
 40
5.814722905404542
 40
5.828990806219897
 40
5.855488336304623
 40
5.869756237118983
 40
6.189796507762883
 40
6.531890469873035
 40
6.883053637017025
 40
7.230512024911578
 40
7.566966656764636
 40
7.885203559707504
 40
8.172887439719299
 40
8.418011594062774
 40
8.443926721190696
 40
8.510760470613182
 40
8.60214539379569
 40
8.701714041647127
 40
8.793098965075357
 40
8.859932715057928
 40
8.885847842603576
 40
9.242301256612794
 40
9.589275455016745
 40
9.921808543164142
 40
10.23479624298466
 40
10.29968150889188
 40
10.35323493887785
 40
10.40154625355169
 40
10.46482922477834
 40
10.55973900668415
 40
10.69239545985627
 40
10.84920353475681
 40
11.01626328594788
 40
11.18672024367451
 40
11.35372582577218
 40
11.50257442292435
 40
11.618664950233
 40
11.71329869152883
 40
11.82511050573915
 40
11.94464880845724
 40
12.06929242642517
 40
12.19707290435186
 40
12.32562632860539
 40
12.45034565331288
 40
12.56646595170335
 40
12.67099007414644
 40
12.76077625936791
 40
12.82703233506704
 40
12.87429132786002
 40
12.89831990323341
 40
12.9223484786003
 40
13.53984767410327
 40
14.18294284359366
 40
14.18294284359366
 40
14.18294284359366
 40
14.18294284359366
 10
177.3067935648022
 20
14.70898038201723
 30
0.0
 10
177.1752019758552
 20
14.8226505860323
 30
0.0
 10
176.912419380273
 20
15.04964496316155
 30
0.0
 10
176.3997393441018
 20
15.89214462956288
 30
0.0
 10
176.4106654595364
 20
15.53423377577019
 30
0.0
 10
176.4041226527992
 20
15.39267392272132
 30
0.0
 10
176.4028026631772
 20
15.1942130529928
 30
0.0
 10
176.4018117602538
 20
15.02150296045982
 30
0.0
 10
176.4024101751974
 20
14.8786537325758
 30
0.0
 10
176.4038994301882
 20
14.78265005413357
 30
0.0
 10
176.4055683588472
 20
14.67545503263142
 30
0.0
 10
176.4071934954619
 20
14.56164211517582
 30
0.0
 10
176.4092429501685
 20
14.44441572604588
 30
0.0
 10
176.4123165501927
 20
14.32656411232968
 30
0.0
 10
176.4156339697043
 20
14.21228087320619
 30
0.0
 10
176.4193605340279
 20
14.10521401867276
 30
0.0
 10
176.4217338161425
 20
14.01007408766922
 30
0.0
 10
176.4278718888355
 20
13.92558557205694
 30
0.0
 10
176.4239784495948
 20
13.86923087298142
 30
0.0
 10
176.4455230443077
 20
13.79825022472357
 30
0.0
 10
176.3680940058618
 20
13.82902677604481
 30
0.0
 10
176.3116353240192
 20
13.82011242517614
 30
0.0
 10
176.2540495896807
 20
13.82896218398274
 30
0.0
 10
176.1690163478472
 20
13.79738225225945
 30
0.0
 10
176.2009714146384
 20
13.88095155992189
 30
0.0
 10
176.199070528254
 20
13.94882608968309
 30
0.0
 10
176.2107960047299
 20
14.05233256764419
 30
0.0
 10
176.2164241053
 20
14.17002125616695
 30
0.0
 10
176.2237902178941
 20
14.30388609164422
 30
0.0
 10
176.232075970161
 20
14.44764152872631
 30
0.0
 10
176.2398851897427
 20
14.59714022843443
 30
0.0
 10
176.2457571222657
 20
14.74792549402077
 30
0.0
 10
176.2503667817967
 20
14.89699943878437
 30
0.0
 10
176.2542632117544
 20
15.04122913163022
 30
0.0
 10
176.2570715126564
 20
15.17583905213017
 30
0.0
 10
176.2576698755024
 20
15.36469614347355
 30
0.0
 10
176.261602386715
 20
15.58975494313153
 30
0.0
 10
176.2442175378499
 20
15.86367091125708
 30
0.0
 10
176.2850417342582
 20
16.02787112098594
 30
0.0
 10
176.1995153256001
 20
16.22749661465099
 30
0.0
 10
176.2660558907689
 20
16.22385458403975
 30
0.0
 10
176.2838724273232
 20
16.22413447160853
 30
0.0
 10
176.4056801797506
 20
16.22632927398608
 30
0.0
 10
176.5080770335462
 20
15.94675118721512
 30
0.0
 10
176.7580021509356
 20
15.74563008536
 30
0.0
 10
176.987003533111
 20
15.47792614987912
 30
0.0
 10
177.224515121311
 20
15.22646413862381
 30
0.0
 10
177.4486090740772
 20
14.98969974061354
 30
0.0
 10
177.675071628301
 20
14.7321869258308
 30
0.0
 10
177.8325687886515
 20
14.61649335056926
 30
0.0
 10
178.0472129612674
 20
14.27997152538798
 30
0.0
 10
178.0422645974618
 20
14.40464754091604
 30
0.0
 10
178.0433931602546
 20
14.46327691935738
 30
0.0
 10
178.0428877841517
 20
14.55043662371978
 30
0.0
 10
178.0430475158113
 20
14.64416143182872
 30
0.0
 10
178.0430054891319
 20
14.73018971297035
 30
0.0
 10
178.0430202040372
 20
14.79153891945495
 30
0.0
 10
178.0429706255987
 20
14.94135231520995
 30
0.0
 10
178.0458811522809
 20
15.17989612510104
 30
0.0
 10
178.0259521041162
 20
15.544865098687
 30
0.0
 10
178.0750433936248
 20
15.80799631993415
 30
0.0
 10
177.9177951509179
 20
16.21928904947751
 30
0.0
 10
178.0762112872422
 20
16.16398282551748
 30
0.0
 10
178.1311680478629
 20
16.16199686500175
 30
0.0
 10
178.182788776674
 20
16.16264778248251
 30
0.0
 10
178.2713198965366
 20
16.20369527738244
 30
0.0
 10
178.2204898303168
 20
16.05696326622984
 30
0.0
 10
178.2313389930285
 20
15.95019971954432
 30
0.0
 10
178.2166036994847
 20
15.79085705414112
 30
0.0
 10
178.2099976446206
 20
15.62853061652873
 30
0.0
 10
178.2014961399916
 20
15.45992521892395
 30
0.0
 10
178.1943227202198
 20
15.29814814703542
 30
0.0
 10
178.1889063215389
 20
15.15422331457933
 30
0.0
 10
178.1871713967648
 20
15.03437493466925
 30
0.0
 10
178.1875440672319
 20
14.92686101590515
 30
0.0
 10
178.1873656126262
 20
14.81820024645586
 30
0.0
 10
178.187701086314
 20
14.69953570165531
 30
0.0
 10
178.1890040622183
 20
14.5755516351274
 30
0.0
 10
178.1908887351574
 20
14.44858294171103
 30
0.0
 10
178.1925004454852
 20
14.32153861551032
 30
0.0
 10
178.194140313743
 20
14.19854884492177
 30
0.0
 10
178.1962570745752
 20
14.0830093138376
 30
0.0
 10
178.1963848422363
 20
13.98090903955837
 30
0.0
 10
178.2006514396555
 20
13.89009848838156
 30
0.0
 10
178.1908440085289
 20
13.83213621208786
 30
0.0
 10
178.2118474771689
 20
13.76517130132029
 30
0.0
 10
178.1725639739897
 20
13.77291153966688
 30
0.0
 10
177.9595307117742
 20
13.75755254145188
 30
0.0
 10
177.7636297943188
 20
14.31403058094469
 30
0.0
 10
177.4611197631546
 20
14.57556035348509
 30
0.0
 10
177.3067935648022
 20
14.70898038201723
 30
0.0
 11
177.3067935648022
 21
14.70898038201723
 31
0.0
 11
176.8595529338511
 21
15.18757635411976
 31
0.0
 11
176.4124049070643
 21
15.66352649288969
 31
0.0
 11
176.4089664262495
 21
15.55086249986232
 31
0.0
 11
176.4055610183501
 21
15.40557538184309
 31
0.0
 11
176.4029636920274
 21
15.21465645827967
 31
0.0
 11
176.4021126156603
 21
14.96521170139756
 31
0.0
 11
176.402523923029
 21
14.8843980295428
 31
0.0
 11
176.4038420329817
 21
14.78640628477562
 31
0.0
 11
176.4055192267718
 21
14.67713557299739
 31
0.0
 11
176.4072367127519
 21
14.5628245487204
 31
0.0
 11
176.4094007838772
 21
14.44497802965265
 31
0.0
 11
176.4124049070643
 21
14.32545802100198
 31
0.0
 11
176.4158359733138
 21
14.20933349846155
 31
0.0
 11
176.4192928929998
 21
14.10186746550228
 31
0.0
 11
176.4227085253088
 21
14.00510162351264
 31
0.0
 11
176.4261896983792
 21
13.92125406276973
 31
0.0
 11
176.4296006184313
 21
13.85632862007759
 31
0.0
 11
176.4330776843148
 21
13.81626739612928
 31
0.0
 11
176.3754263821571
 21
13.82145433189185
 31
0.0
 11
176.312674631831
 21
13.82315538223862
 31
0.0
 11
176.2464251717157
 21
13.82145433189185
 31
0.0
 11
176.1853747739675
 21
13.81626739612928
 31
0.0
 11
176.1926772737813
 21
13.86531894125589
 31
0.0
 11
176.2008793569055
 21
13.94356725720856
 31
0.0
 11
176.2090098822348
 21
14.04551893253029
 31
0.0
 11
176.2163406441397
 21
14.16542920159752
 31
0.0
 11
176.2236358280422
 21
14.30005912343889
 31
0.0
 11
176.2318444255596
 21
14.44586107652743
 31
0.0
 11
176.2395504149466
 21
14.59715203135072
 31
0.0
 11
176.2455763002093
 21
14.74850913200733
 31
0.0
 11
176.2503046247415
 21
14.89817951391435
 31
0.0
 11
176.2541928972121
 21
15.04435739582222
 31
0.0
 11
176.2567527408965
 21
15.18111831592696
 31
0.0
 11
176.2576324804575
 21
15.3023085068689
 31
0.0
 11
176.257192610677
 21
15.60939715262544
 31
0.0
 11
176.2559126888347
 21
15.86997204839365
 31
0.0
 11
176.2528658717892
 21
16.07719922716124
 31
0.0
 11
176.2473049112764
 21
16.2242138538606
 31
0.0
 11
176.261572812147
 21
16.2242138538606
 31
0.0
 11
176.2880703423354
 21
16.2242138538606
 31
0.0
 11
176.302338243206
 21
16.2242138538606
 31
0.0
 11
176.5194743650277
 21
15.98910179662772
 31
0.0
 11
176.7512744123079
 21
15.73751281231561
 31
0.0
 11
176.9894816018839
 21
15.4794955554357
 31
0.0
 11
177.2260074557522
 21
15.22497079855488
 31
0.0
 11
177.4555698717706
 21
14.97899759549138
 31
0.0
 11
177.6731797360104
 21
14.74678934034107
 31
0.0
 11
177.8713724913708
 21
14.53826680567101
 31
0.0
 11
178.0430143099086
 21
14.3632669793259
 31
0.0
 11
178.0430143099086
 21
14.38918210687044
 31
0.0
 11
178.0430143099086
 21
14.45601585685372
 31
0.0
 11
178.0430143099086
 21
14.54740078030025
 31
0.0
 11
178.0430143099086
 21
14.64696942823454
 31
0.0
 11
178.0430143099086
 21
14.73835435168107
 31
0.0
 11
178.0430143099086
 21
14.80518810166435
 31
0.0
 11
178.0430143099086
 21
14.83110322920889
 31
0.0
 11
178.0417233637609
 21
15.18755430550867
 31
0.0
 11
178.0378461155958
 21
15.53450684014415
 31
0.0
 11
178.0296197790002
 21
15.86693815950551
 31
0.0
 11
178.0154535467227
 21
16.17960510387179
 31
0.0
 11
178.0790351249618
 21
16.16666367158334
 31
0.0
 11
178.1324170159612
 21
16.16238072887607
 31
0.0
 11
178.1805381084834
 21
16.16666367158334
 31
0.0
 11
178.2424836798197
 21
16.17960510387179
 31
0.0
 11
178.2351216487575
 21
16.084981284451
 31
0.0
 11
178.2269790968819
 21
15.95257496503963
 31
0.0
 11
178.2183705364005
 21
15.79600336785655
 31
0.0
 11
178.2097547223216
 21
15.6291659373427
 31
0.0
 11
178.201618785029
 21
15.45890325509361
 31
0.0
 11
178.1942501393835
 21
15.29206031242701
 31
0.0
 11
178.1891406931522
 21
15.1432994357281
 31
0.0
 11
178.1874503478904
 21
15.02722121527101
 31
0.0
 11
178.1874503478904
 21
14.93258747397519
 31
0.0
 11
178.1874503478904
 21
14.82077565976708
 31
0.0
 11
178.1878461204497
 21
14.70123801222749
 31
0.0
 11
178.1890819450707
 21
14.57660052093918
 31
0.0
 11
178.1908392193317
 21
14.4488321268739
 31
0.0
 11
178.1925303477609
 21
14.32028982655878
 31
0.0
 11
178.1942876220215
 21
14.19558288214555
 31
0.0
 11
178.1959787504505
 21
14.0794748960635
 31
0.0
 11
178.1972884379172
 21
13.97495896727017
 31
0.0
 11
178.1976985420735
 21
13.88517371555652
 31
0.0
 11
178.1976985420735
 21
13.81891763918415
 31
0.0
 11
178.1976985420735
 21
13.77165864614041
 31
0.0
 11
178.1736699662976
 21
13.77165864614041
 31
0.0
 11
178.1496413905217
 21
13.77165864614041
 31
0.0
 11
177.7410729200423
 21
14.2346673526219
 31
0.0
 11
177.3067935648022
 21
14.70898038201723
 31
0.0
  0
SPLINE
  5
A4
102
{ACAD_REACTORS
330
C1
102
}
330
48
100
AcDbEntity
  8
_U_30EC_U_30A4_U_30E4_U_30FC_1
  6
Continuous
 62
     2
100
AcDbSpline
210
0.0
220
0.0
230
1.0
 70
    11
 71
     3
 72
   110
 73
   106
 74
   104
 42
0.000000001
 43
0.0000000001
 44
0.00000001
 40
0.0
 40
0.0
 40
0.0
 40
0.0
 40
0.2203406257277737
 40
0.4407808782838091
 40
0.5952494494614785
 40
0.7488431659393074
 40
0.9023581831309913
 40
1.056801968670404
 40
1.210736449099933
 40
1.363041386539868
 40
1.515315729683126
 40
1.669377239148077
 40
1.721611652756568
 40
1.773199502942955
 40
1.824933793210001
 40
1.877110426487989
 40
1.982682281206752
 40
2.07878166708756
 40
2.172809640822254
 40
2.271937807378937
 40
2.378349933379358
 40
2.494131557736404
 40
2.626681683943595
 40
2.78314505079608
 40
2.890701232940946
 40
2.993130312454862
 40
3.099869730691825
 40
3.220237816691321
 40
3.352695482737612
 40
3.481732806389852
 40
3.593499473690392
 40
3.674323013331906
 40
3.817951711952856
 40
3.946167120793967
 40
4.061405053453595
 40
4.166480796003178
 40
4.262478775059244
 40
4.350736673551285
 40
4.433071991254114
 40
4.511216293814774
 40
4.56426245411811
 40
4.618474415571738
 40
4.670128488754319
 40
4.722296879126531
 40
4.819540945314399
 40
4.931194984128255
 40
5.049996040257954
 40
5.168643755415641
 40
5.283970811762711
 40
5.392260784910594
 40
5.486512254876612
 40
5.559178233950067
 40
5.591425852853729
 40
5.626215969638116
 40
5.667155838674654
 40
5.717449290214453
 40
5.738402360945069
 40
5.78449911655404
 40
5.830595872165017
 40
5.851548942897879
 40
5.87301928066199
 40
5.924217778408532
 40
5.985325662817909
 40
6.036524160567921
 40
6.057994498334449
 40
6.2368477896077
 40
6.381409928945865
 40
6.493190424178905
 40
6.574067534230712
 40
6.691018086205807
 40
6.814881554220809
 40
6.944307823240677
 40
7.071266716066301
 40
7.193488604462174
 40
7.309042773128572
 40
7.414007203171084
 40
7.505140441886756
 40
7.531150360599897
 40
7.559221645322489
 40
7.587202218921153
 40
7.612569159499357
 40
7.662550809481239
 40
7.702878875764362
 40
7.857328205231092
 40
8.010799568088709
 40
8.165256399657745
 40
8.322232698714112
 40
8.479564855016799
 40
8.635216230291002
 40
8.79088255092592
 40
8.948305154947485
 40
9.168271839033158
 40
9.387358980987447
 40
9.608047961033686
 40
9.832914234792879
 40
9.858338694963214
 40
9.925366817230223
 40
10.02013071422781
 40
10.1287624985902
 40
10.2373942829527
 40
10.33215817995212
 40
10.39918630222416
 40
10.42461076239805
 40
10.64992019336964
 40
10.87188524531208
 40
10.87188524531208
 40
10.87188524531208
 40
10.87188524531208
 10
179.9057788376618
 20
15.7392326039819
 30
0.0
 10
179.9092864933541
 20
15.80616462073804
 30
0.0
 10
179.9163033987663
 20
15.94005891915859
 30
0.0
 10
179.8198027599072
 20
16.22548554971469
 30
0.0
 10
180.0510134726109
 20
16.16284386190284
 30
0.0
 10
180.1919290057156
 20
16.17001554055991
 30
0.0
 10
180.3490417757588
 20
16.16235883078244
 30
0.0
 10
180.5025913427288
 20
16.1625275228304
 30
0.0
 10
180.654510493508
 20
16.16182040535431
 30
0.0
 10
180.8142214813232
 20
16.17210158351638
 30
0.0
 10
180.9408972601118
 20
16.15496511080753
 30
0.0
 10
181.137082112208
 20
16.22727260107145
 30
0.0
 10
181.1034395279078
 20
16.12640699080117
 30
0.0
 10
181.1052011317184
 20
16.07619253947669
 30
0.0
 10
181.1027342073458
 20
16.02712335586465
 30
0.0
 10
181.1347076966011
 20
15.94063490846997
 30
0.0
 10
181.0010399903256
 20
15.98997438608336
 30
0.0
 10
180.9172208688057
 20
15.98430634314165
 30
0.0
 10
180.8173861139324
 20
15.99465516706297
 30
0.0
 10
180.7186576720146
 20
16.00086450411088
 30
0.0
 10
180.6121532771111
 20
16.00697763816777
 30
0.0
 10
180.491051169806
 20
16.01588883484584
 30
0.0
 10
180.3703381502454
 20
16.00521605912383
 30
0.0
 10
180.1812553843436
 20
16.0646850308037
 30
0.0
 10
180.2129028505313
 20
15.90558320077539
 30
0.0
 10
180.1995563316832
 20
15.80839128339904
 30
0.0
 10
180.1974958426451
 20
15.69634065110102
 30
0.0
 10
180.195818804467
 20
15.57699685629351
 30
0.0
 10
180.1973336794233
 20
15.4503259215511
 30
0.0
 10
180.1956582478672
 20
15.32301588016117
 30
0.0
 10
180.2058844271658
 20
15.22451566404464
 30
0.0
 10
180.1779006596582
 20
15.0838870262563
 30
0.0
 10
180.3508029999306
 20
15.13989551134096
 30
0.0
 10
180.4645020202773
 20
15.127199514785
 30
0.0
 10
180.584015167224
 20
15.13448377051255
 30
0.0
 10
180.6888491425071
 20
15.13878017056754
 30
0.0
 10
180.7843084898612
 20
15.14330568258976
 30
0.0
 10
180.8763823507032
 20
15.15149201146199
 30
0.0
 10
180.947655178244
 20
15.14643850638113
 30
0.0
 10
181.0544931705685
 20
15.18536425031674
 30
0.0
 10
181.0226603598037
 20
15.10517122005879
 30
0.0
 10
181.0266164503929
 20
15.05562936846032
 30
0.0
 10
181.0234502392014
 20
15.00557478039818
 30
0.0
 10
181.0550791490585
 20
14.92128847612022
 30
0.0
 10
180.9210133677693
 20
14.97425365495157
 30
0.0
 10
180.8292322793201
 20
14.96540080890439
 30
0.0
 10
180.7079729189603
 20
14.97570049965156
 30
0.0
 10
180.5914113119771
 20
14.97748911767501
 30
0.0
 10
180.4783375745879
 20
14.97787017109695
 30
0.0
 10
180.3679246308472
 20
14.98415449472181
 30
0.0
 10
180.289812406784
 20
14.97189133255364
 30
0.0
 10
180.1913625833644
 20
15.00453887616126
 30
0.0
 10
180.2012355173561
 20
14.94769748054205
 30
0.0
 10
180.1973923244404
 20
14.91392130557982
 30
0.0
 10
180.1966789884268
 20
14.87119604709411
 30
0.0
 10
180.1963369642975
 20
14.83401607262153
 30
0.0
 10
180.1963834255345
 20
14.79487237370771
 30
0.0
 10
180.1963649429927
 20
14.75716849497685
 30
0.0
 10
180.1963703431807
 20
14.71944955232402
 30
0.0
 10
180.19636972142
 20
14.68994324745149
 30
0.0
 10
180.1963698151545
 20
14.658735776993
 30
0.0
 10
180.1963704287921
 20
14.61414424908085
 30
0.0
 10
180.1963671499336
 20
14.5596395650885
 30
0.0
 10
180.1963759623482
 20
14.51505540201448
 30
0.0
 10
180.1963359653416
 20
14.43117808585739
 30
0.0
 10
180.1976024270254
 20
14.31737520677678
 30
0.0
 10
180.1950274117843
 20
14.1683039593371
 30
0.0
 10
180.2065009381719
 20
14.06597203813905
 30
0.0
 10
180.1823506222264
 20
13.93338903885834
 30
0.0
 10
180.3332993946476
 20
13.97895732272022
 30
0.0
 10
180.4428436671556
 20
13.96427012162349
 30
0.0
 10
180.573397047392
 20
13.96920435125063
 30
0.0
 10
180.6990312209514
 20
13.97257705323361
 30
0.0
 10
180.8188730625601
 20
13.97711497498774
 30
0.0
 10
180.9391362611427
 20
13.99048536182005
 30
0.0
 10
181.0222761663517
 20
13.98068712782596
 30
0.0
 10
181.1456080421074
 20
14.04126214623319
 30
0.0
 10
181.1244269203957
 20
13.98532460134019
 30
0.0
 10
181.1235950270118
 20
13.95939249372345
 30
0.0
 10
181.1218963707558
 20
13.93197256190938
 30
0.0
 10
181.1217974888829
 20
13.89738195206385
 30
0.0
 10
181.1203659301329
 20
13.86050408220767
 30
0.0
 10
181.1532804192191
 20
13.76846841021812
 30
0.0
 10
180.9551306988108
 20
13.84132015974829
 30
0.0
 10
180.8300548294891
 20
13.81825726508605
 30
0.0
 10
180.6673071295157
 20
13.82454021985786
 30
0.0
 10
180.512936645
 20
13.82260943909925
 30
0.0
 10
180.3566670436944
 20
13.82393762599267
 30
0.0
 10
180.1970544465282
 20
13.82059872487862
 30
0.0
 10
180.0540326342236
 20
13.83265795728239
 30
0.0
 10
179.8197144881628
 20
13.7695200197692
 30
0.0
 10
179.9173810751197
 20
14.05620527466318
 30
0.0
 10
179.9006868780059
 20
14.2498830814266
 30
0.0
 10
179.9146296709683
 20
14.47848242880295
 30
0.0
 10
179.9142987846632
 20
14.63384593955048
 30
0.0
 10
179.9143078119263
 20
14.73966336444126
 30
0.0
 10
179.9143055876316
 20
14.80205784124215
 30
0.0
 10
179.9143065551888
 20
14.89220425248327
 30
0.0
 10
179.9143065473261
 20
14.99621167157438
 30
0.0
 10
179.9143053861101
 20
15.10022131375296
 30
0.0
 10
179.9143090971502
 20
15.19036243688769
 30
0.0
 10
179.9143011051052
 20
15.25276803097216
 30
0.0
 10
179.9143334275017
 20
15.35868835961119
 30
0.0
 10
179.9131440788319
 20
15.51626716544741
 30
0.0
 10
179.9082216489256
 20
15.66528219822065
 30
0.0
 10
179.9057788376618
 20
15.7392326039819
 30
0.0
 11
179.9057788376618
 21
15.7392326039819
 31
0.0
 11
179.896691822374
 21
15.95938578101018
 31
0.0
 11
179.8868249573133
 21
16.17960510387179
 31
0.0
 11
180.04115751414
 21
16.17312391463728
 31
0.0
 11
180.1946500189046
 21
16.16754892331924
 31
0.0
 11
180.3481160653367
 21
16.1636716750563
 31
0.0
 11
180.5025544554939
 21
16.16238072887607
 31
0.0
 11
180.6564835227473
 21
16.1636716750563
 31
0.0
 11
180.8087391004601
 21
16.16754892331924
 31
0.0
 11
180.9609113551074
 21
16.17312391463728
 31
0.0
 11
181.1148364762483
 21
16.17960510387179
 31
0.0
 11
181.1070811703123
 21
16.12794961777358
 31
0.0
 11
181.1044991623591
 21
16.07642642334203
 31
0.0
 11
181.1070811703123
 21
16.02475660564659
 31
0.0
 11
181.1148364762483
 21
15.97315954836783
 31
0.0
 11
181.0094874054411
 21
15.98001446156056
 31
0.0
 11
180.913637570006
 21
15.98693552058655
 31
0.0
 11
180.8198593171903
 21
15.99378381919598
 31
0.0
 11
180.7209679915881
 21
16.00063211780541
 31
0.0
 11
180.6147532199923
 21
16.00710999974824
 31
0.0
 11
180.4991060528039
 21
16.01268829835793
 31
0.0
 11
180.3666126447258
 21
16.01656554662088
 31
0.0
 11
180.2101546018423
 21
16.01785649280113
 31
0.0
 11
180.2062663293722
 21
15.91037061609186
 31
0.0
 11
180.2015380048399
 21
15.80805072896463
 31
0.0
 11
180.1976607566749
 21
15.70138175329687
 31
0.0
 11
180.1963698105272
 21
15.5810205901325
 31
0.0
 11
180.1967799146836
 21
15.44856355891564
 31
0.0
 11
180.1980896021503
 21
15.31953288186456
 31
0.0
 11
180.1994074577049
 21
15.20777398432308
 31
0.0
 11
180.199819115366
 21
15.12695149302384
 31
0.0
 11
180.3434452935874
 21
15.1278025694125
 31
0.0
 11
180.4716343930759
 21
15.13039989580078
 31
0.0
 11
180.5868078221796
 21
15.13425509545254
 31
0.0
 11
180.691775631222
 21
15.13901649302075
 31
0.0
 11
180.7876346289421
 21
15.14418027774174
 31
0.0
 11
180.8757413374194
 21
15.14934406246267
 31
0.0
 11
180.9578881438497
 21
15.15491243919739
 31
0.0
 11
181.0357692335572
 21
15.16132086801524
 31
0.0
 11
181.0280180445186
 21
15.10884407115336
 31
0.0
 11
181.0254328449317
 21
15.05469378470856
 31
0.0
 11
181.0280180445186
 21
15.00310444444367
 31
0.0
 11
181.0357692335572
 21
14.95151510417882
 31
0.0
 11
180.9389813454015
 21
14.96092324653756
 31
0.0
 11
180.8275950722016
 21
14.96865128473011
 31
0.0
 11
180.7089261429373
 21
14.97425273438146
 31
0.0
 11
180.5903167449212
 21
14.97726788195011
 31
0.0
 11
180.4750025117522
 21
14.97898767361639
 31
0.0
 11
180.36672619507
 21
14.98070746528258
 31
0.0
 11
180.2724839317709
 21
14.98202486979616
 31
0.0
 11
180.199819115366
 21
14.98243607639328
 31
0.0
 11
180.199407457705
 21
14.9501910850819
 31
0.0
 11
180.1980896021503
 21
14.91542593752116
 31
0.0
 11
180.1967799146836
 21
14.87450702260084
 31
0.0
 11
180.1963698105272
 21
14.82421524309952
 31
0.0
 11
180.1963698105272
 21
14.80326217235822
 31
0.0
 11
180.1963698105272
 21
14.75716541672736
 31
0.0
 11
180.1963698105272
 21
14.7110686610965
 31
0.0
 11
180.1963698105272
 21
14.6901155903552
 31
0.0
 11
180.1963698105272
 21
14.6686452525828
 31
0.0
 11
180.1963698105272
 21
14.61744675481783
 31
0.0
 11
180.1963698105272
 21
14.55633887038867
 31
0.0
 11
180.1963698105272
 21
14.50514037262371
 31
0.0
 11
180.1963698105272
 21
14.4836700348513
 31
0.0
 11
180.1967799146836
 21
14.30481721371548
 31
0.0
 11
180.1980896021503
 21
14.16026100715443
 31
0.0
 11
180.2002868589709
 21
14.04850210961289
 31
0.0
 11
180.2032586986985
 21
13.96767961831365
 31
0.0
 11
180.3202092517447
 21
13.96767961831365
 31
0.0
 11
180.4440727208747
 21
13.96767961831365
 31
0.0
 11
180.5734925526422
 21
13.96897056449389
 31
0.0
 11
180.7003922282244
 21
13.97284781275682
 31
0.0
 11
180.8224658067974
 21
13.97886708358865
 31
0.0
 11
180.9377587499465
 21
13.98663260442002
 31
0.0
 11
181.0421754573519
 21
13.99734161483402
 31
0.0
 11
181.1320599255448
 21
14.01237656274692
 31
0.0
 11
181.1264254031192
 21
13.98698427976715
 31
0.0
 11
181.1234433285424
 21
13.95907184053801
 31
0.0
 11
181.12213398812
 21
13.93112191867001
 31
0.0
 11
181.1217235369194
 21
13.90575829888472
 31
0.0
 11
181.1243087365064
 21
13.85584355063325
 31
0.0
 11
181.1320599255448
 21
13.81626739612928
 31
0.0
 11
180.9776977178345
 21
13.82145433189185
 31
0.0
 11
180.8242357818766
 21
13.82315538223862
 31
0.0
 11
180.6697789496483
 21
13.82315538223862
 31
0.0
 11
180.5128026496768
 21
13.82315538223862
 31
0.0
 11
180.3554704921536
 21
13.82315538223862
 31
0.0
 11
180.199819115366
 21
13.82315538223862
 31
0.0
 11
180.0441620874241
 21
13.82145433189185
 31
0.0
 11
179.8868249573133
 21
13.81626739612928
 31
0.0
 11
179.896691822374
 21
14.03601267385209
 31
0.0
 11
179.9057788376618
 21
14.25491128490852
 31
0.0
 11
179.91217215184
 21
14.47550763902003
 31
0.0
 11
179.9143063455009
 21
14.70036378479715
 31
0.0
 11
179.9143063455009
 21
14.72578824496874
 31
0.0
 11
179.9143063455009
 21
14.79281636723931
 31
0.0
 11
179.9143063455009
 21
14.88758026424254
 31
0.0
 11
179.9143063455009
 21
14.99621204861208
 31
0.0
 11
179.9143063455009
 21
15.10484383298163
 31
0.0
 11
179.9143063455009
 21
15.19960772998484
 31
0.0
 11
179.9143063455009
 21
15.26663585225541
 31
0.0
 11
179.9143063455009
 21
15.29206031242701
 31
0.0
 11
179.91217215184
 21
15.51735963528735
 31
0.0
 11
179.9057788376618
 21
15.7392326039819
 31
0.0
  0
SPLINE
  5
A5
102
{ACAD_REACTORS
330
C2
102
}
330
48
100
AcDbEntity
  8
_U_30EC_U_30A4_U_30E4_U_30FC_1
  6
Continuous
 62
     2
100
AcDbSpline
210
0.0
220
0.0
230
1.0
 70
    11
 71
     3
 72
    47
 73
    43
 74
    41
 42
0.000000001
 43
0.0000000001
 44
0.00000001
 40
0.0
 40
0.0
 40
0.0
 40
0.0
 40
0.2207912809957077
 40
0.4459404186302937
 40
0.490238719045887
 40
0.5327473892721828
 40
0.5742260451224873
 40
0.6155432630559596
 40
0.6568164066314797
 40
0.6982511618781422
 40
0.7407663929316527
 40
0.785136674317515
 40
1.010288833836319
 40
1.231080507002154
 40
1.45176524365239
 40
1.676638205891679
 40
1.720461045359648
 40
1.830018144043514
 40
1.972442372353145
 40
2.114866600677514
 40
2.224423699395139
 40
2.26824653888338
 40
2.49362880120722
 40
2.715602830286623
 40
2.934211330706363
 40
3.149502369855349
 40
3.231387784851079
 40
3.318231873854142
 40
3.405143198198159
 40
3.486970301720452
 40
3.702258172493886
 40
3.920866283534104
 40
4.142839325931893
 40
4.368221903865364
 40
4.412044743359844
 40
4.521601842095859
 40
4.66402607045234
 40
4.806450298809048
 40
4.91600739754674
 40
4.959830237043064
 40
5.1847035158471
 40
5.405387250767479
 40
5.405387250767479
 40
5.405387250767479
 40
5.405387250767479
 10
182.6507427258646
 20
15.73406440953873
 30
0.0
 10
182.6568139420004
 20
15.79758482501211
 30
0.0
 10
182.6690762107243
 20
15.92587938689627
 30
0.0
 10
182.5604706879415
 20
16.20166220174077
 30
0.0
 10
182.6761985896604
 20
16.17188133432053
 30
0.0
 10
182.7171842509016
 20
16.16765556262821
 30
0.0
 10
182.7591205797518
 20
16.16310446389605
 30
0.0
 10
182.800419662571
 20
16.16201982929485
 30
0.0
 10
182.8417032115556
 20
16.16310338195227
 30
0.0
 10
182.8836148270649
 20
16.16766112711341
 30
0.0
 10
182.924598354902
 20
16.17187430209731
 30
0.0
 10
183.040492284349
 20
16.20177611317532
 30
0.0
 10
182.9295652727456
 20
15.92339806609892
 30
0.0
 10
182.9574856365268
 20
15.74283140824952
 30
0.0
 10
182.940426734697
 20
15.50961042346473
 30
0.0
 10
182.9414637282104
 20
15.34906622543145
 30
0.0
 10
182.9414099399405
 20
15.22284817558722
 30
0.0
 10
182.9414277372482
 20
15.12428963336242
 30
0.0
 10
182.9414188581081
 20
14.99280702442962
 30
0.0
 10
182.9414263928035
 20
14.8613284496865
 30
0.0
 10
182.9414129405129
 20
14.7627622269409
 30
0.0
 10
182.9414531717494
 20
14.63639735624152
 30
0.0
 10
182.9406746403817
 20
14.47482068822869
 30
0.0
 10
182.9565958319269
 20
14.24361821892915
 30
0.0
 10
182.9333468885407
 20
14.05874351971999
 30
0.0
 10
183.0360183444367
 20
13.78935602770055
 30
0.0
 10
182.8820238362836
 20
13.82660112685816
 30
0.0
 10
182.8004129802832
 20
13.82137994680535
 30
0.0
 10
182.7188192292582
 20
13.82660620378349
 30
0.0
 10
182.5648513666844
 20
13.78937069885392
 30
0.0
 10
182.6674183421918
 20
14.0587512986288
 30
0.0
 10
182.6442045316089
 20
14.24361585325413
 30
0.0
 10
182.6600444655139
 20
14.47482218565638
 30
0.0
 10
182.6593296313426
 20
14.63639712308503
 30
0.0
 10
182.6593664569907
 20
14.7627623121052
 30
0.0
 10
182.659354900027
 20
14.86132756635981
 30
0.0
 10
182.6593575019214
 20
14.9928112741722
 30
0.0
 10
182.6593648531779
 20
15.124275480312
 30
0.0
 10
182.6593442541351
 20
15.22287786275325
 30
0.0
 10
182.6594082192028
 20
15.34896149354427
 30
0.0
 10
182.658173394759
 20
15.51210091383771
 30
0.0
 10
182.6532040396745
 20
15.6605418377755
 30
0.0
 10
182.6507427258646
 20
15.73406440953873
 30
0.0
 11
182.6507427258646
 21
15.73406440953873
 31
0.0
 11
182.641732820038
 21
15.95467178795577
 31
0.0
 11
182.6318769706147
 21
16.17960510387179
 31
0.0
 11
182.6756985840802
 21
16.17312391463728
 31
0.0
 11
182.7178400934216
 21
16.16754892331924
 31
0.0
 11
182.7591371409791
 21
16.1636716750563
 31
0.0
 11
182.8004341885365
 21
16.16238072887607
 31
0.0
 11
182.8416871388731
 21
16.1636716750563
 31
0.0
 11
182.8829400892099
 21
16.16754892331924
 31
0.0
 11
182.9250882131344
 21
16.17312391463728
 31
0.0
 11
182.9689825870146
 21
16.17960510387179
 31
0.0
 11
182.9590577693891
 21
15.95467178795577
 31
0.0
 11
182.9500384208311
 21
15.73406440953873
 31
0.0
 11
182.9435638463436
 21
15.51347467001055
 31
0.0
 11
182.9414218238287
 21
15.28861190965007
 31
0.0
 11
182.9414218238287
 21
15.24478907015486
 31
0.0
 11
182.9414218238287
 21
15.13523197141682
 31
0.0
 11
182.9414218238287
 21
14.99280774305737
 31
0.0
 11
182.9414218238287
 21
14.85038351469792
 31
0.0
 11
182.9414218238287
 21
14.74082641595989
 31
0.0
 11
182.9414218238287
 21
14.69700357646467
 31
0.0
 11
182.9435638463436
 21
14.47163149318765
 31
0.0
 11
182.9500384208311
 21
14.24975190990979
 31
0.0
 11
182.9590577693892
 21
14.03132954885329
 31
0.0
 11
182.9689825870146
 21
13.81626739612928
 31
0.0
 11
182.887261616877
 21
13.82145433189185
 31
0.0
 11
182.8004341885365
 21
13.82315538223862
 31
0.0
 11
182.7135395119339
 21
13.82145433189185
 31
0.0
 11
182.6318769706147
 21
13.81626739612928
 31
0.0
 11
182.641732820038
 21
14.03132954885329
 31
0.0
 11
182.6507427258646
 21
14.24975190990979
 31
0.0
 11
182.6571833838798
 21
14.47163149318765
 31
0.0
 11
182.6593583588023
 21
14.69700357646467
 31
0.0
 11
182.6593583588023
 21
14.74082641595988
 31
0.0
 11
182.6593583588023
 21
14.85038351469792
 31
0.0
 11
182.6593583588023
 21
14.99280774305737
 31
0.0
 11
182.6593583588023
 21
15.13523197141682
 31
0.0
 11
182.6593583588023
 21
15.24478907015486
 31
0.0
 11
182.6593583588023
 21
15.28861190965007
 31
0.0
 11
182.6571833838798
 21
15.51347467001055
 31
0.0
 11
182.6507427258646
 21
15.73406440953873
 31
0.0
  0
SPLINE
  5
A6
102
{ACAD_REACTORS
330
C3
102
}
330
48
100
AcDbEntity
  8
_U_30EC_U_30A4_U_30E4_U_30FC_1
  6
Continuous
 62
     2
100
AcDbSpline
210
0.0
220
0.0
230
1.0
 70
    11
 71
     3
 72
   118
 73
   114
 74
   112
 42
0.000000001
 43
0.0000000001
 44
0.00000001
 40
0.0
 40
0.0
 40
0.0
 40
0.0
 40
0.1054708162973597
 40
0.2466098270052585
 40
0.3965912874592252
 40
0.5285525069755319
 40
0.615624505564385
 40
0.6431434105799176
 40
0.7036850037988064
 40
0.7642265984506827
 40
0.7917455052357145
 40
0.928740431999216
 40
1.106572819088329
 40
1.287544879681383
 40
1.317578308030902
 40
1.39992803085754
 40
1.522968204800316
 40
1.675072986590939
 40
1.84461653318102
 40
2.019973001639087
 40
2.189516548880402
 40
2.341621331585744
 40
2.46466150632088
 40
2.547011229647445
 40
2.577044658168411
 40
2.603797890893425
 40
2.662655002909084
 40
2.721512114949839
 40
2.74826534770299
 40
2.774215307345065
 40
2.845959313407397
 40
2.954338556588597
 40
3.090194227585775
 40
3.24436751710074
 40
3.407699615844502
 40
3.57103171453965
 40
3.72520500392033
 40
3.861060674729831
 40
3.969439917716524
 40
4.041183923629198
 40
4.067133883213192
 40
4.311886746012369
 40
4.547897258335746
 40
4.76474708304419
 40
4.952749679951936
 40
5.045772974196109
 40
5.137862019645252
 40
5.330543169793305
 40
5.553448265244296
 40
5.79508385588848
 40
6.043293412177534
 40
6.285761695541482
 40
6.313902908752966
 40
6.384255941793527
 40
6.475714884767059
 40
6.567173827759064
 40
6.637526860839814
 40
6.665668074074149
 40
6.69201892032812
 40
6.749990782071182
 40
6.807962643790543
 40
6.834313490018014
 40
6.856393084245293
 40
6.913335195649888
 40
6.991194817302524
 40
7.076026942283757
 40
7.153886563725247
 40
7.210828674844801
 40
7.232908268931136
 40
7.258199334923657
 40
7.32487578159231
 40
7.419142481924969
 40
7.527204308841916
 40
7.635266135230499
 40
7.729532834168485
 40
7.796209279292811
 40
7.821500344594758
 40
7.844652988850856
 40
7.899863140541607
 40
7.965759128053773
 40
8.020969279771085
 40
8.044121924046552
 40
8.069356610160705
 40
8.109134395441558
 40
8.13223810019127
 40
8.193147867786635
 40
8.27926167887681
 40
8.377977512674025
 40
8.476693347146812
 40
8.562807160411866
 40
8.623716930826655
 40
8.646820636853608
 40
8.67198879377445
 40
8.73490918582836
 40
8.816705695189075
 40
8.898502204815674
 40
8.961422597378164
 40
8.986590754551276
 40
9.012941600733427
 40
9.070913462380506
 40
9.128885324081994
 40
9.155236170325312
 40
9.180404327929383
 40
9.243324721948428
 40
9.325121234212249
 40
9.406917746637932
 40
9.469838141978444
 40
9.49500628827119
 40
9.517811184379333
 40
9.572192090487334
 40
9.637098333281568
 40
9.69147923951577
 40
9.71428412564381
 40
9.71428412564381
 40
9.71428412564381
 40
9.71428412564381
 10
185.2874469028652
 20
15.26889163187719
 30
0.0
 10
185.3090990569036
 20
15.2411186924281
 30
0.0
 10
185.3597257109474
 20
15.17618054561235
 30
0.0
 10
185.4349383202592
 20
15.06891060312899
 30
0.0
 10
185.5248482274346
 20
14.95377438266625
 30
0.0
 10
185.5709169676675
 20
14.85357045748318
 30
0.0
 10
185.6655825294656
 20
14.78434006814943
 30
0.0
 10
185.6204439320415
 20
14.73771639678273
 30
0.0
 10
185.5947047785792
 20
14.69660308866037
 30
0.0
 10
185.5645196708013
 20
14.6606597172794
 30
0.0
 10
185.5193684730563
 20
14.58579782596091
 30
0.0
 10
185.4710504458563
 20
14.8078252425361
 30
0.0
 10
185.3968539713072
 20
14.84510677337706
 30
0.0
 10
185.2836047324606
 20
15.11610202130603
 30
0.0
 10
185.2885133578168
 20
15.00095328446229
 30
0.0
 10
185.2868486556305
 20
14.92836675781628
 30
0.0
 10
185.2876830076713
 20
14.80625588483987
 30
0.0
 10
185.2873609540263
 20
14.65913800810461
 30
0.0
 10
185.2875076912455
 20
14.49307063956557
 30
0.0
 10
185.2872950092721
 20
14.32187554608602
 30
0.0
 10
185.2879497252033
 20
14.15552828635498
 30
0.0
 10
185.2859192461138
 20
14.00935173055693
 30
0.0
 10
185.2913460399929
 20
13.88471047474609
 30
0.0
 10
185.2804930868707
 20
13.81718656540627
 30
0.0
 10
185.2956739155553
 20
13.75549061417022
 30
0.0
 10
185.2457895108133
 20
13.76727503897
 30
0.0
 10
185.2017150342521
 20
13.75943822779968
 30
0.0
 10
185.1582371630202
 20
13.76760441372702
 30
0.0
 10
185.1092346786489
 20
13.75538056738467
 30
0.0
 10
185.1218731234826
 20
13.80960667249312
 30
0.0
 10
185.1130182968449
 20
13.86936918907556
 30
0.0
 10
185.1175058770315
 20
13.9792202904437
 30
0.0
 10
185.1157960135992
 20
14.11029975405678
 30
0.0
 10
185.1163550915987
 20
14.26198011444326
 30
0.0
 10
185.1161928768695
 20
14.42211074929953
 30
0.0
 10
185.1162269924675
 20
14.58236865674566
 30
0.0
 10
185.1162514960128
 20
14.73370247520439
 30
0.0
 10
185.1161453543226
 20
14.86582156338601
 30
0.0
 10
185.1164299141932
 20
14.97294802533194
 30
0.0
 10
185.1158675547568
 20
15.03808619579473
 30
0.0
 10
185.1180765083691
 20
15.16618957858676
 30
0.0
 10
185.0319435998603
 20
14.79097610391573
 30
0.0
 10
184.9555140818501
 20
14.63918193123396
 30
0.0
 10
184.8660040767834
 20
14.47766206446308
 30
0.0
 10
184.7640413217329
 20
14.20471848820172
 30
0.0
 10
184.7187976491039
 20
14.36717346596513
 30
0.0
 10
184.610235594167
 20
14.45605432058113
 30
0.0
 10
184.7995791751752
 20
14.6054979496141
 30
0.0
 10
184.85653405457
 20
14.79749136974925
 30
0.0
 10
184.9717520993352
 20
15.02899622906755
 30
0.0
 10
184.9940151630134
 20
15.21797259759065
 30
0.0
 10
185.1771905152138
 20
15.49454089325929
 30
0.0
 10
185.0538033597553
 20
15.48698978832095
 30
0.0
 10
184.9925684166834
 20
15.48856772366118
 30
0.0
 10
184.9081999617065
 20
15.48882592573674
 30
0.0
 10
184.8204235085967
 20
15.48544845751206
 30
0.0
 10
184.7656768696125
 20
15.49394814982021
 30
0.0
 10
184.7104703026026
 20
15.48048561049789
 30
0.0
 10
184.7222823035538
 20
15.52931442126764
 30
0.0
 10
184.7142496151795
 20
15.57269004896708
 30
0.0
 10
184.722818610468
 20
15.61509438309572
 30
0.0
 10
184.7102943409159
 20
15.66267796552117
 30
0.0
 10
184.7555101538737
 20
15.65267212995108
 30
0.0
 10
184.8014815562726
 20
15.6589410517406
 30
0.0
 10
184.8777222047712
 20
15.65593561405871
 30
0.0
 10
184.9561296131995
 20
15.65770448278541
 30
0.0
 10
185.0323992648933
 20
15.65464793981659
 30
0.0
 10
185.0783009459475
 20
15.66103971376175
 30
0.0
 10
185.1231733965401
 20
15.65093822978895
 30
0.0
 10
185.1105552275634
 20
15.70157201581897
 30
0.0
 10
185.1191936582707
 20
15.75501261882069
 30
0.0
 10
185.1152361595444
 20
15.8486325513168
 30
0.0
 10
185.1162325068335
 20
15.95112606688924
 30
0.0
 10
185.1171927413074
 20
16.05353270248163
 30
0.0
 10
185.1133211458005
 20
16.14735929609321
 30
0.0
 10
185.1217789814366
 20
16.20036542840355
 30
0.0
 10
185.1093075932836
 20
16.2521143565119
 30
0.0
 10
185.1542106389851
 20
16.23850747226759
 30
0.0
 10
185.1955083836773
 20
16.24100480320586
 30
0.0
 10
185.2595344281051
 20
16.23648060574488
 30
0.0
 10
185.2986111148787
 20
16.2278100304331
 30
0.0
 10
185.3476543498743
 20
16.23515102070687
 30
0.0
 10
185.3225080030589
 20
16.19602896051758
 30
0.0
 10
185.2815901333723
 20
16.20563842455811
 30
0.0
 10
185.2910109616603
 20
16.15540148169778
 30
0.0
 10
185.2855647318745
 20
16.1038594563949
 30
0.0
 10
185.2881699601803
 20
16.0195970758452
 30
0.0
 10
185.2870102202153
 20
15.92559135583408
 30
0.0
 10
185.288359106423
 20
15.83196865395525
 30
0.0
 10
185.2849970101508
 20
15.74679517552223
 30
0.0
 10
185.2920959917768
 20
15.69716856072043
 30
0.0
 10
185.2812569154545
 20
15.64993694969987
 30
0.0
 10
185.3304010225244
 20
15.66201674936851
 30
0.0
 10
185.3794877630147
 20
15.6544739336301
 30
0.0
 10
185.4573714280641
 20
15.65686070361432
 30
0.0
 10
185.5350365172895
 20
15.65899381905414
 30
0.0
 10
185.5845393931355
 20
15.65193391922453
 30
0.0
 10
185.6344594750639
 20
15.66360151936213
 30
0.0
 10
185.6223198516881
 20
15.61540235371392
 30
0.0
 10
185.6305838229144
 20
15.57249219801235
 30
0.0
 10
185.6223198650783
 20
15.52958201851385
 30
0.0
 10
185.6344594549855
 20
15.48138288754864
 30
0.0
 10
185.5845395158746
 20
15.49305034471512
 30
0.0
 10
185.5350350651202
 20
15.48599202435046
 30
0.0
 10
185.4573784382972
 20
15.48811665228605
 30
0.0
 10
185.3794643865759
 20
15.49053389365761
 30
0.0
 10
185.3304500352716
 20
15.48291848194487
 30
0.0
 10
185.2813246108942
 20
15.49507952557592
 30
0.0
 10
185.291555998857
 20
15.45073013424159
 30
0.0
 10
185.2856677678053
 20
15.40925436202912
 30
0.0
 10
185.2878788305568
 20
15.34915394315303
 30
0.0
 10
185.2874109346145
 20
15.30225782762888
 30
0.0
 10
185.2874386992912
 20
15.27650146418196
 30
0.0
 10
185.2874469028652
 20
15.26889163187719
 30
0.0
 11
185.2874469028652
 21
15.26889163187719
 31
0.0
 11
185.3516977534484
 21
15.18524999634256
 31
0.0
 11
185.4348258835499
 21
15.07118889748221
 31
0.0
 11
185.5216831568897
 21
14.94891767195723
 31
0.0
 11
185.5971214371874
 21
14.84064565642876
 31
0.0
 11
185.6459925881628
 21
14.7685821875579
 31
0.0
 11
185.6296821285095
 21
14.74641782124399
 31
0.0
 11
185.5937991172721
 21
14.69765621535339
 31
0.0
 11
185.5579161060347
 21
14.64889460946279
 31
0.0
 11
185.5416056463814
 21
14.62673024314888
 31
0.0
 11
185.4763067109447
 21
14.74716139023813
 31
0.0
 11
185.3848434243234
 21
14.89966983670207
 31
0.0
 11
185.2874469028652
 21
15.05219788193143
 31
0.0
 11
185.2874469028652
 21
15.02216445328254
 31
0.0
 11
185.2874469028652
 21
14.93981472956784
 31
0.0
 11
185.2874469028652
 21
14.81677455413528
 31
0.0
 11
185.2874469028652
 21
14.66466977033284
 31
0.0
 11
185.2874469028652
 21
14.49512622150845
 31
0.0
 11
185.2874469028652
 21
14.31976975101009
 31
0.0
 11
185.2874469028652
 21
14.1502262021857
 31
0.0
 11
185.2874469028652
 21
13.99812141838325
 31
0.0
 11
185.2874469028652
 21
13.8750812429507
 31
0.0
 11
185.2874469028652
 21
13.792731519236
 31
0.0
 11
185.2874469028652
 21
13.76269809058711
 31
0.0
 11
185.2606936700408
 21
13.76269809058711
 31
0.0
 11
185.2018365578272
 21
13.76269809058711
 31
0.0
 11
185.1429794456135
 21
13.76269809058711
 31
0.0
 11
185.1162262127891
 21
13.76269809058711
 31
0.0
 11
185.1162262127891
 21
13.78864805031249
 31
0.0
 11
185.1162262127891
 21
13.86039205661207
 31
0.0
 11
185.1162262127891
 21
13.96877130017101
 31
0.0
 11
185.1162262127891
 21
14.10462697167446
 31
0.0
 11
185.1162262127891
 21
14.2588002618076
 31
0.0
 11
185.1162262127891
 21
14.42213236125558
 31
0.0
 11
185.1162262127891
 21
14.58546446070356
 31
0.0
 11
185.1162262127891
 21
14.7396377508367
 31
0.0
 11
185.1162262127891
 21
14.87549342234015
 31
0.0
 11
185.1162262127891
 21
14.98387266589909
 31
0.0
 11
185.1162262127891
 21
15.05561667219867
 31
0.0
 11
185.1162262127891
 21
15.08156663192405
 31
0.0
 11
185.0379865861723
 21
14.84965603302372
 31
0.0
 11
184.9497110789304
 21
14.63077616328678
 31
0.0
 11
184.8544106930046
 21
14.43598991333546
 31
0.0
 11
184.7550964303358
 21
14.27636017379201
 31
0.0
 11
184.7109198342407
 21
14.35822446196599
 31
0.0
 11
184.658805738348
 21
14.4341488543081
 31
0.0
 11
184.7627302590299
 21
14.59640087926757
 31
0.0
 11
184.8629319864735
 21
14.7955146542178
 31
0.0
 11
184.9550446607902
 21
15.01890447916196
 31
0.0
 11
185.0347020220912
 21
15.25398465410319
 31
0.0
 11
185.097537810488
 21
15.48816947904466
 31
0.0
 11
185.0693965972142
 21
15.48816947904466
 31
0.0
 11
184.9990435640297
 21
15.48816947904466
 31
0.0
 11
184.9075846208899
 21
15.48816947904466
 31
0.0
 11
184.8161256777501
 21
15.48816947904466
 31
0.0
 11
184.7457726445656
 21
15.48816947904466
 31
0.0
 11
184.7176314312918
 21
15.48816947904466
 31
0.0
 11
184.7176314312918
 21
15.51452032539223
 31
0.0
 11
184.7176314312918
 21
15.57249218735688
 31
0.0
 11
184.7176314312918
 21
15.63046404932154
 31
0.0
 11
184.7176314312918
 21
15.65681489566911
 31
0.0
 11
184.7397110256022
 21
15.65681489566911
 31
0.0
 11
184.7966531372446
 21
15.65681489566911
 31
0.0
 11
184.8745127592863
 21
15.65681489566911
 31
0.0
 11
184.9593448847945
 21
15.65681489566911
 31
0.0
 11
185.0372045068362
 21
15.65681489566911
 31
0.0
 11
185.0941466184787
 21
15.65681489566911
 31
0.0
 11
185.1162262127891
 21
15.65681489566911
 31
0.0
 11
185.1162262127891
 21
15.68210596174352
 31
0.0
 11
185.1162262127891
 21
15.74878240866696
 31
0.0
 11
185.1162262127891
 21
15.84304910948976
 31
0.0
 11
185.1162262127891
 21
15.95111093726224
 31
0.0
 11
185.1162262127891
 21
16.05917276503472
 31
0.0
 11
185.1162262127891
 21
16.15343946585752
 31
0.0
 11
185.1162262127891
 21
16.22011591278096
 31
0.0
 11
185.1162262127891
 21
16.24540697885537
 31
0.0
 11
185.1393181988666
 21
16.24373213107801
 31
0.0
 11
185.1943837041285
 21
16.23973826330123
 31
0.0
 11
185.2601070491185
 21
16.23497138885797
 31
0.0
 11
185.3151725543804
 21
16.23097752108118
 31
0.0
 11
185.3382645404579
 21
16.22930267330382
 31
0.0
 11
185.3249012644362
 21
16.20789677921192
 31
0.0
 11
185.2874469028652
 21
16.19450114553469
 31
0.0
 11
185.2874469028652
 21
16.17139743948578
 31
0.0
 11
185.2874469028652
 21
16.11048766899319
 31
0.0
 11
185.2874469028652
 21
16.02437385553816
 31
0.0
 11
185.2874469028652
 21
15.9256580206019
 31
0.0
 11
185.2874469028652
 21
15.82694218566564
 31
0.0
 11
185.2874469028652
 21
15.74082837221061
 31
0.0
 11
185.2874469028652
 21
15.67991860171802
 31
0.0
 11
185.2874469028652
 21
15.65681489566911
 31
0.0
 11
185.3126150604808
 21
15.65681489566911
 31
0.0
 11
185.3755354545198
 21
15.65681489566911
 31
0.0
 11
185.4573319667705
 21
15.65681489566911
 31
0.0
 11
185.5391284790212
 21
15.65681489566911
 31
0.0
 11
185.6020488730602
 21
15.65681489566911
 31
0.0
 11
185.6272170306758
 21
15.65681489566911
 31
0.0
 11
185.6272170306758
 21
15.63046404932154
 31
0.0
 11
185.6272170306758
 21
15.57249218735688
 31
0.0
 11
185.6272170306758
 21
15.51452032539223
 31
0.0
 11
185.6272170306758
 21
15.48816947904466
 31
0.0
 11
185.6020488730602
 21
15.48816947904466
 31
0.0
 11
185.5391284790212
 21
15.48816947904466
 31
0.0
 11
185.4573319667705
 21
15.48816947904466
 31
0.0
 11
185.3755354545198
 21
15.48816947904466
 31
0.0
 11
185.3126150604808
 21
15.48816947904466
 31
0.0
 11
185.2874469028652
 21
15.48816947904466
 31
0.0
 11
185.2874469028652
 21
15.46536458293924
 31
0.0
 11
185.2874469028652
 21
15.41098367684171
 31
0.0
 11
185.2874469028652
 21
15.34607743408014
 31
0.0
 11
185.2874469028652
 21
15.29169652798261
 31
0.0
 11
185.2874469028652
 21
15.26889163187719
 31
0.0
  0
SPLINE
  5
A7
102
{ACAD_REACTORS
330
C4
102
}
330
48
100
AcDbEntity
  8
_U_30EC_U_30A4_U_30E4_U_30FC_1
  6
Continuous
 62
     2
100
AcDbSpline
210
0.0
220
0.0
230
1.0
 70
    11
 71
     3
 72
    91
 73
    87
 74
    85
 42
0.000000001
 43
0.0000000001
 44
0.00000001
 40
0.0
 40
0.0
 40
0.0
 40
0.0
 40
0.0345987051695718
 40
0.1258134969461653
 40
0.2547723404889555
 40
0.4026032099154978
 40
0.5504340793418125
 40
0.6793929228837785
 40
0.7706077146573025
 40
0.8052064287782914
 40
1.124852390615481
 40
1.427402236309077
 40
1.706356627453727
 40
1.955541417875407
 40
2.169485938566556
 40
2.344350786664997
 40
2.48056841156215
 40
2.590440557429172
 40
2.649189927151423
 40
2.749320643306627
 40
2.912632739880316
 40
3.147745656000517
 40
3.244827496385564
 40
3.338490056947057
 40
3.583815413207478
 40
3.761423943238831
 40
3.886956104362995
 40
3.985855451887178
 40
4.091766255338007
 40
4.250186473812172
 40
4.422734315084817
 40
4.62828568483891
 40
4.872093227758765
 40
5.152549652145884
 40
5.464967135837868
 40
5.803201477852786
 40
6.160362988814263
 40
6.193449448276347
 40
6.284170385502001
 40
6.419718138764871
 40
6.58728504638615
 40
6.774063446724035
 40
6.967245678114018
 40
7.154024078818061
 40
7.321590987026418
 40
7.457138740890777
 40
7.547859678556541
 40
7.580946138183101
 40
7.608533084715152
 40
7.669224367078119
 40
7.72991564943033
 40
7.757502595950378
 40
7.790278062553831
 40
7.880146277431329
 40
8.014419963180792
 40
8.180411842398293
 40
8.365434637679762
 40
8.556801071623063
 40
8.741823866831176
 40
8.907815745916686
 40
9.04208943150784
 40
9.131957646249965
 40
9.164733112797542
 40
9.415425063140471
 40
9.667986180958932
 40
9.694169807463071
 40
9.756607686048001
 40
9.831130315322808
 40
9.893568193900215
 40
9.919751820399032
 40
9.950967964690856
 40
9.996421631211023
 40
10.22087981037491
 40
10.44341866197579
 40
10.47847970788892
 40
10.57091337438795
 40
10.70159545461275
 40
10.85140174170409
 40
11.00120802880529
 40
11.13189010907437
 40
11.22432377583065
 40
11.25938480939014
 40
11.28697175596202
 40
11.34766303835976
 40
11.40835432042125
 40
11.43594125892159
 40
11.43594125892159
 40
11.43594125892159
 40
11.43594125892159
 10
190.0818114333291
 20
15.55242795125078
 30
0.0
 10
190.0702785844942
 20
15.55242790287916
 30
0.0
 10
190.0283409445
 20
15.55242773704165
 30
0.0
 10
189.9434129719027
 20
15.5524312580091
 30
0.0
 10
189.820768855313
 20
15.55240926435879
 30
0.0
 10
189.6791206916994
 20
15.55250801177055
 30
0.0
 10
189.5379753698491
 20
15.55214686232421
 30
0.0
 10
189.4141351317904
 20
15.5532188360909
 30
0.0
 10
189.3317217825382
 20
15.55092249091269
 30
0.0
 10
189.1727791229693
 20
15.56048569373421
 30
0.0
 10
189.3503402353375
 20
15.19785394311372
 30
0.0
 10
189.3379739205453
 20
14.95243127723114
 30
0.0
 10
189.4064519473865
 20
14.66862501324836
 30
0.0
 10
189.469302432097
 20
14.43250999939035
 30
0.0
 10
189.5452253431729
 20
14.2332674039613
 30
0.0
 10
189.6303189577016
 20
14.07745347451373
 30
0.0
 10
189.7244607592936
 20
13.9765785778139
 30
0.0
 10
189.8282648207727
 20
13.92465852638967
 30
0.0
 10
189.9125872030775
 20
13.9760648437961
 30
0.0
 10
189.9351322179452
 20
14.09144544037516
 30
0.0
 10
189.9745730975372
 20
14.21885149702385
 30
0.0
 10
189.920291973494
 20
14.5362232808675
 30
0.0
 10
190.0451218072474
 20
14.38982180140915
 30
0.0
 10
190.2019291513602
 20
14.3579530033116
 30
0.0
 10
190.0947720007059
 20
14.1242135776763
 30
0.0
 10
190.0808711209867
 20
13.95972776583656
 30
0.0
 10
190.0234709467226
 20
13.83130869122482
 30
0.0
 10
189.9335020145008
 20
13.76018802352828
 30
0.0
 10
189.8095274657879
 20
13.74432324142253
 30
0.0
 10
189.6634273196861
 20
13.77993797554173
 30
0.0
 10
189.5243894320285
 20
13.90000570500277
 30
0.0
 10
189.4102003962145
 20
14.07435682550321
 30
0.0
 10
189.3146141301487
 20
14.29946603111239
 30
0.0
 10
189.2318652572627
 20
14.56388246006442
 30
0.0
 10
189.1807179256411
 20
14.88187933098543
 30
0.0
 10
189.077018920734
 20
15.15543728488913
 30
0.0
 10
189.204284120852
 20
15.56005818612869
 30
0.0
 10
189.0357890623019
 20
15.55112367849679
 30
0.0
 10
188.9511995787078
 20
15.55315961418364
 30
0.0
 10
188.8189876387628
 20
15.55213937388407
 30
0.0
 10
188.6560505094103
 20
15.5525323031843
 30
0.0
 10
188.4733759170534
 20
15.5523569631337
 30
0.0
 10
188.2847057373382
 20
15.55260105307468
 30
0.0
 10
188.1014469020189
 20
15.55185657906238
 30
0.0
 10
187.9404746832718
 20
15.55416360522426
 30
0.0
 10
187.8029808335276
 20
15.54799804883663
 30
0.0
 10
187.728959037231
 20
15.56032838458212
 30
0.0
 10
187.6613215186857
 20
15.54329323723557
 30
0.0
 10
187.6732373719269
 20
15.59524438447527
 30
0.0
 10
187.6655677285694
 20
15.64071424966529
 30
0.0
 10
187.6732592225115
 20
15.68614453703704
 30
0.0
 10
187.6613141797762
 20
15.73802395984568
 30
0.0
 10
187.7283588305866
 20
15.72119143490261
 30
0.0
 10
187.8017375665677
 20
15.73335409092669
 30
0.0
 10
187.9379128305271
 20
15.72727231074956
 30
0.0
 10
188.0973811801513
 20
15.72954834315056
 30
0.0
 10
188.2789173085836
 20
15.7288123399896
 30
0.0
 10
188.4658034862179
 20
15.72905954196131
 30
0.0
 10
188.6468012316836
 20
15.72886400799251
 30
0.0
 10
188.8080802578878
 20
15.72932234714837
 30
0.0
 10
188.9393882124887
 20
15.72812673751204
 30
0.0
 10
189.0225051322597
 20
15.73051347319741
 30
0.0
 10
189.1556236547813
 20
15.72230605725461
 30
0.0
 10
189.0645893502661
 20
15.97752868952654
 30
0.0
 10
188.9789633074417
 20
16.24164358328242
 30
0.0
 10
189.0990589003457
 20
16.22904442969165
 30
0.0
 10
189.1514264948544
 20
16.22694235763074
 30
0.0
 10
189.2214497569715
 20
16.22535399889657
 30
0.0
 10
189.2671922337818
 20
16.21602567538113
 30
0.0
 10
189.3220812646932
 20
16.22545966915428
 30
0.0
 10
189.2963574785682
 20
16.17733028655168
 30
0.0
 10
189.1825397571451
 20
16.18266829744173
 30
0.0
 10
189.3159346621137
 20
15.95449174576773
 30
0.0
 10
189.1943658735471
 20
15.72156856595921
 30
0.0
 10
189.3223188769413
 20
15.73087258884437
 30
0.0
 10
189.4049048406461
 20
15.72801001754678
 30
0.0
 10
189.5307214850824
 20
15.729234374123
 30
0.0
 10
189.6741469838059
 20
15.72932431888963
 30
0.0
 10
189.8157420951729
 20
15.72746163183851
 30
0.0
 10
189.9459127249969
 20
15.73333075937161
 30
0.0
 10
190.0193452286192
 20
15.720703408232
 30
0.0
 10
190.0891112922099
 20
15.73877563110412
 30
0.0
 10
190.0775772605398
 20
15.68612850546325
 30
0.0
 10
190.0833184346684
 20
15.64221317686547
 30
0.0
 10
190.0816615770912
 20
15.59089982676548
 30
0.0
 10
190.0817757561672
 20
15.56158792021636
 30
0.0
 10
190.0818114333291
 20
15.55242795125078
 30
0.0
 11
190.0818114333291
 21
15.55242795125078
 31
0.0
 11
190.0472127192053
 21
15.55242795125078
 31
0.0
 11
189.9559979274243
 21
15.55242795125078
 31
0.0
 11
189.8270390838718
 21
15.55242795125078
 31
0.0
 11
189.6792082144337
 21
15.55242795125078
 31
0.0
 11
189.5313773449955
 21
15.55242795125078
 31
0.0
 11
189.402418501443
 21
15.55242795125078
 31
0.0
 11
189.311203709662
 21
15.55242795125078
 31
0.0
 11
189.2766049955382
 21
15.55242795125078
 31
0.0
 11
189.3083140497693
 21
15.23435864930122
 31
0.0
 11
189.3527866656866
 21
14.93509522788081
 31
0.0
 11
189.409238911832
 21
14.66191269512576
 31
0.0
 11
189.4768868567478
 21
14.42208605917227
 31
0.0
 11
189.5549465689762
 21
14.22289032815654
 31
0.0
 11
189.6426341170591
 21
14.07160051021477
 31
0.0
 11
189.7391655695388
 21
13.97549161348316
 31
0.0
 11
189.8437569949575
 21
13.94183864609791
 31
0.0
 11
189.8943077302787
 21
13.97177376978834
 31
0.0
 11
189.9310588991553
 21
14.06491619815046
 31
0.0
 11
189.9562640977528
 21
14.22627151712054
 31
0.0
 11
189.9721769222367
 21
14.46084531263482
 31
0.0
 11
190.0494082682584
 21
14.40202182306619
 31
0.0
 11
190.1327184184385
 21
14.3592188543269
 31
0.0
 11
190.1066365811217
 21
14.1152838866101
 31
0.0
 11
190.0673317805106
 21
13.94207902887562
 31
0.0
 11
190.0105702596765
 21
13.83011272445917
 31
0.0
 11
189.9321182616911
 21
13.76989341669645
 31
0.0
 11
189.8277420296257
 21
13.75192954892317
 31
0.0
 11
189.6738595065098
 21
13.78957440012361
 31
0.0
 11
189.5388902376748
 21
13.89707348877403
 31
0.0
 11
189.4221739916164
 21
14.06627361744808
 31
0.0
 11
189.32305053683
 21
14.28902158871943
 31
0.0
 11
189.2408596418114
 21
14.55716420516172
 31
0.0
 11
189.174941075056
 21
14.8625482693486
 31
0.0
 11
189.1246346050594
 21
15.19702058385374
 31
0.0
 11
189.0892800003172
 21
15.55242795125078
 31
0.0
 11
189.0561935405844
 21
15.55242795125078
 31
0.0
 11
188.9654726026075
 21
15.55242795125078
 31
0.0
 11
188.8299248482186
 21
15.55242795125078
 31
0.0
 11
188.6623579392495
 21
15.55242795125078
 31
0.0
 11
188.4755795375324
 21
15.55242795125078
 31
0.0
 11
188.2823973048993
 21
15.55242795125078
 31
0.0
 11
188.0956189031822
 21
15.55242795125078
 31
0.0
 11
187.9280519942131
 21
15.55242795125078
 31
0.0
 11
187.7925042398242
 21
15.55242795125078
 31
0.0
 11
187.7017833018473
 21
15.55242795125078
 31
0.0
 11
187.6686968421145
 21
15.55242795125078
 31
0.0
 11
187.6686968421145
 21
15.58001489785847
 31
0.0
 11
187.6686968421145
 21
15.64070618039537
 31
0.0
 11
187.6686968421145
 21
15.70139746293228
 31
0.0
 11
187.6686968421145
 21
15.72898440953996
 31
0.0
 11
187.7014723087631
 21
15.72898440953996
 31
0.0
 11
187.7913405237673
 21
15.72898440953996
 31
0.0
 11
187.9256142097148
 21
15.72898440953996
 31
0.0
 11
188.0916060891932
 21
15.72898440953996
 31
0.0
 11
188.2766288847901
 21
15.72898440953996
 31
0.0
 11
188.4679953190932
 21
15.72898440953996
 31
0.0
 11
188.6530181146902
 21
15.72898440953996
 31
0.0
 11
188.8190099941685
 21
15.72898440953996
 31
0.0
 11
188.953283680116
 21
15.72898440953996
 31
0.0
 11
189.0431518951202
 21
15.72898440953996
 31
0.0
 11
189.0759273617688
 21
15.72898440953996
 31
0.0
 11
189.0659183950103
 21
15.97947647544957
 31
0.0
 11
189.0599112510664
 21
16.2319661455253
 31
0.0
 11
189.086057587066
 21
16.23056921608121
 31
0.0
 11
189.148406542142
 21
16.2272380766376
 31
0.0
 11
189.22282303691
 21
16.22326220052749
 31
0.0
 11
189.2851719919859
 21
16.21993106108389
 31
0.0
 11
189.3113183279855
 21
16.2185341316398
 31
0.0
 11
189.298293111304
 21
16.19016528616079
 31
0.0
 11
189.2551649266405
 21
16.17581274276163
 31
0.0
 11
189.2574991961821
 21
15.95136670115107
 31
0.0
 11
189.2658452735903
 21
15.72898440953996
 31
0.0
 11
189.3009063195165
 21
15.72898440953996
 31
0.0
 11
189.3933399860495
 21
15.72898440953996
 31
0.0
 11
189.5240220663202
 21
15.72898440953996
 31
0.0
 11
189.6738283534597
 21
15.72898440953996
 31
0.0
 11
189.8236346405992
 21
15.72898440953996
 31
0.0
 11
189.9543167208699
 21
15.72898440953996
 31
0.0
 11
190.0467503874028
 21
15.72898440953996
 31
0.0
 11
190.0818114333291
 21
15.72898440953996
 31
0.0
 11
190.0818114333291
 21
15.70139746293228
 31
0.0
 11
190.0818114333291
 21
15.64070618039537
 31
0.0
 11
190.0818114333291
 21
15.58001489785847
 31
0.0
 11
190.0818114333291
 21
15.55242795125078
 31
0.0
  0
SPLINE
  5
A8
102
{ACAD_REACTORS
330
C5
102
}
330
48
100
AcDbEntity
  8
_U_30EC_U_30A4_U_30E4_U_30FC_1
  6
Continuous
 62
     2
100
AcDbSpline
210
0.0
220
0.0
230
1.0
 70
    11
 71
     3
 72
    75
 73
    71
 74
    69
 42
0.000000001
 43
0.0000000001
 44
0.00000001
 40
0.0
 40
0.0
 40
0.0
 40
0.0
 40
0.0342546099129691
 40
0.1245622414432346
 40
0.2522385480897536
 40
0.398599192294068
 40
0.5449598364980839
 40
0.6726361431438834
 40
0.7629437746736978
 40
0.797198393529799
 40
1.101723623449721
 40
1.40859124403667
 40
1.433332471690376
 40
1.487763172450172
 40
1.542193873082003
 40
1.566935100592553
 40
1.923523931821809
 40
2.271755704953636
 40
2.59057975510088
 40
2.858943305581167
 40
2.889120339309187
 40
2.918305855191134
 40
2.941366645531259
 40
2.996357760973154
 40
3.061992318140706
 40
3.116983433626908
 40
3.140044223997589
 40
3.411273122936564
 40
3.732441619741282
 40
3.761068217532982
 40
3.837787499630542
 40
3.948858699126182
 40
4.080541049104561
 40
4.21909378262594
 40
4.350776132722494
 40
4.461847332405826
 40
4.53856661467856
 40
4.567193212544806
 40
4.594907573999064
 40
4.666381453557632
 40
4.764111044011271
 40
4.870592538126102
 40
4.968322128642553
 40
5.039796008287267
 40
5.067510369784726
 40
5.09426360318594
 40
5.153120716668576
 40
5.211977830151023
 40
5.238731063552027
 40
5.272290535139266
 40
5.363380529445127
 40
5.497618415781805
 40
5.660621563454047
 40
5.838007341749748
 40
6.015393119911099
 40
6.178396267038725
 40
6.312634151842676
 40
6.403724143059666
 40
6.437283612672761
 40
6.464036846261378
 40
6.522893960004993
 40
6.581751071484261
 40
6.608504301591205
 40
6.637253941281353
 40
6.711397748903204
 40
6.812778057283817
 40
6.923237199249593
 40
7.024617507624237
 40
7.09876131520789
 40
7.12751094600784
 40
7.12751094600784
 40
7.12751094600784
 40
7.12751094600784
 10
188.4418622390564
 20
14.95849128473263
 30
0.0
 10
188.4418622819707
 20
14.94707313408719
 30
0.0
 10
188.4418624481129
 20
14.90555257842628
 30
0.0
 10
188.4418593081786
 20
14.8214692200377
 30
0.0
 10
188.4418788279801
 20
14.70004497322327
 30
0.0
 10
188.4417912187737
 20
14.55980494047446
 30
0.0
 10
188.442111623523
 20
14.42006556794575
 30
0.0
 10
188.441160590974
 20
14.29745038894928
 30
0.0
 10
188.4431978595967
 20
14.21587074438041
 30
0.0
 10
188.4349433178746
 20
14.06271267077695
 30
0.0
 10
188.7430797940901
 20
14.22560236054717
 30
0.0
 10
189.0350645173735
 20
14.39482938688003
 30
0.0
 10
189.0408354448708
 20
14.25973235781911
 30
0.0
 10
189.045547171989
 20
14.21617221160444
 30
0.0
 10
189.0482535411918
 20
14.17211249350545
 30
0.0
 10
189.0672545672958
 20
14.02272590363134
 30
0.0
 10
188.6583942247303
 20
14.08681172241261
 30
0.0
 10
188.3793710348832
 20
13.97296341411018
 30
0.0
 10
188.1018081587167
 20
13.87364095811141
 30
0.0
 10
187.8099837184401
 20
13.91630687596356
 30
0.0
 10
187.7869144678658
 20
13.8132167974454
 30
0.0
 10
187.7537474383333
 20
13.78691091244468
 30
0.0
 10
187.7480653962739
 20
13.83455309036304
 30
0.0
 10
187.7284214559044
 20
13.87180336115069
 30
0.0
 10
187.7095089485623
 20
13.93007387847564
 30
0.0
 10
187.6942849867707
 20
13.97385201007805
 30
0.0
 10
187.6477246372935
 20
14.08759421046315
 30
0.0
 10
187.9890897312451
 20
14.05576301120047
 30
0.0
 10
188.2679649367388
 20
14.02161435106476
 30
0.0
 10
188.2617753034908
 20
14.16913976479651
 30
0.0
 10
188.2630935452774
 20
14.24013150908831
 30
0.0
 10
188.2624831689949
 20
14.34719767958661
 30
0.0
 10
188.2625871570726
 20
14.47398529785997
 30
0.0
 10
188.2629987964056
 20
14.60849243496049
 30
0.0
 10
188.261390784197
 20
14.73395549951184
 30
0.0
 10
188.2659902567926
 20
14.84505246719116
 30
0.0
 10
188.256418650221
 20
14.90761886800687
 30
0.0
 10
188.2704001783693
 20
14.96595388295
 30
0.0
 10
188.2147384386705
 20
14.95289710582236
 30
0.0
 10
188.1575655197822
 20
14.96136307749497
 30
0.0
 10
188.0616048925648
 20
14.95729976080635
 30
0.0
 10
187.9633767522821
 20
14.95970889852473
 30
0.0
 10
187.867258245756
 20
14.95551600613387
 30
0.0
 10
187.8104648525811
 20
14.96429346441162
 30
0.0
 10
187.7550356873384
 20
14.9509493685012
 30
0.0
 10
187.7670679427916
 20
15.00036910959255
 30
0.0
 10
187.7592003173937
 20
15.04393988030395
 30
0.0
 10
187.7666295563828
 20
15.08830469118524
 30
0.0
 10
187.7551930564143
 20
15.1390229776399
 30
0.0
 10
187.8232102370133
 20
15.12162460757742
 30
0.0
 10
187.8968496879747
 20
15.13417450237187
 30
0.0
 10
188.0325064058211
 20
15.12799677011096
 30
0.0
 10
188.1884909024525
 20
15.13029203093083
 30
0.0
 10
188.3615926358143
 20
15.12940968262529
 30
0.0
 10
188.5346942964181
 20
15.13029207142407
 30
0.0
 10
188.6906789811216
 20
15.12799662955549
 30
0.0
 10
188.8263351889797
 20
15.1341748626243
 30
0.0
 10
188.8999756705652
 20
15.12162394218334
 30
0.0
 10
188.9679914174724
 20
15.13902373012141
 30
0.0
 10
188.9565590885922
 20
15.08830130414554
 30
0.0
 10
188.9639539458297
 20
15.04397060811107
 30
0.0
 10
188.956203991227
 20
15.00028307550195
 30
0.0
 10
188.9681203741877
 20
14.95063590098476
 30
0.0
 10
188.9108170223616
 20
14.96461411338424
 30
0.0
 10
188.8520145789772
 20
14.95539755673253
 30
0.0
 10
188.7525293633199
 20
14.95952268164928
 30
0.0
 10
188.649428009835
 20
14.95822760025887
 30
0.0
 10
188.5537846354573
 20
14.95854077077639
 30
0.0
 10
188.4857467971617
 20
14.95848776697144
 30
0.0
 10
188.4514462213443
 20
14.95849051871655
 30
0.0
 10
188.4418622390564
 20
14.95849128473263
 30
0.0
 11
188.4418622390564
 21
14.95849128473263
 31
0.0
 11
188.4418622390564
 21
14.92423666587184
 31
0.0
 11
188.4418622390564
 21
14.83392903432974
 31
0.0
 11
188.4418622390564
 21
14.70625272766678
 31
0.0
 11
188.4418622390564
 21
14.55989208344339
 31
0.0
 11
188.4418622390564
 21
14.41353143921999
 31
0.0
 11
188.4418622390564
 21
14.28585513255703
 31
0.0
 11
188.4418622390564
 21
14.19554750101493
 31
0.0
 11
188.4418622390564
 21
14.16129288215414
 31
0.0
 11
188.7391932644568
 21
14.22709475713769
 31
0.0
 11
189.0384623627245
 21
14.29496038212072
 31
0.0
 11
189.0405487124976
 21
14.27030727882827
 31
0.0
 11
189.0451386819987
 21
14.2160704515849
 31
0.0
 11
189.0497286514996
 21
14.16183362434152
 31
0.0
 11
189.0518150012728
 21
14.13718052104907
 31
0.0
 11
188.705639688924
 21
14.05163370140897
 31
0.0
 11
188.3669653138838
 21
13.97060877629901
 31
0.0
 11
188.0563731516688
 21
13.89862764024928
 31
0.0
 11
187.7944444777955
 21
13.8402121877899
 31
0.0
 11
187.7817515029292
 21
13.81283442738012
 31
0.0
 11
187.7569794787513
 21
13.79740260446734
 31
0.0
 11
187.7491867589501
 21
13.81910683390636
 31
0.0
 11
187.7306041194242
 21
13.87086307333785
 31
0.0
 11
187.70842483999
 21
13.93263664943352
 31
0.0
 11
187.689842200464
 21
13.98439288886502
 31
0.0
 11
187.6820494806628
 21
14.00609711830403
 31
0.0
 11
187.9482776335932
 21
14.05794001759666
 31
0.0
 11
188.262633493629
 21
14.12373968771909
 31
0.0
 11
188.262633493629
 21
14.15236628569624
 31
0.0
 11
188.262633493629
 21
14.22908556827498
 31
0.0
 11
188.262633493629
 21
14.3401567684263
 31
0.0
 11
188.262633493629
 21
14.47183911912117
 31
0.0
 11
188.262633493629
 21
14.61039185333055
 31
0.0
 11
188.262633493629
 21
14.74207420402542
 31
0.0
 11
188.262633493629
 21
14.85314540417674
 31
0.0
 11
188.262633493629
 21
14.92986468675549
 31
0.0
 11
188.262633493629
 21
14.95849128473263
 31
0.0
 11
188.2349191321109
 21
14.95849128473263
 31
0.0
 11
188.1634452524064
 21
14.95849128473263
 31
0.0
 11
188.0657156617901
 21
14.95849128473263
 31
0.0
 11
187.9592341675364
 21
14.95849128473263
 31
0.0
 11
187.8615045769201
 21
14.95849128473263
 31
0.0
 11
187.7900306972156
 21
14.95849128473263
 31
0.0
 11
187.7623163356975
 21
14.95849128473263
 31
0.0
 11
187.7623163356975
 21
14.98524451823288
 31
0.0
 11
187.7623163356975
 21
15.04410163193343
 31
0.0
 11
187.7623163356975
 21
15.10295874563398
 31
0.0
 11
187.7623163356975
 21
15.12971197913423
 31
0.0
 11
187.7958758072874
 21
15.12971197913423
 31
0.0
 11
187.8869658016031
 21
15.12971197913423
 31
0.0
 11
188.0212036879629
 21
15.12971197913423
 31
0.0
 11
188.1842068356856
 21
15.12971197913423
 31
0.0
 11
188.3615926140897
 21
15.12971197913423
 31
0.0
 11
188.5389783924938
 21
15.12971197913423
 31
0.0
 11
188.7019815402164
 21
15.12971197913423
 31
0.0
 11
188.8362194265763
 21
15.12971197913423
 31
0.0
 11
188.9273094208918
 21
15.12971197913423
 31
0.0
 11
188.9608688924818
 21
15.12971197913423
 31
0.0
 11
188.9608688924818
 21
15.10295874563398
 31
0.0
 11
188.9608688924818
 21
15.04410163193343
 31
0.0
 11
188.9608688924818
 21
14.98524451823288
 31
0.0
 11
188.9608688924818
 21
14.95849128473263
 31
0.0
 11
188.9321192527877
 21
14.95849128473263
 31
0.0
 11
188.8579754451555
 21
14.95849128473263
 31
0.0
 11
188.7565951367604
 21
14.95849128473263
 31
0.0
 11
188.6461359947778
 21
14.95849128473263
 31
0.0
 11
188.5447556863827
 21
14.95849128473263
 31
0.0
 11
188.4706118787505
 21
14.95849128473263
 31
0.0
 11
188.4418622390564
 21
14.95849128473263
 31
0.0
  0
SPLINE
  5
A9
102
{ACAD_REACTORS
330
C6
102
}
330
48
100
AcDbEntity
  8
_U_30EC_U_30A4_U_30E4_U_30FC_1
  6
Continuous
 62
     2
100
AcDbSpline
210
0.0
220
0.0
230
1.0
 70
    11
 71
     3
 72
    15
 73
    11
 74
     9
 42
0.000000001
 43
0.0000000001
 44
0.00000001
 40
0.0
 40
0.0
 40
0.0
 40
0.0
 40
0.2785535985096616
 40
0.5215624748199013
 40
0.6076917376040648
 40
0.6938210001741371
 40
0.9405019146454805
 40
1.221691403489226
 40
1.300471877081171
 40
1.379252341684984
 40
1.379252341684984
 40
1.379252341684984
 40
1.379252341684984
 10
189.5681493630999
 20
16.22930267330382
 30
0.0
 10
189.6296017794178
 20
16.17691646592716
 30
0.0
 10
189.7446649974114
 20
16.07882876798223
 30
0.0
 10
190.0397348497243
 20
15.92889785897221
 30
0.0
 10
189.9025147631857
 20
15.84343227515013
 30
0.0
 10
189.8041227843778
 20
15.71085785201554
 30
0.0
 10
189.713003359065
 20
16.01616985781428
 30
0.0
 10
189.3636839480654
 20
16.07967869465372
 30
0.0
 10
189.5119258376569
 20
16.17896509880879
 30
0.0
 10
189.5494081874237
 20
16.21252348402384
 30
0.0
 10
189.5681493630999
 20
16.22930267330382
 30
0.0
 11
189.5681493630999
 21
16.22930267330382
 31
0.0
 11
189.7919222440596
 21
16.06341774278973
 31
0.0
 11
189.9695046306383
 21
15.89753281227563
 31
0.0
 11
189.9066308127979
 21
15.83866743034591
 31
0.0
 11
189.8437569949575
 21
15.77980204841619
 31
0.0
 11
189.6688535117725
 21
15.95375677059491
 31
0.0
 11
189.4478256856139
 21
16.12757920110702
 31
0.0
 11
189.5079875243569
 21
16.17844093720542
 31
0.0
 11
189.5681493630999
 21
16.22930267330382
 31
0.0
  0
SPLINE
  5
AA
102
{ACAD_REACTORS
330
C7
102
}
330
48
100
AcDbEntity
  8
_U_30EC_U_30A4_U_30E4_U_30FC_1
  6
Continuous
 62
     2
100
AcDbSpline
210
0.0
220
0.0
230
1.0
 70
    11
 71
     3
 72
    35
 73
    31
 74
    29
 42
0.000000001
 43
0.0000000001
 44
0.00000001
 40
0.0
 40
0.0
 40
0.0
 40
0.0
 40
0.0335231036621208
 40
0.0713218571711849
 40
0.4278866681486295
 40
0.8116865841963113
 40
1.198190237999968
 40
1.561379546812593
 40
1.659983174621898
 40
1.759315573807102
 40
2.132719617230991
 40
2.525233363588741
 40
2.910815397779608
 40
3.265244364303195
 40
3.592606723581879
 40
3.964386154603822
 40
4.359942131737666
 40
4.758154118639228
 40
4.843846538699814
 40
4.936650065543165
 40
5.256616602537245
 40
5.58170740441598
 40
5.89971915830812
 40
6.198363494280723
 40
6.466301046615788
 40
6.49389531153711
 40
6.559697020196903
 40
6.638234543442478
 40
6.704036252154259
 40
6.731630508423036
 40
6.731630508423036
 40
6.731630508423036
 40
6.731630508423036
 10
191.973601056867
 20
16.23463843719135
 30
0.0
 10
191.967600609779
 20
16.22480690542324
 30
0.0
 10
191.9548344099157
 20
16.20388988579803
 30
0.0
 10
191.7949362006557
 20
16.17127126532669
 30
0.0
 10
192.2322025842336
 20
15.88206680336708
 30
0.0
 10
192.4345394828263
 20
15.68041138358437
 30
0.0
 10
192.6819564267973
 20
15.43749387603272
 30
0.0
 10
193.1831513624605
 20
15.36047662757789
 30
0.0
 10
193.0125562198971
 20
15.21876939174649
 30
0.0
 10
192.93832994632
 20
15.01710366209115
 30
0.0
 10
192.6131432248188
 20
15.36956287174722
 30
0.0
 10
192.3277741670663
 20
15.53175212559563
 30
0.0
 10
192.0337604077658
 20
15.73687130053047
 30
0.0
 10
191.8084452691134
 20
16.21827488595455
 30
0.0
 10
191.5993085055522
 20
15.7534304660922
 30
0.0
 10
191.3207873674835
 20
15.54350952252911
 30
0.0
 10
191.0371383177209
 20
15.37424456359987
 30
0.0
 10
190.7078639527829
 20
15.00142360907929
 30
0.0
 10
190.6277012318225
 20
15.19708014459005
 30
0.0
 10
190.4759724909743
 20
15.3249110419059
 30
0.0
 10
190.9083395826795
 20
15.40454031765937
 30
0.0
 10
191.0962565329766
 20
15.60026634915474
 30
0.0
 10
191.3468477420503
 20
15.81632996916753
 30
0.0
 10
191.5714350470161
 20
15.9819099230006
 30
0.0
 10
191.6259775409713
 20
16.26133964636827
 30
0.0
 10
191.7494661029012
 20
16.24737950408078
 30
0.0
 10
191.8060273344522
 20
16.24521268867649
 30
0.0
 10
191.8761870984945
 20
16.24046859881359
 30
0.0
 10
191.9333414022106
 20
16.23709429350543
 30
0.0
 10
191.964419032084
 20
16.2351985471112
 30
0.0
 10
191.973601056867
 20
16.23463843719135
 30
0.0
 11
191.973601056867
 21
16.23463843719135
 31
0.0
 11
191.9525319069884
 21
16.20856374969786
 31
0.0
 11
191.9174464559426
 21
16.19450114553469
 31
0.0
 11
192.1512374769095
 21
15.92527961131382
 31
0.0
 11
192.4414585957566
 21
15.67413407969259
 31
0.0
 11
192.7612797483684
 21
15.45710987618784
 31
0.0
 11
193.0838708706289
 21
15.29025232631638
 31
0.0
 11
193.0213299868077
 21
15.21402035584928
 31
0.0
 11
192.9688035818975
 21
15.12971197913423
 31
0.0
 11
192.6436279095814
 21
15.3132640483158
 31
0.0
 11
192.3237227768436
 21
15.54070139743428
 31
0.0
 11
192.0354200158608
 21
15.79673855123309
 31
0.0
 11
191.8050514588095
 21
16.06609003445565
 31
0.0
 11
191.5995531719517
 21
15.81126348721035
 31
0.0
 11
191.3288301341536
 21
15.55645182277756
 31
0.0
 11
191.0119538423247
 21
15.31969466354856
 31
0.0
 11
190.6679957933741
 21
15.11903163191466
 31
0.0
 11
190.6218855341338
 21
15.19126067703554
 31
0.0
 11
190.5636970460348
 21
15.26355586798966
 31
0.0
 11
190.8433040489015
 21
15.41911456961744
 31
0.0
 11
191.1093004621154
 21
15.60601009790405
 31
0.0
 11
191.3499997459747
 21
15.81384496285209
 31
0.0
 11
191.5537153607775
 21
16.03222167446416
 31
0.0
 11
191.7087607668219
 21
16.25074274274287
 31
0.0
 11
191.7363041569866
 21
16.24906789496551
 31
0.0
 11
191.8019845489178
 21
16.24507402718874
 31
0.0
 11
191.8803772747711
 21
16.24030715274548
 31
0.0
 11
191.9460576667023
 21
16.23631328496871
 31
0.0
 11
191.973601056867
 21
16.23463843719135
 31
0.0
  0
SPLINE
  5
AB
102
{ACAD_REACTORS
330
C8
102
}
330
48
100
AcDbEntity
  8
_U_30EC_U_30A4_U_30E4_U_30FC_1
  6
Continuous
 62
     2
100
AcDbSpline
210
0.0
220
0.0
230
1.0
 70
    11
 71
     3
 72
    91
 73
    87
 74
    85
 42
0.000000001
 43
0.0000000001
 44
0.00000001
 40
0.0
 40
0.0
 40
0.0
 40
0.0
 40
0.0267532254356719
 40
0.0856103386464209
 40
0.144467452199678
 40
0.1712206856618728
 40
0.2039416005642749
 40
0.2955601971652697
 40
0.4362601844617131
 40
0.6162252844507463
 40
0.8256392189704911
 40
1.054685709844432
 40
1.293548478893496
 40
1.532411247938239
 40
1.761457738799504
 40
1.970871673298473
 40
2.150836773256668
 40
2.291536760495501
 40
2.383155356836608
 40
2.415876284101228
 40
2.442629517487874
 40
2.501486630949013
 40
2.560343744424169
 40
2.587096977826444
 40
2.617068194440843
 40
2.699247336755984
 40
2.822032643466296
 40
2.973822353257797
 40
3.14301470482324
 40
3.31800793687979
 40
3.487200288186624
 40
3.638989997548104
 40
3.761775303794574
 40
3.843954445752909
 40
3.873925662229605
 40
3.890812773500313
 40
3.907699884771465
 40
3.937960767857088
 40
3.980983618142091
 40
4.199085915228255
 40
4.439444339237046
 40
4.677588241260718
 40
5.050698317837604
 40
5.448212454763018
 40
5.8552912180446
 40
6.138575438885296
 40
6.417434507584165
 40
6.444551104393849
 40
6.504207617363153
 40
6.563864130314479
 40
6.590980727104073
 40
6.848609460381463
 40
7.109611990668386
 40
7.352910904446049
 40
7.55783022070545
 40
7.587518925913368
 40
7.652834077375739
 40
7.718149228845676
 40
7.747837934061931
 40
7.854880190300952
 40
7.976511257403494
 40
8.369487896592267
 40
8.757514959223617
 40
9.126072419331107
 40
9.460639380392227
 40
9.746695593035968
 40
9.777569943118664
 40
9.807050320931815
 40
9.830377336128949
 40
9.886003295436028
 40
9.952395569429944
 40
10.0080215287063
 40
10.03134854388223
 40
10.21356951009593
 40
10.42203479292867
 40
10.66154556731063
 40
10.91693789564304
 40
11.15832906556567
 40
11.18982674596621
 40
11.27286608520408
 40
11.39026653033353
 40
11.52484752840887
 40
11.65942852648443
 40
11.77682897161485
 40
11.85986831085681
 40
11.89136598230426
 40
11.89136598230426
 40
11.89136598230426
 40
11.89136598230426
 10
190.7027885008197
 20
14.70699600701771
 30
0.0
 10
190.7028237765289
 20
14.71587847311984
 30
0.0
 10
190.7029366710796
 20
14.74430237047346
 30
0.0
 10
190.701298456849
 20
14.79409639169803
 30
0.0
 10
190.7069750292911
 20
14.83657564478154
 30
0.0
 10
190.6956928731707
 20
14.88730154856848
 30
0.0
 10
190.7632296979033
 20
14.8701290074011
 30
0.0
 10
190.8388029210701
 20
14.88290227165997
 30
0.0
 10
190.9828357056001
 20
14.87629729457383
 30
0.0
 10
191.1569419185428
 20
14.87888462206467
 30
0.0
 10
191.3639599611004
 20
14.87800591955554
 30
0.0
 10
191.5894688172378
 20
14.87828207920027
 30
0.0
 10
191.8251162293406
 20
14.87818339658664
 30
0.0
 10
192.0607640531349
 20
14.87828184412768
 30
0.0
 10
192.2862717580626
 20
14.8780067819079
 30
0.0
 10
192.4932934632805
 20
14.87888186270736
 30
0.0
 10
192.6673888915288
 20
14.87630522678447
 30
0.0
 10
192.8114492071985
 20
14.88288290449214
 30
0.0
 10
192.8869691915293
 20
14.87016243405605
 30
0.0
 10
192.9545776037029
 20
14.88726400191687
 30
0.0
 10
192.9430840140676
 20
14.83674785802941
 30
0.0
 10
192.9505104581733
 20
14.79253252226501
 30
0.0
 10
192.9428838927986
 20
14.74867966503609
 30
0.0
 10
192.9546489459425
 20
14.69878374479327
 30
0.0
 10
192.8930788491983
 20
14.71393227712511
 30
0.0
 10
192.8256791738673
 20
14.70310665350672
 30
0.0
 10
192.7013004056221
 20
14.70852031626234
 30
0.0
 10
192.5554428236571
 20
14.70649205390784
 30
0.0
 10
192.3893576440086
 20
14.70715777578386
 30
0.0
 10
192.2188412621725
 20
14.70689643521241
 30
0.0
 10
192.051979085539
 20
14.70721553391093
 30
0.0
 10
191.9087346827106
 20
14.70635302590761
 30
0.0
 10
191.7773313869835
 20
14.70863300482986
 30
0.0
 10
191.7239859134658
 20
14.70407704374201
 30
0.0
 10
191.6485188456913
 20
14.70999914992876
 30
0.0
 10
191.6769075779233
 20
14.70094169343353
 30
0.0
 10
191.7033652409544
 20
14.69725912268927
 30
0.0
 10
191.6633522907701
 20
14.66654271968275
 30
0.0
 10
191.5713663691869
 20
14.67667591174632
 30
0.0
 10
191.543939620707
 20
14.43032502247786
 30
0.0
 10
191.4478793967235
 20
14.27499558764373
 30
0.0
 10
191.1917277964473
 20
13.94525417931569
 30
0.0
 10
191.7627537732762
 20
14.08430022210451
 30
0.0
 10
192.0173656320517
 20
14.08291779973363
 30
0.0
 10
192.6279647048617
 20
13.99790569242084
 30
0.0
 10
192.3340698578086
 20
14.29685417558207
 30
0.0
 10
192.0133304286515
 20
14.44330856901778
 30
0.0
 10
192.1313543360434
 20
14.50025540818286
 30
0.0
 10
192.1724716466261
 20
14.52420099873348
 30
0.0
 10
192.2156812394411
 20
14.54599758811231
 30
0.0
 10
192.317457409445
 20
14.60928721253905
 30
0.0
 10
192.4328867625247
 20
14.35147151408782
 30
0.0
 10
192.6329591642277
 20
14.2161604111368
 30
0.0
 10
192.7269077387227
 20
14.03792795138881
 30
0.0
 10
192.9558829746392
 20
13.87997821027048
 30
0.0
 10
192.8596031846708
 20
13.82915972576301
 30
0.0
 10
192.816795976378
 20
13.79881292523052
 30
0.0
 10
192.7718243528779
 20
13.77466130281461
 30
0.0
 10
192.7121720925215
 20
13.72552146747565
 30
0.0
 10
192.6789731061324
 20
13.85997475673607
 30
0.0
 10
192.5582013350796
 20
14.0159426528658
 30
0.0
 10
192.1970976005978
 20
13.88569928059555
 30
0.0
 10
191.8385061955541
 20
13.90224694409482
 30
0.0
 10
191.4570920450079
 20
13.8933122935187
 30
0.0
 10
191.1703455282893
 20
13.82882671672392
 30
0.0
 10
190.8592055599707
 20
13.94230668192855
 30
0.0
 10
190.8268737818788
 20
13.83122259927761
 30
0.0
 10
190.7896178253318
 20
13.81196313850012
 30
0.0
 10
190.7865737632753
 20
13.85874784087296
 30
0.0
 10
190.7679892860607
 20
13.89806853919136
 30
0.0
 10
190.7512436616778
 20
13.95765983478233
 30
0.0
 10
190.7383730915753
 20
14.00201969871285
 30
0.0
 10
190.7042327806427
 20
14.09106331120201
 30
0.0
 10
190.9482714457754
 20
14.02181042943771
 30
0.0
 10
191.144139448667
 20
14.00030369057749
 30
0.0
 10
191.2395426381277
 20
14.28226484478462
 30
0.0
 10
191.2945135769596
 20
14.44363045421123
 30
0.0
 10
191.5159619357157
 20
14.71391177589736
 30
0.0
 10
191.3849239381217
 20
14.70548446853734
 30
0.0
 10
191.3110026555855
 20
14.70779008496969
 30
0.0
 10
191.1977459876244
 20
14.70671378321656
 30
0.0
 10
191.0694251807485
 20
14.70707639076508
 30
0.0
 10
190.9404252030416
 20
14.70697724466084
 30
0.0
 10
190.8287840946292
 20
14.7069993271257
 30
0.0
 10
190.7514663970028
 20
14.7069957918967
 30
0.0
 10
190.7132876532011
 20
14.7069959584508
 30
0.0
 10
190.7027885008197
 20
14.70699600701771
 30
0.0
 11
190.7027885008197
 21
14.70699600701771
 31
0.0
 11
190.7027885008197
 21
14.73374924051797
 31
0.0
 11
190.7027885008197
 21
14.79260635421853
 31
0.0
 11
190.7027885008197
 21
14.8514634679191
 31
0.0
 11
190.7027885008197
 21
14.87821670141936
 31
0.0
 11
190.735509428099
 21
14.87821670141936
 31
0.0
 11
190.827128024481
 21
14.87821670141936
 31
0.0
 11
190.967828011782
 21
14.87821670141936
 31
0.0
 11
191.1477931118181
 21
14.87821670141936
 31
0.0
 11
191.3572070464055
 21
14.87821670141936
 31
0.0
 11
191.5862535373605
 21
14.87821670141936
 31
0.0
 11
191.8251163064993
 21
14.87821670141936
 31
0.0
 11
192.0639790756381
 21
14.87821670141936
 31
0.0
 11
192.2930255665931
 21
14.87821670141936
 31
0.0
 11
192.5024395011806
 21
14.87821670141936
 31
0.0
 11
192.6824046012167
 21
14.87821670141936
 31
0.0
 11
192.8231045885176
 21
14.87821670141936
 31
0.0
 11
192.9147231848996
 21
14.87821670141936
 31
0.0
 11
192.9474441121789
 21
14.87821670141936
 31
0.0
 11
192.9474441121789
 21
14.8514634679191
 31
0.0
 11
192.9474441121789
 21
14.79260635421853
 31
0.0
 11
192.9474441121789
 21
14.73374924051797
 31
0.0
 11
192.9474441121789
 21
14.70699600701771
 31
0.0
 11
192.9174728954758
 21
14.70699600701771
 31
0.0
 11
192.8352937529027
 21
14.70699600701771
 31
0.0
 11
192.712508445764
 21
14.70699600701771
 31
0.0
 11
192.5607187353642
 21
14.70699600701771
 31
0.0
 11
192.3915263830078
 21
14.70699600701771
 31
0.0
 11
192.2165331499992
 21
14.70699600701771
 31
0.0
 11
192.0473407976427
 21
14.70699600701771
 31
0.0
 11
191.8955510872429
 21
14.70699600701771
 31
0.0
 11
191.7727657801043
 21
14.70699600701771
 31
0.0
 11
191.6905866375311
 21
14.70699600701771
 31
0.0
 11
191.660615420828
 21
14.70699600701771
 31
0.0
 11
191.6766359412526
 21
14.70165583340792
 31
0.0
 11
191.6926564616772
 21
14.69631565979814
 31
0.0
 11
191.6706155681421
 21
14.67558114591442
 31
0.0
 11
191.6284861855364
 21
14.6668587153611
 31
0.0
 11
191.5365235541378
 21
14.46909247312656
 31
0.0
 11
191.4279078521764
 21
14.25467511978508
 31
0.0
 11
191.3127500824807
 21
14.04622559051619
 31
0.0
 11
191.685736667502
 21
14.05582441253028
 31
0.0
 11
192.083070003615
 21
14.06781232404994
 31
0.0
 11
192.4899342191146
 21
14.08102711828532
 31
0.0
 11
192.2983119496979
 21
14.28966761302481
 31
0.0
 11
192.0966752013698
 21
14.48229420151831
 31
0.0
 11
192.1204947794749
 21
14.49525327269564
 31
0.0
 11
192.1728978513061
 21
14.52376322928576
 31
0.0
 11
192.2253009231374
 21
14.55227318587588
 31
0.0
 11
192.2491205012425
 21
14.56523225705321
 31
0.0
 11
192.4387101558627
 21
14.39079508370268
 31
0.0
 11
192.6200310940435
 21
14.20305846374091
 31
0.0
 11
192.7777729231146
 21
14.01782380992436
 31
0.0
 11
192.8966252504058
 21
13.85089253500949
 31
0.0
 11
192.8715408217923
 21
13.83501202286069
 31
0.0
 11
192.8163550788426
 21
13.80007489613332
 31
0.0
 11
192.7611693358929
 21
13.76513776940595
 31
0.0
 11
192.7360849072794
 21
13.74925725725715
 31
0.0
 11
192.6775518151612
 21
13.83887824681809
 31
0.0
 11
192.6050015078457
 21
13.93650288221032
 31
0.0
 11
192.2125412924095
 21
13.91636286943759
 31
0.0
 11
191.824947406956
 21
13.89803302999773
 31
0.0
 11
191.4567378976212
 21
13.88202178722395
 31
0.0
 11
191.1224308105411
 21
13.86883756444947
 31
0.0
 11
190.8365441918517
 21
13.8589887850075
 31
0.0
 11
190.8211862321741
 21
13.83220523466695
 31
0.0
 11
190.7937434290546
 21
13.82143559057245
 31
0.0
 11
190.7867927192319
 21
13.84370299445577
 31
0.0
 11
190.7702179496548
 21
13.89680218833139
 31
0.0
 11
190.7504351601596
 21
13.96017864553777
 31
0.0
 11
190.7338603905825
 21
14.01327783941339
 31
0.0
 11
190.7269096807598
 21
14.03554524329671
 31
0.0
 11
190.9091199859153
 21
14.03751638912953
 31
0.0
 11
191.1174975848587
 21
14.04356211829473
 31
0.0
 11
191.2303203127216
 21
14.25483550301554
 31
0.0
 11
191.3407936722035
 21
14.48509813155879
 31
0.0
 11
191.4358254265628
 21
14.70699600701771
 31
0.0
 11
191.4043277461598
 21
14.70699600701771
 31
0.0
 11
191.3212884069154
 21
14.70699600701771
 31
0.0
 11
191.2038879617769
 21
14.70699600701771
 31
0.0
 11
191.0693069636912
 21
14.70699600701771
 31
0.0
 11
190.9347259656056
 21
14.70699600701771
 31
0.0
 11
190.8173255204671
 21
14.70699600701771
 31
0.0
 11
190.7342861812227
 21
14.70699600701771
 31
0.0
 11
190.7027885008197
 21
14.70699600701771
 31
0.0
  0
SPLINE
  5
AC
102
{ACAD_REACTORS
330
C9
102
}
330
48
100
AcDbEntity
  8
_U_30EC_U_30A4_U_30E4_U_30FC_1
  6
Continuous
 62
     2
100
AcDbSpline
210
0.0
220
0.0
230
1.0
 70
    11
 71
     3
 72
   131
 73
   127
 74
   125
 42
0.000000001
 43
0.0000000001
 44
0.00000001
 40
0.0
 40
0.0
 40
0.0
 40
0.0
 40
0.0195577029826114
 40
0.0426490537460516
 40
0.2863607575855543
 40
0.5344948436188626
 40
0.7842238845572663
 40
0.8737315789466858
 40
0.9803832810312607
 40
1.092842274517009
 40
1.199761146656793
 40
1.289788768186518
 40
1.351573580786229
 40
1.370727117561473
 40
1.416400936017889
 40
1.470914848356017
 40
1.516588666791808
 40
1.53574220355289
 40
1.634216592293278
 40
1.760283341175136
 40
1.897966686682224
 40
2.031216387369052
 40
2.049689751138046
 40
2.10111560164698
 40
2.1795025777401
 40
2.278859318314214
 40
2.393194462258871
 40
2.516516648383985
 40
2.642834515406112
 40
2.766156701983616
 40
2.88049184675473
 40
2.979848588358771
 40
3.058235565443948
 40
3.109661416669103
 40
3.128134780704278
 40
3.146783742386595
 40
3.191254343315456
 40
3.244332157316115
 40
3.288802758226018
 40
3.307451719895261
 40
3.327717853844873
 40
3.383747753580233
 40
3.468388665924624
 40
3.574487837698929
 40
3.694892515729033
 40
3.82244994685217
 40
3.950007377920557
 40
4.07041205580065
 40
4.176511227368201
 40
4.261152139501648
 40
4.317182039076841
 40
4.33744817296476
 40
4.620011002696372
 40
4.885096638397555
 40
4.945373043518394
 40
5.014107710488704
 40
5.070481727652073
 40
5.319246955636551
 40
5.584812164506022
 40
5.859000912056875
 40
6.133746937542039
 40
6.401732212968829
 40
6.42073668399542
 40
6.472845717451071
 40
6.550702743893998
 40
6.646951193874207
 40
6.754234497930531
 40
6.865196086587309
 40
6.972479390357767
 40
7.068727839771929
 40
7.146584865450938
 40
7.198693898189168
 40
7.217698368905308
 40
7.234950401630785
 40
7.27608986426983
 40
7.325191803515938
 40
7.366331266090326
 40
7.383583298769677
 40
7.402779163492054
 40
7.453386443254486
 40
7.524934666445487
 40
7.606953361405827
 40
7.688972056428979
 40
7.760520279784229
 40
7.811127559734471
 40
7.830323424546092
 40
7.847844055299719
 40
7.894799345666764
 40
7.96277939274445
 40
8.043374293560499
 40
8.128174145149405
 40
8.208769044817206
 40
8.27674909037691
 40
8.323704379669472
 40
8.341225010056203
 40
8.358497614800351
 40
8.401679126686556
 40
8.457815092185614
 40
8.513951057728018
 40
8.557132569707974
 40
8.574405174505017
 40
8.602340668616383
 40
8.643455660539926
 40
8.663225271966594
 40
8.715345156564242
 40
8.78903188962858
 40
8.873502045520311
 40
8.957972194323936
 40
9.03165892556783
 40
9.08377881123452
 40
9.103548423002984
 40
9.11955008312352
 40
9.160817522379823
 40
9.217244429110188
 40
9.278724491644674
 40
9.335151398295459
 40
9.376418837357754
 40
9.392420497300542
 40
9.401196302734762
 40
9.41749422938424
 40
9.426270027749512
 40
9.440875075477544
 40
9.475702496998725
 40
9.517270709865889
 40
9.552098131994057
 40
9.566703169884265
 40
9.566703169884265
 40
9.566703169884265
 40
9.566703169884265
 10
194.6170254148479
 20
15.67015871511027
 30
0.0
 10
194.6134345093371
 20
15.6645369070216
 30
0.0
 10
194.6056039123625
 20
15.65227754419116
 30
0.0
 10
194.5129968974549
 20
15.61601916040942
 30
0.0
 10
194.4887622233248
 20
15.40148444212723
 30
0.0
 10
194.3858709845938
 20
15.22197284509706
 30
0.0
 10
194.1220492364306
 20
15.03615573798148
 30
0.0
 10
194.2845471569179
 20
14.9595933656608
 30
0.0
 10
194.3607225760838
 20
14.89856693195443
 30
0.0
 10
194.4492171072758
 20
14.83515804544759
 30
0.0
 10
194.5389930233111
 20
14.77525634219561
 30
0.0
 10
194.5883817636047
 20
14.72102154849207
 30
0.0
 10
194.6745708157383
 20
14.69286240541834
 30
0.0
 10
194.641126067423
 20
14.65713309652814
 30
0.0
 10
194.6214671166311
 20
14.62550387991906
 30
0.0
 10
194.5919888217884
 20
14.58475872796069
 30
0.0
 10
194.5688989446031
 20
14.55504663489644
 30
0.0
 10
194.5380205968359
 20
14.50211422668493
 30
0.0
 10
194.4729193365739
 20
14.627403349389
 30
0.0
 10
194.3796000122416
 20
14.68213900233934
 30
0.0
 10
194.2950636285138
 20
14.73916423939342
 30
0.0
 10
194.1722498125742
 20
14.89675287427523
 30
0.0
 10
194.1764450847301
 20
14.82035806766837
 30
0.0
 10
194.1751478652677
 20
14.77361280161296
 30
0.0
 10
194.1758126448076
 20
14.69584785812602
 30
0.0
 10
194.1755549986956
 20
14.59902068324424
 30
0.0
 10
194.1756431239921
 20
14.4865027907881
 30
0.0
 10
194.1756077302282
 20
14.36524085945701
 30
0.0
 10
194.1756511758278
 20
14.24086897858962
 30
0.0
 10
194.1755199942405
 20
14.11967683631337
 30
0.0
 10
194.1759477562047
 20
14.00691148919744
 30
0.0
 10
194.174667820231
 20
13.91082913768745
 30
0.0
 10
194.1779759851044
 20
13.83113826468701
 30
0.0
 10
194.1715197740086
 20
13.78815175788785
 30
0.0
 10
194.1806208705556
 20
13.74955432372044
 30
0.0
 10
194.1447910339935
 20
13.75810887724072
 30
0.0
 10
194.1115223815252
 20
13.75342519985448
 30
0.0
 10
194.0604562576041
 20
13.75351298759785
 30
0.0
 10
194.0269723972812
 20
13.75794430283822
 30
0.0
 10
193.9907585408754
 20
13.74960793842511
 30
0.0
 10
194.0009782568666
 20
13.79145277179286
 30
0.0
 10
193.9936487887773
 20
13.83778560820175
 30
0.0
 10
193.9973633136103
 20
13.92374831106016
 30
0.0
 10
193.9959480554896
 20
14.0260514270485
 30
0.0
 10
193.9964105554637
 20
14.14453223931512
 30
0.0
 10
193.9962773686231
 20
14.26957683153357
 30
0.0
 10
193.9963015910045
 20
14.3947582810705
 30
0.0
 10
193.9963354925551
 20
14.51286645379058
 30
0.0
 10
193.9962060293132
 20
14.61628748709516
 30
0.0
 10
193.9965507549081
 20
14.69932036153667
 30
0.0
 10
193.995869827869
 20
14.75143368521243
 30
0.0
 10
193.9994586600623
 20
14.87912907821361
 30
0.0
 10
193.7826171386437
 20
14.58048716819625
 30
0.0
 10
193.6021354921951
 20
14.35263981511517
 30
0.0
 10
193.5490322295612
 20
14.49373443289813
 30
0.0
 10
193.5200429133149
 20
14.54325767560942
 30
0.0
 10
193.4196648062822
 20
14.64641779790106
 30
0.0
 10
193.7405127723262
 20
14.72695035023779
 30
0.0
 10
193.868989700543
 20
14.91066283036433
 30
0.0
 10
194.090645432536
 20
15.11931995771761
 30
0.0
 10
194.1770224894069
 20
15.29339211228342
 30
0.0
 10
194.4549394229073
 20
15.56967051342511
 30
0.0
 10
194.3346247839284
 20
15.56534559551113
 30
0.0
 10
194.2863197351348
 20
15.56614856202551
 30
0.0
 10
194.2102377454905
 20
15.56574582146583
 30
0.0
 10
194.116701000975
 20
15.56590275611608
 30
0.0
 10
194.0117594788557
 20
15.56582502576223
 30
0.0
 10
193.9033887738717
 20
15.56595464378553
 30
0.0
 10
193.7981454235897
 20
15.56554393490691
 30
0.0
 10
193.7056237819412
 20
15.5668207367159
 30
0.0
 10
193.6268130800707
 20
15.56340766534849
 30
0.0
 10
193.5839674565379
 20
15.57023350036319
 30
0.0
 10
193.5449499586516
 20
15.56065064201123
 30
0.0
 10
193.5526365271863
 20
15.59420779565541
 30
0.0
 10
193.5485464404312
 20
15.62523550322232
 30
0.0
 10
193.5485531368814
 20
15.67236529270899
 30
0.0
 10
193.5526239724911
 20
15.70340941646777
 30
0.0
 10
193.5449495574582
 20
15.737018616359
 30
0.0
 10
193.5834819405494
 20
15.72748410420871
 30
0.0
 10
193.624122801448
 20
15.73397435498069
 30
0.0
 10
193.6951471850463
 20
15.73100150650253
 30
0.0
 10
193.7729318149633
 20
15.73174761399156
 30
0.0
 10
193.8507292246474
 20
15.73247814044524
 30
0.0
 10
193.9217232089907
 20
15.72954235514159
 30
0.0
 10
193.962427979182
 20
15.73595468772951
 30
0.0
 10
194.0009853489909
 20
15.72650524176003
 30
0.0
 10
193.9927342754927
 20
15.76264692158783
 30
0.0
 10
193.9982346669359
 20
15.80129837613226
 30
0.0
 10
193.9955754206163
 20
15.86913528561838
 30
0.0
 10
193.9965815471533
 20
15.94591641538739
 30
0.0
 10
193.9960178018319
 20
16.02849393582756
 30
0.0
 10
193.9970714526593
 20
16.10517329229877
 30
0.0
 10
193.994267586313
 20
16.17331990776698
 30
0.0
 10
194.0000702721303
 20
16.21132399809345
 30
0.0
 10
193.9915654551159
 20
16.24758448077645
 30
0.0
 10
194.0255610233125
 20
16.23755723771852
 30
0.0
 10
194.0594575683099
 20
16.24073266813706
 30
0.0
 10
194.1126669060346
 20
16.2350896564061
 30
0.0
 10
194.1660768574482
 20
16.23434774436425
 30
0.0
 10
194.1995914649491
 20
16.22819223482981
 30
0.0
 10
194.2388086183039
 20
16.23346029773594
 30
0.0
 10
194.2120263698492
 20
16.1925338079349
 30
0.0
 10
194.1708111001724
 20
16.20371204538111
 30
0.0
 10
194.1782641540873
 20
16.15867056192124
 30
0.0
 10
194.1742227952185
 20
16.11412278028144
 30
0.0
 10
194.176171404964
 20
16.04223572621703
 30
0.0
 10
194.1752364849758
 20
15.9616863058877
 30
0.0
 10
194.176510719003
 20
15.88173995404994
 30
0.0
 10
194.1732043793864
 20
15.80841837083182
 30
0.0
 10
194.1802106179961
 20
15.76688643002567
 30
0.0
 10
194.1701440380126
 20
15.72752418568112
 30
0.0
 10
194.2029814803921
 20
15.7346806343098
 30
0.0
 10
194.236457729648
 20
15.73027243137943
 30
0.0
 10
194.2915053476019
 20
15.73217943347896
 30
0.0
 10
194.3489502595314
 20
15.73185366407287
 30
0.0
 10
194.4023026248309
 20
15.7310630873308
 30
0.0
 10
194.4398540896639
 20
15.73313959118073
 30
0.0
 10
194.4623172523237
 20
15.73022338167108
 30
0.0
 10
194.4751678073731
 20
15.73572552644055
 30
0.0
 10
194.4858255685888
 20
15.73801118197789
 30
0.0
 10
194.4986635650143
 20
15.74494972588053
 30
0.0
 10
194.514599103307
 20
15.72853046313671
 30
0.0
 10
194.5410623920892
 20
15.71709122319449
 30
0.0
 10
194.5726805253757
 20
15.6964468783519
 30
0.0
 10
194.5987255892151
 20
15.68116869628294
 30
0.0
 10
194.6128517723973
 20
15.67266976323183
 30
0.0
 10
194.6170254148479
 20
15.67015871511027
 30
0.0
 11
194.6170254148479
 21
15.67015871511027
 31
0.0
 11
194.6049990002243
 21
15.65473571164188
 31
0.0
 11
194.5848961795566
 21
15.64337406233916
 31
0.0
 11
194.4778986355814
 21
15.42440620231159
 31
0.0
 11
194.3477039934324
 21
15.21317201512161
 31
0.0
 11
194.1996540366071
 21
15.0120605902748
 31
0.0
 11
194.2734958253735
 21
14.9614738493538
 31
0.0
 11
194.36056643118
 21
14.89988411653739
 31
0.0
 11
194.4518003750405
 21
14.83413160594426
 31
0.0
 11
194.5381321779688
 21
14.77105653169304
 31
0.0
 11
194.6104963609788
 21
14.71749910790242
 31
0.0
 11
194.6598274450844
 21
14.68029954869105
 31
0.0
 11
194.6486940702214
 21
14.66471410869495
 31
0.0
 11
194.6221452532404
 21
14.62754882870424
 31
0.0
 11
194.5904579555534
 21
14.58319026871533
 31
0.0
 11
194.5639091385724
 21
14.54602498872462
 31
0.0
 11
194.5527757637094
 21
14.53043954872852
 31
0.0
 11
194.4807013362948
 21
14.59754008690617
 31
0.0
 11
194.3852856985381
 21
14.67993354174669
 31
0.0
 11
194.279326415217
 21
14.76785017366916
 31
0.0
 11
194.175621051109
 21
14.85152024309268
 31
0.0
 11
194.175621051109
 21
14.83304687900864
 31
0.0
 11
194.175621051109
 21
14.78162102763956
 31
0.0
 11
194.175621051109
 21
14.70323405031
 31
0.0
 11
194.175621051109
 21
14.6038773083445
 31
0.0
 11
194.175621051109
 21
14.48954216306761
 31
0.0
 11
194.175621051109
 21
14.3662199758039
 31
0.0
 11
194.175621051109
 21
14.23990210787791
 31
0.0
 11
194.175621051109
 21
14.1165799206142
 31
0.0
 11
194.175621051109
 21
14.00224477533731
 31
0.0
 11
194.175621051109
 21
13.90288803337181
 31
0.0
 11
194.175621051109
 21
13.82450105604224
 31
0.0
 11
194.175621051109
 21
13.77307520467317
 31
0.0
 11
194.175621051109
 21
13.75460184058913
 31
0.0
 11
194.1569720893626
 21
13.75460184058913
 31
0.0
 11
194.1125014882749
 21
13.75460184058913
 31
0.0
 11
194.0594236740736
 21
13.75460184058913
 31
0.0
 11
194.0149530729859
 21
13.75460184058913
 31
0.0
 11
193.9963041112395
 21
13.75460184058913
 31
0.0
 11
193.9963041112395
 21
13.7748679746022
 31
0.0
 11
193.9963041112395
 21
13.83089787452067
 31
0.0
 11
193.9963041112395
 21
13.91553878716348
 31
0.0
 11
193.9963041112395
 21
14.02163795934954
 31
0.0
 11
193.9963041112395
 21
14.14204263789776
 31
0.0
 11
193.9963041112395
 21
14.26960006962706
 31
0.0
 11
193.9963041112395
 21
14.39715750135636
 31
0.0
 11
193.9963041112395
 21
14.51756217990458
 31
0.0
 11
193.9963041112395
 21
14.62366135209064
 31
0.0
 11
193.9963041112395
 21
14.70830226473344
 31
0.0
 11
193.9963041112395
 21
14.76433216465193
 31
0.0
 11
193.9963041112395
 21
14.78459829866499
 31
0.0
 11
193.7883272849481
 21
14.59331998274056
 31
0.0
 11
193.5763486358426
 21
14.4341488543081
 31
0.0
 11
193.5495629014483
 21
14.48814671952095
 31
0.0
 11
193.5138765415025
 21
14.54689140572026
 31
0.0
 11
193.4799697494125
 21
14.59192871537975
 31
0.0
 11
193.6830287742319
 21
14.73563387201052
 31
0.0
 11
193.881853195826
 21
14.91168423529987
 31
0.0
 11
194.0677041444179
 21
15.11327514524949
 31
0.0
 11
194.2318427502303
 21
15.33360194186108
 31
0.0
 11
194.3655301434864
 21
15.56585996513634
 31
0.0
 11
194.3465256724482
 21
15.56585996513634
 31
0.0
 11
194.2944166389562
 21
15.56585996513634
 31
0.0
 11
194.2165596124447
 21
15.56585996513634
 31
0.0
 11
194.1203111623478
 21
15.56585996513634
 31
0.0
 11
194.0130278580997
 21
15.56585996513634
 31
0.0
 11
193.9020662691345
 21
15.56585996513634
 31
0.0
 11
193.7947829648864
 21
15.56585996513634
 31
0.0
 11
193.6985345147895
 21
15.56585996513634
 31
0.0
 11
193.620677488278
 21
15.56585996513634
 31
0.0
 11
193.568568454786
 21
15.56585996513634
 31
0.0
 11
193.5495639837478
 21
15.56585996513634
 31
0.0
 11
193.5495639837478
 21
15.58311199790981
 31
0.0
 11
193.5495639837478
 21
15.6242514606773
 31
0.0
 11
193.5495639837478
 21
15.67335340010948
 31
0.0
 11
193.5495639837478
 21
15.71449286287697
 31
0.0
 11
193.5495639837478
 21
15.73174489565044
 31
0.0
 11
193.5687598486009
 21
15.73174489565044
 31
0.0
 11
193.6193671286684
 21
15.73174489565044
 31
0.0
 11
193.690915352212
 21
15.73174489565044
 31
0.0
 11
193.7729340474937
 21
15.73174489565044
 31
0.0
 11
193.8549527427753
 21
15.73174489565044
 31
0.0
 11
193.9265009663189
 21
15.73174489565044
 31
0.0
 11
193.9771082463864
 21
15.73174489565044
 31
0.0
 11
193.9963041112395
 21
15.73174489565044
 31
0.0
 11
193.9963041112395
 21
15.74926552655217
 31
0.0
 11
193.9963041112395
 21
15.79622081736881
 31
0.0
 11
193.9963041112395
 21
15.86420086526752
 31
0.0
 11
193.9963041112395
 21
15.94479576741548
 31
0.0
 11
193.9963041112395
 21
16.02959562097985
 31
0.0
 11
193.9963041112395
 21
16.11019052312781
 31
0.0
 11
193.9963041112395
 21
16.17817057102652
 31
0.0
 11
193.9963041112395
 21
16.22512586184316
 31
0.0
 11
193.9963041112395
 21
16.24264649274489
 31
0.0
 11
194.0135484112111
 21
16.24165806167518
 31
0.0
 11
194.0566591611401
 21
16.23918698400091
 31
0.0
 11
194.1127031360477
 21
16.23597458302435
 31
0.0
 11
194.1687471109553
 21
16.2327621820478
 31
0.0
 11
194.2118578608843
 21
16.23029110437353
 31
0.0
 11
194.2291021608559
 21
16.22930267330382
 31
0.0
 11
194.2143774674851
 21
16.20556293372641
 31
0.0
 11
194.175621051109
 21
16.19183767331312
 31
0.0
 11
194.175621051109
 21
16.17206806177293
 31
0.0
 11
194.175621051109
 21
16.11994817680333
 31
0.0
 11
194.175621051109
 21
16.04626144288079
 31
0.0
 11
194.175621051109
 21
15.96179128448178
 31
0.0
 11
194.175621051109
 21
15.87732112608277
 31
0.0
 11
194.175621051109
 21
15.80363439216023
 31
0.0
 11
194.175621051109
 21
15.75151450719063
 31
0.0
 11
194.175621051109
 21
15.73174489565044
 31
0.0
 11
194.1916227112935
 21
15.73174489565044
 31
0.0
 11
194.232890150717
 21
15.73174489565044
 31
0.0
 11
194.2893170576837
 21
15.73174489565044
 31
0.0
 11
194.3507971204981
 21
15.73174489565044
 31
0.0
 11
194.4072240274648
 21
15.73174489565044
 31
0.0
 11
194.4484914668882
 21
15.73174489565044
 31
0.0
 11
194.4644931270728
 21
15.73174489565044
 31
0.0
 11
194.4728206422924
 21
15.7345138745592
 31
0.0
 11
194.4882860277004
 21
15.73965626396118
 31
0.0
 11
194.49661354292
 21
15.74242524286994
 31
0.0
 11
194.5091363776005
 21
15.73490952398294
 31
0.0
 11
194.5389985218386
 21
15.71698742509854
 31
0.0
 11
194.5746404359293
 21
15.69559653288167
 31
0.0
 11
194.6045025801674
 21
15.67767443399728
 31
0.0
 11
194.6170254148479
 21
15.67015871511027
 31
0.0
  0
SPLINE
  5
AD
102
{ACAD_REACTORS
330
CA
102
}
330
48
100
AcDbEntity
  8
_U_30EC_U_30A4_U_30E4_U_30FC_1
  6
Continuous
 62
     2
100
AcDbSpline
210
0.0
220
0.0
230
1.0
 70
    11
 71
     3
 72
   124
 73
   120
 74
   118
 42
0.000000001
 43
0.0000000001
 44
0.00000001
 40
0.0
 40
0.0
 40
0.0
 40
0.0
 40
0.0278187229624226
 40
0.1011590162383985
 40
0.204847017058967
 40
0.3237088716558109
 40
0.4425707262520578
 40
0.5462587270697842
 40
0.6195990203310092
 40
0.6474177522576671
 40
0.6750060736113235
 40
0.7357003855240769
 40
0.7963946998052502
 40
0.8239830245569795
 40
0.8540933811100888
 40
0.9373396629407569
 40
1.063094687343009
 40
1.220731268637848
 40
1.399622220914522
 40
1.589140358637507
 40
1.778658496423616
 40
1.957549448940255
 40
2.115186030872876
 40
2.24094105691418
 40
2.32418734176025
 40
2.354297700109099
 40
2.381886024671606
 40
2.442580338710195
 40
2.503274652750219
 40
2.530862977314325
 40
2.560983949278278
 40
2.640393784452681
 40
2.752662861758876
 40
2.881361560117893
 40
3.010060258454996
 40
3.122329335705143
 40
3.201739170817757
 40
3.231860142753146
 40
3.264298024030201
 40
3.352343701778072
 40
3.482095226868593
 40
3.639650650172851
 40
3.811108022565306
 40
3.982565394927811
 40
4.140120818152391
 40
4.269872343141098
 40
4.357918020802159
 40
4.390355902043788
 40
4.423256253992357
 40
4.508104530072878
 40
4.624121560636675
 40
4.750528176031431
 40
4.866545206601907
 40
4.951393482691892
 40
4.984293834645293
 40
5.01145083324221
 40
5.071196230152
 40
5.130941627057079
 40
5.158098625648747
 40
5.190998977601409
 40
5.275847253689263
 40
5.391864284256754
 40
5.518270899648299
 40
5.634287930209338
 40
5.719136206288012
 40
5.752036558235928
 40
5.782130946282954
 40
5.862783906229127
 40
5.979550131774993
 40
6.117984316640396
 40
6.26364115458794
 40
6.402075339414144
 40
6.518841564907937
 40
6.599494524815518
 40
6.629588912848756
 40
6.654403028226303
 40
6.713575149488042
 40
6.784199939329302
 40
6.843372060493319
 40
6.868186175802565
 40
6.896246243201618
 40
6.939586233757875
 40
6.967846564564502
 40
7.043584251089441
 40
7.153234334451303
 40
7.283231855734056
 40
7.42001185603509
 40
7.550009376579442
 40
7.659659458834841
 40
7.735397144416837
 40
7.763657474851009
 40
7.796409728010667
 40
7.880876065095912
 40
7.996370852465241
 40
8.12220844641808
 40
8.237703224798674
 40
8.32216956201031
 40
8.354921815205325
 40
8.382078813307107
 40
8.441824209206416
 40
8.50156960523957
 40
8.52872660348515
 40
8.5614788566952
 40
8.645945193877221
 40
8.761439980864704
 40
8.887277580763818
 40
9.002772362000282
 40
9.087238696660446
 40
9.1199909492349
 40
9.152428830612598
 40
9.240474508637813
 40
9.37022603414876
 40
9.527781457983643
 40
9.699238830980631
 40
9.87069620397782
 40
10.02825162781324
 40
10.15800315332485
 40
10.2460488313504
 40
10.27848670378443
 40
10.27848670378443
 40
10.27848670378443
 40
10.27848670378443
 10
195.3821827564385
 20
14.01410517385757
 30
0.0
 10
195.3914554737525
 20
14.01410498511274
 30
0.0
 10
195.4251744536862
 20
14.01410430876714
 30
0.0
 10
195.4934706812467
 20
14.01411807243305
 30
0.0
 10
195.5920141711582
 20
14.01403224219545
 30
0.0
 10
195.7062066464812
 20
14.0144175561225
 30
0.0
 10
195.8185894417072
 20
14.01300835897545
 30
0.0
 10
195.9214376600119
 20
14.01719117422243
 30
0.0
 10
195.9806839874848
 20
14.00823089251983
 30
0.0
 10
196.0371265937033
 20
14.0216443452606
 30
0.0
 10
196.0246255586955
 20
13.97087198613361
 30
0.0
 10
196.0329549635703
 20
13.92589320939067
 30
0.0
 10
196.024817084112
 20
13.88056752990488
 30
0.0
 10
196.0370529214457
 20
13.82931932408466
 30
0.0
 10
195.9747773490333
 20
13.84447955365276
 30
0.0
 10
195.9060513026868
 20
13.83359750710743
 30
0.0
 10
195.7782756749592
 20
13.83911304747972
 30
0.0
 10
195.6262984511643
 20
13.83700851253698
 30
0.0
 10
195.4502695972523
 20
13.83771002588473
 30
0.0
 10
195.2644431934287
 20
13.83745237531291
 30
0.0
 10
195.0786167437176
 20
13.83771005144603
 30
0.0
 10
194.9025880142169
 20
13.83700841847731
 30
0.0
 10
194.7506104154195
 20
13.83911332229988
 30
0.0
 10
194.6228357664555
 20
13.8335968076764
 30
0.0
 10
194.5541077836581
 20
13.84448077125942
 30
0.0
 10
194.4918349042884
 20
13.82931786684209
 30
0.0
 10
194.5040616290018
 20
13.88057510805171
 30
0.0
 10
194.4960004462598
 20
13.92582473272425
 30
0.0
 10
194.5040675809893
 20
13.97106357955323
 30
0.0
 10
194.4918238487084
 20
14.02234176909958
 30
0.0
 10
194.5525017120698
 20
14.00749577363134
 30
0.0
 10
194.6162810745737
 20
14.01756448170735
 30
0.0
 10
194.7277314353504
 20
14.01294644212
 30
0.0
 10
194.8497533443824
 20
14.01413328905468
 30
0.0
 10
194.9719538137826
 20
14.01515863900635
 30
0.0
 10
195.0829794287393
 20
14.01092475623402
 30
0.0
 10
195.1476517413959
 20
14.02018584521739
 30
0.0
 10
195.2091162810503
 20
14.00604423049682
 30
0.0
 10
195.1930065601339
 20
14.07235527884516
 30
0.0
 10
195.2042980327361
 20
14.14447790121976
 30
0.0
 10
195.1987400822562
 20
14.27513760888285
 30
0.0
 10
195.2008035061692
 20
14.42607323708241
 30
0.0
 10
195.2000167127297
 20
14.59335873107885
 30
0.0
 10
195.2007845215629
 20
14.76061110332302
 30
0.0
 10
195.198803878563
 20
14.91163289269912
 30
0.0
 10
195.2041306156623
 20
15.04206069552994
 30
0.0
 10
195.1933101388427
 20
15.11465442605898
 30
0.0
 10
195.2090326429877
 20
15.18150469436797
 30
0.0
 10
195.1432708132492
 20
15.16580512490823
 30
0.0
 10
195.0756367830765
 20
15.17609243083994
 30
0.0
 10
194.9615885293811
 20
15.17113786847121
 30
0.0
 10
194.8451242674904
 20
15.17414128030474
 30
0.0
 10
194.7306554121478
 20
15.16880303143388
 30
0.0
 10
194.6640324657814
 20
15.18001268074823
 30
0.0
 10
194.5990769715186
 20
15.1634913266501
 30
0.0
 10
194.610798975871
 20
15.21473720477058
 30
0.0
 10
194.6032830189121
 20
15.2595033378409
 30
0.0
 10
194.6107989878836
 20
15.3042694489796
 30
0.0
 10
194.5990769505348
 20
15.3555153612974
 30
0.0
 10
194.6640326339201
 20
15.33899381766815
 30
0.0
 10
194.7306533339822
 20
15.35020571373943
 30
0.0
 10
194.8451352858065
 20
15.34485436710665
 30
0.0
 10
194.9615454436965
 20
15.34791188771117
 30
0.0
 10
195.0757660174642
 20
15.34278499010708
 30
0.0
 10
195.1430150439228
 20
15.35345733355599
 30
0.0
 10
195.208332594144
 20
15.33742082669076
 30
0.0
 10
195.1941391448554
 20
15.39949685750054
 30
0.0
 10
195.2036059462996
 20
15.46586761628762
 30
0.0
 10
195.1990269004087
 20
15.58239972741966
 30
0.0
 10
195.2007696555949
 20
15.71426685022375
 30
0.0
 10
195.1997551495394
 20
15.85615960150273
 30
0.0
 10
195.2017191344374
 20
15.98769050702579
 30
0.0
 10
195.1964668553853
 20
16.10524577283002
 30
0.0
 10
195.2073408763476
 20
16.16947789001582
 30
0.0
 10
195.1919536641856
 20
16.23108802545045
 30
0.0
 10
195.2407591537801
 20
16.2170240738211
 30
0.0
 10
195.2853995564727
 20
16.21954742075313
 30
0.0
 10
195.3538643946742
 20
16.2151279740171
 30
0.0
 10
195.3959106169102
 20
16.20613025544034
 30
0.0
 10
195.4487544758775
 20
16.21411714866512
 30
0.0
 10
195.4207035002014
 20
16.17113917611676
 30
0.0
 10
195.3749142248596
 20
16.18259552043833
 30
0.0
 10
195.3869539073267
 20
16.12173520005137
 30
0.0
 10
195.3796086070643
 20
16.05769299468774
 30
0.0
 10
195.3831195826163
 20
15.94909368863912
 30
0.0
 10
195.3819806760176
 20
15.82494319144753
 30
0.0
 10
195.3819174780265
 20
15.69189719829878
 30
0.0
 10
195.383287296687
 20
15.56797381249556
 30
0.0
 10
195.3791638801315
 20
15.45868337849338
 30
0.0
 10
195.3877763103566
 20
15.39608580094169
 30
0.0
 10
195.3746757454404
 20
15.33740133296366
 30
0.0
 10
195.43938843282
 20
15.35362113810902
 30
0.0
 10
195.5060405953158
 20
15.34270260383312
 30
0.0
 10
195.6198779541104
 20
15.34793740173756
 30
0.0
 10
195.7357259122097
 20
15.34485547516913
 30
0.0
 10
195.8496924263281
 20
15.35018259812512
 30
0.0
 10
195.9160341018099
 20
15.33904208166543
 30
0.0
 10
195.980718852548
 20
15.35546979593178
 30
0.0
 10
195.9689820772722
 20
15.3042592521005
 30
0.0
 10
195.9765168063041
 20
15.25950334121
 30
0.0
 10
195.9689820992258
 20
15.21474739010026
 30
0.0
 10
195.9807188140736
 20
15.16353690871039
 30
0.0
 10
195.9160344075252
 20
15.17996427794218
 30
0.0
 10
195.8496886430825
 20
15.16882784447269
 30
0.0
 10
195.7357459487012
 20
15.17413115893119
 30
0.0
 10
195.6197995623056
 20
15.17114764593543
 30
0.0
 10
195.5062756882124
 20
15.17606892268393
 30
0.0
 10
195.4389231318805
 20
15.16585087513519
 30
0.0
 10
195.3734285122497
 20
15.18145996138814
 30
0.0
 10
195.3891713619219
 20
15.11463851827409
 30
0.0
 10
195.3783275998215
 20
15.04207057815878
 30
0.0
 10
195.3836581629793
 20
14.91162247614415
 30
0.0
 10
195.3817136151858
 20
14.76064558185225
 30
0.0
 10
195.3823133683215
 20
14.59322243934158
 30
0.0
 10
195.3821506559607
 20
14.42656176118371
 30
0.0
 10
195.3821895488138
 20
14.27360142921636
 30
0.0
 10
195.3821816413101
 20
14.14849178985705
 30
0.0
 10
195.3821828382746
 20
14.06507890991419
 30
0.0
 10
195.382182771621
 20
14.02491778281976
 30
0.0
 10
195.3821827564385
 20
14.01410517385757
 30
0.0
 11
195.3821827564385
 21
14.01410517385757
 31
0.0
 11
195.4100014883676
 21
14.01410517385757
 31
0.0
 11
195.4833417816355
 21
14.01410517385757
 31
0.0
 11
195.5870297824624
 21
14.01410517385757
 31
0.0
 11
195.7058916370688
 21
14.01410517385757
 31
0.0
 11
195.8247534916752
 21
14.01410517385757
 31
0.0
 11
195.9284414925021
 21
14.01410517385757
 31
0.0
 11
196.0017817857699
 21
14.01410517385757
 31
0.0
 11
196.029600517699
 21
14.01410517385757
 31
0.0
 11
196.029600517699
 21
13.9865168492117
 31
0.0
 11
196.029600517699
 21
13.92582253499077
 31
0.0
 11
196.029600517699
 21
13.86512822076984
 31
0.0
 11
196.029600517699
 21
13.83753989612397
 31
0.0
 11
195.9994901593494
 21
13.83753989612397
 31
0.0
 11
195.9162438745004
 21
13.83753989612397
 31
0.0
 11
195.7904888484521
 21
13.83753989612397
 31
0.0
 11
195.6328522665042
 21
13.83753989612397
 31
0.0
 11
195.4539613139565
 21
13.83753989612397
 31
0.0
 11
195.2644431761089
 21
13.83753989612397
 31
0.0
 11
195.0749250382613
 21
13.83753989612397
 31
0.0
 11
194.8960340857137
 21
13.83753989612397
 31
0.0
 11
194.7383975037657
 21
13.83753989612397
 31
0.0
 11
194.6126424777173
 21
13.83753989612397
 31
0.0
 11
194.5293961928684
 21
13.83753989612397
 31
0.0
 11
194.4992858345188
 21
13.83753989612397
 31
0.0
 11
194.4992858345188
 21
13.86512822076984
 31
0.0
 11
194.4992858345188
 21
13.92582253499077
 31
0.0
 11
194.4992858345188
 21
13.9865168492117
 31
0.0
 11
194.4992858345188
 21
14.01410517385757
 31
0.0
 11
194.5294068064948
 21
14.01410517385757
 31
0.0
 11
194.6088166417042
 21
14.01410517385757
 31
0.0
 11
194.7210857190691
 21
14.01410517385757
 31
0.0
 11
194.8497844175119
 21
14.01410517385757
 31
0.0
 11
194.9784831159547
 21
14.01410517385757
 31
0.0
 11
195.0907521933196
 21
14.01410517385757
 31
0.0
 11
195.170162028529
 21
14.01410517385757
 31
0.0
 11
195.200283000505
 21
14.01410517385757
 31
0.0
 11
195.200283000505
 21
14.04654305523835
 31
0.0
 11
195.200283000505
 21
14.1345887332719
 31
0.0
 11
195.200283000505
 21
14.26434025879502
 31
0.0
 11
195.200283000505
 21
14.42189568264453
 31
0.0
 11
195.200283000505
 21
14.59335305565723
 31
0.0
 11
195.200283000505
 21
14.76481042866993
 31
0.0
 11
195.200283000505
 21
14.92236585251944
 31
0.0
 11
195.200283000505
 21
15.05211737804256
 31
0.0
 11
195.200283000505
 21
15.14016305607611
 31
0.0
 11
195.200283000505
 21
15.17260093745689
 31
0.0
 11
195.1673826485531
 21
15.17260093745689
 31
0.0
 11
195.0825343724664
 21
15.17260093745689
 31
0.0
 11
194.966517341899
 21
15.17260093745689
 31
0.0
 11
194.8401107265046
 21
15.17260093745689
 31
0.0
 11
194.7240936959371
 21
15.17260093745689
 31
0.0
 11
194.6392454198505
 21
15.17260093745689
 31
0.0
 11
194.6063450678985
 21
15.17260093745689
 31
0.0
 11
194.6063450678985
 21
15.19975793614802
 31
0.0
 11
194.6063450678985
 21
15.2595033332685
 31
0.0
 11
194.6063450678985
 21
15.31924873038897
 31
0.0
 11
194.6063450678985
 21
15.3464057290801
 31
0.0
 11
194.6392454198505
 21
15.3464057290801
 31
0.0
 11
194.7240936959371
 21
15.3464057290801
 31
0.0
 11
194.8401107265046
 21
15.3464057290801
 31
0.0
 11
194.966517341899
 21
15.3464057290801
 31
0.0
 11
195.0825343724664
 21
15.3464057290801
 31
0.0
 11
195.167382648553
 21
15.3464057290801
 31
0.0
 11
195.200283000505
 21
15.3464057290801
 31
0.0
 11
195.200283000505
 21
15.3765001173137
 31
0.0
 11
195.200283000505
 21
15.45715307777973
 31
0.0
 11
195.200283000505
 21
15.57391930412609
 31
0.0
 11
195.200283000505
 21
15.71235349000063
 31
0.0
 11
195.200283000505
 21
15.85801032905123
 31
0.0
 11
195.200283000505
 21
15.99644451492577
 31
0.0
 11
195.200283000505
 21
16.11321074127213
 31
0.0
 11
195.200283000505
 21
16.19386370173816
 31
0.0
 11
195.200283000505
 21
16.22395808997176
 31
0.0
 11
195.225040528862
 21
16.22228324219441
 31
0.0
 11
195.2840777118671
 21
16.21828937441764
 31
0.0
 11
195.3545414464215
 21
16.21352249997441
 31
0.0
 11
195.4135786294265
 21
16.20952863219764
 31
0.0
 11
195.4383361577835
 21
16.20785378442029
 31
0.0
 11
195.4233067224031
 21
16.18415814206509
 31
0.0
 11
195.3821827564385
 21
16.17047697887405
 31
0.0
 11
195.3821827564385
 21
16.14221664794833
 31
0.0
 11
195.3821827564385
 21
16.06647896106741
 31
0.0
 11
195.3821827564385
 21
15.95682887707562
 31
0.0
 11
195.3821827564385
 21
15.82683135481731
 31
0.0
 11
195.3821827564385
 21
15.69005135313683
 31
0.0
 11
195.3821827564385
 21
15.56005383087853
 31
0.0
 11
195.3821827564385
 21
15.45040374688675
 31
0.0
 11
195.3821827564385
 21
15.37466606000582
 31
0.0
 11
195.3821827564385
 21
15.3464057290801
 31
0.0
 11
195.4149350096117
 21
15.3464057290801
 31
0.0
 11
195.4994013467424
 21
15.3464057290801
 31
0.0
 11
195.6148961342477
 21
15.3464057290801
 31
0.0
 11
195.7407337385446
 21
15.3464057290801
 31
0.0
 11
195.8562285260499
 21
15.3464057290801
 31
0.0
 11
195.9406948631806
 21
15.3464057290801
 31
0.0
 11
195.9734471163538
 21
15.3464057290801
 31
0.0
 11
195.9734471163538
 21
15.31924873038897
 31
0.0
 11
195.9734471163538
 21
15.2595033332685
 31
0.0
 11
195.9734471163538
 21
15.19975793614802
 31
0.0
 11
195.9734471163538
 21
15.17260093745689
 31
0.0
 11
195.9406948631806
 21
15.17260093745689
 31
0.0
 11
195.8562285260499
 21
15.17260093745689
 31
0.0
 11
195.7407337385446
 21
15.17260093745689
 31
0.0
 11
195.6148961342477
 21
15.17260093745689
 31
0.0
 11
195.4994013467424
 21
15.17260093745689
 31
0.0
 11
195.4149350096116
 21
15.17260093745689
 31
0.0
 11
195.3821827564385
 21
15.17260093745689
 31
0.0
 11
195.3821827564385
 21
15.14016305607611
 31
0.0
 11
195.3821827564385
 21
15.05211737804256
 31
0.0
 11
195.3821827564385
 21
14.92236585251944
 31
0.0
 11
195.3821827564385
 21
14.76481042866993
 31
0.0
 11
195.3821827564385
 21
14.59335305565723
 31
0.0
 11
195.3821827564385
 21
14.42189568264453
 31
0.0
 11
195.3821827564385
 21
14.26434025879503
 31
0.0
 11
195.3821827564385
 21
14.1345887332719
 31
0.0
 11
195.3821827564385
 21
14.04654305523835
 31
0.0
 11
195.3821827564385
 21
14.01410517385757
 31
0.0
  0
SPLINE
  5
AE
102
{ACAD_REACTORS
330
CB
102
}
330
48
100
AcDbEntity
  8
_U_30EC_U_30A4_U_30E4_U_30FC_1
  6
Continuous
 62
     2
100
AcDbSpline
210
0.0
220
0.0
230
1.0
 70
     8
 71
     3
 72
    62
 73
    58
 74
    56
 42
0.000000001
 43
0.0000000001
 44
0.00000001
 40
0.0
 40
0.0
 40
0.0
 40
0.0
 40
0.0598250028308485
 40
0.2024846486896763
 40
0.372755838921961
 40
0.5154154847934365
 40
0.575240497578335
 40
0.9332326775484923
 40
1.290451762839273
 40
1.602077253145731
 40
1.699931634112074
 40
1.799359756425049
 40
2.270120149657088
 40
2.804661928461557
 40
2.882342287383271
 40
3.076543185719124
 40
3.329004354835592
 40
3.581465524568425
 40
3.775666424543711
 40
3.853346784558332
 40
3.899120679595078
 40
3.984129341791962
 40
4.029903236817311
 40
4.105797496059467
 40
4.295533144152428
 40
4.542189486611673
 40
4.788845828875623
 40
4.978581476410011
 40
5.054475735244254
 40
5.621734664339296
 40
6.130867242037219
 40
6.225249780948537
 40
6.3189130397272
 40
6.663579954558803
 40
7.047498900224636
 40
7.435230791575534
 40
7.498943906667917
 40
7.650875181209854
 40
7.832212509001308
 40
7.984143783696665
 40
8.047856898902765
 40
8.09155463273227
 40
8.172707566963929
 40
8.21640530076765
 40
8.289021782160507
 40
8.462184160756852
 40
8.668861838004961
 40
8.842024215263525
 40
8.914640695474692
 40
8.989881580860901
 40
9.155411528826814
 40
9.320941477743604
 40
9.39618235248686
 40
9.45470901114335
 40
9.58346766017037
 40
9.712226309012593
 40
9.770752957989075
 40
9.770752957989075
 40
9.770752957989075
 40
9.770752957989075
 10
187.1521871691832
 20
14.93980288195949
 30
0.0
 10
187.1322348171623
 20
14.93980875568671
 30
0.0
 10
187.0647037716464
 20
14.93982863806157
 30
0.0
 10
186.9410612161789
 20
14.93949362520324
 30
0.0
 10
186.7863180150057
 20
14.94107673750511
 30
0.0
 10
186.669734948248
 20
14.93686078860494
 30
0.0
 10
186.4550942634242
 20
14.95215205331625
 30
0.0
 10
186.8518948407229
 20
14.59198721286186
 30
0.0
 10
186.8945656069268
 20
14.37510503397167
 30
0.0
 10
187.3189162146615
 20
14.19325062511441
 30
0.0
 10
187.1439821496074
 20
14.08985196568074
 30
0.0
 10
187.0194523925084
 20
13.87831523212729
 30
0.0
 10
186.7666277235943
 20
14.34806081001559
 30
0.0
 10
186.4797602893626
 20
14.99511516984523
 30
0.0
 10
186.490633592666
 20
14.68782672154695
 30
0.0
 10
186.488289277796
 20
14.52288616971779
 30
0.0
 10
186.4861096126411
 20
14.28879670711693
 30
0.0
 10
186.4980774396346
 20
14.04498072421783
 30
0.0
 10
186.4687984740631
 20
13.89855796860984
 30
0.0
 10
186.511452262547
 20
13.75113490174537
 30
0.0
 10
186.423981400564
 20
13.76685797306218
 30
0.0
 10
186.3768527606745
 20
13.76694303543452
 30
0.0
 10
186.2898973207714
 20
13.75109425482908
 30
0.0
 10
186.3313474021724
 20
13.89527771422761
 30
0.0
 10
186.3029875004286
 20
14.03855052698455
 30
0.0
 10
186.31459737753
 20
14.27674947365264
 30
0.0
 10
186.3124175648273
 20
14.50517235240346
 30
0.0
 10
186.3103111127995
 20
14.66705729375995
 30
0.0
 10
186.3208035438325
 20
14.98153709333753
 30
0.0
 10
186.0128963252892
 20
14.29229470872435
 30
0.0
 10
185.705525826746
 20
13.81476750243067
 30
0.0
 10
185.5851367066275
 20
14.03741112637423
 30
0.0
 10
185.4074607910723
 20
14.15011034955568
 30
0.0
 10
185.8853326362895
 20
14.3254814346546
 30
0.0
 10
185.9353959057208
 20
14.5609192925203
 30
0.0
 10
186.3583799621717
 20
14.95322989344605
 30
0.0
 10
186.1276754273541
 20
14.93655307029065
 30
0.0
 10
186.0049685859341
 20
14.9426951894877
 30
0.0
 10
185.8325483095663
 20
14.93312822699573
 30
0.0
 10
185.721322469445
 20
14.95448818489665
 30
0.0
 10
185.602577962745
 20
14.9213626535742
 30
0.0
 10
185.6183169706688
 20
15.00203900606883
 30
0.0
 10
185.6178550933764
 20
15.04645414290853
 30
0.0
 10
185.6027881889933
 20
15.12967081778531
 30
0.0
 10
185.7372380935444
 20
15.09062651983882
 30
0.0
 10
185.8619755545748
 20
15.11739729328422
 30
0.0
 10
186.0628755237281
 20
15.10063949044051
 30
0.0
 10
186.1921540949354
 20
15.12204225913002
 30
0.0
 10
186.3328419928295
 20
15.08868778853421
 30
0.0
 10
186.2980927452616
 20
15.22651875785067
 30
0.0
 10
186.3222185666714
 20
15.34963257349482
 30
0.0
 10
186.2967086182393
 20
15.47024055670335
 30
0.0
 10
186.3333251146686
 20
15.60539865141494
 30
0.0
 10
186.221141702777
 20
15.58094545781891
 30
0.0
 10
186.1280356457138
 20
15.59307749842024
 30
0.0
 10
186.0191547579821
 20
15.58957630069995
 30
0.0
 10
185.9569697640965
 20
15.58981755951603
 30
0.0
 10
185.9375369557247
 20
15.58989295124145
 30
0.0
 11
187.1521871691832
 21
14.93980288195949
 31
0.0
 11
187.0923621563981
 21
14.93980288195949
 31
0.0
 11
186.9497025105259
 21
14.93980288195949
 31
0.0
 11
186.7794313202914
 21
14.93980288195949
 31
0.0
 11
186.6367716744192
 21
14.93980288195949
 31
0.0
 11
186.5769466616341
 21
14.93980288195949
 31
0.0
 11
186.7679960754843
 21
14.6370512796689
 31
0.0
 11
186.9941272785631
 21
14.36051890576685
 31
0.0
 11
187.2244526173373
 21
14.15061253493458
 31
0.0
 11
187.1521596330705
 21
14.08466403668717
 31
0.0
 11
187.0879364402643
 21
14.0087605905256
 31
0.0
 11
186.7732818215558
 21
14.35891458349363
 31
0.0
 11
186.4886640249976
 21
14.81138295143602
 31
0.0
 11
186.4886640249976
 21
14.73370259137314
 31
0.0
 11
186.4886640249976
 21
14.53950169121593
 31
0.0
 11
186.4886640249976
 21
14.28704052101156
 31
0.0
 11
186.4886640249976
 21
14.0345793508072
 31
0.0
 11
186.4886640249976
 21
13.84037845064999
 31
0.0
 11
186.4886640249976
 21
13.76269809058711
 31
0.0
 11
186.4428901295605
 21
13.76269809058711
 31
0.0
 11
186.3578814666059
 21
13.76269809058711
 31
0.0
 11
186.3121075711688
 21
13.76269809058711
 31
0.0
 11
186.3121075711688
 21
13.83859234982739
 31
0.0
 11
186.3121075711688
 21
14.02832799792811
 31
0.0
 11
186.3121075711688
 21
14.27498434045903
 31
0.0
 11
186.3121075711688
 21
14.52164068298995
 31
0.0
 11
186.3121075711688
 21
14.71137633109067
 31
0.0
 11
186.3121075711688
 21
14.78727059033095
 31
0.0
 11
185.9987626399267
 21
14.31440946197692
 31
0.0
 11
185.635232866215
 21
13.95795177109382
 31
0.0
 11
185.5773927461628
 21
14.03253450545022
 31
0.0
 11
185.5094852305342
 21
14.09704322939241
 31
0.0
 11
185.775072189832
 21
14.31672219795889
 31
0.0
 11
186.0233764972062
 21
14.60953395971697
 31
0.0
 11
186.226498280526
 21
14.93980288195949
 31
0.0
 11
186.1627851652721
 21
14.93980288195949
 31
0.0
 11
186.010853890436
 21
14.93980288195949
 31
0.0
 11
185.8295165624057
 21
14.93980288195949
 31
0.0
 11
185.6775852875695
 21
14.93980288195949
 31
0.0
 11
185.6138721723156
 21
14.93980288195949
 31
0.0
 11
185.6138721723156
 21
14.98350061600207
 31
0.0
 11
185.6138721723156
 21
15.06465355065258
 31
0.0
 11
185.6138721723156
 21
15.10835128469516
 31
0.0
 11
185.6864886537963
 21
15.10835128469516
 31
0.0
 11
185.859651032712
 21
15.10835128469516
 31
0.0
 11
186.0663287107725
 21
15.10835128469516
 31
0.0
 11
186.2394910896881
 21
15.10835128469516
 31
0.0
 11
186.3121075711688
 21
15.10835128469516
 31
0.0
 11
186.3121075711688
 21
15.18359217009302
 31
0.0
 11
186.3121075711688
 21
15.3491221179683
 31
0.0
 11
186.3121075711688
 21
15.51465206584359
 31
0.0
 11
186.3121075711688
 21
15.58989295124145
 31
0.0
 11
186.2535809125057
 21
15.58989295124145
 31
0.0
 11
186.1248222634468
 21
15.58989295124145
 31
0.0
 11
185.9960636143879
 21
15.58989295124145
 31
0.0
 11
185.9375369557247
 21
15.58989295124145
 31
0.0
  0
SPLINE
  5
AF
102
{ACAD_REACTORS
330
CB
102
}
330
48
100
AcDbEntity
  8
_U_30EC_U_30A4_U_30E4_U_30FC_1
  6
Continuous
 62
     2
100
AcDbSpline
210
0.0
220
0.0
230
1.0
 70
     8
 71
     3
 72
    70
 73
    66
 74
    64
 42
0.000000001
 43
0.0000000001
 44
0.00000001
 40
0.0
 40
0.0
 40
0.0
 40
0.0
 40
0.0241731073021472
 40
0.0846058988987582
 40
0.1631685280353852
 40
0.2417311571790608
 40
0.302163948829332
 40
0.3263370654896678
 40
0.3533118254250036
 40
0.4228783438923248
 40
0.5179999095314539
 40
0.6216398239467239
 40
0.7167613891500842
 40
0.7863279069651
 40
0.8133026791762973
 40
0.837294399877281
 40
0.8945054261373439
 40
0.9627895541962925
 40
1.020000580349074
 40
1.043992300975172
 40
1.071934345522863
 40
1.113121768772958
 40
1.145225199332282
 40
1.225483775412814
 40
1.32981992377152
 40
1.43415607199441
 40
1.514414647795826
 40
1.546518078208434
 40
1.578974764260208
 40
1.662678849314203
 40
1.777131373668423
 40
1.901833377474814
 40
2.016285900500604
 40
2.099989982527971
 40
2.13244666657033
 40
2.158782354486054
 40
2.216720867907843
 40
2.274659381334267
 40
2.3009950692562
 40
2.333451754066172
 40
2.417155836543853
 40
2.531608358985292
 40
2.656310362283787
 40
2.77076288638892
 40
2.854466971340085
 40
2.886923657363891
 40
2.913597976833325
 40
2.982389642875133
 40
3.076451716947
 40
3.17893726045862
 40
3.272999334740029
 40
3.341791001059252
 40
3.368465320663566
 40
3.396976080738787
 40
3.472140811846023
 40
3.578408190308713
 40
3.700226892456121
 40
3.822045594634338
 40
3.928312973256416
 40
4.003477705314785
 40
4.031988456866851
 40
4.058324144797649
 40
4.116262658236811
 40
4.174201171400608
 40
4.200536849608542
 40
4.200536849608542
 40
4.200536849608542
 40
4.200536849608542
 10
185.9857704961609
 20
15.75844135397706
 30
0.0
 10
185.9938259544679
 20
15.75844359811688
 30
0.0
 10
186.0220200663241
 20
15.75845146032798
 30
0.0
 10
186.0765534803673
 20
15.75830754828373
 30
0.0
 10
186.1482891808604
 20
15.75909120499899
 30
0.0
 10
186.2236240137063
 20
15.75627570463811
 30
0.0
 10
186.2713052366439
 20
15.76298403400958
 30
0.0
 10
186.3195071245617
 20
15.75197563692432
 30
0.0
 10
186.3062571799875
 20
15.80546402997034
 30
0.0
 10
186.3151093964539
 20
15.86049583543093
 30
0.0
 10
186.3108698036287
 20
15.9541990872611
 30
0.0
 10
186.313348348128
 20
16.04959482218533
 30
0.0
 10
186.3090938706062
 20
16.14356821983388
 30
0.0
 10
186.3179818665847
 20
16.19795062438013
 30
0.0
 10
186.3046977409946
 20
16.25233997691461
 30
0.0
 10
186.3514119277109
 20
16.2384221633536
 30
0.0
 10
186.3943254545738
 20
16.24103877374044
 30
0.0
 10
186.4605443456684
 20
16.23648422450756
 30
0.0
 10
186.5013342271799
 20
16.22778162134162
 30
0.0
 10
186.5525145690818
 20
16.23531799890197
 30
0.0
 10
186.5253720487201
 20
16.19349970223279
 30
0.0
 10
186.4803096055707
 20
16.20284992072601
 30
0.0
 10
186.4942065045051
 20
16.13841207371837
 30
0.0
 10
186.4858414431653
 20
16.07378219627399
 30
0.0
 10
186.4903632178398
 20
15.97529141193888
 30
0.0
 10
186.4854741311167
 20
15.87595932842571
 30
0.0
 10
186.4950258992082
 20
15.81293115552969
 30
0.0
 10
186.47997614552
 20
15.7496401149979
 30
0.0
 10
186.5449159457208
 20
15.7651507294427
 30
0.0
 10
186.6116246399497
 20
15.75499387697813
 30
0.0
 10
186.7241435470827
 20
15.75988800099368
 30
0.0
 10
186.8390235448954
 20
15.75691204732785
 30
0.0
 10
186.9519871999746
 20
15.76221664184991
 30
0.0
 10
187.0176267597678
 20
15.7510730647209
 30
0.0
 10
187.0816276691053
 20
15.76744532319858
 30
0.0
 10
187.0703142889189
 20
15.71761689905276
 30
0.0
 10
187.0775339871509
 20
15.67416715212124
 30
0.0
 10
187.070314261127
 20
15.63071745587446
 30
0.0
 10
187.0816277175994
 20
15.58088895196877
 30
0.0
 10
187.0176263598972
 20
15.59726166091363
 30
0.0
 10
186.9519921240459
 20
15.5861127166159
 30
0.0
 10
186.838997431733
 20
15.59144857206855
 30
0.0
 10
186.7242456548644
 20
15.58834345663823
 30
0.0
 10
186.611318368686
 20
15.59364894682589
 30
0.0
 10
186.5455220903585
 20
15.58257300019595
 30
0.0
 10
186.4816097975358
 20
15.59887597847619
 30
0.0
 10
186.4936015165126
 20
15.54423524395742
 30
0.0
 10
186.4862104613005
 20
15.48854295047842
 30
0.0
 10
186.4892684841983
 20
15.3964968914057
 30
0.0
 10
186.4893422785682
 20
15.30179109873101
 30
0.0
 10
186.4860313578359
 20
15.20952782902264
 30
0.0
 10
186.4939505989904
 20
15.15435768736139
 30
0.0
 10
186.4815076611617
 20
15.10058169100135
 30
0.0
 10
186.5389116551632
 20
15.1145376886278
 30
0.0
 10
186.5994708140382
 20
15.10511457884225
 30
0.0
 10
186.7048680855081
 20
15.10942885928704
 30
0.0
 10
186.8204294070622
 20
15.1083550461203
 30
0.0
 10
186.9359688877797
 20
15.10725965900994
 30
0.0
 10
187.041418113084
 20
15.11162525770631
 30
0.0
 10
187.1018680471803
 20
15.1020942603067
 30
0.0
 10
187.1592837739109
 20
15.11617289606379
 30
0.0
 10
187.1477773876708
 20
15.06707153265681
 30
0.0
 10
187.1537566781748
 20
15.02564658018648
 30
0.0
 10
187.15203110508
 20
14.97651677966694
 30
0.0
 10
187.1521500122971
 20
14.94854428447607
 30
0.0
 10
187.1521871691832
 20
14.93980288195949
 30
0.0
 11
185.9857704961609
 21
15.75844135397706
 31
0.0
 11
186.0099436128282
 21
15.75844135397706
 31
0.0
 11
186.0703764044963
 21
15.75844135397706
 31
0.0
 11
186.1489390336649
 21
15.75844135397706
 31
0.0
 11
186.2275016628334
 21
15.75844135397706
 31
0.0
 11
186.2879344545015
 21
15.75844135397706
 31
0.0
 11
186.3121075711688
 21
15.75844135397706
 31
0.0
 11
186.3121075711688
 21
15.78541612620064
 31
0.0
 11
186.3121075711688
 21
15.8549826440404
 31
0.0
 11
186.3121075711688
 21
15.95010420924986
 31
0.0
 11
186.3121075711688
 21
16.05374412358257
 31
0.0
 11
186.3121075711688
 21
16.14886568879203
 31
0.0
 11
186.3121075711688
 21
16.21843220663179
 31
0.0
 11
186.3121075711688
 21
16.24540697885537
 31
0.0
 11
186.3360407604893
 21
16.24373213107801
 31
0.0
 11
186.3931122119458
 21
16.23973826330122
 31
0.0
 11
186.4612297507811
 21
16.23497138885796
 31
0.0
 11
186.5183012022376
 21
16.23097752108118
 31
0.0
 11
186.5422343915581
 21
16.22930267330382
 31
0.0
 11
186.527497273123
 21
16.20556293372641
 31
0.0
 11
186.4886640249976
 21
16.19183767331312
 31
0.0
 11
186.4886640249976
 21
16.15973424225119
 31
0.0
 11
186.4886640249976
 21
16.07947566459637
 31
0.0
 11
186.4886640249976
 21
15.97513951364509
 31
0.0
 11
186.4886640249976
 21
15.87080336269381
 31
0.0
 11
186.4886640249976
 21
15.79054478503899
 31
0.0
 11
186.4886640249976
 21
15.75844135397706
 31
0.0
 11
186.5211207110824
 21
15.75844135397706
 31
0.0
 11
186.6048247962486
 21
15.75844135397706
 31
0.0
 11
186.7192773208634
 21
15.75844135397706
 31
0.0
 11
186.8439793252946
 21
15.75844135397706
 31
0.0
 11
186.9584318499095
 21
15.75844135397706
 31
0.0
 11
187.0421359350756
 21
15.75844135397706
 31
0.0
 11
187.0745926211604
 21
15.75844135397706
 31
0.0
 11
187.0745926211604
 21
15.73210566604962
 31
0.0
 11
187.0745926211604
 21
15.67416715260926
 31
0.0
 11
187.0745926211604
 21
15.61622863916889
 31
0.0
 11
187.0745926211604
 21
15.58989295124145
 31
0.0
 11
187.0421359350756
 21
15.58989295124145
 31
0.0
 11
186.9584318499095
 21
15.58989295124145
 31
0.0
 11
186.8439793252946
 21
15.58989295124145
 31
0.0
 11
186.7192773208634
 21
15.58989295124145
 31
0.0
 11
186.6048247962485
 21
15.58989295124145
 31
0.0
 11
186.5211207110824
 21
15.58989295124145
 31
0.0
 11
186.4886640249976
 21
15.58989295124145
 31
0.0
 11
186.4886640249976
 21
15.56321863152023
 31
0.0
 11
186.4886640249976
 21
15.49442696487076
 31
0.0
 11
186.4886640249976
 21
15.40036489006434
 31
0.0
 11
186.4886640249976
 21
15.29787934587227
 31
0.0
 11
186.4886640249976
 21
15.20381727106585
 31
0.0
 11
186.4886640249976
 21
15.13502560441638
 31
0.0
 11
186.4886640249976
 21
15.10835128469516
 31
0.0
 11
186.5171747850993
 21
15.10835128469516
 31
0.0
 11
186.5923395162766
 21
15.10835128469516
 31
0.0
 11
186.6986068948376
 21
15.10835128469516
 31
0.0
 11
186.8204255970904
 21
15.10835128469516
 31
0.0
 11
186.9422442993433
 21
15.10835128469516
 31
0.0
 11
187.0485116779042
 21
15.10835128469516
 31
0.0
 11
187.1236764090815
 21
15.10835128469516
 31
0.0
 11
187.1521871691832
 21
15.10835128469516
 31
0.0
 11
187.1521871691832
 21
15.08201559676771
 31
0.0
 11
187.1521871691832
 21
15.02407708332733
 31
0.0
 11
187.1521871691832
 21
14.96613856988694
 31
0.0
 11
187.1521871691832
 21
14.93980288195949
 31
0.0
  0
SPLINE
  5
B0
102
{ACAD_REACTORS
330
CB
102
}
330
48
100
AcDbEntity
  8
_U_30EC_U_30A4_U_30E4_U_30FC_1
  6
Continuous
 62
     2
100
AcDbSpline
210
0.0
220
0.0
230
1.0
 70
     8
 71
     3
 72
    24
 73
    20
 74
    18
 42
0.000000001
 43
0.0000000001
 44
0.00000001
 40
0.0
 40
0.0
 40
0.0
 40
0.0
 40
0.2211075008753558
 40
0.4273218586245302
 40
0.5080174679239312
 40
0.5914835907871235
 40
0.8143265690193671
 40
1.05465130268668
 40
1.295452694023273
 40
1.518109231328939
 40
1.540864321905582
 40
1.595126460622845
 40
1.659890947896188
 40
1.714153085187574
 40
1.736908174961875
 40
1.764951100735593
 40
1.801562291221212
 40
1.953914424543868
 40
2.12610416737995
 40
2.12610416737995
 40
2.12610416737995
 40
2.12610416737995
 10
185.937536955689
 20
15.58989295113015
 30
0.0
 10
185.9112579081813
 20
15.53097628234373
 30
0.0
 10
185.8604698894427
 20
15.41711139679254
 30
0.0
 10
185.8131784839113
 20
15.14441958233114
 30
0.0
 10
185.7043482802619
 20
15.24445482575458
 30
0.0
 10
185.5514800279637
 20
15.27118593367323
 30
0.0
 10
185.7686155181199
 20
15.48518135017633
 30
0.0
 10
185.7838483674381
 20
15.70332117782486
 30
0.0
 10
185.8906889492
 20
15.88451579066427
 30
0.0
 10
185.8305380947078
 20
16.16913226311401
 30
0.0
 10
185.9334317395402
 20
16.14114089222452
 30
0.0
 10
185.977993346815
 20
16.13243251602299
 30
0.0
 10
186.0380842395397
 20
16.12139654183354
 30
0.0
 10
186.0756619587439
 20
16.1076752305556
 30
0.0
 10
186.1252466928607
 20
16.1075607616022
 30
0.0
 10
186.0930158919325
 20
16.07306592398624
 30
0.0
 10
186.0171802221881
 20
16.08404104537961
 30
0.0
 10
186.0429447159695
 20
15.89858969582449
 30
0.0
 10
186.005589676385
 20
15.80702313549589
 30
0.0
 10
185.9857704961609
 20
15.75844135397706
 30
0.0
 11
185.937536955689
 21
15.58989295113015
 31
0.0
 11
185.8616471328554
 21
15.3822170831856
 31
0.0
 11
185.7717402238434
 21
15.19663392356192
 31
0.0
 11
185.7011493923111
 21
15.23573272563551
 31
0.0
 11
185.6245525192651
 21
15.26889163187719
 31
0.0
 11
185.7214026947455
 21
15.46958801203537
 31
0.0
 11
185.7994641467471
 21
15.69688163177023
 31
0.0
 11
185.858971692972
 21
15.93021436608691
 31
0.0
 11
185.9001601511226
 21
16.14902808999055
 31
0.0
 11
185.9224183822215
 21
16.14429889221396
 31
0.0
 11
185.975495702534
 21
16.133021574439
 31
0.0
 11
186.0388460525845
 21
16.11956154999791
 31
0.0
 11
186.0919233728971
 21
16.10828423222296
 31
0.0
 11
186.1141816039959
 21
16.10355503444636
 31
0.0
 11
186.0964097157461
 21
16.08186250841009
 31
0.0
 11
186.0606122998071
 21
16.07418628445366
 31
0.0
 11
186.028195330148
 21
15.92532288171313
 31
0.0
 11
185.9857704961609
 21
15.75844135397706
 31
0.0
  0
LWPOLYLINE
  5
B1
102
{ACAD_REACTORS
330
CC
102
}
330
48
100
AcDbEntity
  8
_U_30EC_U_30A4_U_30E4_U_30FC_1
  6
Continuous
 62
     2
100
AcDbPolyline
 90
        5
 70
     1
 43
0.0
 10
191.1602971697033
 20
15.39722336795624
 10
192.4578138032672
 20
15.39722336795624
 10
192.4578138032672
 20
15.22875434022056
 10
191.1602971697033
 20
15.22875434022056
 10
191.1602971697033
 20
15.39722336795624
  0
MTEXT
  5
B3
330
48
100
AcDbEntity
  8
1
 62
   250
100
AcDbMText
 10
25.0
 20
5.0
 30
0.0
 40
3.5
 41
0.0
 71
     4
 72
     1
  1
備考欄の文字列 原点位置=4
  7
CONVERTER_11
 73
     1
 44
0.54545454545455
  0
MTEXT
  5
B4
330
48
100
AcDbEntity
  8
1
 62
     2
100
AcDbMText
 10
89.5
 20
24.00000000000001
 30
0.0
 40
3.5
 41
0.0
 71
     5
 72
     1
  1
尺度
  7
CONVERTER_11
 73
     1
 44
0.54545454545455
  0
MTEXT
  5
B5
330
48
100
AcDbEntity
  8
1
 62
     2
100
AcDbMText
 10
135.5000000000001
 20
25.00000000000001
 30
0.0
 40
3.0
 41
0.0
 71
     5
 72
     1
  1
製図
  7
CONVERTER_11
 73
     1
 44
0.59090909090909
  0
MTEXT
  5
B6
330
48
100
AcDbEntity
  8
1
 62
     2
100
AcDbMText
 10
152.5000000000001
 20
25.00000000000001
 30
0.0
 40
3.0
 41
0.0
 71
     5
 72
     1
  1
設計
  7
CONVERTER_11
 73
     1
 44
0.59090909090909
  0
MTEXT
  5
B7
330
48
100
AcDbEntity
  8
1
 62
     2
100
AcDbMText
 10
118.5
 20
25.00000000000001
 30
0.0
 40
3.0
 41
0.0
 71
     5
 72
     1
  1
検図
  7
CONVERTER_11
 73
     1
 44
0.59090909090909
  0
MTEXT
  5
B8
330
48
100
AcDbEntity
  8
1
 62
     2
100
AcDbMText
 10
175.0000000000001
 20
23.50000000000001
 30
0.0
 40
3.5
 41
0.0
 71
     5
 72
     1
  1
第三角法
  7
CONVERTER_11
 73
     1
 44
0.54545454545455
  0
MTEXT
  5
B9
330
48
100
AcDbEntity
  8
1
 62
     2
100
AcDbMText
 10
101.5
 20
25.00000000000001
 30
0.0
 40
3.0
 41
0.0
 71
     5
 72
     1
  1
承認
  7
CONVERTER_11
 73
     1
 44
0.59090909090909
  0
MTEXT
  5
BA
330
48
100
AcDbEntity
  8
1
 62
     2
100
AcDbMText
 10
29.0
 20
14.25000000000001
 30
0.0
 40
3.5
 41
0.0
 71
     5
 72
     1
  1
品番
  7
CONVERTER_11
 73
     1
 44
0.72727272727273
  0
MTEXT
  5
BB
330
48
100
AcDbEntity
  8
1
 62
     2
100
AcDbMText
 10
29.0
 20
22.75000000000001
 30
0.0
 40
3.5
 41
0.0
 71
     5
 72
     1
  1
品名
  7
CONVERTER_11
 73
     1
 44
0.72727272727273
  0
MTEXT
  5
BC
330
48
100
AcDbEntity
  8
1
 62
     2
100
AcDbMText
 10
29.0
 20
34.00000000000001
 30
0.0
 40
3.5
 41
0.0
 71
     5
 72
     1
  1
備考
  7
CONVERTER_11
 73
     1
 44
0.45454545454545
  0
MTEXT
  5
BD
330
48
100
AcDbEntity
  8
1
 62
     2
100
AcDbMText
 10
32.49999999999999
 20
282.0000000000002
 30
0.0
 40
5.0
 41
0.0
 71
     5
 72
     1
  1
図番
  7
CONVERTER_11
 73
     1
 44
0.45454545454545
  0
HATCH
  5
BE
330
48
100
AcDbEntity
  8
1
  6
Continuous
 62
     2
100
AcDbHatch
 10
0.0
 20
0.0
 30
0.0
210
0.0
220
0.0
230
1.0
  2
CUSTOM0
 70
     0
 71
     1
 91
        1
 92
        1
 93
        1
 72
     4
 94
        3
 73
     0
 74
     0
 95
       99
 96
       95
 40
0.0
 40
0.0
 40
0.0
 40
0.0
 40
0.0796417172272876
 40
0.1621768542355901
 40
0.2486489160958071
 40
0.3404969668524481
 40
0.4381912511164535
 40
0.5434463660244835
 40
0.6518115192847156
 40
0.7530190937886723
 40
0.8492196919725474
 40
0.941929031299806
 40
1.03424966357002
 40
1.129078600620184
 40
1.226697027573233
 40
1.327220425421699
 40
1.470572134938023
 40
1.595489863371244
 40
1.719934125348355
 40
1.850576620127444
 40
1.989059629987279
 40
2.134139054226844
 40
2.280698007207187
 40
2.424529739039512
 40
2.565929576985878
 40
2.708239260773574
 40
2.861717887443676
 40
3.045168540347396
 40
3.183798301138621
 40
3.314813961455522
 40
3.442083470447349
 40
3.569912708372887
 40
3.702177512509406
 40
3.842307559659523
 40
3.992872223245923
 40
4.156750662218425
 40
4.310981861107646
 40
4.445859909322663
 40
4.572393936131596
 40
4.701656719781975
 40
4.768279086008466
 40
4.835960697898416
 40
4.912788918729325
 40
5.006285208481512
 40
5.026909478751645
 40
5.047533749021267
 40
5.101808031471335
 40
5.162325165538638
 40
5.226919745995971
 40
5.29423180659675
 40
5.364544852554936
 40
5.438319055468027
 40
5.517877651324364
 40
5.607647714861677
 40
5.700449642544524
 40
5.788251142364258
 40
5.872714706039888
 40
5.955167292575462
 40
6.037192395190509
 40
6.120669181469196
 40
6.206848616686441
 40
6.29668085541688
 40
6.442558392872702
 40
6.568190371608386
 40
6.692904567360478
 40
6.824220446557224
 40
6.963121850329514
 40
7.107843738851357
 40
7.253431663907416
 40
7.395187468036788
 40
7.533140753237819
 40
7.670550457175468
 40
7.816236511769443
 40
7.98769165735939
 40
8.142277421969432
 40
8.293662615415201
 40
8.442962460879443
 40
8.591598316185513
 40
8.743678992361959
 40
8.903725323699367
 40
9.076307008890634
 40
9.265578604680575
 40
9.459203795360864
 40
9.617619810273624
 40
9.753609671362108
 40
9.874873300004255
 40
9.954520184977968
 40
10.02416413719267
 40
10.09769764405466
 40
10.18909955924994
 40
10.2097458642015
 40
10.2303921826339
 40
10.30057101881278
 40
10.37632012987556
 40
10.37632012987556
 40
10.37632012987556
 40
10.37632012987556
 10
170.1465954835851
 20
14.13795663215994
 10
170.163221785122
 20
14.11720608845313
 10
170.1970784206577
 20
14.07495111711905
 10
170.2599822541036
 20
14.0202981139207
 10
170.3332500940392
 20
13.97299025121053
 10
170.4175969238636
 20
13.93527231437935
 10
170.513224061546
 20
13.91040619731951
 10
170.6171853775346
 20
13.90309559345937
 10
170.7224020220405
 20
13.91142322794053
 10
170.8206626371334
 20
13.9414917965153
 10
170.9058986427549
 20
13.98848822971872
 10
170.9779220206102
 20
14.04952991250858
 10
171.0350917709096
 20
14.12412969578585
 10
171.0767868747439
 20
14.21002464660173
 10
171.1026952846292
 20
14.30485850432212
 10
171.1118037332654
 20
14.41854979038366
 10
171.0986864796487
 20
14.5433258777078
 10
171.0325330334414
 20
14.66014719171889
 10
170.9369370919569
 20
14.74512539577379
 10
170.8249681022369
 20
14.81416684459156
 10
170.699365958327
 20
14.8720414204589
 10
170.5656691620857
 20
14.92373723284341
 10
170.4313122818832
 20
14.97899092397181
 10
170.3051983986877
 20
15.04939770641649
 10
170.1926579987535
 20
15.1378554073125
 10
170.0969963064457
 20
15.24981067868473
 10
170.0334157151827
 20
15.39949910101386
 10
170.0200706505015
 20
15.55932794385141
 10
170.0320510987448
 20
15.71048405306848
 10
170.0712298928842
 20
15.83809244591536
 10
170.1354987750912
 20
15.95080874030839
 10
170.2238204999739
 20
16.04648609268696
 10
170.3338091207627
 20
16.12354214985746
 10
170.4632284401265
 20
16.18151396936281
 10
170.6111838967793
 20
16.21739177588822
 10
170.7682069455487
 20
16.22746719050561
 10
170.9174940466431
 20
16.21863637762589
 10
171.059625361417
 20
16.19074899340352
 10
171.1595922609626
 20
16.13413314701139
 10
171.3125074736185
 20
16.08674602105506
 10
171.2455131717168
 20
16.00197553001184
 10
171.2296479120269
 20
15.93438901873484
 10
171.1978750531297
 20
15.86926092793189
 10
171.2150202209572
 20
15.76723453256951
 10
171.1666427208232
 20
15.77493211681902
 10
171.1315789440766
 20
15.76806771724806
 10
171.1296697985718
 20
15.83263831158194
 10
171.0985692931989
 20
15.87825639621397
 10
171.0664551628456
 20
15.93561036628449
 10
171.0208038475169
 20
15.98540462692567
 10
170.9658508218387
 20
16.02994813718994
 10
170.9010841173008
 20
16.06763988836548
 10
170.8232377310596
 20
16.09283375791351
 10
170.7355160553352
 20
16.09931230998112
 10
170.6452903277806
 20
16.09235709285607
 10
170.5594594694064
 20
16.06909190460921
 10
170.4828343638596
 20
16.03131644107541
 10
170.41652656362
 20
15.9805164108958
 10
170.3622560536964
 20
15.91731143407208
 10
170.322492534546
 20
15.84276455710365
 10
170.2976775510588
 20
15.75917313997763
 10
170.2892124262869
 20
15.65192948382284
 10
170.3019697987104
 20
15.5296545726756
 10
170.3681548409272
 20
15.41149724291207
 10
170.4640977399832
 20
15.32606325709529
 10
170.5757914963183
 20
15.25583362306721
 10
170.7010863668702
 20
15.19659162305304
 10
170.8349823941448
 20
15.14616708086134
 10
170.968993033315
 20
15.09322516984381
 10
171.0950885316916
 20
15.02750170625176
 10
171.2076216638416
 20
14.94480352537313
 10
171.3031370284235
 20
14.83996006310083
 10
171.3672706486964
 20
14.69937117251567
 10
171.3811103725278
 20
14.54065409451592
 10
171.367395471223
 20
14.38153155217874
 10
171.3244739153984
 20
14.2348382881921
 10
171.2545906329067
 20
14.10119796587139
 10
171.1574592213829
 20
13.98532387699292
 10
171.0347806023657
 20
13.89089981770085
 10
170.8874408413168
 20
13.82179270651984
 10
170.7177132497126
 20
13.77953210858851
 10
170.5317404979598
 20
13.76781736230408
 10
170.3528955926184
 20
13.77809486683433
 10
170.1881733753744
 20
13.81966573769158
 10
170.0834410841056
 20
13.88797642883936
 10
169.9350960790366
 20
13.93675219032107
 10
169.9980378194729
 20
14.02976591290842
 10
170.0072274430061
 20
14.1029653624828
 10
170.0303711301232
 20
14.16936294501346
 10
170.0034588335317
 20
14.26974809527579
 10
170.052133895634
 20
14.2623403351738
 10
170.0916530580697
 20
14.26894063620894
 10
170.0996204944703
 20
14.19078703218936
 10
170.1305436967923
 20
14.15600927375857
 10
170.1465954835851
 20
14.13795663215994
 97
        1
330
A0
 75
     1
 76
     2
 52
45.0
 41
0.1
 77
     0
 78
     1
 53
45.0
 43
0.0
 44
0.0
 45
-0.282842712474619
 46
0.0
 79
     0
 98
        1
 10
0.0
 20
0.0
  0
HATCH
  5
BF
330
48
100
AcDbEntity
  8
1
  6
Continuous
 62
     2
100
AcDbHatch
 10
0.0
 20
0.0
 30
0.0
210
0.0
220
0.0
230
1.0
  2
CUSTOM1
 70
     0
 71
     1
 91
        2
 92
        1
 93
        1
 72
     4
 94
        3
 73
     0
 74
     0
 95
       57
 96
       53
 40
0.0
 40
0.0
 40
0.0
 40
0.0
 40
0.0471632082809219
 40
0.0914861054632138
 40
0.1357762519701806
 40
0.1826527001610669
 40
0.2295203288572293
 40
0.27377519722216
 40
0.318131046154249
 40
0.3652607198397633
 40
0.4571007286313628
 40
0.5671851029164401
 40
0.6894623283867538
 40
0.8181758272544436
 40
0.9510087229273054
 40
1.085852229673964
 40
1.218126164475178
 40
1.343545131142239
 40
1.454537202956797
 40
1.567187607530863
 40
1.680710966642397
 40
1.794226869736846
 40
1.900009184247589
 40
2.004085860448039
 40
2.108162674451842
 40
2.214000150155357
 40
2.496038577352197
 40
2.762350745479343
 40
2.997275353279467
 40
3.185110082137744
 40
3.246407890064083
 40
3.3126075502127
 40
3.378877742711687
 40
3.440140399651455
 40
4.100501696006418
 40
4.754913085563484
 40
5.411331693423898
 40
6.07789043256869
 40
6.110575292670969
 40
6.143260152775749
 40
6.3679893633951
 40
6.610525374951479
 40
6.86338913646725
 40
7.119380025547578
 40
7.376036605091037
 40
7.631164770966271
 40
7.876722425456347
 40
8.104953735855851
 40
8.312916685924227
 40
8.497730294941261
 40
8.651018984313776
 40
8.764738853624502
 40
8.764738853624502
 40
8.764738853624502
 40
8.764738853624502
 10
174.7922649500513
 20
13.81626739612928
 10
174.7766616726931
 20
13.81826231079078
 10
174.7463947960302
 20
13.82213201360298
 10
174.7010994202253
 20
13.82341984967268
 10
174.6559553129349
 20
13.8230868355405
 10
174.60990171234
 20
13.82314658674224
 10
174.5640496172096
 20
13.8232581365
 10
174.5183711648164
 20
13.8227783345659
 10
174.4750811541608
 20
13.82461109618719
 10
174.4039947951514
 20
13.80049556814659
 10
174.4057477261441
 20
13.9218469397725
 10
174.358619637057
 20
14.00726239751232
 10
174.3191478251761
 20
14.12486929345129
 10
174.2706635532647
 20
14.24232752540446
 10
174.2201017402523
 20
14.36405935761507
 10
174.1718634610478
 20
14.49075967862465
 10
174.1135232947596
 20
14.59933687784954
 10
174.0980892667263
 20
14.75620657134414
 10
173.9566586330636
 20
14.72373446548321
 10
173.8508397414903
 20
14.73512888682179
 10
173.7358569725222
 20
14.73392591514615
 10
173.6253142252141
 20
14.73506945347408
 10
173.5176583522782
 20
14.73418350037526
 10
173.4121322529242
 20
14.73416602390519
 10
173.3109192682012
 20
14.72714032472415
 10
173.1266804827754
 20
14.75135859859867
 10
173.1157393685411
 20
14.44741691121884
 10
173.008769163475
 20
14.22353177253396
 10
172.9098148604346
 20
14.03895314292497
 10
172.9225090524008
 20
13.79530204804207
 10
172.8050091716397
 20
13.82508046753195
 10
172.7422055868311
 20
13.82258089509603
 10
172.67858720934
 20
13.82344075102804
 10
172.3946014194078
 20
13.78098039941954
 10
173.025163849938
 20
14.50081952444789
 10
173.1087645289071
 20
15.01276539435731
 10
173.4929252789339
 20
15.53353743550043
 10
173.4777208288567
 20
16.23519626253211
 10
173.7239265722698
 20
16.22345633081255
 10
173.8256346157563
 20
16.2322500445277
 10
173.8249752035818
 20
15.98059650730346
 10
173.9428317155828
 20
15.79818020733956
 10
174.0315515260485
 20
15.55563740662864
 10
174.132229248526
 20
15.32340030530131
 10
174.2311142712243
 20
15.08674644566909
 10
174.329967699067
 20
14.85461739170097
 10
174.4256166390925
 20
14.63122222788787
 10
174.515990457327
 20
14.42272549049312
 10
174.5989944568189
 20
14.23308448529319
 10
174.6726088582799
 20
14.06663106068103
 10
174.7342815895545
 20
13.92917699626096
 10
174.7749458885604
 20
13.84999239430034
 10
174.7922649500513
 20
13.81626739612928
 97
        1
330
A1
 92
       16
 93
        1
 72
     4
 94
        3
 73
     0
 74
     0
 95
       25
 96
       21
 40
0.0
 40
0.0
 40
0.0
 40
0.0
 40
0.0911479969064538
 40
0.1858117896204951
 40
0.2804128399734206
 40
0.3715889190712804
 40
0.4679080494217571
 40
0.5642683809228377
 40
0.6605683222644989
 40
0.7569653015811388
 40
0.8561348172523872
 40
1.092615965104417
 40
1.374867658142034
 40
1.611348812011749
 40
1.710518328425408
 40
1.809403163726715
 40
2.04520546329424
 40
2.326646917622289
 40
2.562449217190762
 40
2.66133404383407
 40
2.66133404383407
 40
2.66133404383407
 40
2.66133404383407
 10
173.26837005672
 20
14.88614538197292
 10
173.2987525917924
 20
14.88598079714555
 10
173.3606895889112
 20
14.88564528689921
 10
173.4541356960331
 20
14.88269055451999
 10
173.5475095236358
 20
14.87977752877151
 10
173.6417760753476
 20
14.87894201643416
 10
173.7354964790966
 20
14.87996644658048
 10
173.8352040303204
 20
14.87916977470972
 10
173.9188949546314
 20
14.88921410235221
 10
174.0637996315047
 20
14.86234617674162
 10
173.9396132444803
 20
15.03665530280048
 10
173.8965867286284
 20
15.19651711006093
 10
173.780892214221
 20
15.45518458550213
 10
173.7017565431258
 20
15.5923105286186
 10
173.6431576621816
 20
15.80937033134077
 10
173.586480393944
 20
15.59266134213426
 10
173.5052809900477
 20
15.45327012438238
 10
173.4063701281489
 20
15.20406969370192
 10
173.3253625094259
 20
15.01925830226075
 10
173.2813683325839
 20
14.91650446856117
 10
173.26837005672
 20
14.88614538197292
 97
        1
330
A2
 75
     1
 76
     2
 52
45.0
 41
0.1
 77
     0
 78
     1
 53
45.0
 43
0.0
 44
0.0
 45
-0.282842712474619
 46
0.0
 79
     0
 98
        1
 10
0.0
 20
0.0
  0
HATCH
  5
C0
330
48
100
AcDbEntity
  8
1
  6
Continuous
 62
     2
100
AcDbHatch
 10
0.0
 20
0.0
 30
0.0
210
0.0
220
0.0
230
1.0
  2
CUSTOM2
 70
     0
 71
     1
 91
        1
 92
        1
 93
        1
 72
     4
 94
        3
 73
     0
 74
     0
 95
       95
 96
       91
 40
0.0
 40
0.0
 40
0.0
 40
0.0
 40
0.6550406656911961
 40
1.308087289032016
 40
1.420803739835877
 40
1.566130759770884
 40
1.757067341888542
 40
2.006513545026544
 40
2.087328263121627
 40
2.185328872295696
 40
2.294612454748444
 40
2.408936380534881
 40
2.526802767798646
 40
2.646360524615694
 40
2.76253572397167
 40
2.870057342870244
 40
2.966883448431727
 40
3.050803243518359
 40
3.115818222436695
 40
3.156030057150309
 40
3.21391422508021
 40
3.276689026450525
 40
3.342960320981331
 40
3.404230667150635
 40
3.453822809493444
 40
3.532499827188512
 40
3.634775188507237
 40
3.754909333008231
 40
3.889736761660727
 40
4.035769602175276
 40
4.187256681197674
 40
4.338733685676017
 40
4.488478734676183
 40
4.634708317831659
 40
4.771493189921342
 40
4.892686571561284
 40
5.199775528944524
 40
5.46035356692971
 40
5.667603142345579
 40
5.814722905404542
 40
5.828990806219897
 40
5.855488336304623
 40
5.869756237118983
 40
6.189796507762883
 40
6.531890469873035
 40
6.883053637017025
 40
7.230512024911578
 40
7.566966656764636
 40
7.885203559707504
 40
8.172887439719299
 40
8.418011594062774
 40
8.443926721190696
 40
8.510760470613182
 40
8.60214539379569
 40
8.701714041647127
 40
8.793098965075357
 40
8.859932715057928
 40
8.885847842603576
 40
9.242301256612794
 40
9.589275455016745
 40
9.921808543164142
 40
10.23479624298466
 40
10.29968150889188
 40
10.35323493887785
 40
10.40154625355169
 40
10.46482922477834
 40
10.55973900668415
 40
10.69239545985627
 40
10.84920353475681
 40
11.01626328594788
 40
11.18672024367451
 40
11.35372582577218
 40
11.50257442292435
 40
11.618664950233
 40
11.71329869152883
 40
11.82511050573915
 40
11.94464880845724
 40
12.06929242642517
 40
12.19707290435186
 40
12.32562632860539
 40
12.45034565331288
 40
12.56646595170335
 40
12.67099007414644
 40
12.76077625936791
 40
12.82703233506704
 40
12.87429132786002
 40
12.89831990323341
 40
12.9223484786003
 40
13.53984767410327
 40
14.18294284359366
 40
14.18294284359366
 40
14.18294284359366
 40
14.18294284359366
 10
177.3067935648022
 20
14.70898038201723
 10
177.1752019758552
 20
14.8226505860323
 10
176.912419380273
 20
15.04964496316155
 10
176.3997393441018
 20
15.89214462956288
 10
176.4106654595364
 20
15.53423377577019
 10
176.4041226527992
 20
15.39267392272132
 10
176.4028026631772
 20
15.1942130529928
 10
176.4018117602538
 20
15.02150296045982
 10
176.4024101751974
 20
14.8786537325758
 10
176.4038994301882
 20
14.78265005413357
 10
176.4055683588472
 20
14.67545503263142
 10
176.4071934954619
 20
14.56164211517582
 10
176.4092429501685
 20
14.44441572604588
 10
176.4123165501927
 20
14.32656411232968
 10
176.4156339697043
 20
14.21228087320619
 10
176.4193605340279
 20
14.10521401867276
 10
176.4217338161425
 20
14.01007408766922
 10
176.4278718888355
 20
13.92558557205694
 10
176.4239784495948
 20
13.86923087298142
 10
176.4455230443077
 20
13.79825022472357
 10
176.3680940058618
 20
13.82902677604481
 10
176.3116353240192
 20
13.82011242517614
 10
176.2540495896807
 20
13.82896218398274
 10
176.1690163478472
 20
13.79738225225945
 10
176.2009714146384
 20
13.88095155992189
 10
176.199070528254
 20
13.94882608968309
 10
176.2107960047299
 20
14.05233256764419
 10
176.2164241053
 20
14.17002125616695
 10
176.2237902178941
 20
14.30388609164422
 10
176.232075970161
 20
14.44764152872631
 10
176.2398851897427
 20
14.59714022843443
 10
176.2457571222657
 20
14.74792549402077
 10
176.2503667817967
 20
14.89699943878437
 10
176.2542632117544
 20
15.04122913163022
 10
176.2570715126564
 20
15.17583905213017
 10
176.2576698755024
 20
15.36469614347355
 10
176.261602386715
 20
15.58975494313153
 10
176.2442175378499
 20
15.86367091125708
 10
176.2850417342582
 20
16.02787112098594
 10
176.1995153256001
 20
16.22749661465099
 10
176.2660558907689
 20
16.22385458403975
 10
176.2838724273232
 20
16.22413447160853
 10
176.4056801797506
 20
16.22632927398608
 10
176.5080770335462
 20
15.94675118721512
 10
176.7580021509356
 20
15.74563008536
 10
176.987003533111
 20
15.47792614987912
 10
177.224515121311
 20
15.22646413862381
 10
177.4486090740772
 20
14.98969974061354
 10
177.675071628301
 20
14.7321869258308
 10
177.8325687886515
 20
14.61649335056926
 10
178.0472129612674
 20
14.27997152538798
 10
178.0422645974618
 20
14.40464754091604
 10
178.0433931602546
 20
14.46327691935738
 10
178.0428877841517
 20
14.55043662371978
 10
178.0430475158113
 20
14.64416143182872
 10
178.0430054891319
 20
14.73018971297035
 10
178.0430202040372
 20
14.79153891945495
 10
178.0429706255987
 20
14.94135231520995
 10
178.0458811522809
 20
15.17989612510104
 10
178.0259521041162
 20
15.544865098687
 10
178.0750433936248
 20
15.80799631993415
 10
177.9177951509179
 20
16.21928904947751
 10
178.0762112872422
 20
16.16398282551748
 10
178.1311680478629
 20
16.16199686500175
 10
178.182788776674
 20
16.16264778248251
 10
178.2713198965366
 20
16.20369527738244
 10
178.2204898303168
 20
16.05696326622984
 10
178.2313389930285
 20
15.95019971954432
 10
178.2166036994847
 20
15.79085705414112
 10
178.2099976446206
 20
15.62853061652873
 10
178.2014961399916
 20
15.45992521892395
 10
178.1943227202198
 20
15.29814814703542
 10
178.1889063215389
 20
15.15422331457933
 10
178.1871713967648
 20
15.03437493466925
 10
178.1875440672319
 20
14.92686101590515
 10
178.1873656126262
 20
14.81820024645586
 10
178.187701086314
 20
14.69953570165531
 10
178.1890040622183
 20
14.5755516351274
 10
178.1908887351574
 20
14.44858294171103
 10
178.1925004454852
 20
14.32153861551032
 10
178.194140313743
 20
14.19854884492177
 10
178.1962570745752
 20
14.0830093138376
 10
178.1963848422363
 20
13.98090903955837
 10
178.2006514396555
 20
13.89009848838156
 10
178.1908440085289
 20
13.83213621208786
 10
178.2118474771689
 20
13.76517130132029
 10
178.1725639739897
 20
13.77291153966688
 10
177.9595307117742
 20
13.75755254145188
 10
177.7636297943188
 20
14.31403058094469
 10
177.4611197631546
 20
14.57556035348509
 10
177.3067935648022
 20
14.70898038201723
 97
        1
330
A3
 75
     1
 76
     2
 52
45.0
 41
0.1
 77
     0
 78
     1
 53
45.0
 43
0.0
 44
0.0
 45
-0.282842712474619
 46
0.0
 79
     0
 98
        1
 10
0.0
 20
0.0
  0
HATCH
  5
C1
330
48
100
AcDbEntity
  8
1
  6
Continuous
 62
     2
100
AcDbHatch
 10
0.0
 20
0.0
 30
0.0
210
0.0
220
0.0
230
1.0
  2
CUSTOM3
 70
     0
 71
     1
 91
        1
 92
        1
 93
        1
 72
     4
 94
        3
 73
     0
 74
     0
 95
      110
 96
      106
 40
0.0
 40
0.0
 40
0.0
 40
0.0
 40
0.2203406257277737
 40
0.4407808782838091
 40
0.5952494494614785
 40
0.7488431659393074
 40
0.9023581831309913
 40
1.056801968670404
 40
1.210736449099933
 40
1.363041386539868
 40
1.515315729683126
 40
1.669377239148077
 40
1.721611652756568
 40
1.773199502942955
 40
1.824933793210001
 40
1.877110426487989
 40
1.982682281206752
 40
2.07878166708756
 40
2.172809640822254
 40
2.271937807378937
 40
2.378349933379358
 40
2.494131557736404
 40
2.626681683943595
 40
2.78314505079608
 40
2.890701232940946
 40
2.993130312454862
 40
3.099869730691825
 40
3.220237816691321
 40
3.352695482737612
 40
3.481732806389852
 40
3.593499473690392
 40
3.674323013331906
 40
3.817951711952856
 40
3.946167120793967
 40
4.061405053453595
 40
4.166480796003178
 40
4.262478775059244
 40
4.350736673551285
 40
4.433071991254114
 40
4.511216293814774
 40
4.56426245411811
 40
4.618474415571738
 40
4.670128488754319
 40
4.722296879126531
 40
4.819540945314399
 40
4.931194984128255
 40
5.049996040257954
 40
5.168643755415641
 40
5.283970811762711
 40
5.392260784910594
 40
5.486512254876612
 40
5.559178233950067
 40
5.591425852853729
 40
5.626215969638116
 40
5.667155838674654
 40
5.717449290214453
 40
5.738402360945069
 40
5.78449911655404
 40
5.830595872165017
 40
5.851548942897879
 40
5.87301928066199
 40
5.924217778408532
 40
5.985325662817909
 40
6.036524160567921
 40
6.057994498334449
 40
6.2368477896077
 40
6.381409928945865
 40
6.493190424178905
 40
6.574067534230712
 40
6.691018086205807
 40
6.814881554220809
 40
6.944307823240677
 40
7.071266716066301
 40
7.193488604462174
 40
7.309042773128572
 40
7.414007203171084
 40
7.505140441886756
 40
7.531150360599897
 40
7.559221645322489
 40
7.587202218921153
 40
7.612569159499357
 40
7.662550809481239
 40
7.702878875764362
 40
7.857328205231092
 40
8.010799568088709
 40
8.165256399657745
 40
8.322232698714112
 40
8.479564855016799
 40
8.635216230291002
 40
8.79088255092592
 40
8.948305154947485
 40
9.168271839033158
 40
9.387358980987447
 40
9.608047961033686
 40
9.832914234792879
 40
9.858338694963214
 40
9.925366817230223
 40
10.02013071422781
 40
10.1287624985902
 40
10.2373942829527
 40
10.33215817995212
 40
10.39918630222416
 40
10.42461076239805
 40
10.64992019336964
 40
10.87188524531208
 40
10.87188524531208
 40
10.87188524531208
 40
10.87188524531208
 10
179.9057788376618
 20
15.7392326039819
 10
179.9092864933541
 20
15.80616462073804
 10
179.9163033987663
 20
15.94005891915859
 10
179.8198027599072
 20
16.22548554971469
 10
180.0510134726109
 20
16.16284386190284
 10
180.1919290057156
 20
16.17001554055991
 10
180.3490417757588
 20
16.16235883078244
 10
180.5025913427288
 20
16.1625275228304
 10
180.654510493508
 20
16.16182040535431
 10
180.8142214813232
 20
16.17210158351638
 10
180.9408972601118
 20
16.15496511080753
 10
181.137082112208
 20
16.22727260107145
 10
181.1034395279078
 20
16.12640699080117
 10
181.1052011317184
 20
16.07619253947669
 10
181.1027342073458
 20
16.02712335586465
 10
181.1347076966011
 20
15.94063490846997
 10
181.0010399903256
 20
15.98997438608336
 10
180.9172208688057
 20
15.98430634314165
 10
180.8173861139324
 20
15.99465516706297
 10
180.7186576720146
 20
16.00086450411088
 10
180.6121532771111
 20
16.00697763816777
 10
180.491051169806
 20
16.01588883484584
 10
180.3703381502454
 20
16.00521605912383
 10
180.1812553843436
 20
16.0646850308037
 10
180.2129028505313
 20
15.90558320077539
 10
180.1995563316832
 20
15.80839128339904
 10
180.1974958426451
 20
15.69634065110102
 10
180.195818804467
 20
15.57699685629351
 10
180.1973336794233
 20
15.4503259215511
 10
180.1956582478672
 20
15.32301588016117
 10
180.2058844271658
 20
15.22451566404464
 10
180.1779006596582
 20
15.0838870262563
 10
180.3508029999306
 20
15.13989551134096
 10
180.4645020202773
 20
15.127199514785
 10
180.584015167224
 20
15.13448377051255
 10
180.6888491425071
 20
15.13878017056754
 10
180.7843084898612
 20
15.14330568258976
 10
180.8763823507032
 20
15.15149201146199
 10
180.947655178244
 20
15.14643850638113
 10
181.0544931705685
 20
15.18536425031674
 10
181.0226603598037
 20
15.10517122005879
 10
181.0266164503929
 20
15.05562936846032
 10
181.0234502392014
 20
15.00557478039818
 10
181.0550791490585
 20
14.92128847612022
 10
180.9210133677693
 20
14.97425365495157
 10
180.8292322793201
 20
14.96540080890439
 10
180.7079729189603
 20
14.97570049965156
 10
180.5914113119771
 20
14.97748911767501
 10
180.4783375745879
 20
14.97787017109695
 10
180.3679246308472
 20
14.98415449472181
 10
180.289812406784
 20
14.97189133255364
 10
180.1913625833644
 20
15.00453887616126
 10
180.2012355173561
 20
14.94769748054205
 10
180.1973923244404
 20
14.91392130557982
 10
180.1966789884268
 20
14.87119604709411
 10
180.1963369642975
 20
14.83401607262153
 10
180.1963834255345
 20
14.79487237370771
 10
180.1963649429927
 20
14.75716849497685
 10
180.1963703431807
 20
14.71944955232402
 10
180.19636972142
 20
14.68994324745149
 10
180.1963698151545
 20
14.658735776993
 10
180.1963704287921
 20
14.61414424908085
 10
180.1963671499336
 20
14.5596395650885
 10
180.1963759623482
 20
14.51505540201448
 10
180.1963359653416
 20
14.43117808585739
 10
180.1976024270254
 20
14.31737520677678
 10
180.1950274117843
 20
14.1683039593371
 10
180.2065009381719
 20
14.06597203813905
 10
180.1823506222264
 20
13.93338903885834
 10
180.3332993946476
 20
13.97895732272022
 10
180.4428436671556
 20
13.96427012162349
 10
180.573397047392
 20
13.96920435125063
 10
180.6990312209514
 20
13.97257705323361
 10
180.8188730625601
 20
13.97711497498774
 10
180.9391362611427
 20
13.99048536182005
 10
181.0222761663517
 20
13.98068712782596
 10
181.1456080421074
 20
14.04126214623319
 10
181.1244269203957
 20
13.98532460134019
 10
181.1235950270118
 20
13.95939249372345
 10
181.1218963707558
 20
13.93197256190938
 10
181.1217974888829
 20
13.89738195206385
 10
181.1203659301329
 20
13.86050408220767
 10
181.1532804192191
 20
13.76846841021812
 10
180.9551306988108
 20
13.84132015974829
 10
180.8300548294891
 20
13.81825726508605
 10
180.6673071295157
 20
13.82454021985786
 10
180.512936645
 20
13.82260943909925
 10
180.3566670436944
 20
13.82393762599267
 10
180.1970544465282
 20
13.82059872487862
 10
180.0540326342236
 20
13.83265795728239
 10
179.8197144881628
 20
13.7695200197692
 10
179.9173810751197
 20
14.05620527466318
 10
179.9006868780059
 20
14.2498830814266
 10
179.9146296709683
 20
14.47848242880295
 10
179.9142987846632
 20
14.63384593955048
 10
179.9143078119263
 20
14.73966336444126
 10
179.9143055876316
 20
14.80205784124215
 10
179.9143065551888
 20
14.89220425248327
 10
179.9143065473261
 20
14.99621167157438
 10
179.9143053861101
 20
15.10022131375296
 10
179.9143090971502
 20
15.19036243688769
 10
179.9143011051052
 20
15.25276803097216
 10
179.9143334275017
 20
15.35868835961119
 10
179.9131440788319
 20
15.51626716544741
 10
179.9082216489256
 20
15.66528219822065
 10
179.9057788376618
 20
15.7392326039819
 97
        1
330
A4
 75
     1
 76
     2
 52
45.0
 41
0.1
 77
     0
 78
     1
 53
45.0
 43
0.0
 44
0.0
 45
-0.282842712474619
 46
0.0
 79
     0
 98
        1
 10
0.0
 20
0.0
  0
HATCH
  5
C2
330
48
100
AcDbEntity
  8
1
  6
Continuous
 62
     2
100
AcDbHatch
 10
0.0
 20
0.0
 30
0.0
210
0.0
220
0.0
230
1.0
  2
CUSTOM4
 70
     0
 71
     1
 91
        1
 92
        1
 93
        1
 72
     4
 94
        3
 73
     0
 74
     0
 95
       47
 96
       43
 40
0.0
 40
0.0
 40
0.0
 40
0.0
 40
0.2207912809957077
 40
0.4459404186302937
 40
0.490238719045887
 40
0.5327473892721828
 40
0.5742260451224873
 40
0.6155432630559596
 40
0.6568164066314797
 40
0.6982511618781422
 40
0.7407663929316527
 40
0.785136674317515
 40
1.010288833836319
 40
1.231080507002154
 40
1.45176524365239
 40
1.676638205891679
 40
1.720461045359648
 40
1.830018144043514
 40
1.972442372353145
 40
2.114866600677514
 40
2.224423699395139
 40
2.26824653888338
 40
2.49362880120722
 40
2.715602830286623
 40
2.934211330706363
 40
3.149502369855349
 40
3.231387784851079
 40
3.318231873854142
 40
3.405143198198159
 40
3.486970301720452
 40
3.702258172493886
 40
3.920866283534104
 40
4.142839325931893
 40
4.368221903865364
 40
4.412044743359844
 40
4.521601842095859
 40
4.66402607045234
 40
4.806450298809048
 40
4.91600739754674
 40
4.959830237043064
 40
5.1847035158471
 40
5.405387250767479
 40
5.405387250767479
 40
5.405387250767479
 40
5.405387250767479
 10
182.6507427258646
 20
15.73406440953873
 10
182.6568139420004
 20
15.79758482501211
 10
182.6690762107243
 20
15.92587938689627
 10
182.5604706879415
 20
16.20166220174077
 10
182.6761985896604
 20
16.17188133432053
 10
182.7171842509016
 20
16.16765556262821
 10
182.7591205797518
 20
16.16310446389605
 10
182.800419662571
 20
16.16201982929485
 10
182.8417032115556
 20
16.16310338195227
 10
182.8836148270649
 20
16.16766112711341
 10
182.924598354902
 20
16.17187430209731
 10
183.040492284349
 20
16.20177611317532
 10
182.9295652727456
 20
15.92339806609892
 10
182.9574856365268
 20
15.74283140824952
 10
182.940426734697
 20
15.50961042346473
 10
182.9414637282104
 20
15.34906622543145
 10
182.9414099399405
 20
15.22284817558722
 10
182.9414277372482
 20
15.12428963336242
 10
182.9414188581081
 20
14.99280702442962
 10
182.9414263928035
 20
14.8613284496865
 10
182.9414129405129
 20
14.7627622269409
 10
182.9414531717494
 20
14.63639735624152
 10
182.9406746403817
 20
14.47482068822869
 10
182.9565958319269
 20
14.24361821892915
 10
182.9333468885407
 20
14.05874351971999
 10
183.0360183444367
 20
13.78935602770055
 10
182.8820238362836
 20
13.82660112685816
 10
182.8004129802832
 20
13.82137994680535
 10
182.7188192292582
 20
13.82660620378349
 10
182.5648513666844
 20
13.78937069885392
 10
182.6674183421918
 20
14.0587512986288
 10
182.6442045316089
 20
14.24361585325413
 10
182.6600444655139
 20
14.47482218565638
 10
182.6593296313426
 20
14.63639712308503
 10
182.6593664569907
 20
14.7627623121052
 10
182.659354900027
 20
14.86132756635981
 10
182.6593575019214
 20
14.9928112741722
 10
182.6593648531779
 20
15.124275480312
 10
182.6593442541351
 20
15.22287786275325
 10
182.6594082192028
 20
15.34896149354427
 10
182.658173394759
 20
15.51210091383771
 10
182.6532040396745
 20
15.6605418377755
 10
182.6507427258646
 20
15.73406440953873
 97
        1
330
A5
 75
     1
 76
     2
 52
45.0
 41
0.1
 77
     0
 78
     1
 53
45.0
 43
0.0
 44
0.0
 45
-0.282842712474619
 46
0.0
 79
     0
 98
        1
 10
0.0
 20
0.0
  0
HATCH
  5
C3
330
48
100
AcDbEntity
  8
1
  6
Continuous
 62
     2
100
AcDbHatch
 10
0.0
 20
0.0
 30
0.0
210
0.0
220
0.0
230
1.0
  2
CUSTOM5
 70
     0
 71
     1
 91
        1
 92
        1
 93
        1
 72
     4
 94
        3
 73
     0
 74
     0
 95
      118
 96
      114
 40
0.0
 40
0.0
 40
0.0
 40
0.0
 40
0.1054708162973597
 40
0.2466098270052585
 40
0.3965912874592252
 40
0.5285525069755319
 40
0.615624505564385
 40
0.6431434105799176
 40
0.7036850037988064
 40
0.7642265984506827
 40
0.7917455052357145
 40
0.928740431999216
 40
1.106572819088329
 40
1.287544879681383
 40
1.317578308030902
 40
1.39992803085754
 40
1.522968204800316
 40
1.675072986590939
 40
1.84461653318102
 40
2.019973001639087
 40
2.189516548880402
 40
2.341621331585744
 40
2.46466150632088
 40
2.547011229647445
 40
2.577044658168411
 40
2.603797890893425
 40
2.662655002909084
 40
2.721512114949839
 40
2.74826534770299
 40
2.774215307345065
 40
2.845959313407397
 40
2.954338556588597
 40
3.090194227585775
 40
3.24436751710074
 40
3.407699615844502
 40
3.57103171453965
 40
3.72520500392033
 40
3.861060674729831
 40
3.969439917716524
 40
4.041183923629198
 40
4.067133883213192
 40
4.311886746012369
 40
4.547897258335746
 40
4.76474708304419
 40
4.952749679951936
 40
5.045772974196109
 40
5.137862019645252
 40
5.330543169793305
 40
5.553448265244296
 40
5.79508385588848
 40
6.043293412177534
 40
6.285761695541482
 40
6.313902908752966
 40
6.384255941793527
 40
6.475714884767059
 40
6.567173827759064
 40
6.637526860839814
 40
6.665668074074149
 40
6.69201892032812
 40
6.749990782071182
 40
6.807962643790543
 40
6.834313490018014
 40
6.856393084245293
 40
6.913335195649888
 40
6.991194817302524
 40
7.076026942283757
 40
7.153886563725247
 40
7.210828674844801
 40
7.232908268931136
 40
7.258199334923657
 40
7.32487578159231
 40
7.419142481924969
 40
7.527204308841916
 40
7.635266135230499
 40
7.729532834168485
 40
7.796209279292811
 40
7.821500344594758
 40
7.844652988850856
 40
7.899863140541607
 40
7.965759128053773
 40
8.020969279771085
 40
8.044121924046552
 40
8.069356610160705
 40
8.109134395441558
 40
8.13223810019127
 40
8.193147867786635
 40
8.27926167887681
 40
8.377977512674025
 40
8.476693347146812
 40
8.562807160411866
 40
8.623716930826655
 40
8.646820636853608
 40
8.67198879377445
 40
8.73490918582836
 40
8.816705695189075
 40
8.898502204815674
 40
8.961422597378164
 40
8.986590754551276
 40
9.012941600733427
 40
9.070913462380506
 40
9.128885324081994
 40
9.155236170325312
 40
9.180404327929383
 40
9.243324721948428
 40
9.325121234212249
 40
9.406917746637932
 40
9.469838141978444
 40
9.49500628827119
 40
9.517811184379333
 40
9.572192090487334
 40
9.637098333281568
 40
9.69147923951577
 40
9.71428412564381
 40
9.71428412564381
 40
9.71428412564381
 40
9.71428412564381
 10
185.2874469028652
 20
15.26889163187719
 10
185.3090990569036
 20
15.2411186924281
 10
185.3597257109474
 20
15.17618054561235
 10
185.4349383202592
 20
15.06891060312899
 10
185.5248482274346
 20
14.95377438266625
 10
185.5709169676675
 20
14.85357045748318
 10
185.6655825294656
 20
14.78434006814943
 10
185.6204439320415
 20
14.73771639678273
 10
185.5947047785792
 20
14.69660308866037
 10
185.5645196708013
 20
14.6606597172794
 10
185.5193684730563
 20
14.58579782596091
 10
185.4710504458563
 20
14.8078252425361
 10
185.3968539713072
 20
14.84510677337706
 10
185.2836047324606
 20
15.11610202130603
 10
185.2885133578168
 20
15.00095328446229
 10
185.2868486556305
 20
14.92836675781628
 10
185.2876830076713
 20
14.80625588483987
 10
185.2873609540263
 20
14.65913800810461
 10
185.2875076912455
 20
14.49307063956557
 10
185.2872950092721
 20
14.32187554608602
 10
185.2879497252033
 20
14.15552828635498
 10
185.2859192461138
 20
14.00935173055693
 10
185.2913460399929
 20
13.88471047474609
 10
185.2804930868707
 20
13.81718656540627
 10
185.2956739155553
 20
13.75549061417022
 10
185.2457895108133
 20
13.76727503897
 10
185.2017150342521
 20
13.75943822779968
 10
185.1582371630202
 20
13.76760441372702
 10
185.1092346786489
 20
13.75538056738467
 10
185.1218731234826
 20
13.80960667249312
 10
185.1130182968449
 20
13.86936918907556
 10
185.1175058770315
 20
13.9792202904437
 10
185.1157960135992
 20
14.11029975405678
 10
185.1163550915987
 20
14.26198011444326
 10
185.1161928768695
 20
14.42211074929953
 10
185.1162269924675
 20
14.58236865674566
 10
185.1162514960128
 20
14.73370247520439
 10
185.1161453543226
 20
14.86582156338601
 10
185.1164299141932
 20
14.97294802533194
 10
185.1158675547568
 20
15.03808619579473
 10
185.1180765083691
 20
15.16618957858676
 10
185.0319435998603
 20
14.79097610391573
 10
184.9555140818501
 20
14.63918193123396
 10
184.8660040767834
 20
14.47766206446308
 10
184.7640413217329
 20
14.20471848820172
 10
184.7187976491039
 20
14.36717346596513
 10
184.610235594167
 20
14.45605432058113
 10
184.7995791751752
 20
14.6054979496141
 10
184.85653405457
 20
14.79749136974925
 10
184.9717520993352
 20
15.02899622906755
 10
184.9940151630134
 20
15.21797259759065
 10
185.1771905152138
 20
15.49454089325929
 10
185.0538033597553
 20
15.48698978832095
 10
184.9925684166834
 20
15.48856772366118
 10
184.9081999617065
 20
15.48882592573674
 10
184.8204235085967
 20
15.48544845751206
 10
184.7656768696125
 20
15.49394814982021
 10
184.7104703026026
 20
15.48048561049789
 10
184.7222823035538
 20
15.52931442126764
 10
184.7142496151795
 20
15.57269004896708
 10
184.722818610468
 20
15.61509438309572
 10
184.7102943409159
 20
15.66267796552117
 10
184.7555101538737
 20
15.65267212995108
 10
184.8014815562726
 20
15.6589410517406
 10
184.8777222047712
 20
15.65593561405871
 10
184.9561296131995
 20
15.65770448278541
 10
185.0323992648933
 20
15.65464793981659
 10
185.0783009459475
 20
15.66103971376175
 10
185.1231733965401
 20
15.65093822978895
 10
185.1105552275634
 20
15.70157201581897
 10
185.1191936582707
 20
15.75501261882069
 10
185.1152361595444
 20
15.8486325513168
 10
185.1162325068335
 20
15.95112606688924
 10
185.1171927413074
 20
16.05353270248163
 10
185.1133211458005
 20
16.14735929609321
 10
185.1217789814366
 20
16.20036542840355
 10
185.1093075932836
 20
16.2521143565119
 10
185.1542106389851
 20
16.23850747226759
 10
185.1955083836773
 20
16.24100480320586
 10
185.2595344281051
 20
16.23648060574488
 10
185.2986111148787
 20
16.2278100304331
 10
185.3476543498743
 20
16.23515102070687
 10
185.3225080030589
 20
16.19602896051758
 10
185.2815901333723
 20
16.20563842455811
 10
185.2910109616603
 20
16.15540148169778
 10
185.2855647318745
 20
16.1038594563949
 10
185.2881699601803
 20
16.0195970758452
 10
185.2870102202153
 20
15.92559135583408
 10
185.288359106423
 20
15.83196865395525
 10
185.2849970101508
 20
15.74679517552223
 10
185.2920959917768
 20
15.69716856072043
 10
185.2812569154545
 20
15.64993694969987
 10
185.3304010225244
 20
15.66201674936851
 10
185.3794877630147
 20
15.6544739336301
 10
185.4573714280641
 20
15.65686070361432
 10
185.5350365172895
 20
15.65899381905414
 10
185.5845393931355
 20
15.65193391922453
 10
185.6344594750639
 20
15.66360151936213
 10
185.6223198516881
 20
15.61540235371392
 10
185.6305838229144
 20
15.57249219801235
 10
185.6223198650783
 20
15.52958201851385
 10
185.6344594549855
 20
15.48138288754864
 10
185.5845395158746
 20
15.49305034471512
 10
185.5350350651202
 20
15.48599202435046
 10
185.4573784382972
 20
15.48811665228605
 10
185.3794643865759
 20
15.49053389365761
 10
185.3304500352716
 20
15.48291848194487
 10
185.2813246108942
 20
15.49507952557592
 10
185.291555998857
 20
15.45073013424159
 10
185.2856677678053
 20
15.40925436202912
 10
185.2878788305568
 20
15.34915394315303
 10
185.2874109346145
 20
15.30225782762888
 10
185.2874386992912
 20
15.27650146418196
 10
185.2874469028652
 20
15.26889163187719
 97
        1
330
A6
 75
     1
 76
     2
 52
45.0
 41
0.1
 77
     0
 78
     1
 53
45.0
 43
0.0
 44
0.0
 45
-0.282842712474619
 46
0.0
 79
     0
 98
        1
 10
0.0
 20
0.0
  0
HATCH
  5
C4
330
48
100
AcDbEntity
  8
1
  6
Continuous
 62
     2
100
AcDbHatch
 10
0.0
 20
0.0
 30
0.0
210
0.0
220
0.0
230
1.0
  2
CUSTOM6
 70
     0
 71
     1
 91
        1
 92
        1
 93
        1
 72
     4
 94
        3
 73
     0
 74
     0
 95
       91
 96
       87
 40
0.0
 40
0.0
 40
0.0
 40
0.0
 40
0.0345987051695718
 40
0.1258134969461653
 40
0.2547723404889555
 40
0.4026032099154978
 40
0.5504340793418125
 40
0.6793929228837785
 40
0.7706077146573025
 40
0.8052064287782914
 40
1.124852390615481
 40
1.427402236309077
 40
1.706356627453727
 40
1.955541417875407
 40
2.169485938566556
 40
2.344350786664997
 40
2.48056841156215
 40
2.590440557429172
 40
2.649189927151423
 40
2.749320643306627
 40
2.912632739880316
 40
3.147745656000517
 40
3.244827496385564
 40
3.338490056947057
 40
3.583815413207478
 40
3.761423943238831
 40
3.886956104362995
 40
3.985855451887178
 40
4.091766255338007
 40
4.250186473812172
 40
4.422734315084817
 40
4.62828568483891
 40
4.872093227758765
 40
5.152549652145884
 40
5.464967135837868
 40
5.803201477852786
 40
6.160362988814263
 40
6.193449448276347
 40
6.284170385502001
 40
6.419718138764871
 40
6.58728504638615
 40
6.774063446724035
 40
6.967245678114018
 40
7.154024078818061
 40
7.321590987026418
 40
7.457138740890777
 40
7.547859678556541
 40
7.580946138183101
 40
7.608533084715152
 40
7.669224367078119
 40
7.72991564943033
 40
7.757502595950378
 40
7.790278062553831
 40
7.880146277431329
 40
8.014419963180792
 40
8.180411842398293
 40
8.365434637679762
 40
8.556801071623063
 40
8.741823866831176
 40
8.907815745916686
 40
9.04208943150784
 40
9.131957646249965
 40
9.164733112797542
 40
9.415425063140471
 40
9.667986180958932
 40
9.694169807463071
 40
9.756607686048001
 40
9.831130315322808
 40
9.893568193900215
 40
9.919751820399032
 40
9.950967964690856
 40
9.996421631211023
 40
10.22087981037491
 40
10.44341866197579
 40
10.47847970788892
 40
10.57091337438795
 40
10.70159545461275
 40
10.85140174170409
 40
11.00120802880529
 40
11.13189010907437
 40
11.22432377583065
 40
11.25938480939014
 40
11.28697175596202
 40
11.34766303835976
 40
11.40835432042125
 40
11.43594125892159
 40
11.43594125892159
 40
11.43594125892159
 40
11.43594125892159
 10
190.0818114333291
 20
15.55242795125078
 10
190.0702785844942
 20
15.55242790287916
 10
190.0283409445
 20
15.55242773704165
 10
189.9434129719027
 20
15.5524312580091
 10
189.820768855313
 20
15.55240926435879
 10
189.6791206916994
 20
15.55250801177055
 10
189.5379753698491
 20
15.55214686232421
 10
189.4141351317904
 20
15.5532188360909
 10
189.3317217825382
 20
15.55092249091269
 10
189.1727791229693
 20
15.56048569373421
 10
189.3503402353375
 20
15.19785394311372
 10
189.3379739205453
 20
14.95243127723114
 10
189.4064519473865
 20
14.66862501324836
 10
189.469302432097
 20
14.43250999939035
 10
189.5452253431729
 20
14.2332674039613
 10
189.6303189577016
 20
14.07745347451373
 10
189.7244607592936
 20
13.9765785778139
 10
189.8282648207727
 20
13.92465852638967
 10
189.9125872030775
 20
13.9760648437961
 10
189.9351322179452
 20
14.09144544037516
 10
189.9745730975372
 20
14.21885149702385
 10
189.920291973494
 20
14.5362232808675
 10
190.0451218072474
 20
14.38982180140915
 10
190.2019291513602
 20
14.3579530033116
 10
190.0947720007059
 20
14.1242135776763
 10
190.0808711209867
 20
13.95972776583656
 10
190.0234709467226
 20
13.83130869122482
 10
189.9335020145008
 20
13.76018802352828
 10
189.8095274657879
 20
13.74432324142253
 10
189.6634273196861
 20
13.77993797554173
 10
189.5243894320285
 20
13.90000570500277
 10
189.4102003962145
 20
14.07435682550321
 10
189.3146141301487
 20
14.29946603111239
 10
189.2318652572627
 20
14.56388246006442
 10
189.1807179256411
 20
14.88187933098543
 10
189.077018920734
 20
15.15543728488913
 10
189.204284120852
 20
15.56005818612869
 10
189.0357890623019
 20
15.55112367849679
 10
188.9511995787078
 20
15.55315961418364
 10
188.8189876387628
 20
15.55213937388407
 10
188.6560505094103
 20
15.5525323031843
 10
188.4733759170534
 20
15.5523569631337
 10
188.2847057373382
 20
15.55260105307468
 10
188.1014469020189
 20
15.55185657906238
 10
187.9404746832718
 20
15.55416360522426
 10
187.8029808335276
 20
15.54799804883663
 10
187.728959037231
 20
15.56032838458212
 10
187.6613215186857
 20
15.54329323723557
 10
187.6732373719269
 20
15.59524438447527
 10
187.6655677285694
 20
15.64071424966529
 10
187.6732592225115
 20
15.68614453703704
 10
187.6613141797762
 20
15.73802395984568
 10
187.7283588305866
 20
15.72119143490261
 10
187.8017375665677
 20
15.73335409092669
 10
187.9379128305271
 20
15.72727231074956
 10
188.0973811801513
 20
15.72954834315056
 10
188.2789173085836
 20
15.7288123399896
 10
188.4658034862179
 20
15.72905954196131
 10
188.6468012316836
 20
15.72886400799251
 10
188.8080802578878
 20
15.72932234714837
 10
188.9393882124887
 20
15.72812673751204
 10
189.0225051322597
 20
15.73051347319741
 10
189.1556236547813
 20
15.72230605725461
 10
189.0645893502661
 20
15.97752868952654
 10
188.9789633074417
 20
16.24164358328242
 10
189.0990589003457
 20
16.22904442969165
 10
189.1514264948544
 20
16.22694235763074
 10
189.2214497569715
 20
16.22535399889657
 10
189.2671922337818
 20
16.21602567538113
 10
189.3220812646932
 20
16.22545966915428
 10
189.2963574785682
 20
16.17733028655168
 10
189.1825397571451
 20
16.18266829744173
 10
189.3159346621137
 20
15.95449174576773
 10
189.1943658735471
 20
15.72156856595921
 10
189.3223188769413
 20
15.73087258884437
 10
189.4049048406461
 20
15.72801001754678
 10
189.5307214850824
 20
15.729234374123
 10
189.6741469838059
 20
15.72932431888963
 10
189.8157420951729
 20
15.72746163183851
 10
189.9459127249969
 20
15.73333075937161
 10
190.0193452286192
 20
15.720703408232
 10
190.0891112922099
 20
15.73877563110412
 10
190.0775772605398
 20
15.68612850546325
 10
190.0833184346684
 20
15.64221317686547
 10
190.0816615770912
 20
15.59089982676548
 10
190.0817757561672
 20
15.56158792021636
 10
190.0818114333291
 20
15.55242795125078
 97
        1
330
A7
 75
     1
 76
     2
 52
45.0
 41
0.1
 77
     0
 78
     1
 53
45.0
 43
0.0
 44
0.0
 45
-0.282842712474619
 46
0.0
 79
     0
 98
        1
 10
0.0
 20
0.0
  0
HATCH
  5
C5
330
48
100
AcDbEntity
  8
1
  6
Continuous
 62
     2
100
AcDbHatch
 10
0.0
 20
0.0
 30
0.0
210
0.0
220
0.0
230
1.0
  2
CUSTOM7
 70
     0
 71
     1
 91
        1
 92
        1
 93
        1
 72
     4
 94
        3
 73
     0
 74
     0
 95
       75
 96
       71
 40
0.0
 40
0.0
 40
0.0
 40
0.0
 40
0.0342546099129691
 40
0.1245622414432346
 40
0.2522385480897536
 40
0.398599192294068
 40
0.5449598364980839
 40
0.6726361431438834
 40
0.7629437746736978
 40
0.797198393529799
 40
1.101723623449721
 40
1.40859124403667
 40
1.433332471690376
 40
1.487763172450172
 40
1.542193873082003
 40
1.566935100592553
 40
1.923523931821809
 40
2.271755704953636
 40
2.59057975510088
 40
2.858943305581167
 40
2.889120339309187
 40
2.918305855191134
 40
2.941366645531259
 40
2.996357760973154
 40
3.061992318140706
 40
3.116983433626908
 40
3.140044223997589
 40
3.411273122936564
 40
3.732441619741282
 40
3.761068217532982
 40
3.837787499630542
 40
3.948858699126182
 40
4.080541049104561
 40
4.21909378262594
 40
4.350776132722494
 40
4.461847332405826
 40
4.53856661467856
 40
4.567193212544806
 40
4.594907573999064
 40
4.666381453557632
 40
4.764111044011271
 40
4.870592538126102
 40
4.968322128642553
 40
5.039796008287267
 40
5.067510369784726
 40
5.09426360318594
 40
5.153120716668576
 40
5.211977830151023
 40
5.238731063552027
 40
5.272290535139266
 40
5.363380529445127
 40
5.497618415781805
 40
5.660621563454047
 40
5.838007341749748
 40
6.015393119911099
 40
6.178396267038725
 40
6.312634151842676
 40
6.403724143059666
 40
6.437283612672761
 40
6.464036846261378
 40
6.522893960004993
 40
6.581751071484261
 40
6.608504301591205
 40
6.637253941281353
 40
6.711397748903204
 40
6.812778057283817
 40
6.923237199249593
 40
7.024617507624237
 40
7.09876131520789
 40
7.12751094600784
 40
7.12751094600784
 40
7.12751094600784
 40
7.12751094600784
 10
188.4418622390564
 20
14.95849128473263
 10
188.4418622819707
 20
14.94707313408719
 10
188.4418624481129
 20
14.90555257842628
 10
188.4418593081786
 20
14.8214692200377
 10
188.4418788279801
 20
14.70004497322327
 10
188.4417912187737
 20
14.55980494047446
 10
188.442111623523
 20
14.42006556794575
 10
188.441160590974
 20
14.29745038894928
 10
188.4431978595967
 20
14.21587074438041
 10
188.4349433178746
 20
14.06271267077695
 10
188.7430797940901
 20
14.22560236054717
 10
189.0350645173735
 20
14.39482938688003
 10
189.0408354448708
 20
14.25973235781911
 10
189.045547171989
 20
14.21617221160444
 10
189.0482535411918
 20
14.17211249350545
 10
189.0672545672958
 20
14.02272590363134
 10
188.6583942247303
 20
14.08681172241261
 10
188.3793710348832
 20
13.97296341411018
 10
188.1018081587167
 20
13.87364095811141
 10
187.8099837184401
 20
13.91630687596356
 10
187.7869144678658
 20
13.8132167974454
 10
187.7537474383333
 20
13.78691091244468
 10
187.7480653962739
 20
13.83455309036304
 10
187.7284214559044
 20
13.87180336115069
 10
187.7095089485623
 20
13.93007387847564
 10
187.6942849867707
 20
13.97385201007805
 10
187.6477246372935
 20
14.08759421046315
 10
187.9890897312451
 20
14.05576301120047
 10
188.2679649367388
 20
14.02161435106476
 10
188.2617753034908
 20
14.16913976479651
 10
188.2630935452774
 20
14.24013150908831
 10
188.2624831689949
 20
14.34719767958661
 10
188.2625871570726
 20
14.47398529785997
 10
188.2629987964056
 20
14.60849243496049
 10
188.261390784197
 20
14.73395549951184
 10
188.2659902567926
 20
14.84505246719116
 10
188.256418650221
 20
14.90761886800687
 10
188.2704001783693
 20
14.96595388295
 10
188.2147384386705
 20
14.95289710582236
 10
188.1575655197822
 20
14.96136307749497
 10
188.0616048925648
 20
14.95729976080635
 10
187.9633767522821
 20
14.95970889852473
 10
187.867258245756
 20
14.95551600613387
 10
187.8104648525811
 20
14.96429346441162
 10
187.7550356873384
 20
14.9509493685012
 10
187.7670679427916
 20
15.00036910959255
 10
187.7592003173937
 20
15.04393988030395
 10
187.7666295563828
 20
15.08830469118524
 10
187.7551930564143
 20
15.1390229776399
 10
187.8232102370133
 20
15.12162460757742
 10
187.8968496879747
 20
15.13417450237187
 10
188.0325064058211
 20
15.12799677011096
 10
188.1884909024525
 20
15.13029203093083
 10
188.3615926358143
 20
15.12940968262529
 10
188.5346942964181
 20
15.13029207142407
 10
188.6906789811216
 20
15.12799662955549
 10
188.8263351889797
 20
15.1341748626243
 10
188.8999756705652
 20
15.12162394218334
 10
188.9679914174724
 20
15.13902373012141
 10
188.9565590885922
 20
15.08830130414554
 10
188.9639539458297
 20
15.04397060811107
 10
188.956203991227
 20
15.00028307550195
 10
188.9681203741877
 20
14.95063590098476
 10
188.9108170223616
 20
14.96461411338424
 10
188.8520145789772
 20
14.95539755673253
 10
188.7525293633199
 20
14.95952268164928
 10
188.649428009835
 20
14.95822760025887
 10
188.5537846354573
 20
14.95854077077639
 10
188.4857467971617
 20
14.95848776697144
 10
188.4514462213443
 20
14.95849051871655
 10
188.4418622390564
 20
14.95849128473263
 97
        1
330
A8
 75
     1
 76
     2
 52
45.0
 41
0.1
 77
     0
 78
     1
 53
45.0
 43
0.0
 44
0.0
 45
-0.282842712474619
 46
0.0
 79
     0
 98
        1
 10
0.0
 20
0.0
  0
HATCH
  5
C6
330
48
100
AcDbEntity
  8
1
  6
Continuous
 62
     2
100
AcDbHatch
 10
0.0
 20
0.0
 30
0.0
210
0.0
220
0.0
230
1.0
  2
CUSTOM8
 70
     0
 71
     1
 91
        1
 92
        1
 93
        1
 72
     4
 94
        3
 73
     0
 74
     0
 95
       15
 96
       11
 40
0.0
 40
0.0
 40
0.0
 40
0.0
 40
0.2785535985096616
 40
0.5215624748199013
 40
0.6076917376040648
 40
0.6938210001741371
 40
0.9405019146454805
 40
1.221691403489226
 40
1.300471877081171
 40
1.379252341684984
 40
1.379252341684984
 40
1.379252341684984
 40
1.379252341684984
 10
189.5681493630999
 20
16.22930267330382
 10
189.6296017794178
 20
16.17691646592716
 10
189.7446649974114
 20
16.07882876798223
 10
190.0397348497243
 20
15.92889785897221
 10
189.9025147631857
 20
15.84343227515013
 10
189.8041227843778
 20
15.71085785201554
 10
189.713003359065
 20
16.01616985781428
 10
189.3636839480654
 20
16.07967869465372
 10
189.5119258376569
 20
16.17896509880879
 10
189.5494081874237
 20
16.21252348402384
 10
189.5681493630999
 20
16.22930267330382
 97
        1
330
A9
 75
     1
 76
     2
 52
45.0
 41
0.1
 77
     0
 78
     1
 53
45.0
 43
0.0
 44
0.0
 45
-0.282842712474619
 46
0.0
 79
     0
 98
        1
 10
0.0
 20
0.0
  0
HATCH
  5
C7
330
48
100
AcDbEntity
  8
1
  6
Continuous
 62
     2
100
AcDbHatch
 10
0.0
 20
0.0
 30
0.0
210
0.0
220
0.0
230
1.0
  2
CUSTOM9
 70
     0
 71
     1
 91
        1
 92
        1
 93
        1
 72
     4
 94
        3
 73
     0
 74
     0
 95
       35
 96
       31
 40
0.0
 40
0.0
 40
0.0
 40
0.0
 40
0.0335231036621208
 40
0.0713218571711849
 40
0.4278866681486295
 40
0.8116865841963113
 40
1.198190237999968
 40
1.561379546812593
 40
1.659983174621898
 40
1.759315573807102
 40
2.132719617230991
 40
2.525233363588741
 40
2.910815397779608
 40
3.265244364303195
 40
3.592606723581879
 40
3.964386154603822
 40
4.359942131737666
 40
4.758154118639228
 40
4.843846538699814
 40
4.936650065543165
 40
5.256616602537245
 40
5.58170740441598
 40
5.89971915830812
 40
6.198363494280723
 40
6.466301046615788
 40
6.49389531153711
 40
6.559697020196903
 40
6.638234543442478
 40
6.704036252154259
 40
6.731630508423036
 40
6.731630508423036
 40
6.731630508423036
 40
6.731630508423036
 10
191.973601056867
 20
16.23463843719135
 10
191.967600609779
 20
16.22480690542324
 10
191.9548344099157
 20
16.20388988579803
 10
191.7949362006557
 20
16.17127126532669
 10
192.2322025842336
 20
15.88206680336708
 10
192.4345394828263
 20
15.68041138358437
 10
192.6819564267973
 20
15.43749387603272
 10
193.1831513624605
 20
15.36047662757789
 10
193.0125562198971
 20
15.21876939174649
 10
192.93832994632
 20
15.01710366209115
 10
192.6131432248188
 20
15.36956287174722
 10
192.3277741670663
 20
15.53175212559563
 10
192.0337604077658
 20
15.73687130053047
 10
191.8084452691134
 20
16.21827488595455
 10
191.5993085055522
 20
15.7534304660922
 10
191.3207873674835
 20
15.54350952252911
 10
191.0371383177209
 20
15.37424456359987
 10
190.7078639527829
 20
15.00142360907929
 10
190.6277012318225
 20
15.19708014459005
 10
190.4759724909743
 20
15.3249110419059
 10
190.9083395826795
 20
15.40454031765937
 10
191.0962565329766
 20
15.60026634915474
 10
191.3468477420503
 20
15.81632996916753
 10
191.5714350470161
 20
15.9819099230006
 10
191.6259775409713
 20
16.26133964636827
 10
191.7494661029012
 20
16.24737950408078
 10
191.8060273344522
 20
16.24521268867649
 10
191.8761870984945
 20
16.24046859881359
 10
191.9333414022106
 20
16.23709429350543
 10
191.964419032084
 20
16.2351985471112
 10
191.973601056867
 20
16.23463843719135
 97
        1
330
AA
 75
     1
 76
     2
 52
45.0
 41
0.1
 77
     0
 78
     1
 53
45.0
 43
0.0
 44
0.0
 45
-0.282842712474619
 46
0.0
 79
     0
 98
        1
 10
0.0
 20
0.0
  0
HATCH
  5
C8
330
48
100
AcDbEntity
  8
1
  6
Continuous
 62
     2
100
AcDbHatch
 10
0.0
 20
0.0
 30
0.0
210
0.0
220
0.0
230
1.0
  2
CUSTOM10
 70
     0
 71
     1
 91
        1
 92
        1
 93
        1
 72
     4
 94
        3
 73
     0
 74
     0
 95
       91
 96
       87
 40
0.0
 40
0.0
 40
0.0
 40
0.0
 40
0.0267532254356719
 40
0.0856103386464209
 40
0.144467452199678
 40
0.1712206856618728
 40
0.2039416005642749
 40
0.2955601971652697
 40
0.4362601844617131
 40
0.6162252844507463
 40
0.8256392189704911
 40
1.054685709844432
 40
1.293548478893496
 40
1.532411247938239
 40
1.761457738799504
 40
1.970871673298473
 40
2.150836773256668
 40
2.291536760495501
 40
2.383155356836608
 40
2.415876284101228
 40
2.442629517487874
 40
2.501486630949013
 40
2.560343744424169
 40
2.587096977826444
 40
2.617068194440843
 40
2.699247336755984
 40
2.822032643466296
 40
2.973822353257797
 40
3.14301470482324
 40
3.31800793687979
 40
3.487200288186624
 40
3.638989997548104
 40
3.761775303794574
 40
3.843954445752909
 40
3.873925662229605
 40
3.890812773500313
 40
3.907699884771465
 40
3.937960767857088
 40
3.980983618142091
 40
4.199085915228255
 40
4.439444339237046
 40
4.677588241260718
 40
5.050698317837604
 40
5.448212454763018
 40
5.8552912180446
 40
6.138575438885296
 40
6.417434507584165
 40
6.444551104393849
 40
6.504207617363153
 40
6.563864130314479
 40
6.590980727104073
 40
6.848609460381463
 40
7.109611990668386
 40
7.352910904446049
 40
7.55783022070545
 40
7.587518925913368
 40
7.652834077375739
 40
7.718149228845676
 40
7.747837934061931
 40
7.854880190300952
 40
7.976511257403494
 40
8.369487896592267
 40
8.757514959223617
 40
9.126072419331107
 40
9.460639380392227
 40
9.746695593035968
 40
9.777569943118664
 40
9.807050320931815
 40
9.830377336128949
 40
9.886003295436028
 40
9.952395569429944
 40
10.0080215287063
 40
10.03134854388223
 40
10.21356951009593
 40
10.42203479292867
 40
10.66154556731063
 40
10.91693789564304
 40
11.15832906556567
 40
11.18982674596621
 40
11.27286608520408
 40
11.39026653033353
 40
11.52484752840887
 40
11.65942852648443
 40
11.77682897161485
 40
11.85986831085681
 40
11.89136598230426
 40
11.89136598230426
 40
11.89136598230426
 40
11.89136598230426
 10
190.7027885008197
 20
14.70699600701771
 10
190.7028237765289
 20
14.71587847311984
 10
190.7029366710796
 20
14.74430237047346
 10
190.701298456849
 20
14.79409639169803
 10
190.7069750292911
 20
14.83657564478154
 10
190.6956928731707
 20
14.88730154856848
 10
190.7632296979033
 20
14.8701290074011
 10
190.8388029210701
 20
14.88290227165997
 10
190.9828357056001
 20
14.87629729457383
 10
191.1569419185428
 20
14.87888462206467
 10
191.3639599611004
 20
14.87800591955554
 10
191.5894688172378
 20
14.87828207920027
 10
191.8251162293406
 20
14.87818339658664
 10
192.0607640531349
 20
14.87828184412768
 10
192.2862717580626
 20
14.8780067819079
 10
192.4932934632805
 20
14.87888186270736
 10
192.6673888915288
 20
14.87630522678447
 10
192.8114492071985
 20
14.88288290449214
 10
192.8869691915293
 20
14.87016243405605
 10
192.9545776037029
 20
14.88726400191687
 10
192.9430840140676
 20
14.83674785802941
 10
192.9505104581733
 20
14.79253252226501
 10
192.9428838927986
 20
14.74867966503609
 10
192.9546489459425
 20
14.69878374479327
 10
192.8930788491983
 20
14.71393227712511
 10
192.8256791738673
 20
14.70310665350672
 10
192.7013004056221
 20
14.70852031626234
 10
192.5554428236571
 20
14.70649205390784
 10
192.3893576440086
 20
14.70715777578386
 10
192.2188412621725
 20
14.70689643521241
 10
192.051979085539
 20
14.70721553391093
 10
191.9087346827106
 20
14.70635302590761
 10
191.7773313869835
 20
14.70863300482986
 10
191.7239859134658
 20
14.70407704374201
 10
191.6485188456913
 20
14.70999914992876
 10
191.6769075779233
 20
14.70094169343353
 10
191.7033652409544
 20
14.69725912268927
 10
191.6633522907701
 20
14.66654271968275
 10
191.5713663691869
 20
14.67667591174632
 10
191.543939620707
 20
14.43032502247786
 10
191.4478793967235
 20
14.27499558764373
 10
191.1917277964473
 20
13.94525417931569
 10
191.7627537732762
 20
14.08430022210451
 10
192.0173656320517
 20
14.08291779973363
 10
192.6279647048617
 20
13.99790569242084
 10
192.3340698578086
 20
14.29685417558207
 10
192.0133304286515
 20
14.44330856901778
 10
192.1313543360434
 20
14.50025540818286
 10
192.1724716466261
 20
14.52420099873348
 10
192.2156812394411
 20
14.54599758811231
 10
192.317457409445
 20
14.60928721253905
 10
192.4328867625247
 20
14.35147151408782
 10
192.6329591642277
 20
14.2161604111368
 10
192.7269077387227
 20
14.03792795138881
 10
192.9558829746392
 20
13.87997821027048
 10
192.8596031846708
 20
13.82915972576301
 10
192.816795976378
 20
13.79881292523052
 10
192.7718243528779
 20
13.77466130281461
 10
192.7121720925215
 20
13.72552146747565
 10
192.6789731061324
 20
13.85997475673607
 10
192.5582013350796
 20
14.0159426528658
 10
192.1970976005978
 20
13.88569928059555
 10
191.8385061955541
 20
13.90224694409482
 10
191.4570920450079
 20
13.8933122935187
 10
191.1703455282893
 20
13.82882671672392
 10
190.8592055599707
 20
13.94230668192855
 10
190.8268737818788
 20
13.83122259927761
 10
190.7896178253318
 20
13.81196313850012
 10
190.7865737632753
 20
13.85874784087296
 10
190.7679892860607
 20
13.89806853919136
 10
190.7512436616778
 20
13.95765983478233
 10
190.7383730915753
 20
14.00201969871285
 10
190.7042327806427
 20
14.09106331120201
 10
190.9482714457754
 20
14.02181042943771
 10
191.144139448667
 20
14.00030369057749
 10
191.2395426381277
 20
14.28226484478462
 10
191.2945135769596
 20
14.44363045421123
 10
191.5159619357157
 20
14.71391177589736
 10
191.3849239381217
 20
14.70548446853734
 10
191.3110026555855
 20
14.70779008496969
 10
191.1977459876244
 20
14.70671378321656
 10
191.0694251807485
 20
14.70707639076508
 10
190.9404252030416
 20
14.70697724466084
 10
190.8287840946292
 20
14.7069993271257
 10
190.7514663970028
 20
14.7069957918967
 10
190.7132876532011
 20
14.7069959584508
 10
190.7027885008197
 20
14.70699600701771
 97
        1
330
AB
 75
     1
 76
     2
 52
45.0
 41
0.1
 77
     0
 78
     1
 53
45.0
 43
0.0
 44
0.0
 45
-0.282842712474619
 46
0.0
 79
     0
 98
        1
 10
0.0
 20
0.0
  0
HATCH
  5
C9
330
48
100
AcDbEntity
  8
1
  6
Continuous
 62
     2
100
AcDbHatch
 10
0.0
 20
0.0
 30
0.0
210
0.0
220
0.0
230
1.0
  2
CUSTOM11
 70
     0
 71
     1
 91
        1
 92
        1
 93
        1
 72
     4
 94
        3
 73
     0
 74
     0
 95
      131
 96
      127
 40
0.0
 40
0.0
 40
0.0
 40
0.0
 40
0.0195577029826114
 40
0.0426490537460516
 40
0.2863607575855543
 40
0.5344948436188626
 40
0.7842238845572663
 40
0.8737315789466858
 40
0.9803832810312607
 40
1.092842274517009
 40
1.199761146656793
 40
1.289788768186518
 40
1.351573580786229
 40
1.370727117561473
 40
1.416400936017889
 40
1.470914848356017
 40
1.516588666791808
 40
1.53574220355289
 40
1.634216592293278
 40
1.760283341175136
 40
1.897966686682224
 40
2.031216387369052
 40
2.049689751138046
 40
2.10111560164698
 40
2.1795025777401
 40
2.278859318314214
 40
2.393194462258871
 40
2.516516648383985
 40
2.642834515406112
 40
2.766156701983616
 40
2.88049184675473
 40
2.979848588358771
 40
3.058235565443948
 40
3.109661416669103
 40
3.128134780704278
 40
3.146783742386595
 40
3.191254343315456
 40
3.244332157316115
 40
3.288802758226018
 40
3.307451719895261
 40
3.327717853844873
 40
3.383747753580233
 40
3.468388665924624
 40
3.574487837698929
 40
3.694892515729033
 40
3.82244994685217
 40
3.950007377920557
 40
4.07041205580065
 40
4.176511227368201
 40
4.261152139501648
 40
4.317182039076841
 40
4.33744817296476
 40
4.620011002696372
 40
4.885096638397555
 40
4.945373043518394
 40
5.014107710488704
 40
5.070481727652073
 40
5.319246955636551
 40
5.584812164506022
 40
5.859000912056875
 40
6.133746937542039
 40
6.401732212968829
 40
6.42073668399542
 40
6.472845717451071
 40
6.550702743893998
 40
6.646951193874207
 40
6.754234497930531
 40
6.865196086587309
 40
6.972479390357767
 40
7.068727839771929
 40
7.146584865450938
 40
7.198693898189168
 40
7.217698368905308
 40
7.234950401630785
 40
7.27608986426983
 40
7.325191803515938
 40
7.366331266090326
 40
7.383583298769677
 40
7.402779163492054
 40
7.453386443254486
 40
7.524934666445487
 40
7.606953361405827
 40
7.688972056428979
 40
7.760520279784229
 40
7.811127559734471
 40
7.830323424546092
 40
7.847844055299719
 40
7.894799345666764
 40
7.96277939274445
 40
8.043374293560499
 40
8.128174145149405
 40
8.208769044817206
 40
8.27674909037691
 40
8.323704379669472
 40
8.341225010056203
 40
8.358497614800351
 40
8.401679126686556
 40
8.457815092185614
 40
8.513951057728018
 40
8.557132569707974
 40
8.574405174505017
 40
8.602340668616383
 40
8.643455660539926
 40
8.663225271966594
 40
8.715345156564242
 40
8.78903188962858
 40
8.873502045520311
 40
8.957972194323936
 40
9.03165892556783
 40
9.08377881123452
 40
9.103548423002984
 40
9.11955008312352
 40
9.160817522379823
 40
9.217244429110188
 40
9.278724491644674
 40
9.335151398295459
 40
9.376418837357754
 40
9.392420497300542
 40
9.401196302734762
 40
9.41749422938424
 40
9.426270027749512
 40
9.440875075477544
 40
9.475702496998725
 40
9.517270709865889
 40
9.552098131994057
 40
9.566703169884265
 40
9.566703169884265
 40
9.566703169884265
 40
9.566703169884265
 10
194.6170254148479
 20
15.67015871511027
 10
194.6134345093371
 20
15.6645369070216
 10
194.6056039123625
 20
15.65227754419116
 10
194.5129968974549
 20
15.61601916040942
 10
194.4887622233248
 20
15.40148444212723
 10
194.3858709845938
 20
15.22197284509706
 10
194.1220492364306
 20
15.03615573798148
 10
194.2845471569179
 20
14.9595933656608
 10
194.3607225760838
 20
14.89856693195443
 10
194.4492171072758
 20
14.83515804544759
 10
194.5389930233111
 20
14.77525634219561
 10
194.5883817636047
 20
14.72102154849207
 10
194.6745708157383
 20
14.69286240541834
 10
194.641126067423
 20
14.65713309652814
 10
194.6214671166311
 20
14.62550387991906
 10
194.5919888217884
 20
14.58475872796069
 10
194.5688989446031
 20
14.55504663489644
 10
194.5380205968359
 20
14.50211422668493
 10
194.4729193365739
 20
14.627403349389
 10
194.3796000122416
 20
14.68213900233934
 10
194.2950636285138
 20
14.73916423939342
 10
194.1722498125742
 20
14.89675287427523
 10
194.1764450847301
 20
14.82035806766837
 10
194.1751478652677
 20
14.77361280161296
 10
194.1758126448076
 20
14.69584785812602
 10
194.1755549986956
 20
14.59902068324424
 10
194.1756431239921
 20
14.4865027907881
 10
194.1756077302282
 20
14.36524085945701
 10
194.1756511758278
 20
14.24086897858962
 10
194.1755199942405
 20
14.11967683631337
 10
194.1759477562047
 20
14.00691148919744
 10
194.174667820231
 20
13.91082913768745
 10
194.1779759851044
 20
13.83113826468701
 10
194.1715197740086
 20
13.78815175788785
 10
194.1806208705556
 20
13.74955432372044
 10
194.1447910339935
 20
13.75810887724072
 10
194.1115223815252
 20
13.75342519985448
 10
194.0604562576041
 20
13.75351298759785
 10
194.0269723972812
 20
13.75794430283822
 10
193.9907585408754
 20
13.74960793842511
 10
194.0009782568666
 20
13.79145277179286
 10
193.9936487887773
 20
13.83778560820175
 10
193.9973633136103
 20
13.92374831106016
 10
193.9959480554896
 20
14.0260514270485
 10
193.9964105554637
 20
14.14453223931512
 10
193.9962773686231
 20
14.26957683153357
 10
193.9963015910045
 20
14.3947582810705
 10
193.9963354925551
 20
14.51286645379058
 10
193.9962060293132
 20
14.61628748709516
 10
193.9965507549081
 20
14.69932036153667
 10
193.995869827869
 20
14.75143368521243
 10
193.9994586600623
 20
14.87912907821361
 10
193.7826171386437
 20
14.58048716819625
 10
193.6021354921951
 20
14.35263981511517
 10
193.5490322295612
 20
14.49373443289813
 10
193.5200429133149
 20
14.54325767560942
 10
193.4196648062822
 20
14.64641779790106
 10
193.7405127723262
 20
14.72695035023779
 10
193.868989700543
 20
14.91066283036433
 10
194.090645432536
 20
15.11931995771761
 10
194.1770224894069
 20
15.29339211228342
 10
194.4549394229073
 20
15.56967051342511
 10
194.3346247839284
 20
15.56534559551113
 10
194.2863197351348
 20
15.56614856202551
 10
194.2102377454905
 20
15.56574582146583
 10
194.116701000975
 20
15.56590275611608
 10
194.0117594788557
 20
15.56582502576223
 10
193.9033887738717
 20
15.56595464378553
 10
193.7981454235897
 20
15.56554393490691
 10
193.7056237819412
 20
15.5668207367159
 10
193.6268130800707
 20
15.56340766534849
 10
193.5839674565379
 20
15.57023350036319
 10
193.5449499586516
 20
15.56065064201123
 10
193.5526365271863
 20
15.59420779565541
 10
193.5485464404312
 20
15.62523550322232
 10
193.5485531368814
 20
15.67236529270899
 10
193.5526239724911
 20
15.70340941646777
 10
193.5449495574582
 20
15.737018616359
 10
193.5834819405494
 20
15.72748410420871
 10
193.624122801448
 20
15.73397435498069
 10
193.6951471850463
 20
15.73100150650253
 10
193.7729318149633
 20
15.73174761399156
 10
193.8507292246474
 20
15.73247814044524
 10
193.9217232089907
 20
15.72954235514159
 10
193.962427979182
 20
15.73595468772951
 10
194.0009853489909
 20
15.72650524176003
 10
193.9927342754927
 20
15.76264692158783
 10
193.9982346669359
 20
15.80129837613226
 10
193.9955754206163
 20
15.86913528561838
 10
193.9965815471533
 20
15.94591641538739
 10
193.9960178018319
 20
16.02849393582756
 10
193.9970714526593
 20
16.10517329229877
 10
193.994267586313
 20
16.17331990776698
 10
194.0000702721303
 20
16.21132399809345
 10
193.9915654551159
 20
16.24758448077645
 10
194.0255610233125
 20
16.23755723771852
 10
194.0594575683099
 20
16.24073266813706
 10
194.1126669060346
 20
16.2350896564061
 10
194.1660768574482
 20
16.23434774436425
 10
194.1995914649491
 20
16.22819223482981
 10
194.2388086183039
 20
16.23346029773594
 10
194.2120263698492
 20
16.1925338079349
 10
194.1708111001724
 20
16.20371204538111
 10
194.1782641540873
 20
16.15867056192124
 10
194.1742227952185
 20
16.11412278028144
 10
194.176171404964
 20
16.04223572621703
 10
194.1752364849758
 20
15.9616863058877
 10
194.176510719003
 20
15.88173995404994
 10
194.1732043793864
 20
15.80841837083182
 10
194.1802106179961
 20
15.76688643002567
 10
194.1701440380126
 20
15.72752418568112
 10
194.2029814803921
 20
15.7346806343098
 10
194.236457729648
 20
15.73027243137943
 10
194.2915053476019
 20
15.73217943347896
 10
194.3489502595314
 20
15.73185366407287
 10
194.4023026248309
 20
15.7310630873308
 10
194.4398540896639
 20
15.73313959118073
 10
194.4623172523237
 20
15.73022338167108
 10
194.4751678073731
 20
15.73572552644055
 10
194.4858255685888
 20
15.73801118197789
 10
194.4986635650143
 20
15.74494972588053
 10
194.514599103307
 20
15.72853046313671
 10
194.5410623920892
 20
15.71709122319449
 10
194.5726805253757
 20
15.6964468783519
 10
194.5987255892151
 20
15.68116869628294
 10
194.6128517723973
 20
15.67266976323183
 10
194.6170254148479
 20
15.67015871511027
 97
        1
330
AC
 75
     1
 76
     2
 52
45.0
 41
0.1
 77
     0
 78
     1
 53
45.0
 43
0.0
 44
0.0
 45
-0.282842712474619
 46
0.0
 79
     0
 98
        1
 10
0.0
 20
0.0
  0
HATCH
  5
CA
330
48
100
AcDbEntity
  8
1
  6
Continuous
 62
     2
100
AcDbHatch
 10
0.0
 20
0.0
 30
0.0
210
0.0
220
0.0
230
1.0
  2
CUSTOM12
 70
     0
 71
     1
 91
        1
 92
        1
 93
        1
 72
     4
 94
        3
 73
     0
 74
     0
 95
      124
 96
      120
 40
0.0
 40
0.0
 40
0.0
 40
0.0
 40
0.0278187229624226
 40
0.1011590162383985
 40
0.204847017058967
 40
0.3237088716558109
 40
0.4425707262520578
 40
0.5462587270697842
 40
0.6195990203310092
 40
0.6474177522576671
 40
0.6750060736113235
 40
0.7357003855240769
 40
0.7963946998052502
 40
0.8239830245569795
 40
0.8540933811100888
 40
0.9373396629407569
 40
1.063094687343009
 40
1.220731268637848
 40
1.399622220914522
 40
1.589140358637507
 40
1.778658496423616
 40
1.957549448940255
 40
2.115186030872876
 40
2.24094105691418
 40
2.32418734176025
 40
2.354297700109099
 40
2.381886024671606
 40
2.442580338710195
 40
2.503274652750219
 40
2.530862977314325
 40
2.560983949278278
 40
2.640393784452681
 40
2.752662861758876
 40
2.881361560117893
 40
3.010060258454996
 40
3.122329335705143
 40
3.201739170817757
 40
3.231860142753146
 40
3.264298024030201
 40
3.352343701778072
 40
3.482095226868593
 40
3.639650650172851
 40
3.811108022565306
 40
3.982565394927811
 40
4.140120818152391
 40
4.269872343141098
 40
4.357918020802159
 40
4.390355902043788
 40
4.423256253992357
 40
4.508104530072878
 40
4.624121560636675
 40
4.750528176031431
 40
4.866545206601907
 40
4.951393482691892
 40
4.984293834645293
 40
5.01145083324221
 40
5.071196230152
 40
5.130941627057079
 40
5.158098625648747
 40
5.190998977601409
 40
5.275847253689263
 40
5.391864284256754
 40
5.518270899648299
 40
5.634287930209338
 40
5.719136206288012
 40
5.752036558235928
 40
5.782130946282954
 40
5.862783906229127
 40
5.979550131774993
 40
6.117984316640396
 40
6.26364115458794
 40
6.402075339414144
 40
6.518841564907937
 40
6.599494524815518
 40
6.629588912848756
 40
6.654403028226303
 40
6.713575149488042
 40
6.784199939329302
 40
6.843372060493319
 40
6.868186175802565
 40
6.896246243201618
 40
6.939586233757875
 40
6.967846564564502
 40
7.043584251089441
 40
7.153234334451303
 40
7.283231855734056
 40
7.42001185603509
 40
7.550009376579442
 40
7.659659458834841
 40
7.735397144416837
 40
7.763657474851009
 40
7.796409728010667
 40
7.880876065095912
 40
7.996370852465241
 40
8.12220844641808
 40
8.237703224798674
 40
8.32216956201031
 40
8.354921815205325
 40
8.382078813307107
 40
8.441824209206416
 40
8.50156960523957
 40
8.52872660348515
 40
8.5614788566952
 40
8.645945193877221
 40
8.761439980864704
 40
8.887277580763818
 40
9.002772362000282
 40
9.087238696660446
 40
9.1199909492349
 40
9.152428830612598
 40
9.240474508637813
 40
9.37022603414876
 40
9.527781457983643
 40
9.699238830980631
 40
9.87069620397782
 40
10.02825162781324
 40
10.15800315332485
 40
10.2460488313504
 40
10.27848670378443
 40
10.27848670378443
 40
10.27848670378443
 40
10.27848670378443
 10
195.3821827564385
 20
14.01410517385757
 10
195.3914554737525
 20
14.01410498511274
 10
195.4251744536862
 20
14.01410430876714
 10
195.4934706812467
 20
14.01411807243305
 10
195.5920141711582
 20
14.01403224219545
 10
195.7062066464812
 20
14.0144175561225
 10
195.8185894417072
 20
14.01300835897545
 10
195.9214376600119
 20
14.01719117422243
 10
195.9806839874848
 20
14.00823089251983
 10
196.0371265937033
 20
14.0216443452606
 10
196.0246255586955
 20
13.97087198613361
 10
196.0329549635703
 20
13.92589320939067
 10
196.024817084112
 20
13.88056752990488
 10
196.0370529214457
 20
13.82931932408466
 10
195.9747773490333
 20
13.84447955365276
 10
195.9060513026868
 20
13.83359750710743
 10
195.7782756749592
 20
13.83911304747972
 10
195.6262984511643
 20
13.83700851253698
 10
195.4502695972523
 20
13.83771002588473
 10
195.2644431934287
 20
13.83745237531291
 10
195.0786167437176
 20
13.83771005144603
 10
194.9025880142169
 20
13.83700841847731
 10
194.7506104154195
 20
13.83911332229988
 10
194.6228357664555
 20
13.8335968076764
 10
194.5541077836581
 20
13.84448077125942
 10
194.4918349042884
 20
13.82931786684209
 10
194.5040616290018
 20
13.88057510805171
 10
194.4960004462598
 20
13.92582473272425
 10
194.5040675809893
 20
13.97106357955323
 10
194.4918238487084
 20
14.02234176909958
 10
194.5525017120698
 20
14.00749577363134
 10
194.6162810745737
 20
14.01756448170735
 10
194.7277314353504
 20
14.01294644212
 10
194.8497533443824
 20
14.01413328905468
 10
194.9719538137826
 20
14.01515863900635
 10
195.0829794287393
 20
14.01092475623402
 10
195.1476517413959
 20
14.02018584521739
 10
195.2091162810503
 20
14.00604423049682
 10
195.1930065601339
 20
14.07235527884516
 10
195.2042980327361
 20
14.14447790121976
 10
195.1987400822562
 20
14.27513760888285
 10
195.2008035061692
 20
14.42607323708241
 10
195.2000167127297
 20
14.59335873107885
 10
195.2007845215629
 20
14.76061110332302
 10
195.198803878563
 20
14.91163289269912
 10
195.2041306156623
 20
15.04206069552994
 10
195.1933101388427
 20
15.11465442605898
 10
195.2090326429877
 20
15.18150469436797
 10
195.1432708132492
 20
15.16580512490823
 10
195.0756367830765
 20
15.17609243083994
 10
194.9615885293811
 20
15.17113786847121
 10
194.8451242674904
 20
15.17414128030474
 10
194.7306554121478
 20
15.16880303143388
 10
194.6640324657814
 20
15.18001268074823
 10
194.5990769715186
 20
15.1634913266501
 10
194.610798975871
 20
15.21473720477058
 10
194.6032830189121
 20
15.2595033378409
 10
194.6107989878836
 20
15.3042694489796
 10
194.5990769505348
 20
15.3555153612974
 10
194.6640326339201
 20
15.33899381766815
 10
194.7306533339822
 20
15.35020571373943
 10
194.8451352858065
 20
15.34485436710665
 10
194.9615454436965
 20
15.34791188771117
 10
195.0757660174642
 20
15.34278499010708
 10
195.1430150439228
 20
15.35345733355599
 10
195.208332594144
 20
15.33742082669076
 10
195.1941391448554
 20
15.39949685750054
 10
195.2036059462996
 20
15.46586761628762
 10
195.1990269004087
 20
15.58239972741966
 10
195.2007696555949
 20
15.71426685022375
 10
195.1997551495394
 20
15.85615960150273
 10
195.2017191344374
 20
15.98769050702579
 10
195.1964668553853
 20
16.10524577283002
 10
195.2073408763476
 20
16.16947789001582
 10
195.1919536641856
 20
16.23108802545045
 10
195.2407591537801
 20
16.2170240738211
 10
195.2853995564727
 20
16.21954742075313
 10
195.3538643946742
 20
16.2151279740171
 10
195.3959106169102
 20
16.20613025544034
 10
195.4487544758775
 20
16.21411714866512
 10
195.4207035002014
 20
16.17113917611676
 10
195.3749142248596
 20
16.18259552043833
 10
195.3869539073267
 20
16.12173520005137
 10
195.3796086070643
 20
16.05769299468774
 10
195.3831195826163
 20
15.94909368863912
 10
195.3819806760176
 20
15.82494319144753
 10
195.3819174780265
 20
15.69189719829878
 10
195.383287296687
 20
15.56797381249556
 10
195.3791638801315
 20
15.45868337849338
 10
195.3877763103566
 20
15.39608580094169
 10
195.3746757454404
 20
15.33740133296366
 10
195.43938843282
 20
15.35362113810902
 10
195.5060405953158
 20
15.34270260383312
 10
195.6198779541104
 20
15.34793740173756
 10
195.7357259122097
 20
15.34485547516913
 10
195.8496924263281
 20
15.35018259812512
 10
195.9160341018099
 20
15.33904208166543
 10
195.980718852548
 20
15.35546979593178
 10
195.9689820772722
 20
15.3042592521005
 10
195.9765168063041
 20
15.25950334121
 10
195.9689820992258
 20
15.21474739010026
 10
195.9807188140736
 20
15.16353690871039
 10
195.9160344075252
 20
15.17996427794218
 10
195.8496886430825
 20
15.16882784447269
 10
195.7357459487012
 20
15.17413115893119
 10
195.6197995623056
 20
15.17114764593543
 10
195.5062756882124
 20
15.17606892268393
 10
195.4389231318805
 20
15.16585087513519
 10
195.3734285122497
 20
15.18145996138814
 10
195.3891713619219
 20
15.11463851827409
 10
195.3783275998215
 20
15.04207057815878
 10
195.3836581629793
 20
14.91162247614415
 10
195.3817136151858
 20
14.76064558185225
 10
195.3823133683215
 20
14.59322243934158
 10
195.3821506559607
 20
14.42656176118371
 10
195.3821895488138
 20
14.27360142921636
 10
195.3821816413101
 20
14.14849178985705
 10
195.3821828382746
 20
14.06507890991419
 10
195.382182771621
 20
14.02491778281976
 10
195.3821827564385
 20
14.01410517385757
 97
        1
330
AD
 75
     1
 76
     2
 52
45.0
 41
0.1
 77
     0
 78
     1
 53
45.0
 43
0.0
 44
0.0
 45
-0.282842712474619
 46
0.0
 79
     0
 98
        1
 10
0.0
 20
0.0
  0
HATCH
  5
CB
330
48
100
AcDbEntity
  8
1
  6
Continuous
 62
     2
100
AcDbHatch
 10
0.0
 20
0.0
 30
0.0
210
0.0
220
0.0
230
1.0
  2
CUSTOM13
 70
     0
 71
     1
 91
        1
 92
        1
 93
        3
 72
     4
 94
        3
 73
     0
 74
     0
 95
       24
 96
       20
 40
0.0
 40
0.0
 40
0.0
 40
0.0
 40
0.2211075008753558
 40
0.4273218586245302
 40
0.5080174679239312
 40
0.5914835907871235
 40
0.8143265690193671
 40
1.05465130268668
 40
1.295452694023273
 40
1.518109231328939
 40
1.540864321905582
 40
1.595126460622845
 40
1.659890947896188
 40
1.714153085187574
 40
1.736908174961875
 40
1.764951100735593
 40
1.801562291221212
 40
1.953914424543868
 40
2.12610416737995
 40
2.12610416737995
 40
2.12610416737995
 40
2.12610416737995
 10
185.937536955689
 20
15.58989295113015
 10
185.9112579081813
 20
15.53097628234373
 10
185.8604698894427
 20
15.41711139679254
 10
185.8131784839113
 20
15.14441958233114
 10
185.7043482802619
 20
15.24445482575458
 10
185.5514800279637
 20
15.27118593367323
 10
185.7686155181199
 20
15.48518135017633
 10
185.7838483674381
 20
15.70332117782486
 10
185.8906889492
 20
15.88451579066427
 10
185.8305380947078
 20
16.16913226311401
 10
185.9334317395402
 20
16.14114089222452
 10
185.977993346815
 20
16.13243251602299
 10
186.0380842395397
 20
16.12139654183354
 10
186.0756619587439
 20
16.1076752305556
 10
186.1252466928607
 20
16.1075607616022
 10
186.0930158919325
 20
16.07306592398624
 10
186.0171802221881
 20
16.08404104537961
 10
186.0429447159695
 20
15.89858969582449
 10
186.005589676385
 20
15.80702313549589
 10
185.9857704961609
 20
15.75844135397706
 72
     4
 94
        3
 73
     0
 74
     0
 95
       70
 96
       66
 40
0.0
 40
0.0
 40
0.0
 40
0.0
 40
0.0241731073021472
 40
0.0846058988987582
 40
0.1631685280353852
 40
0.2417311571790608
 40
0.302163948829332
 40
0.3263370654896678
 40
0.3533118254250036
 40
0.4228783438923248
 40
0.5179999095314539
 40
0.6216398239467239
 40
0.7167613891500842
 40
0.7863279069651
 40
0.8133026791762973
 40
0.837294399877281
 40
0.8945054261373439
 40
0.9627895541962925
 40
1.020000580349074
 40
1.043992300975172
 40
1.071934345522863
 40
1.113121768772958
 40
1.145225199332282
 40
1.225483775412814
 40
1.32981992377152
 40
1.43415607199441
 40
1.514414647795826
 40
1.546518078208434
 40
1.578974764260208
 40
1.662678849314203
 40
1.777131373668423
 40
1.901833377474814
 40
2.016285900500604
 40
2.099989982527971
 40
2.13244666657033
 40
2.158782354486054
 40
2.216720867907843
 40
2.274659381334267
 40
2.3009950692562
 40
2.333451754066172
 40
2.417155836543853
 40
2.531608358985292
 40
2.656310362283787
 40
2.77076288638892
 40
2.854466971340085
 40
2.886923657363891
 40
2.913597976833325
 40
2.982389642875133
 40
3.076451716947
 40
3.17893726045862
 40
3.272999334740029
 40
3.341791001059252
 40
3.368465320663566
 40
3.396976080738787
 40
3.472140811846023
 40
3.578408190308713
 40
3.700226892456121
 40
3.822045594634338
 40
3.928312973256416
 40
4.003477705314785
 40
4.031988456866851
 40
4.058324144797649
 40
4.116262658236811
 40
4.174201171400608
 40
4.200536849608542
 40
4.200536849608542
 40
4.200536849608542
 40
4.200536849608542
 10
185.9857704961609
 20
15.75844135397706
 10
185.9938259544679
 20
15.75844359811688
 10
186.0220200663241
 20
15.75845146032798
 10
186.0765534803673
 20
15.75830754828373
 10
186.1482891808604
 20
15.75909120499899
 10
186.2236240137063
 20
15.75627570463811
 10
186.2713052366439
 20
15.76298403400958
 10
186.3195071245617
 20
15.75197563692432
 10
186.3062571799875
 20
15.80546402997034
 10
186.3151093964539
 20
15.86049583543093
 10
186.3108698036287
 20
15.9541990872611
 10
186.313348348128
 20
16.04959482218533
 10
186.3090938706062
 20
16.14356821983388
 10
186.3179818665847
 20
16.19795062438013
 10
186.3046977409946
 20
16.25233997691461
 10
186.3514119277109
 20
16.2384221633536
 10
186.3943254545738
 20
16.24103877374044
 10
186.4605443456684
 20
16.23648422450756
 10
186.5013342271799
 20
16.22778162134162
 10
186.5525145690818
 20
16.23531799890197
 10
186.5253720487201
 20
16.19349970223279
 10
186.4803096055707
 20
16.20284992072601
 10
186.4942065045051
 20
16.13841207371837
 10
186.4858414431653
 20
16.07378219627399
 10
186.4903632178398
 20
15.97529141193888
 10
186.4854741311167
 20
15.87595932842571
 10
186.4950258992082
 20
15.81293115552969
 10
186.47997614552
 20
15.7496401149979
 10
186.5449159457208
 20
15.7651507294427
 10
186.6116246399497
 20
15.75499387697813
 10
186.7241435470827
 20
15.75988800099368
 10
186.8390235448954
 20
15.75691204732785
 10
186.9519871999746
 20
15.76221664184991
 10
187.0176267597678
 20
15.7510730647209
 10
187.0816276691053
 20
15.76744532319858
 10
187.0703142889189
 20
15.71761689905276
 10
187.0775339871509
 20
15.67416715212124
 10
187.070314261127
 20
15.63071745587446
 10
187.0816277175994
 20
15.58088895196877
 10
187.0176263598972
 20
15.59726166091363
 10
186.9519921240459
 20
15.5861127166159
 10
186.838997431733
 20
15.59144857206855
 10
186.7242456548644
 20
15.58834345663823
 10
186.611318368686
 20
15.59364894682589
 10
186.5455220903585
 20
15.58257300019595
 10
186.4816097975358
 20
15.59887597847619
 10
186.4936015165126
 20
15.54423524395742
 10
186.4862104613005
 20
15.48854295047842
 10
186.4892684841983
 20
15.3964968914057
 10
186.4893422785682
 20
15.30179109873101
 10
186.4860313578359
 20
15.20952782902264
 10
186.4939505989904
 20
15.15435768736139
 10
186.4815076611617
 20
15.10058169100135
 10
186.5389116551632
 20
15.1145376886278
 10
186.5994708140382
 20
15.10511457884225
 10
186.7048680855081
 20
15.10942885928704
 10
186.8204294070622
 20
15.1083550461203
 10
186.9359688877797
 20
15.10725965900994
 10
187.041418113084
 20
15.11162525770631
 10
187.1018680471803
 20
15.1020942603067
 10
187.1592837739109
 20
15.11617289606379
 10
187.1477773876708
 20
15.06707153265681
 10
187.1537566781748
 20
15.02564658018648
 10
187.15203110508
 20
14.97651677966694
 10
187.1521500122971
 20
14.94854428447607
 10
187.1521871691832
 20
14.93980288195949
 72
     4
 94
        3
 73
     0
 74
     0
 95
       62
 96
       58
 40
0.0
 40
0.0
 40
0.0
 40
0.0
 40
0.0598250028308485
 40
0.2024846486896763
 40
0.372755838921961
 40
0.5154154847934365
 40
0.575240497578335
 40
0.9332326775484923
 40
1.290451762839273
 40
1.602077253145731
 40
1.699931634112074
 40
1.799359756425049
 40
2.270120149657088
 40
2.804661928461557
 40
2.882342287383271
 40
3.076543185719124
 40
3.329004354835592
 40
3.581465524568425
 40
3.775666424543711
 40
3.853346784558332
 40
3.899120679595078
 40
3.984129341791962
 40
4.029903236817311
 40
4.105797496059467
 40
4.295533144152428
 40
4.542189486611673
 40
4.788845828875623
 40
4.978581476410011
 40
5.054475735244254
 40
5.621734664339296
 40
6.130867242037219
 40
6.225249780948537
 40
6.3189130397272
 40
6.663579954558803
 40
7.047498900224636
 40
7.435230791575534
 40
7.498943906667917
 40
7.650875181209854
 40
7.832212509001308
 40
7.984143783696665
 40
8.047856898902765
 40
8.09155463273227
 40
8.172707566963929
 40
8.21640530076765
 40
8.289021782160507
 40
8.462184160756852
 40
8.668861838004961
 40
8.842024215263525
 40
8.914640695474692
 40
8.989881580860901
 40
9.155411528826814
 40
9.320941477743604
 40
9.39618235248686
 40
9.45470901114335
 40
9.58346766017037
 40
9.712226309012593
 40
9.770752957989075
 40
9.770752957989075
 40
9.770752957989075
 40
9.770752957989075
 10
187.1521871691832
 20
14.93980288195949
 10
187.1322348171623
 20
14.93980875568671
 10
187.0647037716464
 20
14.93982863806157
 10
186.9410612161789
 20
14.93949362520324
 10
186.7863180150057
 20
14.94107673750511
 10
186.669734948248
 20
14.93686078860494
 10
186.4550942634242
 20
14.95215205331625
 10
186.8518948407229
 20
14.59198721286186
 10
186.8945656069268
 20
14.37510503397167
 10
187.3189162146615
 20
14.19325062511441
 10
187.1439821496074
 20
14.08985196568074
 10
187.0194523925084
 20
13.87831523212729
 10
186.7666277235943
 20
14.34806081001559
 10
186.4797602893626
 20
14.99511516984523
 10
186.490633592666
 20
14.68782672154695
 10
186.488289277796
 20
14.52288616971779
 10
186.4861096126411
 20
14.28879670711693
 10
186.4980774396346
 20
14.04498072421783
 10
186.4687984740631
 20
13.89855796860984
 10
186.511452262547
 20
13.75113490174537
 10
186.423981400564
 20
13.76685797306218
 10
186.3768527606745
 20
13.76694303543452
 10
186.2898973207714
 20
13.75109425482908
 10
186.3313474021724
 20
13.89527771422761
 10
186.3029875004286
 20
14.03855052698455
 10
186.31459737753
 20
14.27674947365264
 10
186.3124175648273
 20
14.50517235240346
 10
186.3103111127995
 20
14.66705729375995
 10
186.3208035438325
 20
14.98153709333753
 10
186.0128963252892
 20
14.29229470872435
 10
185.705525826746
 20
13.81476750243067
 10
185.5851367066275
 20
14.03741112637423
 10
185.4074607910723
 20
14.15011034955568
 10
185.8853326362895
 20
14.3254814346546
 10
185.9353959057208
 20
14.5609192925203
 10
186.3583799621717
 20
14.95322989344605
 10
186.1276754273541
 20
14.93655307029065
 10
186.0049685859341
 20
14.9426951894877
 10
185.8325483095663
 20
14.93312822699573
 10
185.721322469445
 20
14.95448818489665
 10
185.602577962745
 20
14.9213626535742
 10
185.6183169706688
 20
15.00203900606883
 10
185.6178550933764
 20
15.04645414290853
 10
185.6027881889933
 20
15.12967081778531
 10
185.7372380935444
 20
15.09062651983882
 10
185.8619755545748
 20
15.11739729328422
 10
186.0628755237281
 20
15.10063949044051
 10
186.1921540949354
 20
15.12204225913002
 10
186.3328419928295
 20
15.08868778853421
 10
186.2980927452616
 20
15.22651875785067
 10
186.3222185666714
 20
15.34963257349482
 10
186.2967086182393
 20
15.47024055670335
 10
186.3333251146686
 20
15.60539865141494
 10
186.221141702777
 20
15.58094545781891
 10
186.1280356457138
 20
15.59307749842024
 10
186.0191547579821
 20
15.58957630069995
 10
185.9569697640965
 20
15.58981755951603
 10
185.9375369557247
 20
15.58989295124145
 97
        3
330
AF
330
B0
330
AE
 75
     1
 76
     2
 52
45.0
 41
0.1
 77
     0
 78
     1
 53
45.0
 43
0.0
 44
0.0
 45
-0.282842712474619
 46
0.0
 79
     0
 98
        1
 10
0.0
 20
0.0
  0
HATCH
  5
CC
330
48
100
AcDbEntity
  8
1
  6
Continuous
 62
     2
100
AcDbHatch
 10
0.0
 20
0.0
 30
0.0
210
0.0
220
0.0
230
1.0
  2
CUSTOM14
 70
     0
 71
     1
 91
        1
 92
        1
 93
        4
 72
     1
 10
192.4578138032672
 20
15.22875434022056
 11
191.1602971697033
 21
15.22875434022056
 72
     1
 10
191.1602971697033
 20
15.22875434022056
 11
191.1602971697033
 21
15.39722336795624
 72
     1
 10
191.1602971697033
 20
15.39722336795624
 11
192.4578138032672
 21
15.39722336795624
 72
     1
 10
192.4578138032672
 20
15.39722336795624
 11
192.4578138032672
 21
15.22875434022056
 97
        1
330
B1
 75
     1
 76
     2
 52
45.0
 41
0.1
 77
     0
 78
     1
 53
45.0
 43
0.0
 44
0.0
 45
-0.282842712474619
 46
0.0
 79
     0
 98
        1
 10
0.0
 20
0.0
  0
ENDBLK
  5
4A
330
48
100
AcDbEntity
  8
0
100
AcDbBlockEnd
  0
BLOCK
  5
4D
330
4B
100
AcDbEntity
  8
0
100
AcDbBlockBegin
  2
開示A4枠
 70
     0
 10
0.00000000000011
 20
0.0
 30
0.0
  3
開示A4枠
  1

  0
INSERT
  5
4C
330
4B
100
AcDbEntity
  8
1
100
AcDbBlockReference
  2
開示A4
 10
0.0
 20
0.0
 30
0.0
 41
2.5
 42
2.5
 43
2.5
  0
ENDBLK
  5
4E
330
4B
100
AcDbEntity
  8
0
100
AcDbBlockEnd
  0
BLOCK
  5
122
330
11B
100
AcDbEntity
  8
0
100
AcDbBlockBegin
  2
*D3
 70
     1
 10
0.0
 20
0.0
 30
0.0
  3
*D3
  1

  0
LINE
  5
11C
330
11B
100
AcDbEntity
  8
1
  6
Continuous
 62
     2
100
AcDbLine
 10
194.8104544515334
 20
268.434554759026
 30
0.0
 11
408.8104544515334
 21
268.434554759026
 31
0.0
  0
LINE
  5
11D
330
11B
100
AcDbEntity
  8
1
  6
Continuous
 62
     2
100
AcDbLine
 10
194.8104544515334
 20
293.434554759026
 30
0.0
 11
194.8104544515334
 21
263.434554759026
 31
0.0
  0
LINE
  5
11E
330
11B
100
AcDbEntity
  8
1
  6
Continuous
 62
     2
100
AcDbLine
 10
408.8104544515334
 20
405.2345547590259
 30
0.0
 11
408.8104544515334
 21
263.434554759026
 31
0.0
  0
SOLID
  5
11F
330
11B
100
AcDbEntity
  8
1
 62
     2
100
AcDbTrace
 10
202.3104544515334
 20
269.4219484909315
 30
0.0
 11
202.3104544515334
 21
267.4471610271206
 31
0.0
 12
194.8104544515334
 22
268.434554759026
 32
0.0
 13
194.8104544515334
 23
268.434554759026
 33
0.0
  0
SOLID
  5
120
330
11B
100
AcDbEntity
  8
1
 62
     2
100
AcDbTrace
 10
401.3104544515334
 20
267.4471610271206
 30
0.0
 11
401.3104544515334
 21
269.4219484909315
 31
0.0
 12
408.8104544515334
 22
268.434554759026
 32
0.0
 13
408.8104544515334
 23
268.434554759026
 33
0.0
  0
MTEXT
  5
121
330
11B
100
AcDbEntity
  8
1
 62
     7
100
AcDbMText
 10
300.0622537940015
 20
273.434554759026
 30
0.0
 40
7.5
 41
0.0
 71
     7
 72
     1
  1
A
  7
CONVERTER_12
 11
0.9999999999970619
 21
2.424068405545306E-6
 31
0.0
 73
     1
 44
0.60024009603842
  0
ENDBLK
  5
123
330
11B
100
AcDbEntity
  8
0
100
AcDbBlockEnd
  0
BLOCK
  5
12D
330
126
100
AcDbEntity
  8
0
100
AcDbBlockBegin
  2
*D4
 70
     1
 10
0.0
 20
0.0
 30
0.0
  3
*D4
  1

  0
LINE
  5
127
330
126
100
AcDbEntity
  8
1
  6
Continuous
 62
     2
100
AcDbLine
 10
449.7104544515335
 20
309.3345547590259
 30
0.0
 11
449.7104544515335
 21
559.334554759026
 31
0.0
  0
LINE
  5
128
330
126
100
AcDbEntity
  8
1
  6
Continuous
 62
     2
100
AcDbLine
 10
312.9104544515334
 20
309.3345547590259
 30
0.0
 11
454.7104544515335
 21
309.3345547590259
 31
0.0
  0
LINE
  5
129
330
126
100
AcDbEntity
  8
1
  6
Continuous
 62
     2
100
AcDbLine
 10
424.7104544515334
 20
559.334554759026
 30
0.0
 11
454.7104544515335
 21
559.334554759026
 31
0.0
  0
SOLID
  5
12A
330
126
100
AcDbEntity
  8
1
 62
     2
100
AcDbTrace
 10
448.7230607196281
 20
316.8345547590259
 30
0.0
 11
450.697848183439
 21
316.8345547590259
 31
0.0
 12
449.7104544515335
 22
309.3345547590259
 32
0.0
 13
449.7104544515335
 23
309.3345547590259
 33
0.0
  0
SOLID
  5
12B
330
126
100
AcDbEntity
  8
1
 62
     2
100
AcDbTrace
 10
450.697848183439
 20
551.834554759026
 30
0.0
 11
448.7230607196281
 21
551.834554759026
 31
0.0
 12
449.7104544515335
 22
559.334554759026
 32
0.0
 13
449.7104544515335
 23
559.334554759026
 33
0.0
  0
MTEXT
  5
12C
330
126
100
AcDbEntity
  8
1
 62
     7
100
AcDbMText
 10
444.7104544515335
 20
437.868543570323
 30
0.0
 40
7.5
 41
0.0
 71
     7
 72
     1
  1
B
  7
CONVERTER_12
 11
0.0
 21
1.0
 31
0.0
 73
     1
 44
0.60024009603842
  0
ENDBLK
  5
12E
330
126
100
AcDbEntity
  8
0
100
AcDbBlockEnd
  0
BLOCK
  5
138
330
131
100
AcDbEntity
  8
0
100
AcDbBlockBegin
  2
*D5
 70
     1
 10
0.0
 20
0.0
 30
0.0
  3
*D5
  1

  0
LINE
  5
132
330
131
100
AcDbEntity
  8
1
  6
Continuous
 62
     2
100
AcDbLine
 10
392.9104544515333
 20
584.3345547590261
 30
0.0
 11
424.7104544515334
 21
584.3345547590261
 31
0.0
  0
LINE
  5
133
330
131
100
AcDbEntity
  8
1
  6
Continuous
 62
     2
100
AcDbLine
 10
392.9104544515333
 20
559.334554759026
 30
0.0
 11
392.9104544515333
 21
589.3345547590261
 31
0.0
  0
LINE
  5
134
330
131
100
AcDbEntity
  8
1
  6
Continuous
 62
     2
100
AcDbLine
 10
424.7104544515334
 20
559.334554759026
 30
0.0
 11
424.7104544515334
 21
589.3345547590261
 31
0.0
  0
SOLID
  5
135
330
131
100
AcDbEntity
  8
1
 62
     2
100
AcDbTrace
 10
400.4104544515333
 20
585.3219484909316
 30
0.0
 11
400.4104544515333
 21
583.3471610271206
 31
0.0
 12
392.9104544515333
 22
584.3345547590261
 32
0.0
 13
392.9104544515333
 23
584.3345547590261
 33
0.0
  0
SOLID
  5
136
330
131
100
AcDbEntity
  8
1
 62
     2
100
AcDbTrace
 10
417.2104544515334
 20
583.3471610271206
 30
0.0
 11
417.2104544515334
 21
585.3219484909316
 31
0.0
 12
424.7104544515334
 22
584.3345547590261
 32
0.0
 13
424.7104544515334
 23
584.3345547590261
 33
0.0
  0
MTEXT
  5
137
330
131
100
AcDbEntity
  8
1
 62
     7
100
AcDbMText
 10
401.3315971026456
 20
589.3345398510054
 30
0.0
 40
7.5
 41
0.0
 71
     7
 72
     1
  1
\C7;{\Fgdt;n}\C7;32
  7
CONVERTER_12
 11
0.9999999999970619
 21
2.424068405545306E-6
 31
0.0
 73
     1
 44
0.60024009603842
  0
ENDBLK
  5
139
330
131
100
AcDbEntity
  8
0
100
AcDbBlockEnd
  0
BLOCK
  5
140
330
13C
100
AcDbEntity
  8
0
100
AcDbBlockBegin
  2
*D6
 70
     1
 10
0.0
 20
0.0
 30
0.0
  3
*D6
  1

  0
LINE
  5
13D
330
13C
100
AcDbEntity
  8
1
  6
Continuous
 62
     2
100
AcDbLine
 10
312.9104544515332
 20
405.234554759026
 30
0.0
 11
373.1465639531169
 21
352.5884617215248
 31
0.0
  0
SOLID
  5
13E
330
13C
100
AcDbEntity
  8
1
 62
     2
100
AcDbTrace
 10
366.8496484089117
 20
356.7805734818376
 30
0.0
 11
368.1492089657752
 21
358.2674924057435
 31
0.0
 12
373.1465639531169
 22
352.5884617215248
 32
0.0
 13
373.1465639531169
 23
352.5884617215248
 33
0.0
  0
MTEXT
  5
13F
330
13C
100
AcDbEntity
  8
1
 62
     7
100
AcDbMText
 10
353.0102994539823
 20
376.8280028593996
 30
0.0
 40
7.5
 41
0.0
 71
     7
 72
     1
  1
\C7;R\C7;80
  7
CONVERTER_12
 11
0.7529513687697956
 21
-0.6580761629687643
 31
0.0
 73
     1
 44
0.60024009603842
  0
ENDBLK
  5
141
330
13C
100
AcDbEntity
  8
0
100
AcDbBlockEnd
  0
ENDSEC
  0
SECTION
  2
ENTITIES
  0
INSERT
  5
4F
330
1F
100
AcDbEntity
  8
0
100
AcDbBlockReference
  2
開示A4枠
 10
0.00000000000011
 20
0.0
 30
0.0
 41
1.0
 42
1.0
 43
1.0
  0
LINE
  5
CD
330
1F
100
AcDbEntity
  8
1
  6
Continuous
 62
     7
100
AcDbLine
 10
392.9104544515333
 20
479.6523891297811
 30
0.0
 11
392.9104544515333
 21
405.234554759026
 31
0.0
  0
LINE
  5
CE
330
1F
100
AcDbEntity
  8
1
  6
Continuous
 62
     7
100
AcDbLine
 10
424.7104544515333
 20
405.2345547590257
 30
0.0
 11
424.7104544515333
 21
489.8061977906041
 31
0.0
  0
LINE
  5
CF
330
1F
100
AcDbEntity
  8
1
  6
DASH_CENTER
 62
     2
100
AcDbLine
 10
408.8104544515334
 20
405.2345547590257
 30
0.0
 11
408.8104544515334
 21
565.9190082422325
 31
0.0
  0
LINE
  5
D0
330
1F
100
AcDbEntity
  8
1
  6
Continuous
 62
     7
100
AcDbLine
 10
424.7104544515333
 20
559.334554759026
 30
0.0
 11
392.9104544515333
 21
559.334554759026
 31
0.0
  0
LINE
  5
D1
330
1F
100
AcDbEntity
  8
1
  6
Continuous
 62
     7
100
AcDbLine
 10
392.9104544515333
 20
559.334554759026
 30
0.0
 11
392.9104544515334
 21
493.4302963816589
 31
0.0
  0
LINE
  5
D2
330
1F
100
AcDbEntity
  8
1
  6
Continuous
 62
     7
100
AcDbLine
 10
312.9104544515333
 20
325.234554759026
 30
0.0
 11
275.2677356806993
 21
325.2345547590259
 31
0.0
  0
LINE
  5
D3
330
1F
100
AcDbEntity
  8
1
  6
Continuous
 62
     7
100
AcDbLine
 10
194.8104544515334
 20
293.4345547590258
 30
0.0
 11
271.6436370896442
 21
293.4345547590257
 31
0.0
  0
LINE
  5
D4
330
1F
100
AcDbEntity
  8
1
  6
Continuous
 62
     7
100
AcDbLine
 10
194.8104544515334
 20
325.234554759026
 30
0.0
 11
194.8104544515334
 21
293.4345547590258
 31
0.0
  0
LINE
  5
D5
330
1F
100
AcDbEntity
  8
1
  6
DASH_CENTER
 62
     2
100
AcDbLine
 10
312.9104544515334
 20
309.3345547590259
 30
0.0
 11
188.3124867817143
 21
309.3345547590259
 31
0.0
  0
LINE
  5
D6
330
1F
100
AcDbEntity
  8
1
  6
DASH_CENTER
 62
     2
100
AcDbLine
 10
427.7104544515333
 20
622.834554759026
 30
0.0
 11
188.3124867817143
 21
622.834554759026
 31
0.0
  0
LINE
  5
D7
330
1F
100
AcDbEntity
  8
1
  6
DASH_CENTER
 62
     2
100
AcDbLine
 10
408.8104544515334
 20
603.9345547590259
 30
0.0
 11
408.8104544515334
 21
641.734554759026
 31
0.0
  0
LINE
  5
D8
330
1F
100
AcDbEntity
  8
1
  6
Continuous
 62
     7
100
AcDbLine
 10
408.8104544515334
 20
638.7345547590261
 30
0.0
 11
275.2677356806993
 21
638.734554759026
 31
0.0
  0
LINE
  5
D9
330
1F
100
AcDbEntity
  8
1
  6
Continuous
 62
     7
100
AcDbLine
 10
194.8104544515334
 20
606.934554759026
 30
0.0
 11
271.6436370896442
 21
606.9345547590259
 31
0.0
  0
LINE
  5
DA
330
1F
100
AcDbEntity
  8
1
  6
Continuous
 62
     7
100
AcDbLine
 10
194.8104544515334
 20
638.7345547590261
 30
0.0
 11
194.8104544515334
 21
606.934554759026
 31
0.0
  0
LINE
  5
DB
330
1F
100
AcDbEntity
  8
1
  6
DASH_CENTER
 62
     2
100
AcDbLine
 10
135.8104544515334
 20
290.4345547590258
 30
0.0
 11
135.8104544515334
 21
565.9190082422325
 31
0.0
  0
LINE
  5
DC
330
1F
100
AcDbEntity
  8
1
  6
DASH_CENTER
 62
     2
100
AcDbLine
 10
153.2104544515334
 20
309.3345547590259
 30
0.0
 11
118.4104544515334
 21
309.3345547590259
 31
0.0
  0
LINE
  5
DD
330
1F
100
AcDbEntity
  8
1
  6
Continuous
 62
     7
100
AcDbLine
 10
119.9104544515333
 20
479.6523891297811
 30
0.0
 11
119.9104544515333
 21
309.3345547590259
 31
0.0
  0
LINE
  5
DE
330
1F
100
AcDbEntity
  8
1
  6
Continuous
 62
     7
100
AcDbLine
 10
151.7104544515334
 20
309.3345547590259
 30
0.0
 11
151.7104544515334
 21
489.8061977906041
 31
0.0
  0
LINE
  5
DF
330
1F
100
AcDbEntity
  8
1
  6
Continuous
 62
     7
100
AcDbLine
 10
119.9104544515333
 20
559.334554759026
 30
0.0
 11
119.9104544515333
 21
493.4302963816589
 31
0.0
  0
LINE
  5
E0
330
1F
100
AcDbEntity
  8
1
  6
Continuous
 62
     7
100
AcDbLine
 10
151.7104544515334
 20
559.334554759026
 30
0.0
 11
119.9104544515333
 21
559.334554759026
 31
0.0
  0
LINE
  5
E1
330
1F
100
AcDbEntity
  8
1
  6
Continuous
 62
     7
100
AcDbLine
 10
424.7104544515333
 20
491.8061977906041
 30
0.0
 11
424.7104544515333
 21
559.334554759026
 31
0.0
  0
LINE
  5
E2
330
1F
100
AcDbEntity
  8
1
  6
Continuous
 62
     7
100
AcDbLine
 10
392.9104544515334
 20
491.4302963816589
 30
0.0
 11
392.9104544515333
 21
479.6523891297811
 31
0.0
  0
LINE
  5
E3
330
1F
100
AcDbEntity
  8
1
  6
Continuous
 62
     7
100
AcDbLine
 10
119.9104544515333
 20
491.4302963816589
 30
0.0
 11
119.9104544515333
 21
479.6523891297811
 31
0.0
  0
LINE
  5
E4
330
1F
100
AcDbEntity
  8
1
  6
Continuous
 62
     7
100
AcDbLine
 10
119.9104544515333
 20
491.4302963816589
 30
0.0
 11
119.9104544515333
 21
479.6523891297811
 31
0.0
  0
LINE
  5
E5
330
1F
100
AcDbEntity
  8
1
  6
Continuous
 62
     7
100
AcDbLine
 10
151.7104544515334
 20
491.8061977906041
 30
0.0
 11
151.7104544515334
 21
559.334554759026
 31
0.0
  0
LINE
  5
E6
330
1F
100
AcDbEntity
  8
1
  6
Continuous
 62
     7
100
AcDbLine
 10
273.2677356806993
 20
325.2345547590259
 30
0.0
 11
194.8104544515334
 21
325.234554759026
 31
0.0
  0
LINE
  5
E7
330
1F
100
AcDbEntity
  8
1
  6
Continuous
 62
     7
100
AcDbLine
 10
273.6436370896442
 20
293.4345547590257
 30
0.0
 11
312.9104544515334
 21
293.4345547590258
 31
0.0
  0
LINE
  5
E8
330
1F
100
AcDbEntity
  8
1
  6
Continuous
 62
     7
100
AcDbLine
 10
273.2677356806993
 20
638.734554759026
 30
0.0
 11
194.8104544515334
 21
638.7345547590261
 31
0.0
  0
LINE
  5
E9
330
1F
100
AcDbEntity
  8
1
  6
Continuous
 62
     7
100
AcDbLine
 10
273.6436370896442
 20
606.9345547590259
 30
0.0
 11
408.8104544515334
 21
606.9345547590259
 31
0.0
  0
LINE
  5
EA
330
1F
100
AcDbEntity
  8
0
  6
Continuous
 62
     7
100
AcDbLine
 10
196.7741493289401
 20
219.8648769516861
 30
0.0
 11
196.7741493289401
 21
122.0387899952023
 31
0.0
  0
LINE
  5
EB
330
1F
100
AcDbEntity
  8
0
  6
Continuous
 62
     2
100
AcDbLine
 10
272.8611058507528
 20
219.8648769516861
 30
0.0
 11
272.8611058507528
 21
122.0387899952023
 31
0.0
  0
LINE
  5
EC
330
1F
100
AcDbEntity
  8
0
  6
Continuous
 62
     2
100
AcDbLine
 10
316.3393667203497
 20
219.8648769516861
 30
0.0
 11
316.3393667203497
 21
122.0387899952023
 31
0.0
  0
LINE
  5
ED
330
1F
100
AcDbEntity
  8
0
  6
Continuous
 62
     7
100
AcDbLine
 10
359.8176275898373
 20
219.8648769516861
 30
0.0
 11
359.8176275898373
 21
122.0387899952023
 31
0.0
  0
LINE
  5
EE
330
1F
100
AcDbEntity
  8
0
  6
Continuous
 62
     7
100
AcDbLine
 10
196.7741493289401
 20
219.8648769516861
 30
0.0
 11
359.8176275898373
 21
219.8648769516861
 31
0.0
  0
LINE
  5
EF
330
1F
100
AcDbEntity
  8
0
  6
Continuous
 62
     2
100
AcDbLine
 10
196.7741493289401
 20
198.1257465169059
 30
0.0
 11
359.8176275898373
 21
198.1257465169059
 31
0.0
  0
LINE
  5
F0
330
1F
100
AcDbEntity
  8
0
  6
Continuous
 62
     2
100
AcDbLine
 10
196.7741493289401
 20
182.9083552124924
 30
0.0
 11
359.8176275898373
 21
182.9083552124924
 31
0.0
  0
LINE
  5
F1
330
1F
100
AcDbEntity
  8
0
  6
Continuous
 62
     7
100
AcDbLine
 10
196.7741493289401
 20
122.0387899952023
 30
0.0
 11
359.8176275898373
 21
122.0387899952023
 31
0.0
  0
LINE
  5
F2
330
1F
100
AcDbEntity
  8
0
  6
Continuous
 62
     2
100
AcDbLine
 10
196.7741493289401
 20
167.6909639082062
 30
0.0
 11
359.8176275898373
 21
167.6909639082062
 31
0.0
  0
LINE
  5
F3
330
1F
100
AcDbEntity
  8
0
  6
Continuous
 62
     2
100
AcDbLine
 10
196.7741493289401
 20
152.4735726037928
 30
0.0
 11
359.8176275898373
 21
152.4735726037928
 31
0.0
  0
LINE
  5
F4
330
1F
100
AcDbEntity
  8
0
  6
Continuous
 62
     2
100
AcDbLine
 10
196.7741493289401
 20
137.2561812994885
 30
0.0
 11
359.8176275898373
 21
137.2561812994885
 31
0.0
  0
CIRCLE
  5
F5
330
1F
100
AcDbEntity
  8
1
  6
Continuous
 62
     7
100
AcDbCircle
 10
408.8104544515334
 20
622.834554759026
 30
0.0
 40
15.89999999999986
  0
CIRCLE
  5
F6
330
1F
100
AcDbEntity
  8
1
  6
Continuous
 62
     7
100
AcDbCircle
 10
408.8104544515334
 20
622.834554759026
 30
0.0
 40
15.30000000000001
  0
CIRCLE
  5
F7
330
1F
100
AcDbEntity
  8
1
  6
Continuous
 62
     7
100
AcDbCircle
 10
135.8104544515334
 20
309.3345547590259
 30
0.0
 40
15.90000000000001
  0
CIRCLE
  5
F8
330
1F
100
AcDbEntity
  8
1
  6
Continuous
 62
     7
100
AcDbCircle
 10
135.8104544515334
 20
309.3345547590259
 30
0.0
 40
15.30000000000001
  0
ARC
  5
F9
330
1F
100
AcDbEntity
  8
1
  6
Continuous
 62
     7
100
AcDbCircle
 10
312.9104544515333
 20
405.234554759026
 30
0.0
 40
80.0
100
AcDbArc
 50
270.0
 51
0.0
  0
ARC
  5
FA
330
1F
100
AcDbEntity
  8
1
  6
DASH_CENTER
 62
     2
100
AcDbCircle
 10
312.9104544515333
 20
405.234554759026
 30
0.0
 40
95.90000000000015
100
AcDbArc
 50
270.0
 51
359.9999999999998
  0
ARC
  5
FB
330
1F
100
AcDbEntity
  8
1
  6
Continuous
 62
     7
100
AcDbCircle
 10
312.9104544515333
 20
405.234554759026
 30
0.0
 40
111.8000000000002
100
AcDbArc
 50
270.0
 51
359.9999999999998
  0
MTEXT
  5
FD
330
1F
100
AcDbEntity
  8
1
 62
     7
100
AcDbMText
 10
234.3750000000004
 20
42.50000000000023
 30
0.0
 40
8.75
 41
0.0
 71
     5
 72
     1
  1
2,5
  7
CONVERTER_12
 73
     1
 44
0.7202881152461
  0
MTEXT
  5
FE
330
1F
100
AcDbEntity
  8
1
 62
     7
100
AcDbMText
 10
142.5000000000004
 20
35.62500000000023
 30
0.0
 40
8.75
 41
0.0
 71
     5
 72
     1
  1
H80-2-(各サイズ)
  7
CONVERTER_11
 73
     1
 44
0.54545454545455
  0
MTEXT
  5
FF
330
1F
100
AcDbEntity
  8
1
 62
     7
100
AcDbMText
 10
142.5000000000004
 20
56.87500000000026
 30
0.0
 40
8.75
 41
0.0
 71
     5
 72
     1
  1
ロータンク洗浄管上部32mm
  7
CONVERTER_11
 73
     1
 44
0.54545454545455
  0
MTEXT
  5
100
330
1F
100
AcDbEntity
  8
1
 62
     7
100
AcDbMText
 10
213.1250000000004
 20
42.50000000000023
 30
0.0
 40
8.75
 41
0.0
 71
     5
 72
     1
  1
1
  7
CONVERTER_12
 73
     1
 44
0.7202881152461
  0
MTEXT
  5
101
330
1F
100
AcDbEntity
  8
0
 62
     2
100
AcDbMText
 10
235.3642581825449
 20
208.5270428409042
 30
0.0
 40
7.5
 41
0.0
 71
     5
 72
     1
  1
品番
  7
CONVERTER_11
 73
     1
 44
1.0
  0
MTEXT
  5
102
330
1F
100
AcDbEntity
  8
0
 62
     7
100
AcDbMText
 10
233.4615914256398
 20
190.6212114194917
 30
0.0
 40
7.5
 41
0.0
 71
     5
 72
     1
  1
H80-2-A
  7
CONVERTER_12
 73
     1
 44
1.32052821128451
  0
MTEXT
  5
103
330
1F
100
AcDbEntity
  8
0
 62
     2
100
AcDbMText
 10
295.7516666604539
 20
209.0206930543885
 30
0.0
 40
7.5
 41
0.0
 71
     5
 72
     1
  1
A
  7
CONVERTER_12
 73
     1
 44
1.32052821128451
  0
MTEXT
  5
104
330
1F
100
AcDbEntity
  8
0
 62
     2
100
AcDbMText
 10
338.0431921929455
 20
209.7981305156812
 30
0.0
 40
7.5
 41
0.0
 71
     5
 72
     1
  1
B
  7
CONVERTER_12
 73
     1
 44
1.32052821128451
  0
MTEXT
  5
105
330
1F
100
AcDbEntity
  8
0
 62
     7
100
AcDbMText
 10
295.5052309893478
 20
190.5238953274041
 30
0.0
 40
7.5
 41
0.0
 71
     5
 72
     1
  1
320
  7
CONVERTER_12
 73
     1
 44
1.32052821128451
  0
MTEXT
  5
106
330
1F
100
AcDbEntity
  8
0
 62
     7
100
AcDbMText
 10
338.206658834443
 20
190.5238953274041
 30
0.0
 40
7.5
 41
0.0
 71
     5
 72
     1
  1
470
  7
CONVERTER_12
 73
     1
 44
1.32052821128451
  0
MTEXT
  5
107
330
1F
100
AcDbEntity
  8
0
 62
     7
100
AcDbMText
 10
233.4615914256398
 20
175.4038201151874
 30
0.0
 40
7.5
 41
0.0
 71
     5
 72
     1
  1
H80-2-B
  7
CONVERTER_12
 73
     1
 44
1.32052821128451
  0
MTEXT
  5
108
330
1F
100
AcDbEntity
  8
0
 62
     7
100
AcDbMText
 10
295.5052309893478
 20
175.3065040230998
 30
0.0
 40
7.5
 41
0.0
 71
     5
 72
     1
  1
350
  7
CONVERTER_12
 73
     1
 44
1.32052821128451
  0
MTEXT
  5
109
330
1F
100
AcDbEntity
  8
0
 62
     7
100
AcDbMText
 10
338.206658834443
 20
175.3065040230998
 30
0.0
 40
7.5
 41
0.0
 71
     5
 72
     1
  1
400
  7
CONVERTER_12
 73
     1
 44
1.32052821128451
  0
MTEXT
  5
10A
330
1F
100
AcDbEntity
  8
0
 62
     7
100
AcDbMText
 10
233.4615914256398
 20
160.1864288107921
 30
0.0
 40
7.5
 41
0.0
 71
     5
 72
     1
  1
H80-2-C
  7
CONVERTER_12
 73
     1
 44
1.32052821128451
  0
MTEXT
  5
10B
330
1F
100
AcDbEntity
  8
0
 62
     7
100
AcDbMText
 10
295.5052309893478
 20
160.0891127186863
 30
0.0
 40
7.5
 41
0.0
 71
     5
 72
     1
  1
450
  7
CONVERTER_12
 73
     1
 44
1.32052821128451
  0
MTEXT
  5
10C
330
1F
100
AcDbEntity
  8
0
 62
     7
100
AcDbMText
 10
338.206658834443
 20
160.0891127186863
 30
0.0
 40
7.5
 41
0.0
 71
     5
 72
     1
  1
450
  7
CONVERTER_12
 73
     1
 44
1.32052821128451
  0
MTEXT
  5
10D
330
1F
100
AcDbEntity
  8
0
 62
     7
100
AcDbMText
 10
233.4615914256398
 20
144.969037506415
 30
0.0
 40
7.5
 41
0.0
 71
     5
 72
     1
  1
H80-2-D
  7
CONVERTER_12
 73
     1
 44
1.32052821128451
  0
MTEXT
  5
10E
330
1F
100
AcDbEntity
  8
0
 62
     7
100
AcDbMText
 10
295.5052309893478
 20
144.871721414382
 30
0.0
 40
7.5
 41
0.0
 71
     5
 72
     1
  1
170
  7
CONVERTER_12
 73
     1
 44
1.32052821128451
  0
MTEXT
  5
10F
330
1F
100
AcDbEntity
  8
0
 62
     7
100
AcDbMText
 10
338.206658834443
 20
144.871721414382
 30
0.0
 40
7.5
 41
0.0
 71
     5
 72
     1
  1
320
  7
CONVERTER_12
 73
     1
 44
1.32052821128451
  0
MTEXT
  5
110
330
1F
100
AcDbEntity
  8
0
 62
     7
100
AcDbMText
 10
233.4615914256398
 20
129.7516462021107
 30
0.0
 40
7.5
 41
0.0
 71
     5
 72
     1
  1
H80-2-E
  7
CONVERTER_12
 73
     1
 44
1.32052821128451
  0
MTEXT
  5
111
330
1F
100
AcDbEntity
  8
0
 62
     7
100
AcDbMText
 10
295.5052309893478
 20
129.6543301099867
 30
0.0
 40
7.5
 41
0.0
 71
     5
 72
     1
  1
280
  7
CONVERTER_12
 73
     1
 44
1.32052821128451
  0
MTEXT
  5
112
330
1F
100
AcDbEntity
  8
0
 62
     7
100
AcDbMText
 10
338.206658834443
 20
129.6543301099867
 30
0.0
 40
7.5
 41
0.0
 71
     5
 72
     1
  1
350
  7
CONVERTER_12
 73
     1
 44
1.32052821128451
  0
MTEXT
  5
113
330
1F
100
AcDbEntity
  8
1
 62
     7
100
AcDbMText
 10
266.2500000000002
 20
31.25000000000004
 30
0.0
 40
6.25
 41
0.0
 71
     5
 72
     1
  1
6
  7
CONVERTER_12
 73
     1
 44
0.7202881152461
  0
MTEXT
  5
114
330
1F
100
AcDbEntity
  8
1
 62
     7
100
AcDbMText
 10
251.8750000000002
 20
31.25000000000004
 30
0.0
 40
6.25
 41
0.0
 71
     5
 72
     1
  1
04
  7
CONVERTER_12
 73
     1
 44
0.7202881152461
  0
MTEXT
  5
115
330
1F
100
AcDbEntity
  8
1
 62
     7
100
AcDbMText
 10
294.3750000000002
 20
31.25000000000004
 30
0.0
 40
6.25
 41
0.0
 71
     5
 72
     1
  1
04
  7
CONVERTER_12
 73
     1
 44
0.7202881152461
  0
MTEXT
  5
116
330
1F
100
AcDbEntity
  8
1
 62
     7
100
AcDbMText
 10
308.7500000000002
 20
31.25000000000004
 30
0.0
 40
6.25
 41
0.0
 71
     5
 72
     1
  1
6
  7
CONVERTER_12
 73
     1
 44
0.7202881152461
  0
MTEXT
  5
117
330
1F
100
AcDbEntity
  8
1
 62
     7
100
AcDbMText
 10
336.8750000000002
 20
31.25000000000004
 30
0.0
 40
6.25
 41
0.0
 71
     5
 72
     1
  1
04
  7
CONVERTER_12
 73
     1
 44
0.7202881152461
  0
MTEXT
  5
118
330
1F
100
AcDbEntity
  8
1
 62
     7
100
AcDbMText
 10
351.2500000000002
 20
31.25000000000004
 30
0.0
 40
6.25
 41
0.0
 71
     5
 72
     1
  1
6
  7
CONVERTER_12
 73
     1
 44
0.7202881152461
  0
MTEXT
  5
119
330
1F
100
AcDbEntity
  8
1
 62
     7
100
AcDbMText
 10
379.3750000000002
 20
31.25000000000004
 30
0.0
 40
6.25
 41
0.0
 71
     5
 72
     1
  1
04
  7
CONVERTER_12
 73
     1
 44
0.7202881152461
  0
MTEXT
  5
11A
330
1F
100
AcDbEntity
  8
1
 62
     7
100
AcDbMText
 10
393.7500000000002
 20
31.25000000000004
 30
0.0
 40
6.25
 41
0.0
 71
     5
 72
     1
  1
6
  7
CONVERTER_12
 73
     1
 44
0.7202881152461
  0
DIMENSION
  5
125
330
1F
100
AcDbEntity
  8
1
100
AcDbDimension
  2
*D3
 10
194.8104544515334
 20
268.434554759026
 30
0.0
 11
303.0622537940015
 21
277.184554759026
 31
0.0
 70
    32
  1
A
 71
     5
 42
-1.0
 53
0.00013888888889
  3
ME10_DIM_10
100
AcDbAlignedDimension
 13
408.8104544515334
 23
405.2345547590257
 33
0.0
 14
194.8104544515334
 24
293.4345547590258
 34
0.0
100
AcDbRotatedDimension
  0
DIMENSION
  5
130
330
1F
100
AcDbEntity
  8
1
100
AcDbDimension
  2
*D4
 10
449.7104544515335
 20
309.3345547590259
 30
0.0
 11
440.9604544515335
 21
440.306043570323
 31
0.0
 70
    32
  1
B
 71
     5
 42
-1.0
 53
90.0
  3
ME10_DIM_11
100
AcDbAlignedDimension
 13
424.7104544515333
 23
559.334554759026
 33
0.0
 14
312.9104544515334
 24
309.3345547590259
 34
0.0
 50
90.0
100
AcDbRotatedDimension
  0
DIMENSION
  5
13B
330
1F
100
AcDbEntity
  8
1
100
AcDbDimension
  2
*D5
 10
392.9104544515333
 20
584.3345547590261
 30
0.0
 11
408.6065971026275
 21
593.0845547590261
 31
0.0
 70
    32
  1
{\Fgdt;n}32
 71
     5
 42
-1.0
 53
0.00013888888889
  3
ME10_DIM_12
100
AcDbAlignedDimension
 13
424.7104544515333
 23
559.334554759026
 33
0.0
 14
392.9104544515333
 24
559.334554759026
 34
0.0
100
AcDbRotatedDimension
  0
INSERT
  5
142
330
1F
100
AcDbEntity
  8
1
100
AcDbBlockReference
  2
*D6
 10
0.0
 20
0.0
 30
0.0
  0
ENDSEC
  0
SECTION
  2
OBJECTS
  0
DICTIONARY
  5
C
330
0
100
AcDbDictionary
281
     1
  3
ACAD_GROUP
350
D
  3
ACAD_LAYOUT
350
1A
  3
ACAD_MATERIAL
350
3B
  3
ACAD_MLEADERSTYLE
350
145
  3
ACAD_MLINESTYLE
350
17
  3
ACAD_PLOTSETTINGS
350
19
  3
ACAD_PLOTSTYLENAME
350
E
  3
ACAD_VISUALSTYLE
350
2A
  3
AcDbVariableDictionary
350
143
  0
DICTIONARY
  5
D
102
{ACAD_REACTORS
330
C
102
}
330
C
100
AcDbDictionary
281
     1
  0
DICTIONARY
  5
1A
102
{ACAD_REACTORS
330
C
102
}
330
C
100
AcDbDictionary
281
     1
  3
Layout1
350
1E
  3
Layout2
350
26
  3
Model
350
22
  0
DICTIONARY
  5
3B
102
{ACAD_REACTORS
330
C
102
}
330
C
100
AcDbDictionary
281
     1
  3
ByBlock
350
3D
  3
ByLayer
350
3C
  3
Global
350
3E
  0
DICTIONARY
  5
145
102
{ACAD_REACTORS
330
C
102
}
330
C
100
AcDbDictionary
281
     1
  0
DICTIONARY
  5
17
102
{ACAD_REACTORS
330
C
102
}
330
C
100
AcDbDictionary
281
     1
  3
Standard
350
18
  0
DICTIONARY
  5
19
102
{ACAD_REACTORS
330
C
102
}
330
C
100
AcDbDictionary
281
     1
  0
ACDBDICTIONARYWDFLT
  5
E
102
{ACAD_REACTORS
330
C
102
}
330
C
100
AcDbDictionary
281
     1
  3
Normal
350
F
100
AcDbDictionaryWithDefault
340
F
  0
DICTIONARY
  5
2A
102
{ACAD_REACTORS
330
C
102
}
330
C
100
AcDbDictionary
281
     1
  3
2dWireframe
350
2F
  3
3D Hidden
350
31
  3
3dWireframe
350
30
  3
Basic
350
32
  3
Brighten
350
36
  3
ColorChange
350
3A
  3
Conceptual
350
34
  3
Dim
350
35
  3
Facepattern
350
39
  3
Flat
350
2B
  3
FlatWithEdges
350
2C
  3
Gouraud
350
2D
  3
GouraudWithEdges
350
2E
  3
Linepattern
350
38
  3
Realistic
350
33
  3
Thicken
350
37
  0
DICTIONARY
  5
143
102
{ACAD_REACTORS
330
C
102
}
330
C
100
AcDbDictionary
281
     1
  3
DIMASSOC
350
146
  3
HIDETEXT
350
147
  0
LAYOUT
  5
1E
102
{ACAD_REACTORS
330
1A
102
}
330
1A
100
AcDbPlotSettings
  1

  2
none_device
  4

  6

 40
0.0
 41
0.0
 42
0.0
 43
0.0
 44
0.0
 45
0.0
 46
0.0
 47
0.0
 48
0.0
 49
0.0
140
0.0
141
0.0
142
1.0
143
1.0
 70
   688
 72
     0
 73
     0
 74
     5
  7

 75
    16
147
1.0
148
0.0
149
0.0
100
AcDbLayout
  1
Layout1
 70
     1
 71
     1
 10
0.0
 20
0.0
 11
12.0
 21
9.0
 12
0.0
 22
0.0
 32
0.0
 14
1.00000000000000E+20
 24
1.00000000000000E+20
 34
1.00000000000000E+20
 15
-1.00000000000000E+20
 25
-1.00000000000000E+20
 35
-1.00000000000000E+20
146
0.0
 13
0.0
 23
0.0
 33
0.0
 16
1.0
 26
0.0
 36
0.0
 17
0.0
 27
1.0
 37
0.0
 76
     0
330
1B
  0
LAYOUT
  5
26
102
{ACAD_REACTORS
330
1A
102
}
330
1A
100
AcDbPlotSettings
  1

  2
none_device
  4

  6

 40
0.0
 41
0.0
 42
0.0
 43
0.0
 44
0.0
 45
0.0
 46
0.0
 47
0.0
 48
0.0
 49
0.0
140
0.0
141
0.0
142
1.0
143
1.0
 70
   688
 72
     0
 73
     0
 74
     5
  7

 75
    16
147
1.0
148
0.0
149
0.0
100
AcDbLayout
  1
Layout2
 70
     1
 71
     2
 10
0.0
 20
0.0
 11
0.0
 21
0.0
 12
0.0
 22
0.0
 32
0.0
 14
0.0
 24
0.0
 34
0.0
 15
0.0
 25
0.0
 35
0.0
146
0.0
 13
0.0
 23
0.0
 33
0.0
 16
1.0
 26
0.0
 36
0.0
 17
0.0
 27
1.0
 37
0.0
 76
     0
330
23
  0
LAYOUT
  5
22
102
{ACAD_REACTORS
330
1A
102
}
330
1A
100
AcDbPlotSettings
  1

  2
none_device
  4

  6

 40
0.0
 41
0.0
 42
0.0
 43
0.0
 44
0.0
 45
0.0
 46
0.0
 47
0.0
 48
0.0
 49
0.0
140
0.0
141
0.0
142
1.0
143
1.0
 70
  1712
 72
     0
 73
     0
 74
     0
  7

 75
     0
147
1.0
148
0.0
149
0.0
100
AcDbLayout
  1
Model
 70
     1
 71
     0
 10
0.0
 20
0.0
 11
12.0
 21
9.0
 12
0.0
 22
0.0
 32
0.0
 14
0.0
 24
0.0
 34
0.0
 15
525.0000000000001
 25
742.5000000000001
 35
0.0
146
0.0
 13
0.0
 23
0.0
 33
0.0
 16
1.0
 26
0.0
 36
0.0
 17
0.0
 27
1.0
 37
0.0
 76
     0
330
1F
331
29
  0
MATERIAL
  5
3D
102
{ACAD_REACTORS
330
3B
102
}
102
{ACAD_XDICTIONARY
360
16A
102
}
330
3B
100
AcDbMaterial
  1
ByBlock
  0
MATERIAL
  5
3C
102
{ACAD_REACTORS
330
3B
102
}
102
{ACAD_XDICTIONARY
360
168
102
}
330
3B
100
AcDbMaterial
  1
ByLayer
  0
MATERIAL
  5
3E
102
{ACAD_REACTORS
330
3B
102
}
102
{ACAD_XDICTIONARY
360
16C
102
}
330
3B
100
AcDbMaterial
  1
Global
  0
MLINESTYLE
  5
18
102
{ACAD_REACTORS
330
17
102
}
330
17
100
AcDbMlineStyle
  2
Standard
 70
     0
  3

 62
   256
 51
90.0
 52
90.0
 71
     2
 49
0.5
 62
   256
  6
BYLAYER
 49
-0.5
 62
   256
  6
BYLAYER
  0
ACDBPLACEHOLDER
  5
F
102
{ACAD_REACTORS
330
E
102
}
330
E
  0
VISUALSTYLE
  5
2F
102
{ACAD_REACTORS
330
2A
102
}
102
{ACAD_XDICTIONARY
360
150
102
}
330
2A
100
AcDbVisualStyle
  2
2dWireframe
 70
     4
 71
     0
 72
     2
 73
     0
 90
        0
 40
-0.6
 41
-30.0
 62
     5
 63
     7
 74
     1
 91
        4
 64
     7
 65
   257
 75
     1
175
     1
 42
1.0
 92
        0
 66
   257
 43
1.0
 76
     1
 77
     6
 78
     2
 67
     7
 79
     5
170
     0
171
     0
290
     0
174
     0
 93
        1
 44
0.0
173
     0
291
     0
 45
0.0
1001
ACAD
1000
AcDbSavedByObjectVersion
1070
     0
  0
VISUALSTYLE
  5
31
102
{ACAD_REACTORS
330
2A
102
}
102
{ACAD_XDICTIONARY
360
154
102
}
330
2A
100
AcDbVisualStyle
  2
3D Hidden
 70
     6
 71
     1
 72
     2
 73
     2
 90
        0
 40
-0.6
 41
-30.0
 62
     5
 63
     7
 74
     2
 91
        2
 64
     7
 65
   257
 75
     2
175
     1
 42
40.0
 92
        0
 66
   257
 43
1.0
 76
     1
 77
     6
 78
     2
 67
     7
 79
     3
170
     0
171
     0
290
     0
174
     0
 93
        1
 44
0.0
173
     0
291
     0
 45
0.0
1001
ACAD
1000
AcDbSavedByObjectVersion
1070
     0
  0
VISUALSTYLE
  5
30
102
{ACAD_REACTORS
330
2A
102
}
102
{ACAD_XDICTIONARY
360
152
102
}
330
2A
100
AcDbVisualStyle
  2
3dWireframe
 70
     5
 71
     0
 72
     2
 73
     0
 90
        0
 40
-0.6
 41
-30.0
 62
     5
 63
     7
 74
     1
 91
        4
 64
     7
 65
   257
 75
     1
175
     1
 42
1.0
 92
        0
 66
   257
 43
1.0
 76
     1
 77
     6
 78
     2
 67
     7
 79
     5
170
     0
171
     0
290
     0
174
     0
 93
        1
 44
0.0
173
     0
291
     0
 45
0.0
1001
ACAD
1000
AcDbSavedByObjectVersion
1070
     0
  0
VISUALSTYLE
  5
32
102
{ACAD_REACTORS
330
2A
102
}
102
{ACAD_XDICTIONARY
360
156
102
}
330
2A
100
AcDbVisualStyle
  2
Basic
 70
     7
 71
     1
 72
     0
 73
     1
 90
        0
 40
-0.6
 41
-30.0
 62
     5
 63
     7
 74
     0
 91
        4
 64
     7
 65
   257
 75
     1
175
     1
 42
1.0
 92
        8
 66
     7
 43
1.0
 76
     1
 77
     6
 78
     2
 67
     7
 79
     5
170
     0
171
     0
290
     0
174
     0
 93
        1
 44
0.0
173
     0
291
     1
 45
0.0
1001
ACAD
1000
AcDbSavedByObjectVersion
1070
     0
  0
VISUALSTYLE
  5
36
102
{ACAD_REACTORS
330
2A
102
}
102
{ACAD_XDICTIONARY
360
15E
102
}
330
2A
100
AcDbVisualStyle
  2
Brighten
 70
    12
 71
     2
 72
     2
 73
     0
 90
        0
 40
-0.6
 41
-30.0
 62
     5
 63
     7
 74
     1
 91
        4
 64
     7
 65
   257
 75
     1
175
     1
 42
1.0
 92
        8
 66
     7
 43
1.0
 76
     1
 77
     6
 78
     2
 67
     7
 79
     5
170
     0
171
     0
290
     0
174
     0
 93
        1
 44
50.0
173
     0
291
     1
 45
0.0
1001
ACAD
1000
AcDbSavedByObjectVersion
1070
     0
  0
VISUALSTYLE
  5
3A
102
{ACAD_REACTORS
330
2A
102
}
102
{ACAD_XDICTIONARY
360
166
102
}
330
2A
100
AcDbVisualStyle
  2
ColorChange
 70
    16
 71
     2
 72
     2
 73
     3
 90
        0
 40
-0.6
 41
-30.0
 62
     5
 63
     8
 74
     1
 91
        4
 64
     7
 65
   257
 75
     1
175
     1
 42
1.0
 92
        8
 66
     8
 43
1.0
 76
     1
 77
     6
 78
     2
 67
     7
 79
     5
170
     0
171
     0
290
     0
174
     0
 93
        1
 44
0.0
173
     0
291
     1
 45
0.0
1001
ACAD
1000
AcDbSavedByObjectVersion
1070
     0
  0
VISUALSTYLE
  5
34
102
{ACAD_REACTORS
330
2A
102
}
102
{ACAD_XDICTIONARY
360
15A
102
}
330
2A
100
AcDbVisualStyle
  2
Conceptual
 70
     9
 71
     3
 72
     2
 73
     0
 90
        0
 40
-0.6
 41
-30.0
 62
     5
 63
     7
 74
     2
 91
        2
 64
     7
 65
   257
 75
     1
175
     1
 42
40.0
 92
        8
 66
     7
 43
1.0
 76
     1
 77
     6
 78
     2
 67
     7
 79
     3
170
     0
171
     0
290
     0
174
     0
 93
        1
 44
0.0
173
     0
291
     0
 45
0.0
1001
ACAD
1000
AcDbSavedByObjectVersion
1070
     0
  0
VISUALSTYLE
  5
35
102
{ACAD_REACTORS
330
2A
102
}
102
{ACAD_XDICTIONARY
360
15C
102
}
330
2A
100
AcDbVisualStyle
  2
Dim
 70
    11
 71
     2
 72
     2
 73
     0
 90
        0
 40
-0.6
 41
-30.0
 62
     5
 63
     7
 74
     1
 91
        4
 64
     7
 65
   257
 75
     1
175
     1
 42
1.0
 92
        8
 66
     7
 43
1.0
 76
     1
 77
     6
 78
     2
 67
     7
 79
     5
170
     0
171
     0
290
     0
174
     0
 93
        1
 44
-50.0
173
     0
291
     1
 45
0.0
1001
ACAD
1000
AcDbSavedByObjectVersion
1070
     0
  0
VISUALSTYLE
  5
39
102
{ACAD_REACTORS
330
2A
102
}
102
{ACAD_XDICTIONARY
360
164
102
}
330
2A
100
AcDbVisualStyle
  2
Facepattern
 70
    15
 71
     2
 72
     2
 73
     0
 90
        0
 40
-0.6
 41
-30.0
 62
     5
 63
     7
 74
     1
 91
        4
 64
     7
 65
   257
 75
     1
175
     1
 42
1.0
 92
        8
 66
     7
 43
1.0
 76
     1
 77
     6
 78
     2
 67
     7
 79
     5
170
     0
171
     0
290
     0
174
     0
 93
        1
 44
0.0
173
     0
291
     1
 45
0.0
1001
ACAD
1000
AcDbSavedByObjectVersion
1070
     0
  0
VISUALSTYLE
  5
2B
102
{ACAD_REACTORS
330
2A
102
}
102
{ACAD_XDICTIONARY
360
148
102
}
330
2A
100
AcDbVisualStyle
  2
Flat
 70
     0
 71
     2
 72
     1
 73
     1
 90
        2
 40
-0.6
 41
30.0
 62
     5
 63
     7
 74
     0
 91
        4
 64
     7
 65
   257
 75
     1
175
     1
 42
1.0
 92
        8
 66
     7
 43
1.0
 76
     1
 77
     6
 78
     2
 67
     7
 79
     5
170
     0
171
     0
290
     0
174
     0
 93
       13
 44
0.0
173
     0
291
     1
 45
0.0
1001
ACAD
1000
AcDbSavedByObjectVersion
1070
     0
  0
VISUALSTYLE
  5
2C
102
{ACAD_REACTORS
330
2A
102
}
102
{ACAD_XDICTIONARY
360
14A
102
}
330
2A
100
AcDbVisualStyle
  2
FlatWithEdges
 70
     1
 71
     2
 72
     1
 73
     1
 90
        2
 40
-0.6
 41
30.0
 62
     5
 63
     7
 74
     1
 91
        4
 64
     7
 65
   257
 75
     1
175
     1
 42
1.0
 92
        0
 66
   257
 43
1.0
 76
     1
 77
     6
 78
     2
 67
     7
 79
     5
170
     0
171
     0
290
     0
174
     0
 93
       13
 44
0.0
173
     0
291
     1
 45
0.0
1001
ACAD
1000
AcDbSavedByObjectVersion
1070
     0
  0
VISUALSTYLE
  5
2D
102
{ACAD_REACTORS
330
2A
102
}
102
{ACAD_XDICTIONARY
360
14C
102
}
330
2A
100
AcDbVisualStyle
  2
Gouraud
 70
     2
 71
     2
 72
     2
 73
     1
 90
        2
 40
-0.6
 41
30.0
 62
     5
 63
     7
 74
     0
 91
        4
 64
     7
 65
   257
 75
     1
175
     1
 42
1.0
 92
        0
 66
     7
 43
1.0
 76
     1
 77
     6
 78
     2
 67
     7
 79
     5
170
     0
171
     0
290
     0
174
     0
 93
       13
 44
0.0
173
     0
291
     1
 45
0.0
1001
ACAD
1000
AcDbSavedByObjectVersion
1070
     0
  0
VISUALSTYLE
  5
2E
102
{ACAD_REACTORS
330
2A
102
}
102
{ACAD_XDICTIONARY
360
14E
102
}
330
2A
100
AcDbVisualStyle
  2
GouraudWithEdges
 70
     3
 71
     2
 72
     2
 73
     1
 90
        2
 40
-0.6
 41
30.0
 62
     5
 63
     7
 74
     1
 91
        4
 64
     7
 65
   257
 75
     1
175
     1
 42
1.0
 92
        0
 66
   257
 43
1.0
 76
     1
 77
     6
 78
     2
 67
     7
 79
     5
170
     0
171
     0
290
     0
174
     0
 93
       13
 44
0.0
173
     0
291
     1
 45
0.0
1001
ACAD
1000
AcDbSavedByObjectVersion
1070
     0
  0
VISUALSTYLE
  5
38
102
{ACAD_REACTORS
330
2A
102
}
102
{ACAD_XDICTIONARY
360
162
102
}
330
2A
100
AcDbVisualStyle
  2
Linepattern
 70
    14
 71
     2
 72
     2
 73
     0
 90
        0
 40
-0.6
 41
-30.0
 62
     5
 63
     7
 74
     1
 91
        4
 64
     7
 65
   257
 75
     7
175
     7
 42
1.0
 92
        8
 66
     7
 43
1.0
 76
     1
 77
     6
 78
     2
 67
     7
 79
     5
170
     0
171
     0
290
     0
174
     0
 93
        1
 44
0.0
173
     0
291
     1
 45
0.0
1001
ACAD
1000
AcDbSavedByObjectVersion
1070
     0
  0
VISUALSTYLE
  5
33
102
{ACAD_REACTORS
330
2A
102
}
102
{ACAD_XDICTIONARY
360
158
102
}
330
2A
100
AcDbVisualStyle
  2
Realistic
 70
     8
 71
     2
 72
     2
 73
     0
 90
        0
 40
-0.6
 41
-30.0
 62
     5
 63
     7
 74
     1
 91
        0
 64
     7
 65
   257
 75
     1
175
     1
 42
1.0
 92
        8
 66
     8
 43
1.0
 76
     1
 77
     6
 78
     2
 67
     7
 79
     5
170
     0
171
     0
290
     0
174
     0
 93
       13
 44
0.0
173
     0
291
     0
 45
0.0
1001
ACAD
1000
AcDbSavedByObjectVersion
1070
     0
  0
VISUALSTYLE
  5
37
102
{ACAD_REACTORS
330
2A
102
}
102
{ACAD_XDICTIONARY
360
160
102
}
330
2A
100
AcDbVisualStyle
  2
Thicken
 70
    13
 71
     2
 72
     2
 73
     0
 90
        0
 40
-0.6
 41
-30.0
 62
     5
 63
     7
 74
     1
 91
        4
 64
     7
 65
   257
 75
     1
175
     1
 42
1.0
 92
       12
 66
     7
 43
1.0
 76
     1
 77
     6
 78
     2
 67
     7
 79
     5
170
     0
171
     0
290
     0
174
     0
 93
        1
 44
0.0
173
     0
291
     1
 45
0.0
1001
ACAD
1000
AcDbSavedByObjectVersion
1070
     0
  0
DICTIONARYVAR
  5
146
102
{ACAD_REACTORS
330
143
102
}
330
143
100
DictionaryVariables
280
     0
  1
2
  0
DICTIONARYVAR
  5
147
102
{ACAD_REACTORS
330
143
102
}
330
143
100
DictionaryVariables
280
     0
  1
1
  0
DICTIONARY
  5
16A
330
3D
100
AcDbDictionary
280
     1
281
     1
  3
ACAD_XREC_ROUNDTRIP
360
16B
  0
DICTIONARY
  5
168
330
3C
100
AcDbDictionary
280
     1
281
     1
  3
ACAD_XREC_ROUNDTRIP
360
169
  0
DICTIONARY
  5
16C
330
3E
100
AcDbDictionary
280
     1
281
     1
  3
ACAD_XREC_ROUNDTRIP
360
16D
  0
DICTIONARY
  5
150
330
2F
100
AcDbDictionary
280
     1
281
     1
  3
ACAD_XREC_ROUNDTRIP
360
151
  0
DICTIONARY
  5
154
330
31
100
AcDbDictionary
280
     1
281
     1
  3
ACAD_XREC_ROUNDTRIP
360
155
  0
DICTIONARY
  5
152
330
30
100
AcDbDictionary
280
     1
281
     1
  3
ACAD_XREC_ROUNDTRIP
360
153
  0
DICTIONARY
  5
156
330
32
100
AcDbDictionary
280
     1
281
     1
  3
ACAD_XREC_ROUNDTRIP
360
157
  0
DICTIONARY
  5
15E
330
36
100
AcDbDictionary
280
     1
281
     1
  3
ACAD_XREC_ROUNDTRIP
360
15F
  0
DICTIONARY
  5
166
330
3A
100
AcDbDictionary
280
     1
281
     1
  3
ACAD_XREC_ROUNDTRIP
360
167
  0
DICTIONARY
  5
15A
330
34
100
AcDbDictionary
280
     1
281
     1
  3
ACAD_XREC_ROUNDTRIP
360
15B
  0
DICTIONARY
  5
15C
330
35
100
AcDbDictionary
280
     1
281
     1
  3
ACAD_XREC_ROUNDTRIP
360
15D
  0
DICTIONARY
  5
164
330
39
100
AcDbDictionary
280
     1
281
     1
  3
ACAD_XREC_ROUNDTRIP
360
165
  0
DICTIONARY
  5
148
330
2B
100
AcDbDictionary
280
     1
281
     1
  3
ACAD_XREC_ROUNDTRIP
360
149
  0
DICTIONARY
  5
14A
330
2C
100
AcDbDictionary
280
     1
281
     1
  3
ACAD_XREC_ROUNDTRIP
360
14B
  0
DICTIONARY
  5
14C
330
2D
100
AcDbDictionary
280
     1
281
     1
  3
ACAD_XREC_ROUNDTRIP
360
14D
  0
DICTIONARY
  5
14E
330
2E
100
AcDbDictionary
280
     1
281
     1
  3
ACAD_XREC_ROUNDTRIP
360
14F
  0
DICTIONARY
  5
162
330
38
100
AcDbDictionary
280
     1
281
     1
  3
ACAD_XREC_ROUNDTRIP
360
163
  0
DICTIONARY
  5
158
330
33
100
AcDbDictionary
280
     1
281
     1
  3
ACAD_XREC_ROUNDTRIP
360
159
  0
DICTIONARY
  5
160
330
37
100
AcDbDictionary
280
     1
281
     1
  3
ACAD_XREC_ROUNDTRIP
360
161
  0
XRECORD
  5
16B
102
{ACAD_REACTORS
330
16A
102
}
330
16A
100
AcDbXrecord
280
     1
102
MATERIAL
148
0.0
149
0.0
149
0.0
 93
        0
 94
      127
282
     0
 72
     1
 77
     1
171
     1
175
     1
179
     1
273
     0
  0
XRECORD
  5
169
102
{ACAD_REACTORS
330
168
102
}
330
168
100
AcDbXrecord
280
     1
102
MATERIAL
148
0.0
149
0.0
149
0.0
 93
        0
 94
      127
282
     0
 72
     1
 77
     1
171
     1
175
     1
179
     1
273
     0
  0
XRECORD
  5
16D
102
{ACAD_REACTORS
330
16C
102
}
330
16C
100
AcDbXrecord
280
     1
102
MATERIAL
148
0.0
149
0.0
149
0.0
 93
        0
 94
      127
282
     0
 72
     1
 77
     1
171
     1
175
     1
179
     1
273
     0
  0
XRECORD
  5
151
102
{ACAD_REACTORS
330
150
102
}
330
150
100
AcDbXrecord
280
     1
102
RTVSPropertyOp0
 70
     1
102
RTVSPropertyOp1
 70
     1
102
RTVSPropertyOp2
 70
     1
102
RTVSPropertyOp3
 70
     1
102
RTVSPropertyOp4
 70
     1
102
RTVSPropertyOp5
 70
     1
102
RTVSPropertyOp6
 70
     1
102
RTVSPropertyOp7
 70
     1
102
RTVSPropertyOp8
 70
     1
102
RTVSPropertyOp9
 70
     1
102
RTVSPropertyOp10
 70
     1
102
RTVSPropertyOp11
 70
     1
102
RTVSPropertyOp12
 70
     1
102
RTVSPropertyOp13
 70
     1
102
RTVSPropertyOp14
 70
     1
102
RTVSPropertyOp15
 70
     1
102
RTVSPropertyOp16
 70
     1
102
RTVSPropertyOp17
 70
     1
102
RTVSPropertyOp18
 70
     1
102
RTVSPropertyOp19
 70
     1
102
RTVSPropertyOp20
 70
     1
102
RTVSPropertyOp21
 70
     1
102
RTVSPropertyOp22
 70
     1
102
RTVSPropertyOp23
 70
     1
102
RTVSPropertyOp24
 70
     1
102
RTVSPropertyOp25
 70
     1
102
RTVSPropertyOp26
 70
     1
102
RTVSPropertyOp27
 70
     1
102
RTVSPropertyOp28
 70
     1
102
RTVSPropertyOp29
 70
     1
102
RTVSPropertyOp30
 70
     1
102
RTVSPropertyOp31
 70
     1
102
RTVSPropertyOp32
 70
     1
  0
XRECORD
  5
155
102
{ACAD_REACTORS
330
154
102
}
330
154
100
AcDbXrecord
280
     1
102
RTVSPropertyOp0
 70
     1
102
RTVSPropertyOp1
 70
     1
102
RTVSPropertyOp2
 70
     1
102
RTVSPropertyOp3
 70
     1
102
RTVSPropertyOp4
 70
     1
102
RTVSPropertyOp5
 70
     1
102
RTVSPropertyOp6
 70
     1
102
RTVSPropertyOp7
 70
     1
102
RTVSPropertyOp8
 70
     1
102
RTVSPropertyOp9
 70
     1
102
RTVSPropertyOp10
 70
     1
102
RTVSPropertyOp11
 70
     1
102
RTVSPropertyOp12
 70
     1
102
RTVSPropertyOp13
 70
     1
102
RTVSPropertyOp14
 70
     1
102
RTVSPropertyOp15
 70
     1
102
RTVSPropertyOp16
 70
     1
102
RTVSPropertyOp17
 70
     1
102
RTVSPropertyOp18
 70
     1
102
RTVSPropertyOp19
 70
     1
102
RTVSPropertyOp20
 70
     1
102
RTVSPropertyOp21
 70
     1
102
RTVSPropertyOp22
 70
     1
102
RTVSPropertyOp23
 70
     1
102
RTVSPropertyOp24
 70
     1
102
RTVSPropertyOp25
 70
     1
102
RTVSPropertyOp26
 70
     1
102
RTVSPropertyOp27
 70
     1
102
RTVSPropertyOp28
 70
     1
102
RTVSPropertyOp29
 70
     1
102
RTVSPropertyOp30
 70
     1
102
RTVSPropertyOp31
 70
     1
102
RTVSPropertyOp32
 70
     1
  0
XRECORD
  5
153
102
{ACAD_REACTORS
330
152
102
}
330
152
100
AcDbXrecord
280
     1
102
RTVSPropertyOp0
 70
     1
102
RTVSPropertyOp1
 70
     1
102
RTVSPropertyOp2
 70
     1
102
RTVSPropertyOp3
 70
     1
102
RTVSPropertyOp4
 70
     1
102
RTVSPropertyOp5
 70
     1
102
RTVSPropertyOp6
 70
     1
102
RTVSPropertyOp7
 70
     1
102
RTVSPropertyOp8
 70
     1
102
RTVSPropertyOp9
 70
     1
102
RTVSPropertyOp10
 70
     1
102
RTVSPropertyOp11
 70
     1
102
RTVSPropertyOp12
 70
     1
102
RTVSPropertyOp13
 70
     1
102
RTVSPropertyOp14
 70
     1
102
RTVSPropertyOp15
 70
     1
102
RTVSPropertyOp16
 70
     1
102
RTVSPropertyOp17
 70
     1
102
RTVSPropertyOp18
 70
     1
102
RTVSPropertyOp19
 70
     1
102
RTVSPropertyOp20
 70
     1
102
RTVSPropertyOp21
 70
     1
102
RTVSPropertyOp22
 70
     1
102
RTVSPropertyOp23
 70
     1
102
RTVSPropertyOp24
 70
     1
102
RTVSPropertyOp25
 70
     1
102
RTVSPropertyOp26
 70
     1
102
RTVSPropertyOp27
 70
     1
102
RTVSPropertyOp28
 70
     1
102
RTVSPropertyOp29
 70
     1
102
RTVSPropertyOp30
 70
     1
102
RTVSPropertyOp31
 70
     1
102
RTVSPropertyOp32
 70
     1
  0
XRECORD
  5
157
102
{ACAD_REACTORS
330
156
102
}
330
156
100
AcDbXrecord
280
     1
102
RTVSPropertyOp0
 70
     1
102
RTVSPropertyOp1
 70
     1
102
RTVSPropertyOp2
 70
     1
102
RTVSPropertyOp3
 70
     1
102
RTVSPropertyOp4
 70
     1
102
RTVSPropertyOp5
 70
     1
102
RTVSPropertyOp6
 70
     1
102
RTVSPropertyOp7
 70
     1
102
RTVSPropertyOp8
 70
     1
102
RTVSPropertyOp9
 70
     1
102
RTVSPropertyOp10
 70
     1
102
RTVSPropertyOp11
 70
     1
102
RTVSPropertyOp12
 70
     1
102
RTVSPropertyOp13
 70
     1
102
RTVSPropertyOp14
 70
     1
102
RTVSPropertyOp15
 70
     1
102
RTVSPropertyOp16
 70
     1
102
RTVSPropertyOp17
 70
     1
102
RTVSPropertyOp18
 70
     1
102
RTVSPropertyOp19
 70
     1
102
RTVSPropertyOp20
 70
     1
102
RTVSPropertyOp21
 70
     1
102
RTVSPropertyOp22
 70
     1
102
RTVSPropertyOp23
 70
     1
102
RTVSPropertyOp24
 70
     1
102
RTVSPropertyOp25
 70
     1
102
RTVSPropertyOp26
 70
     1
102
RTVSPropertyOp27
 70
     1
102
RTVSPropertyOp28
 70
     1
102
RTVSPropertyOp29
 70
     1
102
RTVSPropertyOp30
 70
     1
102
RTVSPropertyOp31
 70
     1
102
RTVSPropertyOp32
 70
     1
  0
XRECORD
  5
15F
102
{ACAD_REACTORS
330
15E
102
}
330
15E
100
AcDbXrecord
280
     1
102
RTVSPropertyOp0
 70
     1
102
RTVSPropertyOp1
 70
     1
102
RTVSPropertyOp2
 70
     1
102
RTVSPropertyOp3
 70
     1
102
RTVSPropertyOp4
 70
     1
102
RTVSPropertyOp5
 70
     1
102
RTVSPropertyOp6
 70
     1
102
RTVSPropertyOp7
 70
     1
102
RTVSPropertyOp8
 70
     1
102
RTVSPropertyOp9
 70
     1
102
RTVSPropertyOp10
 70
     1
102
RTVSPropertyOp11
 70
     1
102
RTVSPropertyOp12
 70
     1
102
RTVSPropertyOp13
 70
     1
102
RTVSPropertyOp14
 70
     1
102
RTVSPropertyOp15
 70
     1
102
RTVSPropertyOp16
 70
     1
102
RTVSPropertyOp17
 70
     1
102
RTVSPropertyOp18
 70
     1
102
RTVSPropertyOp19
 70
     1
102
RTVSPropertyOp20
 70
     1
102
RTVSPropertyOp21
 70
     1
102
RTVSPropertyOp22
 70
     1
102
RTVSPropertyOp23
 70
     1
102
RTVSPropertyOp24
 70
     1
102
RTVSPropertyOp25
 70
     1
102
RTVSPropertyOp26
 70
     1
102
RTVSPropertyOp27
 70
     1
102
RTVSPropertyOp28
 70
     1
102
RTVSPropertyOp29
 70
     1
102
RTVSPropertyOp30
 70
     1
102
RTVSPropertyOp31
 70
     1
102
RTVSPropertyOp32
 70
     1
  0
XRECORD
  5
167
102
{ACAD_REACTORS
330
166
102
}
330
166
100
AcDbXrecord
280
     1
102
RTVSPropertyOp0
 70
     1
102
RTVSPropertyOp1
 70
     1
102
RTVSPropertyOp2
 70
     1
102
RTVSPropertyOp3
 70
     1
102
RTVSPropertyOp4
 70
     1
102
RTVSPropertyOp5
 70
     1
102
RTVSPropertyOp6
 70
     1
102
RTVSPropertyOp7
 70
     1
102
RTVSPropertyOp8
 70
     1
102
RTVSPropertyOp9
 70
     1
102
RTVSPropertyOp10
 70
     1
102
RTVSPropertyOp11
 70
     1
102
RTVSPropertyOp12
 70
     1
102
RTVSPropertyOp13
 70
     1
102
RTVSPropertyOp14
 70
     1
102
RTVSPropertyOp15
 70
     1
102
RTVSPropertyOp16
 70
     1
102
RTVSPropertyOp17
 70
     1
102
RTVSPropertyOp18
 70
     1
102
RTVSPropertyOp19
 70
     1
102
RTVSPropertyOp20
 70
     1
102
RTVSPropertyOp21
 70
     1
102
RTVSPropertyOp22
 70
     1
102
RTVSPropertyOp23
 70
     1
102
RTVSPropertyOp24
 70
     1
102
RTVSPropertyOp25
 70
     1
102
RTVSPropertyOp26
 70
     1
102
RTVSPropertyOp27
 70
     1
102
RTVSPropertyOp28
 70
     1
102
RTVSPropertyOp29
 70
     1
102
RTVSPropertyOp30
 70
     1
102
RTVSPropertyOp31
 70
     1
102
RTVSPropertyOp32
 70
     1
  0
XRECORD
  5
15B
102
{ACAD_REACTORS
330
15A
102
}
330
15A
100
AcDbXrecord
280
     1
102
RTVSPropertyOp0
 70
     1
102
RTVSPropertyOp1
 70
     1
102
RTVSPropertyOp2
 70
     1
102
RTVSPropertyOp3
 70
     1
102
RTVSPropertyOp4
 70
     1
102
RTVSPropertyOp5
 70
     1
102
RTVSPropertyOp6
 70
     1
102
RTVSPropertyOp7
 70
     1
102
RTVSPropertyOp8
 70
     1
102
RTVSPropertyOp9
 70
     1
102
RTVSPropertyOp10
 70
     1
102
RTVSPropertyOp11
 70
     1
102
RTVSPropertyOp12
 70
     1
102
RTVSPropertyOp13
 70
     1
102
RTVSPropertyOp14
 70
     1
102
RTVSPropertyOp15
 70
     1
102
RTVSPropertyOp16
 70
     1
102
RTVSPropertyOp17
 70
     1
102
RTVSPropertyOp18
 70
     1
102
RTVSPropertyOp19
 70
     1
102
RTVSPropertyOp20
 70
     1
102
RTVSPropertyOp21
 70
     1
102
RTVSPropertyOp22
 70
     1
102
RTVSPropertyOp23
 70
     1
102
RTVSPropertyOp24
 70
     1
102
RTVSPropertyOp25
 70
     1
102
RTVSPropertyOp26
 70
     1
102
RTVSPropertyOp27
 70
     1
102
RTVSPropertyOp28
 70
     1
102
RTVSPropertyOp29
 70
     1
102
RTVSPropertyOp30
 70
     1
102
RTVSPropertyOp31
 70
     1
102
RTVSPropertyOp32
 70
     1
  0
XRECORD
  5
15D
102
{ACAD_REACTORS
330
15C
102
}
330
15C
100
AcDbXrecord
280
     1
102
RTVSPropertyOp0
 70
     1
102
RTVSPropertyOp1
 70
     1
102
RTVSPropertyOp2
 70
     1
102
RTVSPropertyOp3
 70
     1
102
RTVSPropertyOp4
 70
     1
102
RTVSPropertyOp5
 70
     1
102
RTVSPropertyOp6
 70
     1
102
RTVSPropertyOp7
 70
     1
102
RTVSPropertyOp8
 70
     1
102
RTVSPropertyOp9
 70
     1
102
RTVSPropertyOp10
 70
     1
102
RTVSPropertyOp11
 70
     1
102
RTVSPropertyOp12
 70
     1
102
RTVSPropertyOp13
 70
     1
102
RTVSPropertyOp14
 70
     1
102
RTVSPropertyOp15
 70
     1
102
RTVSPropertyOp16
 70
     1
102
RTVSPropertyOp17
 70
     1
102
RTVSPropertyOp18
 70
     1
102
RTVSPropertyOp19
 70
     1
102
RTVSPropertyOp20
 70
     1
102
RTVSPropertyOp21
 70
     1
102
RTVSPropertyOp22
 70
     1
102
RTVSPropertyOp23
 70
     1
102
RTVSPropertyOp24
 70
     1
102
RTVSPropertyOp25
 70
     1
102
RTVSPropertyOp26
 70
     1
102
RTVSPropertyOp27
 70
     1
102
RTVSPropertyOp28
 70
     1
102
RTVSPropertyOp29
 70
     1
102
RTVSPropertyOp30
 70
     1
102
RTVSPropertyOp31
 70
     1
102
RTVSPropertyOp32
 70
     1
  0
XRECORD
  5
165
102
{ACAD_REACTORS
330
164
102
}
330
164
100
AcDbXrecord
280
     1
102
RTVSPropertyOp0
 70
     1
102
RTVSPropertyOp1
 70
     1
102
RTVSPropertyOp2
 70
     1
102
RTVSPropertyOp3
 70
     1
102
RTVSPropertyOp4
 70
     1
102
RTVSPropertyOp5
 70
     1
102
RTVSPropertyOp6
 70
     1
102
RTVSPropertyOp7
 70
     1
102
RTVSPropertyOp8
 70
     1
102
RTVSPropertyOp9
 70
     1
102
RTVSPropertyOp10
 70
     1
102
RTVSPropertyOp11
 70
     1
102
RTVSPropertyOp12
 70
     1
102
RTVSPropertyOp13
 70
     1
102
RTVSPropertyOp14
 70
     1
102
RTVSPropertyOp15
 70
     1
102
RTVSPropertyOp16
 70
     1
102
RTVSPropertyOp17
 70
     1
102
RTVSPropertyOp18
 70
     1
102
RTVSPropertyOp19
 70
     1
102
RTVSPropertyOp20
 70
     1
102
RTVSPropertyOp21
 70
     1
102
RTVSPropertyOp22
 70
     1
102
RTVSPropertyOp23
 70
     1
102
RTVSPropertyOp24
 70
     1
102
RTVSPropertyOp25
 70
     1
102
RTVSPropertyOp26
 70
     1
102
RTVSPropertyOp27
 70
     1
102
RTVSPropertyOp28
 70
     1
102
RTVSPropertyOp29
 70
     1
102
RTVSPropertyOp30
 70
     1
102
RTVSPropertyOp31
 70
     1
102
RTVSPropertyOp32
 70
     1
  0
XRECORD
  5
149
102
{ACAD_REACTORS
330
148
102
}
330
148
100
AcDbXrecord
280
     1
102
RTVSPropertyOp0
 70
     1
102
RTVSPropertyOp1
 70
     1
102
RTVSPropertyOp2
 70
     1
102
RTVSPropertyOp3
 70
     1
102
RTVSPropertyOp4
 70
     1
102
RTVSPropertyOp5
 70
     1
102
RTVSPropertyOp6
 70
     1
102
RTVSPropertyOp7
 70
     1
102
RTVSPropertyOp8
 70
     1
102
RTVSPropertyOp9
 70
     1
102
RTVSPropertyOp10
 70
     1
102
RTVSPropertyOp11
 70
     1
102
RTVSPropertyOp12
 70
     1
102
RTVSPropertyOp13
 70
     1
102
RTVSPropertyOp14
 70
     1
102
RTVSPropertyOp15
 70
     1
102
RTVSPropertyOp16
 70
     1
102
RTVSPropertyOp17
 70
     1
102
RTVSPropertyOp18
 70
     1
102
RTVSPropertyOp19
 70
     1
102
RTVSPropertyOp20
 70
     1
102
RTVSPropertyOp21
 70
     1
102
RTVSPropertyOp22
 70
     1
102
RTVSPropertyOp23
 70
     1
102
RTVSPropertyOp24
 70
     1
102
RTVSPropertyOp25
 70
     1
102
RTVSPropertyOp26
 70
     1
102
RTVSPropertyOp27
 70
     1
102
RTVSPropertyOp28
 70
     1
102
RTVSPropertyOp29
 70
     1
102
RTVSPropertyOp30
 70
     1
102
RTVSPropertyOp31
 70
     1
102
RTVSPropertyOp32
 70
     1
  0
XRECORD
  5
14B
102
{ACAD_REACTORS
330
14A
102
}
330
14A
100
AcDbXrecord
280
     1
102
RTVSPropertyOp0
 70
     1
102
RTVSPropertyOp1
 70
     1
102
RTVSPropertyOp2
 70
     1
102
RTVSPropertyOp3
 70
     1
102
RTVSPropertyOp4
 70
     1
102
RTVSPropertyOp5
 70
     1
102
RTVSPropertyOp6
 70
     1
102
RTVSPropertyOp7
 70
     1
102
RTVSPropertyOp8
 70
     1
102
RTVSPropertyOp9
 70
     1
102
RTVSPropertyOp10
 70
     1
102
RTVSPropertyOp11
 70
     1
102
RTVSPropertyOp12
 70
     1
102
RTVSPropertyOp13
 70
     1
102
RTVSPropertyOp14
 70
     1
102
RTVSPropertyOp15
 70
     1
102
RTVSPropertyOp16
 70
     1
102
RTVSPropertyOp17
 70
     1
102
RTVSPropertyOp18
 70
     1
102
RTVSPropertyOp19
 70
     1
102
RTVSPropertyOp20
 70
     1
102
RTVSPropertyOp21
 70
     1
102
RTVSPropertyOp22
 70
     1
102
RTVSPropertyOp23
 70
     1
102
RTVSPropertyOp24
 70
     1
102
RTVSPropertyOp25
 70
     1
102
RTVSPropertyOp26
 70
     1
102
RTVSPropertyOp27
 70
     1
102
RTVSPropertyOp28
 70
     1
102
RTVSPropertyOp29
 70
     1
102
RTVSPropertyOp30
 70
     1
102
RTVSPropertyOp31
 70
     1
102
RTVSPropertyOp32
 70
     1
  0
XRECORD
  5
14D
102
{ACAD_REACTORS
330
14C
102
}
330
14C
100
AcDbXrecord
280
     1
102
RTVSPropertyOp0
 70
     1
102
RTVSPropertyOp1
 70
     1
102
RTVSPropertyOp2
 70
     1
102
RTVSPropertyOp3
 70
     1
102
RTVSPropertyOp4
 70
     1
102
RTVSPropertyOp5
 70
     1
102
RTVSPropertyOp6
 70
     1
102
RTVSPropertyOp7
 70
     1
102
RTVSPropertyOp8
 70
     1
102
RTVSPropertyOp9
 70
     1
102
RTVSPropertyOp10
 70
     1
102
RTVSPropertyOp11
 70
     1
102
RTVSPropertyOp12
 70
     1
102
RTVSPropertyOp13
 70
     1
102
RTVSPropertyOp14
 70
     1
102
RTVSPropertyOp15
 70
     1
102
RTVSPropertyOp16
 70
     1
102
RTVSPropertyOp17
 70
     1
102
RTVSPropertyOp18
 70
     1
102
RTVSPropertyOp19
 70
     1
102
RTVSPropertyOp20
 70
     1
102
RTVSPropertyOp21
 70
     1
102
RTVSPropertyOp22
 70
     1
102
RTVSPropertyOp23
 70
     1
102
RTVSPropertyOp24
 70
     1
102
RTVSPropertyOp25
 70
     1
102
RTVSPropertyOp26
 70
     1
102
RTVSPropertyOp27
 70
     1
102
RTVSPropertyOp28
 70
     1
102
RTVSPropertyOp29
 70
     1
102
RTVSPropertyOp30
 70
     1
102
RTVSPropertyOp31
 70
     1
102
RTVSPropertyOp32
 70
     1
  0
XRECORD
  5
14F
102
{ACAD_REACTORS
330
14E
102
}
330
14E
100
AcDbXrecord
280
     1
102
RTVSPropertyOp0
 70
     1
102
RTVSPropertyOp1
 70
     1
102
RTVSPropertyOp2
 70
     1
102
RTVSPropertyOp3
 70
     1
102
RTVSPropertyOp4
 70
     1
102
RTVSPropertyOp5
 70
     1
102
RTVSPropertyOp6
 70
     1
102
RTVSPropertyOp7
 70
     1
102
RTVSPropertyOp8
 70
     1
102
RTVSPropertyOp9
 70
     1
102
RTVSPropertyOp10
 70
     1
102
RTVSPropertyOp11
 70
     1
102
RTVSPropertyOp12
 70
     1
102
RTVSPropertyOp13
 70
     1
102
RTVSPropertyOp14
 70
     1
102
RTVSPropertyOp15
 70
     1
102
RTVSPropertyOp16
 70
     1
102
RTVSPropertyOp17
 70
     1
102
RTVSPropertyOp18
 70
     1
102
RTVSPropertyOp19
 70
     1
102
RTVSPropertyOp20
 70
     1
102
RTVSPropertyOp21
 70
     1
102
RTVSPropertyOp22
 70
     1
102
RTVSPropertyOp23
 70
     1
102
RTVSPropertyOp24
 70
     1
102
RTVSPropertyOp25
 70
     1
102
RTVSPropertyOp26
 70
     1
102
RTVSPropertyOp27
 70
     1
102
RTVSPropertyOp28
 70
     1
102
RTVSPropertyOp29
 70
     1
102
RTVSPropertyOp30
 70
     1
102
RTVSPropertyOp31
 70
     1
102
RTVSPropertyOp32
 70
     1
  0
XRECORD
  5
163
102
{ACAD_REACTORS
330
162
102
}
330
162
100
AcDbXrecord
280
     1
102
RTVSPropertyOp0
 70
     1
102
RTVSPropertyOp1
 70
     1
102
RTVSPropertyOp2
 70
     1
102
RTVSPropertyOp3
 70
     1
102
RTVSPropertyOp4
 70
     1
102
RTVSPropertyOp5
 70
     1
102
RTVSPropertyOp6
 70
     1
102
RTVSPropertyOp7
 70
     1
102
RTVSPropertyOp8
 70
     1
102
RTVSPropertyOp9
 70
     1
102
RTVSPropertyOp10
 70
     1
102
RTVSPropertyOp11
 70
     1
102
RTVSPropertyOp12
 70
     1
102
RTVSPropertyOp13
 70
     1
102
RTVSPropertyOp14
 70
     1
102
RTVSPropertyOp15
 70
     1
102
RTVSPropertyOp16
 70
     1
102
RTVSPropertyOp17
 70
     1
102
RTVSPropertyOp18
 70
     1
102
RTVSPropertyOp19
 70
     1
102
RTVSPropertyOp20
 70
     1
102
RTVSPropertyOp21
 70
     1
102
RTVSPropertyOp22
 70
     1
102
RTVSPropertyOp23
 70
     1
102
RTVSPropertyOp24
 70
     1
102
RTVSPropertyOp25
 70
     1
102
RTVSPropertyOp26
 70
     1
102
RTVSPropertyOp27
 70
     1
102
RTVSPropertyOp28
 70
     1
102
RTVSPropertyOp29
 70
     1
102
RTVSPropertyOp30
 70
     1
102
RTVSPropertyOp31
 70
     1
102
RTVSPropertyOp32
 70
     1
  0
XRECORD
  5
159
102
{ACAD_REACTORS
330
158
102
}
330
158
100
AcDbXrecord
280
     1
102
RTVSPropertyOp0
 70
     1
102
RTVSPropertyOp1
 70
     1
102
RTVSPropertyOp2
 70
     1
102
RTVSPropertyOp3
 70
     1
102
RTVSPropertyOp4
 70
     1
102
RTVSPropertyOp5
 70
     1
102
RTVSPropertyOp6
 70
     1
102
RTVSPropertyOp7
 70
     1
102
RTVSPropertyOp8
 70
     1
102
RTVSPropertyOp9
 70
     1
102
RTVSPropertyOp10
 70
     1
102
RTVSPropertyOp11
 70
     1
102
RTVSPropertyOp12
 70
     1
102
RTVSPropertyOp13
 70
     1
102
RTVSPropertyOp14
 70
     1
102
RTVSPropertyOp15
 70
     1
102
RTVSPropertyOp16
 70
     1
102
RTVSPropertyOp17
 70
     1
102
RTVSPropertyOp18
 70
     1
102
RTVSPropertyOp19
 70
     1
102
RTVSPropertyOp20
 70
     1
102
RTVSPropertyOp21
 70
     1
102
RTVSPropertyOp22
 70
     1
102
RTVSPropertyOp23
 70
     1
102
RTVSPropertyOp24
 70
     1
102
RTVSPropertyOp25
 70
     1
102
RTVSPropertyOp26
 70
     1
102
RTVSPropertyOp27
 70
     1
102
RTVSPropertyOp28
 70
     1
102
RTVSPropertyOp29
 70
     1
102
RTVSPropertyOp30
 70
     1
102
RTVSPropertyOp31
 70
     1
102
RTVSPropertyOp32
 70
     1
  0
XRECORD
  5
161
102
{ACAD_REACTORS
330
160
102
}
330
160
100
AcDbXrecord
280
     1
102
RTVSPropertyOp0
 70
     1
102
RTVSPropertyOp1
 70
     1
102
RTVSPropertyOp2
 70
     1
102
RTVSPropertyOp3
 70
     1
102
RTVSPropertyOp4
 70
     1
102
RTVSPropertyOp5
 70
     1
102
RTVSPropertyOp6
 70
     1
102
RTVSPropertyOp7
 70
     1
102
RTVSPropertyOp8
 70
     1
102
RTVSPropertyOp9
 70
     1
102
RTVSPropertyOp10
 70
     1
102
RTVSPropertyOp11
 70
     1
102
RTVSPropertyOp12
 70
     1
102
RTVSPropertyOp13
 70
     1
102
RTVSPropertyOp14
 70
     1
102
RTVSPropertyOp15
 70
     1
102
RTVSPropertyOp16
 70
     1
102
RTVSPropertyOp17
 70
     1
102
RTVSPropertyOp18
 70
     1
102
RTVSPropertyOp19
 70
     1
102
RTVSPropertyOp20
 70
     1
102
RTVSPropertyOp21
 70
     1
102
RTVSPropertyOp22
 70
     1
102
RTVSPropertyOp23
 70
     1
102
RTVSPropertyOp24
 70
     1
102
RTVSPropertyOp25
 70
     1
102
RTVSPropertyOp26
 70
     1
102
RTVSPropertyOp27
 70
     1
102
RTVSPropertyOp28
 70
     1
102
RTVSPropertyOp29
 70
     1
102
RTVSPropertyOp30
 70
     1
102
RTVSPropertyOp31
 70
     1
102
RTVSPropertyOp32
 70
     1
  0
ENDSEC
  0
EOF
