  0
SECTION
  2
HEADER
  9
$ACADVER
  1
AC1015
  9
$ACADMAINTVER
 70
     6
  9
$DWGCODEPAGE
  3
ANSI_932
  9
$INSBASE
 10
0.0
 20
0.0
 30
0.0
  9
$EXTMIN
 10
-143.633131801
 20
-83.765489409469
 30
0.0
  9
$EXTMAX
 10
171.3668681990001
 20
361.7345105905314
 30
0.0
  9
$LIMMIN
 10
0.0
 20
0.0
  9
$LIMMAX
 10
12.0
 20
9.0
  9
$ORTHOMODE
 70
     0
  9
$REGENMODE
 70
     1
  9
$FILLMODE
 70
     1
  9
$QTEXTMODE
 70
     0
  9
$MIRRTEXT
 70
     1
  9
$LTSCALE
 40
1.0
  9
$ATTMODE
 70
     1
  9
$TEXTSIZE
 40
0.2
  9
$TRACEWID
 40
0.05
  9
$TEXTSTYLE
  7
Standard
  9
$CLAYER
  8
0
  9
$CELTYPE
  6
ByLayer
  9
$CECOLOR
 62
   256
  9
$CELTSCALE
 40
1.0
  9
$DISPSILH
 70
     0
  9
$DIMSCALE
 40
1.0
  9
$DIMASZ
 40
0.18
  9
$DIMEXO
 40
0.0625
  9
$DIMDLI
 40
0.38
  9
$DIMRND
 40
0.0
  9
$DIMDLE
 40
0.0
  9
$DIMEXE
 40
0.18
  9
$DIMTP
 40
0.0
  9
$DIMTM
 40
0.0
  9
$DIMTXT
 40
0.18
  9
$DIMCEN
 40
0.09
  9
$DIMTSZ
 40
0.0
  9
$DIMTOL
 70
     0
  9
$DIMLIM
 70
     0
  9
$DIMTIH
 70
     1
  9
$DIMTOH
 70
     1
  9
$DIMSE1
 70
     0
  9
$DIMSE2
 70
     0
  9
$DIMTAD
 70
     0
  9
$DIMZIN
 70
     0
  9
$DIMBLK
  1

  9
$DIMASO
 70
     1
  9
$DIMSHO
 70
     1
  9
$DIMPOST
  1

  9
$DIMAPOST
  1

  9
$DIMALT
 70
     0
  9
$DIMALTD
 70
     2
  9
$DIMALTF
 40
25.4
  9
$DIMLFAC
 40
1.0
  9
$DIMTOFL
 70
     0
  9
$DIMTVP
 40
0.0
  9
$DIMTIX
 70
     0
  9
$DIMSOXD
 70
     0
  9
$DIMSAH
 70
     0
  9
$DIMBLK1
  1

  9
$DIMBLK2
  1

  9
$DIMSTYLE
  2
Standard
  9
$DIMCLRD
 70
     0
  9
$DIMCLRE
 70
     0
  9
$DIMCLRT
 70
     0
  9
$DIMTFAC
 40
1.0
  9
$DIMGAP
 40
0.09
  9
$DIMJUST
 70
     0
  9
$DIMSD1
 70
     0
  9
$DIMSD2
 70
     0
  9
$DIMTOLJ
 70
     1
  9
$DIMTZIN
 70
     0
  9
$DIMALTZ
 70
     0
  9
$DIMALTTZ
 70
     0
  9
$DIMUPT
 70
     0
  9
$DIMDEC
 70
     4
  9
$DIMTDEC
 70
     4
  9
$DIMALTU
 70
     2
  9
$DIMALTTD
 70
     2
  9
$DIMTXSTY
  7
Standard
  9
$DIMAUNIT
 70
     0
  9
$DIMADEC
 70
     0
  9
$DIMALTRND
 40
0.0
  9
$DIMAZIN
 70
     0
  9
$DIMDSEP
 70
    46
  9
$DIMATFIT
 70
     3
  9
$DIMFRAC
 70
     0
  9
$DIMLDRBLK
  1

  9
$DIMLUNIT
 70
     2
  9
$DIMLWD
 70
    -2
  9
$DIMLWE
 70
    -2
  9
$DIMTMOVE
 70
     0
  9
$LUNITS
 70
     2
  9
$LUPREC
 70
     4
  9
$SKETCHINC
 40
0.1
  9
$FILLETRAD
 40
0.5
  9
$AUNITS
 70
     0
  9
$AUPREC
 70
     0
  9
$MENU
  1
.
  9
$ELEVATION
 40
0.0
  9
$PELEVATION
 40
0.0
  9
$THICKNESS
 40
0.0
  9
$LIMCHECK
 70
     0
  9
$CHAMFERA
 40
0.5
  9
$CHAMFERB
 40
0.5
  9
$CHAMFERC
 40
1.0
  9
$CHAMFERD
 40
0.0
  9
$SKPOLY
 70
     0
  9
$TDCREATE
 40
2459319.358152222
  9
$TDUCREATE
 40
2459318.983152222
  9
$TDUPDATE
 40
2459319.358154931
  9
$TDUUPDATE
 40
2459318.983154931
  9
$TDINDWG
 40
0.0000000116
  9
$TDUSRTIMER
 40
0.0000000116
  9
$USRTIMER
 70
     1
  9
$ANGBASE
 50
0.0
  9
$ANGDIR
 70
     0
  9
$PDMODE
 70
     0
  9
$PDSIZE
 40
0.0
  9
$PLINEWID
 40
0.0
  9
$SPLFRAME
 70
     0
  9
$SPLINETYPE
 70
     6
  9
$SPLINESEGS
 70
     8
  9
$HANDSEED
  5
25A
  9
$SURFTAB1
 70
     6
  9
$SURFTAB2
 70
     6
  9
$SURFTYPE
 70
     6
  9
$SURFU
 70
     6
  9
$SURFV
 70
     6
  9
$UCSBASE
  2

  9
$UCSNAME
  2

  9
$UCSORG
 10
0.0
 20
0.0
 30
0.0
  9
$UCSXDIR
 10
1.0
 20
0.0
 30
0.0
  9
$UCSYDIR
 10
0.0
 20
1.0
 30
0.0
  9
$UCSORTHOREF
  2

  9
$UCSORTHOVIEW
 70
     0
  9
$UCSORGTOP
 10
0.0
 20
0.0
 30
0.0
  9
$UCSORGBOTTOM
 10
0.0
 20
0.0
 30
0.0
  9
$UCSORGLEFT
 10
0.0
 20
0.0
 30
0.0
  9
$UCSORGRIGHT
 10
0.0
 20
0.0
 30
0.0
  9
$UCSORGFRONT
 10
0.0
 20
0.0
 30
0.0
  9
$UCSORGBACK
 10
0.0
 20
0.0
 30
0.0
  9
$PUCSBASE
  2

  9
$PUCSNAME
  2

  9
$PUCSORG
 10
0.0
 20
0.0
 30
0.0
  9
$PUCSXDIR
 10
1.0
 20
0.0
 30
0.0
  9
$PUCSYDIR
 10
0.0
 20
1.0
 30
0.0
  9
$PUCSORTHOREF
  2

  9
$PUCSORTHOVIEW
 70
     0
  9
$PUCSORGTOP
 10
0.0
 20
0.0
 30
0.0
  9
$PUCSORGBOTTOM
 10
0.0
 20
0.0
 30
0.0
  9
$PUCSORGLEFT
 10
0.0
 20
0.0
 30
0.0
  9
$PUCSORGRIGHT
 10
0.0
 20
0.0
 30
0.0
  9
$PUCSORGFRONT
 10
0.0
 20
0.0
 30
0.0
  9
$PUCSORGBACK
 10
0.0
 20
0.0
 30
0.0
  9
$USERI1
 70
     0
  9
$USERI2
 70
     0
  9
$USERI3
 70
     0
  9
$USERI4
 70
     0
  9
$USERI5
 70
     0
  9
$USERR1
 40
18.1
  9
$USERR2
 40
0.0
  9
$USERR3
 40
0.0
  9
$USERR4
 40
0.0
  9
$USERR5
 40
0.0
  9
$WORLDVIEW
 70
     1
  9
$SHADEDGE
 70
     3
  9
$SHADEDIF
 70
    70
  9
$TILEMODE
 70
     1
  9
$MAXACTVP
 70
    64
  9
$PINSBASE
 10
0.0
 20
0.0
 30
0.0
  9
$PLIMCHECK
 70
     0
  9
$PEXTMIN
 10
1.00000000000000E+20
 20
1.00000000000000E+20
 30
1.00000000000000E+20
  9
$PEXTMAX
 10
-1.00000000000000E+20
 20
-1.00000000000000E+20
 30
-1.00000000000000E+20
  9
$PLIMMIN
 10
0.0
 20
0.0
  9
$PLIMMAX
 10
12.0
 20
9.0
  9
$UNITMODE
 70
     0
  9
$VISRETAIN
 70
     1
  9
$PLINEGEN
 70
     0
  9
$PSLTSCALE
 70
     1
  9
$TREEDEPTH
 70
  3020
  9
$CMLSTYLE
  2
Standard
  9
$CMLJUST
 70
     0
  9
$CMLSCALE
 40
1.0
  9
$PROXYGRAPHICS
 70
     1
  9
$MEASUREMENT
 70
     1
  9
$CELWEIGHT
370
    -1
  9
$ENDCAPS
280
     0
  9
$JOINSTYLE
280
     0
  9
$LWDISPLAY
290
     0
  9
$INSUNITS
 70
     4
  9
$HYPERLINKBASE
  1

  9
$STYLESHEET
  1

  9
$XEDIT
290
     1
  9
$CEPSNTYPE
380
     0
  9
$PSTYLEMODE
290
     1
  9
$FINGERPRINTGUID
  2
{68F7ED20-CE0B-49D9-93AC-49832F732046}
  9
$VERSIONGUID
  2
{FAEB1C32-E019-11D5-929B-00C0DF256EC4}
  9
$EXTNAMES
290
     1
  9
$PSVPSCALE
 40
0.0
  9
$OLESTARTUP
290
     0
  0
ENDSEC
  0
SECTION
  2
CLASSES
  0
CLASS
  1
ACDBDICTIONARYWDFLT
  2
AcDbDictionaryWithDefault
  3
ObjectDBX Classes
 90
        0
280
     0
281
     0
  0
CLASS
  1
VISUALSTYLE
  2
AcDbVisualStyle
  3
ObjectDBX Classes
 90
     4095
280
     0
281
     0
  0
CLASS
  1
MATERIAL
  2
AcDbMaterial
  3
ObjectDBX Classes
 90
     1153
280
     0
281
     0
  0
CLASS
  1
DICTIONARYVAR
  2
AcDbDictionaryVar
  3
ObjectDBX Classes
 90
        0
280
     0
281
     0
  0
CLASS
  1
ACDBPLACEHOLDER
  2
AcDbPlaceHolder
  3
ObjectDBX Classes
 90
        0
280
     0
281
     0
  0
CLASS
  1
LAYOUT
  2
AcDbLayout
  3
ObjectDBX Classes
 90
        0
280
     0
281
     0
  0
ENDSEC
  0
SECTION
  2
TABLES
  0
TABLE
  2
VPORT
  5
8
330
0
100
AcDbSymbolTable
 70
     1
  0
VPORT
  5
29
330
8
100
AcDbSymbolTableRecord
100
AcDbViewportTableRecord
  2
*Active
 70
     0
 10
0.0
 20
0.0
 11
1.0
 21
1.0
 12
13.86686819900005
 22
138.9845105905312
 13
0.0
 23
0.0
 14
0.5
 24
0.5
 15
0.5
 25
0.5
 16
0.0
 26
0.0
 36
1.0
 17
0.0
 27
0.0
 37
0.0
 40
490.0500000000005
 41
1.60267857142857
 42
50.0
 43
0.0
 44
0.0
 50
0.0
 51
0.0
 71
     0
 72
   100
 73
     1
 74
     3
 75
     0
 76
     0
 77
     0
 78
     0
281
     0
 65
     1
110
0.0
120
0.0
130
0.0
111
1.0
121
0.0
131
0.0
112
0.0
122
1.0
132
0.0
 79
     0
146
0.0
  0
ENDTAB
  0
TABLE
  2
LTYPE
  5
5
330
0
100
AcDbSymbolTable
 70
     8
  0
LTYPE
  5
14
330
5
100
AcDbSymbolTableRecord
100
AcDbLinetypeTableRecord
  2
ByBlock
 70
     0
  3

 72
    65
 73
     0
 40
0.0
  0
LTYPE
  5
15
330
5
100
AcDbSymbolTableRecord
100
AcDbLinetypeTableRecord
  2
ByLayer
 70
     0
  3

 72
    65
 73
     0
 40
0.0
  0
LTYPE
  5
16
330
5
100
AcDbSymbolTableRecord
100
AcDbLinetypeTableRecord
  2
Continuous
 70
     0
  3
Solid line
 72
    65
 73
     0
 40
0.0
  0
LTYPE
  5
3F
330
5
100
AcDbSymbolTableRecord
100
AcDbLinetypeTableRecord
  2
DASHED
 70
     0
  3
Dashed
 72
    65
 73
     2
 40
15.0
 49
7.0
 74
     0
 49
-8.0
 74
     0
  0
LTYPE
  5
40
330
5
100
AcDbSymbolTableRecord
100
AcDbLinetypeTableRecord
  2
DOTTED
 70
     0
  3
Dotted
 72
    65
 73
     2
 40
1.0
 49
0.0
 74
     0
 49
-1.0
 74
     0
  0
LTYPE
  5
41
330
5
100
AcDbSymbolTableRecord
100
AcDbLinetypeTableRecord
  2
DOT_CENTER
 70
     0
  3
Dot_Center
 72
    65
 73
     4
 40
14.0
 49
12.0
 74
     0
 49
-1.0
 74
     0
 49
0.0
 74
     0
 49
-1.0
 74
     0
  0
LTYPE
  5
42
330
5
100
AcDbSymbolTableRecord
100
AcDbLinetypeTableRecord
  2
LONG_DASHED
 70
     0
  3
Long_Dashed
 72
    65
 73
     2
 40
15.0
 49
10.0
 74
     0
 49
-5.0
 74
     0
  0
LTYPE
  5
43
330
5
100
AcDbSymbolTableRecord
100
AcDbLinetypeTableRecord
  2
DASH_CENTER
 70
     0
  3
Dash_Center
 72
    65
 73
     4
 40
14.0
 49
11.0
 74
     0
 49
-1.0
 74
     0
 49
1.0
 74
     0
 49
-1.0
 74
     0
  0
LTYPE
  5
44
330
5
100
AcDbSymbolTableRecord
100
AcDbLinetypeTableRecord
  2
PHANTOM
 70
     0
  3
Phantom
 72
    65
 73
     6
 40
13.0
 49
10.0
 74
     0
 49
-1.0
 74
     0
 49
0.0
 74
     0
 49
-1.0
 74
     0
 49
0.0
 74
     0
 49
-1.0
 74
     0
  0
LTYPE
  5
45
330
5
100
AcDbSymbolTableRecord
100
AcDbLinetypeTableRecord
  2
CENTER_DASH_DASH
 70
     0
  3
Center_Dash_Dash
 72
    65
 73
     6
 40
14.0
 49
9.0
 74
     0
 49
-1.0
 74
     0
 49
1.0
 74
     0
 49
-1.0
 74
     0
 49
1.0
 74
     0
 49
-1.0
 74
     0
  0
ENDTAB
  0
TABLE
  2
LAYER
  5
2
330
0
100
AcDbSymbolTable
 70
     2
  0
LAYER
  5
10
330
2
100
AcDbSymbolTableRecord
100
AcDbLayerTableRecord
  2
0
 70
     0
 62
     7
  6
Continuous
370
    -3
390
F
  0
LAYER
  5
46
330
2
100
AcDbSymbolTableRecord
100
AcDbLayerTableRecord
  2
1
 70
     0
 62
     7
  6
Continuous
370
    -3
390
F
  0
ENDTAB
  0
TABLE
  2
STYLE
  5
3
330
0
100
AcDbSymbolTable
 70
     3
  0
STYLE
  5
11
330
3
100
AcDbSymbolTableRecord
100
AcDbTextStyleTableRecord
  2
Standard
 70
     0
 40
0.0
 41
1.0
 50
0.0
 71
     0
 42
0.2
  3
txt
  4

  0
STYLE
  5
6B
330
3
100
AcDbSymbolTableRecord
100
AcDbTextStyleTableRecord
  2
CONVERTER_11
 70
     0
 40
0.0
 41
0.9
 50
0.0
 71
     0
 42
0.2
  3
txt.shx
  4

  0
STYLE
  5
6F
330
3
100
AcDbSymbolTableRecord
100
AcDbTextStyleTableRecord
  2
CONVERTER_12
 70
     0
 40
0.0
 41
0.89
 50
0.0
 71
     0
 42
0.2
  3
MS Mincho.ttf
  4

1001
ACAD
1000
MS Mincho
1071
    32785
  0
ENDTAB
  0
TABLE
  2
VIEW
  5
6
330
0
100
AcDbSymbolTable
 70
     0
  0
ENDTAB
  0
TABLE
  2
UCS
  5
7
330
0
100
AcDbSymbolTable
 70
     0
  0
ENDTAB
  0
TABLE
  2
APPID
  5
9
330
0
100
AcDbSymbolTable
 70
     1
  0
APPID
  5
12
330
9
100
AcDbSymbolTableRecord
100
AcDbRegAppTableRecord
  2
ACAD
 70
     0
  0
ENDTAB
  0
TABLE
  2
DIMSTYLE
  5
A
330
0
100
AcDbSymbolTable
 70
    10
100
AcDbDimStyleTable
  0
DIMSTYLE
105
27
330
A
100
AcDbSymbolTableRecord
100
AcDbDimStyleTableRecord
  2
Standard
 70
     0
178
     0
340
11
  0
DIMSTYLE
105
1D8
102
{ACAD_REACTORS
330
1D9
102
}
330
A
100
AcDbSymbolTableRecord
100
AcDbDimStyleTableRecord
  2
ME10_DIM_10
 70
     0
 41
4.5
 42
0.0
 44
3.0
 73
     0
 74
     0
 77
     1
 78
     8
140
4.5
147
3.0
172
     1
173
     1
174
     1
175
     1
176
     2
177
     2
271
     2
178
     7
271
     2
340
6B
  0
DIMSTYLE
105
1E3
102
{ACAD_REACTORS
330
1E4
102
}
330
A
100
AcDbSymbolTableRecord
100
AcDbDimStyleTableRecord
  2
ME10_DIM_11
 70
     0
 41
4.5
 42
0.0
 44
3.0
 73
     0
 74
     0
 77
     1
 78
     8
140
4.5
147
3.0
172
     1
173
     1
174
     1
175
     1
176
     2
177
     2
271
     2
178
     7
271
     2
340
6B
  0
DIMSTYLE
105
1EE
102
{ACAD_REACTORS
330
1EF
102
}
330
A
100
AcDbSymbolTableRecord
100
AcDbDimStyleTableRecord
  2
ME10_DIM_12
 70
     0
 41
4.5
 42
0.0
 44
3.0
 73
     0
 74
     0
 77
     1
 78
     8
140
4.5
147
3.0
172
     1
173
     1
174
     1
175
     1
176
     2
177
     2
271
     2
178
     7
271
     2
340
6B
  0
DIMSTYLE
105
1F8
102
{ACAD_REACTORS
330
1F9
102
}
330
A
100
AcDbSymbolTableRecord
100
AcDbDimStyleTableRecord
  2
ME10_DIM_13
 70
     0
  3
{\Fgdt;n}<>
 41
4.5
 42
0.0
 44
3.0
 73
     0
 74
     0
 75
     1
 76
     1
 77
     1
 78
     8
140
4.5
147
3.0
172
     1
173
     1
174
     1
175
     1
176
     2
177
     2
271
     2
178
     7
271
     2
340
6B
  0
DIMSTYLE
105
202
102
{ACAD_REACTORS
330
203
102
}
330
A
100
AcDbSymbolTableRecord
100
AcDbDimStyleTableRecord
  2
ME10_DIM_14
 70
     0
  3
{\Fgdt;n}<>
 41
4.5
 42
0.0
 44
3.0
 73
     0
 74
     0
 75
     1
 76
     1
 77
     1
 78
     8
140
4.5
147
3.0
172
     1
173
     1
174
     1
175
     1
176
     2
177
     2
271
     2
178
     7
271
     2
340
6B
  0
DIMSTYLE
105
20C
102
{ACAD_REACTORS
330
20D
102
}
330
A
100
AcDbSymbolTableRecord
100
AcDbDimStyleTableRecord
  2
ME10_DIM_15
 70
     0
  3
{\Fgdt;n}<>
 41
4.5
 42
0.0
 44
3.0
 73
     0
 74
     0
 75
     1
 76
     1
 77
     1
 78
     8
140
4.5
147
3.0
172
     1
173
     1
174
     1
175
     1
176
     2
177
     2
271
     2
178
     7
271
     2
340
6B
  0
DIMSTYLE
105
217
102
{ACAD_REACTORS
330
218
102
}
330
A
100
AcDbSymbolTableRecord
100
AcDbDimStyleTableRecord
  2
ME10_DIM_16
 70
     0
 41
4.5
 42
0.0
 44
3.0
 73
     0
 74
     0
 77
     1
 78
     8
140
4.5
147
3.0
172
     1
173
     1
174
     1
175
     1
176
     2
177
     2
271
     2
178
     7
271
     2
340
6B
  0
DIMSTYLE
105
222
102
{ACAD_REACTORS
330
223
102
}
330
A
100
AcDbSymbolTableRecord
100
AcDbDimStyleTableRecord
  2
ME10_DIM_17
 70
     0
  3
{\Fgdt;n}<>
 41
5.25
 42
0.0
 44
3.0
 73
     0
 74
     0
 77
     1
 78
     8
140
4.5
147
3.0
172
     1
173
     1
174
     1
175
     1
176
     2
177
     2
271
     2
178
     7
271
     2
340
6B
  0
DIMSTYLE
105
22D
102
{ACAD_REACTORS
330
22E
102
}
330
A
100
AcDbSymbolTableRecord
100
AcDbDimStyleTableRecord
  2
ME10_DIM_18
 70
     0
 41
5.25
 42
0.0
 44
3.0
 73
     0
 74
     0
 77
     1
 78
     8
140
4.5
147
3.0
172
     1
173
     1
174
     1
175
     1
176
     2
177
     2
271
     2
178
     7
271
     2
340
6B
  0
ENDTAB
  0
TABLE
  2
BLOCK_RECORD
  5
1
330
0
100
AcDbSymbolTable
 70
    19
  0
BLOCK_RECORD
  5
1F
330
1
100
AcDbSymbolTableRecord
100
AcDbBlockTableRecord
  2
*Model_Space
340
22
  0
BLOCK_RECORD
  5
1B
330
1
100
AcDbSymbolTableRecord
100
AcDbBlockTableRecord
  2
*Paper_Space
340
1E
  0
BLOCK_RECORD
  5
23
330
1
100
AcDbSymbolTableRecord
100
AcDbBlockTableRecord
  2
*Paper_Space0
340
26
  0
BLOCK_RECORD
  5
47
330
1
100
AcDbSymbolTableRecord
100
AcDbBlockTableRecord
  2
PLIST
340
0
102
{BLKREFS
331
62
102
}
  0
BLOCK_RECORD
  5
4A
330
1
100
AcDbSymbolTableRecord
100
AcDbBlockTableRecord
  2
suberi__1
340
0
102
{BLKREFS
331
63
102
}
  0
BLOCK_RECORD
  5
4D
330
1
100
AcDbSymbolTableRecord
100
AcDbBlockTableRecord
  2
ajasuto__2
340
0
102
{BLKREFS
331
64
102
}
  0
BLOCK_RECORD
  5
50
330
1
100
AcDbSymbolTableRecord
100
AcDbBlockTableRecord
  2
nato__3
340
0
102
{BLKREFS
331
65
102
}
  0
BLOCK_RECORD
  5
53
330
1
100
AcDbSymbolTableRecord
100
AcDbBlockTableRecord
  2
suberi__4
340
0
102
{BLKREFS
331
66
102
}
  0
BLOCK_RECORD
  5
56
330
1
100
AcDbSymbolTableRecord
100
AcDbBlockTableRecord
  2
ajasuto__5
340
0
102
{BLKREFS
331
67
102
}
  0
BLOCK_RECORD
  5
59
330
1
100
AcDbSymbolTableRecord
100
AcDbBlockTableRecord
  2
nato__6
340
0
102
{BLKREFS
331
68
102
}
  0
BLOCK_RECORD
  5
5C
330
1
100
AcDbSymbolTableRecord
100
AcDbBlockTableRecord
  2
paipu
340
0
102
{BLKREFS
331
69
102
}
  0
BLOCK_RECORD
  5
5F
330
1
100
AcDbSymbolTableRecord
100
AcDbBlockTableRecord
  2
開示縦HP-A4
340
0
102
{BLKREFS
331
6A
102
}
  0
BLOCK_RECORD
  5
1CF
330
1
100
AcDbSymbolTableRecord
100
AcDbBlockTableRecord
  2
*D10
340
0
  0
BLOCK_RECORD
  5
1DA
330
1
100
AcDbSymbolTableRecord
100
AcDbBlockTableRecord
  2
*D11
340
0
  0
BLOCK_RECORD
  5
1E5
330
1
100
AcDbSymbolTableRecord
100
AcDbBlockTableRecord
  2
*D12
340
0
  0
BLOCK_RECORD
  5
1F0
330
1
100
AcDbSymbolTableRecord
100
AcDbBlockTableRecord
  2
*D13
340
0
  0
BLOCK_RECORD
  5
1FA
330
1
100
AcDbSymbolTableRecord
100
AcDbBlockTableRecord
  2
*D14
340
0
  0
BLOCK_RECORD
  5
204
330
1
100
AcDbSymbolTableRecord
100
AcDbBlockTableRecord
  2
*D15
340
0
  0
BLOCK_RECORD
  5
20E
330
1
100
AcDbSymbolTableRecord
100
AcDbBlockTableRecord
  2
*D16
340
0
  0
BLOCK_RECORD
  5
219
330
1
100
AcDbSymbolTableRecord
100
AcDbBlockTableRecord
  2
*D17
340
0
  0
BLOCK_RECORD
  5
224
330
1
100
AcDbSymbolTableRecord
100
AcDbBlockTableRecord
  2
*D18
340
0
  0
ENDTAB
  0
ENDSEC
  0
SECTION
  2
BLOCKS
  0
BLOCK
  5
20
330
1F
100
AcDbEntity
  8
0
100
AcDbBlockBegin
  2
*Model_Space
 70
     0
 10
0.0
 20
0.0
 30
0.0
  3
*Model_Space
  1

  0
ENDBLK
  5
21
330
1F
100
AcDbEntity
  8
0
100
AcDbBlockEnd
  0
BLOCK
  5
1C
330
1B
100
AcDbEntity
 67
     1
  8
0
100
AcDbBlockBegin
  2
*Paper_Space
 70
     0
 10
0.0
 20
0.0
 30
0.0
  3
*Paper_Space
  1

  0
ENDBLK
  5
1D
330
1B
100
AcDbEntity
 67
     1
  8
0
100
AcDbBlockEnd
  0
BLOCK
  5
24
330
23
100
AcDbEntity
  8
0
100
AcDbBlockBegin
  2
*Paper_Space0
 70
     0
 10
0.0
 20
0.0
 30
0.0
  3
*Paper_Space0
  1

  0
ENDBLK
  5
25
330
23
100
AcDbEntity
  8
0
100
AcDbBlockEnd
  0
BLOCK
  5
48
330
47
100
AcDbEntity
  8
0
100
AcDbBlockBegin
  2
PLIST
 70
     0
 10
76.00427353184628
 20
-70.20052701961524
 30
0.0
  3
PLIST
  1

  0
MTEXT
  5
6C
330
47
100
AcDbEntity
  8
1
 62
     7
100
AcDbMText
 10
50.27875281750973
 20
-66.12764148385733
 30
0.0
 40
2.33333333333333
 41
0.0
 71
     5
 72
     1
  1
1,5
  7
CONVERTER_11
 73
     1
 44
1.32052821128451
  0
MTEXT
  5
6D
330
47
100
AcDbEntity
  8
1
 62
     7
100
AcDbMText
 10
47.97247528814022
 20
-61.12197231339498
 30
0.0
 40
2.33333333333333
 41
0.0
 71
     5
 72
     1
  1
1
  7
CONVERTER_11
 73
     1
 44
1.32052821128451
  0
MTEXT
  5
6E
330
47
100
AcDbEntity
  8
1
 62
     7
100
AcDbMText
 10
35.86293051596891
 20
-63.53915979737757
 30
0.0
 40
2.33333333333333
 41
0.0
 71
     5
 72
     1
  1
H81-4\P -38
  7
CONVERTER_11
 73
     1
 44
0.90036014405762
  0
MTEXT
  5
70
330
47
100
AcDbEntity
  8
1
 62
     7
100
AcDbMText
 10
11.93279611809901
 20
-63.59302228486321
 30
0.0
 40
2.33333333333333
 41
0.0
 71
     5
 72
     1
  1
洗浄管連結エルボ\P  38mm
  7
CONVERTER_12
 73
     1
 44
0.54545454545455
  0
ENDBLK
  5
49
330
47
100
AcDbEntity
  8
0
100
AcDbBlockEnd
  0
BLOCK
  5
4B
330
4A
100
AcDbEntity
  8
0
100
AcDbBlockBegin
  2
suberi__1
 70
     0
 10
-43.92107952088914
 20
30.99999999999997
 30
0.0
  3
suberi__1
  1

  0
CIRCLE
  5
71
330
4A
100
AcDbEntity
  8
1
  6
Continuous
 62
     7
100
AcDbCircle
 10
-50.42107952088909
 20
51.99999999999998
 30
0.0
 40
18.99999999999995
  0
ENDBLK
  5
4C
330
4A
100
AcDbEntity
  8
0
100
AcDbBlockEnd
  0
BLOCK
  5
4E
330
4D
100
AcDbEntity
  8
0
100
AcDbBlockBegin
  2
ajasuto__2
 70
     0
 10
-42.92107952088912
 20
31.49999999999999
 30
0.0
  3
ajasuto__2
  1

  0
CIRCLE
  5
72
330
4D
100
AcDbEntity
  8
1
  6
Continuous
 62
     7
100
AcDbCircle
 10
-50.42107952088909
 20
51.99999999999998
 30
0.0
 40
17.99999999999995
  0
ENDBLK
  5
4F
330
4D
100
AcDbEntity
  8
0
100
AcDbBlockEnd
  0
BLOCK
  5
51
330
50
100
AcDbEntity
  8
0
100
AcDbBlockBegin
  2
nato__3
 70
     0
 10
-60.42107952088909
 20
24.49999999999998
 30
0.0
  3
nato__3
  1

  0
LINE
  5
73
330
50
100
AcDbEntity
  8
1
  6
Continuous
 62
     7
100
AcDbLine
 10
30.99801136166189
 20
249.5069330208802
 30
0.0
 11
30.99801136166189
 21
200.5312487442219
 31
0.0
  0
LINE
  5
74
330
50
100
AcDbEntity
  8
1
  6
Continuous
 62
     7
100
AcDbLine
 10
19.60548822509898
 20
199.519090882551
 30
0.0
 11
30.18849346935728
 21
199.519090882551
 31
0.0
  0
LINE
  5
75
330
50
100
AcDbEntity
  8
1
  6
Continuous
 62
     7
100
AcDbLine
 10
18.99801136166189
 20
244.519090882551
 30
0.0
 11
18.99801136166189
 21
225.019090882551
 31
0.0
  0
LINE
  5
76
330
50
100
AcDbEntity
  8
1
  6
Continuous
 62
     7
100
AcDbLine
 10
18.99801136166189
 20
225.019090882551
 30
0.0
 11
18.99801136166189
 21
200.519090882551
 31
0.0
  0
LINE
  5
77
330
50
100
AcDbEntity
  8
1
  6
Continuous
 62
     7
100
AcDbLine
 10
18.99801136166189
 20
249.519090882551
 30
0.0
 11
18.99801136166189
 21
244.519090882551
 31
0.0
  0
LINE
  5
78
330
50
100
AcDbEntity
  8
1
  6
Continuous
 62
     7
100
AcDbLine
 10
19.60548822509894
 20
250.519090882551
 30
0.0
 11
30.18849346935732
 21
250.519090882551
 31
0.0
  0
LINE
  5
79
330
50
100
AcDbEntity
  8
1
  6
Continuous
 62
     7
100
AcDbLine
 10
-54.25480227082549
 20
79.23146286699668
 30
0.0
 11
-72.0873567709527
 21
68.93583272600966
 31
0.0
  0
LINE
  5
7A
330
50
100
AcDbEntity
  8
1
  6
Continuous
 62
     7
100
AcDbLine
 10
-28.75480227082559
 20
68.93583272600961
 30
0.0
 11
-46.5873567709527
 21
79.23146286699668
 31
0.0
  0
LINE
  5
7B
330
50
100
AcDbEntity
  8
1
  6
Continuous
 62
     7
100
AcDbLine
 10
-24.92107952088915
 20
41.70436985901294
 30
0.0
 11
-24.92107952088918
 21
62.29563014098704
 31
0.0
  0
LINE
  5
7C
330
50
100
AcDbEntity
  8
1
  6
Continuous
 62
     7
100
AcDbLine
 10
-46.5873567709527
 20
24.76853713300329
 30
0.0
 11
-28.75480227082565
 21
35.06416727399029
 31
0.0
  0
LINE
  5
7D
330
50
100
AcDbEntity
  8
1
  6
Continuous
 62
     7
100
AcDbLine
 10
-72.0873567709527
 20
35.0641672739903
 30
0.0
 11
-54.25480227082561
 21
24.76853713300329
 31
0.0
  0
LINE
  5
7E
330
50
100
AcDbEntity
  8
1
  6
Continuous
 62
     7
100
AcDbLine
 10
-75.9210795208891
 20
62.29563014098702
 30
0.0
 11
-75.9210795208891
 21
41.70436985901296
 31
0.0
  0
LINE
  5
7F
330
50
100
AcDbEntity
  8
1
  6
Continuous
 62
     7
100
AcDbLine
 10
18.99801136166189
 20
76.49999999999996
 30
0.0
 11
18.99801136166189
 21
71.49999999999999
 31
0.0
  0
LINE
  5
80
330
50
100
AcDbEntity
  8
1
  6
Continuous
 62
     7
100
AcDbLine
 10
18.99801136166189
 20
71.49999999999999
 30
0.0
 11
18.99801136166189
 21
51.99999999999998
 31
0.0
  0
LINE
  5
81
330
50
100
AcDbEntity
  8
1
  6
Continuous
 62
     7
100
AcDbLine
 10
18.99801136166189
 20
51.99999999999998
 30
0.0
 11
18.99801136166189
 21
27.49999999999999
 31
0.0
  0
LINE
  5
82
330
50
100
AcDbEntity
  8
1
  6
Continuous
 62
     7
100
AcDbLine
 10
30.99801136166189
 20
76.48784213832913
 30
0.0
 11
30.99801136166189
 21
27.51215786167082
 31
0.0
  0
ARC
  5
83
330
50
100
AcDbEntity
  8
1
  6
Continuous
 62
     7
100
AcDbCircle
 10
24.89699084722813
 20
205.519090882551
 30
0.0
 40
7.99999999999998
100
AcDbArc
 50
311.4096221092707
 51
318.3141747892467
  0
ARC
  5
84
330
50
100
AcDbEntity
  8
1
  6
Continuous
 62
     7
100
AcDbCircle
 10
24.89699084722813
 20
205.519090882551
 30
0.0
 40
7.999999999999967
100
AcDbArc
 50
225.5846914028074
 51
228.5903778907293
  0
ARC
  5
85
330
50
100
AcDbEntity
  8
1
  6
Continuous
 62
     7
100
AcDbCircle
 10
19.99801136166187
 20
200.519090882551
 30
0.0
 40
0.9999999999999787
100
AcDbArc
 50
180.0
 51
225.5846914028056
  0
ARC
  5
86
330
50
100
AcDbEntity
  8
1
  6
Continuous
 62
     7
100
AcDbCircle
 10
24.89699084722813
 20
244.519090882551
 30
0.0
 40
7.99999999999998
100
AcDbArc
 50
41.6858252107533
 51
48.59037789072909
  0
ARC
  5
87
330
50
100
AcDbEntity
  8
1
  6
Continuous
 62
     7
100
AcDbCircle
 10
24.89699084722813
 20
244.519090882551
 30
0.0
 40
8.000000000000004
100
AcDbArc
 50
131.4096221092709
 51
134.4153085971924
  0
ARC
  5
88
330
50
100
AcDbEntity
  8
1
  6
Continuous
 62
     7
100
AcDbCircle
 10
19.99801136166187
 20
249.519090882551
 30
0.0
 40
1.000000000000077
100
AcDbArc
 50
134.4153085971921
 51
180.0
  0
ARC
  5
89
330
50
100
AcDbEntity
  8
1
  6
Continuous
 62
     7
100
AcDbCircle
 10
-50.42107952088919
 20
51.99999999999998
 30
0.0
 40
27.49999999999999
100
AcDbArc
 50
261.986402997194
 51
270.0
  0
ARC
  5
8A
330
50
100
AcDbEntity
  8
1
  6
Continuous
 62
     7
100
AcDbCircle
 10
-50.42107952088919
 20
51.99999999999998
 30
0.0
 40
27.49999999999999
100
AcDbArc
 50
89.9999999999998
 51
98.01359700280577
  0
ARC
  5
8B
330
50
100
AcDbEntity
  8
1
  6
Continuous
 62
     7
100
AcDbCircle
 10
-50.42107952088919
 20
51.99999999999998
 30
0.0
 40
27.50000000000001
100
AcDbArc
 50
81.98640299719386
 51
89.9999999999998
  0
ARC
  5
8C
330
50
100
AcDbEntity
  8
1
  6
Continuous
 62
     7
100
AcDbCircle
 10
-50.42107952088919
 20
51.99999999999998
 30
0.0
 40
27.50000000000003
100
AcDbArc
 50
21.98640299719396
 51
38.01359700280596
  0
ARC
  5
8D
330
50
100
AcDbEntity
  8
1
  6
Continuous
 62
     7
100
AcDbCircle
 10
-50.42107952088919
 20
51.99999999999998
 30
0.0
 40
27.50000000000003
100
AcDbArc
 50
321.9864029971939
 51
338.0135970028061
  0
ARC
  5
8E
330
50
100
AcDbEntity
  8
1
  6
Continuous
 62
     7
100
AcDbCircle
 10
-50.42107952088919
 20
51.99999999999998
 30
0.0
 40
27.5
100
AcDbArc
 50
270.0
 51
278.0135970028061
  0
ARC
  5
8F
330
50
100
AcDbEntity
  8
1
  6
Continuous
 62
     7
100
AcDbCircle
 10
-50.42107952088919
 20
51.99999999999998
 30
0.0
 40
27.49999999999992
100
AcDbArc
 50
201.9864029971939
 51
218.0135970028061
  0
ARC
  5
90
330
50
100
AcDbEntity
  8
1
  6
Continuous
 62
     7
100
AcDbCircle
 10
-50.42107952088919
 20
51.99999999999998
 30
0.0
 40
27.5
100
AcDbArc
 50
141.9864029971938
 51
158.013597002806
  0
ARC
  5
91
330
50
100
AcDbEntity
  8
1
  6
Continuous
 62
     7
100
AcDbCircle
 10
19.99801136166187
 20
76.49999999999996
 30
0.0
 40
1.000000000000077
100
AcDbArc
 50
134.4153085971921
 51
180.0
  0
ARC
  5
92
330
50
100
AcDbEntity
  8
1
  6
Continuous
 62
     7
100
AcDbCircle
 10
24.89699084722813
 20
71.49999999999997
 30
0.0
 40
8.000000000000007
100
AcDbArc
 50
95.73182480745449
 51
134.4153085971925
  0
ARC
  5
93
330
50
100
AcDbEntity
  8
1
  6
Continuous
 62
     7
100
AcDbCircle
 10
19.99801136166187
 20
27.49999999999999
 30
0.0
 40
0.9999999999999787
100
AcDbArc
 50
180.0
 51
225.5846914028083
  0
ARC
  5
94
330
50
100
AcDbEntity
  8
1
  6
Continuous
 62
     7
100
AcDbCircle
 10
24.89699084722813
 20
32.49999999999999
 30
0.0
 40
8.000000000000018
100
AcDbArc
 50
225.5846914028077
 51
318.3141747892466
  0
ARC
  5
95
330
50
100
AcDbEntity
  8
1
  6
Continuous
 62
     7
100
AcDbCircle
 10
24.89699084722813
 20
71.49999999999997
 30
0.0
 40
7.999999999999989
100
AcDbArc
 50
41.68582521075338
 51
95.73182480745449
  0
CIRCLE
  5
96
330
50
100
AcDbEntity
  8
1
  6
Continuous
 62
     7
100
AcDbCircle
 10
-50.42107952088919
 20
51.99999999999998
 30
0.0
 40
25.49999999999998
  0
CIRCLE
  5
97
330
50
100
AcDbEntity
  8
1
  6
Continuous
 62
     7
100
AcDbCircle
 10
-50.42107952088919
 20
51.99999999999998
 30
0.0
 40
19.50000000000001
  0
ARC
  5
98
330
50
100
AcDbEntity
  8
1
  6
Continuous
 62
     7
100
AcDbCircle
 10
30.49801136166189
 20
249.5069330208802
 30
0.0
 40
0.5
100
AcDbArc
 50
0.0
 51
41.68582521075018
  0
ARC
  5
99
330
50
100
AcDbEntity
  8
1
  6
Continuous
 62
     7
100
AcDbCircle
 10
30.49801136166189
 20
76.48784213832913
 30
0.0
 40
0.5
100
AcDbArc
 50
0.0
 51
41.68582521075503
  0
ARC
  5
9A
330
50
100
AcDbEntity
  8
1
  6
Continuous
 62
     7
100
AcDbCircle
 10
30.49801136166189
 20
27.51215786167082
 30
0.0
 40
0.4999999999999956
100
AcDbArc
 50
318.3141747892456
 51
0.0
  0
ENDBLK
  5
52
330
50
100
AcDbEntity
  8
0
100
AcDbBlockEnd
  0
BLOCK
  5
54
330
53
100
AcDbEntity
  8
0
100
AcDbBlockBegin
  2
suberi__4
 70
     0
 10
86.09801136166189
 20
157.6
 30
0.0
  3
suberi__4
  1

  0
CIRCLE
  5
9B
330
53
100
AcDbEntity
  8
1
  6
Continuous
 62
     7
100
AcDbCircle
 10
107.0980113616619
 20
225.019090882551
 30
0.0
 40
19.0
  0
ENDBLK
  5
55
330
53
100
AcDbEntity
  8
0
100
AcDbBlockEnd
  0
BLOCK
  5
57
330
56
100
AcDbEntity
  8
0
100
AcDbBlockBegin
  2
ajasuto__5
 70
     0
 10
86.59801136166189
 20
152.6
 30
0.0
  3
ajasuto__5
  1

  0
CIRCLE
  5
9C
330
56
100
AcDbEntity
  8
1
  6
Continuous
 62
     7
100
AcDbCircle
 10
107.0980113616619
 20
225.019090882551
 30
0.0
 40
18.0
  0
ENDBLK
  5
58
330
56
100
AcDbEntity
  8
0
100
AcDbBlockEnd
  0
BLOCK
  5
5A
330
59
100
AcDbEntity
  8
0
100
AcDbBlockBegin
  2
nato__6
 70
     0
 10
79.59801136166189
 20
128.1
 30
0.0
  3
nato__6
  1

  0
LINE
  5
9D
330
59
100
AcDbEntity
  8
1
  6
Continuous
 62
     7
100
AcDbLine
 10
87.59801136166189
 20
140.1
 30
0.0
 11
82.59801136166192
 21
140.1
 31
0.0
  0
LINE
  5
9E
330
59
100
AcDbEntity
  8
1
  6
Continuous
 62
     7
100
AcDbLine
 10
107.0980113616619
 20
140.1
 30
0.0
 11
87.59801136166189
 21
140.1
 31
0.0
  0
LINE
  5
9F
330
59
100
AcDbEntity
  8
1
  6
Continuous
 62
     7
100
AcDbLine
 10
126.5980113616619
 20
140.1
 30
0.0
 11
107.0980113616619
 21
140.1
 31
0.0
  0
LINE
  5
A0
330
59
100
AcDbEntity
  8
1
  6
Continuous
 62
     7
100
AcDbLine
 10
131.5980113616619
 20
140.1
 30
0.0
 11
126.5980113616619
 21
140.1
 31
0.0
  0
LINE
  5
A1
330
59
100
AcDbEntity
  8
1
  6
Continuous
 62
     7
100
AcDbLine
 10
-75.9210795208891
 20
139.492523136563
 30
0.0
 11
-75.9210795208891
 21
128.9095178923045
 31
0.0
  0
LINE
  5
A2
330
59
100
AcDbEntity
  8
1
  6
Continuous
 62
     7
100
AcDbLine
 10
-24.92107952088915
 20
139.4925231365629
 30
0.0
 11
-24.92107952088915
 21
128.9095178923045
 31
0.0
  0
LINE
  5
A3
330
59
100
AcDbEntity
  8
1
  6
Continuous
 62
     7
100
AcDbLine
 10
-25.93323738255998
 20
128.1
 30
0.0
 11
-74.9089216592183
 21
128.1
 31
0.0
  0
LINE
  5
A4
330
59
100
AcDbEntity
  8
1
  6
Continuous
 62
     7
100
AcDbLine
 10
-50.42107952088919
 20
140.1
 30
0.0
 11
-74.9210795208891
 21
140.1
 31
0.0
  0
LINE
  5
A5
330
59
100
AcDbEntity
  8
1
  6
Continuous
 62
     7
100
AcDbLine
 10
-25.92107952088915
 20
140.1
 30
0.0
 11
-50.42107952088919
 21
140.1
 31
0.0
  0
LINE
  5
A6
330
59
100
AcDbEntity
  8
1
  6
Continuous
 62
     7
100
AcDbLine
 10
82.7980113616619
 20
128.1
 30
0.0
 11
82.61016922333275
 21
128.1
 31
0.0
  0
LINE
  5
A7
330
59
100
AcDbEntity
  8
1
  6
Continuous
 62
     7
100
AcDbLine
 10
131.5858534999911
 20
128.1
 30
0.0
 11
82.7980113616619
 21
128.1
 31
0.0
  0
LINE
  5
A8
330
59
100
AcDbEntity
  8
1
  6
Continuous
 62
     7
100
AcDbLine
 10
117.3936415026489
 20
250.519090882551
 30
0.0
 11
96.80238122067487
 21
250.519090882551
 31
0.0
  0
LINE
  5
A9
330
59
100
AcDbEntity
  8
1
  6
Continuous
 62
     7
100
AcDbLine
 10
90.16217863565221
 20
246.6853681326145
 30
0.0
 11
79.86654849466521
 21
228.8528136324875
 31
0.0
  0
LINE
  5
AA
330
59
100
AcDbEntity
  8
1
  6
Continuous
 62
     7
100
AcDbLine
 10
79.86654849466521
 20
221.1853681326145
 30
0.0
 11
90.16217863565221
 21
203.3528136324875
 31
0.0
  0
LINE
  5
AB
330
59
100
AcDbEntity
  8
1
  6
Continuous
 62
     7
100
AcDbLine
 10
96.80238122067486
 20
199.519090882551
 30
0.0
 11
117.393641502649
 21
199.5190908825511
 31
0.0
  0
LINE
  5
AC
330
59
100
AcDbEntity
  8
1
  6
Continuous
 62
     7
100
AcDbLine
 10
124.0338440876715
 20
203.3528136324875
 30
0.0
 11
134.3294742286586
 21
221.1853681326146
 31
0.0
  0
LINE
  5
AD
330
59
100
AcDbEntity
  8
1
  6
Continuous
 62
     7
100
AcDbLine
 10
134.3294742286586
 20
228.8528136324874
 30
0.0
 11
124.0338440876716
 21
246.6853681326145
 31
0.0
  0
ARC
  5
AE
330
59
100
AcDbEntity
  8
1
  6
Continuous
 62
     7
100
AcDbCircle
 10
126.5980113616619
 20
134.2010205144337
 30
0.0
 40
7.999999999999928
100
AcDbArc
 50
311.6858252107535
 51
44.41530859719246
  0
ARC
  5
AF
330
59
100
AcDbEntity
  8
1
  6
Continuous
 62
     7
100
AcDbCircle
 10
87.59801136166189
 20
134.2010205144337
 30
0.0
 40
8.00000000000001
100
AcDbArc
 50
135.5846914028073
 51
228.3141747892464
  0
ARC
  5
B0
330
59
100
AcDbEntity
  8
1
  6
Continuous
 62
     7
100
AcDbCircle
 10
-69.9210795208892
 20
134.2010205144337
 30
0.0
 40
7.99999999999998
100
AcDbArc
 50
135.5846914028071
 51
138.5903778907281
  0
ARC
  5
B1
330
59
100
AcDbEntity
  8
1
  6
Continuous
 62
     7
100
AcDbCircle
 10
-30.92107952088915
 20
134.2010205144337
 30
0.0
 40
7.999999999999947
100
AcDbArc
 50
311.6858252107536
 51
318.590377890729
  0
ARC
  5
B2
330
59
100
AcDbEntity
  8
1
  6
Continuous
 62
     7
100
AcDbCircle
 10
-69.9210795208892
 20
134.2010205144337
 30
0.0
 40
7.999999999999939
100
AcDbArc
 50
221.4096221092714
 51
228.3141747892464
  0
ARC
  5
B3
330
59
100
AcDbEntity
  8
1
  6
Continuous
 62
     7
100
AcDbCircle
 10
-74.9210795208891
 20
139.1
 30
0.0
 40
1.0
100
AcDbArc
 50
90.0
 51
135.5846914028089
  0
ARC
  5
B4
330
59
100
AcDbEntity
  8
1
  6
Continuous
 62
     7
100
AcDbCircle
 10
-30.92107952088915
 20
134.2010205144337
 30
0.0
 40
8.000000000000012
100
AcDbArc
 50
41.40962210927096
 51
44.41530859719252
  0
ARC
  5
B5
330
59
100
AcDbEntity
  8
1
  6
Continuous
 62
     7
100
AcDbCircle
 10
-25.92107952088915
 20
139.1
 30
0.0
 40
1.000000000000082
100
AcDbArc
 50
44.41530859719215
 51
90.0
  0
ARC
  5
B6
330
59
100
AcDbEntity
  8
1
  6
Continuous
 62
     7
100
AcDbCircle
 10
107.0980113616619
 20
225.019090882551
 30
0.0
 40
27.50000000000001
100
AcDbArc
 50
171.9864029971939
 51
180.0
  0
ARC
  5
B7
330
59
100
AcDbEntity
  8
1
  6
Continuous
 62
     7
100
AcDbCircle
 10
82.59801136166192
 20
139.1
 30
0.0
 40
1.0
100
AcDbArc
 50
90.0
 51
135.5846914028077
  0
ARC
  5
B8
330
59
100
AcDbEntity
  8
1
  6
Continuous
 62
     7
100
AcDbCircle
 10
131.5980113616619
 20
139.1
 30
0.0
 40
1.000000000000099
100
AcDbArc
 50
44.41530859719115
 51
90.0
  0
ARC
  5
B9
330
59
100
AcDbEntity
  8
1
  6
Continuous
 62
     7
100
AcDbCircle
 10
107.0980113616619
 20
225.019090882551
 30
0.0
 40
27.5
100
AcDbArc
 50
51.98640299719382
 51
68.01359700280618
  0
ARC
  5
BA
330
59
100
AcDbEntity
  8
1
  6
Continuous
 62
     7
100
AcDbCircle
 10
107.0980113616619
 20
225.019090882551
 30
0.0
 40
27.50000000000001
100
AcDbArc
 50
111.9864029971939
 51
128.0135970028062
  0
ARC
  5
BB
330
59
100
AcDbEntity
  8
1
  6
Continuous
 62
     7
100
AcDbCircle
 10
107.0980113616619
 20
225.019090882551
 30
0.0
 40
27.50000000000001
100
AcDbArc
 50
180.0
 51
188.0135970028062
  0
ARC
  5
BC
330
59
100
AcDbEntity
  8
1
  6
Continuous
 62
     7
100
AcDbCircle
 10
107.0980113616619
 20
225.019090882551
 30
0.0
 40
27.5
100
AcDbArc
 50
231.9864029971938
 51
248.0135970028061
  0
ARC
  5
BD
330
59
100
AcDbEntity
  8
1
  6
Continuous
 62
     7
100
AcDbCircle
 10
107.0980113616619
 20
225.019090882551
 30
0.0
 40
27.49999999999996
100
AcDbArc
 50
291.9864029971941
 51
308.013597002806
  0
ARC
  5
BE
330
59
100
AcDbEntity
  8
1
  6
Continuous
 62
     7
100
AcDbCircle
 10
107.0980113616619
 20
225.019090882551
 30
0.0
 40
27.5
100
AcDbArc
 50
351.986402997194
 51
0.0
  0
ARC
  5
BF
330
59
100
AcDbEntity
  8
1
  6
Continuous
 62
     7
100
AcDbCircle
 10
107.0980113616619
 20
225.019090882551
 30
0.0
 40
27.49999999999999
100
AcDbArc
 50
0.0
 51
8.01359700280593
  0
CIRCLE
  5
C0
330
59
100
AcDbEntity
  8
1
  6
Continuous
 62
     7
100
AcDbCircle
 10
107.0980113616619
 20
225.019090882551
 30
0.0
 40
19.5
  0
CIRCLE
  5
C1
330
59
100
AcDbEntity
  8
1
  6
Continuous
 62
     7
100
AcDbCircle
 10
107.0980113616619
 20
225.019090882551
 30
0.0
 40
25.49999999999999
  0
ARC
  5
C2
330
59
100
AcDbEntity
  8
1
  6
Continuous
 62
     7
100
AcDbCircle
 10
-74.9089216592183
 20
128.6
 30
0.0
 40
0.5000000000000329
100
AcDbArc
 50
228.3141747892395
 51
270.0
  0
ARC
  5
C3
330
59
100
AcDbEntity
  8
1
  6
Continuous
 62
     7
100
AcDbCircle
 10
-25.93323738255998
 20
128.6
 30
0.0
 40
0.5
100
AcDbArc
 50
270.0
 51
311.6858252107543
  0
ARC
  5
C4
330
59
100
AcDbEntity
  8
1
  6
Continuous
 62
     7
100
AcDbCircle
 10
82.61016922333275
 20
128.6
 30
0.0
 40
0.4999999999999951
100
AcDbArc
 50
228.3141747892444
 51
270.0
  0
ARC
  5
C5
330
59
100
AcDbEntity
  8
1
  6
Continuous
 62
     7
100
AcDbCircle
 10
131.5858534999911
 20
128.6
 30
0.0
 40
0.5
100
AcDbArc
 50
270.0
 51
311.6858252107507
  0
ENDBLK
  5
5B
330
59
100
AcDbEntity
  8
0
100
AcDbBlockEnd
  0
BLOCK
  5
5D
330
5C
100
AcDbEntity
  8
0
100
AcDbBlockBegin
  2
paipu
 70
     0
 10
24.0980113616619
 20
28.49999999999997
 30
0.0
  3
paipu
  1

  0
LINE
  5
C6
330
5C
100
AcDbEntity
  8
1
  6
Continuous
 62
     7
100
AcDbLine
 10
30.99801136166189
 20
248.519090882551
 30
0.0
 11
31.09801136166189
 21
248.519090882551
 31
0.0
  0
LINE
  5
C7
330
5C
100
AcDbEntity
  8
1
  6
Continuous
 62
     7
100
AcDbLine
 10
30.99801136166189
 20
201.519090882551
 30
0.0
 11
31.09801136166189
 21
201.519090882551
 31
0.0
  0
LINE
  5
C8
330
5C
100
AcDbEntity
  8
1
  6
Continuous
 62
     7
100
AcDbLine
 10
55.03859965350625
 20
207.619090882551
 30
0.0
 11
55.03859965350625
 21
242.419090882551
 31
0.0
  0
LINE
  5
C9
330
5C
100
AcDbEntity
  8
1
  6
Continuous
 62
     7
100
AcDbLine
 10
60.03859965350623
 20
241.419090882551
 30
0.0
 11
60.03859965350623
 21
208.619090882551
 31
0.0
  0
LINE
  5
CA
330
5C
100
AcDbEntity
  8
1
  6
Continuous
 62
     7
100
AcDbLine
 10
61.08820649758974
 20
206.019090882551
 30
0.0
 11
88.89736043589161
 21
206.019090882551
 31
0.0
  0
LINE
  5
CB
330
5C
100
AcDbEntity
  8
1
  6
Continuous
 62
     7
100
AcDbLine
 10
56.06897757711587
 20
205.2132841256418
 30
0.0
 11
59.12704514620789
 21
205.8248976394602
 31
0.0
  0
LINE
  5
CC
330
5C
100
AcDbEntity
  8
1
  6
Continuous
 62
     7
100
AcDbLine
 10
32.09801136166189
 20
205.019090882551
 30
0.0
 11
54.10781622573404
 21
205.019090882551
 31
0.0
  0
LINE
  5
CD
330
5C
100
AcDbEntity
  8
1
  6
Continuous
 62
     7
100
AcDbLine
 10
32.09801136166189
 20
202.519090882551
 30
0.0
 11
32.09801136166189
 21
205.019090882551
 31
0.0
  0
LINE
  5
CE
330
5C
100
AcDbEntity
  8
1
  6
Continuous
 62
     7
100
AcDbLine
 10
61.08820649758975
 20
244.019090882551
 30
0.0
 11
88.59801136166192
 21
244.019090882551
 31
0.0
  0
LINE
  5
CF
330
5C
100
AcDbEntity
  8
1
  6
Continuous
 62
     7
100
AcDbLine
 10
56.06897757711589
 20
244.8248976394602
 30
0.0
 11
59.12704514620791
 21
244.2132841256418
 31
0.0
  0
LINE
  5
D0
330
5C
100
AcDbEntity
  8
1
  6
Continuous
 62
     7
100
AcDbLine
 10
32.09801136166189
 20
245.019090882551
 30
0.0
 11
54.10781622573405
 21
245.019090882551
 31
0.0
  0
LINE
  5
D1
330
5C
100
AcDbEntity
  8
1
  6
Continuous
 62
     7
100
AcDbLine
 10
32.09801136166189
 20
247.519090882551
 30
0.0
 11
32.09801136166189
 21
205.019090882551
 31
0.0
  0
LINE
  5
D2
330
5C
100
AcDbEntity
  8
1
  6
Continuous
 62
     2
100
AcDbLine
 10
31.09801136166189
 20
202.519090882551
 30
0.0
 11
30.99801136166189
 21
202.519090882551
 31
0.0
  0
LINE
  5
D3
330
5C
100
AcDbEntity
  8
1
  6
Continuous
 62
     7
100
AcDbLine
 10
31.09801136166189
 20
201.519090882551
 30
0.0
 11
31.09801136166189
 21
247.519090882551
 31
0.0
  0
LINE
  5
D4
330
5C
100
AcDbEntity
  8
1
  6
Continuous
 62
     2
100
AcDbLine
 10
31.09801136166189
 20
247.519090882551
 30
0.0
 11
30.99801136166189
 21
247.519090882551
 31
0.0
  0
LINE
  5
D5
330
5C
100
AcDbEntity
  8
1
  6
Continuous
 62
     7
100
AcDbLine
 10
31.09801136166189
 20
248.519090882551
 30
0.0
 11
31.09801136166189
 21
247.519090882551
 31
0.0
  0
LINE
  5
D6
330
5C
100
AcDbEntity
  8
1
  6
Continuous
 62
     2
100
AcDbLine
 10
32.09801136166189
 20
247.519090882551
 30
0.0
 11
31.09801136166189
 21
247.519090882551
 31
0.0
  0
LINE
  5
D7
330
5C
100
AcDbEntity
  8
1
  6
Continuous
 62
     7
100
AcDbLine
 10
31.09801136166189
 20
248.519090882551
 30
0.0
 11
32.09801136166189
 21
247.519090882551
 31
0.0
  0
LINE
  5
D8
330
5C
100
AcDbEntity
  8
1
  6
Continuous
 62
     2
100
AcDbLine
 10
32.09801136166189
 20
202.519090882551
 30
0.0
 11
31.09801136166189
 21
202.519090882551
 31
0.0
  0
LINE
  5
D9
330
5C
100
AcDbEntity
  8
1
  6
Continuous
 62
     7
100
AcDbLine
 10
31.09801136166189
 20
201.519090882551
 30
0.0
 11
32.09801136166189
 21
202.519090882551
 31
0.0
  0
LINE
  5
DA
330
5C
100
AcDbEntity
  8
1
  6
Continuous
 62
     7
100
AcDbLine
 10
130.5980113616619
 20
128.1
 30
0.0
 11
130.5980113616619
 21
128.0
 31
0.0
  0
LINE
  5
DB
330
5C
100
AcDbEntity
  8
1
  6
Continuous
 62
     2
100
AcDbLine
 10
129.5980113616619
 20
128.1
 30
0.0
 11
129.5980113616619
 21
128.0
 31
0.0
  0
LINE
  5
DC
330
5C
100
AcDbEntity
  8
1
  6
Continuous
 62
     2
100
AcDbLine
 10
84.59801136166189
 20
128.1
 30
0.0
 11
84.59801136166189
 21
128.0
 31
0.0
  0
LINE
  5
DD
330
5C
100
AcDbEntity
  8
1
  6
Continuous
 62
     7
100
AcDbLine
 10
83.59801136166189
 20
128.1
 30
0.0
 11
83.59801136166189
 21
128.0
 31
0.0
  0
LINE
  5
DE
330
5C
100
AcDbEntity
  8
1
  6
Continuous
 62
     7
100
AcDbLine
 10
30.99801136166189
 20
75.49999999999997
 30
0.0
 11
31.09801136166189
 21
75.49999999999997
 31
0.0
  0
LINE
  5
DF
330
5C
100
AcDbEntity
  8
1
  6
Continuous
 62
     7
100
AcDbLine
 10
30.99801136166189
 20
28.49999999999997
 30
0.0
 11
31.09801136166189
 21
28.49999999999997
 31
0.0
  0
LINE
  5
E0
330
5C
100
AcDbEntity
  8
1
  6
Continuous
 62
     7
100
AcDbLine
 10
-73.92107952088921
 20
128.1
 30
0.0
 11
-73.92107952088921
 21
128.0
 31
0.0
  0
LINE
  5
E1
330
5C
100
AcDbEntity
  8
1
  6
Continuous
 62
     2
100
AcDbLine
 10
-72.9210795208892
 20
128.1
 30
0.0
 11
-72.9210795208892
 21
128.0
 31
0.0
  0
LINE
  5
E2
330
5C
100
AcDbEntity
  8
1
  6
Continuous
 62
     2
100
AcDbLine
 10
-27.92107952088915
 20
128.1
 30
0.0
 11
-27.92107952088915
 21
128.0
 31
0.0
  0
LINE
  5
E3
330
5C
100
AcDbEntity
  8
1
  6
Continuous
 62
     7
100
AcDbLine
 10
-26.92107952088915
 20
128.1
 30
0.0
 11
-26.92107952088915
 21
128.0
 31
0.0
  0
LINE
  5
E4
330
5C
100
AcDbEntity
  8
1
  6
Continuous
 62
     7
100
AcDbLine
 10
-27.92107952088915
 20
128.0
 30
0.0
 11
-72.9210795208892
 21
128.0
 31
0.0
  0
LINE
  5
E5
330
5C
100
AcDbEntity
  8
1
  6
Continuous
 62
     7
100
AcDbLine
 10
-34.02107952088915
 20
99.05941170815564
 30
0.0
 11
-66.8210795208891
 21
99.05941170815564
 31
0.0
  0
LINE
  5
E6
330
5C
100
AcDbEntity
  8
1
  6
Continuous
 62
     7
100
AcDbLine
 10
-67.8210795208891
 20
104.0594117081556
 30
0.0
 11
-33.02107952088915
 21
104.0594117081556
 31
0.0
  0
LINE
  5
E7
330
5C
100
AcDbEntity
  8
1
  6
Continuous
 62
     7
100
AcDbLine
 10
-69.4210795208892
 20
98.00980486407212
 30
0.0
 11
-69.4210795208891
 21
70.39843643747756
 31
0.0
  0
LINE
  5
E8
330
5C
100
AcDbEntity
  8
1
  6
Continuous
 62
     7
100
AcDbLine
 10
-70.2268862777983
 20
103.029033784546
 30
0.0
 11
-69.6152727639799
 21
99.97096621545396
 31
0.0
  0
LINE
  5
E9
330
5C
100
AcDbEntity
  8
1
  6
Continuous
 62
     7
100
AcDbLine
 10
-70.4210795208892
 20
127.0
 30
0.0
 11
-70.4210795208892
 21
104.9901951359278
 31
0.0
  0
LINE
  5
EA
330
5C
100
AcDbEntity
  8
1
  6
Continuous
 62
     7
100
AcDbLine
 10
-72.9210795208892
 20
127.0
 30
0.0
 11
-70.4210795208892
 21
127.0
 31
0.0
  0
LINE
  5
EB
330
5C
100
AcDbEntity
  8
1
  6
Continuous
 62
     7
100
AcDbLine
 10
-31.42107952088915
 20
98.0098048640721
 30
0.0
 11
-31.42107952088915
 21
70.49999999999997
 31
0.0
  0
LINE
  5
EC
330
5C
100
AcDbEntity
  8
1
  6
Continuous
 62
     7
100
AcDbLine
 10
-30.61527276397995
 20
103.029033784546
 30
0.0
 11
-31.22688627779834
 21
99.97096621545393
 31
0.0
  0
LINE
  5
ED
330
5C
100
AcDbEntity
  8
1
  6
Continuous
 62
     7
100
AcDbLine
 10
-30.42107952088915
 20
127.0
 30
0.0
 11
-30.42107952088915
 21
104.9901951359278
 31
0.0
  0
LINE
  5
EE
330
5C
100
AcDbEntity
  8
1
  6
Continuous
 62
     7
100
AcDbLine
 10
-70.4210795208892
 20
127.0
 30
0.0
 11
-27.92107952088915
 21
127.0
 31
0.0
  0
LINE
  5
EF
330
5C
100
AcDbEntity
  8
1
  6
Continuous
 62
     2
100
AcDbLine
 10
-27.92107952088915
 20
128.0
 30
0.0
 11
-27.92107952088915
 21
127.0
 31
0.0
  0
LINE
  5
F0
330
5C
100
AcDbEntity
  8
1
  6
Continuous
 62
     7
100
AcDbLine
 10
-26.92107952088915
 20
128.0
 30
0.0
 11
-27.92107952088915
 21
128.0
 31
0.0
  0
LINE
  5
F1
330
5C
100
AcDbEntity
  8
1
  6
Continuous
 62
     2
100
AcDbLine
 10
-72.9210795208892
 20
128.0
 30
0.0
 11
-72.9210795208892
 21
127.0
 31
0.0
  0
LINE
  5
F2
330
5C
100
AcDbEntity
  8
1
  6
Continuous
 62
     7
100
AcDbLine
 10
-73.92107952088921
 20
128.0
 30
0.0
 11
-72.9210795208892
 21
128.0
 31
0.0
  0
LINE
  5
F3
330
5C
100
AcDbEntity
  8
1
  6
Continuous
 62
     7
100
AcDbLine
 10
-73.92107952088921
 20
128.0
 30
0.0
 11
-72.9210795208892
 21
127.0
 31
0.0
  0
LINE
  5
F4
330
5C
100
AcDbEntity
  8
1
  6
Continuous
 62
     7
100
AcDbLine
 10
-26.92107952088915
 20
128.0
 30
0.0
 11
-27.92107952088915
 21
127.0
 31
0.0
  0
LINE
  5
F5
330
5C
100
AcDbEntity
  8
1
  6
Continuous
 62
     7
100
AcDbLine
 10
55.03859965350625
 20
34.59999999999997
 30
0.0
 11
55.03859965350625
 21
69.39999999999998
 31
0.0
  0
LINE
  5
F6
330
5C
100
AcDbEntity
  8
1
  6
Continuous
 62
     7
100
AcDbLine
 10
60.03859965350623
 20
68.39999999999998
 30
0.0
 11
60.03859965350623
 21
35.59999999999997
 31
0.0
  0
LINE
  5
F7
330
5C
100
AcDbEntity
  8
1
  6
Continuous
 62
     7
100
AcDbLine
 10
123.4980113616619
 20
99.05941170815564
 30
0.0
 11
90.6980113616619
 21
99.05941170815564
 31
0.0
  0
LINE
  5
F8
330
5C
100
AcDbEntity
  8
1
  6
Continuous
 62
     7
100
AcDbLine
 10
89.6980113616619
 20
104.0594117081556
 30
0.0
 11
124.4980113616619
 21
104.0594117081556
 31
0.0
  0
LINE
  5
F9
330
5C
100
AcDbEntity
  8
1
  6
Continuous
 62
     7
100
AcDbLine
 10
61.08820649758974
 20
32.99999999999997
 30
0.0
 11
67.0980113616619
 21
32.99999999999997
 31
0.0
  0
LINE
  5
FA
330
5C
100
AcDbEntity
  8
1
  6
Continuous
 62
     7
100
AcDbLine
 10
56.06897757711587
 20
32.19419324309077
 30
0.0
 11
59.12704514620789
 21
32.80580675690917
 31
0.0
  0
LINE
  5
FB
330
5C
100
AcDbEntity
  8
1
  6
Continuous
 62
     7
100
AcDbLine
 10
32.09801136166189
 20
31.99999999999997
 30
0.0
 11
54.10781622573404
 21
31.99999999999997
 31
0.0
  0
LINE
  5
FC
330
5C
100
AcDbEntity
  8
1
  6
Continuous
 62
     7
100
AcDbLine
 10
32.09801136166189
 20
29.49999999999997
 30
0.0
 11
32.09801136166189
 21
31.99999999999997
 31
0.0
  0
LINE
  5
FD
330
5C
100
AcDbEntity
  8
1
  6
Continuous
 62
     7
100
AcDbLine
 10
61.08820649758975
 20
70.99999999999997
 30
0.0
 11
67.0980113616619
 21
70.99999999999997
 31
0.0
  0
LINE
  5
FE
330
5C
100
AcDbEntity
  8
1
  6
Continuous
 62
     7
100
AcDbLine
 10
56.06897757711589
 20
71.80580675690916
 30
0.0
 11
59.12704514620791
 21
71.19419324309078
 31
0.0
  0
LINE
  5
FF
330
5C
100
AcDbEntity
  8
1
  6
Continuous
 62
     7
100
AcDbLine
 10
32.09801136166189
 20
71.99999999999997
 30
0.0
 11
54.10781622573405
 21
71.99999999999997
 31
0.0
  0
LINE
  5
100
330
5C
100
AcDbEntity
  8
1
  6
Continuous
 62
     7
100
AcDbLine
 10
32.09801136166189
 20
74.49999999999997
 30
0.0
 11
32.09801136166189
 21
31.99999999999997
 31
0.0
  0
LINE
  5
101
330
5C
100
AcDbEntity
  8
1
  6
Continuous
 62
     2
100
AcDbLine
 10
31.09801136166189
 20
29.49999999999997
 30
0.0
 11
30.99801136166189
 21
29.49999999999997
 31
0.0
  0
LINE
  5
102
330
5C
100
AcDbEntity
  8
1
  6
Continuous
 62
     7
100
AcDbLine
 10
31.09801136166189
 20
28.49999999999997
 30
0.0
 11
31.09801136166189
 21
74.49999999999997
 31
0.0
  0
LINE
  5
103
330
5C
100
AcDbEntity
  8
1
  6
Continuous
 62
     2
100
AcDbLine
 10
31.09801136166189
 20
74.49999999999997
 30
0.0
 11
30.99801136166189
 21
74.49999999999997
 31
0.0
  0
LINE
  5
104
330
5C
100
AcDbEntity
  8
1
  6
Continuous
 62
     7
100
AcDbLine
 10
31.09801136166189
 20
75.49999999999997
 30
0.0
 11
31.09801136166189
 21
74.49999999999997
 31
0.0
  0
LINE
  5
105
330
5C
100
AcDbEntity
  8
1
  6
Continuous
 62
     2
100
AcDbLine
 10
32.09801136166189
 20
74.49999999999997
 30
0.0
 11
31.09801136166189
 21
74.49999999999997
 31
0.0
  0
LINE
  5
106
330
5C
100
AcDbEntity
  8
1
  6
Continuous
 62
     7
100
AcDbLine
 10
31.09801136166189
 20
75.49999999999997
 30
0.0
 11
32.09801136166189
 21
74.49999999999997
 31
0.0
  0
LINE
  5
107
330
5C
100
AcDbEntity
  8
1
  6
Continuous
 62
     2
100
AcDbLine
 10
32.09801136166189
 20
29.49999999999997
 30
0.0
 11
31.09801136166189
 21
29.49999999999997
 31
0.0
  0
LINE
  5
108
330
5C
100
AcDbEntity
  8
1
  6
Continuous
 62
     7
100
AcDbLine
 10
31.09801136166189
 20
28.49999999999997
 30
0.0
 11
32.09801136166189
 21
29.49999999999997
 31
0.0
  0
LINE
  5
109
330
5C
100
AcDbEntity
  8
1
  6
Continuous
 62
     7
100
AcDbLine
 10
88.09801136166189
 20
98.00980486407212
 30
0.0
 11
88.09801136166189
 21
91.99999999999997
 31
0.0
  0
LINE
  5
10A
330
5C
100
AcDbEntity
  8
1
  6
Continuous
 62
     7
100
AcDbLine
 10
87.2922046047527
 20
103.029033784546
 30
0.0
 11
87.90381811857111
 21
99.97096621545396
 31
0.0
  0
LINE
  5
10B
330
5C
100
AcDbEntity
  8
1
  6
Continuous
 62
     7
100
AcDbLine
 10
87.09801136166189
 20
127.0
 30
0.0
 11
87.09801136166189
 21
104.9901951359278
 31
0.0
  0
LINE
  5
10C
330
5C
100
AcDbEntity
  8
1
  6
Continuous
 62
     7
100
AcDbLine
 10
84.59801136166189
 20
127.0
 30
0.0
 11
127.0980113616619
 21
127.0
 31
0.0
  0
LINE
  5
10D
330
5C
100
AcDbEntity
  8
1
  6
Continuous
 62
     7
100
AcDbLine
 10
126.0980113616619
 20
98.0098048640721
 30
0.0
 11
126.0980113616619
 21
91.99999999999997
 31
0.0
  0
LINE
  5
10E
330
5C
100
AcDbEntity
  8
1
  6
Continuous
 62
     7
100
AcDbLine
 10
126.9038181185711
 20
103.029033784546
 30
0.0
 11
126.2922046047527
 21
99.97096621545393
 31
0.0
  0
LINE
  5
10F
330
5C
100
AcDbEntity
  8
1
  6
Continuous
 62
     7
100
AcDbLine
 10
127.0980113616619
 20
127.0
 30
0.0
 11
127.0980113616619
 21
104.9901951359278
 31
0.0
  0
LINE
  5
110
330
5C
100
AcDbEntity
  8
1
  6
Continuous
 62
     7
100
AcDbLine
 10
127.0980113616619
 20
127.0
 30
0.0
 11
129.5980113616619
 21
127.0
 31
0.0
  0
LINE
  5
111
330
5C
100
AcDbEntity
  8
1
  6
Continuous
 62
     2
100
AcDbLine
 10
129.5980113616619
 20
128.0
 30
0.0
 11
129.5980113616619
 21
127.0
 31
0.0
  0
LINE
  5
112
330
5C
100
AcDbEntity
  8
1
  6
Continuous
 62
     7
100
AcDbLine
 10
130.5980113616619
 20
128.0
 30
0.0
 11
129.5980113616619
 21
128.0
 31
0.0
  0
LINE
  5
113
330
5C
100
AcDbEntity
  8
1
  6
Continuous
 62
     2
100
AcDbLine
 10
84.59801136166189
 20
128.0
 30
0.0
 11
84.59801136166189
 21
127.0
 31
0.0
  0
LINE
  5
114
330
5C
100
AcDbEntity
  8
1
  6
Continuous
 62
     7
100
AcDbLine
 10
83.59801136166189
 20
128.0
 30
0.0
 11
129.5980113616619
 21
128.0
 31
0.0
  0
LINE
  5
115
330
5C
100
AcDbEntity
  8
1
  6
Continuous
 62
     7
100
AcDbLine
 10
83.59801136166189
 20
128.0
 30
0.0
 11
84.59801136166189
 21
127.0
 31
0.0
  0
LINE
  5
116
330
5C
100
AcDbEntity
  8
1
  6
Continuous
 62
     7
100
AcDbLine
 10
130.5980113616619
 20
128.0
 30
0.0
 11
129.5980113616619
 21
127.0
 31
0.0
  0
ARC
  5
117
330
5C
100
AcDbEntity
  8
1
  6
Continuous
 62
     7
100
AcDbCircle
 10
67.0980113616619
 20
91.99999999999997
 30
0.0
 40
59.0
100
AcDbArc
 50
270.0
 51
0.0
  0
ARC
  5
118
330
5C
100
AcDbEntity
  8
1
  6
Continuous
 62
     7
100
AcDbCircle
 10
67.0980113616619
 20
91.99999999999997
 30
0.0
 40
21.0
100
AcDbArc
 50
270.0
 51
0.0
  0
ARC
  5
119
330
5C
100
AcDbEntity
  8
1
  6
Continuous
 62
     7
100
AcDbCircle
 10
54.10781622573404
 20
215.019090882551
 30
0.0
 40
10.0
100
AcDbArc
 50
270.0
 51
281.3099324740201
  0
ARC
  5
11A
330
5C
100
AcDbEntity
  8
1
  6
Continuous
 62
     7
100
AcDbCircle
 10
61.08820649758974
 20
196.019090882551
 30
0.0
 40
10.0
100
AcDbArc
 50
90.0
 51
101.3099324740203
  0
ARC
  5
11B
330
5C
100
AcDbEntity
  8
1
  6
Continuous
 62
     7
100
AcDbCircle
 10
54.10781622573404
 20
235.019090882551
 30
0.0
 40
9.999999999999991
100
AcDbArc
 50
78.69006752597974
 51
89.99999999999996
  0
ARC
  5
11C
330
5C
100
AcDbEntity
  8
1
  6
Continuous
 62
     7
100
AcDbCircle
 10
61.08820649758975
 20
254.019090882551
 30
0.0
 40
10.00000000000002
100
AcDbArc
 50
258.6900675259798
 51
270.0
  0
ARC
  5
11D
330
5C
100
AcDbEntity
  8
1
  6
Continuous
 62
     7
100
AcDbCircle
 10
-60.42107952088919
 20
104.9901951359278
 30
0.0
 40
10.00000000000001
100
AcDbArc
 50
180.0
 51
191.3099324740201
  0
ARC
  5
11E
330
5C
100
AcDbEntity
  8
1
  6
Continuous
 62
     7
100
AcDbCircle
 10
-79.4210795208892
 20
98.00980486407212
 30
0.0
 40
10.0
100
AcDbArc
 50
0.0
 51
11.30993247402007
  0
ARC
  5
11F
330
5C
100
AcDbEntity
  8
1
  6
Continuous
 62
     7
100
AcDbCircle
 10
-21.42107952088915
 20
98.0098048640721
 30
0.0
 40
9.999999999999986
100
AcDbArc
 50
168.6900675259798
 51
180.0
  0
ARC
  5
120
330
5C
100
AcDbEntity
  8
1
  6
Continuous
 62
     7
100
AcDbCircle
 10
-40.42107952088915
 20
104.9901951359278
 30
0.0
 40
9.999999999999995
100
AcDbArc
 50
348.69006752598
 51
0.0
  0
ARC
  5
121
330
5C
100
AcDbEntity
  8
1
  6
Continuous
 62
     7
100
AcDbCircle
 10
54.10781622573404
 20
41.99999999999997
 30
0.0
 40
10.0
100
AcDbArc
 50
270.0
 51
281.3099324740202
  0
ARC
  5
122
330
5C
100
AcDbEntity
  8
1
  6
Continuous
 62
     7
100
AcDbCircle
 10
61.08820649758974
 20
22.99999999999997
 30
0.0
 40
10.0
100
AcDbArc
 50
90.0
 51
101.3099324740203
  0
ARC
  5
123
330
5C
100
AcDbEntity
  8
1
  6
Continuous
 62
     7
100
AcDbCircle
 10
54.10781622573404
 20
61.99999999999997
 30
0.0
 40
9.999999999999991
100
AcDbArc
 50
78.69006752597974
 51
89.99999999999996
  0
ARC
  5
124
330
5C
100
AcDbEntity
  8
1
  6
Continuous
 62
     7
100
AcDbCircle
 10
61.08820649758975
 20
80.99999999999997
 30
0.0
 40
9.99999999999999
100
AcDbArc
 50
258.6900675259798
 51
270.0
  0
ARC
  5
125
330
5C
100
AcDbEntity
  8
1
  6
Continuous
 62
     7
100
AcDbCircle
 10
97.09801136166189
 20
104.9901951359278
 30
0.0
 40
10.0
100
AcDbArc
 50
180.0
 51
191.30993247402
  0
ARC
  5
126
330
5C
100
AcDbEntity
  8
1
  6
Continuous
 62
     7
100
AcDbCircle
 10
78.09801136166189
 20
98.00980486407212
 30
0.0
 40
10.0
100
AcDbArc
 50
0.0
 51
11.30993247402015
  0
ARC
  5
127
330
5C
100
AcDbEntity
  8
1
  6
Continuous
 62
     7
100
AcDbCircle
 10
136.0980113616619
 20
98.0098048640721
 30
0.0
 40
9.99999999999999
100
AcDbArc
 50
168.6900675259798
 51
180.0
  0
ARC
  5
128
330
5C
100
AcDbEntity
  8
1
  6
Continuous
 62
     7
100
AcDbCircle
 10
117.0980113616619
 20
104.9901951359278
 30
0.0
 40
9.999999999999982
100
AcDbArc
 50
348.69006752598
 51
0.0
  0
ENDBLK
  5
5E
330
5C
100
AcDbEntity
  8
0
100
AcDbBlockEnd
  0
BLOCK
  5
60
330
5F
100
AcDbEntity
  8
0
100
AcDbBlockBegin
  2
開示縦HP-A4
 70
     0
 10
104.2445787993328
 20
-45.84365960631266
 30
0.0
  3
開示縦HP-A4
  1

  0
LINE
  5
129
330
5F
100
AcDbEntity
  8
1
  6
Continuous
 62
     7
100
AcDbLine
 10
-55.75542120066665
 20
227.1563403936876
 30
0.0
 11
-70.75542120066665
 21
227.1563403936876
 31
0.0
  0
LINE
  5
12A
330
5F
100
AcDbEntity
  8
1
  6
Continuous
 62
     2
100
AcDbLine
 10
-55.75542120066665
 20
217.1563403936876
 30
0.0
 11
-40.75542120066665
 21
217.1563403936876
 31
0.0
  0
LINE
  5
12B
330
5F
100
AcDbEntity
  8
1
  6
Continuous
 62
     2
100
AcDbLine
 10
-55.75542120066665
 20
227.1563403936876
 30
0.0
 11
-55.75542120066665
 21
217.1563403936876
 31
0.0
  0
LINE
  5
12C
330
5F
100
AcDbEntity
  8
1
  6
Continuous
 62
     7
100
AcDbLine
 10
-40.75542120066665
 20
227.1563403936876
 30
0.0
 11
-55.75542120066665
 21
227.1563403936876
 31
0.0
  0
LINE
  5
12D
330
5F
100
AcDbEntity
  8
1
  6
Continuous
 62
     2
100
AcDbLine
 10
-40.75542120066665
 20
217.1563403936876
 30
0.0
 11
-40.75542120066665
 21
227.1563403936876
 31
0.0
  0
LINE
  5
12E
330
5F
100
AcDbEntity
  8
1
  6
Continuous
 62
     7
100
AcDbLine
 10
-70.75542120066665
 20
217.1563403936876
 30
0.0
 11
-70.75542120066665
 21
227.1563403936876
 31
0.0
  0
LINE
  5
12F
330
5F
100
AcDbEntity
  8
1
  6
Continuous
 62
     2
100
AcDbLine
 10
-70.75542120066665
 20
217.1563403936876
 30
0.0
 11
-55.75542120066665
 21
217.1563403936876
 31
0.0
  0
LINE
  5
130
330
5F
100
AcDbEntity
  8
0
  6
Continuous
 62
     2
100
AcDbLine
 10
67.24457879933338
 20
-31.84365960631266
 30
0.0
 11
67.24457879933338
 21
-45.84365960631266
 31
0.0
  0
LINE
  5
131
330
5F
100
AcDbEntity
  8
0
  6
Continuous
 62
     2
100
AcDbLine
 10
59.24457879933338
 20
-45.84365960631266
 30
0.0
 11
59.24457879933338
 21
-31.84365960631266
 31
0.0
  0
LINE
  5
132
330
5F
100
AcDbEntity
  8
0
  6
Continuous
 62
     2
100
AcDbLine
 10
54.24457879933338
 20
-45.84365960631266
 30
0.0
 11
54.24457879933338
 21
-31.84365960631266
 31
0.0
  0
LINE
  5
133
330
5F
100
AcDbEntity
  8
0
  6
Continuous
 62
     2
100
AcDbLine
 10
46.2445787993335
 20
-45.84365960631266
 30
0.0
 11
46.2445787993335
 21
-31.84365960631266
 31
0.0
  0
LINE
  5
134
330
5F
100
AcDbEntity
  8
0
  6
Continuous
 62
     2
100
AcDbLine
 10
41.2445787993335
 20
-45.84365960631266
 30
0.0
 11
41.2445787993335
 21
-31.84365960631266
 31
0.0
  0
LINE
  5
135
330
5F
100
AcDbEntity
  8
0
  6
Continuous
 62
     2
100
AcDbLine
 10
33.2445787993335
 20
-45.84365960631266
 30
0.0
 11
33.24457879933338
 21
-31.84365960631266
 31
0.0
  0
LINE
  5
136
330
5F
100
AcDbEntity
  8
0
  6
Continuous
 62
     2
100
AcDbLine
 10
28.2445787993335
 20
-45.84365960631266
 30
0.0
 11
28.2445787993335
 21
-31.84365960631266
 31
0.0
  0
LINE
  5
137
330
5F
100
AcDbEntity
  8
0
  6
Continuous
 62
     2
100
AcDbLine
 10
20.2445787993335
 20
-31.84365960631266
 30
0.0
 11
20.2445787993335
 21
-45.84365960631266
 31
0.0
  0
LINE
  5
138
330
5F
100
AcDbEntity
  8
0
  6
Continuous
 62
     2
100
AcDbLine
 10
15.2445787993335
 20
-31.84365960631266
 30
0.0
 11
15.2445787993335
 21
-45.84365960631266
 31
0.0
  0
LINE
  5
139
330
5F
100
AcDbEntity
  8
0
  6
Continuous
 62
     2
100
AcDbLine
 10
14.00680356734499
 20
-35.76908774496138
 30
0.0
 11
7.7647167664944
 21
-43.47900054628448
 31
0.0
  0
LINE
  5
13A
330
5F
100
AcDbEntity
  8
0
  6
Continuous
 62
     2
100
AcDbLine
 10
6.2445787993335
 20
-45.84365960631266
 30
0.0
 11
6.2445787993335
 21
-31.84365960631266
 31
0.0
  0
LINE
  5
13B
330
5F
100
AcDbEntity
  8
0
  6
Continuous
 62
     2
100
AcDbLine
 10
1.24457879933344
 20
-45.84365960631266
 30
0.0
 11
1.24457879933334
 21
-31.84365960631266
 31
0.0
  0
LINE
  5
13C
330
5F
100
AcDbEntity
  8
0
  6
Continuous
 62
     2
100
AcDbLine
 10
-20.75542120066656
 20
-45.84365960631266
 30
0.0
 11
-20.75542120066656
 21
-31.84365960631266
 31
0.0
  0
LINE
  5
13D
330
5F
100
AcDbEntity
  8
0
  6
Continuous
 62
     2
100
AcDbLine
 10
-25.75542120066656
 20
-31.84365960631266
 30
0.0
 11
-25.75542120066656
 21
-45.84365960631266
 31
0.0
  0
LINE
  5
13E
330
5F
100
AcDbEntity
  8
0
  6
Continuous
 62
     2
100
AcDbLine
 10
-65.75542120066656
 20
-17.84365960631266
 30
0.0
 11
-65.75542120066656
 21
-45.84365960631266
 31
0.0
  0
LINE
  5
13F
330
5F
100
AcDbEntity
  8
0
  6
Continuous
 62
     2
100
AcDbLine
 10
-70.75542120066665
 20
-31.84365960631266
 30
0.0
 11
104.2445787993334
 21
-31.84365960631266
 31
0.0
  0
LINE
  5
140
330
5F
100
AcDbEntity
  8
0
  6
Continuous
 62
     7
100
AcDbLine
 10
-70.75542120066665
 20
-17.84365960631266
 30
0.0
 11
-65.75542120066656
 21
-17.84365960631266
 31
0.0
  0
LINE
  5
141
330
5F
100
AcDbEntity
  8
1
  6
PHANTOM
 62
     4
100
AcDbLine
 10
-95.75542120066665
 20
-55.84365960631266
 30
0.0
 11
114.2445787993334
 21
-55.84365960631266
 31
0.0
  0
LINE
  5
142
330
5F
100
AcDbEntity
  8
1
  6
PHANTOM
 62
     4
100
AcDbLine
 10
-95.75542120066665
 20
241.1563403936876
 30
0.0
 11
-95.75542120066665
 21
-55.84365960631266
 31
0.0
  0
LINE
  5
143
330
5F
100
AcDbEntity
  8
1
  6
PHANTOM
 62
     4
100
AcDbLine
 10
114.2445787993334
 20
-55.84365960631266
 30
0.0
 11
114.2445787993334
 21
241.1563403936876
 31
0.0
  0
LINE
  5
144
330
5F
100
AcDbEntity
  8
1
  6
PHANTOM
 62
     4
100
AcDbLine
 10
114.2445787993334
 20
241.1563403936876
 30
0.0
 11
-95.75542120066665
 21
241.1563403936876
 31
0.0
  0
LINE
  5
145
330
5F
100
AcDbEntity
  8
1
  6
Continuous
 62
     7
100
AcDbLine
 10
104.2445787993334
 20
-45.84365960631266
 30
0.0
 11
104.2445787993334
 21
88.65634039368746
 31
0.0
  0
LINE
  5
146
330
5F
100
AcDbEntity
  8
1
  6
Continuous
 62
     7
100
AcDbLine
 10
104.2445787993334
 20
227.1563403936876
 30
0.0
 11
9.24457879933338
 21
227.1563403936876
 31
0.0
  0
LINE
  5
147
330
5F
100
AcDbEntity
  8
1
  6
Continuous
 62
     7
100
AcDbLine
 10
-70.75542120066665
 20
-45.84365960631266
 30
0.0
 11
9.24457879933338
 21
-45.84365960631266
 31
0.0
  0
LINE
  5
148
330
5F
100
AcDbEntity
  8
1
  6
Continuous
 62
     7
100
AcDbLine
 10
-70.75542120066665
 20
-45.84365960631266
 30
0.0
 11
-70.75542120066665
 21
88.65634039368746
 31
0.0
  0
LINE
  5
149
330
5F
100
AcDbEntity
  8
1
  6
Continuous
 62
     2
100
AcDbLine
 10
9.24457879933338
 20
227.1563403936876
 30
0.0
 11
9.24457879933338
 21
232.1563403936876
 31
0.0
  0
LINE
  5
14A
330
5F
100
AcDbEntity
  8
1
  6
Continuous
 62
     7
100
AcDbLine
 10
9.24457879933338
 20
227.1563403936876
 30
0.0
 11
-40.75542120066665
 21
227.1563403936876
 31
0.0
  0
LINE
  5
14B
330
5F
100
AcDbEntity
  8
1
  6
Continuous
 62
     2
100
AcDbLine
 10
104.2445787993334
 20
88.65634039368746
 30
0.0
 11
109.2445787993334
 21
88.65634039368746
 31
0.0
  0
LINE
  5
14C
330
5F
100
AcDbEntity
  8
1
  6
Continuous
 62
     7
100
AcDbLine
 10
104.2445787993334
 20
88.65634039368746
 30
0.0
 11
104.2445787993334
 21
227.1563403936876
 31
0.0
  0
LINE
  5
14D
330
5F
100
AcDbEntity
  8
1
  6
Continuous
 62
     2
100
AcDbLine
 10
-70.75542120066665
 20
88.65634039368746
 30
0.0
 11
-75.75542120066665
 21
88.65634039368746
 31
0.0
  0
LINE
  5
14E
330
5F
100
AcDbEntity
  8
1
  6
Continuous
 62
     7
100
AcDbLine
 10
-70.75542120066665
 20
88.65634039368746
 30
0.0
 11
-70.75542120066665
 21
217.1563403936876
 31
0.0
  0
LINE
  5
14F
330
5F
100
AcDbEntity
  8
1
  6
Continuous
 62
     2
100
AcDbLine
 10
9.24457879933338
 20
-45.84365960631266
 30
0.0
 11
9.24457879933338
 21
-50.84365960631266
 31
0.0
  0
LINE
  5
150
330
5F
100
AcDbEntity
  8
1
  6
Continuous
 62
     7
100
AcDbLine
 10
9.24457879933338
 20
-45.84365960631266
 30
0.0
 11
104.2445787993334
 21
-45.84365960631266
 31
0.0
  0
LINE
  5
151
102
{ACAD_REACTORS
330
1C2
102
}
330
5F
100
AcDbEntity
  8
1
  6
Continuous
 62
     7
100
AcDbLine
 10
73.17901979548081
 20
-33.63195524355327
 30
0.0
 11
73.01898168649346
 21
-33.90914937946658
 31
0.0
  0
LINE
  5
152
102
{ACAD_REACTORS
330
1C2
102
}
330
5F
100
AcDbEntity
  8
1
  6
Continuous
 62
     7
100
AcDbLine
 10
73.82410254135088
 20
-35.30365960631267
 30
0.0
 11
74.1441787593253
 21
-35.30365960631267
 31
0.0
  0
LINE
  5
153
102
{ACAD_REACTORS
330
1C2
102
}
330
5F
100
AcDbEntity
  8
1
  6
Continuous
 62
     7
100
AcDbLine
 10
73.10973776317819
 20
-37.09536396907208
 30
0.0
 11
72.94969965419067
 21
-36.81816983315877
 31
0.0
  0
LINE
  5
154
102
{ACAD_REACTORS
330
1C2
102
}
330
5F
100
AcDbEntity
  8
1
  6
Continuous
 62
     7
100
AcDbLine
 10
71.33945794447617
 20
-36.81816983315877
 30
0.0
 11
71.17941983548872
 21
-37.09536396907208
 31
0.0
  0
LINE
  5
155
102
{ACAD_REACTORS
330
1C2
102
}
330
5F
100
AcDbEntity
  8
1
  6
Continuous
 62
     7
100
AcDbLine
 10
71.27017591217331
 20
-33.90914937946658
 30
0.0
 11
71.11013780318608
 21
-33.63195524355327
 31
0.0
  0
LINE
  5
156
102
{ACAD_REACTORS
330
1C2
102
}
330
5F
100
AcDbEntity
  8
1
  6
Continuous
 62
     7
100
AcDbLine
 10
70.14497883934158
 20
-35.30365960631267
 30
0.0
 11
70.46505505731601
 21
-35.30365960631267
 31
0.0
  0
LINE
  5
157
102
{ACAD_REACTORS
330
1C2
102
}
330
5F
100
AcDbEntity
  8
1
  6
Continuous
 62
     7
100
AcDbLine
 10
71.17941983548872
 20
-33.59195524355327
 30
0.0
 11
72.14457879933347
 21
-35.26365960631267
 31
0.0
  0
LINE
  5
158
102
{ACAD_REACTORS
330
1C2
102
}
330
5F
100
AcDbEntity
  8
1
  6
Continuous
 62
     7
100
AcDbLine
 10
72.07529676703079
 20
-35.30365960631267
 30
0.0
 11
71.3101878222568
 21
-33.97845204063886
 31
0.0
  0
LINE
  5
159
102
{ACAD_REACTORS
330
1C2
102
}
330
5F
100
AcDbEntity
  8
1
  6
Continuous
 62
     7
100
AcDbLine
 10
72.07529676703079
 20
-35.30365960631267
 30
0.0
 11
70.54507887748291
 21
-35.30365960631267
 31
0.0
  0
LINE
  5
15A
102
{ACAD_REACTORS
330
1C2
102
}
330
5F
100
AcDbEntity
  8
1
  6
Continuous
 62
     7
100
AcDbLine
 10
72.07529676703079
 20
-35.38365960631268
 30
0.0
 11
70.14497883934158
 21
-35.38365960631268
 31
0.0
  0
LINE
  5
15B
102
{ACAD_REACTORS
330
1C2
102
}
330
5F
100
AcDbEntity
  8
1
  6
Continuous
 62
     7
100
AcDbLine
 10
74.1441787593253
 20
-35.38365960631268
 30
0.0
 11
72.2138608316361
 21
-35.38365960631268
 31
0.0
  0
LINE
  5
15C
102
{ACAD_REACTORS
330
1C2
102
}
330
5F
100
AcDbEntity
  8
1
  6
Continuous
 62
     7
100
AcDbLine
 10
72.2138608316361
 20
-35.30365960631267
 30
0.0
 11
73.7440787211841
 21
-35.30365960631267
 31
0.0
  0
LINE
  5
15D
102
{ACAD_REACTORS
330
1C2
102
}
330
5F
100
AcDbEntity
  8
1
  6
Continuous
 62
     7
100
AcDbLine
 10
72.2138608316361
 20
-35.30365960631267
 30
0.0
 11
72.97896977641021
 21
-33.97845204063886
 31
0.0
  0
LINE
  5
15E
102
{ACAD_REACTORS
330
1C2
102
}
330
5F
100
AcDbEntity
  8
1
  6
Continuous
 62
     7
100
AcDbLine
 10
72.14457879933347
 20
-35.26365960631267
 30
0.0
 11
73.10973776317819
 21
-33.59195524355327
 31
0.0
  0
LINE
  5
15F
102
{ACAD_REACTORS
330
1C2
102
}
330
5F
100
AcDbEntity
  8
1
  6
Continuous
 62
     7
100
AcDbLine
 10
72.2138608316361
 20
-35.38365960631268
 30
0.0
 11
73.17901979548081
 21
-37.05536396907208
 31
0.0
  0
LINE
  5
160
102
{ACAD_REACTORS
330
1C2
102
}
330
5F
100
AcDbEntity
  8
1
  6
Continuous
 62
     7
100
AcDbLine
 10
72.14457879933347
 20
-35.42365960631268
 30
0.0
 11
72.9096877441073
 21
-36.74886717198648
 31
0.0
  0
LINE
  5
161
102
{ACAD_REACTORS
330
1C2
102
}
330
5F
100
AcDbEntity
  8
1
  6
Continuous
 62
     7
100
AcDbLine
 10
72.14457879933347
 20
-35.42365960631268
 30
0.0
 11
71.37946985455947
 21
-36.74886717198648
 31
0.0
  0
LINE
  5
162
102
{ACAD_REACTORS
330
1C2
102
}
330
5F
100
AcDbEntity
  8
1
  6
Continuous
 62
     7
100
AcDbLine
 10
71.11013780318608
 20
-37.05536396907208
 30
0.0
 11
72.07529676703079
 21
-35.38365960631268
 31
0.0
  0
LINE
  5
163
102
{ACAD_REACTORS
330
1C3
102
}
330
5F
100
AcDbEntity
  8
1
  6
Continuous
 62
     7
100
AcDbLine
 10
84.4485787993335
 20
-33.74365960631268
 30
0.0
 11
84.4485787993335
 21
-36.46365960631268
 31
0.0
  0
LINE
  5
164
102
{ACAD_REACTORS
330
1C3
102
}
330
5F
100
AcDbEntity
  8
1
  6
Continuous
 62
     7
100
AcDbLine
 10
83.9685787993336
 20
-33.74365960631268
 30
0.0
 11
84.4485787993335
 21
-33.74365960631268
 31
0.0
  0
LINE
  5
165
102
{ACAD_REACTORS
330
1C3
102
}
330
5F
100
AcDbEntity
  8
1
  6
Continuous
 62
     7
100
AcDbLine
 10
83.9685787993336
 20
-36.46365960631268
 30
0.0
 11
83.9685787993336
 21
-33.74365960631268
 31
0.0
  0
LINE
  5
166
102
{ACAD_REACTORS
330
1C3
102
}
330
5F
100
AcDbEntity
  8
1
  6
Continuous
 62
     7
100
AcDbLine
 10
82.04857879933341
 20
-36.94365960631267
 30
0.0
 11
82.04857879933341
 21
-34.22365960631267
 31
0.0
  0
LINE
  5
167
102
{ACAD_REACTORS
330
1C3
102
}
330
5F
100
AcDbEntity
  8
1
  6
Continuous
 62
     7
100
AcDbLine
 10
82.52857879933349
 20
-36.94365960631267
 30
0.0
 11
82.04857879933341
 21
-36.94365960631267
 31
0.0
  0
LINE
  5
168
102
{ACAD_REACTORS
330
1C3
102
}
330
5F
100
AcDbEntity
  8
1
  6
Continuous
 62
     7
100
AcDbLine
 10
82.52857879933349
 20
-34.22365960631267
 30
0.0
 11
82.52857879933349
 21
-36.94365960631267
 31
0.0
  0
LINE
  5
169
102
{ACAD_REACTORS
330
1C3
102
}
330
5F
100
AcDbEntity
  8
1
  6
Continuous
 62
     7
100
AcDbLine
 10
82.52857879933349
 20
-34.22365960631267
 30
0.0
 11
83.52463966123251
 21
-36.64619190937757
 31
0.0
  0
LINE
  5
16A
102
{ACAD_REACTORS
330
1C3
102
}
330
5F
100
AcDbEntity
  8
1
  6
Continuous
 62
     7
100
AcDbLine
 10
83.9685787993336
 20
-36.46365960631268
 30
0.0
 11
82.9725179374344
 21
-34.04112730324778
 31
0.0
  0
LINE
  5
16B
102
{ACAD_REACTORS
330
1C4
102
}
330
5F
100
AcDbEntity
  8
0
  6
Continuous
 62
     7
100
AcDbLine
 10
76.6645787993334
 20
-34.22365960631267
 30
0.0
 11
77.98457879933339
 21
-34.22365960631267
 31
0.0
  0
LINE
  5
16C
102
{ACAD_REACTORS
330
1C4
102
}
330
5F
100
AcDbEntity
  8
0
  6
Continuous
 62
     7
100
AcDbLine
 10
77.2245787993334
 20
-35.10365960631268
 30
0.0
 11
76.6645787993334
 21
-35.10365960631268
 31
0.0
  0
LINE
  5
16D
102
{ACAD_REACTORS
330
1C4
102
}
330
5F
100
AcDbEntity
  8
0
  6
Continuous
 62
     7
100
AcDbLine
 10
75.74457879933338
 20
-36.94365960631267
 30
0.0
 11
77.2245787993334
 21
-36.94365960631267
 31
0.0
  0
LINE
  5
16E
102
{ACAD_REACTORS
330
1C4
102
}
330
5F
100
AcDbEntity
  8
0
  6
Continuous
 62
     7
100
AcDbLine
 10
75.74457879933338
 20
-36.46365960631268
 30
0.0
 11
75.74457879933338
 21
-36.94365960631267
 31
0.0
  0
LINE
  5
16F
102
{ACAD_REACTORS
330
1C4
102
}
330
5F
100
AcDbEntity
  8
0
  6
Continuous
 62
     7
100
AcDbLine
 10
77.2245787993334
 20
-36.46365960631268
 30
0.0
 11
75.74457879933338
 21
-36.46365960631268
 31
0.0
  0
LINE
  5
170
102
{ACAD_REACTORS
330
1C4
102
}
330
5F
100
AcDbEntity
  8
0
  6
Continuous
 62
     7
100
AcDbLine
 10
76.6645787993334
 20
-35.58365960631267
 30
0.0
 11
77.2245787993334
 21
-35.58365960631267
 31
0.0
  0
LINE
  5
171
102
{ACAD_REACTORS
330
1C4
102
}
330
5F
100
AcDbEntity
  8
0
  6
Continuous
 62
     7
100
AcDbLine
 10
77.98457879933339
 20
-33.74365960631268
 30
0.0
 11
76.6645787993334
 21
-33.74365960631268
 31
0.0
  0
LINE
  5
172
102
{ACAD_REACTORS
330
1C4
102
}
330
5F
100
AcDbEntity
  8
0
  6
Continuous
 62
     7
100
AcDbLine
 10
77.98457879933339
 20
-34.22365960631267
 30
0.0
 11
77.98457879933339
 21
-33.74365960631268
 31
0.0
  0
LINE
  5
173
102
{ACAD_REACTORS
330
1C5
102
}
330
5F
100
AcDbEntity
  8
0
  6
Continuous
 62
     7
100
AcDbLine
 10
80.8165787993335
 20
-36.30365960631267
 30
0.0
 11
80.8165787993335
 21
-36.94365960631267
 31
0.0
  0
LINE
  5
174
102
{ACAD_REACTORS
330
1C5
102
}
330
5F
100
AcDbEntity
  8
0
  6
Continuous
 62
     7
100
AcDbLine
 10
79.37657879933327
 20
-36.30365960631267
 30
0.0
 11
80.8165787993335
 21
-36.30365960631267
 31
0.0
  0
LINE
  5
175
102
{ACAD_REACTORS
330
1C5
102
}
330
5F
100
AcDbEntity
  8
0
  6
Continuous
 62
     7
100
AcDbLine
 10
79.37657879933327
 20
-35.82365960631267
 30
0.0
 11
79.37657879933327
 21
-34.94365960631267
 31
0.0
  0
LINE
  5
176
102
{ACAD_REACTORS
330
1C5
102
}
330
5F
100
AcDbEntity
  8
0
  6
Continuous
 62
     7
100
AcDbLine
 10
79.37657879933327
 20
-35.82365960631267
 30
0.0
 11
80.8165787993335
 21
-35.82365960631267
 31
0.0
  0
LINE
  5
177
102
{ACAD_REACTORS
330
1C5
102
}
330
5F
100
AcDbEntity
  8
0
  6
Continuous
 62
     7
100
AcDbLine
 10
78.89657879933337
 20
-36.94365960631267
 30
0.0
 11
79.37657879933327
 21
-36.94365960631267
 31
0.0
  0
LINE
  5
178
102
{ACAD_REACTORS
330
1C5
102
}
330
5F
100
AcDbEntity
  8
0
  6
Continuous
 62
     7
100
AcDbLine
 10
78.89657879933337
 20
-34.94365960631267
 30
0.0
 11
78.89657879933337
 21
-36.94365960631267
 31
0.0
  0
LINE
  5
179
102
{ACAD_REACTORS
330
1C5
102
}
330
5F
100
AcDbEntity
  8
0
  6
Continuous
 62
     7
100
AcDbLine
 10
81.2965787993334
 20
-36.94365960631267
 30
0.0
 11
81.2965787993334
 21
-34.94365960631267
 31
0.0
  0
LINE
  5
17A
102
{ACAD_REACTORS
330
1C5
102
}
330
5F
100
AcDbEntity
  8
0
  6
Continuous
 62
     7
100
AcDbLine
 10
80.8165787993335
 20
-36.94365960631267
 30
0.0
 11
81.2965787993334
 21
-36.94365960631267
 31
0.0
  0
LINE
  5
17B
102
{ACAD_REACTORS
330
1C5
102
}
330
5F
100
AcDbEntity
  8
0
  6
Continuous
 62
     7
100
AcDbLine
 10
80.8165787993335
 20
-34.94365960631267
 30
0.0
 11
80.8165787993335
 21
-35.82365960631267
 31
0.0
  0
LINE
  5
17C
102
{ACAD_REACTORS
330
1C5
102
}
330
5F
100
AcDbEntity
  8
0
  6
Continuous
 62
     7
100
AcDbLine
 10
79.37657879933327
 20
-36.94365960631267
 30
0.0
 11
79.37657879933327
 21
-36.30365960631267
 31
0.0
  0
LINE
  5
17D
102
{ACAD_REACTORS
330
1C6
102
}
330
5F
100
AcDbEntity
  8
0
  6
Continuous
 62
     7
100
AcDbLine
 10
85.20057879933351
 20
-35.06365960631268
 30
0.0
 11
85.20057879933351
 21
-35.62365960631266
 31
0.0
  0
LINE
  5
17E
102
{ACAD_REACTORS
330
1C6
102
}
330
5F
100
AcDbEntity
  8
0
  6
Continuous
 62
     7
100
AcDbLine
 10
86.80057879933331
 20
-35.06365960631268
 30
0.0
 11
85.20057879933351
 21
-35.06365960631268
 31
0.0
  0
LINE
  5
17F
102
{ACAD_REACTORS
330
1C6
102
}
330
5F
100
AcDbEntity
  8
0
  6
Continuous
 62
     7
100
AcDbLine
 10
86.80057879933331
 20
-35.62365960631266
 30
0.0
 11
86.80057879933331
 21
-35.06365960631268
 31
0.0
  0
LINE
  5
180
102
{ACAD_REACTORS
330
1C6
102
}
330
5F
100
AcDbEntity
  8
0
  6
Continuous
 62
     7
100
AcDbLine
 10
85.20057879933351
 20
-35.62365960631266
 30
0.0
 11
86.80057879933331
 21
-35.62365960631266
 31
0.0
  0
LINE
  5
181
102
{ACAD_REACTORS
330
1C1
102
}
330
5F
100
AcDbEntity
  8
0
  6
Continuous
 62
     7
100
AcDbLine
 10
89.95257879933335
 20
-36.94365960631267
 30
0.0
 11
87.95257879933335
 21
-36.94365960631267
 31
0.0
  0
LINE
  5
182
102
{ACAD_REACTORS
330
1C1
102
}
330
5F
100
AcDbEntity
  8
0
  6
Continuous
 62
     7
100
AcDbLine
 10
87.55257879933338
 20
-36.54365960631267
 30
0.0
 11
87.55257879933338
 21
-34.14365960631267
 31
0.0
  0
LINE
  5
183
102
{ACAD_REACTORS
330
1C1
102
}
330
5F
100
AcDbEntity
  8
0
  6
Continuous
 62
     7
100
AcDbLine
 10
89.95257879933335
 20
-33.74365960631268
 30
0.0
 11
87.95257879933335
 21
-33.74365960631268
 31
0.0
  0
LINE
  5
184
102
{ACAD_REACTORS
330
1C1
102
}
330
5F
100
AcDbEntity
  8
0
  6
Continuous
 62
     7
100
AcDbLine
 10
89.95257879933335
 20
-34.22365960631267
 30
0.0
 11
89.95257879933335
 21
-33.74365960631268
 31
0.0
  0
LINE
  5
185
102
{ACAD_REACTORS
330
1C1
102
}
330
5F
100
AcDbEntity
  8
0
  6
Continuous
 62
     7
100
AcDbLine
 10
89.95257879933335
 20
-34.22365960631267
 30
0.0
 11
88.19257879933348
 21
-34.22365960631267
 31
0.0
  0
LINE
  5
186
102
{ACAD_REACTORS
330
1C1
102
}
330
5F
100
AcDbEntity
  8
0
  6
Continuous
 62
     7
100
AcDbLine
 10
88.0325787993334
 20
-34.38365960631268
 30
0.0
 11
88.0325787993334
 21
-35.10365960631268
 31
0.0
  0
LINE
  5
187
102
{ACAD_REACTORS
330
1C1
102
}
330
5F
100
AcDbEntity
  8
0
  6
Continuous
 62
     7
100
AcDbLine
 10
89.95257879933335
 20
-35.10365960631268
 30
0.0
 11
88.0325787993334
 21
-35.10365960631268
 31
0.0
  0
LINE
  5
188
102
{ACAD_REACTORS
330
1C1
102
}
330
5F
100
AcDbEntity
  8
0
  6
Continuous
 62
     7
100
AcDbLine
 10
89.95257879933335
 20
-35.58365960631267
 30
0.0
 11
89.95257879933335
 21
-35.10365960631268
 31
0.0
  0
LINE
  5
189
102
{ACAD_REACTORS
330
1C1
102
}
330
5F
100
AcDbEntity
  8
0
  6
Continuous
 62
     7
100
AcDbLine
 10
89.95257879933335
 20
-35.58365960631267
 30
0.0
 11
88.0325787993334
 21
-35.58365960631267
 31
0.0
  0
LINE
  5
18A
102
{ACAD_REACTORS
330
1C1
102
}
330
5F
100
AcDbEntity
  8
0
  6
Continuous
 62
     7
100
AcDbLine
 10
88.0325787993334
 20
-35.58365960631267
 30
0.0
 11
88.0325787993334
 21
-36.30365960631267
 31
0.0
  0
LINE
  5
18B
102
{ACAD_REACTORS
330
1C1
102
}
330
5F
100
AcDbEntity
  8
0
  6
Continuous
 62
     7
100
AcDbLine
 10
89.95257879933335
 20
-36.46365960631268
 30
0.0
 11
88.19257879933348
 21
-36.46365960631268
 31
0.0
  0
LINE
  5
18C
102
{ACAD_REACTORS
330
1C1
102
}
330
5F
100
AcDbEntity
  8
0
  6
Continuous
 62
     7
100
AcDbLine
 10
89.95257879933335
 20
-36.94365960631267
 30
0.0
 11
89.95257879933335
 21
-36.46365960631268
 31
0.0
  0
LINE
  5
18D
102
{ACAD_REACTORS
330
1C7
102
}
330
5F
100
AcDbEntity
  8
0
  6
Continuous
 62
     7
100
AcDbLine
 10
90.7045787993333
 20
-33.74365960631268
 30
0.0
 11
90.7045787993333
 21
-36.94365960631267
 31
0.0
  0
LINE
  5
18E
102
{ACAD_REACTORS
330
1C7
102
}
330
5F
100
AcDbEntity
  8
0
  6
Continuous
 62
     7
100
AcDbLine
 10
91.3445787993334
 20
-33.74365960631268
 30
0.0
 11
90.7045787993333
 21
-33.74365960631268
 31
0.0
  0
LINE
  5
18F
102
{ACAD_REACTORS
330
1C7
102
}
330
5F
100
AcDbEntity
  8
0
  6
Continuous
 62
     7
100
AcDbLine
 10
91.3445787993334
 20
-36.94365960631267
 30
0.0
 11
91.3445787993334
 21
-33.74365960631268
 31
0.0
  0
LINE
  5
190
102
{ACAD_REACTORS
330
1C7
102
}
330
5F
100
AcDbEntity
  8
0
  6
Continuous
 62
     7
100
AcDbLine
 10
90.7045787993333
 20
-36.94365960631267
 30
0.0
 11
91.3445787993334
 21
-36.94365960631267
 31
0.0
  0
LINE
  5
191
330
5F
100
AcDbEntity
  8
0
  6
Continuous
 62
     7
100
AcDbLine
 10
-65.75542120066656
 20
-17.84365960631266
 30
0.0
 11
104.2445787993334
 21
-17.84365960631266
 31
0.0
  0
ARC
  5
192
102
{ACAD_REACTORS
330
1C2
102
}
330
5F
100
AcDbEntity
  8
1
  6
Continuous
 62
     7
100
AcDbCircle
 10
72.14457879933347
 20
-35.34365960631266
 30
0.0
 40
1.999999999999983
100
AcDbArc
 50
301.1459919983876
 51
358.8540080016107
  0
ARC
  5
193
102
{ACAD_REACTORS
330
1C2
102
}
330
5F
100
AcDbEntity
  8
1
  6
Continuous
 62
     7
100
AcDbCircle
 10
72.14457879933347
 20
-35.34365960631266
 30
0.0
 40
1.9999999999999
100
AcDbArc
 50
181.1459919983892
 51
238.854008001611
  0
ARC
  5
194
102
{ACAD_REACTORS
330
1C2
102
}
330
5F
100
AcDbEntity
  8
1
  6
Continuous
 62
     7
100
AcDbCircle
 10
72.14457879933347
 20
-35.34365960631266
 30
0.0
 40
2.000000000000021
100
AcDbArc
 50
61.14599199838589
 51
118.8540080016152
  0
ARC
  5
195
102
{ACAD_REACTORS
330
1C2
102
}
330
5F
100
AcDbEntity
  8
1
  6
Continuous
 62
     7
100
AcDbCircle
 10
72.14457879933347
 20
-35.34365960631266
 30
0.0
 40
1.599999999999993
100
AcDbArc
 50
121.4325437375673
 51
178.5674562624338
  0
ARC
  5
196
102
{ACAD_REACTORS
330
1C2
102
}
330
5F
100
AcDbEntity
  8
1
  6
Continuous
 62
     7
100
AcDbCircle
 10
72.14457879933347
 20
-35.34365960631266
 30
0.0
 40
1.680000000000009
100
AcDbArc
 50
121.3643141506697
 51
178.6356858493345
  0
ARC
  5
197
102
{ACAD_REACTORS
330
1C2
102
}
330
5F
100
AcDbEntity
  8
1
  6
Continuous
 62
     7
100
AcDbCircle
 10
72.14457879933347
 20
-35.34365960631266
 30
0.0
 40
1.999999999999988
100
AcDbArc
 50
121.1459919983894
 51
178.8540080016116
  0
ARC
  5
198
102
{ACAD_REACTORS
330
1C2
102
}
330
5F
100
AcDbEntity
  8
1
  6
Continuous
 62
     7
100
AcDbCircle
 10
72.14457879933347
 20
-35.34365960631266
 30
0.0
 40
1.600000000000046
100
AcDbArc
 50
1.43254373756618
 51
58.567456262431
  0
ARC
  5
199
102
{ACAD_REACTORS
330
1C2
102
}
330
5F
100
AcDbEntity
  8
1
  6
Continuous
 62
     7
100
AcDbCircle
 10
72.14457879933347
 20
-35.34365960631266
 30
0.0
 40
1.680000000000047
100
AcDbArc
 50
1.36431415066552
 51
58.63568584933532
  0
ARC
  5
19A
102
{ACAD_REACTORS
330
1C2
102
}
330
5F
100
AcDbEntity
  8
1
  6
Continuous
 62
     7
100
AcDbCircle
 10
72.14457879933347
 20
-35.34365960631266
 30
0.0
 40
1.999999999999828
100
AcDbArc
 50
1.14599199838846
 51
58.85400800161196
  0
ARC
  5
19B
102
{ACAD_REACTORS
330
1C2
102
}
330
5F
100
AcDbEntity
  8
1
  6
Continuous
 62
     7
100
AcDbCircle
 10
72.14457879933347
 20
-35.34365960631266
 30
0.0
 40
2.000000000000067
100
AcDbArc
 50
241.1459919983852
 51
298.8540080016137
  0
ARC
  5
19C
102
{ACAD_REACTORS
330
1C2
102
}
330
5F
100
AcDbEntity
  8
1
  6
Continuous
 62
     7
100
AcDbCircle
 10
72.14457879933347
 20
-35.34365960631266
 30
0.0
 40
1.679999999999976
100
AcDbArc
 50
241.3643141506652
 51
298.6356858493314
  0
ARC
  5
19D
102
{ACAD_REACTORS
330
1C2
102
}
330
5F
100
AcDbEntity
  8
1
  6
Continuous
 62
     7
100
AcDbCircle
 10
72.14457879933347
 20
-35.34365960631266
 30
0.0
 40
1.600000000000039
100
AcDbArc
 50
241.4325437375637
 51
298.567456262431
  0
ARC
  5
19E
102
{ACAD_REACTORS
330
1C3
102
}
330
5F
100
AcDbEntity
  8
1
  6
Continuous
 62
     7
100
AcDbCircle
 10
83.9685787993336
 20
-36.46365960631268
 30
0.0
 40
0.4800000000001124
100
AcDbArc
 50
202.350756941903
 51
0.0
  0
ARC
  5
19F
102
{ACAD_REACTORS
330
1C3
102
}
330
5F
100
AcDbEntity
  8
1
  6
Continuous
 62
     7
100
AcDbCircle
 10
82.52857879933349
 20
-34.22365960631267
 30
0.0
 40
0.4799999999999574
100
AcDbArc
 50
22.35075694191151
 51
180.0
  0
ARC
  5
1A0
102
{ACAD_REACTORS
330
1C4
102
}
330
5F
100
AcDbEntity
  8
0
  6
Continuous
 62
     7
100
AcDbCircle
 10
76.6645787993334
 20
-34.66365960631267
 30
0.0
 40
0.4399999999999977
100
AcDbArc
 50
90.0
 51
270.0
  0
ARC
  5
1A1
102
{ACAD_REACTORS
330
1C4
102
}
330
5F
100
AcDbEntity
  8
0
  6
Continuous
 62
     7
100
AcDbCircle
 10
77.2245787993334
 20
-36.02365960631257
 30
0.0
 40
0.9200000000001012
100
AcDbArc
 50
270.0
 51
90.0
  0
ARC
  5
1A2
102
{ACAD_REACTORS
330
1C4
102
}
330
5F
100
AcDbEntity
  8
0
  6
Continuous
 62
     7
100
AcDbCircle
 10
77.2245787993334
 20
-36.02365960631257
 30
0.0
 40
0.4400000000001114
100
AcDbArc
 50
270.0
 51
90.0
  0
ARC
  5
1A3
102
{ACAD_REACTORS
330
1C4
102
}
330
5F
100
AcDbEntity
  8
0
  6
Continuous
 62
     7
100
AcDbCircle
 10
76.6645787993334
 20
-34.66365960631267
 30
0.0
 40
0.9199999999999875
100
AcDbArc
 50
90.0
 51
270.0
  0
ARC
  5
1A4
102
{ACAD_REACTORS
330
1C5
102
}
330
5F
100
AcDbEntity
  8
0
  6
Continuous
 62
     7
100
AcDbCircle
 10
80.09657879933341
 20
-34.94365960631267
 30
0.0
 40
1.199999999999989
100
AcDbArc
 50
0.0
 51
180.0
  0
ARC
  5
1A5
102
{ACAD_REACTORS
330
1C5
102
}
330
5F
100
AcDbEntity
  8
0
  6
Continuous
 62
     7
100
AcDbCircle
 10
80.09657879933341
 20
-34.94365960631267
 30
0.0
 40
0.7200000000000841
100
AcDbArc
 50
0.0
 51
180.0
  0
CIRCLE
  5
1A6
102
{ACAD_REACTORS
330
1C0
102
}
330
5F
100
AcDbEntity
  8
1
  6
Continuous
 62
     7
100
AcDbCircle
 10
72.14457879933347
 20
-35.34365960631266
 30
0.0
 40
2.47999999999999
  0
CIRCLE
  5
1A7
102
{ACAD_REACTORS
330
1C0
102
}
330
5F
100
AcDbEntity
  8
1
  6
Continuous
 62
     7
100
AcDbCircle
 10
72.14457879933347
 20
-35.34365960631266
 30
0.0
 40
2.399999999999991
  0
CIRCLE
  5
1A8
102
{ACAD_REACTORS
330
1C2
102
}
330
5F
100
AcDbEntity
  8
1
  6
Continuous
 62
     7
100
AcDbCircle
 10
72.14457879933347
 20
-35.34365960631266
 30
0.0
 40
2.079999999999991
  0
ARC
  5
1A9
102
{ACAD_REACTORS
330
1C1
102
}
330
5F
100
AcDbEntity
  8
1
  6
Continuous
 62
     7
100
AcDbCircle
 10
88.19257879933348
 20
-34.38365960631268
 30
0.0
 40
0.1600000000000108
100
AcDbArc
 50
90.0
 51
180.0
  0
ARC
  5
1AA
102
{ACAD_REACTORS
330
1C1
102
}
330
5F
100
AcDbEntity
  8
1
  6
Continuous
 62
     7
100
AcDbCircle
 10
88.19257879933348
 20
-36.30365960631267
 30
0.0
 40
0.1600000000000819
100
AcDbArc
 50
180.0
 51
270.0
  0
ARC
  5
1AB
102
{ACAD_REACTORS
330
1C1
102
}
330
5F
100
AcDbEntity
  8
1
  6
Continuous
 62
     7
100
AcDbCircle
 10
87.95257879933335
 20
-36.54365960631267
 30
0.0
 40
0.3999999999999773
100
AcDbArc
 50
180.0
 51
270.0
  0
ARC
  5
1AC
102
{ACAD_REACTORS
330
1C1
102
}
330
5F
100
AcDbEntity
  8
1
  6
Continuous
 62
     7
100
AcDbCircle
 10
87.95257879933335
 20
-34.14365960631267
 30
0.0
 40
0.3999999999999844
100
AcDbArc
 50
90.0
 51
180.0
  0
MTEXT
  5
1AD
330
5F
100
AcDbEntity
  8
1
 62
     2
100
AcDbMText
 10
-63.25542120066665
 20
222.1563403936876
 30
0.0
 40
4.5
 41
0.0
 71
     5
 72
     1
  1
図番
  7
CONVERTER_12
 73
     1
 44
0.54545454545455
  0
MTEXT
  5
1AE
330
5F
100
AcDbEntity
  8
1
 62
     2
100
AcDbMText
 10
90.3859532254326
 20
-42.34365960631266
 30
0.0
 40
3.0
 41
0.0
 71
     5
 72
     1
  1
三栄水栓製作所
  7
CONVERTER_12
 73
     1
 44
1.0
  0
MTEXT
  5
1AF
330
5F
100
AcDbEntity
  8
1
 62
     2
100
AcDbMText
 10
73.1032043732341
 20
-42.34365960631266
 30
0.0
 40
2.5
 41
0.0
 71
     5
 72
     1
  1
株式会社
  7
CONVERTER_12
 73
     1
 44
1.0
  0
MTEXT
  5
1B0
330
5F
100
AcDbEntity
  8
1
 62
     2
100
AcDbMText
 10
56.74457879933338
 20
-42.34365960631266
 30
0.0
 40
4.0
 41
0.0
 71
     5
 72
     1
  1
計
  7
CONVERTER_12
 73
     1
 44
1.0
  0
MTEXT
  5
1B1
330
5F
100
AcDbEntity
  8
1
 62
     2
100
AcDbMText
 10
56.74457879933338
 20
-35.34365960631266
 30
0.0
 40
4.0
 41
0.0
 71
     5
 72
     1
  1
設
  7
CONVERTER_12
 73
     1
 44
1.0
  0
MTEXT
  5
1B2
330
5F
100
AcDbEntity
  8
1
 62
     2
100
AcDbMText
 10
43.74457879933338
 20
-42.34365960631266
 30
0.0
 40
4.0
 41
0.0
 71
     5
 72
     1
  1
図
  7
CONVERTER_12
 73
     1
 44
1.0
  0
MTEXT
  5
1B3
330
5F
100
AcDbEntity
  8
1
 62
     2
100
AcDbMText
 10
43.74457879933338
 20
-35.34365960631266
 30
0.0
 40
4.0
 41
0.0
 71
     5
 72
     1
  1
製
  7
CONVERTER_12
 73
     1
 44
1.0
  0
MTEXT
  5
1B4
330
5F
100
AcDbEntity
  8
1
 62
     2
100
AcDbMText
 10
30.74457879933338
 20
-42.34365960631266
 30
0.0
 40
4.0
 41
0.0
 71
     5
 72
     1
  1
図
  7
CONVERTER_12
 73
     1
 44
1.0
  0
MTEXT
  5
1B5
330
5F
100
AcDbEntity
  8
1
 62
     2
100
AcDbMText
 10
30.74457879933338
 20
-35.34365960631266
 30
0.0
 40
4.0
 41
0.0
 71
     5
 72
     1
  1
検
  7
CONVERTER_12
 73
     1
 44
1.0
  0
MTEXT
  5
1B6
330
5F
100
AcDbEntity
  8
1
 62
     2
100
AcDbMText
 10
17.7445787993335
 20
-42.34365960631266
 30
0.0
 40
4.0
 41
0.0
 71
     5
 72
     1
  1
認
  7
CONVERTER_12
 73
     1
 44
1.0
  0
MTEXT
  5
1B7
330
5F
100
AcDbEntity
  8
1
 62
     2
100
AcDbMText
 10
17.7445787993335
 20
-35.34365960631266
 30
0.0
 40
4.0
 41
0.0
 71
     5
 72
     1
  1
承
  7
CONVERTER_12
 73
     1
 44
1.0
  0
MTEXT
  5
1B8
330
5F
100
AcDbEntity
  8
1
 62
     2
100
AcDbMText
 10
3.74457879933344
 20
-42.34365960631266
 30
0.0
 40
4.0
 41
0.0
 71
     5
 72
     1
  1
度
  7
CONVERTER_12
 73
     1
 44
1.0
  0
MTEXT
  5
1B9
330
5F
100
AcDbEntity
  8
1
 62
     2
100
AcDbMText
 10
3.74457879933344
 20
-35.34365960631266
 30
0.0
 40
4.0
 41
0.0
 71
     5
 72
     1
  1
尺
  7
CONVERTER_12
 73
     1
 44
1.0
  0
MTEXT
  5
1BA
330
5F
100
AcDbEntity
  8
1
 62
     2
100
AcDbMText
 10
-23.25542120066656
 20
-42.34365960631266
 30
0.0
 40
4.0
 41
0.0
 71
     5
 72
     1
  1
番
  7
CONVERTER_12
 73
     1
 44
1.0
  0
MTEXT
  5
1BB
330
5F
100
AcDbEntity
  8
1
 62
     2
100
AcDbMText
 10
-23.25542120066656
 20
-35.34365960631266
 30
0.0
 40
4.0
 41
0.0
 71
     5
 72
     1
  1
品
  7
CONVERTER_12
 73
     1
 44
1.0
  0
MTEXT
  5
1BC
330
5F
100
AcDbEntity
  8
1
 62
     2
100
AcDbMText
 10
-68.25542120066656
 20
-42.34365960631266
 30
0.0
 40
4.0
 41
0.0
 71
     5
 72
     1
  1
名
  7
CONVERTER_12
 73
     1
 44
1.0
  0
MTEXT
  5
1BD
330
5F
100
AcDbEntity
  8
1
 62
     2
100
AcDbMText
 10
-68.25542120066656
 20
-35.34365960631266
 30
0.0
 40
4.0
 41
0.0
 71
     5
 72
     1
  1
品
  7
CONVERTER_12
 73
     1
 44
1.0
  0
MTEXT
  5
1BE
330
5F
100
AcDbEntity
  8
1
 62
     2
100
AcDbMText
 10
-68.25542120066656
 20
-21.34365960631266
 30
0.0
 40
4.0
 41
0.0
 71
     5
 72
     1
  1
備
  7
CONVERTER_12
 73
     1
 44
1.0
  0
MTEXT
  5
1BF
330
5F
100
AcDbEntity
  8
1
 62
     2
100
AcDbMText
 10
-68.25542120066656
 20
-28.34365960631266
 30
0.0
 40
4.0
 41
0.0
 71
     5
 72
     1
  1
考
  7
CONVERTER_12
 73
     1
 44
1.0
  0
HATCH
  5
1C0
330
5F
100
AcDbEntity
  8
1
  6
Continuous
 62
     2
100
AcDbHatch
 10
0.0
 20
0.0
 30
0.0
210
0.0
220
0.0
230
1.0
  2
CUSTOM0
 70
     0
 71
     1
 91
        2
 92
        1
 93
        1
 72
     2
 10
72.14457879933347
 20
-35.34365960631266
 40
2.47999999999999
 50
0.0
 51
360.0
 73
     1
 97
        1
330
1A6
 92
       16
 93
        1
 72
     2
 10
72.14457879933347
 20
-35.34365960631266
 40
2.399999999999991
 50
0.0
 51
360.0
 73
     1
 97
        1
330
1A7
 75
     1
 76
     2
 52
45.0
 41
0.2
 77
     0
 78
     1
 53
45.0
 43
-531.4265223413784
 44
-2.022523620948164
 45
-0.282842712474619
 46
0.0
 79
     0
 98
        1
 10
0.0
 20
0.0
  0
HATCH
  5
1C1
330
5F
100
AcDbEntity
  8
0
  6
Continuous
 62
     2
100
AcDbHatch
 10
0.0
 20
0.0
 30
0.0
210
0.0
220
0.0
230
1.0
  2
CUSTOM1
 70
     0
 71
     1
 91
        1
 92
        1
 93
       16
 72
     1
 10
89.95257879933335
 20
-33.74365960631268
 11
87.95257879933335
 21
-33.74365960631268
 72
     2
 10
87.95257879933335
 20
-34.14365960631267
 40
0.3999999999999844
 50
90.0
 51
180.0
 73
     1
 72
     1
 10
87.55257879933338
 20
-34.14365960631267
 11
87.55257879933338
 21
-36.54365960631267
 72
     2
 10
87.95257879933335
 20
-36.54365960631267
 40
0.3999999999999773
 50
180.0
 51
270.0
 73
     1
 72
     1
 10
87.95257879933335
 20
-36.94365960631267
 11
89.95257879933335
 21
-36.94365960631267
 72
     1
 10
89.95257879933335
 20
-36.94365960631267
 11
89.95257879933335
 21
-36.46365960631268
 72
     1
 10
89.95257879933335
 20
-36.46365960631268
 11
88.19257879933348
 21
-36.46365960631268
 72
     2
 10
88.19257879933348
 20
-36.30365960631267
 40
0.1600000000000819
 50
90.0
 51
180.0
 73
     0
 72
     1
 10
88.0325787993334
 20
-36.30365960631267
 11
88.0325787993334
 21
-35.58365960631267
 72
     1
 10
88.0325787993334
 20
-35.58365960631267
 11
89.95257879933335
 21
-35.58365960631267
 72
     1
 10
89.95257879933335
 20
-35.58365960631267
 11
89.95257879933335
 21
-35.10365960631268
 72
     1
 10
89.95257879933335
 20
-35.10365960631268
 11
88.0325787993334
 21
-35.10365960631268
 72
     1
 10
88.0325787993334
 20
-35.10365960631268
 11
88.0325787993334
 21
-34.38365960631268
 72
     2
 10
88.19257879933348
 20
-34.38365960631268
 40
0.1600000000000108
 50
180.0
 51
270.0
 73
     0
 72
     1
 10
88.19257879933348
 20
-34.22365960631267
 11
89.95257879933335
 21
-34.22365960631267
 72
     1
 10
89.95257879933335
 20
-34.22365960631267
 11
89.95257879933335
 21
-33.74365960631268
 97
       16
330
183
330
1AC
330
182
330
1AB
330
181
330
18C
330
18B
330
1AA
330
18A
330
189
330
188
330
187
330
186
330
1A9
330
185
330
184
 75
     1
 76
     2
 52
45.0
 41
0.2
 77
     0
 78
     1
 53
45.0
 43
-531.4265223413784
 44
-2.022523620948164
 45
-0.282842712474619
 46
0.0
 79
     0
 98
        1
 10
0.0
 20
0.0
  0
HATCH
  5
1C2
330
5F
100
AcDbEntity
  8
1
  6
Continuous
 62
     2
100
AcDbHatch
 10
0.0
 20
0.0
 30
0.0
210
0.0
220
0.0
230
1.0
  2
CUSTOM2
 70
     0
 71
     1
 91
       10
 92
        1
 93
        1
 72
     2
 10
72.14457879933347
 20
-35.34365960631266
 40
2.079999999999991
 50
0.0
 51
360.0
 73
     1
 97
        1
330
1A8
 92
       16
 93
        3
 72
     2
 10
72.14457879933347
 20
-35.34365960631266
 40
1.999999999999983
 50
301.1459919983876
 51
358.8540080016107
 73
     1
 72
     1
 10
74.1441787593253
 20
-35.38365960631268
 11
72.2138608316361
 21
-35.38365960631268
 72
     1
 10
72.2138608316361
 20
-35.38365960631268
 11
73.17901979548081
 21
-37.05536396907208
 97
        3
330
192
330
15B
330
15F
 92
       16
 93
        3
 72
     2
 10
72.14457879933347
 20
-35.34365960631266
 40
1.9999999999999
 50
181.1459919983892
 51
238.854008001611
 73
     1
 72
     1
 10
71.11013780318608
 20
-37.05536396907208
 11
72.07529676703079
 21
-35.38365960631268
 72
     1
 10
72.07529676703079
 20
-35.38365960631268
 11
70.14497883934158
 21
-35.38365960631268
 97
        3
330
193
330
162
330
15A
 92
       16
 93
        3
 72
     2
 10
72.14457879933347
 20
-35.34365960631266
 40
2.000000000000021
 50
61.14599199838589
 51
118.8540080016152
 73
     1
 72
     1
 10
71.17941983548872
 20
-33.59195524355327
 11
72.14457879933347
 21
-35.26365960631267
 72
     1
 10
72.14457879933347
 20
-35.26365960631267
 11
73.10973776317819
 21
-33.59195524355327
 97
        3
330
194
330
157
330
15E
 92
       16
 93
        3
 72
     2
 10
72.14457879933347
 20
-35.34365960631266
 40
1.599999999999993
 50
121.4325437375673
 51
178.5674562624338
 73
     1
 72
     1
 10
70.54507887748291
 20
-35.30365960631267
 11
72.07529676703079
 21
-35.30365960631267
 72
     1
 10
72.07529676703079
 20
-35.30365960631267
 11
71.3101878222568
 21
-33.97845204063886
 97
        3
330
195
330
159
330
158
 92
       16
 93
        4
 72
     2
 10
72.14457879933347
 20
-35.34365960631266
 40
1.999999999999988
 50
121.1459919983894
 51
178.8540080016116
 73
     1
 72
     1
 10
70.14497883934158
 20
-35.30365960631267
 11
70.46505505731601
 21
-35.30365960631267
 72
     2
 10
72.14457879933347
 20
-35.34365960631266
 40
1.680000000000009
 50
181.3643141506655
 51
238.6356858493304
 73
     0
 72
     1
 10
71.27017591217331
 20
-33.90914937946658
 11
71.11013780318608
 21
-33.63195524355327
 97
        4
330
197
330
156
330
196
330
155
 92
       16
 93
        3
 72
     2
 10
72.14457879933347
 20
-35.34365960631266
 40
1.600000000000046
 50
1.432543737566182
 51
58.567456262431
 73
     1
 72
     1
 10
72.97896977641021
 20
-33.97845204063886
 11
72.2138608316361
 21
-35.30365960631267
 72
     1
 10
72.2138608316361
 20
-35.30365960631267
 11
73.7440787211841
 21
-35.30365960631267
 97
        3
330
198
330
15D
330
15C
 92
       16
 93
        4
 72
     2
 10
72.14457879933347
 20
-35.34365960631266
 40
1.999999999999828
 50
1.145991998388463
 51
58.85400800161196
 73
     1
 72
     1
 10
73.17901979548081
 20
-33.63195524355327
 11
73.01898168649346
 21
-33.90914937946658
 72
     2
 10
72.14457879933347
 20
-35.34365960631266
 40
1.680000000000047
 50
301.3643141506647
 51
358.6356858493344
 73
     0
 72
     1
 10
73.82410254135088
 20
-35.30365960631267
 11
74.1441787593253
 21
-35.30365960631267
 97
        4
330
19A
330
151
330
199
330
152
 92
       16
 93
        4
 72
     2
 10
72.14457879933347
 20
-35.34365960631266
 40
1.679999999999976
 50
241.3643141506652
 51
298.6356858493314
 73
     1
 72
     1
 10
72.94969965419067
 20
-36.81816983315877
 11
73.10973776317819
 21
-37.09536396907208
 72
     2
 10
72.14457879933347
 20
-35.34365960631266
 40
2.000000000000067
 50
61.14599199838626
 51
118.8540080016148
 73
     0
 72
     1
 10
71.17941983548872
 20
-37.09536396907208
 11
71.33945794447617
 21
-36.81816983315877
 97
        4
330
19C
330
153
330
19B
330
154
 92
       16
 93
        3
 72
     2
 10
72.14457879933347
 20
-35.34365960631266
 40
1.600000000000039
 50
241.4325437375637
 51
298.567456262431
 73
     1
 72
     1
 10
72.9096877441073
 20
-36.74886717198648
 11
72.14457879933347
 21
-35.42365960631268
 72
     1
 10
72.14457879933347
 20
-35.42365960631268
 11
71.37946985455947
 21
-36.74886717198648
 97
        3
330
19D
330
160
330
161
 75
     1
 76
     2
 52
45.0
 41
0.2
 77
     0
 78
     1
 53
45.0
 43
-531.4265223413784
 44
-2.022523620948164
 45
-0.282842712474619
 46
0.0
 79
     0
 98
        1
 10
0.0
 20
0.0
  0
HATCH
  5
1C3
330
5F
100
AcDbEntity
  8
1
  6
Continuous
 62
     2
100
AcDbHatch
 10
0.0
 20
0.0
 30
0.0
210
0.0
220
0.0
230
1.0
  2
CUSTOM3
 70
     0
 71
     1
 91
        1
 92
        1
 93
       10
 72
     2
 10
82.52857879933349
 20
-34.22365960631267
 40
0.4799999999999574
 50
22.35075694191151
 51
180.0
 73
     1
 72
     1
 10
82.04857879933341
 20
-34.22365960631267
 11
82.04857879933341
 21
-36.94365960631267
 72
     1
 10
82.04857879933341
 20
-36.94365960631267
 11
82.52857879933349
 21
-36.94365960631267
 72
     1
 10
82.52857879933349
 20
-36.94365960631267
 11
82.52857879933349
 21
-34.22365960631267
 72
     1
 10
82.52857879933349
 20
-34.22365960631267
 11
83.52463966123251
 21
-36.64619190937757
 72
     2
 10
83.9685787993336
 20
-36.46365960631268
 40
0.4800000000001124
 50
202.350756941903
 51
360.0
 73
     1
 72
     1
 10
84.4485787993335
 20
-36.46365960631268
 11
84.4485787993335
 21
-33.74365960631268
 72
     1
 10
84.4485787993335
 20
-33.74365960631268
 11
83.9685787993336
 21
-33.74365960631268
 72
     1
 10
83.9685787993336
 20
-33.74365960631268
 11
83.9685787993336
 21
-36.46365960631268
 72
     1
 10
83.9685787993336
 20
-36.46365960631268
 11
82.9725179374344
 21
-34.04112730324778
 97
       10
330
19F
330
166
330
167
330
168
330
169
330
19E
330
163
330
164
330
165
330
16A
 75
     1
 76
     2
 52
45.0
 41
0.2
 77
     0
 78
     1
 53
45.0
 43
-531.4265223413784
 44
-2.022523620948164
 45
-0.282842712474619
 46
0.0
 79
     0
 98
        1
 10
0.0
 20
0.0
  0
HATCH
  5
1C4
330
5F
100
AcDbEntity
  8
0
  6
Continuous
 62
     2
100
AcDbHatch
 10
0.0
 20
0.0
 30
0.0
210
0.0
220
0.0
230
1.0
  2
CUSTOM4
 70
     0
 71
     1
 91
        1
 92
        1
 93
       12
 72
     2
 10
76.6645787993334
 20
-34.66365960631267
 40
0.9199999999999875
 50
90.0
 51
270.0
 73
     1
 72
     1
 10
76.6645787993334
 20
-35.58365960631267
 11
77.2245787993334
 21
-35.58365960631267
 72
     2
 10
77.2245787993334
 20
-36.02365960631257
 40
0.4400000000001114
 50
270.0
 51
450.0
 73
     0
 72
     1
 10
77.2245787993334
 20
-36.46365960631268
 11
75.74457879933338
 21
-36.46365960631268
 72
     1
 10
75.74457879933338
 20
-36.46365960631268
 11
75.74457879933338
 21
-36.94365960631267
 72
     1
 10
75.74457879933338
 20
-36.94365960631267
 11
77.2245787993334
 21
-36.94365960631267
 72
     2
 10
77.2245787993334
 20
-36.02365960631257
 40
0.9200000000001012
 50
270.0
 51
450.0
 73
     1
 72
     1
 10
77.2245787993334
 20
-35.10365960631268
 11
76.6645787993334
 21
-35.10365960631268
 72
     2
 10
76.6645787993334
 20
-34.66365960631267
 40
0.4399999999999977
 50
90.0
 51
270.0
 73
     0
 72
     1
 10
76.6645787993334
 20
-34.22365960631267
 11
77.98457879933339
 21
-34.22365960631267
 72
     1
 10
77.98457879933339
 20
-34.22365960631267
 11
77.98457879933339
 21
-33.74365960631268
 72
     1
 10
77.98457879933339
 20
-33.74365960631268
 11
76.6645787993334
 21
-33.74365960631268
 97
       12
330
1A3
330
170
330
1A2
330
16F
330
16E
330
16D
330
1A1
330
16C
330
1A0
330
16B
330
172
330
171
 75
     1
 76
     2
 52
45.0
 41
0.2
 77
     0
 78
     1
 53
45.0
 43
-531.4265223413784
 44
-2.022523620948164
 45
-0.282842712474619
 46
0.0
 79
     0
 98
        1
 10
0.0
 20
0.0
  0
HATCH
  5
1C5
330
5F
100
AcDbEntity
  8
0
  6
Continuous
 62
     2
100
AcDbHatch
 10
0.0
 20
0.0
 30
0.0
210
0.0
220
0.0
230
1.0
  2
CUSTOM5
 70
     0
 71
     1
 91
        2
 92
        1
 93
        8
 72
     2
 10
80.09657879933341
 20
-34.94365960631267
 40
1.199999999999989
 50
0.0
 51
180.0
 73
     1
 72
     1
 10
78.89657879933337
 20
-34.94365960631267
 11
78.89657879933337
 21
-36.94365960631267
 72
     1
 10
78.89657879933337
 20
-36.94365960631267
 11
79.37657879933327
 21
-36.94365960631267
 72
     1
 10
79.37657879933327
 20
-36.94365960631267
 11
79.37657879933327
 21
-36.30365960631267
 72
     1
 10
79.37657879933327
 20
-36.30365960631267
 11
80.8165787993335
 21
-36.30365960631267
 72
     1
 10
80.8165787993335
 20
-36.30365960631267
 11
80.8165787993335
 21
-36.94365960631267
 72
     1
 10
80.8165787993335
 20
-36.94365960631267
 11
81.2965787993334
 21
-36.94365960631267
 72
     1
 10
81.2965787993334
 20
-36.94365960631267
 11
81.2965787993334
 21
-34.94365960631267
 97
        8
330
1A4
330
178
330
177
330
17C
330
174
330
173
330
17A
330
179
 92
       16
 93
        4
 72
     2
 10
80.09657879933341
 20
-34.94365960631267
 40
0.7200000000000841
 50
0.0
 51
180.0
 73
     1
 72
     1
 10
79.37657879933327
 20
-34.94365960631267
 11
79.37657879933327
 21
-35.82365960631267
 72
     1
 10
79.37657879933327
 20
-35.82365960631267
 11
80.8165787993335
 21
-35.82365960631267
 72
     1
 10
80.8165787993335
 20
-35.82365960631267
 11
80.8165787993335
 21
-34.94365960631267
 97
        4
330
1A5
330
175
330
176
330
17B
 75
     1
 76
     2
 52
45.0
 41
0.2
 77
     0
 78
     1
 53
45.0
 43
-531.4265223413784
 44
-2.022523620948164
 45
-0.282842712474619
 46
0.0
 79
     0
 98
        1
 10
0.0
 20
0.0
  0
HATCH
  5
1C6
330
5F
100
AcDbEntity
  8
0
  6
Continuous
 62
     2
100
AcDbHatch
 10
0.0
 20
0.0
 30
0.0
210
0.0
220
0.0
230
1.0
  2
CUSTOM6
 70
     0
 71
     1
 91
        1
 92
        1
 93
        4
 72
     1
 10
86.80057879933331
 20
-35.06365960631268
 11
85.20057879933351
 21
-35.06365960631268
 72
     1
 10
85.20057879933351
 20
-35.06365960631268
 11
85.20057879933351
 21
-35.62365960631266
 72
     1
 10
85.20057879933351
 20
-35.62365960631266
 11
86.80057879933331
 21
-35.62365960631266
 72
     1
 10
86.80057879933331
 20
-35.62365960631266
 11
86.80057879933331
 21
-35.06365960631268
 97
        4
330
17E
330
17D
330
180
330
17F
 75
     1
 76
     2
 52
45.0
 41
0.2
 77
     0
 78
     1
 53
45.0
 43
-531.4265223413784
 44
-2.022523620948164
 45
-0.282842712474619
 46
0.0
 79
     0
 98
        1
 10
0.0
 20
0.0
  0
HATCH
  5
1C7
330
5F
100
AcDbEntity
  8
0
  6
Continuous
 62
     2
100
AcDbHatch
 10
0.0
 20
0.0
 30
0.0
210
0.0
220
0.0
230
1.0
  2
CUSTOM7
 70
     0
 71
     1
 91
        1
 92
        1
 93
        4
 72
     1
 10
91.3445787993334
 20
-33.74365960631268
 11
90.7045787993333
 21
-33.74365960631268
 72
     1
 10
90.7045787993333
 20
-33.74365960631268
 11
90.7045787993333
 21
-36.94365960631267
 72
     1
 10
90.7045787993333
 20
-36.94365960631267
 11
91.3445787993334
 21
-36.94365960631267
 72
     1
 10
91.3445787993334
 20
-36.94365960631267
 11
91.3445787993334
 21
-33.74365960631268
 97
        4
330
18E
330
18D
330
190
330
18F
 75
     1
 76
     2
 52
45.0
 41
0.2
 77
     0
 78
     1
 53
45.0
 43
-531.4265223413784
 44
-2.022523620948164
 45
-0.282842712474619
 46
0.0
 79
     0
 98
        1
 10
0.0
 20
0.0
  0
ENDBLK
  5
61
330
5F
100
AcDbEntity
  8
0
100
AcDbBlockEnd
  0
BLOCK
  5
1D6
330
1CF
100
AcDbEntity
  8
0
100
AcDbBlockBegin
  2
*D10
 70
     1
 10
0.0
 20
0.0
 30
0.0
  3
*D10
  1

  0
LINE
  5
1D0
330
1CF
100
AcDbEntity
  8
1
  6
Continuous
 62
     2
100
AcDbLine
 10
24.09801136166189
 20
156.6202674781326
 30
0.0
 11
107.0980113616619
 21
156.6202674781326
 31
0.0
  0
LINE
  5
1D1
330
1CF
100
AcDbEntity
  8
1
  6
Continuous
 62
     2
100
AcDbLine
 10
24.09801136166189
 20
79.4600019963342
 30
0.0
 11
24.09801136166189
 21
159.6202674781326
 31
0.0
  0
LINE
  5
1D2
330
1CF
100
AcDbEntity
  8
1
  6
Continuous
 62
     2
100
AcDbLine
 10
107.0980113616619
 20
143.1
 30
0.0
 11
107.0980113616619
 21
159.6202674781326
 31
0.0
  0
SOLID
  5
1D3
330
1CF
100
AcDbEntity
  8
1
 62
     2
100
AcDbTrace
 10
28.59801136166189
 20
157.2127037172759
 30
0.0
 11
28.59801136166189
 21
156.0278312389893
 31
0.0
 12
24.09801136166189
 22
156.6202674781326
 32
0.0
 13
24.09801136166189
 23
156.6202674781326
 33
0.0
  0
SOLID
  5
1D4
330
1CF
100
AcDbEntity
  8
1
 62
     2
100
AcDbTrace
 10
102.5980113616619
 20
156.0278312389893
 30
0.0
 11
102.5980113616619
 21
157.2127037172759
 31
0.0
 12
107.0980113616619
 22
156.6202674781326
 32
0.0
 13
107.0980113616619
 23
156.6202674781326
 33
0.0
  0
MTEXT
  5
1D5
330
1CF
100
AcDbEntity
  8
1
 62
     7
100
AcDbMText
 10
59.8394272314736
 20
159.6202674781326
 30
0.0
 40
4.5
 41
0.0
 71
     7
 72
     1
  1
83
  7
CONVERTER_11
 11
0.9999999999970619
 21
2.424068405545306E-6
 31
0.0
 73
     1
 44
0.60024009603842
  0
ENDBLK
  5
1D7
330
1CF
100
AcDbEntity
  8
0
100
AcDbBlockEnd
  0
BLOCK
  5
1E1
330
1DA
100
AcDbEntity
  8
0
100
AcDbBlockBegin
  2
*D11
 70
     1
 10
0.0
 20
0.0
 30
0.0
  3
*D11
  1

  0
LINE
  5
1DB
330
1DA
100
AcDbEntity
  8
1
  6
Continuous
 62
     2
100
AcDbLine
 10
3.99801136166189
 20
51.99999999999998
 30
0.0
 11
3.99801136166189
 21
140.1
 31
0.0
  0
LINE
  5
1DC
330
1DA
100
AcDbEntity
  8
1
  6
Continuous
 62
     2
100
AcDbLine
 10
15.99801136166189
 20
51.99999999999998
 30
0.0
 11
0.99801136166189
 21
51.99999999999998
 31
0.0
  0
LINE
  5
1DD
330
1DA
100
AcDbEntity
  8
1
  6
Continuous
 62
     2
100
AcDbLine
 10
82.59801136166192
 20
140.1
 30
0.0
 11
0.99801136166189
 21
140.1
 31
0.0
  0
SOLID
  5
1DE
330
1DA
100
AcDbEntity
  8
1
 62
     2
100
AcDbTrace
 10
4.59044760080517
 20
135.6
 30
0.0
 11
3.40557512251861
 21
135.6
 31
0.0
 12
3.99801136166189
 22
140.1
 32
0.0
 13
3.99801136166189
 23
140.1
 33
0.0
  0
SOLID
  5
1DF
330
1DA
100
AcDbEntity
  8
1
 62
     2
100
AcDbTrace
 10
3.40557512251861
 20
56.49999999999998
 30
0.0
 11
4.59044760080517
 21
56.49999999999998
 31
0.0
 12
3.99801136166189
 22
51.99999999999998
 32
0.0
 13
3.99801136166189
 23
51.99999999999998
 33
0.0
  0
MTEXT
  5
1E0
330
1DA
100
AcDbEntity
  8
1
 62
     7
100
AcDbMText
 10
0.99801136166189
 20
89.87539437841137
 30
0.0
 40
4.5
 41
0.0
 71
     7
 72
     1
  1
88
  7
CONVERTER_11
 11
0.0
 21
1.0
 31
0.0
 73
     1
 44
0.60024009603842
  0
ENDBLK
  5
1E2
330
1DA
100
AcDbEntity
  8
0
100
AcDbBlockEnd
  0
BLOCK
  5
1EC
330
1E5
100
AcDbEntity
  8
0
100
AcDbBlockBegin
  2
*D12
 70
     1
 10
0.0
 20
0.0
 30
0.0
  3
*D12
  1

  0
LINE
  5
1E6
330
1E5
100
AcDbEntity
  8
1
  6
Continuous
 62
     2
100
AcDbLine
 10
18.9980113616619
 20
167.1
 30
0.0
 11
107.0980113616619
 21
167.1
 31
0.0
  0
LINE
  5
1E7
330
1E5
100
AcDbEntity
  8
1
  6
Continuous
 62
     2
100
AcDbLine
 10
18.9980113616619
 20
76.49999999999999
 30
0.0
 11
18.9980113616619
 21
170.1
 31
0.0
  0
LINE
  5
1E8
330
1E5
100
AcDbEntity
  8
1
  6
Continuous
 62
     2
100
AcDbLine
 10
107.0980113616619
 20
143.1
 30
0.0
 11
107.0980113616619
 21
170.1
 31
0.0
  0
SOLID
  5
1E9
330
1E5
100
AcDbEntity
  8
1
 62
     2
100
AcDbTrace
 10
23.4980113616619
 20
167.6924362391433
 30
0.0
 11
23.4980113616619
 21
166.5075637608567
 31
0.0
 12
18.9980113616619
 22
167.1
 32
0.0
 13
18.9980113616619
 23
167.1
 33
0.0
  0
SOLID
  5
1EA
330
1E5
100
AcDbEntity
  8
1
 62
     2
100
AcDbTrace
 10
102.5980113616619
 20
166.5075637608567
 30
0.0
 11
102.5980113616619
 21
167.6924362391433
 31
0.0
 12
107.0980113616619
 22
167.1
 32
0.0
 13
107.0980113616619
 23
167.1
 33
0.0
  0
MTEXT
  5
1EB
330
1E5
100
AcDbEntity
  8
1
 62
     7
100
AcDbMText
 10
60.7680258792299
 20
170.1
 30
0.0
 40
4.5
 41
0.0
 71
     7
 72
     1
  1
88
  7
CONVERTER_11
 11
0.9999999999970619
 21
2.424068405545306E-6
 31
0.0
 73
     1
 44
0.60024009603842
  0
ENDBLK
  5
1ED
330
1E5
100
AcDbEntity
  8
0
100
AcDbBlockEnd
  0
BLOCK
  5
1F6
330
1F0
100
AcDbEntity
  8
0
100
AcDbBlockBegin
  2
*D13
 70
     1
 10
0.0
 20
0.0
 30
0.0
  3
*D13
  1

  0
LINE
  5
1F1
330
1F0
100
AcDbEntity
  8
1
  6
Continuous
 62
     2
100
AcDbLine
 10
88.09801136166189
 20
90.8328013377996
 30
0.0
 11
126.0980113616619
 21
90.8328013377996
 31
0.0
  0
LINE
  5
1F2
330
1F0
100
AcDbEntity
  8
1
  6
Continuous
 62
     2
100
AcDbLine
 10
88.09801136166189
 20
90.8328013377996
 30
0.0
 11
73.446373716127
 21
90.8328013377996
 31
0.0
  0
SOLID
  5
1F3
330
1F0
100
AcDbEntity
  8
1
 62
     2
100
AcDbTrace
 10
92.59801136166189
 20
91.42523757694288
 30
0.0
 11
92.59801136166189
 21
90.24036509865631
 31
0.0
 12
88.09801136166189
 22
90.8328013377996
 32
0.0
 13
88.09801136166189
 23
90.8328013377996
 33
0.0
  0
SOLID
  5
1F4
330
1F0
100
AcDbEntity
  8
1
 62
     2
100
AcDbTrace
 10
121.5980113616619
 20
90.24036509865631
 30
0.0
 11
121.5980113616619
 21
91.42523757694288
 31
0.0
 12
126.0980113616619
 22
90.8328013377996
 32
0.0
 13
126.0980113616619
 23
90.8328013377996
 33
0.0
  0
MTEXT
  5
1F5
330
1F0
100
AcDbEntity
  8
1
 62
     7
100
AcDbMText
 10
75.15637371613785
 20
93.83279239298717
 30
0.0
 40
4.5
 41
0.0
 71
     7
 72
     1
  1
\C7;{\Fgdt;n}\C7;38
  7
CONVERTER_11
 11
0.9999999999970619
 21
2.424068405545306E-6
 31
0.0
 73
     1
 44
0.60024009603842
  0
ENDBLK
  5
1F7
330
1F0
100
AcDbEntity
  8
0
100
AcDbBlockEnd
  0
BLOCK
  5
200
330
1FA
100
AcDbEntity
  8
0
100
AcDbBlockBegin
  2
*D14
 70
     1
 10
0.0
 20
0.0
 30
0.0
  3
*D14
  1

  0
LINE
  5
1FB
330
1FA
100
AcDbEntity
  8
1
  6
Continuous
 62
     2
100
AcDbLine
 10
46.2554872608429
 20
31.99999999999997
 30
0.0
 11
46.2554872608429
 21
71.99999999999997
 31
0.0
  0
LINE
  5
1FC
330
1FA
100
AcDbEntity
  8
1
  6
Continuous
 62
     2
100
AcDbLine
 10
46.2554872608429
 20
71.99999999999997
 30
0.0
 11
46.2554872608429
 21
88.8993471911572
 31
0.0
  0
SOLID
  5
1FD
330
1FA
100
AcDbEntity
  8
1
 62
     2
100
AcDbTrace
 10
46.84792349998618
 20
67.49999999999997
 30
0.0
 11
45.66305102169962
 21
67.49999999999997
 31
0.0
 12
46.2554872608429
 22
71.99999999999997
 32
0.0
 13
46.2554872608429
 23
71.99999999999997
 33
0.0
  0
SOLID
  5
1FE
330
1FA
100
AcDbEntity
  8
1
 62
     2
100
AcDbTrace
 10
45.66305102169962
 20
36.49999999999997
 30
0.0
 11
46.84792349998618
 21
36.49999999999997
 31
0.0
 12
46.2554872608429
 22
31.99999999999997
 32
0.0
 13
46.2554872608429
 23
31.99999999999997
 33
0.0
  0
MTEXT
  5
1FF
330
1FA
100
AcDbEntity
  8
1
 62
     7
100
AcDbMText
 10
43.2554872608429
 20
78.4593471911572
 30
0.0
 40
4.5
 41
0.0
 71
     7
 72
     1
  1
\C7;{\Fgdt;n}\C7;40
  7
CONVERTER_11
 11
0.0
 21
1.0
 31
0.0
 73
     1
 44
0.60024009603842
  0
ENDBLK
  5
201
330
1FA
100
AcDbEntity
  8
0
100
AcDbBlockEnd
  0
BLOCK
  5
20A
330
204
100
AcDbEntity
  8
0
100
AcDbBlockBegin
  2
*D15
 70
     1
 10
0.0
 20
0.0
 30
0.0
  3
*D15
  1

  0
LINE
  5
205
330
204
100
AcDbEntity
  8
1
  6
Continuous
 62
     2
100
AcDbLine
 10
87.09801136166189
 20
111.161954171584
 30
0.0
 11
127.0980113616619
 21
111.161954171584
 31
0.0
  0
LINE
  5
206
330
204
100
AcDbEntity
  8
1
  6
Continuous
 62
     2
100
AcDbLine
 10
87.09801136166189
 20
111.161954171584
 30
0.0
 11
70.67421651152
 21
111.161954171584
 31
0.0
  0
SOLID
  5
207
330
204
100
AcDbEntity
  8
1
 62
     2
100
AcDbTrace
 10
91.59801136166189
 20
111.7543904107273
 30
0.0
 11
91.59801136166189
 21
110.5695179324407
 31
0.0
 12
87.09801136166189
 22
111.161954171584
 32
0.0
 13
87.09801136166189
 23
111.161954171584
 33
0.0
  0
SOLID
  5
208
330
204
100
AcDbEntity
  8
1
 62
     2
100
AcDbTrace
 10
122.5980113616619
 20
110.5695179324407
 30
0.0
 11
122.5980113616619
 21
111.7543904107273
 31
0.0
 12
127.0980113616619
 22
111.161954171584
 32
0.0
 13
127.0980113616619
 23
111.161954171584
 33
0.0
  0
MTEXT
  5
209
330
204
100
AcDbEntity
  8
1
 62
     7
100
AcDbMText
 10
72.38421651153085
 20
114.1619452267716
 30
0.0
 40
4.5
 41
0.0
 71
     7
 72
     1
  1
\C7;{\Fgdt;n}\C7;40
  7
CONVERTER_11
 11
0.9999999999970619
 21
2.424068405545306E-6
 31
0.0
 73
     1
 44
0.60024009603842
  0
ENDBLK
  5
20B
330
204
100
AcDbEntity
  8
0
100
AcDbBlockEnd
  0
BLOCK
  5
215
330
20E
100
AcDbEntity
  8
0
100
AcDbBlockBegin
  2
*D16
 70
     1
 10
0.0
 20
0.0
 30
0.0
  3
*D16
  1

  0
LINE
  5
20F
330
20E
100
AcDbEntity
  8
1
  6
Continuous
 62
     2
100
AcDbLine
 10
149.5895130700976
 20
199.5190908825511
 30
0.0
 11
149.5895130700976
 21
250.519090882551
 31
0.0
  0
LINE
  5
210
330
20E
100
AcDbEntity
  8
1
  6
Continuous
 62
     2
100
AcDbLine
 10
117.3936415026489
 20
250.519090882551
 30
0.0
 11
152.5895130700976
 21
250.519090882551
 31
0.0
  0
LINE
  5
211
330
20E
100
AcDbEntity
  8
1
  6
Continuous
 62
     2
100
AcDbLine
 10
117.393641502649
 20
199.5190908825511
 30
0.0
 11
152.5895130700976
 21
199.5190908825511
 31
0.0
  0
SOLID
  5
212
330
20E
100
AcDbEntity
  8
1
 62
     2
100
AcDbTrace
 10
150.1819493092409
 20
246.019090882551
 30
0.0
 11
148.9970768309543
 21
246.019090882551
 31
0.0
 12
149.5895130700976
 22
250.519090882551
 32
0.0
 13
149.5895130700976
 23
250.519090882551
 33
0.0
  0
SOLID
  5
213
330
20E
100
AcDbEntity
  8
1
 62
     2
100
AcDbTrace
 10
148.9970768309543
 20
204.0190908825511
 30
0.0
 11
150.1819493092409
 21
204.0190908825511
 31
0.0
 12
149.5895130700976
 22
199.5190908825511
 32
0.0
 13
149.5895130700976
 23
199.5190908825511
 33
0.0
  0
MTEXT
  5
214
330
20E
100
AcDbEntity
  8
1
 62
     7
100
AcDbMText
 10
146.5895130700976
 20
222.087608844
 30
0.0
 40
4.5
 41
0.0
 71
     7
 72
     1
  1
51
  7
CONVERTER_11
 11
0.0
 21
1.0
 31
0.0
 73
     1
 44
0.60024009603842
  0
ENDBLK
  5
216
330
20E
100
AcDbEntity
  8
0
100
AcDbBlockEnd
  0
BLOCK
  5
220
330
219
100
AcDbEntity
  8
0
100
AcDbBlockBegin
  2
*D17
 70
     1
 10
0.0
 20
0.0
 30
0.0
  3
*D17
  1

  0
LINE
  5
21A
330
219
100
AcDbEntity
  8
1
  6
Continuous
 62
     2
100
AcDbLine
 10
-90.9210795208891
 20
24.49999999999998
 30
0.0
 11
-90.9210795208891
 21
79.49999999999997
 31
0.0
  0
LINE
  5
21B
330
219
100
AcDbEntity
  8
1
  6
Continuous
 62
     2
100
AcDbLine
 10
-50.42107952088919
 20
24.49999999999998
 30
0.0
 11
-93.9210795208891
 21
24.49999999999998
 31
0.0
  0
LINE
  5
21C
330
219
100
AcDbEntity
  8
1
  6
Continuous
 62
     2
100
AcDbLine
 10
-50.42107952088909
 20
79.49999999999997
 30
0.0
 11
-93.9210795208891
 21
79.49999999999997
 31
0.0
  0
SOLID
  5
21D
330
219
100
AcDbEntity
  8
1
 62
     2
100
AcDbTrace
 10
-90.22990390855527
 20
74.24999999999997
 30
0.0
 11
-91.61225513322292
 21
74.24999999999997
 31
0.0
 12
-90.9210795208891
 22
79.49999999999997
 32
0.0
 13
-90.9210795208891
 23
79.49999999999997
 33
0.0
  0
SOLID
  5
21E
330
219
100
AcDbEntity
  8
1
 62
     2
100
AcDbTrace
 10
-91.61225513322292
 20
29.74999999999998
 30
0.0
 11
-90.22990390855527
 21
29.74999999999998
 31
0.0
 12
-90.9210795208891
 22
24.49999999999998
 32
0.0
 13
-90.9210795208891
 23
24.49999999999998
 33
0.0
  0
MTEXT
  5
21F
330
219
100
AcDbEntity
  8
1
 62
     7
100
AcDbMText
 10
-93.9210795208891
 20
47.04616755380368
 30
0.0
 40
4.5
 41
0.0
 71
     7
 72
     1
  1
\C7;{\Fgdt;n}\C7;55
  7
CONVERTER_11
 11
0.0
 21
1.0
 31
0.0
 73
     1
 44
0.60024009603842
  0
ENDBLK
  5
221
330
219
100
AcDbEntity
  8
0
100
AcDbBlockEnd
  0
BLOCK
  5
22B
330
224
100
AcDbEntity
  8
0
100
AcDbBlockBegin
  2
*D18
 70
     1
 10
0.0
 20
0.0
 30
0.0
  3
*D18
  1

  0
LINE
  5
225
330
224
100
AcDbEntity
  8
1
  6
Continuous
 62
     2
100
AcDbLine
 10
3.99801136166189
 20
199.519090882551
 30
0.0
 11
3.99801136166189
 21
250.519090882551
 31
0.0
  0
LINE
  5
226
330
224
100
AcDbEntity
  8
1
  6
Continuous
 62
     2
100
AcDbLine
 10
19.60548822509898
 20
199.519090882551
 30
0.0
 11
0.99801136166189
 21
199.519090882551
 31
0.0
  0
LINE
  5
227
330
224
100
AcDbEntity
  8
1
  6
Continuous
 62
     2
100
AcDbLine
 10
19.60548822509894
 20
250.519090882551
 30
0.0
 11
0.99801136166189
 21
250.519090882551
 31
0.0
  0
SOLID
  5
228
330
224
100
AcDbEntity
  8
1
 62
     2
100
AcDbTrace
 10
4.68918697399571
 20
245.269090882551
 30
0.0
 11
3.30683574932806
 21
245.269090882551
 31
0.0
 12
3.99801136166189
 22
250.519090882551
 32
0.0
 13
3.99801136166189
 23
250.519090882551
 33
0.0
  0
SOLID
  5
229
330
224
100
AcDbEntity
  8
1
 62
     2
100
AcDbTrace
 10
3.30683574932806
 20
204.769090882551
 30
0.0
 11
4.68918697399572
 21
204.769090882551
 31
0.0
 12
3.99801136166189
 22
199.519090882551
 32
0.0
 13
3.99801136166189
 23
199.519090882551
 33
0.0
  0
MTEXT
  5
22A
330
224
100
AcDbEntity
  8
1
 62
     7
100
AcDbMText
 10
0.99801136166189
 20
221.581841227487
 30
0.0
 40
4.5
 41
0.0
 71
     7
 72
     1
  1
51
  7
CONVERTER_11
 11
0.0
 21
1.0
 31
0.0
 73
     1
 44
0.60024009603842
  0
ENDBLK
  5
22C
330
224
100
AcDbEntity
  8
0
100
AcDbBlockEnd
  0
ENDSEC
  0
SECTION
  2
ENTITIES
  0
INSERT
  5
62
330
1F
100
AcDbEntity
  8
1
100
AcDbBlockReference
  2
PLIST
 10
76.00427353184627
 20
-73.20052701961524
 30
0.0
 41
2.25
 42
2.25
 43
2.25
  0
INSERT
  5
63
330
1F
100
AcDbEntity
  8
1
100
AcDbBlockReference
  2
suberi__1
 10
-43.92107952088914
 20
30.99999999999997
 30
0.0
  0
INSERT
  5
64
330
1F
100
AcDbEntity
  8
1
100
AcDbBlockReference
  2
ajasuto__2
 10
-42.92107952088912
 20
31.49999999999999
 30
0.0
  0
INSERT
  5
65
330
1F
100
AcDbEntity
  8
1
100
AcDbBlockReference
  2
nato__3
 10
-60.42107952088909
 20
24.49999999999998
 30
0.0
  0
INSERT
  5
66
330
1F
100
AcDbEntity
  8
1
100
AcDbBlockReference
  2
suberi__4
 10
86.09801136166189
 20
157.6
 30
0.0
  0
INSERT
  5
67
330
1F
100
AcDbEntity
  8
1
100
AcDbBlockReference
  2
ajasuto__5
 10
86.59801136166189
 20
152.6
 30
0.0
  0
INSERT
  5
68
330
1F
100
AcDbEntity
  8
1
100
AcDbBlockReference
  2
nato__6
 10
79.59801136166189
 20
128.1
 30
0.0
  0
INSERT
  5
69
330
1F
100
AcDbEntity
  8
1
100
AcDbBlockReference
  2
paipu
 10
24.0980113616619
 20
28.49999999999997
 30
0.0
  0
INSERT
  5
6A
330
1F
100
AcDbEntity
  8
0
100
AcDbBlockReference
  2
開示縦HP-A4
 10
156.3668681989992
 20
-68.765489409469
 30
0.0
 41
1.5
 42
1.5
 43
1.5
  0
LINE
  5
1C8
330
1F
100
AcDbEntity
  8
1
  6
DASH_CENTER
 62
     2
100
AcDbLine
 10
-50.42107952088909
 20
21.49999999999998
 30
0.0
 11
-50.42107952088909
 21
143.1
 31
0.0
  0
LINE
  5
1C9
330
1F
100
AcDbEntity
  8
1
  6
DASH_CENTER
 62
     2
100
AcDbLine
 10
-78.9210795208891
 20
51.99999999999999
 30
0.0
 11
-21.92107952088911
 21
51.99999999999998
 31
0.0
  0
LINE
  5
1CA
330
1F
100
AcDbEntity
  8
1
  6
DASH_CENTER
 62
     2
100
AcDbLine
 10
107.0980113616619
 20
253.519090882551
 30
0.0
 11
107.0980113616619
 21
196.519090882551
 31
0.0
  0
LINE
  5
1CB
330
1F
100
AcDbEntity
  8
1
  6
DASH_CENTER
 62
     2
100
AcDbLine
 10
15.99801136166189
 20
225.019090882551
 30
0.0
 11
137.5980113616619
 21
225.019090882551
 31
0.0
  0
LINE
  5
1CC
330
1F
100
AcDbEntity
  8
1
  6
DASH_CENTER
 62
     2
100
AcDbLine
 10
67.0980113616619
 20
51.99999999999997
 30
0.0
 11
15.99801136166189
 21
51.99999999999998
 31
0.0
  0
LINE
  5
1CD
330
1F
100
AcDbEntity
  8
1
  6
DASH_CENTER
 62
     2
100
AcDbLine
 10
107.0980113616619
 20
143.1
 30
0.0
 11
107.0980113616619
 21
91.99999999999997
 31
0.0
  0
ARC
  5
1CE
330
1F
100
AcDbEntity
  8
1
  6
DASH_CENTER
 62
     2
100
AcDbCircle
 10
67.0980113616619
 20
91.99999999999997
 30
0.0
 40
40.0
100
AcDbArc
 50
270.0
 51
0.0
  0
DIMENSION
  5
1D9
330
1F
100
AcDbEntity
  8
1
100
AcDbDimension
  2
*D10
 10
24.09801136166189
 20
156.6202674781326
 30
0.0
 11
63.2144272314736
 21
161.8702674781326
 31
0.0
 70
    32
  1
<>
 71
     5
 42
-1.0
 53
0.00013888888889
  3
ME10_DIM_10
100
AcDbAlignedDimension
 13
107.0980113616619
 23
143.1
 33
0.0
 14
24.09801136166189
 24
79.46000199633417
 34
0.0
100
AcDbRotatedDimension
  0
DIMENSION
  5
1E4
330
1F
100
AcDbEntity
  8
1
100
AcDbDimension
  2
*D11
 10
3.99801136166189
 20
140.1
 30
0.0
 11
-1.25198863833811
 21
93.25039437841137
 31
0.0
 70
    32
  1
88
 71
     5
 42
-1.0
 53
90.0
  3
ME10_DIM_11
100
AcDbAlignedDimension
 13
15.99801136166189
 23
51.99999999999998
 33
0.0
 14
82.59801136166192
 24
140.1
 34
0.0
 50
90.0
100
AcDbRotatedDimension
  0
DIMENSION
  5
1EF
330
1F
100
AcDbEntity
  8
1
100
AcDbDimension
  2
*D12
 10
18.9980113616619
 20
167.1
 30
0.0
 11
64.1430258792299
 21
172.35
 31
0.0
 70
    32
  1
88
 71
     5
 42
-1.0
 53
0.00013888888889
  3
ME10_DIM_12
100
AcDbAlignedDimension
 13
107.0980113616619
 23
143.1
 33
0.0
 14
18.99801136166189
 24
76.49999999999996
 34
0.0
100
AcDbRotatedDimension
  0
DIMENSION
  5
1F9
330
1F
100
AcDbEntity
  8
1
100
AcDbDimension
  2
*D13
 10
88.09801136166189
 20
90.8328013377996
 30
0.0
 11
79.521373716127
 21
96.0828013377996
 31
0.0
 70
    32
  1
<>
 71
     5
 42
-1.0
 53
0.00013888888889
  3
ME10_DIM_13
100
AcDbAlignedDimension
 13
126.0980113616619
 23
91.99999999999997
 33
0.0
 14
88.09801136166189
 24
91.99999999999997
 34
0.0
100
AcDbRotatedDimension
  0
DIMENSION
  5
203
330
1F
100
AcDbEntity
  8
1
100
AcDbDimension
  2
*D14
 10
46.2554872608429
 20
71.99999999999997
 30
0.0
 11
41.0054872608429
 21
82.8243471911572
 31
0.0
 70
    32
  1
<>
 71
     5
 42
-1.0
 53
90.0
  3
ME10_DIM_14
100
AcDbAlignedDimension
 13
54.10781622573403
 23
31.99999999999997
 33
0.0
 14
54.10781622573404
 24
71.99999999999997
 34
0.0
 50
90.0
100
AcDbRotatedDimension
  0
DIMENSION
  5
20D
330
1F
100
AcDbEntity
  8
1
100
AcDbDimension
  2
*D15
 10
87.09801136166189
 20
111.161954171584
 30
0.0
 11
76.74921651152
 21
116.411954171584
 31
0.0
 70
    32
  1
<>
 71
     5
 42
-1.0
 53
0.00013888888889
  3
ME10_DIM_15
100
AcDbAlignedDimension
 13
127.0980113616619
 23
104.9901951359278
 33
0.0
 14
87.09801136166189
 24
104.9901951359278
 34
0.0
100
AcDbRotatedDimension
  0
DIMENSION
  5
218
330
1F
100
AcDbEntity
  8
1
100
AcDbDimension
  2
*D16
 10
149.5895130700976
 20
250.519090882551
 30
0.0
 11
144.3395130700976
 21
224.787608844
 31
0.0
 70
    32
  1
<>
 71
     5
 42
-1.0
 53
90.0
  3
ME10_DIM_16
100
AcDbAlignedDimension
 13
117.393641502649
 23
199.5190908825511
 33
0.0
 14
117.3936415026489
 24
250.519090882551
 34
0.0
 50
90.0
100
AcDbRotatedDimension
  0
DIMENSION
  5
223
330
1F
100
AcDbEntity
  8
1
100
AcDbDimension
  2
*D17
 10
-90.9210795208891
 20
79.49999999999997
 30
0.0
 11
-96.1710795208891
 21
51.41116755380367
 31
0.0
 70
    32
  1
<>
 71
     5
 42
-1.0
 53
90.0
  3
ME10_DIM_17
100
AcDbAlignedDimension
 13
-50.42107952088919
 23
24.49999999999998
 33
0.0
 14
-50.42107952088908
 24
79.49999999999997
 34
0.0
 50
90.0
100
AcDbRotatedDimension
  0
DIMENSION
  5
22E
330
1F
100
AcDbEntity
  8
1
100
AcDbDimension
  2
*D18
 10
3.99801136166189
 20
250.519090882551
 30
0.0
 11
-1.25198863833811
 21
224.281841227487
 31
0.0
 70
    33
  1
<>
 71
     5
 42
-1.0
 53
-89.99999999999996
  3
ME10_DIM_18
100
AcDbAlignedDimension
 13
19.60548822509898
 23
199.519090882551
 33
0.0
 14
19.60548822509894
 24
250.519090882551
 34
0.0
  0
ENDSEC
  0
SECTION
  2
OBJECTS
  0
DICTIONARY
  5
C
330
0
100
AcDbDictionary
281
     1
  3
ACAD_GROUP
350
D
  3
ACAD_LAYOUT
350
1A
  3
ACAD_MATERIAL
350
3B
  3
ACAD_MLEADERSTYLE
350
231
  3
ACAD_MLINESTYLE
350
17
  3
ACAD_PLOTSETTINGS
350
19
  3
ACAD_PLOTSTYLENAME
350
E
  3
ACAD_VISUALSTYLE
350
2A
  3
AcDbVariableDictionary
350
22F
  0
DICTIONARY
  5
D
102
{ACAD_REACTORS
330
C
102
}
330
C
100
AcDbDictionary
281
     1
  0
DICTIONARY
  5
1A
102
{ACAD_REACTORS
330
C
102
}
330
C
100
AcDbDictionary
281
     1
  3
Layout1
350
1E
  3
Layout2
350
26
  3
Model
350
22
  0
DICTIONARY
  5
3B
102
{ACAD_REACTORS
330
C
102
}
330
C
100
AcDbDictionary
281
     1
  3
ByBlock
350
3D
  3
ByLayer
350
3C
  3
Global
350
3E
  0
DICTIONARY
  5
231
102
{ACAD_REACTORS
330
C
102
}
330
C
100
AcDbDictionary
281
     1
  0
DICTIONARY
  5
17
102
{ACAD_REACTORS
330
C
102
}
330
C
100
AcDbDictionary
281
     1
  3
Standard
350
18
  0
DICTIONARY
  5
19
102
{ACAD_REACTORS
330
C
102
}
330
C
100
AcDbDictionary
281
     1
  0
ACDBDICTIONARYWDFLT
  5
E
102
{ACAD_REACTORS
330
C
102
}
330
C
100
AcDbDictionary
281
     1
  3
Normal
350
F
100
AcDbDictionaryWithDefault
340
F
  0
DICTIONARY
  5
2A
102
{ACAD_REACTORS
330
C
102
}
330
C
100
AcDbDictionary
281
     1
  3
2dWireframe
350
2F
  3
3D Hidden
350
31
  3
3dWireframe
350
30
  3
Basic
350
32
  3
Brighten
350
36
  3
ColorChange
350
3A
  3
Conceptual
350
34
  3
Dim
350
35
  3
Facepattern
350
39
  3
Flat
350
2B
  3
FlatWithEdges
350
2C
  3
Gouraud
350
2D
  3
GouraudWithEdges
350
2E
  3
Linepattern
350
38
  3
Realistic
350
33
  3
Thicken
350
37
  0
DICTIONARY
  5
22F
102
{ACAD_REACTORS
330
C
102
}
330
C
100
AcDbDictionary
281
     1
  3
DIMASSOC
350
232
  3
HIDETEXT
350
233
  0
LAYOUT
  5
1E
102
{ACAD_REACTORS
330
1A
102
}
330
1A
100
AcDbPlotSettings
  1

  2
none_device
  4

  6

 40
0.0
 41
0.0
 42
0.0
 43
0.0
 44
0.0
 45
0.0
 46
0.0
 47
0.0
 48
0.0
 49
0.0
140
0.0
141
0.0
142
1.0
143
1.0
 70
   688
 72
     0
 73
     0
 74
     5
  7

 75
    16
147
1.0
148
0.0
149
0.0
100
AcDbLayout
  1
Layout1
 70
     1
 71
     1
 10
0.0
 20
0.0
 11
12.0
 21
9.0
 12
0.0
 22
0.0
 32
0.0
 14
1.00000000000000E+20
 24
1.00000000000000E+20
 34
1.00000000000000E+20
 15
-1.00000000000000E+20
 25
-1.00000000000000E+20
 35
-1.00000000000000E+20
146
0.0
 13
0.0
 23
0.0
 33
0.0
 16
1.0
 26
0.0
 36
0.0
 17
0.0
 27
1.0
 37
0.0
 76
     0
330
1B
  0
LAYOUT
  5
26
102
{ACAD_REACTORS
330
1A
102
}
330
1A
100
AcDbPlotSettings
  1

  2
none_device
  4

  6

 40
0.0
 41
0.0
 42
0.0
 43
0.0
 44
0.0
 45
0.0
 46
0.0
 47
0.0
 48
0.0
 49
0.0
140
0.0
141
0.0
142
1.0
143
1.0
 70
   688
 72
     0
 73
     0
 74
     5
  7

 75
    16
147
1.0
148
0.0
149
0.0
100
AcDbLayout
  1
Layout2
 70
     1
 71
     2
 10
0.0
 20
0.0
 11
0.0
 21
0.0
 12
0.0
 22
0.0
 32
0.0
 14
0.0
 24
0.0
 34
0.0
 15
0.0
 25
0.0
 35
0.0
146
0.0
 13
0.0
 23
0.0
 33
0.0
 16
1.0
 26
0.0
 36
0.0
 17
0.0
 27
1.0
 37
0.0
 76
     0
330
23
  0
LAYOUT
  5
22
102
{ACAD_REACTORS
330
1A
102
}
330
1A
100
AcDbPlotSettings
  1

  2
none_device
  4

  6

 40
0.0
 41
0.0
 42
0.0
 43
0.0
 44
0.0
 45
0.0
 46
0.0
 47
0.0
 48
0.0
 49
0.0
140
0.0
141
0.0
142
1.0
143
1.0
 70
  1712
 72
     0
 73
     0
 74
     0
  7

 75
     0
147
1.0
148
0.0
149
0.0
100
AcDbLayout
  1
Model
 70
     1
 71
     0
 10
0.0
 20
0.0
 11
12.0
 21
9.0
 12
0.0
 22
0.0
 32
0.0
 14
-143.633131801
 24
-83.765489409469
 34
0.0
 15
171.3668681990001
 25
361.7345105905314
 35
0.0
146
0.0
 13
0.0
 23
0.0
 33
0.0
 16
1.0
 26
0.0
 36
0.0
 17
0.0
 27
1.0
 37
0.0
 76
     0
330
1F
331
29
  0
MATERIAL
  5
3D
102
{ACAD_REACTORS
330
3B
102
}
102
{ACAD_XDICTIONARY
360
256
102
}
330
3B
100
AcDbMaterial
  1
ByBlock
  0
MATERIAL
  5
3C
102
{ACAD_REACTORS
330
3B
102
}
102
{ACAD_XDICTIONARY
360
254
102
}
330
3B
100
AcDbMaterial
  1
ByLayer
  0
MATERIAL
  5
3E
102
{ACAD_REACTORS
330
3B
102
}
102
{ACAD_XDICTIONARY
360
258
102
}
330
3B
100
AcDbMaterial
  1
Global
  0
MLINESTYLE
  5
18
102
{ACAD_REACTORS
330
17
102
}
330
17
100
AcDbMlineStyle
  2
Standard
 70
     0
  3

 62
   256
 51
90.0
 52
90.0
 71
     2
 49
0.5
 62
   256
  6
BYLAYER
 49
-0.5
 62
   256
  6
BYLAYER
  0
ACDBPLACEHOLDER
  5
F
102
{ACAD_REACTORS
330
E
102
}
330
E
  0
VISUALSTYLE
  5
2F
102
{ACAD_REACTORS
330
2A
102
}
102
{ACAD_XDICTIONARY
360
23C
102
}
330
2A
100
AcDbVisualStyle
  2
2dWireframe
 70
     4
 71
     0
 72
     2
 73
     0
 90
        0
 40
-0.6
 41
-30.0
 62
     5
 63
     7
 74
     1
 91
        4
 64
     7
 65
   257
 75
     1
175
     1
 42
1.0
 92
        0
 66
   257
 43
1.0
 76
     1
 77
     6
 78
     2
 67
     7
 79
     5
170
     0
171
     0
290
     0
174
     0
 93
        1
 44
0.0
173
     0
291
     0
 45
0.0
1001
ACAD
1000
AcDbSavedByObjectVersion
1070
     0
  0
VISUALSTYLE
  5
31
102
{ACAD_REACTORS
330
2A
102
}
102
{ACAD_XDICTIONARY
360
240
102
}
330
2A
100
AcDbVisualStyle
  2
3D Hidden
 70
     6
 71
     1
 72
     2
 73
     2
 90
        0
 40
-0.6
 41
-30.0
 62
     5
 63
     7
 74
     2
 91
        2
 64
     7
 65
   257
 75
     2
175
     1
 42
40.0
 92
        0
 66
   257
 43
1.0
 76
     1
 77
     6
 78
     2
 67
     7
 79
     3
170
     0
171
     0
290
     0
174
     0
 93
        1
 44
0.0
173
     0
291
     0
 45
0.0
1001
ACAD
1000
AcDbSavedByObjectVersion
1070
     0
  0
VISUALSTYLE
  5
30
102
{ACAD_REACTORS
330
2A
102
}
102
{ACAD_XDICTIONARY
360
23E
102
}
330
2A
100
AcDbVisualStyle
  2
3dWireframe
 70
     5
 71
     0
 72
     2
 73
     0
 90
        0
 40
-0.6
 41
-30.0
 62
     5
 63
     7
 74
     1
 91
        4
 64
     7
 65
   257
 75
     1
175
     1
 42
1.0
 92
        0
 66
   257
 43
1.0
 76
     1
 77
     6
 78
     2
 67
     7
 79
     5
170
     0
171
     0
290
     0
174
     0
 93
        1
 44
0.0
173
     0
291
     0
 45
0.0
1001
ACAD
1000
AcDbSavedByObjectVersion
1070
     0
  0
VISUALSTYLE
  5
32
102
{ACAD_REACTORS
330
2A
102
}
102
{ACAD_XDICTIONARY
360
242
102
}
330
2A
100
AcDbVisualStyle
  2
Basic
 70
     7
 71
     1
 72
     0
 73
     1
 90
        0
 40
-0.6
 41
-30.0
 62
     5
 63
     7
 74
     0
 91
        4
 64
     7
 65
   257
 75
     1
175
     1
 42
1.0
 92
        8
 66
     7
 43
1.0
 76
     1
 77
     6
 78
     2
 67
     7
 79
     5
170
     0
171
     0
290
     0
174
     0
 93
        1
 44
0.0
173
     0
291
     1
 45
0.0
1001
ACAD
1000
AcDbSavedByObjectVersion
1070
     0
  0
VISUALSTYLE
  5
36
102
{ACAD_REACTORS
330
2A
102
}
102
{ACAD_XDICTIONARY
360
24A
102
}
330
2A
100
AcDbVisualStyle
  2
Brighten
 70
    12
 71
     2
 72
     2
 73
     0
 90
        0
 40
-0.6
 41
-30.0
 62
     5
 63
     7
 74
     1
 91
        4
 64
     7
 65
   257
 75
     1
175
     1
 42
1.0
 92
        8
 66
     7
 43
1.0
 76
     1
 77
     6
 78
     2
 67
     7
 79
     5
170
     0
171
     0
290
     0
174
     0
 93
        1
 44
50.0
173
     0
291
     1
 45
0.0
1001
ACAD
1000
AcDbSavedByObjectVersion
1070
     0
  0
VISUALSTYLE
  5
3A
102
{ACAD_REACTORS
330
2A
102
}
102
{ACAD_XDICTIONARY
360
252
102
}
330
2A
100
AcDbVisualStyle
  2
ColorChange
 70
    16
 71
     2
 72
     2
 73
     3
 90
        0
 40
-0.6
 41
-30.0
 62
     5
 63
     8
 74
     1
 91
        4
 64
     7
 65
   257
 75
     1
175
     1
 42
1.0
 92
        8
 66
     8
 43
1.0
 76
     1
 77
     6
 78
     2
 67
     7
 79
     5
170
     0
171
     0
290
     0
174
     0
 93
        1
 44
0.0
173
     0
291
     1
 45
0.0
1001
ACAD
1000
AcDbSavedByObjectVersion
1070
     0
  0
VISUALSTYLE
  5
34
102
{ACAD_REACTORS
330
2A
102
}
102
{ACAD_XDICTIONARY
360
246
102
}
330
2A
100
AcDbVisualStyle
  2
Conceptual
 70
     9
 71
     3
 72
     2
 73
     0
 90
        0
 40
-0.6
 41
-30.0
 62
     5
 63
     7
 74
     2
 91
        2
 64
     7
 65
   257
 75
     1
175
     1
 42
40.0
 92
        8
 66
     7
 43
1.0
 76
     1
 77
     6
 78
     2
 67
     7
 79
     3
170
     0
171
     0
290
     0
174
     0
 93
        1
 44
0.0
173
     0
291
     0
 45
0.0
1001
ACAD
1000
AcDbSavedByObjectVersion
1070
     0
  0
VISUALSTYLE
  5
35
102
{ACAD_REACTORS
330
2A
102
}
102
{ACAD_XDICTIONARY
360
248
102
}
330
2A
100
AcDbVisualStyle
  2
Dim
 70
    11
 71
     2
 72
     2
 73
     0
 90
        0
 40
-0.6
 41
-30.0
 62
     5
 63
     7
 74
     1
 91
        4
 64
     7
 65
   257
 75
     1
175
     1
 42
1.0
 92
        8
 66
     7
 43
1.0
 76
     1
 77
     6
 78
     2
 67
     7
 79
     5
170
     0
171
     0
290
     0
174
     0
 93
        1
 44
-50.0
173
     0
291
     1
 45
0.0
1001
ACAD
1000
AcDbSavedByObjectVersion
1070
     0
  0
VISUALSTYLE
  5
39
102
{ACAD_REACTORS
330
2A
102
}
102
{ACAD_XDICTIONARY
360
250
102
}
330
2A
100
AcDbVisualStyle
  2
Facepattern
 70
    15
 71
     2
 72
     2
 73
     0
 90
        0
 40
-0.6
 41
-30.0
 62
     5
 63
     7
 74
     1
 91
        4
 64
     7
 65
   257
 75
     1
175
     1
 42
1.0
 92
        8
 66
     7
 43
1.0
 76
     1
 77
     6
 78
     2
 67
     7
 79
     5
170
     0
171
     0
290
     0
174
     0
 93
        1
 44
0.0
173
     0
291
     1
 45
0.0
1001
ACAD
1000
AcDbSavedByObjectVersion
1070
     0
  0
VISUALSTYLE
  5
2B
102
{ACAD_REACTORS
330
2A
102
}
102
{ACAD_XDICTIONARY
360
234
102
}
330
2A
100
AcDbVisualStyle
  2
Flat
 70
     0
 71
     2
 72
     1
 73
     1
 90
        2
 40
-0.6
 41
30.0
 62
     5
 63
     7
 74
     0
 91
        4
 64
     7
 65
   257
 75
     1
175
     1
 42
1.0
 92
        8
 66
     7
 43
1.0
 76
     1
 77
     6
 78
     2
 67
     7
 79
     5
170
     0
171
     0
290
     0
174
     0
 93
       13
 44
0.0
173
     0
291
     1
 45
0.0
1001
ACAD
1000
AcDbSavedByObjectVersion
1070
     0
  0
VISUALSTYLE
  5
2C
102
{ACAD_REACTORS
330
2A
102
}
102
{ACAD_XDICTIONARY
360
236
102
}
330
2A
100
AcDbVisualStyle
  2
FlatWithEdges
 70
     1
 71
     2
 72
     1
 73
     1
 90
        2
 40
-0.6
 41
30.0
 62
     5
 63
     7
 74
     1
 91
        4
 64
     7
 65
   257
 75
     1
175
     1
 42
1.0
 92
        0
 66
   257
 43
1.0
 76
     1
 77
     6
 78
     2
 67
     7
 79
     5
170
     0
171
     0
290
     0
174
     0
 93
       13
 44
0.0
173
     0
291
     1
 45
0.0
1001
ACAD
1000
AcDbSavedByObjectVersion
1070
     0
  0
VISUALSTYLE
  5
2D
102
{ACAD_REACTORS
330
2A
102
}
102
{ACAD_XDICTIONARY
360
238
102
}
330
2A
100
AcDbVisualStyle
  2
Gouraud
 70
     2
 71
     2
 72
     2
 73
     1
 90
        2
 40
-0.6
 41
30.0
 62
     5
 63
     7
 74
     0
 91
        4
 64
     7
 65
   257
 75
     1
175
     1
 42
1.0
 92
        0
 66
     7
 43
1.0
 76
     1
 77
     6
 78
     2
 67
     7
 79
     5
170
     0
171
     0
290
     0
174
     0
 93
       13
 44
0.0
173
     0
291
     1
 45
0.0
1001
ACAD
1000
AcDbSavedByObjectVersion
1070
     0
  0
VISUALSTYLE
  5
2E
102
{ACAD_REACTORS
330
2A
102
}
102
{ACAD_XDICTIONARY
360
23A
102
}
330
2A
100
AcDbVisualStyle
  2
GouraudWithEdges
 70
     3
 71
     2
 72
     2
 73
     1
 90
        2
 40
-0.6
 41
30.0
 62
     5
 63
     7
 74
     1
 91
        4
 64
     7
 65
   257
 75
     1
175
     1
 42
1.0
 92
        0
 66
   257
 43
1.0
 76
     1
 77
     6
 78
     2
 67
     7
 79
     5
170
     0
171
     0
290
     0
174
     0
 93
       13
 44
0.0
173
     0
291
     1
 45
0.0
1001
ACAD
1000
AcDbSavedByObjectVersion
1070
     0
  0
VISUALSTYLE
  5
38
102
{ACAD_REACTORS
330
2A
102
}
102
{ACAD_XDICTIONARY
360
24E
102
}
330
2A
100
AcDbVisualStyle
  2
Linepattern
 70
    14
 71
     2
 72
     2
 73
     0
 90
        0
 40
-0.6
 41
-30.0
 62
     5
 63
     7
 74
     1
 91
        4
 64
     7
 65
   257
 75
     7
175
     7
 42
1.0
 92
        8
 66
     7
 43
1.0
 76
     1
 77
     6
 78
     2
 67
     7
 79
     5
170
     0
171
     0
290
     0
174
     0
 93
        1
 44
0.0
173
     0
291
     1
 45
0.0
1001
ACAD
1000
AcDbSavedByObjectVersion
1070
     0
  0
VISUALSTYLE
  5
33
102
{ACAD_REACTORS
330
2A
102
}
102
{ACAD_XDICTIONARY
360
244
102
}
330
2A
100
AcDbVisualStyle
  2
Realistic
 70
     8
 71
     2
 72
     2
 73
     0
 90
        0
 40
-0.6
 41
-30.0
 62
     5
 63
     7
 74
     1
 91
        0
 64
     7
 65
   257
 75
     1
175
     1
 42
1.0
 92
        8
 66
     8
 43
1.0
 76
     1
 77
     6
 78
     2
 67
     7
 79
     5
170
     0
171
     0
290
     0
174
     0
 93
       13
 44
0.0
173
     0
291
     0
 45
0.0
1001
ACAD
1000
AcDbSavedByObjectVersion
1070
     0
  0
VISUALSTYLE
  5
37
102
{ACAD_REACTORS
330
2A
102
}
102
{ACAD_XDICTIONARY
360
24C
102
}
330
2A
100
AcDbVisualStyle
  2
Thicken
 70
    13
 71
     2
 72
     2
 73
     0
 90
        0
 40
-0.6
 41
-30.0
 62
     5
 63
     7
 74
     1
 91
        4
 64
     7
 65
   257
 75
     1
175
     1
 42
1.0
 92
       12
 66
     7
 43
1.0
 76
     1
 77
     6
 78
     2
 67
     7
 79
     5
170
     0
171
     0
290
     0
174
     0
 93
        1
 44
0.0
173
     0
291
     1
 45
0.0
1001
ACAD
1000
AcDbSavedByObjectVersion
1070
     0
  0
DICTIONARYVAR
  5
232
102
{ACAD_REACTORS
330
22F
102
}
330
22F
100
DictionaryVariables
280
     0
  1
2
  0
DICTIONARYVAR
  5
233
102
{ACAD_REACTORS
330
22F
102
}
330
22F
100
DictionaryVariables
280
     0
  1
1
  0
DICTIONARY
  5
256
330
3D
100
AcDbDictionary
280
     1
281
     1
  3
ACAD_XREC_ROUNDTRIP
360
257
  0
DICTIONARY
  5
254
330
3C
100
AcDbDictionary
280
     1
281
     1
  3
ACAD_XREC_ROUNDTRIP
360
255
  0
DICTIONARY
  5
258
330
3E
100
AcDbDictionary
280
     1
281
     1
  3
ACAD_XREC_ROUNDTRIP
360
259
  0
DICTIONARY
  5
23C
330
2F
100
AcDbDictionary
280
     1
281
     1
  3
ACAD_XREC_ROUNDTRIP
360
23D
  0
DICTIONARY
  5
240
330
31
100
AcDbDictionary
280
     1
281
     1
  3
ACAD_XREC_ROUNDTRIP
360
241
  0
DICTIONARY
  5
23E
330
30
100
AcDbDictionary
280
     1
281
     1
  3
ACAD_XREC_ROUNDTRIP
360
23F
  0
DICTIONARY
  5
242
330
32
100
AcDbDictionary
280
     1
281
     1
  3
ACAD_XREC_ROUNDTRIP
360
243
  0
DICTIONARY
  5
24A
330
36
100
AcDbDictionary
280
     1
281
     1
  3
ACAD_XREC_ROUNDTRIP
360
24B
  0
DICTIONARY
  5
252
330
3A
100
AcDbDictionary
280
     1
281
     1
  3
ACAD_XREC_ROUNDTRIP
360
253
  0
DICTIONARY
  5
246
330
34
100
AcDbDictionary
280
     1
281
     1
  3
ACAD_XREC_ROUNDTRIP
360
247
  0
DICTIONARY
  5
248
330
35
100
AcDbDictionary
280
     1
281
     1
  3
ACAD_XREC_ROUNDTRIP
360
249
  0
DICTIONARY
  5
250
330
39
100
AcDbDictionary
280
     1
281
     1
  3
ACAD_XREC_ROUNDTRIP
360
251
  0
DICTIONARY
  5
234
330
2B
100
AcDbDictionary
280
     1
281
     1
  3
ACAD_XREC_ROUNDTRIP
360
235
  0
DICTIONARY
  5
236
330
2C
100
AcDbDictionary
280
     1
281
     1
  3
ACAD_XREC_ROUNDTRIP
360
237
  0
DICTIONARY
  5
238
330
2D
100
AcDbDictionary
280
     1
281
     1
  3
ACAD_XREC_ROUNDTRIP
360
239
  0
DICTIONARY
  5
23A
330
2E
100
AcDbDictionary
280
     1
281
     1
  3
ACAD_XREC_ROUNDTRIP
360
23B
  0
DICTIONARY
  5
24E
330
38
100
AcDbDictionary
280
     1
281
     1
  3
ACAD_XREC_ROUNDTRIP
360
24F
  0
DICTIONARY
  5
244
330
33
100
AcDbDictionary
280
     1
281
     1
  3
ACAD_XREC_ROUNDTRIP
360
245
  0
DICTIONARY
  5
24C
330
37
100
AcDbDictionary
280
     1
281
     1
  3
ACAD_XREC_ROUNDTRIP
360
24D
  0
XRECORD
  5
257
102
{ACAD_REACTORS
330
256
102
}
330
256
100
AcDbXrecord
280
     1
102
MATERIAL
148
0.0
149
0.0
149
0.0
 93
        0
 94
      127
282
     0
 72
     1
 77
     1
171
     1
175
     1
179
     1
273
     0
  0
XRECORD
  5
255
102
{ACAD_REACTORS
330
254
102
}
330
254
100
AcDbXrecord
280
     1
102
MATERIAL
148
0.0
149
0.0
149
0.0
 93
        0
 94
      127
282
     0
 72
     1
 77
     1
171
     1
175
     1
179
     1
273
     0
  0
XRECORD
  5
259
102
{ACAD_REACTORS
330
258
102
}
330
258
100
AcDbXrecord
280
     1
102
MATERIAL
148
0.0
149
0.0
149
0.0
 93
        0
 94
      127
282
     0
 72
     1
 77
     1
171
     1
175
     1
179
     1
273
     0
  0
XRECORD
  5
23D
102
{ACAD_REACTORS
330
23C
102
}
330
23C
100
AcDbXrecord
280
     1
102
RTVSPropertyOp0
 70
     1
102
RTVSPropertyOp1
 70
     1
102
RTVSPropertyOp2
 70
     1
102
RTVSPropertyOp3
 70
     1
102
RTVSPropertyOp4
 70
     1
102
RTVSPropertyOp5
 70
     1
102
RTVSPropertyOp6
 70
     1
102
RTVSPropertyOp7
 70
     1
102
RTVSPropertyOp8
 70
     1
102
RTVSPropertyOp9
 70
     1
102
RTVSPropertyOp10
 70
     1
102
RTVSPropertyOp11
 70
     1
102
RTVSPropertyOp12
 70
     1
102
RTVSPropertyOp13
 70
     1
102
RTVSPropertyOp14
 70
     1
102
RTVSPropertyOp15
 70
     1
102
RTVSPropertyOp16
 70
     1
102
RTVSPropertyOp17
 70
     1
102
RTVSPropertyOp18
 70
     1
102
RTVSPropertyOp19
 70
     1
102
RTVSPropertyOp20
 70
     1
102
RTVSPropertyOp21
 70
     1
102
RTVSPropertyOp22
 70
     1
102
RTVSPropertyOp23
 70
     1
102
RTVSPropertyOp24
 70
     1
102
RTVSPropertyOp25
 70
     1
102
RTVSPropertyOp26
 70
     1
102
RTVSPropertyOp27
 70
     1
102
RTVSPropertyOp28
 70
     1
102
RTVSPropertyOp29
 70
     1
102
RTVSPropertyOp30
 70
     1
102
RTVSPropertyOp31
 70
     1
102
RTVSPropertyOp32
 70
     1
  0
XRECORD
  5
241
102
{ACAD_REACTORS
330
240
102
}
330
240
100
AcDbXrecord
280
     1
102
RTVSPropertyOp0
 70
     1
102
RTVSPropertyOp1
 70
     1
102
RTVSPropertyOp2
 70
     1
102
RTVSPropertyOp3
 70
     1
102
RTVSPropertyOp4
 70
     1
102
RTVSPropertyOp5
 70
     1
102
RTVSPropertyOp6
 70
     1
102
RTVSPropertyOp7
 70
     1
102
RTVSPropertyOp8
 70
     1
102
RTVSPropertyOp9
 70
     1
102
RTVSPropertyOp10
 70
     1
102
RTVSPropertyOp11
 70
     1
102
RTVSPropertyOp12
 70
     1
102
RTVSPropertyOp13
 70
     1
102
RTVSPropertyOp14
 70
     1
102
RTVSPropertyOp15
 70
     1
102
RTVSPropertyOp16
 70
     1
102
RTVSPropertyOp17
 70
     1
102
RTVSPropertyOp18
 70
     1
102
RTVSPropertyOp19
 70
     1
102
RTVSPropertyOp20
 70
     1
102
RTVSPropertyOp21
 70
     1
102
RTVSPropertyOp22
 70
     1
102
RTVSPropertyOp23
 70
     1
102
RTVSPropertyOp24
 70
     1
102
RTVSPropertyOp25
 70
     1
102
RTVSPropertyOp26
 70
     1
102
RTVSPropertyOp27
 70
     1
102
RTVSPropertyOp28
 70
     1
102
RTVSPropertyOp29
 70
     1
102
RTVSPropertyOp30
 70
     1
102
RTVSPropertyOp31
 70
     1
102
RTVSPropertyOp32
 70
     1
  0
XRECORD
  5
23F
102
{ACAD_REACTORS
330
23E
102
}
330
23E
100
AcDbXrecord
280
     1
102
RTVSPropertyOp0
 70
     1
102
RTVSPropertyOp1
 70
     1
102
RTVSPropertyOp2
 70
     1
102
RTVSPropertyOp3
 70
     1
102
RTVSPropertyOp4
 70
     1
102
RTVSPropertyOp5
 70
     1
102
RTVSPropertyOp6
 70
     1
102
RTVSPropertyOp7
 70
     1
102
RTVSPropertyOp8
 70
     1
102
RTVSPropertyOp9
 70
     1
102
RTVSPropertyOp10
 70
     1
102
RTVSPropertyOp11
 70
     1
102
RTVSPropertyOp12
 70
     1
102
RTVSPropertyOp13
 70
     1
102
RTVSPropertyOp14
 70
     1
102
RTVSPropertyOp15
 70
     1
102
RTVSPropertyOp16
 70
     1
102
RTVSPropertyOp17
 70
     1
102
RTVSPropertyOp18
 70
     1
102
RTVSPropertyOp19
 70
     1
102
RTVSPropertyOp20
 70
     1
102
RTVSPropertyOp21
 70
     1
102
RTVSPropertyOp22
 70
     1
102
RTVSPropertyOp23
 70
     1
102
RTVSPropertyOp24
 70
     1
102
RTVSPropertyOp25
 70
     1
102
RTVSPropertyOp26
 70
     1
102
RTVSPropertyOp27
 70
     1
102
RTVSPropertyOp28
 70
     1
102
RTVSPropertyOp29
 70
     1
102
RTVSPropertyOp30
 70
     1
102
RTVSPropertyOp31
 70
     1
102
RTVSPropertyOp32
 70
     1
  0
XRECORD
  5
243
102
{ACAD_REACTORS
330
242
102
}
330
242
100
AcDbXrecord
280
     1
102
RTVSPropertyOp0
 70
     1
102
RTVSPropertyOp1
 70
     1
102
RTVSPropertyOp2
 70
     1
102
RTVSPropertyOp3
 70
     1
102
RTVSPropertyOp4
 70
     1
102
RTVSPropertyOp5
 70
     1
102
RTVSPropertyOp6
 70
     1
102
RTVSPropertyOp7
 70
     1
102
RTVSPropertyOp8
 70
     1
102
RTVSPropertyOp9
 70
     1
102
RTVSPropertyOp10
 70
     1
102
RTVSPropertyOp11
 70
     1
102
RTVSPropertyOp12
 70
     1
102
RTVSPropertyOp13
 70
     1
102
RTVSPropertyOp14
 70
     1
102
RTVSPropertyOp15
 70
     1
102
RTVSPropertyOp16
 70
     1
102
RTVSPropertyOp17
 70
     1
102
RTVSPropertyOp18
 70
     1
102
RTVSPropertyOp19
 70
     1
102
RTVSPropertyOp20
 70
     1
102
RTVSPropertyOp21
 70
     1
102
RTVSPropertyOp22
 70
     1
102
RTVSPropertyOp23
 70
     1
102
RTVSPropertyOp24
 70
     1
102
RTVSPropertyOp25
 70
     1
102
RTVSPropertyOp26
 70
     1
102
RTVSPropertyOp27
 70
     1
102
RTVSPropertyOp28
 70
     1
102
RTVSPropertyOp29
 70
     1
102
RTVSPropertyOp30
 70
     1
102
RTVSPropertyOp31
 70
     1
102
RTVSPropertyOp32
 70
     1
  0
XRECORD
  5
24B
102
{ACAD_REACTORS
330
24A
102
}
330
24A
100
AcDbXrecord
280
     1
102
RTVSPropertyOp0
 70
     1
102
RTVSPropertyOp1
 70
     1
102
RTVSPropertyOp2
 70
     1
102
RTVSPropertyOp3
 70
     1
102
RTVSPropertyOp4
 70
     1
102
RTVSPropertyOp5
 70
     1
102
RTVSPropertyOp6
 70
     1
102
RTVSPropertyOp7
 70
     1
102
RTVSPropertyOp8
 70
     1
102
RTVSPropertyOp9
 70
     1
102
RTVSPropertyOp10
 70
     1
102
RTVSPropertyOp11
 70
     1
102
RTVSPropertyOp12
 70
     1
102
RTVSPropertyOp13
 70
     1
102
RTVSPropertyOp14
 70
     1
102
RTVSPropertyOp15
 70
     1
102
RTVSPropertyOp16
 70
     1
102
RTVSPropertyOp17
 70
     1
102
RTVSPropertyOp18
 70
     1
102
RTVSPropertyOp19
 70
     1
102
RTVSPropertyOp20
 70
     1
102
RTVSPropertyOp21
 70
     1
102
RTVSPropertyOp22
 70
     1
102
RTVSPropertyOp23
 70
     1
102
RTVSPropertyOp24
 70
     1
102
RTVSPropertyOp25
 70
     1
102
RTVSPropertyOp26
 70
     1
102
RTVSPropertyOp27
 70
     1
102
RTVSPropertyOp28
 70
     1
102
RTVSPropertyOp29
 70
     1
102
RTVSPropertyOp30
 70
     1
102
RTVSPropertyOp31
 70
     1
102
RTVSPropertyOp32
 70
     1
  0
XRECORD
  5
253
102
{ACAD_REACTORS
330
252
102
}
330
252
100
AcDbXrecord
280
     1
102
RTVSPropertyOp0
 70
     1
102
RTVSPropertyOp1
 70
     1
102
RTVSPropertyOp2
 70
     1
102
RTVSPropertyOp3
 70
     1
102
RTVSPropertyOp4
 70
     1
102
RTVSPropertyOp5
 70
     1
102
RTVSPropertyOp6
 70
     1
102
RTVSPropertyOp7
 70
     1
102
RTVSPropertyOp8
 70
     1
102
RTVSPropertyOp9
 70
     1
102
RTVSPropertyOp10
 70
     1
102
RTVSPropertyOp11
 70
     1
102
RTVSPropertyOp12
 70
     1
102
RTVSPropertyOp13
 70
     1
102
RTVSPropertyOp14
 70
     1
102
RTVSPropertyOp15
 70
     1
102
RTVSPropertyOp16
 70
     1
102
RTVSPropertyOp17
 70
     1
102
RTVSPropertyOp18
 70
     1
102
RTVSPropertyOp19
 70
     1
102
RTVSPropertyOp20
 70
     1
102
RTVSPropertyOp21
 70
     1
102
RTVSPropertyOp22
 70
     1
102
RTVSPropertyOp23
 70
     1
102
RTVSPropertyOp24
 70
     1
102
RTVSPropertyOp25
 70
     1
102
RTVSPropertyOp26
 70
     1
102
RTVSPropertyOp27
 70
     1
102
RTVSPropertyOp28
 70
     1
102
RTVSPropertyOp29
 70
     1
102
RTVSPropertyOp30
 70
     1
102
RTVSPropertyOp31
 70
     1
102
RTVSPropertyOp32
 70
     1
  0
XRECORD
  5
247
102
{ACAD_REACTORS
330
246
102
}
330
246
100
AcDbXrecord
280
     1
102
RTVSPropertyOp0
 70
     1
102
RTVSPropertyOp1
 70
     1
102
RTVSPropertyOp2
 70
     1
102
RTVSPropertyOp3
 70
     1
102
RTVSPropertyOp4
 70
     1
102
RTVSPropertyOp5
 70
     1
102
RTVSPropertyOp6
 70
     1
102
RTVSPropertyOp7
 70
     1
102
RTVSPropertyOp8
 70
     1
102
RTVSPropertyOp9
 70
     1
102
RTVSPropertyOp10
 70
     1
102
RTVSPropertyOp11
 70
     1
102
RTVSPropertyOp12
 70
     1
102
RTVSPropertyOp13
 70
     1
102
RTVSPropertyOp14
 70
     1
102
RTVSPropertyOp15
 70
     1
102
RTVSPropertyOp16
 70
     1
102
RTVSPropertyOp17
 70
     1
102
RTVSPropertyOp18
 70
     1
102
RTVSPropertyOp19
 70
     1
102
RTVSPropertyOp20
 70
     1
102
RTVSPropertyOp21
 70
     1
102
RTVSPropertyOp22
 70
     1
102
RTVSPropertyOp23
 70
     1
102
RTVSPropertyOp24
 70
     1
102
RTVSPropertyOp25
 70
     1
102
RTVSPropertyOp26
 70
     1
102
RTVSPropertyOp27
 70
     1
102
RTVSPropertyOp28
 70
     1
102
RTVSPropertyOp29
 70
     1
102
RTVSPropertyOp30
 70
     1
102
RTVSPropertyOp31
 70
     1
102
RTVSPropertyOp32
 70
     1
  0
XRECORD
  5
249
102
{ACAD_REACTORS
330
248
102
}
330
248
100
AcDbXrecord
280
     1
102
RTVSPropertyOp0
 70
     1
102
RTVSPropertyOp1
 70
     1
102
RTVSPropertyOp2
 70
     1
102
RTVSPropertyOp3
 70
     1
102
RTVSPropertyOp4
 70
     1
102
RTVSPropertyOp5
 70
     1
102
RTVSPropertyOp6
 70
     1
102
RTVSPropertyOp7
 70
     1
102
RTVSPropertyOp8
 70
     1
102
RTVSPropertyOp9
 70
     1
102
RTVSPropertyOp10
 70
     1
102
RTVSPropertyOp11
 70
     1
102
RTVSPropertyOp12
 70
     1
102
RTVSPropertyOp13
 70
     1
102
RTVSPropertyOp14
 70
     1
102
RTVSPropertyOp15
 70
     1
102
RTVSPropertyOp16
 70
     1
102
RTVSPropertyOp17
 70
     1
102
RTVSPropertyOp18
 70
     1
102
RTVSPropertyOp19
 70
     1
102
RTVSPropertyOp20
 70
     1
102
RTVSPropertyOp21
 70
     1
102
RTVSPropertyOp22
 70
     1
102
RTVSPropertyOp23
 70
     1
102
RTVSPropertyOp24
 70
     1
102
RTVSPropertyOp25
 70
     1
102
RTVSPropertyOp26
 70
     1
102
RTVSPropertyOp27
 70
     1
102
RTVSPropertyOp28
 70
     1
102
RTVSPropertyOp29
 70
     1
102
RTVSPropertyOp30
 70
     1
102
RTVSPropertyOp31
 70
     1
102
RTVSPropertyOp32
 70
     1
  0
XRECORD
  5
251
102
{ACAD_REACTORS
330
250
102
}
330
250
100
AcDbXrecord
280
     1
102
RTVSPropertyOp0
 70
     1
102
RTVSPropertyOp1
 70
     1
102
RTVSPropertyOp2
 70
     1
102
RTVSPropertyOp3
 70
     1
102
RTVSPropertyOp4
 70
     1
102
RTVSPropertyOp5
 70
     1
102
RTVSPropertyOp6
 70
     1
102
RTVSPropertyOp7
 70
     1
102
RTVSPropertyOp8
 70
     1
102
RTVSPropertyOp9
 70
     1
102
RTVSPropertyOp10
 70
     1
102
RTVSPropertyOp11
 70
     1
102
RTVSPropertyOp12
 70
     1
102
RTVSPropertyOp13
 70
     1
102
RTVSPropertyOp14
 70
     1
102
RTVSPropertyOp15
 70
     1
102
RTVSPropertyOp16
 70
     1
102
RTVSPropertyOp17
 70
     1
102
RTVSPropertyOp18
 70
     1
102
RTVSPropertyOp19
 70
     1
102
RTVSPropertyOp20
 70
     1
102
RTVSPropertyOp21
 70
     1
102
RTVSPropertyOp22
 70
     1
102
RTVSPropertyOp23
 70
     1
102
RTVSPropertyOp24
 70
     1
102
RTVSPropertyOp25
 70
     1
102
RTVSPropertyOp26
 70
     1
102
RTVSPropertyOp27
 70
     1
102
RTVSPropertyOp28
 70
     1
102
RTVSPropertyOp29
 70
     1
102
RTVSPropertyOp30
 70
     1
102
RTVSPropertyOp31
 70
     1
102
RTVSPropertyOp32
 70
     1
  0
XRECORD
  5
235
102
{ACAD_REACTORS
330
234
102
}
330
234
100
AcDbXrecord
280
     1
102
RTVSPropertyOp0
 70
     1
102
RTVSPropertyOp1
 70
     1
102
RTVSPropertyOp2
 70
     1
102
RTVSPropertyOp3
 70
     1
102
RTVSPropertyOp4
 70
     1
102
RTVSPropertyOp5
 70
     1
102
RTVSPropertyOp6
 70
     1
102
RTVSPropertyOp7
 70
     1
102
RTVSPropertyOp8
 70
     1
102
RTVSPropertyOp9
 70
     1
102
RTVSPropertyOp10
 70
     1
102
RTVSPropertyOp11
 70
     1
102
RTVSPropertyOp12
 70
     1
102
RTVSPropertyOp13
 70
     1
102
RTVSPropertyOp14
 70
     1
102
RTVSPropertyOp15
 70
     1
102
RTVSPropertyOp16
 70
     1
102
RTVSPropertyOp17
 70
     1
102
RTVSPropertyOp18
 70
     1
102
RTVSPropertyOp19
 70
     1
102
RTVSPropertyOp20
 70
     1
102
RTVSPropertyOp21
 70
     1
102
RTVSPropertyOp22
 70
     1
102
RTVSPropertyOp23
 70
     1
102
RTVSPropertyOp24
 70
     1
102
RTVSPropertyOp25
 70
     1
102
RTVSPropertyOp26
 70
     1
102
RTVSPropertyOp27
 70
     1
102
RTVSPropertyOp28
 70
     1
102
RTVSPropertyOp29
 70
     1
102
RTVSPropertyOp30
 70
     1
102
RTVSPropertyOp31
 70
     1
102
RTVSPropertyOp32
 70
     1
  0
XRECORD
  5
237
102
{ACAD_REACTORS
330
236
102
}
330
236
100
AcDbXrecord
280
     1
102
RTVSPropertyOp0
 70
     1
102
RTVSPropertyOp1
 70
     1
102
RTVSPropertyOp2
 70
     1
102
RTVSPropertyOp3
 70
     1
102
RTVSPropertyOp4
 70
     1
102
RTVSPropertyOp5
 70
     1
102
RTVSPropertyOp6
 70
     1
102
RTVSPropertyOp7
 70
     1
102
RTVSPropertyOp8
 70
     1
102
RTVSPropertyOp9
 70
     1
102
RTVSPropertyOp10
 70
     1
102
RTVSPropertyOp11
 70
     1
102
RTVSPropertyOp12
 70
     1
102
RTVSPropertyOp13
 70
     1
102
RTVSPropertyOp14
 70
     1
102
RTVSPropertyOp15
 70
     1
102
RTVSPropertyOp16
 70
     1
102
RTVSPropertyOp17
 70
     1
102
RTVSPropertyOp18
 70
     1
102
RTVSPropertyOp19
 70
     1
102
RTVSPropertyOp20
 70
     1
102
RTVSPropertyOp21
 70
     1
102
RTVSPropertyOp22
 70
     1
102
RTVSPropertyOp23
 70
     1
102
RTVSPropertyOp24
 70
     1
102
RTVSPropertyOp25
 70
     1
102
RTVSPropertyOp26
 70
     1
102
RTVSPropertyOp27
 70
     1
102
RTVSPropertyOp28
 70
     1
102
RTVSPropertyOp29
 70
     1
102
RTVSPropertyOp30
 70
     1
102
RTVSPropertyOp31
 70
     1
102
RTVSPropertyOp32
 70
     1
  0
XRECORD
  5
239
102
{ACAD_REACTORS
330
238
102
}
330
238
100
AcDbXrecord
280
     1
102
RTVSPropertyOp0
 70
     1
102
RTVSPropertyOp1
 70
     1
102
RTVSPropertyOp2
 70
     1
102
RTVSPropertyOp3
 70
     1
102
RTVSPropertyOp4
 70
     1
102
RTVSPropertyOp5
 70
     1
102
RTVSPropertyOp6
 70
     1
102
RTVSPropertyOp7
 70
     1
102
RTVSPropertyOp8
 70
     1
102
RTVSPropertyOp9
 70
     1
102
RTVSPropertyOp10
 70
     1
102
RTVSPropertyOp11
 70
     1
102
RTVSPropertyOp12
 70
     1
102
RTVSPropertyOp13
 70
     1
102
RTVSPropertyOp14
 70
     1
102
RTVSPropertyOp15
 70
     1
102
RTVSPropertyOp16
 70
     1
102
RTVSPropertyOp17
 70
     1
102
RTVSPropertyOp18
 70
     1
102
RTVSPropertyOp19
 70
     1
102
RTVSPropertyOp20
 70
     1
102
RTVSPropertyOp21
 70
     1
102
RTVSPropertyOp22
 70
     1
102
RTVSPropertyOp23
 70
     1
102
RTVSPropertyOp24
 70
     1
102
RTVSPropertyOp25
 70
     1
102
RTVSPropertyOp26
 70
     1
102
RTVSPropertyOp27
 70
     1
102
RTVSPropertyOp28
 70
     1
102
RTVSPropertyOp29
 70
     1
102
RTVSPropertyOp30
 70
     1
102
RTVSPropertyOp31
 70
     1
102
RTVSPropertyOp32
 70
     1
  0
XRECORD
  5
23B
102
{ACAD_REACTORS
330
23A
102
}
330
23A
100
AcDbXrecord
280
     1
102
RTVSPropertyOp0
 70
     1
102
RTVSPropertyOp1
 70
     1
102
RTVSPropertyOp2
 70
     1
102
RTVSPropertyOp3
 70
     1
102
RTVSPropertyOp4
 70
     1
102
RTVSPropertyOp5
 70
     1
102
RTVSPropertyOp6
 70
     1
102
RTVSPropertyOp7
 70
     1
102
RTVSPropertyOp8
 70
     1
102
RTVSPropertyOp9
 70
     1
102
RTVSPropertyOp10
 70
     1
102
RTVSPropertyOp11
 70
     1
102
RTVSPropertyOp12
 70
     1
102
RTVSPropertyOp13
 70
     1
102
RTVSPropertyOp14
 70
     1
102
RTVSPropertyOp15
 70
     1
102
RTVSPropertyOp16
 70
     1
102
RTVSPropertyOp17
 70
     1
102
RTVSPropertyOp18
 70
     1
102
RTVSPropertyOp19
 70
     1
102
RTVSPropertyOp20
 70
     1
102
RTVSPropertyOp21
 70
     1
102
RTVSPropertyOp22
 70
     1
102
RTVSPropertyOp23
 70
     1
102
RTVSPropertyOp24
 70
     1
102
RTVSPropertyOp25
 70
     1
102
RTVSPropertyOp26
 70
     1
102
RTVSPropertyOp27
 70
     1
102
RTVSPropertyOp28
 70
     1
102
RTVSPropertyOp29
 70
     1
102
RTVSPropertyOp30
 70
     1
102
RTVSPropertyOp31
 70
     1
102
RTVSPropertyOp32
 70
     1
  0
XRECORD
  5
24F
102
{ACAD_REACTORS
330
24E
102
}
330
24E
100
AcDbXrecord
280
     1
102
RTVSPropertyOp0
 70
     1
102
RTVSPropertyOp1
 70
     1
102
RTVSPropertyOp2
 70
     1
102
RTVSPropertyOp3
 70
     1
102
RTVSPropertyOp4
 70
     1
102
RTVSPropertyOp5
 70
     1
102
RTVSPropertyOp6
 70
     1
102
RTVSPropertyOp7
 70
     1
102
RTVSPropertyOp8
 70
     1
102
RTVSPropertyOp9
 70
     1
102
RTVSPropertyOp10
 70
     1
102
RTVSPropertyOp11
 70
     1
102
RTVSPropertyOp12
 70
     1
102
RTVSPropertyOp13
 70
     1
102
RTVSPropertyOp14
 70
     1
102
RTVSPropertyOp15
 70
     1
102
RTVSPropertyOp16
 70
     1
102
RTVSPropertyOp17
 70
     1
102
RTVSPropertyOp18
 70
     1
102
RTVSPropertyOp19
 70
     1
102
RTVSPropertyOp20
 70
     1
102
RTVSPropertyOp21
 70
     1
102
RTVSPropertyOp22
 70
     1
102
RTVSPropertyOp23
 70
     1
102
RTVSPropertyOp24
 70
     1
102
RTVSPropertyOp25
 70
     1
102
RTVSPropertyOp26
 70
     1
102
RTVSPropertyOp27
 70
     1
102
RTVSPropertyOp28
 70
     1
102
RTVSPropertyOp29
 70
     1
102
RTVSPropertyOp30
 70
     1
102
RTVSPropertyOp31
 70
     1
102
RTVSPropertyOp32
 70
     1
  0
XRECORD
  5
245
102
{ACAD_REACTORS
330
244
102
}
330
244
100
AcDbXrecord
280
     1
102
RTVSPropertyOp0
 70
     1
102
RTVSPropertyOp1
 70
     1
102
RTVSPropertyOp2
 70
     1
102
RTVSPropertyOp3
 70
     1
102
RTVSPropertyOp4
 70
     1
102
RTVSPropertyOp5
 70
     1
102
RTVSPropertyOp6
 70
     1
102
RTVSPropertyOp7
 70
     1
102
RTVSPropertyOp8
 70
     1
102
RTVSPropertyOp9
 70
     1
102
RTVSPropertyOp10
 70
     1
102
RTVSPropertyOp11
 70
     1
102
RTVSPropertyOp12
 70
     1
102
RTVSPropertyOp13
 70
     1
102
RTVSPropertyOp14
 70
     1
102
RTVSPropertyOp15
 70
     1
102
RTVSPropertyOp16
 70
     1
102
RTVSPropertyOp17
 70
     1
102
RTVSPropertyOp18
 70
     1
102
RTVSPropertyOp19
 70
     1
102
RTVSPropertyOp20
 70
     1
102
RTVSPropertyOp21
 70
     1
102
RTVSPropertyOp22
 70
     1
102
RTVSPropertyOp23
 70
     1
102
RTVSPropertyOp24
 70
     1
102
RTVSPropertyOp25
 70
     1
102
RTVSPropertyOp26
 70
     1
102
RTVSPropertyOp27
 70
     1
102
RTVSPropertyOp28
 70
     1
102
RTVSPropertyOp29
 70
     1
102
RTVSPropertyOp30
 70
     1
102
RTVSPropertyOp31
 70
     1
102
RTVSPropertyOp32
 70
     1
  0
XRECORD
  5
24D
102
{ACAD_REACTORS
330
24C
102
}
330
24C
100
AcDbXrecord
280
     1
102
RTVSPropertyOp0
 70
     1
102
RTVSPropertyOp1
 70
     1
102
RTVSPropertyOp2
 70
     1
102
RTVSPropertyOp3
 70
     1
102
RTVSPropertyOp4
 70
     1
102
RTVSPropertyOp5
 70
     1
102
RTVSPropertyOp6
 70
     1
102
RTVSPropertyOp7
 70
     1
102
RTVSPropertyOp8
 70
     1
102
RTVSPropertyOp9
 70
     1
102
RTVSPropertyOp10
 70
     1
102
RTVSPropertyOp11
 70
     1
102
RTVSPropertyOp12
 70
     1
102
RTVSPropertyOp13
 70
     1
102
RTVSPropertyOp14
 70
     1
102
RTVSPropertyOp15
 70
     1
102
RTVSPropertyOp16
 70
     1
102
RTVSPropertyOp17
 70
     1
102
RTVSPropertyOp18
 70
     1
102
RTVSPropertyOp19
 70
     1
102
RTVSPropertyOp20
 70
     1
102
RTVSPropertyOp21
 70
     1
102
RTVSPropertyOp22
 70
     1
102
RTVSPropertyOp23
 70
     1
102
RTVSPropertyOp24
 70
     1
102
RTVSPropertyOp25
 70
     1
102
RTVSPropertyOp26
 70
     1
102
RTVSPropertyOp27
 70
     1
102
RTVSPropertyOp28
 70
     1
102
RTVSPropertyOp29
 70
     1
102
RTVSPropertyOp30
 70
     1
102
RTVSPropertyOp31
 70
     1
102
RTVSPropertyOp32
 70
     1
  0
ENDSEC
  0
EOF
