  0
SECTION
  2
HEADER
  9
$ACADVER
  1
AC1015
  9
$ACADMAINTVER
 70
     6
  9
$DWGCODEPAGE
  3
DOS932
  9
$INSBASE
 10
0.0
 20
0.0
 30
0.0
  9
$EXTMIN
 10
0.0
 20
0.0
 30
0.0
  9
$EXTMAX
 10
525.0
 20
742.5
 30
0.0
  9
$LIMMIN
 10
0.0
 20
0.0
  9
$LIMMAX
 10
12.0
 20
9.0
  9
$ORTHOMODE
 70
     0
  9
$REGENMODE
 70
     1
  9
$FILLMODE
 70
     1
  9
$QTEXTMODE
 70
     0
  9
$MIRRTEXT
 70
     1
  9
$LTSCALE
 40
1.0
  9
$ATTMODE
 70
     1
  9
$TEXTSIZE
 40
0.2
  9
$TRACEWID
 40
0.05
  9
$TEXTSTYLE
  7
Standard
  9
$CLAYER
  8
0
  9
$CELTYPE
  6
ByLayer
  9
$CECOLOR
 62
   256
  9
$CELTSCALE
 40
1.0
  9
$DISPSILH
 70
     0
  9
$DIMSCALE
 40
1.0
  9
$DIMASZ
 40
0.18
  9
$DIMEXO
 40
0.0625
  9
$DIMDLI
 40
0.38
  9
$DIMRND
 40
0.0
  9
$DIMDLE
 40
0.0
  9
$DIMEXE
 40
0.18
  9
$DIMTP
 40
0.0
  9
$DIMTM
 40
0.0
  9
$DIMTXT
 40
0.18
  9
$DIMCEN
 40
0.09
  9
$DIMTSZ
 40
0.0
  9
$DIMTOL
 70
     0
  9
$DIMLIM
 70
     0
  9
$DIMTIH
 70
     1
  9
$DIMTOH
 70
     1
  9
$DIMSE1
 70
     0
  9
$DIMSE2
 70
     0
  9
$DIMTAD
 70
     0
  9
$DIMZIN
 70
     0
  9
$DIMBLK
  1

  9
$DIMASO
 70
     1
  9
$DIMSHO
 70
     1
  9
$DIMPOST
  1

  9
$DIMAPOST
  1

  9
$DIMALT
 70
     0
  9
$DIMALTD
 70
     2
  9
$DIMALTF
 40
25.4
  9
$DIMLFAC
 40
1.0
  9
$DIMTOFL
 70
     0
  9
$DIMTVP
 40
0.0
  9
$DIMTIX
 70
     0
  9
$DIMSOXD
 70
     0
  9
$DIMSAH
 70
     0
  9
$DIMBLK1
  1

  9
$DIMBLK2
  1

  9
$DIMSTYLE
  2
Standard
  9
$DIMCLRD
 70
     0
  9
$DIMCLRE
 70
     0
  9
$DIMCLRT
 70
     0
  9
$DIMTFAC
 40
1.0
  9
$DIMGAP
 40
0.09
  9
$DIMJUST
 70
     0
  9
$DIMSD1
 70
     0
  9
$DIMSD2
 70
     0
  9
$DIMTOLJ
 70
     1
  9
$DIMTZIN
 70
     0
  9
$DIMALTZ
 70
     0
  9
$DIMALTTZ
 70
     0
  9
$DIMUPT
 70
     0
  9
$DIMDEC
 70
     4
  9
$DIMTDEC
 70
     4
  9
$DIMALTU
 70
     2
  9
$DIMALTTD
 70
     2
  9
$DIMTXSTY
  7
Standard
  9
$DIMAUNIT
 70
     0
  9
$DIMADEC
 70
     0
  9
$DIMALTRND
 40
0.0
  9
$DIMAZIN
 70
     0
  9
$DIMDSEP
 70
    46
  9
$DIMATFIT
 70
     3
  9
$DIMFRAC
 70
     0
  9
$DIMLDRBLK
  1

  9
$DIMLUNIT
 70
     2
  9
$DIMLWD
 70
    -2
  9
$DIMLWE
 70
    -2
  9
$DIMTMOVE
 70
     0
  9
$LUNITS
 70
     2
  9
$LUPREC
 70
     4
  9
$SKETCHINC
 40
0.1
  9
$FILLETRAD
 40
0.5
  9
$AUNITS
 70
     0
  9
$AUPREC
 70
     0
  9
$MENU
  1
.
  9
$ELEVATION
 40
0.0
  9
$PELEVATION
 40
0.0
  9
$THICKNESS
 40
0.0
  9
$LIMCHECK
 70
     0
  9
$CHAMFERA
 40
0.5
  9
$CHAMFERB
 40
0.5
  9
$CHAMFERC
 40
1.0
  9
$CHAMFERD
 40
0.0
  9
$SKPOLY
 70
     0
  9
$TDCREATE
 40
2456184.608236759
  9
$TDUCREATE
 40
2456184.233236759
  9
$TDUPDATE
 40
2456184.608236771
  9
$TDUUPDATE
 40
2456184.233236771
  9
$TDINDWG
 40
0.0000000116
  9
$TDUSRTIMER
 40
0.0000000116
  9
$USRTIMER
 70
     1
  9
$ANGBASE
 50
0.0
  9
$ANGDIR
 70
     0
  9
$PDMODE
 70
     0
  9
$PDSIZE
 40
0.0
  9
$PLINEWID
 40
0.0
  9
$SPLFRAME
 70
     0
  9
$SPLINETYPE
 70
     6
  9
$SPLINESEGS
 70
     8
  9
$HANDSEED
  5
34A
  9
$SURFTAB1
 70
     6
  9
$SURFTAB2
 70
     6
  9
$SURFTYPE
 70
     6
  9
$SURFU
 70
     6
  9
$SURFV
 70
     6
  9
$UCSBASE
  2

  9
$UCSNAME
  2

  9
$UCSORG
 10
0.0
 20
0.0
 30
0.0
  9
$UCSXDIR
 10
1.0
 20
0.0
 30
0.0
  9
$UCSYDIR
 10
0.0
 20
1.0
 30
0.0
  9
$UCSORTHOREF
  2

  9
$UCSORTHOVIEW
 70
     0
  9
$UCSORGTOP
 10
0.0
 20
0.0
 30
0.0
  9
$UCSORGBOTTOM
 10
0.0
 20
0.0
 30
0.0
  9
$UCSORGLEFT
 10
0.0
 20
0.0
 30
0.0
  9
$UCSORGRIGHT
 10
0.0
 20
0.0
 30
0.0
  9
$UCSORGFRONT
 10
0.0
 20
0.0
 30
0.0
  9
$UCSORGBACK
 10
0.0
 20
0.0
 30
0.0
  9
$PUCSBASE
  2

  9
$PUCSNAME
  2

  9
$PUCSORG
 10
0.0
 20
0.0
 30
0.0
  9
$PUCSXDIR
 10
1.0
 20
0.0
 30
0.0
  9
$PUCSYDIR
 10
0.0
 20
1.0
 30
0.0
  9
$PUCSORTHOREF
  2

  9
$PUCSORTHOVIEW
 70
     0
  9
$PUCSORGTOP
 10
0.0
 20
0.0
 30
0.0
  9
$PUCSORGBOTTOM
 10
0.0
 20
0.0
 30
0.0
  9
$PUCSORGLEFT
 10
0.0
 20
0.0
 30
0.0
  9
$PUCSORGRIGHT
 10
0.0
 20
0.0
 30
0.0
  9
$PUCSORGFRONT
 10
0.0
 20
0.0
 30
0.0
  9
$PUCSORGBACK
 10
0.0
 20
0.0
 30
0.0
  9
$USERI1
 70
     0
  9
$USERI2
 70
     0
  9
$USERI3
 70
     0
  9
$USERI4
 70
     0
  9
$USERI5
 70
     0
  9
$USERR1
 40
13.2
  9
$USERR2
 40
0.0
  9
$USERR3
 40
0.0
  9
$USERR4
 40
0.0
  9
$USERR5
 40
0.0
  9
$WORLDVIEW
 70
     1
  9
$SHADEDGE
 70
     3
  9
$SHADEDIF
 70
    70
  9
$TILEMODE
 70
     1
  9
$MAXACTVP
 70
    64
  9
$PINSBASE
 10
0.0
 20
0.0
 30
0.0
  9
$PLIMCHECK
 70
     0
  9
$PEXTMIN
 10
1.00000000000000E+20
 20
1.00000000000000E+20
 30
1.00000000000000E+20
  9
$PEXTMAX
 10
-1.00000000000000E+20
 20
-1.00000000000000E+20
 30
-1.00000000000000E+20
  9
$PLIMMIN
 10
0.0
 20
0.0
  9
$PLIMMAX
 10
12.0
 20
9.0
  9
$UNITMODE
 70
     0
  9
$VISRETAIN
 70
     1
  9
$PLINEGEN
 70
     0
  9
$PSLTSCALE
 70
     1
  9
$TREEDEPTH
 70
  3020
  9
$CMLSTYLE
  2
Standard
  9
$CMLJUST
 70
     0
  9
$CMLSCALE
 40
1.0
  9
$PROXYGRAPHICS
 70
     1
  9
$MEASUREMENT
 70
     1
  9
$CELWEIGHT
370
    -1
  9
$ENDCAPS
280
     0
  9
$JOINSTYLE
280
     0
  9
$LWDISPLAY
290
     0
  9
$INSUNITS
 70
     1
  9
$HYPERLINKBASE
  1

  9
$STYLESHEET
  1

  9
$XEDIT
290
     1
  9
$CEPSNTYPE
380
     0
  9
$PSTYLEMODE
290
     0
  9
$FINGERPRINTGUID
  2
{FAEB1C30-E019-11D5-929B-00C0DF256EC4}
  9
$VERSIONGUID
  2
{FAEB1C32-E019-11D5-929B-00C0DF256EC4}
  9
$EXTNAMES
290
     1
  9
$PSVPSCALE
 40
0.0
  9
$OLESTARTUP
290
     0
  0
ENDSEC
  0
SECTION
  2
CLASSES
  0
CLASS
  1
ACDBDICTIONARYWDFLT
  2
AcDbDictionaryWithDefault
  3
ObjectDBX Classes
 90
        0
280
     0
281
     0
  0
CLASS
  1
TABLESTYLE
  2
AcDbTableStyle
  3
ObjectDBX Classes
 90
     2047
280
     0
281
     0
  0
CLASS
  1
DICTIONARYVAR
  2
AcDbDictionaryVar
  3
ObjectDBX Classes
 90
        0
280
     0
281
     0
  0
CLASS
  1

  2
exOdDbCircle
  3

 90
        0
280
     0
281
     1
  0
CLASS
  1

  2
exOdDbSpline
  3

 90
        0
280
     0
281
     1
  0
CLASS
  1

  2
exOdDbPolyline
  3

 90
        0
280
     0
281
     1
  0
CLASS
  1
ACDBPLACEHOLDER
  2
AcDbPlaceHolder
  3
ObjectDBX Classes
 90
        0
280
     0
281
     0
  0
CLASS
  1
LAYOUT
  2
AcDbLayout
  3
ObjectDBX Classes
 90
        0
280
     0
281
     0
  0
ENDSEC
  0
SECTION
  2
TABLES
  0
TABLE
  2
VPORT
  5
8
330
0
100
AcDbSymbolTable
 70
     2
  0
VPORT
  5
29
330
8
100
AcDbSymbolTableRecord
100
AcDbViewportTableRecord
  2
*Active
 70
     0
 10
0.0
 20
0.0
 11
1.0
 21
1.0
 12
262.5
 22
371.25
 13
0.0
 23
0.0
 14
0.5
 24
0.5
 15
0.5
 25
0.5
 16
0.0
 26
0.0
 36
1.0
 17
0.0
 27
0.0
 37
0.0
 40
816.7500000000001
 41
1.60267857142857
 42
50.0
 43
0.0
 44
0.0
 50
0.0
 51
0.0
 71
     0
 72
   100
 73
     1
 74
     3
 75
     0
 76
     0
 77
     0
 78
     0
281
     0
 65
     1
110
0.0
120
0.0
130
0.0
111
1.0
121
0.0
131
0.0
112
0.0
122
1.0
132
0.0
 79
     0
146
0.0
  0
ENDTAB
  0
TABLE
  2
LTYPE
  5
5
330
0
100
AcDbSymbolTable
 70
     8
  0
LTYPE
  5
14
330
5
100
AcDbSymbolTableRecord
100
AcDbLinetypeTableRecord
  2
ByBlock
 70
     0
  3

 72
    65
 73
     0
 40
0.0
  0
LTYPE
  5
15
330
5
100
AcDbSymbolTableRecord
100
AcDbLinetypeTableRecord
  2
ByLayer
 70
     0
  3

 72
    65
 73
     0
 40
0.0
  0
LTYPE
  5
16
330
5
100
AcDbSymbolTableRecord
100
AcDbLinetypeTableRecord
  2
Continuous
 70
     0
  3
Solid line
 72
    65
 73
     0
 40
0.0
  0
LTYPE
  5
2E
330
5
100
AcDbSymbolTableRecord
100
AcDbLinetypeTableRecord
  2
DASHED
 70
     0
  3
Dashed
 72
    65
 73
     2
 40
15.0
 49
7.0
 74
     0
 49
-8.0
 74
     0
  0
LTYPE
  5
2F
330
5
100
AcDbSymbolTableRecord
100
AcDbLinetypeTableRecord
  2
DOTTED
 70
     0
  3
Dotted
 72
    65
 73
     2
 40
1.0
 49
0.0
 74
     0
 49
-1.0
 74
     0
  0
LTYPE
  5
30
330
5
100
AcDbSymbolTableRecord
100
AcDbLinetypeTableRecord
  2
DOT_CENTER
 70
     0
  3
Dot_Center
 72
    65
 73
     4
 40
14.0
 49
12.0
 74
     0
 49
-1.0
 74
     0
 49
0.0
 74
     0
 49
-1.0
 74
     0
  0
LTYPE
  5
31
330
5
100
AcDbSymbolTableRecord
100
AcDbLinetypeTableRecord
  2
LONG_DASHED
 70
     0
  3
Long_Dashed
 72
    65
 73
     2
 40
15.0
 49
10.0
 74
     0
 49
-5.0
 74
     0
  0
LTYPE
  5
32
330
5
100
AcDbSymbolTableRecord
100
AcDbLinetypeTableRecord
  2
DASH_CENTER
 70
     0
  3
Dash_Center
 72
    65
 73
     4
 40
14.0
 49
11.0
 74
     0
 49
-1.0
 74
     0
 49
1.0
 74
     0
 49
-1.0
 74
     0
  0
LTYPE
  5
33
330
5
100
AcDbSymbolTableRecord
100
AcDbLinetypeTableRecord
  2
PHANTOM
 70
     0
  3
Phantom
 72
    65
 73
     6
 40
13.0
 49
10.0
 74
     0
 49
-1.0
 74
     0
 49
0.0
 74
     0
 49
-1.0
 74
     0
 49
0.0
 74
     0
 49
-1.0
 74
     0
  0
LTYPE
  5
34
330
5
100
AcDbSymbolTableRecord
100
AcDbLinetypeTableRecord
  2
CENTER_DASH_DASH
 70
     0
  3
Center_Dash_Dash
 72
    65
 73
     6
 40
14.0
 49
9.0
 74
     0
 49
-1.0
 74
     0
 49
1.0
 74
     0
 49
-1.0
 74
     0
 49
1.0
 74
     0
 49
-1.0
 74
     0
  0
ENDTAB
  0
TABLE
  2
LAYER
  5
2
330
0
100
AcDbSymbolTable
 70
     2
  0
LAYER
  5
10
330
2
100
AcDbSymbolTableRecord
100
AcDbLayerTableRecord
  2
0
 70
     0
 62
     7
  6
Continuous
370
    -3
390
F
  0
LAYER
  5
35
330
2
100
AcDbSymbolTableRecord
100
AcDbLayerTableRecord
  2
1
 70
     0
 62
     7
  6
Continuous
370
    -3
390
F
  0
ENDTAB
  0
TABLE
  2
STYLE
  5
3
330
0
100
AcDbSymbolTable
 70
     3
  0
STYLE
  5
11
330
3
100
AcDbSymbolTableRecord
100
AcDbTextStyleTableRecord
  2
Standard
 70
     0
 40
0.0
 41
1.0
 50
0.0
 71
     0
 42
0.2
  3
txt
  4

  0
STYLE
  5
B9
330
3
100
AcDbSymbolTableRecord
100
AcDbTextStyleTableRecord
  2
CONVERTER_1
 70
     0
 40
0.0
 41
0.89
 50
0.0
 71
     0
 42
0.2
  3
msmincho.ttc
  4

1001
ACAD
1000
MS Mincho
1071
    32785
  0
STYLE
  5
2DD
330
3
100
AcDbSymbolTableRecord
100
AcDbTextStyleTableRecord
  2
CONVERTER_2
 70
     0
 40
0.0
 41
0.9
 50
0.0
 71
     0
 42
0.2
  3
txt.shx
  4

  0
ENDTAB
  0
TABLE
  2
VIEW
  5
6
330
0
100
AcDbSymbolTable
 70
     0
  0
ENDTAB
  0
TABLE
  2
UCS
  5
7
330
0
100
AcDbSymbolTable
 70
     0
  0
ENDTAB
  0
TABLE
  2
APPID
  5
9
330
0
100
AcDbSymbolTable
 70
     1
  0
APPID
  5
12
330
9
100
AcDbSymbolTableRecord
100
AcDbRegAppTableRecord
  2
ACAD
 70
     0
  0
ENDTAB
  0
TABLE
  2
DIMSTYLE
  5
A
330
0
100
AcDbSymbolTable
 70
     9
100
AcDbDimStyleTable
  0
DIMSTYLE
105
27
330
A
100
AcDbSymbolTableRecord
100
AcDbDimStyleTableRecord
  2
Standard
 70
     0
340
11
  0
DIMSTYLE
105
2F2
102
{ACAD_REACTORS
330
2F3
102
}
330
A
100
AcDbSymbolTableRecord
100
AcDbDimStyleTableRecord
  2
ME10_DIM_0
 70
     0
 41
8.75
 42
0.0
 44
2.5
 73
     0
 74
     0
 77
     1
 78
     8
140
8.75
147
0.625
172
     1
173
     1
176
     2
177
     2
178
     7
271
     2
340
2DD
  0
DIMSTYLE
105
2FD
102
{ACAD_REACTORS
330
2FE
102
}
330
A
100
AcDbSymbolTableRecord
100
AcDbDimStyleTableRecord
  2
ME10_DIM_1
 70
     0
 41
8.75
 42
0.0
 44
2.5
 73
     0
 74
     0
 77
     1
 78
     8
140
8.75
147
0.625
172
     1
173
     1
176
     2
177
     2
178
     7
271
     2
340
2DD
  0
DIMSTYLE
105
308
102
{ACAD_REACTORS
330
309
102
}
330
A
100
AcDbSymbolTableRecord
100
AcDbDimStyleTableRecord
  2
ME10_DIM_2
 70
     0
  3
{\Fgdt;n}<>
 41
8.75
 42
0.0
 44
2.5
 73
     0
 74
     0
 77
     1
 78
     8
140
8.75
147
0.625
172
     1
173
     1
176
     2
177
     2
178
     7
271
     2
340
2DD
  0
DIMSTYLE
105
316
102
{ACAD_REACTORS
330
317
102
}
330
A
100
AcDbSymbolTableRecord
100
AcDbDimStyleTableRecord
  2
ME10_DIM_3
 70
     0
 41
8.75
 42
0.0
 44
2.5
 73
     0
 74
     0
 77
     1
 78
     8
140
8.75
147
0.625
172
     1
173
     1
176
     2
177
     2
178
     7
271
     2
340
2DD
344
313
  0
DIMSTYLE
105
327
102
{ACAD_REACTORS
330
328
102
}
330
A
100
AcDbSymbolTableRecord
100
AcDbDimStyleTableRecord
  2
ME10_DIM_4
 70
     0
 41
7.5
 42
0.0
 44
2.5
 73
     0
 74
     0
 77
     1
 78
     8
140
8.75
147
0.625
172
     1
173
     1
176
     2
177
     2
178
     7
271
     2
340
2DD
343
322
  0
DIMSTYLE
105
332
102
{ACAD_REACTORS
330
333
102
}
330
A
100
AcDbSymbolTableRecord
100
AcDbDimStyleTableRecord
  2
ME10_DIM_5
 70
     0
 41
8.75
 42
0.0
 44
2.5
 73
     0
 74
     0
 77
     1
 78
     8
140
8.75
147
0.625
172
     1
173
     1
176
     2
177
     2
178
     7
271
     2
340
2DD
  0
DIMSTYLE
105
33D
102
{ACAD_REACTORS
330
33E
102
}
330
A
100
AcDbSymbolTableRecord
100
AcDbDimStyleTableRecord
  2
ME10_DIM_6
 70
     0
 41
8.75
 42
0.0
 44
2.5
 73
     0
 74
     0
 77
     1
 78
     8
140
8.75
147
0.625
172
     1
173
     1
176
     2
177
     2
178
     7
271
     2
340
2DD
  0
DIMSTYLE
105
348
102
{ACAD_REACTORS
330
349
102
}
330
A
100
AcDbSymbolTableRecord
100
AcDbDimStyleTableRecord
  2
ME10_DIM_7
 70
     0
 41
8.75
 42
0.0
 44
2.5
 73
     0
 74
     0
 77
     1
 78
     8
140
8.75
147
0.625
172
     1
173
     1
176
     2
177
     2
178
     7
271
     2
340
2DD
  0
ENDTAB
  0
TABLE
  2
BLOCK_RECORD
  5
1
330
0
100
AcDbSymbolTable
 70
    25
  0
BLOCK_RECORD
  5
1F
330
1
100
AcDbSymbolTableRecord
100
AcDbBlockTableRecord
  2
*Model_Space
340
22
  0
BLOCK_RECORD
  5
1B
330
1
100
AcDbSymbolTableRecord
100
AcDbBlockTableRecord
  2
*Paper_Space
340
1E
  0
BLOCK_RECORD
  5
23
330
1
100
AcDbSymbolTableRecord
100
AcDbBlockTableRecord
  2
*Paper_Space0
340
26
  0
BLOCK_RECORD
  5
36
330
1
100
AcDbSymbolTableRecord
100
AcDbBlockTableRecord
  2
_J__A4
340
0
102
{BLKREFS
331
68
102
}
  0
BLOCK_RECORD
  5
39
330
1
100
AcDbSymbolTableRecord
100
AcDbBlockTableRecord
  2
A101-0
340
0
102
{BLKREFS
331
69
102
}
  0
BLOCK_RECORD
  5
3C
330
1
100
AcDbSymbolTableRecord
100
AcDbBlockTableRecord
  2
84-34-M21
340
0
102
{BLKREFS
331
46
102
}
  0
BLOCK_RECORD
  5
3F
330
1
100
AcDbSymbolTableRecord
100
AcDbBlockTableRecord
  2
84-35-I
340
0
102
{BLKREFS
331
47
102
}
  0
BLOCK_RECORD
  5
42
330
1
100
AcDbSymbolTableRecord
100
AcDbBlockTableRecord
  2
87-18
340
0
102
{BLKREFS
331
48
102
}
  0
BLOCK_RECORD
  5
45
330
1
100
AcDbSymbolTableRecord
100
AcDbBlockTableRecord
  2
R261F
340
0
102
{BLKREFS
331
6A
102
}
  0
BLOCK_RECORD
  5
4B
330
1
100
AcDbSymbolTableRecord
100
AcDbBlockTableRecord
  2
82-20-M21
340
0
102
{BLKREFS
331
52
102
}
  0
BLOCK_RECORD
  5
4E
330
1
100
AcDbSymbolTableRecord
100
AcDbBlockTableRecord
  2
84-26B
340
0
102
{BLKREFS
331
53
102
}
  0
BLOCK_RECORD
  5
51
330
1
100
AcDbSymbolTableRecord
100
AcDbBlockTableRecord
  2
M50
340
0
102
{BLKREFS
331
5D
102
}
  0
BLOCK_RECORD
  5
56
330
1
100
AcDbSymbolTableRecord
100
AcDbBlockTableRecord
  2
32-1-16
340
0
102
{BLKREFS
331
5E
102
}
  0
BLOCK_RECORD
  5
59
330
1
100
AcDbSymbolTableRecord
100
AcDbBlockTableRecord
  2
60-7-170
340
0
102
{BLKREFS
331
5F
102
}
  0
BLOCK_RECORD
  5
5C
330
1
100
AcDbSymbolTableRecord
100
AcDbBlockTableRecord
  2
A10JD-60X
340
0
102
{BLKREFS
331
6B
102
}
  0
BLOCK_RECORD
  5
62
330
1
100
AcDbSymbolTableRecord
100
AcDbBlockTableRecord
  2
35-28
340
0
102
{BLKREFS
331
6C
102
}
  0
BLOCK_RECORD
  5
65
330
1
100
AcDbSymbolTableRecord
100
AcDbBlockTableRecord
  2
31-17
340
0
102
{BLKREFS
331
6D
102
}
  0
BLOCK_RECORD
  5
2E7
330
1
100
AcDbSymbolTableRecord
100
AcDbBlockTableRecord
  2
*D015
340
0
  0
BLOCK_RECORD
  5
2F4
330
1
100
AcDbSymbolTableRecord
100
AcDbBlockTableRecord
  2
*D116
340
0
  0
BLOCK_RECORD
  5
2FF
330
1
100
AcDbSymbolTableRecord
100
AcDbBlockTableRecord
  2
*D217
340
0
  0
BLOCK_RECORD
  5
30A
330
1
100
AcDbSymbolTableRecord
100
AcDbBlockTableRecord
  2
*D318
340
0
  0
BLOCK_RECORD
  5
313
330
1
100
AcDbSymbolTableRecord
100
AcDbBlockTableRecord
  2
_None
340
0
  0
BLOCK_RECORD
  5
318
330
1
100
AcDbSymbolTableRecord
100
AcDbBlockTableRecord
  2
*D420
340
0
  0
BLOCK_RECORD
  5
322
330
1
100
AcDbSymbolTableRecord
100
AcDbBlockTableRecord
  2
_Dot
340
0
  0
BLOCK_RECORD
  5
329
330
1
100
AcDbSymbolTableRecord
100
AcDbBlockTableRecord
  2
*D522
340
0
  0
BLOCK_RECORD
  5
334
330
1
100
AcDbSymbolTableRecord
100
AcDbBlockTableRecord
  2
*D623
340
0
  0
BLOCK_RECORD
  5
33F
330
1
100
AcDbSymbolTableRecord
100
AcDbBlockTableRecord
  2
*D724
340
0
  0
ENDTAB
  0
ENDSEC
  0
SECTION
  2
BLOCKS
  0
BLOCK
  5
20
330
1F
100
AcDbEntity
  8
0
100
AcDbBlockBegin
  2
*Model_Space
 70
     0
 71
     0
 10
0.0
 20
0.0
 30
0.0
  3
*Model_Space
  1

  0
ENDBLK
  5
21
330
1F
100
AcDbEntity
  8
0
100
AcDbBlockEnd
  0
BLOCK
  5
1C
330
1B
100
AcDbEntity
 67
     1
  8
0
100
AcDbBlockBegin
  2
*Paper_Space
 70
     0
 71
     0
 10
0.0
 20
0.0
 30
0.0
  3
*Paper_Space
  1

  0
ENDBLK
  5
1D
330
1B
100
AcDbEntity
 67
     1
  8
0
100
AcDbBlockEnd
  0
BLOCK
  5
24
330
23
100
AcDbEntity
  8
0
100
AcDbBlockBegin
  2
*Paper_Space0
 70
     0
 71
     0
 10
0.0
 20
0.0
 30
0.0
  3
*Paper_Space0
  1

  0
ENDBLK
  5
25
330
23
100
AcDbEntity
  8
0
100
AcDbBlockEnd
  0
BLOCK
  5
37
330
36
100
AcDbEntity
  8
0
100
AcDbBlockBegin
  2
_J__A4
 70
     0
 71
     0
 10
0.0
 20
0.0
 30
0.0
  3
_J__A4
  1

  0
POINT
  5
6E
330
36
100
AcDbEntity
  8
1
 62
     4
100
AcDbPoint
 10
34.0
 20
34.00000000000001
 30
0.0
  0
POINT
  5
6F
330
36
100
AcDbEntity
  8
1
 62
     4
100
AcDbPoint
 10
57.0
 20
12.25
 30
0.0
  0
POINT
  5
70
330
36
100
AcDbEntity
  8
1
 62
     4
100
AcDbPoint
 10
57.0
 20
20.75000000000001
 30
0.0
  0
POINT
  5
71
330
36
100
AcDbEntity
  8
1
 62
     4
100
AcDbPoint
 10
57.0
 20
24.75000000000001
 30
0.0
  0
POINT
  5
72
330
36
100
AcDbEntity
  8
1
 62
     4
100
AcDbPoint
 10
57.0
 20
16.25
 30
0.0
  0
POINT
  5
73
330
36
100
AcDbEntity
  8
1
 62
     4
100
AcDbPoint
 10
157.5
 20
19.00000000000001
 30
0.0
  0
POINT
  5
74
330
36
100
AcDbEntity
  8
1
 62
     4
100
AcDbPoint
 10
47.5
 20
282.0000000000003
 30
0.0
  0
POINT
  5
75
330
36
100
AcDbEntity
  8
1
 62
     4
100
AcDbPoint
 10
57.0
 20
22.75000000000001
 30
0.0
  0
POINT
  5
76
330
36
100
AcDbEntity
  8
1
 62
     4
100
AcDbPoint
 10
57.0
 20
14.25
 30
0.0
  0
POINT
  5
77
330
36
100
AcDbEntity
  8
1
 62
     4
100
AcDbPoint
 10
157.5
 20
12.5
 30
0.0
  0
POINT
  5
78
330
36
100
AcDbEntity
  8
1
 62
     4
100
AcDbPoint
 10
163.25
 20
12.5
 30
0.0
  0
POINT
  5
79
330
36
100
AcDbEntity
  8
1
 62
     4
100
AcDbPoint
 10
151.75
 20
12.5
 30
0.0
  0
POINT
  5
7A
330
36
100
AcDbEntity
  8
1
 62
     4
100
AcDbPoint
 10
134.75
 20
12.5
 30
0.0
  0
POINT
  5
7B
330
36
100
AcDbEntity
  8
1
 62
     4
100
AcDbPoint
 10
146.25
 20
12.5
 30
0.0
  0
POINT
  5
7C
330
36
100
AcDbEntity
  8
1
 62
     4
100
AcDbPoint
 10
140.5
 20
12.5
 30
0.0
  0
POINT
  5
7D
330
36
100
AcDbEntity
  8
1
 62
     4
100
AcDbPoint
 10
140.5
 20
19.00000000000001
 30
0.0
  0
POINT
  5
7E
330
36
100
AcDbEntity
  8
1
 62
     4
100
AcDbPoint
 10
117.75
 20
12.5
 30
0.0
  0
POINT
  5
7F
330
36
100
AcDbEntity
  8
1
 62
     4
100
AcDbPoint
 10
129.25
 20
12.5
 30
0.0
  0
POINT
  5
80
330
36
100
AcDbEntity
  8
1
 62
     4
100
AcDbPoint
 10
123.5
 20
12.5
 30
0.0
  0
POINT
  5
81
330
36
100
AcDbEntity
  8
1
 62
     4
100
AcDbPoint
 10
123.5
 20
19.00000000000001
 30
0.0
  0
POINT
  5
82
330
36
100
AcDbEntity
  8
1
 62
     4
100
AcDbPoint
 10
100.75
 20
12.5
 30
0.0
  0
POINT
  5
83
330
36
100
AcDbEntity
  8
1
 62
     4
100
AcDbPoint
 10
112.25
 20
12.5
 30
0.0
  0
POINT
  5
84
330
36
100
AcDbEntity
  8
1
 62
     4
100
AcDbPoint
 10
106.5
 20
12.5
 30
0.0
  0
POINT
  5
85
330
36
100
AcDbEntity
  8
1
 62
     4
100
AcDbPoint
 10
106.5
 20
19.00000000000001
 30
0.0
  0
POINT
  5
86
330
36
100
AcDbEntity
  8
1
 62
     4
100
AcDbPoint
 10
85.25
 20
17.0
 30
0.0
  0
POINT
  5
87
330
36
100
AcDbEntity
  8
1
 62
     4
100
AcDbPoint
 10
93.75
 20
17.0
 30
0.0
  0
LINE
  5
88
330
36
100
AcDbEntity
  8
1
  6
Continuous
 62
     2
100
AcDbLine
 10
81.0
 20
27.00000000000001
 30
0.0
 11
81.0
 21
10.0
 31
0.0
  0
LINE
  5
89
330
36
100
AcDbEntity
  8
1
  6
DOT_CENTER
 62
     2
100
AcDbLine
 10
187.0
 20
26.50000000000001
 30
0.0
 11
187.0
 21
20.50000000000001
 31
0.0
  0
LINE
  5
8A
330
36
100
AcDbEntity
  8
1
  6
DOT_CENTER
 62
     2
100
AcDbLine
 10
184.0
 20
23.50000000000001
 30
0.0
 11
197.0
 21
23.50000000000001
 31
0.0
  0
LINE
  5
8B
330
36
100
AcDbEntity
  8
1
  6
Continuous
 62
     7
100
AcDbLine
 10
196.0
 20
21.50000000000001
 30
0.0
 11
191.0
 21
22.30000000000001
 31
0.0
  0
LINE
  5
8C
330
36
100
AcDbEntity
  8
1
  6
Continuous
 62
     7
100
AcDbLine
 10
196.0
 20
25.50000000000001
 30
0.0
 11
196.0
 21
21.50000000000001
 31
0.0
  0
LINE
  5
8D
330
36
100
AcDbEntity
  8
1
  6
Continuous
 62
     7
100
AcDbLine
 10
191.0
 20
24.70000000000001
 30
0.0
 11
196.0
 21
25.50000000000001
 31
0.0
  0
LINE
  5
8E
330
36
100
AcDbEntity
  8
1
  6
Continuous
 62
     7
100
AcDbLine
 10
191.0
 20
24.70000000000001
 30
0.0
 11
191.0
 21
22.30000000000001
 31
0.0
  0
LINE
  5
8F
330
36
100
AcDbEntity
  8
1
  6
Continuous
 62
     2
100
AcDbLine
 10
33.0
 20
27.0
 30
0.0
 11
33.0
 21
10.0
 31
0.0
  0
LINE
  5
90
330
36
100
AcDbEntity
  8
1
  6
Continuous
 62
     2
100
AcDbLine
 10
25.0
 20
18.50000000000001
 30
0.0
 11
81.0
 21
18.50000000000001
 31
0.0
  0
LINE
  5
91
330
36
100
AcDbEntity
  8
1
  6
Continuous
 62
     7
100
AcDbLine
 10
200.0
 20
287.0000000000003
 30
0.0
 11
105.0
 21
287.0000000000003
 31
0.0
  0
LINE
  5
92
330
36
100
AcDbEntity
  8
1
  6
Continuous
 62
     7
100
AcDbLine
 10
200.0
 20
10.0
 30
0.0
 11
200.0
 21
148.5
 31
0.0
  0
LINE
  5
93
330
36
100
AcDbEntity
  8
1
  6
Continuous
 62
     7
100
AcDbLine
 10
25.0
 20
10.0
 30
0.0
 11
105.0
 21
10.0
 31
0.0
  0
LINE
  5
94
330
36
100
AcDbEntity
  8
1
  6
PHANTOM
 62
     4
100
AcDbLine
 10
0.0
 20
297.0
 30
0.0
 11
0.0
 21
0.0
 31
0.0
  0
LINE
  5
95
330
36
100
AcDbEntity
  8
1
  6
PHANTOM
 62
     4
100
AcDbLine
 10
210.0
 20
297.0
 30
0.0
 11
0.0
 21
297.0
 31
0.0
  0
LINE
  5
96
330
36
100
AcDbEntity
  8
1
  6
PHANTOM
 62
     4
100
AcDbLine
 10
210.0
 20
0.0
 30
0.0
 11
210.0
 21
297.0
 31
0.0
  0
LINE
  5
97
330
36
100
AcDbEntity
  8
1
  6
PHANTOM
 62
     4
100
AcDbLine
 10
0.0
 20
0.0
 30
0.0
 11
210.0
 21
0.0
 31
0.0
  0
LINE
  5
98
330
36
100
AcDbEntity
  8
1
  6
Continuous
 62
     7
100
AcDbLine
 10
25.0
 20
41.0
 30
0.0
 11
200.0
 21
41.0
 31
0.0
  0
LINE
  5
99
330
36
100
AcDbEntity
  8
1
  6
Continuous
 62
     7
100
AcDbLine
 10
200.0
 20
27.00000000000001
 30
0.0
 11
25.0
 21
27.00000000000001
 31
0.0
  0
LINE
  5
9A
330
36
100
AcDbEntity
  8
1
  6
Continuous
 62
     2
100
AcDbLine
 10
33.0
 20
41.00000000000001
 30
0.0
 11
33.0
 21
27.0
 31
0.0
  0
LINE
  5
9B
330
36
100
AcDbEntity
  8
1
  6
Continuous
 62
     2
100
AcDbLine
 10
55.0
 20
287.0000000000003
 30
0.0
 11
55.0
 21
277.0000000000003
 31
0.0
  0
LINE
  5
9C
330
36
100
AcDbEntity
  8
1
  6
Continuous
 62
     2
100
AcDbLine
 10
40.0
 20
287.0000000000003
 30
0.0
 11
40.0
 21
277.0000000000003
 31
0.0
  0
LINE
  5
9D
330
36
100
AcDbEntity
  8
1
  6
Continuous
 62
     7
100
AcDbLine
 10
25.0
 20
10.0
 30
0.0
 11
25.0
 21
148.5
 31
0.0
  0
LINE
  5
9E
330
36
100
AcDbEntity
  8
1
  6
Continuous
 62
     2
100
AcDbLine
 10
55.0
 20
277.0000000000003
 30
0.0
 11
25.0
 21
277.0000000000003
 31
0.0
  0
LINE
  5
9F
330
36
100
AcDbEntity
  8
1
  6
Continuous
 62
     2
100
AcDbLine
 10
166.0
 20
27.00000000000001
 30
0.0
 11
166.0
 21
10.0
 31
0.0
  0
LINE
  5
A0
330
36
100
AcDbEntity
  8
1
  6
Continuous
 62
     2
100
AcDbLine
 10
132.0
 20
27.00000000000001
 30
0.0
 11
132.0
 21
9.99999999999999
 31
0.0
  0
LINE
  5
A1
330
36
100
AcDbEntity
  8
1
  6
Continuous
 62
     2
100
AcDbLine
 10
149.0
 20
27.00000000000001
 30
0.0
 11
149.0
 21
10.0
 31
0.0
  0
LINE
  5
A2
330
36
100
AcDbEntity
  8
1
  6
Continuous
 62
     2
100
AcDbLine
 10
115.0
 20
27.00000000000001
 30
0.0
 11
115.0
 21
9.99999999999999
 31
0.0
  0
LINE
  5
A3
330
36
100
AcDbEntity
  8
1
  6
Continuous
 62
     2
100
AcDbLine
 10
98.0
 20
27.00000000000001
 30
0.0
 11
98.0
 21
9.99999999999999
 31
0.0
  0
LINE
  5
A4
330
36
100
AcDbEntity
  8
1
  6
Continuous
 62
     2
100
AcDbLine
 10
166.0
 20
20.00000000000001
 30
0.0
 11
200.0
 21
20.00000000000001
 31
0.0
  0
LINE
  5
A5
330
36
100
AcDbEntity
  8
1
  6
Continuous
 62
     2
100
AcDbLine
 10
105.0
 20
287.0000000000003
 30
0.0
 11
105.0
 21
292.0000000000003
 31
0.0
  0
LINE
  5
A6
330
36
100
AcDbEntity
  8
1
  6
Continuous
 62
     7
100
AcDbLine
 10
105.0
 20
287.0000000000003
 30
0.0
 11
25.0
 21
287.0000000000003
 31
0.0
  0
LINE
  5
A7
330
36
100
AcDbEntity
  8
1
  6
Continuous
 62
     2
100
AcDbLine
 10
25.0
 20
148.5
 30
0.0
 11
20.0
 21
148.5
 31
0.0
  0
LINE
  5
A8
330
36
100
AcDbEntity
  8
1
  6
Continuous
 62
     7
100
AcDbLine
 10
25.0
 20
148.5
 30
0.0
 11
25.0
 21
287.0000000000003
 31
0.0
  0
LINE
  5
A9
330
36
100
AcDbEntity
  8
1
  6
Continuous
 62
     2
100
AcDbLine
 10
200.0
 20
148.5
 30
0.0
 11
205.0
 21
148.5
 31
0.0
  0
LINE
  5
AA
330
36
100
AcDbEntity
  8
1
  6
Continuous
 62
     7
100
AcDbLine
 10
200.0
 20
148.5
 30
0.0
 11
200.0
 21
287.0000000000003
 31
0.0
  0
LINE
  5
AB
330
36
100
AcDbEntity
  8
1
  6
Continuous
 62
     2
100
AcDbLine
 10
105.0
 20
10.0
 30
0.0
 11
105.0
 21
5.0
 31
0.0
  0
LINE
  5
AC
330
36
100
AcDbEntity
  8
1
  6
Continuous
 62
     7
100
AcDbLine
 10
105.0
 20
10.0
 30
0.0
 11
200.0
 21
10.0
 31
0.0
  0
CIRCLE
  5
AD
330
36
100
AcDbEntity
  8
1
  6
DOT_CENTER
 62
     7
100
AcDbCircle
 10
89.5
 20
18.0
 30
0.0
 40
0.1000000000000227
  0
CIRCLE
  5
AE
330
36
100
AcDbEntity
  8
1
  6
DOT_CENTER
 62
     7
100
AcDbCircle
 10
89.5
 20
16.0
 30
0.0
 40
0.1000000000000227
  0
CIRCLE
  5
AF
330
36
100
AcDbEntity
  8
1
  6
Continuous
 62
     7
100
AcDbCircle
 10
187.0
 20
23.50000000000001
 30
0.0
 40
2.0
  0
CIRCLE
  5
B0
330
36
100
AcDbEntity
  8
1
  6
Continuous
 62
     7
100
AcDbCircle
 10
187.0
 20
23.50000000000001
 30
0.0
 40
1.200000000000102
  0
CIRCLE
  5
B1
330
36
100
AcDbEntity
  8
1
  6
Continuous
 62
     7
100
AcDbCircle
 10
154.5
 20
12.5
 30
0.0
 40
0.3000000000000114
  0
CIRCLE
  5
B2
330
36
100
AcDbEntity
  8
1
  6
Continuous
 62
     7
100
AcDbCircle
 10
160.5
 20
12.5
 30
0.0
 40
0.3000000000000114
  0
CIRCLE
  5
B3
330
36
100
AcDbEntity
  8
1
  6
Continuous
 62
     7
100
AcDbCircle
 10
143.5
 20
12.5
 30
0.0
 40
0.3000000000000114
  0
CIRCLE
  5
B4
330
36
100
AcDbEntity
  8
1
  6
Continuous
 62
     7
100
AcDbCircle
 10
137.5
 20
12.5
 30
0.0
 40
0.3000000000000114
  0
CIRCLE
  5
B5
330
36
100
AcDbEntity
  8
1
  6
Continuous
 62
     7
100
AcDbCircle
 10
126.5
 20
12.5
 30
0.0
 40
0.2999999999999972
  0
CIRCLE
  5
B6
330
36
100
AcDbEntity
  8
1
  6
Continuous
 62
     7
100
AcDbCircle
 10
120.5
 20
12.5
 30
0.0
 40
0.2999999999999972
  0
CIRCLE
  5
B7
330
36
100
AcDbEntity
  8
1
  6
Continuous
 62
     7
100
AcDbCircle
 10
109.5
 20
12.5
 30
0.0
 40
0.2999999999999972
  0
CIRCLE
  5
B8
330
36
100
AcDbEntity
  8
1
  6
Continuous
 62
     7
100
AcDbCircle
 10
103.5
 20
12.5
 30
0.0
 40
0.2999999999999972
  0
MTEXT
  5
BA
330
36
100
AcDbEntity
  8
1
 62
   250
100
AcDbMText
 10
25.0
 20
5.0
 30
0.0
 40
3.5
 41
0.0
 71
     4
 72
     1
  1
備考欄の文字列 原点位置=4
  7
CONVERTER_1
 73
     1
 44
0.7202881152461
  0
MTEXT
  5
BB
330
36
100
AcDbEntity
  8
1
 62
     2
100
AcDbMText
 10
89.5
 20
24.00000000000001
 30
0.0
 40
3.5
 41
0.0
 71
     5
 72
     1
  1
尺度
  7
CONVERTER_1
 73
     1
 44
0.7202881152461
  0
MTEXT
  5
BC
330
36
100
AcDbEntity
  8
1
 62
     2
100
AcDbMText
 10
135.5
 20
25.00000000000001
 30
0.0
 40
3.0
 41
0.0
 71
     5
 72
     1
  1
製図
  7
CONVERTER_1
 73
     1
 44
0.78031212484994
  0
MTEXT
  5
BD
330
36
100
AcDbEntity
  8
1
 62
     2
100
AcDbMText
 10
152.5
 20
25.00000000000001
 30
0.0
 40
3.0
 41
0.0
 71
     5
 72
     1
  1
設計
  7
CONVERTER_1
 73
     1
 44
0.78031212484994
  0
MTEXT
  5
BE
330
36
100
AcDbEntity
  8
1
 62
     2
100
AcDbMText
 10
118.5
 20
25.00000000000001
 30
0.0
 40
3.0
 41
0.0
 71
     5
 72
     1
  1
検図
  7
CONVERTER_1
 73
     1
 44
0.78031212484994
  0
MTEXT
  5
BF
330
36
100
AcDbEntity
  8
1
 62
     2
100
AcDbMText
 10
175.0
 20
23.50000000000001
 30
0.0
 40
3.5
 41
0.0
 71
     5
 72
     1
  1
第三角法
  7
CONVERTER_1
 73
     1
 44
0.7202881152461
  0
MTEXT
  5
C0
330
36
100
AcDbEntity
  8
1
 62
     2
100
AcDbMText
 10
101.5
 20
25.00000000000001
 30
0.0
 40
3.0
 41
0.0
 71
     5
 72
     1
  1
承認
  7
CONVERTER_1
 73
     1
 44
0.78031212484994
  0
MTEXT
  5
C1
330
36
100
AcDbEntity
  8
1
 62
     2
100
AcDbMText
 10
29.0
 20
14.25
 30
0.0
 40
3.5
 41
0.0
 71
     5
 72
     1
  1
品番
  7
CONVERTER_1
 73
     1
 44
0.96038415366146
  0
MTEXT
  5
C2
330
36
100
AcDbEntity
  8
1
 62
     2
100
AcDbMText
 10
29.0
 20
22.75
 30
0.0
 40
3.5
 41
0.0
 71
     5
 72
     1
  1
品名
  7
CONVERTER_1
 73
     1
 44
0.96038415366146
  0
MTEXT
  5
C3
330
36
100
AcDbEntity
  8
1
 62
     2
100
AcDbMText
 10
29.0
 20
34.00000000000001
 30
0.0
 40
3.5
 41
0.0
 71
     5
 72
     1
  1
備考
  7
CONVERTER_1
 73
     1
 44
0.60024009603842
  0
MTEXT
  5
C4
330
36
100
AcDbEntity
  8
1
 62
     2
100
AcDbMText
 10
32.5
 20
282.0000000000003
 30
0.0
 40
5.0
 41
0.0
 71
     5
 72
     1
  1
図番
  7
CONVERTER_1
 73
     1
 44
0.60024009603842
  0
MTEXT
  5
C5
330
36
100
AcDbEntity
  8
1
 62
     7
100
AcDbMText
 10
171.5
 20
15.0
 30
0.0
 40
2.5
 41
0.0
 71
     5
 72
     1
  1
株式会社
  7
CONVERTER_1
 73
     1
 44
1.32052821128451
  0
MTEXT
  5
C6
330
36
100
AcDbEntity
  8
1
 62
     7
100
AcDbMText
 10
188.5
 20
15.0
 30
0.0
 40
3.0
 41
0.0
 71
     5
 72
     1
  1
三栄水栓製作所
  7
CONVERTER_1
 73
     1
 44
1.32052821128451
  0
ENDBLK
  5
38
330
36
100
AcDbEntity
  8
0
100
AcDbBlockEnd
  0
BLOCK
  5
3A
330
39
100
AcDbEntity
  8
0
100
AcDbBlockBegin
  2
A101-0
 70
     0
 71
     0
 10
303.5795045335786
 20
297.1332522301959
 30
0.0
  3
A101-0
  1

  0
LINE
  5
C7
330
39
100
AcDbEntity
  8
1
  6
Continuous
 62
     7
100
AcDbLine
 10
360.5125222850579
 20
240.0050705431307
 30
0.0
 11
360.5125222850579
 21
239.0050705431307
 31
0.0
  0
LINE
  5
C8
330
39
100
AcDbEntity
  8
1
  6
Continuous
 62
     2
100
AcDbLine
 10
361.5125222850579
 20
239.0050705431307
 30
0.0
 11
361.5125222850579
 21
237.5050705431307
 31
0.0
  0
LINE
  5
C9
330
39
100
AcDbEntity
  8
1
  6
Continuous
 62
     7
100
AcDbLine
 10
360.5125222850579
 20
239.0050705431307
 30
0.0
 11
386.5125222850579
 21
239.0050705431307
 31
0.0
  0
LINE
  5
CA
330
39
100
AcDbEntity
  8
1
  6
Continuous
 62
     7
100
AcDbLine
 10
360.5125222850579
 20
237.5050705431307
 30
0.0
 11
360.5125222850579
 21
239.0050705431307
 31
0.0
  0
LINE
  5
CB
330
39
100
AcDbEntity
  8
1
  6
Continuous
 62
     7
100
AcDbLine
 10
398.1104566193887
 20
241.0050705431307
 30
0.0
 11
357.5125222850579
 21
241.0050705431307
 31
0.0
  0
LINE
  5
CC
330
39
100
AcDbEntity
  8
1
  6
Continuous
 62
     7
100
AcDbLine
 10
386.5125222850579
 20
237.5050705431307
 30
0.0
 11
386.5125222850579
 21
239.0050705431307
 31
0.0
  0
LINE
  5
CD
330
39
100
AcDbEntity
  8
1
  6
Continuous
 62
     7
100
AcDbLine
 10
378.5125222850579
 20
274.0050705431307
 30
0.0
 11
378.5125222850579
 21
276.0050705431307
 31
0.0
  0
LINE
  5
CE
330
39
100
AcDbEntity
  8
1
  6
Continuous
 62
     7
100
AcDbLine
 10
427.0125222850579
 20
271.0050705431307
 30
0.0
 11
420.7780737177599
 21
271.0050705431307
 31
0.0
  0
LINE
  5
CF
330
39
100
AcDbEntity
  8
1
  6
Continuous
 62
     7
100
AcDbLine
 10
406.5125222850579
 20
276.0050705431307
 30
0.0
 11
406.5125222850579
 21
274.0050705431307
 31
0.0
  0
LINE
  5
D0
330
39
100
AcDbEntity
  8
1
  6
Continuous
 62
     7
100
AcDbLine
 10
437.5125222850579
 20
233.0050705431307
 30
0.0
 11
435.0125222850579
 21
233.0050705431307
 31
0.0
  0
LINE
  5
D1
330
39
100
AcDbEntity
  8
1
  6
Continuous
 62
     7
100
AcDbLine
 10
437.5125222850579
 20
245.5050705431307
 30
0.0
 11
437.5125222850579
 21
233.0050705431307
 31
0.0
  0
LINE
  5
D2
330
39
100
AcDbEntity
  8
1
  6
Continuous
 62
     2
100
AcDbLine
 10
439.2445730926269
 20
246.5050705431307
 30
0.0
 11
437.5125222850579
 21
245.5050705431307
 31
0.0
  0
LINE
  5
D3
330
39
100
AcDbEntity
  8
1
  6
Continuous
 62
     7
100
AcDbLine
 10
451.5125222850579
 20
256.0050705431307
 30
0.0
 11
451.5125222850579
 21
246.5050705431307
 31
0.0
  0
LINE
  5
D4
330
39
100
AcDbEntity
  8
1
  6
Continuous
 62
     7
100
AcDbLine
 10
450.5125222850579
 20
245.5050705431307
 30
0.0
 11
451.5125222850579
 21
246.5050705431307
 31
0.0
  0
LINE
  5
D5
330
39
100
AcDbEntity
  8
1
  6
Continuous
 62
     7
100
AcDbLine
 10
427.0125222850579
 20
241.0050705431307
 30
0.0
 11
420.7780737177599
 21
241.0050705431307
 31
0.0
  0
LINE
  5
D6
330
39
100
AcDbEntity
  8
1
  6
Continuous
 62
     7
100
AcDbLine
 10
451.5125222850579
 20
265.5050705431307
 30
0.0
 11
450.5125222850579
 21
266.5050705431307
 31
0.0
  0
LINE
  5
D7
330
39
100
AcDbEntity
  8
1
  6
Continuous
 62
     2
100
AcDbLine
 10
439.2445730926269
 20
265.5050705431307
 30
0.0
 11
450.5125222850579
 21
265.5050705431307
 31
0.0
  0
LINE
  5
D8
330
39
100
AcDbEntity
  8
1
  6
Continuous
 62
     2
100
AcDbLine
 10
437.5125222850579
 20
266.5050705431307
 30
0.0
 11
439.2445730926269
 21
265.5050705431307
 31
0.0
  0
LINE
  5
D9
330
39
100
AcDbEntity
  8
1
  6
Continuous
 62
     7
100
AcDbLine
 10
451.5125222850579
 20
265.5050705431307
 30
0.0
 11
451.5125222850579
 21
256.0050705431307
 31
0.0
  0
LINE
  5
DA
330
39
100
AcDbEntity
  8
1
  6
Continuous
 62
     7
100
AcDbLine
 10
437.5125222850579
 20
266.5050705431307
 30
0.0
 11
439.2445730926269
 21
266.5050705431307
 31
0.0
  0
LINE
  5
DB
330
39
100
AcDbEntity
  8
1
  6
Continuous
 62
     7
100
AcDbLine
 10
437.5125222850579
 20
279.0050705431307
 30
0.0
 11
437.5125222850579
 21
245.5050705431307
 31
0.0
  0
LINE
  5
DC
330
39
100
AcDbEntity
  8
1
  6
Continuous
 62
     7
100
AcDbLine
 10
435.0125222850579
 20
279.0050705431307
 30
0.0
 11
437.5125222850579
 21
279.0050705431307
 31
0.0
  0
LINE
  5
DD
330
39
100
AcDbEntity
  8
1
  6
Continuous
 62
     7
100
AcDbLine
 10
375.5125222850579
 20
271.0050705431307
 30
0.0
 11
374.8436204889988
 21
271.0050705431307
 31
0.0
  0
LINE
  5
DE
330
39
100
AcDbEntity
  8
1
  6
Continuous
 62
     7
100
AcDbLine
 10
450.5125222850579
 20
266.5050705431307
 30
0.0
 11
450.5125222850579
 21
245.5050705431307
 31
0.0
  0
LINE
  5
DF
330
39
100
AcDbEntity
  8
1
  6
Continuous
 62
     2
100
AcDbLine
 10
450.5125222850579
 20
265.5050705431307
 30
0.0
 11
451.5125222850579
 21
265.5050705431307
 31
0.0
  0
LINE
  5
E0
330
39
100
AcDbEntity
  8
1
  6
Continuous
 62
     2
100
AcDbLine
 10
451.5125222850579
 20
246.5050705431307
 30
0.0
 11
439.2445730926269
 21
246.5050705431307
 31
0.0
  0
LINE
  5
E1
330
39
100
AcDbEntity
  8
1
  6
Continuous
 62
     7
100
AcDbLine
 10
450.5125222850579
 20
245.5050705431307
 30
0.0
 11
439.2445730926269
 21
245.5050705431307
 31
0.0
  0
LINE
  5
E2
330
39
100
AcDbEntity
  8
1
  6
Continuous
 62
     7
100
AcDbLine
 10
439.2445730926269
 20
245.5050705431307
 30
0.0
 11
439.2445730926269
 21
266.5050705431307
 31
0.0
  0
LINE
  5
E3
330
39
100
AcDbEntity
  8
1
  6
Continuous
 62
     7
100
AcDbLine
 10
439.2445730926269
 20
266.5050705431307
 30
0.0
 11
450.5125222850579
 21
266.5050705431307
 31
0.0
  0
LINE
  5
E4
330
39
100
AcDbEntity
  8
1
  6
Continuous
 62
     7
100
AcDbLine
 10
142.012522285058
 20
628.3782897456227
 30
0.0
 11
142.012522285058
 21
639.6462389380538
 31
0.0
  0
LINE
  5
E5
330
39
100
AcDbEntity
  8
1
  6
Continuous
 62
     7
100
AcDbLine
 10
143.012522285058
 20
628.3782897456227
 30
0.0
 11
142.012522285058
 21
628.3782897456227
 31
0.0
  0
LINE
  5
E6
330
39
100
AcDbEntity
  8
1
  6
Continuous
 62
     7
100
AcDbLine
 10
163.012522285058
 20
628.3782897456227
 30
0.0
 11
163.012522285058
 21
626.6462389380538
 31
0.0
  0
LINE
  5
E7
330
39
100
AcDbEntity
  8
1
  6
Continuous
 62
     7
100
AcDbLine
 10
162.012522285058
 20
628.3782897456227
 30
0.0
 11
163.012522285058
 21
628.3782897456227
 31
0.0
  0
LINE
  5
E8
330
39
100
AcDbEntity
  8
1
  6
Continuous
 62
     2
100
AcDbLine
 10
162.012522285058
 20
639.6462389380538
 30
0.0
 11
162.012522285058
 21
628.3782897456227
 31
0.0
  0
LINE
  5
E9
330
39
100
AcDbEntity
  8
1
  6
Continuous
 62
     7
100
AcDbLine
 10
163.012522285058
 20
639.6462389380538
 30
0.0
 11
162.012522285058
 21
639.6462389380538
 31
0.0
  0
LINE
  5
EA
330
39
100
AcDbEntity
  8
1
  6
Continuous
 62
     2
100
AcDbLine
 10
143.012522285058
 20
639.6462389380538
 30
0.0
 11
143.012522285058
 21
640.6462389380538
 31
0.0
  0
LINE
  5
EB
330
39
100
AcDbEntity
  8
1
  6
Continuous
 62
     7
100
AcDbLine
 10
142.012522285058
 20
639.6462389380538
 30
0.0
 11
143.012522285058
 21
639.6462389380538
 31
0.0
  0
LINE
  5
EC
330
39
100
AcDbEntity
  8
1
  6
Continuous
 62
     7
100
AcDbLine
 10
129.512522285058
 20
624.1462389380538
 30
0.0
 11
129.512522285058
 21
626.6462389380538
 31
0.0
  0
LINE
  5
ED
330
39
100
AcDbEntity
  8
1
  6
Continuous
 62
     7
100
AcDbLine
 10
129.512522285058
 20
626.6462389380538
 30
0.0
 11
142.012522285058
 21
626.6462389380538
 31
0.0
  0
LINE
  5
EE
330
39
100
AcDbEntity
  8
1
  6
Continuous
 62
     7
100
AcDbLine
 10
142.012522285058
 20
626.6462389380538
 30
0.0
 11
142.012522285058
 21
628.3782897456227
 31
0.0
  0
LINE
  5
EF
330
39
100
AcDbEntity
  8
1
  6
Continuous
 62
     2
100
AcDbLine
 10
142.012522285058
 20
626.6462389380538
 30
0.0
 11
143.012522285058
 21
628.3782897456227
 31
0.0
  0
LINE
  5
F0
330
39
100
AcDbEntity
  8
1
  6
Continuous
 62
     2
100
AcDbLine
 10
143.012522285058
 20
628.3782897456227
 30
0.0
 11
143.012522285058
 21
639.6462389380538
 31
0.0
  0
LINE
  5
F1
330
39
100
AcDbEntity
  8
1
  6
Continuous
 62
     7
100
AcDbLine
 10
143.012522285058
 20
640.6462389380538
 30
0.0
 11
152.512522285058
 21
640.6462389380538
 31
0.0
  0
LINE
  5
F2
330
39
100
AcDbEntity
  8
1
  6
Continuous
 62
     7
100
AcDbLine
 10
143.012522285058
 20
640.6462389380538
 30
0.0
 11
142.012522285058
 21
639.6462389380538
 31
0.0
  0
LINE
  5
F3
330
39
100
AcDbEntity
  8
1
  6
Continuous
 62
     7
100
AcDbLine
 10
163.012522285058
 20
639.6462389380538
 30
0.0
 11
162.012522285058
 21
640.6462389380538
 31
0.0
  0
LINE
  5
F4
330
39
100
AcDbEntity
  8
1
  6
Continuous
 62
     2
100
AcDbLine
 10
162.012522285058
 20
640.6462389380538
 30
0.0
 11
162.012522285058
 21
639.6462389380538
 31
0.0
  0
LINE
  5
F5
330
39
100
AcDbEntity
  8
1
  6
Continuous
 62
     2
100
AcDbLine
 10
162.012522285058
 20
628.3782897456227
 30
0.0
 11
163.012522285058
 21
626.6462389380538
 31
0.0
  0
LINE
  5
F6
330
39
100
AcDbEntity
  8
1
  6
Continuous
 62
     7
100
AcDbLine
 10
152.512522285058
 20
640.6462389380538
 30
0.0
 11
162.012522285058
 21
640.6462389380538
 31
0.0
  0
LINE
  5
F7
330
39
100
AcDbEntity
  8
1
  6
Continuous
 62
     7
100
AcDbLine
 10
163.012522285058
 20
639.6462389380538
 30
0.0
 11
163.012522285058
 21
628.3782897456227
 31
0.0
  0
LINE
  5
F8
330
39
100
AcDbEntity
  8
1
  6
Continuous
 62
     7
100
AcDbLine
 10
163.012522285058
 20
626.6462389380538
 30
0.0
 11
175.512522285058
 21
626.6462389380538
 31
0.0
  0
LINE
  5
F9
330
39
100
AcDbEntity
  8
1
  6
Continuous
 62
     7
100
AcDbLine
 10
175.512522285058
 20
626.6462389380538
 30
0.0
 11
175.512522285058
 21
624.1462389380538
 31
0.0
  0
LINE
  5
FA
330
39
100
AcDbEntity
  8
1
  6
Continuous
 62
     7
100
AcDbLine
 10
143.012522285058
 20
628.3782897456227
 30
0.0
 11
162.012522285058
 21
628.3782897456227
 31
0.0
  0
LINE
  5
FB
330
39
100
AcDbEntity
  8
1
  6
Continuous
 62
     7
100
AcDbLine
 10
143.012522285058
 20
639.6462389380538
 30
0.0
 11
162.012522285058
 21
639.6462389380538
 31
0.0
  0
LINE
  5
FC
330
39
100
AcDbEntity
  8
1
  6
Continuous
 62
     7
100
AcDbLine
 10
142.012522285058
 20
626.6462389380538
 30
0.0
 11
163.012522285058
 21
626.6462389380538
 31
0.0
  0
LINE
  5
FD
330
39
100
AcDbEntity
  8
1
  6
Continuous
 62
     7
100
AcDbLine
 10
132.512522285058
 20
617.9012409396554
 30
0.0
 11
132.512522285058
 21
581.6462389380538
 31
0.0
  0
LINE
  5
FE
330
39
100
AcDbEntity
  8
1
  6
Continuous
 62
     7
100
AcDbLine
 10
172.512522285058
 20
617.9012409396554
 30
0.0
 11
172.512522285058
 21
581.6462389380538
 31
0.0
  0
LINE
  5
FF
330
39
100
AcDbEntity
  8
1
  6
Continuous
 62
     7
100
AcDbLine
 10
132.512522285058
 20
581.6462389380538
 30
0.0
 11
132.512522285058
 21
563.6462389380538
 31
0.0
  0
LINE
  5
100
330
39
100
AcDbEntity
  8
1
  6
Continuous
 62
     7
100
AcDbLine
 10
172.512522285058
 20
581.6462389380538
 30
0.0
 11
172.512522285058
 21
563.6462389380538
 31
0.0
  0
LINE
  5
101
330
39
100
AcDbEntity
  8
1
  6
Continuous
 62
     7
100
AcDbLine
 10
141.512522285058
 20
624.1462389380538
 30
0.0
 11
163.512522285058
 21
624.1462389380538
 31
0.0
  0
LINE
  5
102
330
39
100
AcDbEntity
  8
1
  6
Continuous
 62
     7
100
AcDbLine
 10
386.5125222850579
 20
240.0050705431307
 30
0.0
 11
385.5125222850579
 21
239.0050705431307
 31
0.0
  0
LINE
  5
103
330
39
100
AcDbEntity
  8
1
  6
Continuous
 62
     7
100
AcDbLine
 10
361.5125222850579
 20
239.0050705431307
 30
0.0
 11
360.5125222850579
 21
240.0050705431307
 31
0.0
  0
LINE
  5
104
330
39
100
AcDbEntity
  8
1
  6
Continuous
 62
     7
100
AcDbLine
 10
357.5126211474673
 20
241.0036541418227
 30
0.0
 11
357.5125222850579
 21
241.0050705431307
 31
0.0
  0
LINE
  5
105
330
39
100
AcDbEntity
  8
1
  6
Continuous
 62
     7
100
AcDbLine
 10
139.5125222850579
 20
239.0050705431307
 30
0.0
 11
165.5125222850579
 21
239.0050705431307
 31
0.0
  0
LINE
  5
106
330
39
100
AcDbEntity
  8
1
  6
Continuous
 62
     7
100
AcDbLine
 10
165.5125222850579
 20
241.5694656827093
 30
0.0
 11
165.5125222850579
 21
241.5705821327205
 31
0.0
  0
LINE
  5
107
330
39
100
AcDbEntity
  8
1
  6
DASHED
 62
     7
100
AcDbLine
 10
138.5125222850579
 20
270.3503081638863
 30
0.0
 11
138.5125222850579
 21
270.3479851978441
 31
0.0
  0
LINE
  5
108
330
39
100
AcDbEntity
  8
1
  6
Continuous
 62
     2
100
AcDbLine
 10
140.5125222850579
 20
239.0050705431307
 30
0.0
 11
140.5125222850579
 21
237.5050705431307
 31
0.0
  0
LINE
  5
109
330
39
100
AcDbEntity
  8
1
  6
DASH_CENTER
 62
     2
100
AcDbLine
 10
152.5125222850579
 20
233.9798042709414
 30
0.0
 11
152.5125222850579
 21
234.0050705431307
 31
0.0
  0
LINE
  5
10A
330
39
100
AcDbEntity
  8
1
  6
Continuous
 62
     7
100
AcDbLine
 10
165.5125222850579
 20
240.6554779264562
 30
0.0
 11
165.5125222850579
 21
237.5050705431307
 31
0.0
  0
LINE
  5
10B
330
39
100
AcDbEntity
  8
1
  6
Continuous
 62
     2
100
AcDbLine
 10
165.5125222850579
 20
240.6554779264562
 30
0.0
 11
164.5125222850579
 21
239.0050705431307
 31
0.0
  0
LINE
  5
10C
330
39
100
AcDbEntity
  8
1
  6
Continuous
 62
     2
100
AcDbLine
 10
140.5125222850579
 20
239.0050705431307
 30
0.0
 11
139.5125222850579
 21
240.6554779264562
 31
0.0
  0
LINE
  5
10D
330
39
100
AcDbEntity
  8
1
  6
Continuous
 62
     2
100
AcDbLine
 10
385.5125222850579
 20
237.5050705431307
 30
0.0
 11
385.5125222850579
 21
239.0050705431307
 31
0.0
  0
LINE
  5
10E
330
39
100
AcDbEntity
  8
1
  6
Continuous
 62
     7
100
AcDbLine
 10
420.7780737177599
 20
271.0050705431307
 30
0.0
 11
375.5125222850579
 21
271.0050705431307
 31
0.0
  0
LINE
  5
10F
330
39
100
AcDbEntity
  8
1
  6
Continuous
 62
     7
100
AcDbLine
 10
420.7780737177599
 20
241.0050705431307
 30
0.0
 11
398.1104566193887
 21
241.0050705431307
 31
0.0
  0
LINE
  5
110
330
39
100
AcDbEntity
  8
1
  6
Continuous
 62
     7
100
AcDbLine
 10
171.512522285058
 20
585.3099119583984
 30
0.0
 11
171.512522285058
 21
616.1462389380538
 31
0.0
  0
LINE
  5
111
330
39
100
AcDbEntity
  8
1
  6
Continuous
 62
     7
100
AcDbLine
 10
133.512522285058
 20
585.3099119583984
 30
0.0
 11
133.512522285058
 21
616.1462389380538
 31
0.0
  0
LINE
  5
112
330
39
100
AcDbEntity
  8
1
  6
Continuous
 62
     7
100
AcDbLine
 10
166.5125222850579
 20
275.8050705431306
 30
0.0
 11
166.5125222850579
 21
273.0576930131165
 31
0.0
  0
LINE
  5
113
330
39
100
AcDbEntity
  8
1
  6
Continuous
 62
     7
100
AcDbLine
 10
138.5125222850579
 20
275.8050705431306
 30
0.0
 11
138.5125222850579
 21
273.0576930131165
 31
0.0
  0
LINE
  5
114
330
39
100
AcDbEntity
  8
1
  6
Continuous
 62
     2
100
AcDbLine
 10
164.5125222850579
 20
237.5050705431307
 30
0.0
 11
164.5125222850579
 21
239.0050705431307
 31
0.0
  0
LINE
  5
115
330
39
100
AcDbEntity
  8
1
  6
Continuous
 62
     7
100
AcDbLine
 10
139.5125222850579
 20
237.5050705431307
 30
0.0
 11
139.5125222850579
 21
240.6554779264562
 31
0.0
  0
LINE
  5
116
330
39
100
AcDbEntity
  8
1
  6
Continuous
 62
     7
100
AcDbLine
 10
439.2445730926269
 20
245.5050705431307
 30
0.0
 11
437.5125222850579
 21
245.5050705431307
 31
0.0
  0
LINE
  5
117
330
39
100
AcDbEntity
  8
1
  6
Continuous
 62
     7
100
AcDbLine
 10
435.0125222850579
 20
279.0050705431307
 30
0.0
 11
435.0125222850579
 21
233.0050705431307
 31
0.0
  0
LINE
  5
118
330
39
100
AcDbEntity
  8
1
  6
Continuous
 62
     7
100
AcDbLine
 10
386.5125222850579
 20
239.0050705431307
 30
0.0
 11
386.5125222850579
 21
240.0050705431307
 31
0.0
  0
ARC
  5
119
330
39
100
AcDbEntity
  8
1
  6
Continuous
 62
     7
100
AcDbCircle
 10
152.5125222850567
 20
256.0050705431307
 30
0.0
 40
22.99999999999909
100
AcDbArc
 50
127.4952497645566
 51
-125.8969347877884
  0
ARC
  5
11A
330
39
100
AcDbEntity
  8
1
  6
Continuous
 62
     7
100
AcDbCircle
 10
152.5125222850579
 20
256.0050705431307
 30
0.0
 40
22.99999999999981
100
AcDbArc
 50
-54.10306521220926
 51
52.50475023544106
  0
ARC
  5
11B
330
39
100
AcDbEntity
  8
1
  6
Continuous
 62
     7
100
AcDbCircle
 10
152.512522285058
 20
563.6462389380538
 30
0.0
 40
20.0
100
AcDbArc
 50
180.0
 51
-177.1340160174012
  0
ARC
  5
11C
330
39
100
AcDbEntity
  8
1
  6
Continuous
 62
     7
100
AcDbCircle
 10
59.51252228505791
 20
256.0050705431307
 30
0.0
 40
113.0
100
AcDbArc
 50
-5.7798588595235
 51
0.0
  0
ARC
  5
11D
330
39
100
AcDbEntity
  8
1
  6
Continuous
 62
     7
100
AcDbCircle
 10
245.5231452948682
 20
256.0043623424767
 30
0.0
 40
113.0106230120293
100
AcDbArc
 50
174.220329397692
 51
179.9996409460683
  0
ARC
  5
11E
330
39
100
AcDbEntity
  8
1
  6
Continuous
 62
     7
100
AcDbCircle
 10
152.5125222850579
 20
391.0050705431307
 30
0.0
 40
150.0000000000001
100
AcDbArc
 50
-95.31983177043317
 51
-90.0
  0
ARC
  5
11F
330
39
100
AcDbEntity
  8
1
  6
Continuous
 62
     7
100
AcDbCircle
 10
152.5125222850579
 20
121.0050705431308
 30
0.0
 40
149.9999999999998
100
AcDbArc
 50
83.62062979155718
 51
90.0
  0
ARC
  5
120
330
39
100
AcDbEntity
  8
1
  6
Continuous
 62
     7
100
AcDbCircle
 10
484.2775739095408
 20
169.8561538972979
 30
0.0
 40
150.0
100
AcDbArc
 50
144.947547015804
 51
149.8941652186491
  0
ARC
  5
121
330
39
100
AcDbEntity
  8
1
  6
Continuous
 62
     7
100
AcDbCircle
 10
357.3037344441221
 20
243.9963730302528
 30
0.0
 40
2.999999999999906
100
AcDbArc
 50
158.4978872813925
 51
-86.00732718922885
  0
ARC
  5
122
330
39
100
AcDbEntity
  8
1
  6
Continuous
 62
     7
100
AcDbCircle
 10
124.512522285058
 20
617.9012409396554
 30
0.0
 40
8.0
100
AcDbArc
 50
0.0
 51
51.31781254651052
  0
ARC
  5
123
330
39
100
AcDbEntity
  8
1
  6
Continuous
 62
     7
100
AcDbCircle
 10
180.512522285058
 20
617.9012409396554
 30
0.0
 40
7.999999999999993
100
AcDbArc
 50
128.6821874534895
 51
180.0
  0
ARC
  5
124
330
39
100
AcDbEntity
  8
1
  6
Continuous
 62
     7
100
AcDbCircle
 10
152.512522285058
 20
563.6462389380538
 30
0.0
 40
20.00000000000004
100
AcDbArc
 50
-77.33891915310882
 51
0.0
  0
ARC
  5
125
330
39
100
AcDbEntity
  8
1
  6
Continuous
 62
     7
100
AcDbCircle
 10
484.2775739095408
 20
169.8561538972979
 30
0.0
 40
150.0
100
AcDbArc
 50
138.1117650681175
 51
144.947547015804
  0
ARC
  5
126
330
39
100
AcDbEntity
  8
1
  6
Continuous
 62
     7
100
AcDbCircle
 10
152.5125222850579
 20
391.0050705431307
 30
0.0
 40
150.0
100
AcDbArc
 50
-90.0
 51
-85.02812843182714
  0
ARC
  5
127
330
39
100
AcDbEntity
  8
1
  6
Continuous
 62
     7
100
AcDbCircle
 10
152.5125222850579
 20
391.0050705431307
 30
0.0
 40
150.0000000000001
100
AcDbArc
 50
-96.42156159523992
 51
-95.31983177043317
  0
ARC
  5
128
330
39
100
AcDbEntity
  8
1
  6
Continuous
 62
     7
100
AcDbCircle
 10
152.5125222850579
 20
391.0050705431307
 30
0.0
 40
150.0
100
AcDbArc
 50
-85.02812843182714
 51
-84.68016822956686
  0
ARC
  5
129
330
39
100
AcDbEntity
  8
1
  6
DASHED
 62
     7
100
AcDbCircle
 10
152.5125222850579
 20
121.0050705431308
 30
0.0
 40
149.9999999999999
100
AcDbArc
 50
83.57848837667349
 51
83.62062979155718
  0
ARC
  5
12A
330
39
100
AcDbEntity
  8
1
  6
Continuous
 62
     7
100
AcDbCircle
 10
152.5125222850579
 20
121.0050705431308
 30
0.0
 40
149.9999999999998
100
AcDbArc
 50
95.35540061305274
 51
96.37937020844279
  0
ARC
  5
12B
330
39
100
AcDbEntity
  8
1
  6
Continuous
 62
     7
100
AcDbCircle
 10
152.5125222850579
 20
121.0050705431308
 30
0.0
 40
149.9999999999999
100
AcDbArc
 50
90.0
 51
95.35540061305274
  0
ARC
  5
12C
330
39
100
AcDbEntity
  8
1
  6
Continuous
 62
     7
100
AcDbCircle
 10
245.5231452948682
 20
256.0043623424767
 30
0.0
 40
113.0106230120293
100
AcDbArc
 50
179.9996409460683
 51
-174.221079400557
  0
ARC
  5
12D
330
39
100
AcDbEntity
  8
1
  6
Continuous
 62
     7
100
AcDbCircle
 10
152.5125222850579
 20
391.0050705431307
 30
0.0
 40
150.0000000000001
100
AcDbArc
 50
-84.68016822956686
 51
-83.57848837667349
  0
ARC
  5
12E
330
39
100
AcDbEntity
  8
1
  6
Continuous
 62
     7
100
AcDbCircle
 10
59.51252228505791
 20
256.0050705431307
 30
0.0
 40
113.0
100
AcDbArc
 50
0.0
 51
5.77985885952346
  0
ARC
  5
12F
330
39
100
AcDbEntity
  8
1
  6
Continuous
 62
     7
100
AcDbCircle
 10
152.5125222850579
 20
121.0050705431308
 30
0.0
 40
149.9999999999998
100
AcDbArc
 50
96.37937020844279
 51
96.42150471922444
  0
ARC
  5
130
330
39
100
AcDbEntity
  8
1
  6
Continuous
 62
     7
100
AcDbCircle
 10
152.512522285058
 20
563.6462389380538
 30
0.0
 40
20.00000000000023
100
AcDbArc
 50
-177.1340160174012
 51
-102.6610808468906
  0
ARC
  5
131
330
39
100
AcDbEntity
  8
1
  6
Continuous
 62
     7
100
AcDbCircle
 10
374.8436204889988
 20
268.0050705431307
 30
0.0
 40
3.0
100
AcDbArc
 50
90.0
 51
138.1117650681166
  0
ARC
  5
132
330
39
100
AcDbEntity
  8
1
  6
Continuous
 62
     7
100
AcDbCircle
 10
359.5125222850579
 20
240.0050705431307
 30
0.0
 40
1.0
100
AcDbArc
 50
0.0
 51
90.0
  0
ARC
  5
133
330
39
100
AcDbEntity
  8
1
  6
Continuous
 62
     7
100
AcDbCircle
 10
359.5125222850579
 20
240.0050705431307
 30
0.0
 40
1.0
100
AcDbArc
 50
0.0
 51
90.0
  0
ARC
  5
134
330
39
100
AcDbEntity
  8
1
  6
Continuous
 62
     7
100
AcDbCircle
 10
387.5125222850579
 20
240.0050705431307
 30
0.0
 40
1.0
100
AcDbArc
 50
90.0
 51
180.0
  0
ARC
  5
135
330
39
100
AcDbEntity
  8
1
  6
Continuous
 62
     7
100
AcDbCircle
 10
387.5125222850579
 20
240.0050705431307
 30
0.0
 40
1.0
100
AcDbArc
 50
90.0
 51
180.0
  0
ARC
  5
136
330
39
100
AcDbEntity
  8
1
  6
Continuous
 62
     7
100
AcDbCircle
 10
375.5125222850579
 20
274.0050705431307
 30
0.0
 40
3.0
100
AcDbArc
 50
-90.0
 51
0.0
  0
ARC
  5
137
330
39
100
AcDbEntity
  8
1
  6
Continuous
 62
     7
100
AcDbCircle
 10
409.5125222850579
 20
274.0050705431307
 30
0.0
 40
3.0
100
AcDbArc
 50
180.0
 51
-90.0
  0
ARC
  5
138
330
39
100
AcDbEntity
  8
1
  6
Continuous
 62
     7
100
AcDbCircle
 10
427.0125222850579
 20
233.0050705431307
 30
0.0
 40
8.0
100
AcDbArc
 50
0.0
 51
90.0
  0
ARC
  5
139
330
39
100
AcDbEntity
  8
1
  6
Continuous
 62
     7
100
AcDbCircle
 10
427.0125222850579
 20
279.0050705431307
 30
0.0
 40
8.0
100
AcDbArc
 50
-90.0
 51
0.0
  0
ARC
  5
13A
330
39
100
AcDbEntity
  8
1
  6
Continuous
 62
     7
100
AcDbCircle
 10
141.512522285058
 20
616.1462389380538
 30
0.0
 40
8.0
100
AcDbArc
 50
90.0
 51
180.0
  0
ARC
  5
13B
330
39
100
AcDbEntity
  8
1
  6
Continuous
 62
     7
100
AcDbCircle
 10
163.512522285058
 20
616.1462389380538
 30
0.0
 40
8.0
100
AcDbArc
 50
0.0
 51
90.0
  0
ARC
  5
13C
330
39
100
AcDbEntity
  8
1
  6
Continuous
 62
     7
100
AcDbCircle
 10
138.5125222850579
 20
240.6554779264562
 30
0.0
 40
1.0
100
AcDbArc
 50
0.0
 51
84.68016822956642
  0
ARC
  5
13D
330
39
100
AcDbEntity
  8
1
  6
Continuous
 62
     7
100
AcDbCircle
 10
166.5125222850579
 20
240.6554779264562
 30
0.0
 40
0.9999999999998961
100
AcDbArc
 50
95.3198317704352
 51
180.0
  0
ARC
  5
13E
330
39
100
AcDbEntity
  8
1
  6
Continuous
 62
     7
100
AcDbCircle
 10
169.5125222850579
 20
273.0576930131165
 30
0.0
 40
3.0
100
AcDbArc
 50
180.0
 51
-96.37937020844214
  0
ARC
  5
13F
330
39
100
AcDbEntity
  8
1
  6
Continuous
 62
     7
100
AcDbCircle
 10
135.5125222850579
 20
273.0576930131165
 30
0.0
 40
3.000000000000153
100
AcDbArc
 50
-83.62062979155625
 51
0.0
  0
ARC
  5
140
330
39
100
AcDbEntity
  8
1
  6
Continuous
 62
     7
100
AcDbCircle
 10
168.95330116094
 20
244.9273487990046
 30
0.0
 40
3.000000000000108
100
AcDbArc
 50
-83.57848837667362
 51
-5.77985885952316
  0
ARC
  5
141
330
39
100
AcDbEntity
  8
1
  6
Continuous
 62
     7
100
AcDbCircle
 10
136.0716160039295
 20
244.927363138287
 30
0.0
 40
2.999999999999972
100
AcDbArc
 50
-174.2210794005574
 51
-96.42156159524052
  0
ARC
  5
142
330
39
100
AcDbEntity
  8
1
  6
Continuous
 62
     7
100
AcDbCircle
 10
168.95330116094
 20
267.0827922872568
 30
0.0
 40
3.000000000000035
100
AcDbArc
 50
5.77985885952316
 51
83.57848837667362
  0
ARC
  5
143
330
39
100
AcDbEntity
  8
1
  6
Continuous
 62
     7
100
AcDbCircle
 10
136.0717610114411
 20
267.0827942683583
 30
0.0
 40
3.000000000000031
100
AcDbArc
 50
96.42150471922479
 51
174.2203293976904
  0
ENDBLK
  5
3B
330
39
100
AcDbEntity
  8
0
100
AcDbBlockEnd
  0
BLOCK
  5
3D
330
3C
100
AcDbEntity
  8
0
100
AcDbBlockBegin
  2
84-34-M21
 70
     0
 71
     0
 10
370.012522285058
 20
368.5749895597398
 30
0.0
  3
84-34-M21
  1

  0
LINE
  5
144
330
3C
100
AcDbEntity
  8
1
  6
Continuous
 62
     7
100
AcDbLine
 10
380.012522285058
 20
320.0876830649443
 30
0.0
 11
380.012522285058
 21
321.5173423952871
 31
0.0
  0
LINE
  5
145
330
3C
100
AcDbEntity
  8
1
  6
Continuous
 62
     7
100
AcDbLine
 10
405.012522285058
 20
321.5173423952871
 30
0.0
 11
405.012522285058
 21
320.0876830649443
 31
0.0
  0
LINE
  5
146
330
3C
100
AcDbEntity
  8
1
  6
Continuous
 62
     7
100
AcDbLine
 10
140.0125222850579
 20
319.8050705431306
 30
0.0
 11
140.0125222850579
 21
321.2347298734734
 31
0.0
  0
LINE
  5
147
330
3C
100
AcDbEntity
  8
1
  6
Continuous
 62
     7
100
AcDbLine
 10
165.0125222850579
 20
321.2347298734734
 30
0.0
 11
165.0125222850579
 21
319.8050705431306
 31
0.0
  0
LINE
  5
148
330
3C
100
AcDbEntity
  8
1
  6
Continuous
 62
     7
100
AcDbLine
 10
142.5125222850579
 20
321.3050705431306
 30
0.0
 11
152.5125222850579
 21
321.3050705431306
 31
0.0
  0
LINE
  5
149
330
3C
100
AcDbEntity
  8
1
  6
Continuous
 62
     7
100
AcDbLine
 10
152.5125222850579
 20
321.3050705431306
 30
0.0
 11
162.5125222850579
 21
321.3050705431306
 31
0.0
  0
LINE
  5
14A
330
3C
100
AcDbEntity
  8
1
  6
Continuous
 62
     7
100
AcDbLine
 10
382.512522285058
 20
321.587683064944
 30
0.0
 11
402.512522285058
 21
321.587683064944
 31
0.0
  0
ARC
  5
14B
330
3C
100
AcDbEntity
  8
1
  6
Continuous
 62
     7
100
AcDbCircle
 10
392.5125222850579
 20
-78.28729739769993
 30
0.0
 40
399.9999999999998
100
AcDbArc
 50
91.43254373756651
 51
91.79078465932894
  0
ARC
  5
14C
330
3C
100
AcDbEntity
  8
1
  6
Continuous
 62
     7
100
AcDbCircle
 10
392.5125222850579
 20
-78.28729739769993
 30
0.0
 40
400.0000000000001
100
AcDbArc
 50
88.20921534067104
 51
88.56745626243347
  0
ARC
  5
14D
330
3C
100
AcDbEntity
  8
1
  6
Continuous
 62
     7
100
AcDbCircle
 10
152.5125222850579
 20
-78.56990991951335
 30
0.0
 40
399.9999999999999
100
AcDbArc
 50
91.43254373756652
 51
91.79078465932896
  0
ARC
  5
14E
330
3C
100
AcDbEntity
  8
1
  6
Continuous
 62
     7
100
AcDbCircle
 10
152.5125222850579
 20
-78.56990991951335
 30
0.0
 40
399.9999999999998
100
AcDbArc
 50
88.20921534067105
 51
88.5674562624335
  0
CIRCLE
  5
14F
330
3C
100
AcDbEntity
  8
1
  6
Continuous
 62
     7
100
AcDbCircle
 10
152.5125222850581
 20
581.6462389380538
 30
0.0
 40
12.5
  0
ENDBLK
  5
3E
330
3C
100
AcDbEntity
  8
0
100
AcDbBlockEnd
  0
BLOCK
  5
40
330
3F
100
AcDbEntity
  8
0
100
AcDbBlockBegin
  2
84-35-I
 70
     0
 71
     0
 10
512.9767527940169
 20
317.7225396434982
 30
0.0
  3
84-35-I
  1

  0
CIRCLE
  5
150
330
3F
100
AcDbEntity
  8
1
  6
Continuous
 62
     7
100
AcDbCircle
 10
152.5125222850581
 20
581.6462389380538
 30
0.0
 40
10.0
  0
ENDBLK
  5
41
330
3F
100
AcDbEntity
  8
0
100
AcDbBlockEnd
  0
BLOCK
  5
43
330
42
100
AcDbEntity
  8
0
100
AcDbBlockBegin
  2
87-18
 70
     0
 71
     0
 10
468.9832357327055
 20
276.2550705431307
 30
0.0
  3
87-18
  1

  0
LINE
  5
151
330
42
100
AcDbEntity
  8
1
  6
PHANTOM
 62
     5
100
AcDbLine
 10
210.524411086357
 20
585.9080572763623
 30
0.0
 11
173.986285239114
 21
586.1252583729108
 31
0.0
  0
LINE
  5
152
330
42
100
AcDbEntity
  8
1
  6
PHANTOM
 62
     5
100
AcDbLine
 10
212.5125222850581
 20
579.3843852635343
 30
0.0
 11
212.5125222850581
 21
583.9080926125735
 31
0.0
  0
LINE
  5
153
330
42
100
AcDbEntity
  8
1
  6
PHANTOM
 62
     5
100
AcDbLine
 10
210.524411086357
 20
577.3844205997455
 30
0.0
 11
173.986285239114
 21
577.167219503197
 31
0.0
  0
LINE
  5
154
330
42
100
AcDbEntity
  8
0
  6
PHANTOM
 62
     4
100
AcDbLine
 10
345.0125222850579
 20
322.0050705431307
 30
0.0
 11
345.0125222850579
 21
293.0050705431306
 31
0.0
  0
LINE
  5
155
330
42
100
AcDbEntity
  8
1
  6
PHANTOM
 62
     4
100
AcDbLine
 10
330.5125222850579
 20
307.5050705431306
 30
0.0
 11
359.5125222850579
 21
307.5050705431307
 31
0.0
  0
LINE
  5
156
330
42
100
AcDbEntity
  8
1
  6
Continuous
 62
     7
100
AcDbLine
 10
377.0125222850529
 20
320.0050705431307
 30
0.0
 11
408.0125222850628
 21
320.0050705431307
 31
0.0
  0
LINE
  5
157
330
42
100
AcDbEntity
  8
1
  6
Continuous
 62
     7
100
AcDbLine
 10
375.0125222850529
 20
276.0050705431307
 30
0.0
 11
410.0125222850628
 21
276.0050705431307
 31
0.0
  0
LINE
  5
158
330
42
100
AcDbEntity
  8
1
  6
Continuous
 62
     7
100
AcDbLine
 10
411.0125222850628
 20
317.0050705431307
 30
0.0
 11
411.0125222850628
 21
277.0050705431307
 31
0.0
  0
LINE
  5
159
330
42
100
AcDbEntity
  8
1
  6
Continuous
 62
     7
100
AcDbLine
 10
374.0125222850529
 20
277.0050705431306
 30
0.0
 11
374.0125222850529
 21
317.0050705431307
 31
0.0
  0
LINE
  5
15A
330
42
100
AcDbEntity
  8
1
  6
Continuous
 62
     7
100
AcDbLine
 10
372.0125222850578
 20
295.0050705431306
 30
0.0
 11
345.0125222850579
 21
295.0050705431307
 31
0.0
  0
LINE
  5
15B
330
42
100
AcDbEntity
  8
1
  6
Continuous
 62
     7
100
AcDbLine
 10
345.0125222850579
 20
320.0050705431307
 30
0.0
 11
377.0125222850529
 21
320.0050705431307
 31
0.0
  0
LINE
  5
15C
330
42
100
AcDbEntity
  8
1
  6
Continuous
 62
     7
100
AcDbLine
 10
156.9915417199151
 20
560.172475983998
 30
0.0
 11
156.7743406233666
 21
523.634350136755
 31
0.0
  0
LINE
  5
15D
330
42
100
AcDbEntity
  8
1
  6
Continuous
 62
     7
100
AcDbLine
 10
150.2506686105386
 20
521.6462389380538
 30
0.0
 11
154.7743759595778
 21
521.6462389380538
 31
0.0
  0
LINE
  5
15E
330
42
100
AcDbEntity
  8
1
  6
Continuous
 62
     7
100
AcDbLine
 10
148.0335028502014
 20
560.172475983998
 30
0.0
 11
148.2507039467498
 21
523.634350136755
 31
0.0
  0
LINE
  5
15F
330
42
100
AcDbEntity
  8
1
  6
Continuous
 62
     7
100
AcDbLine
 10
134.0125222850529
 20
276.8050705431306
 30
0.0
 11
134.0125222850529
 21
316.8050705431306
 31
0.0
  0
LINE
  5
160
330
42
100
AcDbEntity
  8
1
  6
Continuous
 62
     7
100
AcDbLine
 10
171.0125222850628
 20
316.8050705431306
 30
0.0
 11
171.0125222850628
 21
276.8050705431306
 31
0.0
  0
LINE
  5
161
330
42
100
AcDbEntity
  8
1
  6
Continuous
 62
     7
100
AcDbLine
 10
170.0125222850628
 20
275.8050705431306
 30
0.0
 11
135.0125222850529
 21
275.8050705431306
 31
0.0
  0
LINE
  5
162
330
42
100
AcDbEntity
  8
1
  6
Continuous
 62
     7
100
AcDbLine
 10
137.0125222850529
 20
319.8050705431306
 30
0.0
 11
168.0125222850628
 21
319.8050705431306
 31
0.0
  0
LINE
  5
163
330
42
100
AcDbEntity
  8
1
  6
Continuous
 62
     7
100
AcDbLine
 10
150.2507039467494
 20
294.8050705431306
 30
0.0
 11
154.7743406233664
 21
294.8050705431306
 31
0.0
  0
LINE
  5
164
330
42
100
AcDbEntity
  8
1
  6
Continuous
 62
     7
100
AcDbLine
 10
156.7743406233664
 20
296.8050705431306
 30
0.0
 11
156.7743406233664
 21
317.8050705431306
 31
0.0
  0
LINE
  5
165
330
42
100
AcDbEntity
  8
1
  6
Continuous
 62
     7
100
AcDbLine
 10
148.2507039467494
 20
317.8050705431306
 30
0.0
 11
148.2507039467494
 21
296.8050705431306
 31
0.0
  0
ARC
  5
166
330
42
100
AcDbEntity
  8
1
  6
Continuous
 62
     7
100
AcDbCircle
 10
345.0125222850579
 20
307.5050705431307
 30
0.0
 40
12.5
100
AcDbArc
 50
180.0
 51
-90.0
  0
ARC
  5
167
330
42
100
AcDbEntity
  8
1
  6
Continuous
 62
     7
100
AcDbCircle
 10
345.0125222850579
 20
307.5050705431307
 30
0.0
 40
12.5
100
AcDbArc
 50
90.0
 51
180.0
  0
ARC
  5
168
330
42
100
AcDbEntity
  8
1
  6
Continuous
 62
     7
100
AcDbCircle
 10
150.2507039467494
 20
317.8050705431306
 30
0.0
 40
2.0
100
AcDbArc
 50
90.0
 51
180.0
  0
ARC
  5
169
330
42
100
AcDbEntity
  8
1
  6
Continuous
 62
     7
100
AcDbCircle
 10
154.7743406233664
 20
317.8050705431306
 30
0.0
 40
2.0
100
AcDbArc
 50
0.0
 51
90.0
  0
CIRCLE
  5
16A
330
42
100
AcDbEntity
  8
1
  6
Continuous
 62
     7
100
AcDbCircle
 10
345.0125222850579
 20
307.5050705431307
 30
0.0
 40
8.5
  0
CIRCLE
  5
16B
330
42
100
AcDbEntity
  8
1
  6
Continuous
 62
     7
100
AcDbCircle
 10
152.5125222850581
 20
581.6462389380538
 30
0.0
 40
18.5
  0
ARC
  5
16C
330
42
100
AcDbEntity
  8
1
  6
PHANTOM
 62
     5
100
AcDbCircle
 10
210.5125222850581
 20
583.9080926125735
 30
0.0
 40
2.0
100
AcDbArc
 50
0.0
 51
89.65940892518354
  0
ARC
  5
16D
330
42
100
AcDbEntity
  8
1
  6
PHANTOM
 62
     5
100
AcDbCircle
 10
210.5125222850581
 20
579.3843852635343
 30
0.0
 40
2.00000000000013
100
AcDbArc
 50
-89.65940892518354
 51
0.0
  0
ARC
  5
16E
330
42
100
AcDbEntity
  8
1
  6
PHANTOM
 62
     5
100
AcDbCircle
 10
174.0160072423611
 20
591.1251700323826
 30
0.0
 40
4.999999999999901
100
AcDbArc
 50
-156.2116799618879
 51
-90.34059107481518
  0
ARC
  5
16F
330
42
100
AcDbEntity
  8
1
  6
PHANTOM
 62
     5
100
AcDbCircle
 10
174.0160072423611
 20
572.167307843725
 30
0.0
 40
5.000000000000098
100
AcDbArc
 50
90.34059107481517
 51
156.2116799618855
  0
ARC
  5
170
330
42
100
AcDbEntity
  8
1
  6
Continuous
 62
     7
100
AcDbCircle
 10
377.0125222850529
 20
317.0050705431306
 30
0.0
 40
3.000000000000114
100
AcDbArc
 50
90.0
 51
179.9999999999978
  0
ARC
  5
171
330
42
100
AcDbEntity
  8
1
  6
Continuous
 62
     7
100
AcDbCircle
 10
408.0125222850628
 20
317.0050705431307
 30
0.0
 40
3.0
100
AcDbArc
 50
0.0
 51
90.0
  0
ARC
  5
172
330
42
100
AcDbEntity
  8
1
  6
Continuous
 62
     7
100
AcDbCircle
 10
410.0125222850628
 20
277.0050705431307
 30
0.0
 40
1.0
100
AcDbArc
 50
-90.0
 51
0.0
  0
ARC
  5
173
330
42
100
AcDbEntity
  8
1
  6
Continuous
 62
     7
100
AcDbCircle
 10
375.0125222850529
 20
277.0050705431306
 30
0.0
 40
1.0
100
AcDbArc
 50
180.0
 51
-90.0
  0
ARC
  5
174
330
42
100
AcDbEntity
  8
1
  6
Continuous
 62
     7
100
AcDbCircle
 10
372.0125222850578
 20
293.0050705431307
 30
0.0
 40
2.0
100
AcDbArc
 50
0.0
 51
90.0
  0
ARC
  5
175
330
42
100
AcDbEntity
  8
1
  6
Continuous
 62
     7
100
AcDbCircle
 10
161.9914533793871
 20
560.1427539807506
 30
0.0
 40
4.999999999999993
100
AcDbArc
 50
113.7883200381145
 51
179.6594089251819
  0
ARC
  5
176
330
42
100
AcDbEntity
  8
1
  6
Continuous
 62
     7
100
AcDbCircle
 10
143.0335911907295
 20
560.1427539807506
 30
0.0
 40
4.999999999999986
100
AcDbArc
 50
0.3405910748181
 51
66.2116799618891
  0
ARC
  5
177
330
42
100
AcDbEntity
  8
1
  6
Continuous
 62
     7
100
AcDbCircle
 10
154.7743759595778
 20
523.6462389380538
 30
0.0
 40
2.0
100
AcDbArc
 50
-90.0
 51
-0.34059107481484
  0
ARC
  5
178
330
42
100
AcDbEntity
  8
1
  6
Continuous
 62
     7
100
AcDbCircle
 10
150.2506686105386
 20
523.6462389380538
 30
0.0
 40
2.000000000000044
100
AcDbArc
 50
-179.6594089251852
 51
-90.0
  0
ARC
  5
179
330
42
100
AcDbEntity
  8
1
  6
Continuous
 62
     7
100
AcDbCircle
 10
135.0125222850529
 20
276.8050705431306
 30
0.0
 40
1.0
100
AcDbArc
 50
180.0
 51
-90.0
  0
ARC
  5
17A
330
42
100
AcDbEntity
  8
1
  6
Continuous
 62
     7
100
AcDbCircle
 10
170.0125222850628
 20
276.8050705431306
 30
0.0
 40
1.0
100
AcDbArc
 50
-90.0
 51
0.0
  0
ARC
  5
17B
330
42
100
AcDbEntity
  8
1
  6
Continuous
 62
     7
100
AcDbCircle
 10
168.0125222850628
 20
316.8050705431306
 30
0.0
 40
3.0
100
AcDbArc
 50
0.0
 51
90.0
  0
ARC
  5
17C
330
42
100
AcDbEntity
  8
1
  6
Continuous
 62
     7
100
AcDbCircle
 10
137.0125222850529
 20
316.8050705431306
 30
0.0
 40
3.0
100
AcDbArc
 50
90.0
 51
180.0
  0
ARC
  5
17D
330
42
100
AcDbEntity
  8
1
  6
Continuous
 62
     7
100
AcDbCircle
 10
150.2507039467494
 20
296.8050705431306
 30
0.0
 40
2.0
100
AcDbArc
 50
180.0
 51
-90.0
  0
ARC
  5
17E
330
42
100
AcDbEntity
  8
1
  6
Continuous
 62
     7
100
AcDbCircle
 10
154.7743406233664
 20
296.8050705431306
 30
0.0
 40
2.0
100
AcDbArc
 50
-90.0
 51
0.0
  0
ENDBLK
  5
44
330
42
100
AcDbEntity
  8
0
100
AcDbBlockEnd
  0
BLOCK
  5
49
330
45
100
AcDbEntity
  8
0
100
AcDbBlockBegin
  2
R261F
 70
     0
 71
     0
 10
118.9868079993436
 20
153.3341477118853
 30
0.0
  3
R261F
  1

  0
INSERT
  5
46
330
45
100
AcDbEntity
  8
1
100
AcDbBlockReference
  2
84-34-M21
 10
370.012522285058
 20
368.5749895597398
 30
0.0
  0
INSERT
  5
47
330
45
100
AcDbEntity
  8
0
100
AcDbBlockReference
  2
84-35-I
 10
512.9767527940169
 20
317.7225396434982
 30
0.0
  0
INSERT
  5
48
330
45
100
AcDbEntity
  8
0
100
AcDbBlockReference
  2
87-18
 10
468.9832357327055
 20
276.2550705431307
 30
0.0
  0
ENDBLK
  5
4A
330
45
100
AcDbEntity
  8
0
100
AcDbBlockEnd
  0
BLOCK
  5
4C
330
4B
100
AcDbEntity
  8
0
100
AcDbBlockBegin
  2
82-20-M21
 70
     0
 71
     0
 10
95.87965259588754
 20
712.5365425268535
 30
0.0
  3
82-20-M21
  1

  0
LINE
  5
17F
330
4B
100
AcDbEntity
  8
1
  6
Continuous
 62
     7
100
AcDbLine
 10
191.0125222850552
 20
171.0050705431304
 30
0.0
 11
191.012522285055
 21
180.8050705431306
 31
0.0
  0
LINE
  5
180
330
4B
100
AcDbEntity
  8
1
  6
Continuous
 62
     7
100
AcDbLine
 10
191.8052997501689
 20
168.2303494152331
 30
0.0
 11
191.0125222850552
 21
171.0050705431304
 31
0.0
  0
LINE
  5
181
330
4B
100
AcDbEntity
  8
1
  6
Continuous
 62
     7
100
AcDbLine
 10
215.2197448199416
 20
168.2303494152334
 30
0.0
 11
216.0125222850552
 21
171.0050705431306
 31
0.0
  0
LINE
  5
182
330
4B
100
AcDbEntity
  8
1
  6
Continuous
 62
     7
100
AcDbLine
 10
216.0125222850552
 20
171.0050705431306
 30
0.0
 11
216.0125222850552
 21
180.8050705431309
 31
0.0
  0
LINE
  5
183
330
4B
100
AcDbEntity
  8
1
  6
Continuous
 62
     7
100
AcDbLine
 10
192.7668236978096
 20
167.5050705431303
 30
0.0
 11
203.5125222850579
 21
167.5050705431306
 31
0.0
  0
LINE
  5
184
330
4B
100
AcDbEntity
  8
1
  6
Continuous
 62
     7
100
AcDbLine
 10
191.2125222850553
 20
181.0050705431304
 30
0.0
 11
215.8125222850552
 21
181.0050705431307
 31
0.0
  0
LINE
  5
185
330
4B
100
AcDbEntity
  8
1
  6
Continuous
 62
     7
100
AcDbLine
 10
203.5125222850579
 20
167.5050705431306
 30
0.0
 11
214.2582208723009
 21
167.5050705431308
 31
0.0
  0
LINE
  5
186
330
4B
100
AcDbEntity
  8
1
  6
Continuous
 62
     7
100
AcDbLine
 10
191.0125222850552
 20
171.0050705431304
 30
0.0
 11
216.0125222850552
 21
171.0050705431306
 31
0.0
  0
LINE
  5
187
330
4B
100
AcDbEntity
  8
1
  6
Continuous
 62
     7
100
AcDbLine
 10
140.0125222850552
 20
171.0050705431304
 30
0.0
 11
140.012522285055
 21
180.8050705431306
 31
0.0
  0
LINE
  5
188
330
4B
100
AcDbEntity
  8
1
  6
Continuous
 62
     7
100
AcDbLine
 10
140.8052997501689
 20
168.2303494152331
 30
0.0
 11
140.0125222850552
 21
171.0050705431304
 31
0.0
  0
LINE
  5
189
330
4B
100
AcDbEntity
  8
1
  6
Continuous
 62
     7
100
AcDbLine
 10
164.2197448199416
 20
168.2303494152334
 30
0.0
 11
165.0125222850552
 21
171.0050705431306
 31
0.0
  0
LINE
  5
18A
330
4B
100
AcDbEntity
  8
1
  6
Continuous
 62
     7
100
AcDbLine
 10
165.0125222850552
 20
171.0050705431306
 30
0.0
 11
165.0125222850552
 21
180.8050705431309
 31
0.0
  0
LINE
  5
18B
330
4B
100
AcDbEntity
  8
1
  6
Continuous
 62
     7
100
AcDbLine
 10
141.7668236978096
 20
167.5050705431303
 30
0.0
 11
152.5125222850579
 21
167.5050705431306
 31
0.0
  0
LINE
  5
18C
330
4B
100
AcDbEntity
  8
1
  6
Continuous
 62
     7
100
AcDbLine
 10
140.2125222850553
 20
181.0050705431304
 30
0.0
 11
164.8125222850552
 21
181.0050705431307
 31
0.0
  0
LINE
  5
18D
330
4B
100
AcDbEntity
  8
1
  6
Continuous
 62
     7
100
AcDbLine
 10
152.5125222850579
 20
167.5050705431306
 30
0.0
 11
163.2582208723009
 21
167.5050705431308
 31
0.0
  0
LINE
  5
18E
330
4B
100
AcDbEntity
  8
1
  6
Continuous
 62
     7
100
AcDbLine
 10
140.0125222850552
 20
171.0050705431304
 30
0.0
 11
165.0125222850552
 21
171.0050705431306
 31
0.0
  0
ARC
  5
18F
330
4B
100
AcDbEntity
  8
1
  6
Continuous
 62
     7
100
AcDbCircle
 10
215.8125222850552
 20
180.8050705431307
 30
0.0
 40
0.2000000000000171
100
AcDbArc
 50
0.000000000057
 51
90.0
  0
ARC
  5
190
330
4B
100
AcDbEntity
  8
1
  6
Continuous
 62
     7
100
AcDbCircle
 10
191.2125222850552
 20
180.8050705431303
 30
0.0
 40
0.2000000000000739
100
AcDbArc
 50
89.99999999997557
 51
179.9999999999186
  0
ARC
  5
191
330
4B
100
AcDbEntity
  8
1
  6
Continuous
 62
     7
100
AcDbCircle
 10
214.2582208723009
 20
168.5050705431307
 30
0.0
 40
0.9999999999998863
100
AcDbArc
 50
-90.0
 51
-15.94539590092017
  0
ARC
  5
192
330
4B
100
AcDbEntity
  8
1
  6
Continuous
 62
     7
100
AcDbCircle
 10
192.7668236978096
 20
168.5050705431304
 30
0.0
 40
0.9999999999998583
100
AcDbArc
 50
-164.0546040990798
 51
-90.0
  0
ARC
  5
193
330
4B
100
AcDbEntity
  8
1
  6
Continuous
 62
     7
100
AcDbCircle
 10
164.8125222850552
 20
180.8050705431307
 30
0.0
 40
0.2000000000000171
100
AcDbArc
 50
0.000000000057
 51
90.0
  0
ARC
  5
194
330
4B
100
AcDbEntity
  8
1
  6
Continuous
 62
     7
100
AcDbCircle
 10
140.2125222850552
 20
180.8050705431303
 30
0.0
 40
0.2000000000000739
100
AcDbArc
 50
89.99999999997557
 51
179.9999999999186
  0
ARC
  5
195
330
4B
100
AcDbEntity
  8
1
  6
Continuous
 62
     7
100
AcDbCircle
 10
163.2582208723009
 20
168.5050705431307
 30
0.0
 40
0.9999999999998863
100
AcDbArc
 50
-90.0
 51
-15.94539590092017
  0
ARC
  5
196
330
4B
100
AcDbEntity
  8
1
  6
Continuous
 62
     7
100
AcDbCircle
 10
141.7668236978096
 20
168.5050705431304
 30
0.0
 40
0.9999999999998583
100
AcDbArc
 50
-164.0546040990798
 51
-90.0
  0
ENDBLK
  5
4D
330
4B
100
AcDbEntity
  8
0
100
AcDbBlockEnd
  0
BLOCK
  5
4F
330
4E
100
AcDbEntity
  8
0
100
AcDbBlockBegin
  2
84-26B
 70
     0
 71
     0
 10
-73.35141004990129
 20
-21.80096677633244
 30
0.0
  3
84-26B
  1

  0
LINE
  5
197
330
4E
100
AcDbEntity
  8
1
  6
Continuous
 62
     7
100
AcDbLine
 10
164.7625222850579
 20
181.5050705431308
 30
0.0
 11
164.7625222850579
 21
189.3653951167724
 31
0.0
  0
LINE
  5
198
330
4E
100
AcDbEntity
  8
1
  6
Continuous
 62
     7
100
AcDbLine
 10
140.2625222850579
 20
181.5050705431308
 30
0.0
 11
164.7625222850579
 21
181.5050705431308
 31
0.0
  0
LINE
  5
199
330
4E
100
AcDbEntity
  8
1
  6
Continuous
 62
     7
100
AcDbLine
 10
165.012522285058
 20
419.3962389380537
 30
0.0
 11
140.012522285058
 21
419.3962389380537
 31
0.0
  0
LINE
  5
19A
330
4E
100
AcDbEntity
  8
1
  6
Continuous
 62
     7
100
AcDbLine
 10
140.512522285058
 20
422.3962389380537
 30
0.0
 11
164.512522285058
 21
422.3962389380537
 31
0.0
  0
LINE
  5
19B
330
4E
100
AcDbEntity
  8
1
  6
Continuous
 62
     7
100
AcDbLine
 10
165.012522285058
 20
379.5426678666967
 30
0.0
 11
165.012522285058
 21
419.3962389380537
 31
0.0
  0
LINE
  5
19C
330
4E
100
AcDbEntity
  8
1
  6
Continuous
 62
     7
100
AcDbLine
 10
165.012522285058
 20
419.3962389380537
 30
0.0
 11
164.512522285058
 21
422.3962389380537
 31
0.0
  0
LINE
  5
19D
330
4E
100
AcDbEntity
  8
1
  6
Continuous
 62
     7
100
AcDbLine
 10
140.012522285058
 20
379.5426678666967
 30
0.0
 11
140.012522285058
 21
419.3962389380537
 31
0.0
  0
LINE
  5
19E
330
4E
100
AcDbEntity
  8
1
  6
Continuous
 62
     7
100
AcDbLine
 10
140.012522285058
 20
419.3962389380537
 30
0.0
 11
140.512522285058
 21
422.3962389380537
 31
0.0
  0
LINE
  5
19F
330
4E
100
AcDbEntity
  8
1
  6
Continuous
 62
     7
100
AcDbLine
 10
194.6654908370774
 20
207.0050705431308
 30
0.0
 11
228.5125222850579
 21
207.0050705431308
 31
0.0
  0
LINE
  5
1A0
330
4E
100
AcDbEntity
  8
1
  6
Continuous
 62
     7
100
AcDbLine
 10
231.5125222850579
 20
206.5050705431308
 30
0.0
 11
228.5125222850579
 21
207.0050705431308
 31
0.0
  0
LINE
  5
1A1
330
4E
100
AcDbEntity
  8
1
  6
Continuous
 62
     7
100
AcDbLine
 10
231.5125222850579
 20
183.5050705431308
 30
0.0
 11
228.5125222850579
 21
183.0050705431308
 31
0.0
  0
LINE
  5
1A2
330
4E
100
AcDbEntity
  8
1
  6
Continuous
 62
     7
100
AcDbLine
 10
192.5125222850579
 20
181.5050705431308
 30
0.0
 11
192.5125222850578
 21
181.0050705431304
 31
0.0
  0
LINE
  5
1A3
330
4E
100
AcDbEntity
  8
1
  6
Continuous
 62
     7
100
AcDbLine
 10
216.0125222850579
 20
182.0050705431307
 30
0.0
 11
216.0125222850579
 21
181.5050705431308
 31
0.0
  0
LINE
  5
1A4
330
4E
100
AcDbEntity
  8
1
  6
Continuous
 62
     7
100
AcDbLine
 10
228.5125222850579
 20
183.0050705431308
 30
0.0
 11
217.0125222850579
 21
183.0050705431308
 31
0.0
  0
LINE
  5
1A5
330
4E
100
AcDbEntity
  8
1
  6
Continuous
 62
     7
100
AcDbLine
 10
216.0125222850579
 20
181.5050705431308
 30
0.0
 11
191.0125222850579
 21
181.5050705431308
 31
0.0
  0
LINE
  5
1A6
330
4E
100
AcDbEntity
  8
1
  6
Continuous
 62
     7
100
AcDbLine
 10
191.0125222850579
 20
182.0050705431307
 30
0.0
 11
191.0125222850579
 21
181.5050705431308
 31
0.0
  0
LINE
  5
1A7
330
4E
100
AcDbEntity
  8
1
  6
Continuous
 62
     7
100
AcDbLine
 10
214.5125222850579
 20
181.5050705431308
 30
0.0
 11
214.5125222850579
 21
181.0050705431304
 31
0.0
  0
LINE
  5
1A8
330
4E
100
AcDbEntity
  8
1
  6
Continuous
 62
     7
100
AcDbLine
 10
181.976496001202
 20
189.541995694722
 30
0.0
 11
192.1294645532215
 21
205.6077466450279
 31
0.0
  0
LINE
  5
1A9
330
4E
100
AcDbEntity
  8
1
  6
Continuous
 62
     7
100
AcDbLine
 10
181.5125222850579
 20
187.9393195928251
 30
0.0
 11
181.5125222850579
 21
187.5050705431308
 31
0.0
  0
LINE
  5
1AA
330
4E
100
AcDbEntity
  8
1
  6
Continuous
 62
     7
100
AcDbLine
 10
231.5125222850579
 20
206.5050705431308
 30
0.0
 11
231.5125222850579
 21
183.5050705431308
 31
0.0
  0
LINE
  5
1AB
330
4E
100
AcDbEntity
  8
1
  6
DASH_CENTER
 62
     2
100
AcDbLine
 10
166.6494633877075
 20
195.0050705431308
 30
0.0
 11
138.3532523941701
 21
195.0050705431308
 31
0.0
  0
LINE
  5
1AC
330
4E
100
AcDbEntity
  8
1
  6
Continuous
 62
     7
100
AcDbLine
 10
140.2625222850579
 20
189.3653951167724
 30
0.0
 11
140.2625222850579
 21
181.5050705431308
 31
0.0
  0
LINE
  5
1AD
330
4E
100
AcDbEntity
  8
1
  6
Continuous
 62
     7
100
AcDbLine
 10
164.7296942136653
 20
189.937411752591
 30
0.0
 11
163.9370177208552
 21
196.8207088055141
 31
0.0
  0
LINE
  5
1AE
330
4E
100
AcDbEntity
  8
1
  6
Continuous
 62
     7
100
AcDbLine
 10
141.0880268492604
 20
196.8207088055141
 30
0.0
 11
140.2953503564504
 21
189.937411752591
 31
0.0
  0
LINE
  5
1AF
330
4E
100
AcDbEntity
  8
1
  6
Continuous
 62
     7
100
AcDbLine
 10
228.5125222850579
 20
207.0050705431308
 30
0.0
 11
228.5125222850579
 21
183.0050705431308
 31
0.0
  0
LINE
  5
1B0
330
4E
100
AcDbEntity
  8
1
  6
Continuous
 62
     7
100
AcDbLine
 10
186.0125222850579
 20
183.0050705431308
 30
0.0
 11
190.0125222850579
 21
183.0050705431308
 31
0.0
  0
LINE
  5
1B1
330
4E
100
AcDbEntity
  8
1
  6
Continuous
 62
     2
100
AcDbLine
 10
142.187522285058
 20
181.0050705431299
 30
0.0
 11
142.187522285058
 21
181.5050705431308
 31
0.0
  0
LINE
  5
1B2
330
4E
100
AcDbEntity
  8
1
  6
Continuous
 62
     7
100
AcDbLine
 10
141.5105222850581
 20
181.5050705431308
 30
0.0
 11
141.510522285058
 21
181.4225387884003
 31
0.0
  0
LINE
  5
1B3
330
4E
100
AcDbEntity
  8
1
  6
Continuous
 62
     7
100
AcDbLine
 10
141.510522285058
 20
181.4225387884003
 30
0.0
 11
141.5105222850581
 21
181.0050705431299
 31
0.0
  0
LINE
  5
1B4
330
4E
100
AcDbEntity
  8
1
  6
Continuous
 62
     2
100
AcDbLine
 10
162.8375222850579
 20
181.5050705431308
 30
0.0
 11
162.8375222850579
 21
181.0050705431299
 31
0.0
  0
LINE
  5
1B5
330
4E
100
AcDbEntity
  8
1
  6
Continuous
 62
     7
100
AcDbLine
 10
163.514522285058
 20
181.4225387884003
 30
0.0
 11
163.5145222850579
 21
181.5050705431308
 31
0.0
  0
LINE
  5
1B6
330
4E
100
AcDbEntity
  8
1
  6
Continuous
 62
     7
100
AcDbLine
 10
163.5145222850579
 20
181.0050705431299
 30
0.0
 11
163.514522285058
 21
181.4225387884003
 31
0.0
  0
LINE
  5
1B7
330
4E
100
AcDbEntity
  8
1
  6
Continuous
 62
     2
100
AcDbLine
 10
193.1895222850579
 20
181.0050705431307
 30
0.0
 11
193.1895222850579
 21
181.5050705431311
 31
0.0
  0
LINE
  5
1B8
330
4E
100
AcDbEntity
  8
1
  6
Continuous
 62
     2
100
AcDbLine
 10
213.8355222850579
 20
181.0050705431307
 30
0.0
 11
213.8355222850579
 21
181.5050705431311
 31
0.0
  0
ARC
  5
1B9
330
4E
100
AcDbEntity
  8
1
  6
Continuous
 62
     7
100
AcDbCircle
 10
152.512522285058
 20
397.3962389380537
 30
0.0
 40
24.99999999999983
100
AcDbArc
 50
-110.0051900881597
 51
-69.99480991184031
  0
ARC
  5
1BA
330
4E
100
AcDbEntity
  8
1
  6
Continuous
 62
     7
100
AcDbCircle
 10
186.0125222850579
 20
187.5050705431308
 30
0.0
 40
4.5
100
AcDbArc
 50
180.0
 51
-90.0
  0
ARC
  5
1BB
330
4E
100
AcDbEntity
  8
1
  6
Continuous
 62
     7
100
AcDbCircle
 10
152.5125222850579
 20
208.0050705431308
 30
0.0
 40
24.99999999999987
100
AcDbArc
 50
-111.2538091853598
 51
-68.7461908146402
  0
ARC
  5
1BC
330
4E
100
AcDbEntity
  8
1
  6
Continuous
 62
     7
100
AcDbCircle
 10
159.7625222850579
 20
189.3653951167724
 30
0.0
 40
5.000000000000116
100
AcDbArc
 50
-68.74619081464084
 51
6.56921108019062
  0
ARC
  5
1BD
330
4E
100
AcDbEntity
  8
1
  6
Continuous
 62
     7
100
AcDbCircle
 10
152.5125222850579
 20
195.5050705431308
 30
0.0
 40
11.50000000000001
100
AcDbArc
 50
6.56921108019282
 51
90.0
  0
ARC
  5
1BE
330
4E
100
AcDbEntity
  8
1
  6
Continuous
 62
     7
100
AcDbCircle
 10
145.2625222850579
 20
189.3653951167724
 30
0.0
 40
4.999999999999973
100
AcDbArc
 50
173.4307889198095
 51
-111.2538091853592
  0
ARC
  5
1BF
330
4E
100
AcDbEntity
  8
1
  6
Continuous
 62
     7
100
AcDbCircle
 10
152.5125222850579
 20
195.5050705431308
 30
0.0
 40
11.5
100
AcDbArc
 50
90.0
 51
173.4307889198073
  0
ARC
  5
1C0
330
4E
100
AcDbEntity
  8
1
  6
Continuous
 62
     7
100
AcDbCircle
 10
152.512522285058
 20
359.1014554922663
 30
0.0
 40
24.99999999999983
100
AcDbArc
 50
69.99480991184031
 51
110.0051900881597
  0
ARC
  5
1C1
330
4E
100
AcDbEntity
  8
1
  6
Continuous
 62
     7
100
AcDbCircle
 10
190.0125222850579
 20
182.0050705431308
 30
0.0
 40
1.0
100
AcDbArc
 50
-0.00000000000651
 51
90.0
  0
ARC
  5
1C2
330
4E
100
AcDbEntity
  8
1
  6
Continuous
 62
     7
100
AcDbCircle
 10
217.0125222850579
 20
182.0050705431308
 30
0.0
 40
1.0
100
AcDbArc
 50
90.0
 51
-179.9999999999935
  0
ARC
  5
1C3
330
4E
100
AcDbEntity
  8
1
  6
Continuous
 62
     7
100
AcDbCircle
 10
184.5125222850579
 20
187.9393195928251
 30
0.0
 40
2.999999999999914
100
AcDbArc
 50
147.7086070282286
 51
180.0
  0
ARC
  5
1C4
330
4E
100
AcDbEntity
  8
1
  6
Continuous
 62
     7
100
AcDbCircle
 10
194.6654908370774
 20
204.0050705431308
 30
0.0
 40
3.0
100
AcDbArc
 50
90.0
 51
147.7086070282258
  0
ARC
  5
1C5
330
4E
100
AcDbEntity
  8
1
  6
Continuous
 62
     7
100
AcDbCircle
 10
146.012522285058
 20
379.5426678666967
 30
0.0
 40
6.0
100
AcDbArc
 50
180.0
 51
-110.00519008816
  0
ARC
  5
1C6
330
4E
100
AcDbEntity
  8
1
  6
Continuous
 62
     7
100
AcDbCircle
 10
159.012522285058
 20
379.5426678666967
 30
0.0
 40
5.999999999999942
100
AcDbArc
 50
-69.99480991184002
 51
0.0
  0
ARC
  5
1C7
330
4E
100
AcDbEntity
  8
1
  6
Continuous
 62
     7
100
AcDbCircle
 10
159.012522285058
 20
376.9550265636233
 30
0.0
 40
6.000000000000052
100
AcDbArc
 50
12.4528881806984
 51
69.99480991184021
  0
ARC
  5
1C8
330
4E
100
AcDbEntity
  8
1
  6
Continuous
 62
     7
100
AcDbCircle
 10
146.012522285058
 20
376.9550265636233
 30
0.0
 40
5.999999999999996
100
AcDbArc
 50
110.0051900881598
 51
167.5471118193016
  0
ENDBLK
  5
50
330
4E
100
AcDbEntity
  8
0
100
AcDbBlockEnd
  0
BLOCK
  5
54
330
51
100
AcDbEntity
  8
0
100
AcDbBlockBegin
  2
M50
 70
     0
 71
     0
 10
61.54951939564992
 20
699.0619244411887
 30
0.0
  3
M50
  1

  0
INSERT
  5
52
330
51
100
AcDbEntity
  8
0
100
AcDbBlockReference
  2
82-20-M21
 10
95.87965259588754
 20
712.5365425268535
 30
0.0
  0
INSERT
  5
53
330
51
100
AcDbEntity
  8
0
100
AcDbBlockReference
  2
84-26B
 10
-73.35141004990129
 20
-21.80096677633244
 30
0.0
  0
ENDBLK
  5
55
330
51
100
AcDbEntity
  8
0
100
AcDbBlockEnd
  0
BLOCK
  5
57
330
56
100
AcDbEntity
  8
0
100
AcDbBlockBegin
  2
32-1-16
 70
     0
 71
     0
 10
343.5021708539725
 20
239.0825406945093
 30
0.0
  3
32-1-16
  1

  0
LINE
  5
1C9
330
56
100
AcDbEntity
  8
1
  6
Continuous
 62
     7
100
AcDbLine
 10
141.0125222850579
 20
228.5050705431307
 30
0.0
 11
140.9545012233273
 21
228.5050705431307
 31
0.0
  0
LINE
  5
1CA
330
56
100
AcDbEntity
  8
1
  6
Continuous
 62
     7
100
AcDbLine
 10
164.0705433467885
 20
228.5050705431307
 30
0.0
 11
164.0125222850579
 21
228.5050705431307
 31
0.0
  0
LINE
  5
1CB
330
56
100
AcDbEntity
  8
1
  6
Continuous
 62
     7
100
AcDbLine
 10
138.5125222850579
 20
236.9333217219606
 30
0.0
 11
138.5125222850579
 21
229.7918932934177
 31
0.0
  0
LINE
  5
1CC
330
56
100
AcDbEntity
  8
1
  6
Continuous
 62
     7
100
AcDbLine
 10
166.5125222850579
 20
236.9333217219606
 30
0.0
 11
166.5125222850579
 21
229.7918932934177
 31
0.0
  0
LINE
  5
1CD
330
56
100
AcDbEntity
  8
1
  6
Continuous
 62
     7
100
AcDbLine
 10
139.2125222850579
 20
237.5050705431307
 30
0.0
 11
165.8125222850579
 21
237.5050705431307
 31
0.0
  0
LINE
  5
1CE
330
56
100
AcDbEntity
  8
1
  6
Continuous
 62
     7
100
AcDbLine
 10
162.280471477489
 20
227.5050705431307
 30
0.0
 11
142.7445730926268
 21
227.5050705431307
 31
0.0
  0
LINE
  5
1CF
330
56
100
AcDbEntity
  8
1
  6
Continuous
 62
     7
100
AcDbLine
 10
162.4028758184169
 20
228.5050705431307
 30
0.0
 11
142.6904128089119
 21
228.5050705431307
 31
0.0
  0
LINE
  5
1D0
330
56
100
AcDbEntity
  8
1
  6
Continuous
 62
     7
100
AcDbLine
 10
381.712522285058
 20
227.5050705431307
 30
0.0
 11
383.2804714774891
 21
227.5050705431307
 31
0.0
  0
LINE
  5
1D1
330
56
100
AcDbEntity
  8
1
  6
Continuous
 62
     7
100
AcDbLine
 10
386.812522285058
 20
237.5050705431307
 30
0.0
 11
373.5125222850579
 21
237.5050705431307
 31
0.0
  0
LINE
  5
1D2
330
56
100
AcDbEntity
  8
1
  6
Continuous
 62
     7
100
AcDbLine
 10
386.6995222850579
 20
237.5050705431307
 30
0.0
 11
386.812522285058
 21
237.5050705431307
 31
0.0
  0
LINE
  5
1D3
330
56
100
AcDbEntity
  8
1
  6
Continuous
 62
     7
100
AcDbLine
 10
385.0705433467885
 20
228.5050705431307
 30
0.0
 11
385.0125222850579
 21
228.5050705431307
 31
0.0
  0
LINE
  5
1D4
330
56
100
AcDbEntity
  8
1
  6
Continuous
 62
     7
100
AcDbLine
 10
373.5125222850579
 20
227.5050705431307
 30
0.0
 11
381.712522285058
 21
227.5050705431307
 31
0.0
  0
LINE
  5
1D5
330
56
100
AcDbEntity
  8
1
  6
Continuous
 62
     7
100
AcDbLine
 10
382.3108442641276
 20
228.5050705431307
 30
0.0
 11
373.5125222850579
 21
228.5050705431307
 31
0.0
  0
LINE
  5
1D6
330
56
100
AcDbEntity
  8
1
  6
Continuous
 62
     7
100
AcDbLine
 10
363.7445730926268
 20
227.5050705431307
 30
0.0
 11
365.3125222850579
 21
227.5050705431307
 31
0.0
  0
LINE
  5
1D7
330
56
100
AcDbEntity
  8
1
  6
Continuous
 62
     7
100
AcDbLine
 10
373.5125222850579
 20
237.5050705431307
 30
0.0
 11
360.2125222850579
 21
237.5050705431307
 31
0.0
  0
LINE
  5
1D8
330
56
100
AcDbEntity
  8
1
  6
Continuous
 62
     7
100
AcDbLine
 10
360.2125222850579
 20
237.5050705431307
 30
0.0
 11
360.3255222850579
 21
237.5050705431307
 31
0.0
  0
LINE
  5
1D9
330
56
100
AcDbEntity
  8
1
  6
Continuous
 62
     7
100
AcDbLine
 10
362.0125222850579
 20
228.5050705431307
 30
0.0
 11
361.9545012233273
 21
228.5050705431307
 31
0.0
  0
LINE
  5
1DA
330
56
100
AcDbEntity
  8
1
  6
Continuous
 62
     7
100
AcDbLine
 10
365.3125222850579
 20
227.5050705431307
 30
0.0
 11
373.5125222850579
 21
227.5050705431307
 31
0.0
  0
LINE
  5
1DB
330
56
100
AcDbEntity
  8
1
  6
Continuous
 62
     7
100
AcDbLine
 10
373.5125222850579
 20
228.5050705431307
 30
0.0
 11
364.7142003059883
 21
228.5050705431307
 31
0.0
  0
ARC
  5
1DC
330
56
100
AcDbEntity
  8
1
  6
Continuous
 62
     7
100
AcDbCircle
 10
142.0125222850579
 20
233.3626075076892
 30
0.0
 40
5.000000000000057
100
AcDbArc
 50
-134.4270040008051
 51
-105.3375576695554
  0
ARC
  5
1DD
330
56
100
AcDbEntity
  8
1
  6
Continuous
 62
     7
100
AcDbCircle
 10
163.0125222850579
 20
233.3626075076892
 30
0.0
 40
4.999999999999975
100
AcDbArc
 50
45.57299599919402
 51
55.94420225743161
  0
ARC
  5
1DE
330
56
100
AcDbEntity
  8
1
  6
Continuous
 62
     7
100
AcDbCircle
 10
142.0125222850579
 20
233.3626075076892
 30
0.0
 40
4.999999999999922
100
AcDbArc
 50
124.0557977425687
 51
134.427004000806
  0
ARC
  5
1DF
330
56
100
AcDbEntity
  8
1
  6
Continuous
 62
     7
100
AcDbCircle
 10
163.0125222850579
 20
233.3626075076892
 30
0.0
 40
5.000000000000007
100
AcDbArc
 50
-74.66244233044495
 51
-45.57299599919494
  0
ARC
  5
1E0
330
56
100
AcDbEntity
  8
1
  6
Continuous
 62
     7
100
AcDbCircle
 10
384.0125222850579
 20
233.3626075076892
 30
0.0
 40
5.000000000000014
100
AcDbArc
 50
-74.66244233044463
 51
55.9442022574308
  0
ARC
  5
1E1
330
56
100
AcDbEntity
  8
1
  6
Continuous
 62
     7
100
AcDbCircle
 10
378.2793508649041
 20
233.3624382653621
 30
0.0
 40
1.885238775575574
100
AcDbArc
 50
0.00514357714082
 51
3.83791798967422
  0
ARC
  5
1E2
330
56
100
AcDbEntity
  8
1
  6
Continuous
 62
     7
100
AcDbCircle
 10
378.2055338847242
 20
233.3574862776528
 30
0.0
 40
1.959221670525278
100
AcDbArc
 50
3.83791798967318
 51
9.37260108640063
  0
ARC
  5
1E3
330
56
100
AcDbEntity
  8
1
  6
Continuous
 62
     7
100
AcDbCircle
 10
378.1213004473107
 20
233.3435829037248
 30
0.0
 40
2.044594826640531
100
AcDbArc
 50
9.37260108640167
 51
14.67807157129274
  0
ARC
  5
1E4
330
56
100
AcDbEntity
  8
1
  6
Continuous
 62
     7
100
AcDbCircle
 10
378.0785943395048
 20
233.3323966338627
 30
0.0
 40
2.088741675648847
100
AcDbArc
 50
14.67807157129002
 51
19.98794307346123
  0
ARC
  5
1E5
330
56
100
AcDbEntity
  8
1
  6
Continuous
 62
     7
100
AcDbCircle
 10
377.944301563592
 20
233.2835500616205
 30
0.0
 40
2.231642121002238
100
AcDbArc
 50
19.98794307346028
 51
23.44839996530303
  0
ARC
  5
1E6
330
56
100
AcDbEntity
  8
1
  6
Continuous
 62
     7
100
AcDbCircle
 10
377.8463649258612
 20
233.2410708347579
 30
0.0
 40
2.338394496736111
100
AcDbArc
 50
23.44839996530403
 51
26.75137744777208
  0
ARC
  5
1E7
330
56
100
AcDbEntity
  8
1
  6
Continuous
 62
     7
100
AcDbCircle
 10
377.6859054526408
 20
233.1601877643776
 30
0.0
 40
2.518086771529198
100
AcDbArc
 50
26.75137744777307
 51
29.81983142576775
  0
ARC
  5
1E8
330
56
100
AcDbEntity
  8
1
  6
Continuous
 62
     7
100
AcDbCircle
 10
377.5839038019824
 20
233.1017239739588
 30
0.0
 40
2.635655268700651
100
AcDbArc
 50
29.81983142576562
 51
32.75164132976421
  0
ARC
  5
1E9
330
56
100
AcDbEntity
  8
1
  6
Continuous
 62
     7
100
AcDbCircle
 10
377.4163673167116
 20
232.9939541003641
 30
0.0
 40
2.834860739387358
100
AcDbArc
 50
32.751641329765
 51
35.62806700317107
  0
ARC
  5
1EA
330
56
100
AcDbEntity
  8
1
  6
Continuous
 62
     7
100
AcDbCircle
 10
377.3074603762116
 20
232.9159036668397
 30
0.0
 40
2.968848021852752
100
AcDbArc
 50
35.62806700317077
 51
38.51810528405009
  0
ARC
  5
1EB
330
56
100
AcDbEntity
  8
1
  6
Continuous
 62
     7
100
AcDbCircle
 10
377.1040030861324
 20
232.7539614339173
 30
0.0
 40
3.228886779906631
100
AcDbArc
 50
38.51810528405228
 51
41.17514053462102
  0
ARC
  5
1EC
330
56
100
AcDbEntity
  8
1
  6
Continuous
 62
     7
100
AcDbCircle
 10
376.970713898283
 20
232.6373776844325
 30
0.0
 40
3.405968055713922
100
AcDbArc
 50
41.17514053461924
 51
43.69457626015039
  0
ARC
  5
1ED
330
56
100
AcDbEntity
  8
1
  6
Continuous
 62
     7
100
AcDbCircle
 10
376.7306290968706
 20
232.4079911423149
 30
0.0
 40
3.738020608141785
100
AcDbArc
 50
43.69457626015043
 51
45.99039746615338
  0
ARC
  5
1EE
330
56
100
AcDbEntity
  8
1
  6
Continuous
 62
     7
100
AcDbCircle
 10
376.5827599678665
 20
232.2549195246733
 30
0.0
 40
3.950849646197789
100
AcDbArc
 50
45.99039746615246
 51
48.2935523431396
  0
ARC
  5
1EF
330
56
100
AcDbEntity
  8
1
  6
Continuous
 62
     7
100
AcDbCircle
 10
376.3647530494148
 20
232.0102893541229
 30
0.0
 40
4.278524693823258
100
AcDbArc
 50
48.29355234314004
 51
50.54097616601004
  0
ARC
  5
1F0
330
56
100
AcDbEntity
  8
1
  6
Continuous
 62
     7
100
AcDbCircle
 10
376.2441868441977
 20
231.8638175520777
 30
0.0
 40
4.468235522809793
100
AcDbArc
 50
50.54097616601018
 51
52.6928023287288
  0
ARC
  5
1F1
330
56
100
AcDbEntity
  8
1
  6
Continuous
 62
     7
100
AcDbCircle
 10
375.991506422588
 20
231.5322135119288
 30
0.0
 40
4.885139150652027
100
AcDbArc
 50
52.69280232872781
 51
54.66121156762851
  0
ARC
  5
1F2
330
56
100
AcDbEntity
  8
1
  6
Continuous
 62
     7
100
AcDbCircle
 10
375.854283764314
 20
231.3386849401588
 30
0.0
 40
5.122380306514819
100
AcDbArc
 50
54.66121156762943
 51
56.53856255234531
  0
ARC
  5
1F3
330
56
100
AcDbEntity
  8
1
  6
Continuous
 62
     7
100
AcDbCircle
 10
375.5657107223964
 20
230.9020604251419
 30
0.0
 40
5.645749552492602
100
AcDbArc
 50
56.53856255234526
 51
58.33550607212276
  0
ARC
  5
1F4
330
56
100
AcDbEntity
  8
1
  6
Continuous
 62
     7
100
AcDbCircle
 10
375.4821391003892
 20
230.7665586892035
 30
0.0
 40
5.804950483542799
100
AcDbArc
 50
58.33550607212251
 51
60.17408304738423
  0
ARC
  5
1F5
330
56
100
AcDbEntity
  8
1
  6
Continuous
 62
     7
100
AcDbCircle
 10
375.2403460318285
 20
230.3448066730842
 30
0.0
 40
6.291097221786164
100
AcDbArc
 50
60.17408304738492
 51
61.8704898191212
  0
ARC
  5
1F6
330
56
100
AcDbEntity
  8
1
  6
Continuous
 62
     7
100
AcDbCircle
 10
375.1483142400191
 20
230.1726598974929
 30
0.0
 40
6.486300610717152
100
AcDbArc
 50
61.87048981912142
 51
63.51594912179239
  0
ARC
  5
1F7
330
56
100
AcDbEntity
  8
1
  6
Continuous
 62
     7
100
AcDbCircle
 10
374.8798164462689
 20
229.6337610212132
 30
0.0
 40
7.08838288425139
100
AcDbArc
 50
63.51594912179107
 51
65.0216881402125
  0
ARC
  5
1F8
330
56
100
AcDbEntity
  8
1
  6
Continuous
 62
     7
100
AcDbCircle
 10
374.7827961040615
 20
229.4254944385714
 30
0.0
 40
7.318139094716593
100
AcDbArc
 50
65.02168814021337
 51
66.54589314600472
  0
ARC
  5
1F9
330
56
100
AcDbEntity
  8
1
  6
Continuous
 62
     7
100
AcDbCircle
 10
374.5632538289261
 20
228.9194737602942
 30
0.0
 40
7.869732910323444
100
AcDbArc
 50
66.54589314600501
 51
68.0243279859158
  0
ARC
  5
1FA
330
56
100
AcDbEntity
  8
1
  6
Continuous
 62
     7
100
AcDbCircle
 10
374.5245400030034
 20
228.8235364172031
 30
0.0
 40
7.973186929660452
100
AcDbArc
 50
68.02432798591566
 51
69.48353928739101
  0
ARC
  5
1FB
330
56
100
AcDbEntity
  8
1
  6
Continuous
 62
     7
100
AcDbCircle
 10
374.2996725045479
 20
228.2226273151533
 30
0.0
 40
8.614792058059315
100
AcDbArc
 50
69.48353928739114
 51
70.83411753653084
  0
ARC
  5
1FC
330
56
100
AcDbEntity
  8
1
  6
Continuous
 62
     7
100
AcDbCircle
 10
374.2620149648763
 20
228.1142819036832
 30
0.0
 40
8.72949523360713
100
AcDbArc
 50
70.83411753653051
 51
72.16697488157514
  0
ARC
  5
1FD
330
56
100
AcDbEntity
  8
1
  6
Continuous
 62
     7
100
AcDbCircle
 10
374.033323798971
 20
227.4034003608917
 30
0.0
 40
9.476256385010137
100
AcDbArc
 50
72.16697488157557
 51
73.43621096269341
  0
ARC
  5
1FE
330
56
100
AcDbEntity
  8
1
  6
Continuous
 62
     7
100
AcDbCircle
 10
374.0423381916499
 20
227.4337084903719
 30
0.0
 40
9.444636106896951
100
AcDbArc
 50
73.43621096269321
 51
74.75122090077812
  0
ARC
  5
1FF
330
56
100
AcDbEntity
  8
1
  6
Continuous
 62
     7
100
AcDbCircle
 10
373.8698564524311
 20
226.8009996685263
 30
0.0
 40
10.10043363937572
100
AcDbArc
 50
74.75122090077835
 51
75.98082797866698
  0
ARC
  5
200
330
56
100
AcDbEntity
  8
1
  6
Continuous
 62
     7
100
AcDbCircle
 10
373.8800542876149
 20
226.8418427249754
 30
0.0
 40
10.05833671427955
100
AcDbArc
 50
75.98082797866607
 51
77.21560695564057
  0
ARC
  5
201
330
56
100
AcDbEntity
  8
1
  6
Continuous
 62
     7
100
AcDbCircle
 10
373.7168195464796
 20
226.1224553613056
 30
0.0
 40
10.79601127648259
100
AcDbArc
 50
77.21560695564105
 51
78.36602601395325
  0
ARC
  5
202
330
56
100
AcDbEntity
  8
1
  6
Continuous
 62
     7
100
AcDbCircle
 10
373.7104358268294
 20
226.0914496545248
 30
0.0
 40
10.82766733008288
100
AcDbArc
 50
78.36602601395272
 51
80.13759125309953
  0
ARC
  5
203
330
56
100
AcDbEntity
  8
1
  6
Continuous
 62
     7
100
AcDbCircle
 10
373.5978915932162
 20
225.4440928676506
 30
0.0
 40
11.48473430842816
100
AcDbArc
 50
80.13759125310006
 51
82.3965341624149
  0
ARC
  5
204
330
56
100
AcDbEntity
  8
1
  6
Continuous
 62
     7
100
AcDbCircle
 10
373.5672723088037
 20
225.214717845043
 30
0.0
 40
11.71614399183445
100
AcDbArc
 50
82.39653416241509
 51
84.61089107510234
  0
ARC
  5
205
330
56
100
AcDbEntity
  8
1
  6
Continuous
 62
     7
100
AcDbCircle
 10
373.5154190152608
 20
224.6650521234495
 30
0.0
 40
12.26825011346876
100
AcDbArc
 50
84.61089107510206
 51
89.47326155791741
  0
ARC
  5
206
330
56
100
AcDbEntity
  8
1
  6
Continuous
 62
     7
100
AcDbCircle
 10
373.5217946285525
 20
241.9089701948195
 30
0.0
 40
12.11718326374999
100
AcDbArc
 50
-90.04384403443621
 51
-83.5032268173084
  0
ARC
  5
207
330
56
100
AcDbEntity
  8
1
  6
Continuous
 62
     7
100
AcDbCircle
 10
373.5669837420829
 20
241.5121517425085
 30
0.0
 40
11.71780006420824
100
AcDbArc
 50
-83.50322681730833
 51
-81.28919856903039
  0
ARC
  5
208
330
56
100
AcDbEntity
  8
1
  6
Continuous
 62
     7
100
AcDbCircle
 10
373.6672915864873
 20
240.8574625227622
 30
0.0
 40
11.05547111413809
100
AcDbArc
 50
-81.28919856903036
 51
-78.94250833563342
  0
ARC
  5
209
330
56
100
AcDbEntity
  8
1
  6
Continuous
 62
     7
100
AcDbCircle
 10
373.6983297581741
 20
240.698636001653
 30
0.0
 40
10.89364023973745
100
AcDbArc
 50
-78.94250833563334
 51
-77.80241211342792
  0
ARC
  5
20A
330
56
100
AcDbEntity
  8
1
  6
Continuous
 62
     7
100
AcDbCircle
 10
373.8240212792881
 20
240.1171711795511
 30
0.0
 40
10.298745545004
100
AcDbArc
 50
-77.80241211342799
 51
-76.59644657029112
  0
ARC
  5
20B
330
56
100
AcDbEntity
  8
1
  6
Continuous
 62
     7
100
AcDbCircle
 10
373.8489828351852
 20
240.0124223522128
 30
0.0
 40
10.19106362404435
100
AcDbArc
 50
-76.59644657029071
 51
-75.37776435552235
  0
ARC
  5
20C
330
56
100
AcDbEntity
  8
1
  6
Continuous
 62
     7
100
AcDbCircle
 10
373.9831069713193
 20
239.4983298520191
 30
0.0
 40
9.659762972201083
100
AcDbArc
 50
-75.37776435552219
 51
-74.09206087472074
  0
ARC
  5
20D
330
56
100
AcDbEntity
  8
1
  6
Continuous
 62
     7
100
AcDbCircle
 10
374.0286505043557
 20
239.3385320785616
 30
0.0
 40
9.493601779970591
100
AcDbArc
 50
-74.0920608747208
 51
-72.17102362415818
  0
ARC
  5
20E
330
56
100
AcDbEntity
  8
1
  6
Continuous
 62
     7
100
AcDbCircle
 10
374.2787412358134
 20
238.5609419734827
 30
0.0
 40
8.676783718541005
100
AcDbArc
 50
-72.17102362415869
 51
-70.83006879394745
  0
ARC
  5
20F
330
56
100
AcDbEntity
  8
1
  6
Continuous
 62
     7
100
AcDbCircle
 10
374.2820354326264
 20
238.5514663200091
 30
0.0
 40
8.666751782466996
100
AcDbArc
 50
-70.83006879394702
 51
-69.48758802997412
  0
ARC
  5
210
330
56
100
AcDbEntity
  8
1
  6
Continuous
 62
     7
100
AcDbCircle
 10
374.5404851874384
 20
237.8606672893328
 30
0.0
 40
7.929188512946511
100
AcDbArc
 50
-69.48758802997413
 51
-68.02027924333179
  0
ARC
  5
211
330
56
100
AcDbEntity
  8
1
  6
Continuous
 62
     7
100
AcDbCircle
 10
374.5465176480618
 20
237.8457211969803
 30
0.0
 40
7.913070936894855
100
AcDbArc
 50
-68.02027924333216
 51
-66.54994188858859
  0
ARC
  5
212
330
56
100
AcDbEntity
  8
1
  6
Continuous
 62
     7
100
AcDbCircle
 10
374.7986594524039
 20
237.264449716661
 30
0.0
 40
7.279468519499397
100
AcDbArc
 50
-66.54994188858925
 51
-65.01763939763103
  0
ARC
  5
213
330
56
100
AcDbEntity
  8
1
  6
Continuous
 62
     7
100
AcDbCircle
 10
374.8631769174407
 20
237.1259802834194
 30
0.0
 40
7.126706327720664
100
AcDbArc
 50
-65.01763939763032
 51
-63.5199978643758
  0
ARC
  5
214
330
56
100
AcDbEntity
  8
1
  6
Continuous
 62
     7
100
AcDbCircle
 10
375.162886393245
 20
236.5243302842529
 30
0.0
 40
6.454539316194592
100
AcDbArc
 50
-63.51999786437574
 51
-61.8664410765376
  0
ARC
  5
215
330
56
100
AcDbEntity
  8
1
  6
Continuous
 62
     7
100
AcDbCircle
 10
375.2257274044949
 20
236.4068052536837
 30
0.0
 40
6.321268443513355
100
AcDbArc
 50
-61.86644107653707
 51
-60.17813178996695
  0
ARC
  5
216
330
56
100
AcDbEntity
  8
1
  6
Continuous
 62
     7
100
AcDbCircle
 10
375.4951523561064
 20
235.936778843732
 30
0.0
 40
5.779498537923349
100
AcDbArc
 50
-60.17813178996701
 51
-58.33145732953864
  0
ARC
  5
217
330
56
100
AcDbEntity
  8
1
  6
Continuous
 62
     7
100
AcDbCircle
 10
375.5519550688476
 20
235.844694367767
 30
0.0
 40
5.671303811210298
100
AcDbArc
 50
-58.33145732953847
 51
-56.54261129492844
  0
ARC
  5
218
330
56
100
AcDbEntity
  8
1
  6
Continuous
 62
     7
100
AcDbCircle
 10
375.9110702660327
 20
235.3012527910609
 30
0.0
 40
5.019926445820648
100
AcDbArc
 50
-56.54261129492942
 51
-55.58479018327579
  0
ARC
  5
219
330
56
100
AcDbEntity
  8
1
  6
Continuous
 62
     7
100
AcDbCircle
 10
375.8242076007566
 20
235.4280403003951
 30
0.0
 40
5.173615076311023
100
AcDbArc
 50
-55.58479018327635
 51
-53.72604720347698
  0
ARC
  5
21A
330
56
100
AcDbEntity
  8
1
  6
Continuous
 62
     7
100
AcDbCircle
 10
376.2062065053051
 20
234.907516007574
 30
0.0
 40
4.527961374631023
100
AcDbArc
 50
-53.7260472034761
 51
-51.60249499566577
  0
ARC
  5
21B
330
56
100
AcDbEntity
  8
1
  6
Continuous
 62
     7
100
AcDbCircle
 10
376.2224518419647
 20
234.8870176601487
 30
0.0
 40
4.501806199036966
100
AcDbArc
 50
-51.60249499566537
 51
-49.46672482297164
  0
ARC
  5
21C
330
56
100
AcDbEntity
  8
1
  6
Continuous
 62
     7
100
AcDbCircle
 10
376.5480000324725
 20
234.5062976520187
 30
0.0
 40
4.000877712191503
100
AcDbArc
 50
-49.46672482297178
 51
-47.06283292397297
  0
ARC
  5
21D
330
56
100
AcDbEntity
  8
1
  6
Continuous
 62
     7
100
AcDbCircle
 10
376.572913285025
 20
234.4795226510825
 30
0.0
 40
3.96430489676962
100
AcDbArc
 50
-47.06283292397328
 51
-44.89834186822221
  0
ARC
  5
21E
330
56
100
AcDbEntity
  8
1
  6
Continuous
 62
     7
100
AcDbCircle
 10
376.9248300975168
 20
234.1288524183909
 30
0.0
 40
3.467500050768432
100
AcDbArc
 50
-44.89834186822335
 51
-42.42339965240971
  0
ARC
  5
21F
330
56
100
AcDbEntity
  8
1
  6
Continuous
 62
     7
100
AcDbCircle
 10
376.9705940310158
 20
234.0870299180945
 30
0.0
 40
3.405504412693144
100
AcDbArc
 50
-42.42339965240875
 51
-39.90392927687739
  0
ARC
  5
220
330
56
100
AcDbEntity
  8
1
  6
Continuous
 62
     7
100
AcDbCircle
 10
377.2668582252679
 20
233.8392800781555
 30
0.0
 40
3.019301802673902
100
AcDbArc
 50
-39.90392927687549
 51
-37.06249637678742
  0
ARC
  5
221
330
56
100
AcDbEntity
  8
1
  6
Continuous
 62
     7
100
AcDbCircle
 10
377.3086700240455
 20
233.8077010644201
 30
0.0
 40
2.966904659378566
100
AcDbArc
 50
-37.06249637678825
 51
-34.16969710193795
  0
ARC
  5
222
330
56
100
AcDbEntity
  8
1
  6
Continuous
 62
     7
100
AcDbCircle
 10
377.5584377916874
 20
233.6381521043425
 30
0.0
 40
2.665025896269597
100
AcDbArc
 50
-34.1696971019397
 51
-31.27086980468943
  0
ARC
  5
223
330
56
100
AcDbEntity
  8
1
  6
Continuous
 62
     7
100
AcDbCircle
 10
377.578666603989
 20
233.6258668760136
 30
0.0
 40
2.641358795005916
100
AcDbArc
 50
-31.27086980468815
 51
-28.34531312310845
  0
ARC
  5
224
330
56
100
AcDbEntity
  8
1
  6
Continuous
 62
     7
100
AcDbCircle
 10
377.8160028628835
 20
233.4978322448769
 30
0.0
 40
2.371689800576933
100
AcDbArc
 50
-28.34531312311156
 51
-25.08804044719723
  0
ARC
  5
225
330
56
100
AcDbEntity
  8
1
  6
Continuous
 62
     7
100
AcDbCircle
 10
377.8496921477938
 20
233.4820596049543
 30
0.0
 40
2.334491089740436
100
AcDbArc
 50
-25.08804044719515
 51
-21.78003181772554
  0
ARC
  5
226
330
56
100
AcDbEntity
  8
1
  6
Continuous
 62
     7
100
AcDbCircle
 10
378.056028448833
 20
233.3996143753043
 30
0.0
 40
2.112293238673964
100
AcDbArc
 50
-21.78003181772451
 51
-18.12326386993479
  0
ARC
  5
227
330
56
100
AcDbEntity
  8
1
  6
Continuous
 62
     7
100
AcDbCircle
 10
378.0778870498697
 20
233.3924600584809
 30
0.0
 40
2.089293615014131
100
AcDbArc
 50
-18.12326386993389
 51
-11.2023782474087
  0
ARC
  5
228
330
56
100
AcDbEntity
  8
1
  6
Continuous
 62
     7
100
AcDbCircle
 10
378.2053100521728
 20
233.3672241280885
 30
0.0
 40
1.959395679315723
100
AcDbArc
 50
-11.20237824741123
 51
-5.66707811642425
  0
ARC
  5
229
330
56
100
AcDbEntity
  8
1
  6
Continuous
 62
     7
100
AcDbCircle
 10
378.2103052816506
 20
233.3667284365671
 30
0.0
 40
1.954375915614061
100
AcDbArc
 50
-5.66707811642369
 51
-1.96932947907259
  0
ARC
  5
22A
330
56
100
AcDbEntity
  8
1
  6
Continuous
 62
     7
100
AcDbCircle
 10
378.3645821436472
 20
233.3614236536492
 30
0.0
 40
1.800007878542554
100
AcDbArc
 50
-1.96932947906868
 51
0.03768308225193
  0
ARC
  5
22B
330
56
100
AcDbEntity
  8
1
  6
Continuous
 62
     7
100
AcDbCircle
 10
373.5147580104996
 20
224.5931536002739
 30
0.0
 40
12.34015167507996
100
AcDbArc
 50
89.47326155791747
 51
90.01038055576876
  0
ARC
  5
22C
330
56
100
AcDbEntity
  8
1
  6
Continuous
 62
     7
100
AcDbCircle
 10
363.0125222850579
 20
233.3626075076892
 30
0.0
 40
4.999999999999922
100
AcDbArc
 50
124.0557977425687
 51
-105.3375576695541
  0
ARC
  5
22D
330
56
100
AcDbEntity
  8
1
  6
Continuous
 62
     7
100
AcDbCircle
 10
368.7456937052118
 20
233.3624382653621
 30
0.0
 40
1.885238775575638
100
AcDbArc
 50
176.162082010326
 51
179.9948564228592
  0
ARC
  5
22E
330
56
100
AcDbEntity
  8
1
  6
Continuous
 62
     7
100
AcDbCircle
 10
368.8195106853917
 20
233.3574862776528
 30
0.0
 40
1.959221670525353
100
AcDbArc
 50
170.6273989135997
 51
176.1620820103272
  0
ARC
  5
22F
330
56
100
AcDbEntity
  8
1
  6
Continuous
 62
     7
100
AcDbCircle
 10
368.9037441228052
 20
233.3435829037248
 30
0.0
 40
2.044594826640611
100
AcDbArc
 50
165.3219284287077
 51
170.6273989135986
  0
ARC
  5
230
330
56
100
AcDbEntity
  8
1
  6
Continuous
 62
     7
100
AcDbCircle
 10
368.9464502306111
 20
233.3323966338627
 30
0.0
 40
2.088741675648923
100
AcDbArc
 50
160.0120569265388
 51
165.32192842871
  0
ARC
  5
231
330
56
100
AcDbEntity
  8
1
  6
Continuous
 62
     7
100
AcDbCircle
 10
369.0807430065238
 20
233.2835500616205
 30
0.0
 40
2.23164212100202
100
AcDbArc
 50
156.5516000346958
 51
160.0120569265388
  0
ARC
  5
232
330
56
100
AcDbEntity
  8
1
  6
Continuous
 62
     7
100
AcDbCircle
 10
369.1786796442547
 20
233.2410708347579
 30
0.0
 40
2.338394496736187
100
AcDbArc
 50
153.2486225522292
 51
156.5516000346965
  0
ARC
  5
233
330
56
100
AcDbEntity
  8
1
  6
Continuous
 62
     7
100
AcDbCircle
 10
369.339139117475
 20
233.1601877643776
 30
0.0
 40
2.518086771529121
100
AcDbArc
 50
150.1801685742323
 51
153.2486225522264
  0
ARC
  5
234
330
56
100
AcDbEntity
  8
1
  6
Continuous
 62
     7
100
AcDbCircle
 10
369.4411407681334
 20
233.1017239739588
 30
0.0
 40
2.635655268700587
100
AcDbArc
 50
147.2483586702345
 51
150.1801685742344
  0
ARC
  5
235
330
56
100
AcDbEntity
  8
1
  6
Continuous
 62
     7
100
AcDbCircle
 10
369.6086772534042
 20
232.9939541003641
 30
0.0
 40
2.834860739387485
100
AcDbArc
 50
144.3719329968283
 51
147.2483586702344
  0
ARC
  5
236
330
56
100
AcDbEntity
  8
1
  6
Continuous
 62
     7
100
AcDbCircle
 10
369.7175841939043
 20
232.9159036668397
 30
0.0
 40
2.96884802185277
100
AcDbArc
 50
141.481894715952
 51
144.3719329968299
  0
ARC
  5
237
330
56
100
AcDbEntity
  8
1
  6
Continuous
 62
     7
100
AcDbCircle
 10
369.9210414839835
 20
232.7539614339173
 30
0.0
 40
3.228886779906751
100
AcDbArc
 50
138.824859465379
 51
141.4818947159496
  0
ARC
  5
238
330
56
100
AcDbEntity
  8
1
  6
Continuous
 62
     7
100
AcDbCircle
 10
370.0543306718329
 20
232.6373776844325
 30
0.0
 40
3.405968055713845
100
AcDbArc
 50
136.3054237398496
 51
138.8248594653801
  0
ARC
  5
239
330
56
100
AcDbEntity
  8
1
  6
Continuous
 62
     7
100
AcDbCircle
 10
370.2944154732452
 20
232.4079911423149
 30
0.0
 40
3.738020608141664
100
AcDbArc
 50
134.0096025338447
 51
136.3054237398484
  0
ARC
  5
23A
330
56
100
AcDbEntity
  8
1
  6
Continuous
 62
     7
100
AcDbCircle
 10
370.4422846022493
 20
232.2549195246733
 30
0.0
 40
3.95084964619772
100
AcDbArc
 50
131.7064476568586
 51
134.0096025338458
  0
ARC
  5
23B
330
56
100
AcDbEntity
  8
1
  6
Continuous
 62
     7
100
AcDbCircle
 10
370.660291520701
 20
232.0102893541229
 30
0.0
 40
4.278524693823041
100
AcDbArc
 50
129.4590238339888
 51
131.7064476568582
  0
ARC
  5
23C
330
56
100
AcDbEntity
  8
1
  6
Continuous
 62
     7
100
AcDbCircle
 10
370.7808577259182
 20
231.8638175520777
 30
0.0
 40
4.468235522809906
100
AcDbArc
 50
127.3071976712718
 51
129.4590238339904
  0
ARC
  5
23D
330
56
100
AcDbEntity
  8
1
  6
Continuous
 62
     7
100
AcDbCircle
 10
371.0335381475278
 20
231.5322135119288
 30
0.0
 40
4.885139150651997
100
AcDbArc
 50
125.338788432371
 51
127.3071976712711
  0
ARC
  5
23E
330
56
100
AcDbEntity
  8
1
  6
Continuous
 62
     7
100
AcDbCircle
 10
371.1707608058019
 20
231.3386849401588
 30
0.0
 40
5.122380306514875
100
AcDbArc
 50
123.4614374476552
 51
125.3387884323711
  0
ARC
  5
23F
330
56
100
AcDbEntity
  8
1
  6
Continuous
 62
     7
100
AcDbCircle
 10
371.4593338477195
 20
230.9020604251419
 30
0.0
 40
5.645749552492702
100
AcDbArc
 50
121.6644939278782
 51
123.4614374476552
  0
ARC
  5
240
330
56
100
AcDbEntity
  8
1
  6
Continuous
 62
     7
100
AcDbCircle
 10
371.5429054697266
 20
230.7665586892035
 30
0.0
 40
5.804950483542697
100
AcDbArc
 50
119.8259169526143
 51
121.6644939278775
  0
ARC
  5
241
330
56
100
AcDbEntity
  8
1
  6
Continuous
 62
     7
100
AcDbCircle
 10
371.7846985382873
 20
230.3448066730842
 30
0.0
 40
6.291097221786193
100
AcDbArc
 50
118.1295101808788
 51
119.8259169526137
  0
ARC
  5
242
330
56
100
AcDbEntity
  8
1
  6
Continuous
 62
     7
100
AcDbCircle
 10
371.8767303300968
 20
230.1726598974929
 30
0.0
 40
6.486300610717029
100
AcDbArc
 50
116.4840508782072
 51
118.1295101808795
  0
ARC
  5
243
330
56
100
AcDbEntity
  8
1
  6
Continuous
 62
     7
100
AcDbCircle
 10
372.1452281238469
 20
229.6337610212132
 30
0.0
 40
7.088382884251335
100
AcDbArc
 50
114.9783118597863
 51
116.4840508782077
  0
ARC
  5
244
330
56
100
AcDbEntity
  8
1
  6
Continuous
 62
     7
100
AcDbCircle
 10
372.2422484660543
 20
229.4254944385714
 30
0.0
 40
7.318139094716563
100
AcDbArc
 50
113.4541068539949
 51
114.9783118597858
  0
ARC
  5
245
330
56
100
AcDbEntity
  8
1
  6
Continuous
 62
     7
100
AcDbCircle
 10
372.4617907411897
 20
228.9194737602942
 30
0.0
 40
7.86973291032357
100
AcDbArc
 50
111.9756720140846
 51
113.4541068539946
  0
ARC
  5
246
330
56
100
AcDbEntity
  8
1
  6
Continuous
 62
     7
100
AcDbCircle
 10
372.5005045671124
 20
228.8235364172031
 30
0.0
 40
7.973186929660303
100
AcDbArc
 50
110.516460712609
 51
111.9756720140843
  0
ARC
  5
247
330
56
100
AcDbEntity
  8
1
  6
Continuous
 62
     7
100
AcDbCircle
 10
372.725372065568
 20
228.2226273151533
 30
0.0
 40
8.614792058059386
100
AcDbArc
 50
109.1658824634695
 51
110.5164607126099
  0
ARC
  5
248
330
56
100
AcDbEntity
  8
1
  6
Continuous
 62
     7
100
AcDbCircle
 10
372.7630296052396
 20
228.1142819036832
 30
0.0
 40
8.729495233607119
100
AcDbArc
 50
107.8330251184245
 51
109.1658824634695
  0
ARC
  5
249
330
56
100
AcDbEntity
  8
1
  6
Continuous
 62
     7
100
AcDbCircle
 10
372.9917207711449
 20
227.4034003608917
 30
0.0
 40
9.47625638501019
100
AcDbArc
 50
106.5637890373069
 51
107.8330251184244
  0
ARC
  5
24A
330
56
100
AcDbEntity
  8
1
  6
Continuous
 62
     7
100
AcDbCircle
 10
372.982706378466
 20
227.4337084903719
 30
0.0
 40
9.444636106897001
100
AcDbArc
 50
105.2487790992226
 51
106.5637890373068
  0
ARC
  5
24B
330
56
100
AcDbEntity
  8
1
  6
Continuous
 62
     7
100
AcDbCircle
 10
373.1551881176848
 20
226.8009996685263
 30
0.0
 40
10.10043363937563
100
AcDbArc
 50
104.019172021334
 51
105.2487790992226
  0
ARC
  5
24C
330
56
100
AcDbEntity
  8
1
  6
Continuous
 62
     7
100
AcDbCircle
 10
373.1449902825009
 20
226.8418427249754
 30
0.0
 40
10.05833671427966
100
AcDbArc
 50
102.7843930443594
 51
104.0191720213339
  0
ARC
  5
24D
330
56
100
AcDbEntity
  8
1
  6
Continuous
 62
     7
100
AcDbCircle
 10
373.3082250236363
 20
226.1224553613056
 30
0.0
 40
10.79601127648252
100
AcDbArc
 50
101.6339739860471
 51
102.7843930443596
  0
ARC
  5
24E
330
56
100
AcDbEntity
  8
1
  6
Continuous
 62
     7
100
AcDbCircle
 10
373.3146087432864
 20
226.0914496545248
 30
0.0
 40
10.82766733008295
100
AcDbArc
 50
99.86240874689989
 51
101.633973986047
  0
ARC
  5
24F
330
56
100
AcDbEntity
  8
1
  6
Continuous
 62
     7
100
AcDbCircle
 10
373.4271529768996
 20
225.4440928676506
 30
0.0
 40
11.48473430842822
100
AcDbArc
 50
97.60346583758511
 51
99.86240874689968
  0
ARC
  5
250
330
56
100
AcDbEntity
  8
1
  6
Continuous
 62
     7
100
AcDbCircle
 10
373.4577722613121
 20
225.214717845043
 30
0.0
 40
11.71614399183438
100
AcDbArc
 50
95.3891089248974
 51
97.60346583758465
  0
ARC
  5
251
330
56
100
AcDbEntity
  8
1
  6
Continuous
 62
     7
100
AcDbCircle
 10
373.509625554855
 20
224.6650521234495
 30
0.0
 40
12.26825011346877
100
AcDbArc
 50
90.52673844208286
 51
95.38910892489794
  0
ARC
  5
252
330
56
100
AcDbEntity
  8
1
  6
Continuous
 62
     7
100
AcDbCircle
 10
373.5032499415634
 20
241.9089701948195
 30
0.0
 40
12.11718326374993
100
AcDbArc
 50
-96.49677318269214
 51
-89.95615596556435
  0
ARC
  5
253
330
56
100
AcDbEntity
  8
1
  6
Continuous
 62
     7
100
AcDbCircle
 10
373.458060828033
 20
241.5121517425085
 30
0.0
 40
11.7178000642083
100
AcDbArc
 50
-98.71080143097046
 51
-96.49677318269224
  0
ARC
  5
254
330
56
100
AcDbEntity
  8
1
  6
Continuous
 62
     7
100
AcDbCircle
 10
373.3577529836286
 20
240.8574625227622
 30
0.0
 40
11.05547111413822
100
AcDbArc
 50
-101.0574916643669
 51
-98.71080143097022
  0
ARC
  5
255
330
56
100
AcDbEntity
  8
1
  6
Continuous
 62
     7
100
AcDbCircle
 10
373.3267148119418
 20
240.698636001653
 30
0.0
 40
10.89364023973744
100
AcDbArc
 50
-102.197587886573
 51
-101.0574916643673
  0
ARC
  5
256
330
56
100
AcDbEntity
  8
1
  6
Continuous
 62
     7
100
AcDbCircle
 10
373.2010232908278
 20
240.1171711795511
 30
0.0
 40
10.29874554500395
100
AcDbArc
 50
-103.4035534297089
 51
-102.1975878865726
  0
ARC
  5
257
330
56
100
AcDbEntity
  8
1
  6
Continuous
 62
     7
100
AcDbCircle
 10
373.1760617349306
 20
240.0124223522128
 30
0.0
 40
10.1910636240444
100
AcDbArc
 50
-104.622235644478
 51
-103.403553429709
  0
ARC
  5
258
330
56
100
AcDbEntity
  8
1
  6
Continuous
 62
     7
100
AcDbCircle
 10
373.0419375987965
 20
239.4983298520191
 30
0.0
 40
9.659762972200936
100
AcDbArc
 50
-105.9079391252786
 51
-104.6222356444778
  0
ARC
  5
259
330
56
100
AcDbEntity
  8
1
  6
Continuous
 62
     7
100
AcDbCircle
 10
372.9963940657601
 20
239.3385320785616
 30
0.0
 40
9.493601779970602
100
AcDbArc
 50
-107.8289763758412
 51
-105.9079391252789
  0
ARC
  5
25A
330
56
100
AcDbEntity
  8
1
  6
Continuous
 62
     7
100
AcDbCircle
 10
372.7463033343025
 20
238.5609419734827
 30
0.0
 40
8.676783718541095
100
AcDbArc
 50
-109.1699312060529
 51
-107.8289763758413
  0
ARC
  5
25B
330
56
100
AcDbEntity
  8
1
  6
Continuous
 62
     7
100
AcDbCircle
 10
372.7430091374895
 20
238.5514663200091
 30
0.0
 40
8.666751782466983
100
AcDbArc
 50
-110.5124119700266
 51
-109.169931206053
  0
ARC
  5
25C
330
56
100
AcDbEntity
  8
1
  6
Continuous
 62
     7
100
AcDbCircle
 10
372.4845593826775
 20
237.8606672893328
 30
0.0
 40
7.929188512946625
100
AcDbArc
 50
-111.979720756669
 51
-110.5124119700267
  0
ARC
  5
25D
330
56
100
AcDbEntity
  8
1
  6
Continuous
 62
     7
100
AcDbCircle
 10
372.478526922054
 20
237.8457211969803
 30
0.0
 40
7.91307093689491
100
AcDbArc
 50
-113.450058111411
 51
-111.9797207566682
  0
ARC
  5
25E
330
56
100
AcDbEntity
  8
1
  6
Continuous
 62
     7
100
AcDbCircle
 10
372.226385117712
 20
237.264449716661
 30
0.0
 40
7.279468519499323
100
AcDbArc
 50
-114.982360602369
 51
-113.4500581114112
  0
ARC
  5
25F
330
56
100
AcDbEntity
  8
1
  6
Continuous
 62
     7
100
AcDbCircle
 10
372.1618676526752
 20
237.1259802834194
 30
0.0
 40
7.126706327720693
100
AcDbArc
 50
-116.4800021356238
 51
-114.9823606023693
  0
ARC
  5
260
330
56
100
AcDbEntity
  8
1
  6
Continuous
 62
     7
100
AcDbCircle
 10
371.8621581768708
 20
236.5243302842529
 30
0.0
 40
6.45453931619454
100
AcDbArc
 50
-118.1335589234629
 51
-116.4800021356234
  0
ARC
  5
261
330
56
100
AcDbEntity
  8
1
  6
Continuous
 62
     7
100
AcDbCircle
 10
371.7993171656209
 20
236.4068052536837
 30
0.0
 40
6.321268443513246
100
AcDbArc
 50
-119.8218682100317
 51
-118.1335589234629
  0
ARC
  5
262
330
56
100
AcDbEntity
  8
1
  6
Continuous
 62
     7
100
AcDbCircle
 10
371.5298922140094
 20
235.936778843732
 30
0.0
 40
5.779498537923324
100
AcDbArc
 50
-121.6685426704619
 51
-119.821868210032
  0
ARC
  5
263
330
56
100
AcDbEntity
  8
1
  6
Continuous
 62
     7
100
AcDbCircle
 10
371.4730895012682
 20
235.844694367767
 30
0.0
 40
5.671303811210396
100
AcDbArc
 50
-123.4573887050711
 51
-121.6685426704615
  0
ARC
  5
264
330
56
100
AcDbEntity
  8
1
  6
Continuous
 62
     7
100
AcDbCircle
 10
371.1139743040832
 20
235.3012527910609
 30
0.0
 40
5.019926445820607
100
AcDbArc
 50
-124.4152098167253
 51
-123.4573887050711
  0
ARC
  5
265
330
56
100
AcDbEntity
  8
1
  6
Continuous
 62
     7
100
AcDbCircle
 10
371.2008369693593
 20
235.4280403003951
 30
0.0
 40
5.173615076311042
100
AcDbArc
 50
-126.2739527965225
 51
-124.4152098167247
  0
ARC
  5
266
330
56
100
AcDbEntity
  8
1
  6
Continuous
 62
     7
100
AcDbCircle
 10
370.8188380648107
 20
234.907516007574
 30
0.0
 40
4.527961374630956
100
AcDbArc
 50
-128.3975050043343
 51
-126.2739527965222
  0
ARC
  5
267
330
56
100
AcDbEntity
  8
1
  6
Continuous
 62
     7
100
AcDbCircle
 10
370.8025927281511
 20
234.8870176601487
 30
0.0
 40
4.501806199037008
100
AcDbArc
 50
-130.5332751770273
 51
-128.3975050043352
  0
ARC
  5
268
330
56
100
AcDbEntity
  8
1
  6
Continuous
 62
     7
100
AcDbCircle
 10
370.4770445376433
 20
234.5062976520187
 30
0.0
 40
4.000877712191352
100
AcDbArc
 50
-132.9371670760258
 51
-130.5332751770264
  0
ARC
  5
269
330
56
100
AcDbEntity
  8
1
  6
Continuous
 62
     7
100
AcDbCircle
 10
370.4521312850909
 20
234.4795226510825
 30
0.0
 40
3.964304896769792
100
AcDbArc
 50
-135.1016581317784
 51
-132.9371670760267
  0
ARC
  5
26A
330
56
100
AcDbEntity
  8
1
  6
Continuous
 62
     7
100
AcDbCircle
 10
370.1002144725991
 20
234.1288524183909
 30
0.0
 40
3.467500050768297
100
AcDbArc
 50
-137.5766003475903
 51
-135.1016581317773
  0
ARC
  5
26B
330
56
100
AcDbEntity
  8
1
  6
Continuous
 62
     7
100
AcDbCircle
 10
370.0544505391001
 20
234.0870299180945
 30
0.0
 40
3.405504412693234
100
AcDbArc
 50
-140.0960707231245
 51
-137.5766003475919
  0
ARC
  5
26C
330
56
100
AcDbEntity
  8
1
  6
Continuous
 62
     7
100
AcDbCircle
 10
369.7581863448479
 20
233.8392800781555
 30
0.0
 40
3.019301802673966
100
AcDbArc
 50
-142.9375036232126
 51
-140.0960707231252
  0
ARC
  5
26D
330
56
100
AcDbEntity
  8
1
  6
Continuous
 62
     7
100
AcDbCircle
 10
369.7163745460704
 20
233.8077010644201
 30
0.0
 40
2.966904659378633
100
AcDbArc
 50
-145.8303028980627
 51
-142.9375036232131
  0
ARC
  5
26E
330
56
100
AcDbEntity
  8
1
  6
Continuous
 62
     7
100
AcDbCircle
 10
369.4666067784284
 20
233.6381521043425
 30
0.0
 40
2.665025896269667
100
AcDbArc
 50
-148.7291301953112
 51
-145.8303028980596
  0
ARC
  5
26F
330
56
100
AcDbEntity
  8
1
  6
Continuous
 62
     7
100
AcDbCircle
 10
369.4463779661269
 20
233.6258668760136
 30
0.0
 40
2.641358795005897
100
AcDbArc
 50
-151.654686876891
 51
-148.7291301953131
  0
ARC
  5
270
330
56
100
AcDbEntity
  8
1
  6
Continuous
 62
     7
100
AcDbCircle
 10
369.2090417072324
 20
233.4978322448769
 30
0.0
 40
2.371689800576891
100
AcDbArc
 50
-154.9119595528028
 51
-151.6546868768885
  0
ARC
  5
271
330
56
100
AcDbEntity
  8
1
  6
Continuous
 62
     7
100
AcDbCircle
 10
369.175352422322
 20
233.4820596049543
 30
0.0
 40
2.334491089740413
100
AcDbArc
 50
-158.219968182274
 51
-154.9119595528037
  0
ARC
  5
272
330
56
100
AcDbEntity
  8
1
  6
Continuous
 62
     7
100
AcDbCircle
 10
368.9690161212829
 20
233.3996143753043
 30
0.0
 40
2.112293238673998
100
AcDbArc
 50
-161.8767361300662
 51
-158.2199681822755
  0
ARC
  5
273
330
56
100
AcDbEntity
  8
1
  6
Continuous
 62
     7
100
AcDbCircle
 10
368.9471575202462
 20
233.3924600584809
 30
0.0
 40
2.089293615014169
100
AcDbArc
 50
-168.7976217525913
 51
-161.8767361300671
  0
ARC
  5
274
330
56
100
AcDbEntity
  8
1
  6
Continuous
 62
     7
100
AcDbCircle
 10
368.8197345179431
 20
233.3672241280885
 30
0.0
 40
1.959395679315812
100
AcDbArc
 50
-174.3329218835761
 51
-168.7976217525891
  0
ARC
  5
275
330
56
100
AcDbEntity
  8
1
  6
Continuous
 62
     7
100
AcDbCircle
 10
368.8147392884653
 20
233.3667284365671
 30
0.0
 40
1.954375915614112
100
AcDbArc
 50
-178.0306705209274
 51
-174.3329218835767
  0
ARC
  5
276
330
56
100
AcDbEntity
  8
1
  6
Continuous
 62
     7
100
AcDbCircle
 10
368.6604624264687
 20
233.3614236536492
 30
0.0
 40
1.800007878542618
100
AcDbArc
 50
179.9623169177481
 51
-178.0306705209313
  0
ARC
  5
277
330
56
100
AcDbEntity
  8
1
  6
Continuous
 62
     7
100
AcDbCircle
 10
373.5102865596163
 20
224.5931536002739
 30
0.0
 40
12.34015167508005
100
AcDbArc
 50
89.98961944423151
 51
90.52673844208306
  0
SPLINE
  5
278
330
56
100
AcDbEntity
  8
1
  6
Continuous
 62
     7
100
AcDbSpline
210
0.0
220
0.0
230
1.0
 70
    11
 71
     3
 72
    79
 73
    75
 74
    73
 42
0.0000000001
 43
0.0000000001
 44
0.00000001
 40
0.0
 40
0.0
 40
0.0
 40
0.0
 40
0.2910229153817808
 40
0.5820342278737865
 40
0.8749339334364572
 40
1.167812547519324
 40
1.46356118876719
 40
1.759282806464779
 40
2.058487811140726
 40
2.357663885605931
 40
2.660503341347639
 40
2.96331562519464
 40
3.269530826276477
 40
3.575723468843797
 40
3.884662744191434
 40
4.193586027919107
 40
4.504289085610723
 40
4.814983882015379
 40
5.126294430971115
 40
5.437604979926964
 40
5.74829977633162
 40
6.05900283402318
 40
6.367926117750727
 40
6.676865393098384
 40
6.983058035665703
 40
7.289273236747507
 40
7.592085520594554
 40
7.894924976336283
 40
8.194101050801429
 40
8.493306055477374
 40
8.789027673174918
 40
9.084776314422847
 40
9.377654928505715
 40
9.67055463406844
 40
9.961565946560397
 40
10.25258886194217
 40
10.54295309984916
 40
10.8333173377562
 40
11.12434025313809
 40
11.41535156562999
 40
11.70825127119263
 40
12.00112988527551
 40
12.29687852652349
 40
12.59260014422111
 40
12.89180514889698
 40
13.19098122336213
 40
13.49382067910378
 40
13.79663296295084
 40
14.10284816403273
 40
14.4090408066
 40
14.71798008194762
 40
15.02690336567522
 40
15.33760642336682
 40
15.64830121977145
 40
15.95961176872727
 40
16.27092231768303
 40
16.58161711408769
 40
16.89232017177931
 40
17.20124345550694
 40
17.51018273085468
 40
17.81637537342192
 40
18.12259057450381
 40
18.42540285835081
 40
18.72824231409252
 40
19.02741838855766
 40
19.32662339323356
 40
19.62234501093117
 40
19.91809365217909
 40
20.210972266262
 40
20.50387197182462
 40
20.79488328431658
 40
21.08590619969841
 40
21.37627043760546
 40
21.66663467551238
 40
21.66663467551238
 40
21.66663467551238
 40
21.66663467551238
 10
361.6782100868263
 20
236.9196767590902
 30
0.0
 10
361.7745851455431
 20
236.9080010912889
 30
0.0
 10
361.9673314205676
 20
236.8846502211873
 30
0.0
 10
362.2512679298326
 20
236.8152942277368
 30
0.0
 10
362.5285321956914
 20
236.7218514701612
 30
0.0
 10
362.7972845795414
 20
236.6019444841841
 30
0.0
 10
363.0549299630611
 20
236.4578989789968
 30
0.0
 10
363.3001569102959
 20
236.2898323781515
 30
0.0
 10
363.5304202663531
 20
236.0999976450775
 30
0.0
 10
363.744652474869
 20
235.8888615164102
 30
0.0
 10
363.9406069036319
 20
235.6590819127763
 30
0.0
 10
364.1173642472525
 20
235.411353380552
 30
0.0
 10
364.2731350812196
 20
235.1486211407182
 30
0.0
 10
364.4071034985889
 20
234.8718701290763
 30
0.0
 10
364.5180265298741
 20
234.5841381513126
 30
0.0
 10
364.6052033222456
 20
234.2867847048898
 30
0.0
 10
364.6679513323383
 20
233.9827387087467
 30
0.0
 10
364.7057517115507
 20
233.6737971129926
 30
0.0
 10
364.718428785039
 20
233.3626075076901
 30
0.0
 10
364.7057517115509
 20
233.0514179023817
 30
0.0
 10
364.6679513323372
 20
232.7424763066445
 30
0.0
 10
364.6052033222502
 20
232.4384303104397
 30
0.0
 10
364.5180265298572
 20
232.141076864246
 30
0.0
 10
364.4071034986518
 20
231.8533448856311
 30
0.0
 10
364.2731350809864
 20
231.5765938771392
 30
0.0
 10
364.117364248119
 20
231.3138616256147
 30
0.0
 10
363.9406069004377
 20
231.0661331365565
 30
0.0
 10
363.7446524867347
 20
230.8363533728358
 30
0.0
 10
363.5304202226635
 20
230.6252178347279
 30
0.0
 10
363.3001570726291
 20
230.4353809116005
 30
0.0
 10
363.0549293650339
 20
230.2673223935055
 30
0.0
 10
362.7972868033544
 20
230.1232468917126
 30
0.0
 10
362.5285239854632
 20
230.0034508212328
 30
0.0
 10
362.2512984997709
 20
229.9095958243917
 30
0.0
 10
361.9672181462682
 20
229.8417689178018
 30
0.0
 10
361.6788506657554
 20
229.8010739561781
 30
0.0
 10
361.3881666320758
 20
229.7873081626132
 30
0.0
 10
361.0974825983963
 20
229.801073956178
 30
0.0
 10
360.8091151178832
 20
229.8417689178016
 30
0.0
 10
360.5250347643809
 20
229.9095958243916
 30
0.0
 10
360.2478092786883
 20
230.0034508212328
 30
0.0
 10
359.9790464607972
 20
230.1232468917128
 30
0.0
 10
359.7214038991178
 20
230.2673223935055
 30
0.0
 10
359.4761761915224
 20
230.4353809116003
 30
0.0
 10
359.2459130414882
 20
230.625217834728
 30
0.0
 10
359.031680777417
 20
230.8363533728358
 30
0.0
 10
358.835726363714
 20
231.0661331365566
 30
0.0
 10
358.6589690160325
 20
231.3138616256148
 30
0.0
 10
358.5031981831651
 20
231.576593877139
 30
0.0
 10
358.3692297654998
 20
231.8533448856311
 30
0.0
 10
358.2583067342945
 20
232.141076864246
 30
0.0
 10
358.1711299419014
 20
232.4384303104397
 30
0.0
 10
358.1083819318144
 20
232.7424763066444
 30
0.0
 10
358.0705815526006
 20
233.051417902382
 30
0.0
 10
358.0579044791127
 20
233.3626075076891
 30
0.0
 10
358.0705815526006
 20
233.6737971129959
 30
0.0
 10
358.1083819318145
 20
233.9827387087346
 30
0.0
 10
358.1711299419011
 20
234.286784704935
 30
0.0
 10
358.2583067342956
 20
234.5841381511452
 30
0.0
 10
358.3692297654953
 20
234.871870129699
 30
0.0
 10
358.5031981831817
 20
235.148621138417
 30
0.0
 10
358.6589690159705
 20
235.4113533891028
 30
0.0
 10
358.8357263639429
 20
235.6590818812568
 30
0.0
 10
359.0316807765661
 20
235.8888616334968
 30
0.0
 10
359.2459130446213
 20
236.0999972139566
 30
0.0
 10
359.4761761798809
 20
236.289833980025
 30
0.0
 10
359.721403942005
 20
236.4578930777723
 30
0.0
 10
359.979046301317
 20
236.601966428366
 30
0.0
 10
360.2478098674829
 20
236.7217704531231
 30
0.0
 10
360.5250325720653
 20
236.8155958863283
 30
0.0
 10
360.8091232413212
 20
236.8835324510004
 30
0.0
 10
361.0974523023925
 20
236.9238190079169
 30
0.0
 10
361.3882794150583
 20
236.939105753601
 30
0.0
 10
361.5815665295703
 20
236.9261530905939
 30
0.0
 10
361.6782100868262
 20
236.9196767590902
 30
0.0
 11
361.6782100868263
 21
236.9196767590902
 31
0.0
 11
361.9663695831011
 21
236.8789527860038
 31
0.0
 11
362.2494517894837
 21
236.8114839159384
 31
0.0
 11
362.5268758320275
 21
236.7175363872996
 31
0.0
 11
362.7944375841448
 21
236.5984205135002
 31
0.0
 11
363.0525699528599
 21
236.454077384043
 31
0.0
 11
363.2965826054711
 21
236.2870172136273
 31
0.0
 11
363.527462111002
 21
236.0967061820266
 31
0.0
 11
363.7406374059532
 21
235.8867952076711
 31
0.0
 11
363.9371717299615
 21
235.6563912245446
 31
0.0
 11
364.1131452657611
 21
235.4099595018569
 31
0.0
 11
364.2693424062339
 21
235.1465772650191
 31
0.0
 11
364.4028380941982
 21
234.8710181322412
 31
0.0
 11
364.5139880197552
 21
234.5827662113439
 31
0.0
 11
364.6009646737816
 21
234.2863397333034
 31
0.0
 11
364.6637697481031
 21
233.9820505407605
 31
0.0
 11
364.7015451097747
 21
233.67366072484
 31
0.0
 11
364.7142003059883
 21
233.3626075076891
 31
0.0
 11
364.7015451097747
 21
233.0515542905381
 31
0.0
 11
364.6637697481031
 21
232.7431644746175
 31
0.0
 11
364.6009646737816
 21
232.4388752820747
 31
0.0
 11
364.5139880197553
 21
232.1424488040344
 31
0.0
 11
364.4028380941982
 21
231.8541968831371
 31
0.0
 11
364.2693424062338
 21
231.5786377503592
 31
0.0
 11
364.1131452657611
 21
231.3152555135214
 31
0.0
 11
363.9371717299615
 21
231.0688237908336
 31
0.0
 11
363.7406374059532
 21
230.8384198077071
 31
0.0
 11
363.527462111002
 21
230.6285088333517
 31
0.0
 11
363.2965826054711
 21
230.4381978017509
 31
0.0
 11
363.05256995286
 21
230.2711376313353
 31
0.0
 11
362.7944375841448
 21
230.1267945018781
 31
0.0
 11
362.5268758320275
 21
230.0076786280786
 31
0.0
 11
362.2494517894836
 21
229.9137310994398
 31
0.0
 11
361.9663695831011
 21
229.8462622293745
 31
0.0
 11
361.6782100868263
 21
229.805538256288
 31
0.0
 11
361.3881666320758
 21
229.7918932934177
 31
0.0
 11
361.0981231773253
 21
229.8055382562879
 31
0.0
 11
360.8099636810504
 21
229.8462622293743
 31
0.0
 11
360.5268814746679
 21
229.9137310994397
 31
0.0
 11
360.2494574321241
 21
230.0076786280786
 31
0.0
 11
359.9818956800068
 21
230.126794501878
 31
0.0
 11
359.7237633112916
 21
230.2711376313352
 31
0.0
 11
359.4797506586804
 21
230.438197801751
 31
0.0
 11
359.2488711531496
 21
230.6285088333518
 31
0.0
 11
359.0356958581984
 21
230.8384198077072
 31
0.0
 11
358.8391615341902
 21
231.0688237908336
 31
0.0
 11
358.6631879983905
 21
231.3152555135214
 31
0.0
 11
358.5069908579176
 21
231.5786377503592
 31
0.0
 11
358.3734951699535
 21
231.8541968831371
 31
0.0
 11
358.2623452443963
 21
232.1424488040343
 31
0.0
 11
358.1753685903699
 21
232.4388752820747
 31
0.0
 11
358.1125635160485
 21
232.7431644746176
 31
0.0
 11
358.0747881543769
 21
233.0515542905381
 31
0.0
 11
358.0621329581633
 21
233.3626075076891
 31
0.0
 11
358.0747881543769
 21
233.67366072484
 31
0.0
 11
358.1125635160485
 21
233.9820505407605
 31
0.0
 11
358.1753685903699
 21
234.2863397333034
 31
0.0
 11
358.2623452443963
 21
234.5827662113438
 31
0.0
 11
358.3734951699535
 21
234.8710181322412
 31
0.0
 11
358.5069908579176
 21
235.146577265019
 31
0.0
 11
358.6631879983905
 21
235.4099595018569
 31
0.0
 11
358.8391615341901
 21
235.6563912245446
 31
0.0
 11
359.0356958581984
 21
235.8867952076711
 31
0.0
 11
359.2488711531495
 21
236.0967061820265
 31
0.0
 11
359.4797506586804
 21
236.2870172136273
 31
0.0
 11
359.7237633112916
 21
236.454077384043
 31
0.0
 11
359.9818956800067
 21
236.5984205135002
 31
0.0
 11
360.2494574321241
 21
236.7175363872996
 31
0.0
 11
360.5268814746679
 21
236.8114839159384
 31
0.0
 11
360.8099636810504
 21
236.8789527860038
 31
0.0
 11
361.0981231773253
 21
236.9196767590902
 31
0.0
 11
361.3881666320758
 21
236.9333217219605
 31
0.0
 11
361.6782100868262
 21
236.9196767590902
 31
0.0
  0
SPLINE
  5
279
330
56
100
AcDbEntity
  8
1
  6
Continuous
 62
     7
100
AcDbSpline
210
0.0
220
0.0
230
1.0
 70
    11
 71
     3
 72
    79
 73
    75
 74
    73
 42
0.0000000001
 43
0.0000000001
 44
0.00000001
 40
0.0
 40
0.0
 40
0.0
 40
0.0
 40
0.2910229153818371
 40
0.5820342278737321
 40
0.8749339334364028
 40
1.167812547519322
 40
1.463561188767336
 40
1.759282806464832
 40
2.058487811140734
 40
2.357663885605939
 40
2.660503341347574
 40
2.963315625194641
 40
3.269530826276536
 40
3.575723468843831
 40
3.884662744191469
 40
4.193586027919126
 40
4.504289085610742
 40
4.814983882015412
 40
5.126294430971143
 40
5.437604979926988
 40
5.748299776331651
 40
6.059002834023223
 40
6.36792611775077
 40
6.676865393098427
 40
6.983058035665696
 40
7.289273236747557
 40
7.592085520594671
 40
7.89492497633629
 40
8.194101050801516
 40
8.493306055477374
 40
8.789027673174918
 40
9.084776314422896
 40
9.377654928505868
 40
9.670554634068484
 40
9.961565946560441
 40
10.25258886194227
 40
10.54295309984915
 40
10.83331733775613
 40
11.12434025313796
 40
11.41535156562992
 40
11.70825127119261
 40
12.00112988527559
 40
12.29687852652357
 40
12.5926001442211
 40
12.89180514889711
 40
13.19098122336221
 40
13.49382067910386
 40
13.79663296295088
 40
14.10284816403278
 40
14.40904080660005
 40
14.71798008194765
 40
15.02690336567525
 40
15.33760642336685
 40
15.64830121977149
 40
15.9596117687273
 40
16.27092231768307
 40
16.58161711408773
 40
16.89232017177937
 40
17.20124345550702
 40
17.51018273085468
 40
17.81637537342193
 40
18.12259057450379
 40
18.42540285835082
 40
18.72824231409249
 40
19.02741838855772
 40
19.32662339323367
 40
19.62234501093118
 40
19.91809365217915
 40
20.21097226626207
 40
20.50387197182474
 40
20.79488328431664
 40
21.08590619969853
 40
21.37627043760546
 40
21.66663467551238
 40
21.66663467551238
 40
21.66663467551238
 40
21.66663467551238
 10
385.3468344832896
 20
236.9196767590902
 30
0.0
 10
385.2504594245727
 20
236.9080010912889
 30
0.0
 10
385.0577131495482
 20
236.8846502211873
 30
0.0
 10
384.7737766402833
 20
236.8152942277368
 30
0.0
 10
384.4965123744246
 20
236.7218514701613
 30
0.0
 10
384.2277599905743
 20
236.601944484184
 30
0.0
 10
383.9701146070547
 20
236.4578989789969
 30
0.0
 10
383.7248876598197
 20
236.2898323781515
 30
0.0
 10
383.4946243037626
 20
236.0999976450774
 30
0.0
 10
383.2803920952468
 20
235.8888615164103
 30
0.0
 10
383.084437666484
 20
235.6590819127761
 30
0.0
 10
382.9076803228634
 20
235.411353380552
 30
0.0
 10
382.751909488896
 20
235.1486211407182
 30
0.0
 10
382.6179410715271
 20
234.8718701290762
 30
0.0
 10
382.5070180402416
 20
234.5841381513126
 30
0.0
 10
382.4198412478702
 20
234.2867847048898
 30
0.0
 10
382.3570932377775
 20
233.9827387087467
 30
0.0
 10
382.3192928585651
 20
233.6737971129926
 30
0.0
 10
382.3066157850769
 20
233.36260750769
 30
0.0
 10
382.3192928585647
 20
233.0514179023816
 30
0.0
 10
382.3570932377786
 20
232.7424763066445
 30
0.0
 10
382.4198412478658
 20
232.4384303104397
 30
0.0
 10
382.5070180402587
 20
232.141076864246
 30
0.0
 10
382.6179410714639
 20
231.8533448856311
 30
0.0
 10
382.7519094891293
 20
231.576593877139
 30
0.0
 10
382.9076803219967
 20
231.3138616256148
 30
0.0
 10
383.0844376696782
 20
231.0661331365566
 30
0.0
 10
383.2803920833811
 20
230.8363533728357
 30
0.0
 10
383.4946243474525
 20
230.625217834728
 30
0.0
 10
383.7248874974867
 20
230.4353809116004
 30
0.0
 10
383.9701152050819
 20
230.2673223935055
 30
0.0
 10
384.2277577667616
 20
230.1232468917128
 30
0.0
 10
384.4965205846526
 20
230.0034508212329
 30
0.0
 10
384.7737460703449
 20
229.9095958243916
 30
0.0
 10
385.0578264238476
 20
229.8417689178018
 30
0.0
 10
385.3461939043605
 20
229.801073956178
 30
0.0
 10
385.6368779380399
 20
229.7873081626132
 30
0.0
 10
385.9275619717196
 20
229.801073956178
 30
0.0
 10
386.2159294522325
 20
229.8417689178016
 30
0.0
 10
386.500009805735
 20
229.9095958243915
 30
0.0
 10
386.7772352914274
 20
230.0034508212328
 30
0.0
 10
387.0459981093187
 20
230.1232468917127
 30
0.0
 10
387.3036406709982
 20
230.2673223935055
 30
0.0
 10
387.5488683785933
 20
230.4353809116004
 30
0.0
 10
387.7791315286278
 20
230.625217834728
 30
0.0
 10
387.9933637926989
 20
230.8363533728358
 30
0.0
 10
388.1893182064018
 20
231.0661331365565
 30
0.0
 10
388.3660755540833
 20
231.3138616256149
 30
0.0
 10
388.5218463869507
 20
231.576593877139
 30
0.0
 10
388.6558148046161
 20
231.8533448856312
 30
0.0
 10
388.7667378358214
 20
232.141076864246
 30
0.0
 10
388.8539146282143
 20
232.4384303104397
 30
0.0
 10
388.9166626383014
 20
232.7424763066444
 30
0.0
 10
388.9544630175152
 20
233.0514179023819
 30
0.0
 10
388.9671400910031
 20
233.3626075076891
 30
0.0
 10
388.9544630175152
 20
233.6737971129958
 30
0.0
 10
388.9166626383013
 20
233.9827387087346
 30
0.0
 10
388.8539146282146
 20
234.286784704935
 30
0.0
 10
388.7667378358201
 20
234.5841381511452
 30
0.0
 10
388.6558148046207
 20
234.871870129699
 30
0.0
 10
388.5218463869339
 20
235.148621138417
 30
0.0
 10
388.3660755541455
 20
235.4113533891029
 30
0.0
 10
388.1893182061728
 20
235.6590818812567
 30
0.0
 10
387.9933637935498
 20
235.8888616334968
 30
0.0
 10
387.7791315254945
 20
236.0999972139566
 30
0.0
 10
387.5488683902349
 20
236.289833980025
 30
0.0
 10
387.3036406281107
 20
236.4578930777724
 30
0.0
 10
387.0459982687988
 20
236.601966428366
 30
0.0
 10
386.7772347026329
 20
236.721770453123
 30
0.0
 10
386.5000119980504
 20
236.8155958863282
 30
0.0
 10
386.2159213287944
 20
236.8835324510005
 30
0.0
 10
385.9275922677232
 20
236.9238190079168
 30
0.0
 10
385.6367651550575
 20
236.939105753601
 30
0.0
 10
385.4434780405456
 20
236.9261530905939
 30
0.0
 10
385.3468344832896
 20
236.9196767590902
 30
0.0
 11
385.3468344832896
 21
236.9196767590902
 31
0.0
 11
385.0586749870147
 21
236.8789527860038
 31
0.0
 11
384.7755927806322
 21
236.8114839159384
 31
0.0
 11
384.4981687380884
 21
236.7175363872996
 31
0.0
 11
384.230606985971
 21
236.5984205135002
 31
0.0
 11
383.9724746172557
 21
236.454077384043
 31
0.0
 11
383.7284619646446
 21
236.2870172136273
 31
0.0
 11
383.4975824591138
 21
236.0967061820266
 31
0.0
 11
383.2844071641626
 21
235.8867952076711
 31
0.0
 11
383.0878728401544
 21
235.6563912245446
 31
0.0
 11
382.9118993043547
 21
235.4099595018569
 31
0.0
 11
382.7557021638818
 21
235.1465772650191
 31
0.0
 11
382.6222064759176
 21
234.8710181322412
 31
0.0
 11
382.5110565503605
 21
234.5827662113439
 31
0.0
 11
382.4240798963342
 21
234.2863397333034
 31
0.0
 11
382.3612748220128
 21
233.9820505407605
 31
0.0
 11
382.3234994603411
 21
233.67366072484
 31
0.0
 11
382.3108442641275
 21
233.3626075076891
 31
0.0
 11
382.3234994603411
 21
233.0515542905381
 31
0.0
 11
382.3612748220127
 21
232.7431644746175
 31
0.0
 11
382.4240798963342
 21
232.4388752820747
 31
0.0
 11
382.5110565503605
 21
232.1424488040344
 31
0.0
 11
382.6222064759177
 21
231.8541968831371
 31
0.0
 11
382.7557021638819
 21
231.5786377503592
 31
0.0
 11
382.9118993043547
 21
231.3152555135214
 31
0.0
 11
383.0878728401544
 21
231.0688237908336
 31
0.0
 11
383.2844071641625
 21
230.8384198077071
 31
0.0
 11
383.4975824591139
 21
230.6285088333517
 31
0.0
 11
383.7284619646446
 21
230.4381978017509
 31
0.0
 11
383.9724746172558
 21
230.2711376313353
 31
0.0
 11
384.230606985971
 21
230.1267945018781
 31
0.0
 11
384.4981687380885
 21
230.0076786280786
 31
0.0
 11
384.7755927806322
 21
229.9137310994398
 31
0.0
 11
385.0586749870147
 21
229.8462622293745
 31
0.0
 11
385.3468344832896
 21
229.805538256288
 31
0.0
 11
385.63687793804
 21
229.7918932934177
 31
0.0
 11
385.9269213927904
 21
229.8055382562879
 31
0.0
 11
386.2150808890653
 21
229.8462622293743
 31
0.0
 11
386.4981630954478
 21
229.9137310994397
 31
0.0
 11
386.7755871379916
 21
230.0076786280786
 31
0.0
 11
387.0431488901091
 21
230.126794501878
 31
0.0
 11
387.3012812588243
 21
230.2711376313352
 31
0.0
 11
387.5452939114354
 21
230.438197801751
 31
0.0
 11
387.7761734169663
 21
230.6285088333518
 31
0.0
 11
387.9893487119175
 21
230.8384198077072
 31
0.0
 11
388.1858830359257
 21
231.0688237908336
 31
0.0
 11
388.3618565717253
 21
231.3152555135214
 31
0.0
 11
388.5180537121982
 21
231.5786377503592
 31
0.0
 11
388.6515494001624
 21
231.8541968831371
 31
0.0
 11
388.7626993257195
 21
232.1424488040343
 31
0.0
 11
388.8496759797458
 21
232.4388752820747
 31
0.0
 11
388.9124810540673
 21
232.7431644746176
 31
0.0
 11
388.950256415739
 21
233.0515542905381
 31
0.0
 11
388.9629116119526
 21
233.3626075076891
 31
0.0
 11
388.950256415739
 21
233.67366072484
 31
0.0
 11
388.9124810540673
 21
233.9820505407605
 31
0.0
 11
388.8496759797458
 21
234.2863397333034
 31
0.0
 11
388.7626993257194
 21
234.5827662113438
 31
0.0
 11
388.6515494001624
 21
234.8710181322412
 31
0.0
 11
388.5180537121982
 21
235.146577265019
 31
0.0
 11
388.3618565717254
 21
235.4099595018569
 31
0.0
 11
388.1858830359257
 21
235.6563912245446
 31
0.0
 11
387.9893487119175
 21
235.8867952076711
 31
0.0
 11
387.7761734169662
 21
236.0967061820265
 31
0.0
 11
387.5452939114354
 21
236.2870172136273
 31
0.0
 11
387.3012812588243
 21
236.454077384043
 31
0.0
 11
387.043148890109
 21
236.5984205135002
 31
0.0
 11
386.7755871379916
 21
236.7175363872996
 31
0.0
 11
386.4981630954478
 21
236.8114839159384
 31
0.0
 11
386.2150808890654
 21
236.8789527860038
 31
0.0
 11
385.9269213927904
 21
236.9196767590902
 31
0.0
 11
385.63687793804
 21
236.9333217219605
 31
0.0
 11
385.3468344832896
 21
236.9196767590902
 31
0.0
  0
SPLINE
  5
27A
330
56
100
AcDbEntity
  8
1
  6
Continuous
 62
     7
100
AcDbSpline
210
0.0
220
0.0
230
1.0
 70
    11
 71
     3
 72
    79
 73
    75
 74
    73
 42
0.0000000001
 43
0.0000000001
 44
0.00000001
 40
0.0
 40
0.0
 40
0.0
 40
0.0
 40
0.3172897010522339
 40
0.6344527337452005
 40
0.9639951214197264
 40
1.293341433534109
 40
1.640804573045488
 40
1.988067407882269
 40
2.356350230160792
 40
2.724465171366007
 40
3.113717605428389
 40
3.502844193081674
 40
3.910846852994228
 40
4.318762697990676
 40
4.741448997649079
 40
5.164081544475902
 40
5.596084837541838
 40
6.028062544006515
 40
6.463247851975783
 40
6.89843315994508
 40
7.330410866409785
 40
7.762414159475795
 40
8.185046706302625
 40
8.607733005960888
 40
9.015648850957243
 40
9.42365151086986
 40
9.812778098523285
 40
10.20203053258571
 40
10.57014547379092
 40
10.93842829606938
 40
11.2856911309061
 40
11.63315427041746
 40
11.96250058253186
 40
12.2920429702064
 40
12.60920600289936
 40
12.9264957039516
 40
13.23937159641129
 40
13.55224748887103
 40
13.86953718992323
 40
14.1867002226161
 40
14.51624261029061
 40
14.84558892240506
 40
15.19305206191652
 40
15.54031489675331
 40
15.90859771903181
 40
16.27671266023702
 40
16.66596509429944
 40
17.05509168195276
 40
17.4630943418653
 40
17.87101018686175
 40
18.29369648652009
 40
18.71632903334695
 40
19.14833232641291
 40
19.5803100328776
 40
20.01549534084689
 40
20.45068064881619
 40
20.88265835528082
 40
21.31466164834678
 40
21.73729419517364
 40
22.15998049483197
 40
22.56789633982839
 40
22.97589899974097
 40
23.36502558739432
 40
23.7542780214567
 40
24.12239296266191
 40
24.49067578494037
 40
24.83793861977711
 40
25.18540175928847
 40
25.51474807140298
 40
25.84429045907751
 40
26.16145349177051
 40
26.47874319282271
 40
26.79161908528243
 40
27.10449497774215
 40
27.10449497774215
 40
27.10449497774215
 40
27.10449497774215
 10
150.4931833483572
 20
233.6748851559603
 30
0.0
 10
150.4766180238201
 20
233.7794800515918
 30
0.0
 10
150.4434939879531
 20
233.988628086492
 30
0.0
 10
150.3447374793853
 20
234.2955992970424
 30
0.0
 10
150.2130239856748
 20
234.5936724249719
 30
0.0
 10
150.0430596189313
 20
234.883684737805
 30
0.0
 10
149.8408104809838
 20
235.1593936665775
 30
0.0
 10
149.6035879107063
 20
235.4233165522949
 30
0.0
 10
149.3380050686034
 20
235.6688935541334
 30
0.0
 10
149.0410131033621
 20
235.8989113484923
 30
0.0
 10
148.720292226901
 20
236.107503691863
 30
0.0
 10
148.3727379254978
 20
236.2969353615318
 30
0.0
 10
148.0064275671371
 20
236.462631670286
 30
0.0
 10
147.6189138590805
 20
236.6060131298876
 30
0.0
 10
147.2178431694666
 20
236.7239947100167
 30
0.0
 10
146.8020993807617
 20
236.8172173982365
 30
0.0
 10
146.3781562708407
 20
236.8839540853417
 30
0.0
 10
145.9467113614264
 20
236.9243907926016
 30
0.0
 10
145.5125222850598
 20
236.937803704216
 30
0.0
 10
145.0783332086817
 20
236.9243907926025
 30
0.0
 10
144.6468882993016
 20
236.8839540853384
 30
0.0
 10
144.2229451892564
 20
236.8172173982485
 30
0.0
 10
143.8072014010046
 20
236.7239947099725
 30
0.0
 10
143.4061307097275
 20
236.6060131300496
 30
0.0
 10
143.0186170076709
 20
236.4626316697047
 30
0.0
 10
142.6523066274243
 20
236.2969353636622
 30
0.0
 10
142.3047524040997
 20
236.1075036843191
 30
0.0
 10
141.9840312443091
 20
235.8989113760542
 30
0.0
 10
141.6870402818908
 20
235.6688934574407
 30
0.0
 10
141.4214538104637
 20
235.4233169052929
 30
0.0
 10
141.1842440518352
 20
235.1593924321505
 30
0.0
 10
140.98194849387
 20
234.8836892550419
 30
0.0
 10
140.8121488192082
 20
234.5936565360659
 30
0.0
 10
140.6798349489927
 20
234.2956577976797
 30
0.0
 10
140.5832395788405
 20
233.9884188116616
 30
0.0
 10
140.5258144463498
 20
233.6771179499942
 30
0.0
 10
140.5059227549189
 20
233.3626075076892
 30
0.0
 10
140.5258144463498
 20
233.0480970653843
 30
0.0
 10
140.5832395788405
 20
232.7367962037168
 30
0.0
 10
140.6798349489926
 20
232.4295572176989
 30
0.0
 10
140.8121488192081
 20
232.1315584793125
 30
0.0
 10
140.98194849387
 20
231.8415257603366
 30
0.0
 10
141.1842440518352
 20
231.5658225832278
 30
0.0
 10
141.4214538104637
 20
231.3018981100855
 30
0.0
 10
141.6870402818908
 20
231.0563215579376
 30
0.0
 10
141.9840312443092
 20
230.8263036393242
 30
0.0
 10
142.3047524040996
 20
230.6177113310593
 30
0.0
 10
142.6523066274243
 20
230.4282796517162
 30
0.0
 10
143.0186170076709
 20
230.2625833456738
 30
0.0
 10
143.4061307097275
 20
230.1192018853289
 30
0.0
 10
143.8072014010046
 20
230.0012203054059
 30
0.0
 10
144.2229451892565
 20
229.9079976171298
 30
0.0
 10
144.6468882993015
 20
229.8412609300397
 30
0.0
 10
145.0783332086822
 20
229.800824222776
 30
0.0
 10
145.512522285058
 20
229.7874113111628
 30
0.0
 10
145.9467113614331
 20
229.8008242227758
 30
0.0
 10
146.3781562708162
 20
229.8412609300401
 30
0.0
 10
146.8020993808523
 20
229.9079976171289
 30
0.0
 10
147.2178431691365
 20
230.0012203054091
 30
0.0
 10
147.618913860295
 20
230.1192018853174
 30
0.0
 10
148.0064275627794
 20
230.2625833457152
 30
0.0
 10
148.3727379414657
 20
230.4282796515644
 30
0.0
 10
148.7202921703566
 20
230.6177113315971
 30
0.0
 10
149.0410133099485
 20
230.8263036373592
 30
0.0
 10
149.3380043438585
 20
231.056321564831
 30
0.0
 10
149.6035905565495
 20
231.30189808492
 30
0.0
 10
149.8408012285257
 20
231.5658226712306
 30
0.0
 10
150.0430934771893
 20
231.8415254383008
 30
0.0
 10
150.2129048928152
 20
232.1315596120388
 30
0.0
 10
150.3451759619511
 20
232.429553047165
 30
0.0
 10
150.4419254005194
 20
232.7368111230026
 30
0.0
 10
150.4987826186008
 20
233.0480416173371
 30
0.0
 10
150.5207662128599
 20
233.3628112564865
 30
0.0
 10
150.5023776365248
 20
233.5708605228024
 30
0.0
 10
150.4931833483572
 20
233.6748851559603
 30
0.0
 11
150.4931833483572
 21
233.6748851559603
 31
0.0
 11
150.4355160694844
 21
233.9868903471691
 31
0.0
 11
150.3409504142548
 21
234.2896274049569
 31
0.0
 11
150.2074024733367
 21
234.5908966080806
 31
0.0
 11
150.041535271522
 21
234.8754261578034
 31
0.0
 11
149.8363105627308
 21
235.1558070633956
 31
0.0
 11
149.6045849169149
 21
235.4144471637862
 31
0.0
 11
149.3345084572307
 21
235.6648287587765
 31
0.0
 11
149.0437451541302
 21
235.8905837399145
 31
0.0
 11
148.7176850843233
 21
236.1031920377323
 31
0.0
 11
148.3761730042762
 21
236.2897101344431
 31
0.0
 11
148.0045889522938
 21
236.4582077985458
 31
0.0
 11
147.6220995530058
 21
236.5999723781539
 31
0.0
 11
147.2166735729115
 21
236.7195277317919
 31
0.0
 11
146.804308720432
 21
236.8121209177014
 31
0.0
 11
146.3775882485493
 21
236.8794743444594
 31
0.0
 11
145.9474977661219
 21
236.9198093888724
 31
0.0
 11
145.5125222850579
 21
236.9333217219605
 31
0.0
 11
145.0775468039939
 21
236.9198093888724
 31
0.0
 11
144.6474563215664
 21
236.8794743444594
 31
0.0
 11
144.2207358496837
 21
236.8121209177013
 31
0.0
 11
143.8083709972042
 21
236.7195277317918
 31
0.0
 11
143.40294501711
 21
236.5999723781539
 31
0.0
 11
143.0204556178221
 21
236.4582077985459
 31
0.0
 11
142.6488715658396
 21
236.2897101344432
 31
0.0
 11
142.3073594857925
 21
236.1031920377322
 31
0.0
 11
141.9812994159855
 21
235.8905837399145
 31
0.0
 11
141.690536112885
 21
235.6648287587764
 31
0.0
 11
141.4204596532009
 21
235.4144471637861
 31
0.0
 11
141.188734007385
 21
235.1558070633956
 31
0.0
 11
140.9835092985938
 21
234.8754261578034
 31
0.0
 11
140.8176420967791
 21
234.5908966080805
 31
0.0
 11
140.684094155861
 21
234.2896274049569
 31
0.0
 11
140.5895285006313
 21
233.9868903471691
 31
0.0
 11
140.5318612217586
 21
233.6748851559603
 31
0.0
 11
140.5125222850579
 21
233.3626075076892
 31
0.0
 11
140.5318612217586
 21
233.0503298594181
 31
0.0
 11
140.5895285006313
 21
232.7383246682093
 31
0.0
 11
140.6840941558609
 21
232.4355876104216
 31
0.0
 11
140.817642096779
 21
232.134318407298
 31
0.0
 11
140.9835092985938
 21
231.8497888575751
 31
0.0
 11
141.188734007385
 21
231.5694079519828
 31
0.0
 11
141.4204596532009
 21
231.3107678515922
 31
0.0
 11
141.690536112885
 21
231.0603862566019
 31
0.0
 11
141.9812994159855
 21
230.8346312754638
 31
0.0
 11
142.3073594857925
 21
230.6220229776461
 31
0.0
 11
142.6488715658396
 21
230.4355048809352
 31
0.0
 11
143.020455617822
 21
230.2670072168327
 31
0.0
 11
143.40294501711
 21
230.1252426372246
 31
0.0
 11
143.8083709972042
 21
230.0056872835866
 31
0.0
 11
144.2207358496838
 21
229.913094097677
 31
0.0
 11
144.6474563215664
 21
229.8457406709189
 31
0.0
 11
145.0775468039939
 21
229.8054056265061
 31
0.0
 11
145.5125222850579
 21
229.791893293418
 31
0.0
 11
145.9474977661219
 21
229.8054056265061
 31
0.0
 11
146.3775882485493
 21
229.8457406709189
 31
0.0
 11
146.804308720432
 21
229.913094097677
 31
0.0
 11
147.2166735729115
 21
230.0056872835866
 31
0.0
 11
147.6220995530057
 21
230.1252426372246
 31
0.0
 11
148.0045889522937
 21
230.2670072168327
 31
0.0
 11
148.3761730042762
 21
230.4355048809353
 31
0.0
 11
148.7176850843233
 21
230.6220229776461
 31
0.0
 11
149.0437451541303
 21
230.8346312754638
 31
0.0
 11
149.3345084572307
 21
231.0603862566019
 31
0.0
 11
149.6045849169149
 21
231.3107678515922
 31
0.0
 11
149.8363105627308
 21
231.5694079519827
 31
0.0
 11
150.0415352715219
 21
231.8497888575749
 31
0.0
 11
150.2074024733367
 21
232.1343184072979
 31
0.0
 11
150.3409504142549
 21
232.4355876104215
 31
0.0
 11
150.4355160694845
 21
232.7383246682093
 31
0.0
 11
150.4931833483572
 21
233.0503298594181
 31
0.0
 11
150.5125222850579
 21
233.3626075076892
 31
0.0
 11
150.4931833483572
 21
233.6748851559603
 31
0.0
  0
SPLINE
  5
27B
330
56
100
AcDbEntity
  8
1
  6
Continuous
 62
     7
100
AcDbSpline
210
0.0
220
0.0
230
1.0
 70
    11
 71
     3
 72
    79
 73
    75
 74
    73
 42
0.0000000001
 43
0.0000000001
 44
0.00000001
 40
0.0
 40
0.0
 40
0.0
 40
0.0
 40
0.3172897010522442
 40
0.6344527337451938
 40
0.9639951214197544
 40
1.293341433534151
 40
1.640804573045547
 40
1.988067407882271
 40
2.356350230160794
 40
2.724465171365986
 40
3.113717605428392
 40
3.502844193081702
 40
3.910846852994282
 40
4.31876269799073
 40
4.741448997649079
 40
5.164081544475847
 40
5.59608483754181
 40
6.028062544006487
 40
6.463247851975784
 40
6.898433159945081
 40
7.330410866409758
 40
7.762414159475767
 40
8.185046706302625
 40
8.607733005960915
 40
9.015648850957323
 40
9.423651510869915
 40
9.812778098523291
 40
10.20203053258566
 40
10.57014547379092
 40
10.93842829606938
 40
11.2856911309061
 40
11.63315427041746
 40
11.96250058253189
 40
12.29204297020644
 40
12.60920600289941
 40
12.92649570395164
 40
13.23937159641133
 40
13.55224748887107
 40
13.86953718992328
 40
14.18670022261614
 40
14.51624261029064
 40
14.84558892240511
 40
15.19305206191661
 40
15.54031489675338
 40
15.90859771903192
 40
16.27671266023713
 40
16.6659650942995
 40
17.05509168195282
 40
17.46309434186539
 40
17.87101018686181
 40
18.2936964865202
 40
18.71632903334706
 40
19.14833232641302
 40
19.58031003287762
 40
20.01549534084689
 40
20.45068064881619
 40
20.88265835528088
 40
21.31466164834689
 40
21.73729419517373
 40
22.15998049483203
 40
22.56789633982845
 40
22.97589899974098
 40
23.3650255873943
 40
23.75427802145666
 40
24.12239296266191
 40
24.49067578494041
 40
24.83793861977715
 40
25.18540175928855
 40
25.51474807140303
 40
25.84429045907755
 40
26.16145349177053
 40
26.47874319282275
 40
26.79161908528246
 40
27.10449497774218
 40
27.10449497774218
 40
27.10449497774218
 40
27.10449497774218
 10
154.5318612217586
 20
233.6748851559603
 30
0.0
 10
154.5484265462957
 20
233.7794800515918
 30
0.0
 10
154.5815505821628
 20
233.9886280864919
 30
0.0
 10
154.6803070907305
 20
234.2955992970424
 30
0.0
 10
154.812020584441
 20
234.5936724249718
 30
0.0
 10
154.9819849511846
 20
234.883684737805
 30
0.0
 10
155.1842340891321
 20
235.1593936665774
 30
0.0
 10
155.4214566594096
 20
235.423316552295
 30
0.0
 10
155.6870395015124
 20
235.6688935541334
 30
0.0
 10
155.9840314667536
 20
235.8989113484923
 30
0.0
 10
156.3047523432149
 20
236.107503691863
 30
0.0
 10
156.652306644618
 20
236.2969353615317
 30
0.0
 10
157.0186170029788
 20
236.4626316702861
 30
0.0
 10
157.4061307110354
 20
236.6060131298876
 30
0.0
 10
157.8072014006492
 20
236.7239947100167
 30
0.0
 10
158.2229451893541
 20
236.8172173982365
 30
0.0
 10
158.6468882992751
 20
236.8839540853416
 30
0.0
 10
159.0783332086893
 20
236.9243907926017
 30
0.0
 10
159.512522285056
 20
236.937803704216
 30
0.0
 10
159.9467113614341
 20
236.9243907926025
 30
0.0
 10
160.3781562708143
 20
236.8839540853384
 30
0.0
 10
160.8020993808594
 20
236.8172173982485
 30
0.0
 10
161.2178431691113
 20
236.7239947099725
 30
0.0
 10
161.6189138603884
 20
236.6060131300497
 30
0.0
 10
162.0064275624449
 20
236.4626316697048
 30
0.0
 10
162.3727379426916
 20
236.2969353636622
 30
0.0
 10
162.7202921660161
 20
236.107503684319
 30
0.0
 10
163.0410133258067
 20
235.8989113760542
 30
0.0
 10
163.3380042882251
 20
235.6688934574407
 30
0.0
 10
163.603590759652
 20
235.4233169052929
 30
0.0
 10
163.8408005182806
 20
235.1593924321506
 30
0.0
 10
164.0430960762458
 20
234.8836892550419
 30
0.0
 10
164.2128957509077
 20
234.5936565360661
 30
0.0
 10
164.3452096211233
 20
234.2956577976797
 30
0.0
 10
164.4418049912754
 20
233.9884188116617
 30
0.0
 10
164.499230123766
 20
233.677117949994
 30
0.0
 10
164.5191218151971
 20
233.3626075076893
 30
0.0
 10
164.499230123766
 20
233.0480970653843
 30
0.0
 10
164.4418049912754
 20
232.7367962037168
 30
0.0
 10
164.3452096211233
 20
232.4295572176988
 30
0.0
 10
164.2128957509079
 20
232.1315584793126
 30
0.0
 10
164.0430960762458
 20
231.8415257603365
 30
0.0
 10
163.8408005182806
 20
231.5658225832279
 30
0.0
 10
163.6035907596521
 20
231.3018981100854
 30
0.0
 10
163.338004288225
 20
231.0563215579376
 30
0.0
 10
163.0410133258067
 20
230.8263036393242
 30
0.0
 10
162.7202921660162
 20
230.6177113310592
 30
0.0
 10
162.3727379426915
 20
230.4282796517162
 30
0.0
 10
162.0064275624449
 20
230.2625833456738
 30
0.0
 10
161.6189138603883
 20
230.1192018853288
 30
0.0
 10
161.2178431691113
 20
230.001220305406
 30
0.0
 10
160.8020993808593
 20
229.9079976171298
 30
0.0
 10
160.3781562708143
 20
229.8412609300399
 30
0.0
 10
159.9467113614337
 20
229.8008242227759
 30
0.0
 10
159.5125222850578
 20
229.7874113111628
 30
0.0
 10
159.0783332086828
 20
229.8008242227759
 30
0.0
 10
158.6468882992996
 20
229.8412609300401
 30
0.0
 10
158.2229451892635
 20
229.907997617129
 30
0.0
 10
157.8072014009793
 20
230.0012203054092
 30
0.0
 10
157.4061307098208
 20
230.1192018853173
 30
0.0
 10
157.0186170073365
 20
230.2625833457153
 30
0.0
 10
156.6523066286501
 20
230.4282796515644
 30
0.0
 10
156.3047523997593
 20
230.6177113315971
 30
0.0
 10
155.9840312601675
 20
230.8263036373593
 30
0.0
 10
155.6870402262574
 20
231.0563215648309
 30
0.0
 10
155.4214540135662
 20
231.30189808492
 30
0.0
 10
155.1842433415903
 20
231.5658226712306
 30
0.0
 10
154.9819510929264
 20
231.8415254383008
 30
0.0
 10
154.8121396773007
 20
232.1315596120388
 30
0.0
 10
154.6798686081647
 20
232.429553047165
 30
0.0
 10
154.5831191695966
 20
232.7368111230026
 30
0.0
 10
154.5262619515149
 20
233.0480416173372
 30
0.0
 10
154.504278357256
 20
233.3628112564865
 30
0.0
 10
154.522666933591
 20
233.5708605228024
 30
0.0
 10
154.5318612217586
 20
233.6748851559603
 30
0.0
 11
154.5318612217586
 21
233.6748851559603
 31
0.0
 11
154.5895285006314
 21
233.9868903471691
 31
0.0
 11
154.684094155861
 21
234.2896274049569
 31
0.0
 11
154.8176420967791
 21
234.5908966080806
 31
0.0
 11
154.9835092985939
 21
234.8754261578034
 31
0.0
 11
155.1887340073851
 21
235.1558070633956
 31
0.0
 11
155.420459653201
 21
235.4144471637862
 31
0.0
 11
155.6905361128852
 21
235.6648287587765
 31
0.0
 11
155.9812994159856
 21
235.8905837399145
 31
0.0
 11
156.3073594857926
 21
236.1031920377323
 31
0.0
 11
156.6488715658396
 21
236.2897101344431
 31
0.0
 11
157.0204556178221
 21
236.4582077985458
 31
0.0
 11
157.4029450171101
 21
236.5999723781539
 31
0.0
 11
157.8083709972043
 21
236.7195277317919
 31
0.0
 11
158.2207358496838
 21
236.8121209177014
 31
0.0
 11
158.6474563215665
 21
236.8794743444594
 31
0.0
 11
159.0775468039939
 21
236.9198093888724
 31
0.0
 11
159.5125222850579
 21
236.9333217219605
 31
0.0
 11
159.9474977661219
 21
236.9198093888724
 31
0.0
 11
160.3775882485494
 21
236.8794743444594
 31
0.0
 11
160.8043087204321
 21
236.8121209177013
 31
0.0
 11
161.2166735729117
 21
236.7195277317918
 31
0.0
 11
161.6220995530058
 21
236.5999723781539
 31
0.0
 11
162.0045889522938
 21
236.4582077985459
 31
0.0
 11
162.3761730042763
 21
236.2897101344432
 31
0.0
 11
162.7176850843234
 21
236.1031920377322
 31
0.0
 11
163.0437451541303
 21
235.8905837399145
 31
0.0
 11
163.3345084572308
 21
235.6648287587764
 31
0.0
 11
163.6045849169149
 21
235.4144471637861
 31
0.0
 11
163.8363105627308
 21
235.1558070633956
 31
0.0
 11
164.041535271522
 21
234.8754261578034
 31
0.0
 11
164.2074024733368
 21
234.5908966080805
 31
0.0
 11
164.340950414255
 21
234.2896274049569
 31
0.0
 11
164.4355160694846
 21
233.9868903471691
 31
0.0
 11
164.4931833483573
 21
233.6748851559603
 31
0.0
 11
164.512522285058
 21
233.3626075076892
 31
0.0
 11
164.4931833483573
 21
233.0503298594181
 31
0.0
 11
164.4355160694846
 21
232.7383246682093
 31
0.0
 11
164.340950414255
 21
232.4355876104216
 31
0.0
 11
164.2074024733369
 21
232.134318407298
 31
0.0
 11
164.0415352715221
 21
231.8497888575751
 31
0.0
 11
163.8363105627308
 21
231.5694079519828
 31
0.0
 11
163.6045849169149
 21
231.3107678515922
 31
0.0
 11
163.3345084572307
 21
231.0603862566019
 31
0.0
 11
163.0437451541303
 21
230.8346312754638
 31
0.0
 11
162.7176850843234
 21
230.6220229776461
 31
0.0
 11
162.3761730042763
 21
230.4355048809352
 31
0.0
 11
162.0045889522938
 21
230.2670072168327
 31
0.0
 11
161.6220995530058
 21
230.1252426372246
 31
0.0
 11
161.2166735729115
 21
230.0056872835866
 31
0.0
 11
160.804308720432
 21
229.913094097677
 31
0.0
 11
160.3775882485493
 21
229.8457406709189
 31
0.0
 11
159.9474977661219
 21
229.8054056265061
 31
0.0
 11
159.512522285058
 21
229.791893293418
 31
0.0
 11
159.077546803994
 21
229.8054056265061
 31
0.0
 11
158.6474563215665
 21
229.8457406709189
 31
0.0
 11
158.2207358496838
 21
229.913094097677
 31
0.0
 11
157.8083709972043
 21
230.0056872835866
 31
0.0
 11
157.4029450171101
 21
230.1252426372246
 31
0.0
 11
157.0204556178221
 21
230.2670072168327
 31
0.0
 11
156.6488715658397
 21
230.4355048809353
 31
0.0
 11
156.3073594857926
 21
230.6220229776461
 31
0.0
 11
155.9812994159856
 21
230.8346312754638
 31
0.0
 11
155.6905361128852
 21
231.0603862566019
 31
0.0
 11
155.420459653201
 21
231.3107678515922
 31
0.0
 11
155.188734007385
 21
231.5694079519827
 31
0.0
 11
154.9835092985938
 21
231.8497888575749
 31
0.0
 11
154.8176420967791
 21
232.1343184072979
 31
0.0
 11
154.684094155861
 21
232.4355876104215
 31
0.0
 11
154.5895285006314
 21
232.7383246682093
 31
0.0
 11
154.5318612217586
 21
233.0503298594181
 31
0.0
 11
154.5125222850579
 21
233.3626075076892
 31
0.0
 11
154.5318612217586
 21
233.6748851559603
 31
0.0
  0
ARC
  5
27C
330
56
100
AcDbEntity
  8
1
  6
Continuous
 62
     7
100
AcDbCircle
 10
142.7445730926268
 20
228.5050705431307
 30
0.0
 40
0.9999999999999335
100
AcDbArc
 50
-137.0585971351258
 51
-90.0
  0
ARC
  5
27D
330
56
100
AcDbEntity
  8
1
  6
Continuous
 62
     7
100
AcDbCircle
 10
142.7445730926268
 20
228.5050705431307
 30
0.0
 40
1.000000000000058
100
AcDbArc
 50
-150.0000000000019
 51
-137.0585971351258
  0
ARC
  5
27E
330
56
100
AcDbEntity
  8
1
  6
Continuous
 62
     7
100
AcDbCircle
 10
141.0125222850579
 20
227.5050705431307
 30
0.0
 40
0.9999999999999589
100
AcDbArc
 50
30.00000000000136
 51
90.0
  0
ARC
  5
27F
330
56
100
AcDbEntity
  8
1
  6
Continuous
 62
     7
100
AcDbCircle
 10
140.9545012233273
 20
229.5050705431307
 30
0.0
 40
0.9999999999999117
100
AcDbArc
 50
-105.3375576695585
 51
-90.0
  0
ARC
  5
280
330
56
100
AcDbEntity
  8
1
  6
Continuous
 62
     7
100
AcDbCircle
 10
162.280471477489
 20
228.5050705431307
 30
0.0
 40
1.0
100
AcDbArc
 50
-90.0
 51
-42.94140286487311
  0
ARC
  5
281
330
56
100
AcDbEntity
  8
1
  6
Continuous
 62
     7
100
AcDbCircle
 10
162.280471477489
 20
228.5050705431307
 30
0.0
 40
0.9999999999999544
100
AcDbArc
 50
-42.94140286487311
 51
-29.9999999999981
  0
ARC
  5
282
330
56
100
AcDbEntity
  8
1
  6
Continuous
 62
     7
100
AcDbCircle
 10
164.0125222850579
 20
227.5050705431307
 30
0.0
 40
1.0
100
AcDbArc
 50
90.0
 51
149.9999999999995
  0
ARC
  5
283
330
56
100
AcDbEntity
  8
1
  6
Continuous
 62
     7
100
AcDbCircle
 10
164.0705433467885
 20
229.5050705431307
 30
0.0
 40
1.0
100
AcDbArc
 50
-90.0
 51
-74.66244233044151
  0
ARC
  5
284
330
56
100
AcDbEntity
  8
1
  6
Continuous
 62
     7
100
AcDbCircle
 10
383.2804714774891
 20
228.5050705431307
 30
0.0
 40
1.0
100
AcDbArc
 50
-90.0
 51
-42.94140286487644
  0
ARC
  5
285
330
56
100
AcDbEntity
  8
1
  6
Continuous
 62
     7
100
AcDbCircle
 10
385.0705433467885
 20
229.5050705431307
 30
0.0
 40
1.0
100
AcDbArc
 50
-90.0
 51
-74.66244233043994
  0
ARC
  5
286
330
56
100
AcDbEntity
  8
1
  6
Continuous
 62
     7
100
AcDbCircle
 10
383.2804714774891
 20
228.5050705431307
 30
0.0
 40
0.9999999999998919
100
AcDbArc
 50
-42.94140286487644
 51
-30.00000000000054
  0
ARC
  5
287
330
56
100
AcDbEntity
  8
1
  6
Continuous
 62
     7
100
AcDbCircle
 10
385.0125222850579
 20
227.5050705431307
 30
0.0
 40
1.0
100
AcDbArc
 50
90.0
 51
149.9999999999995
  0
ARC
  5
288
330
56
100
AcDbEntity
  8
1
  6
Continuous
 62
     7
100
AcDbCircle
 10
363.7445730926268
 20
228.5050705431307
 30
0.0
 40
0.9999999999999335
100
AcDbArc
 50
-137.0585971351258
 51
-90.0
  0
ARC
  5
289
330
56
100
AcDbEntity
  8
1
  6
Continuous
 62
     7
100
AcDbCircle
 10
361.9545012233273
 20
229.5050705431307
 30
0.0
 40
0.9999999999998892
100
AcDbArc
 50
-105.3375576695538
 51
-90.0
  0
ARC
  5
28A
330
56
100
AcDbEntity
  8
1
  6
Continuous
 62
     7
100
AcDbCircle
 10
363.7445730926268
 20
228.5050705431307
 30
0.0
 40
1.000000000000082
100
AcDbArc
 50
-150.0000000000027
 51
-137.0585971351258
  0
ARC
  5
28B
330
56
100
AcDbEntity
  8
1
  6
Continuous
 62
     7
100
AcDbCircle
 10
362.0125222850579
 20
227.5050705431307
 30
0.0
 40
0.9999999999999344
100
AcDbArc
 50
30.00000000000217
 51
90.0
  0
ENDBLK
  5
58
330
56
100
AcDbEntity
  8
0
100
AcDbBlockEnd
  0
BLOCK
  5
5A
330
59
100
AcDbEntity
  8
0
100
AcDbBlockBegin
  2
60-7-170
 70
     0
 71
     0
 10
209.1125222850579
 20
146.8050705431307
 30
0.0
  3
60-7-170
  1

  0
LINE
  5
28C
330
59
100
AcDbEntity
  8
1
  6
Continuous
 62
     7
100
AcDbLine
 10
144.512522285058
 20
545.3553250084442
 30
0.0
 11
144.512522285058
 21
422.3962389380537
 31
0.0
  0
LINE
  5
28D
330
59
100
AcDbEntity
  8
1
  6
Continuous
 62
     7
100
AcDbLine
 10
160.512522285058
 20
545.3159361582304
 30
0.0
 11
160.512522285058
 21
422.3962389380537
 31
0.0
  0
LINE
  5
28E
330
59
100
AcDbEntity
  8
1
  6
Continuous
 62
     7
100
AcDbLine
 10
160.5125222850579
 20
227.5050705431307
 30
0.0
 11
160.5125222850579
 21
204.2664263640598
 31
0.0
  0
LINE
  5
28F
330
59
100
AcDbEntity
  8
1
  6
Continuous
 62
     7
100
AcDbLine
 10
346.5125222850579
 20
203.0050705431308
 30
0.0
 11
231.5125222850579
 21
203.0050705431308
 31
0.0
  0
LINE
  5
290
330
59
100
AcDbEntity
  8
1
  6
Continuous
 62
     7
100
AcDbLine
 10
346.5125222850579
 20
187.0050705431308
 30
0.0
 11
231.5125222850579
 21
187.0050705431308
 31
0.0
  0
LINE
  5
291
330
59
100
AcDbEntity
  8
1
  6
Continuous
 62
     7
100
AcDbLine
 10
381.5125222850579
 20
227.5050705431307
 30
0.0
 11
381.5125222850579
 21
222.0050705431307
 31
0.0
  0
LINE
  5
292
330
59
100
AcDbEntity
  8
1
  6
Continuous
 62
     7
100
AcDbLine
 10
365.5125222850579
 20
222.0050705431307
 30
0.0
 11
365.5125222850579
 21
227.5050705431307
 31
0.0
  0
LINE
  5
293
330
59
100
AcDbEntity
  8
1
  6
Continuous
 62
     7
100
AcDbLine
 10
144.512522285058
 20
204.2664263640598
 30
0.0
 11
144.5125222850579
 21
227.5050705431307
 31
0.0
  0
ARC
  5
294
330
59
100
AcDbEntity
  8
1
  6
Continuous
 62
     7
100
AcDbCircle
 10
346.5125222850579
 20
222.0050705431307
 30
0.0
 40
18.99999999999989
100
AcDbArc
 50
-90.0
 51
0.0
  0
ARC
  5
295
330
59
100
AcDbEntity
  8
1
  6
Continuous
 62
     7
100
AcDbCircle
 10
346.5125222850579
 20
222.0050705431307
 30
0.0
 40
34.99999999999989
100
AcDbArc
 50
-90.0
 51
0.0
  0
ENDBLK
  5
5B
330
59
100
AcDbEntity
  8
0
100
AcDbBlockEnd
  0
BLOCK
  5
60
330
5C
100
AcDbEntity
  8
0
100
AcDbBlockBegin
  2
A10JD-60X
 70
     0
 71
     0
 10
251.6928000779046
 20
646.6919859142898
 30
0.0
  3
A10JD-60X
  1

  0
INSERT
  5
5D
330
5C
100
AcDbEntity
  8
1
100
AcDbBlockReference
  2
M50
 10
61.54951939564992
 20
699.0619244411887
 30
0.0
  0
INSERT
  5
5E
330
5C
100
AcDbEntity
  8
0
100
AcDbBlockReference
  2
32-1-16
 10
343.5021708539725
 20
239.0825406945093
 30
0.0
  0
INSERT
  5
5F
330
5C
100
AcDbEntity
  8
1
100
AcDbBlockReference
  2
60-7-170
 10
209.1125222850579
 20
146.8050705431307
 30
0.0
  0
ENDBLK
  5
61
330
5C
100
AcDbEntity
  8
0
100
AcDbBlockEnd
  0
BLOCK
  5
63
330
62
100
AcDbEntity
  8
0
100
AcDbBlockBegin
  2
35-28
 70
     0
 71
     0
 10
1066.368322284032
 20
534.3108717997491
 30
0.0
  3
35-28
  1

  0
LINE
  5
296
330
62
100
AcDbEntity
  8
1
  6
Continuous
 62
     7
100
AcDbLine
 10
410.5125222850577
 20
232.5050705431307
 30
0.0
 11
411.0125222850577
 21
232.0050705431307
 31
0.0
  0
LINE
  5
297
330
62
100
AcDbEntity
  8
1
  6
Continuous
 62
     7
100
AcDbLine
 10
414.9144460737044
 20
234.0050705431307
 30
0.0
 11
414.9144460737044
 21
232.5050705431307
 31
0.0
  0
LINE
  5
298
330
62
100
AcDbEntity
  8
1
  6
Continuous
 62
     7
100
AcDbLine
 10
413.3875222850577
 20
232.0050705431307
 30
0.0
 11
411.0125222850577
 21
232.0050705431307
 31
0.0
  0
LINE
  5
299
330
62
100
AcDbEntity
  8
1
  6
Continuous
 62
     7
100
AcDbLine
 10
417.5125222850577
 20
233.2550705431307
 30
0.0
 11
414.9144460737044
 21
232.5050705431307
 31
0.0
  0
LINE
  5
29A
330
62
100
AcDbEntity
  8
1
  6
Continuous
 62
     7
100
AcDbLine
 10
414.9144460737044
 20
234.0050705431307
 30
0.0
 11
417.5125222850577
 21
233.2550705431307
 31
0.0
  0
LINE
  5
29B
330
62
100
AcDbEntity
  8
1
  6
Continuous
 62
     7
100
AcDbLine
 10
410.5125222850577
 20
232.5050705431307
 30
0.0
 11
410.5125222850577
 21
241.0050705431308
 31
0.0
  0
LINE
  5
29C
330
62
100
AcDbEntity
  8
1
  6
Continuous
 62
     7
100
AcDbLine
 10
417.5125222850577
 20
232.0050705431307
 30
0.0
 11
413.3875222850577
 21
232.0050705431307
 31
0.0
  0
LINE
  5
29D
330
62
100
AcDbEntity
  8
1
  6
Continuous
 62
     7
100
AcDbLine
 10
414.9144460737044
 20
232.5050705431307
 30
0.0
 11
410.5125222850577
 21
232.5050705431307
 31
0.0
  0
LINE
  5
29E
330
62
100
AcDbEntity
  8
1
  6
Continuous
 62
     7
100
AcDbLine
 10
424.0125222850577
 20
232.0050705431307
 30
0.0
 11
424.5125222850577
 21
232.5050705431307
 31
0.0
  0
LINE
  5
29F
330
62
100
AcDbEntity
  8
1
  6
Continuous
 62
     7
100
AcDbLine
 10
420.1105984964111
 20
232.5050705431307
 30
0.0
 11
420.1105984964111
 21
234.0050705431307
 31
0.0
  0
LINE
  5
2A0
330
62
100
AcDbEntity
  8
1
  6
Continuous
 62
     7
100
AcDbLine
 10
420.1105984964111
 20
234.0050705431307
 30
0.0
 11
414.9144460737044
 21
234.0050705431307
 31
0.0
  0
LINE
  5
2A1
330
62
100
AcDbEntity
  8
1
  6
Continuous
 62
     7
100
AcDbLine
 10
424.0125222850577
 20
232.0050705431307
 30
0.0
 11
421.6375222850577
 21
232.0050705431307
 31
0.0
  0
LINE
  5
2A2
330
62
100
AcDbEntity
  8
1
  6
Continuous
 62
     7
100
AcDbLine
 10
420.1105984964111
 20
232.5050705431307
 30
0.0
 11
417.5125222850577
 21
233.2550705431307
 31
0.0
  0
LINE
  5
2A3
330
62
100
AcDbEntity
  8
1
  6
Continuous
 62
     7
100
AcDbLine
 10
417.5125222850577
 20
233.2550705431307
 30
0.0
 11
420.1105984964111
 21
234.0050705431307
 31
0.0
  0
LINE
  5
2A4
330
62
100
AcDbEntity
  8
1
  6
Continuous
 62
     7
100
AcDbLine
 10
424.5125222850577
 20
241.0050705431308
 30
0.0
 11
424.5125222850577
 21
232.5050705431307
 31
0.0
  0
LINE
  5
2A5
330
62
100
AcDbEntity
  8
1
  6
Continuous
 62
     7
100
AcDbLine
 10
421.6375222850577
 20
232.0050705431307
 30
0.0
 11
417.5125222850577
 21
232.0050705431307
 31
0.0
  0
LINE
  5
2A6
330
62
100
AcDbEntity
  8
1
  6
Continuous
 62
     7
100
AcDbLine
 10
424.5125222850577
 20
232.5050705431307
 30
0.0
 11
420.1105984964111
 21
232.5050705431307
 31
0.0
  0
ARC
  5
2A7
330
62
100
AcDbEntity
  8
1
  6
Continuous
 62
     7
100
AcDbCircle
 10
417.288484179381
 20
237.8409343975405
 30
0.0
 40
5.840162668967488
100
AcDbArc
 50
-113.9852877134762
 51
-87.80150158478375
  0
ARC
  5
2A8
330
62
100
AcDbEntity
  8
1
  6
Continuous
 62
     7
100
AcDbCircle
 10
417.7365603907343
 20
237.8409343975405
 30
0.0
 40
5.840162668967542
100
AcDbArc
 50
-92.19849841521571
 51
-66.01471228652179
  0
ENDBLK
  5
64
330
62
100
AcDbEntity
  8
0
100
AcDbBlockEnd
  0
BLOCK
  5
66
330
65
100
AcDbEntity
  8
0
100
AcDbBlockBegin
  2
31-17
 70
     0
 71
     0
 10
940.472425481394
 20
202.905340518985
 30
0.0
  3
31-17
  1

  0
LINE
  5
2A9
330
65
100
AcDbEntity
  8
1
  6
Continuous
 62
     7
100
AcDbLine
 10
409.5125222850577
 20
224.0050705431307
 30
0.0
 11
409.5125222850577
 21
227.0050705431307
 31
0.0
  0
LINE
  5
2AA
330
65
100
AcDbEntity
  8
1
  6
Continuous
 62
     7
100
AcDbLine
 10
425.0125222850577
 20
227.5050705431307
 30
0.0
 11
422.0125222850577
 21
227.5050705431307
 31
0.0
  0
LINE
  5
2AB
330
65
100
AcDbEntity
  8
1
  6
Continuous
 62
     7
100
AcDbLine
 10
425.0125222850577
 20
223.5050705431307
 30
0.0
 11
410.0125222850577
 21
223.5050705431307
 31
0.0
  0
LINE
  5
2AC
330
65
100
AcDbEntity
  8
1
  6
Continuous
 62
     2
100
AcDbLine
 10
413.0125222850577
 20
227.5050705431307
 30
0.0
 11
413.5125222850577
 21
228.3710959469153
 31
0.0
  0
LINE
  5
2AD
330
65
100
AcDbEntity
  8
1
  6
Continuous
 62
     7
100
AcDbLine
 10
413.0125222850577
 20
232.0050705431307
 30
0.0
 11
413.0125222850577
 21
227.5050705431307
 31
0.0
  0
LINE
  5
2AE
330
65
100
AcDbEntity
  8
1
  6
Continuous
 62
     7
100
AcDbLine
 10
422.0125222850577
 20
227.5050705431307
 30
0.0
 11
422.0125222850577
 21
228.3710959469153
 31
0.0
  0
LINE
  5
2AF
330
65
100
AcDbEntity
  8
1
  6
Continuous
 62
     7
100
AcDbLine
 10
425.5125222850577
 20
227.0050705431307
 30
0.0
 11
425.5125222850577
 21
224.0050705431307
 31
0.0
  0
LINE
  5
2B0
330
65
100
AcDbEntity
  8
1
  6
Continuous
 62
     2
100
AcDbLine
 10
421.5125222850577
 20
228.3710959469153
 30
0.0
 11
421.5125222850577
 21
232.0050705431307
 31
0.0
  0
LINE
  5
2B1
330
65
100
AcDbEntity
  8
1
  6
Continuous
 62
     2
100
AcDbLine
 10
421.5125222850577
 20
228.3710959469153
 30
0.0
 11
422.0125222850577
 21
227.5050705431307
 31
0.0
  0
LINE
  5
2B2
330
65
100
AcDbEntity
  8
1
  6
Continuous
 62
     2
100
AcDbLine
 10
413.5125222850577
 20
228.3710959469153
 30
0.0
 11
413.5125222850577
 21
232.0050705431307
 31
0.0
  0
LINE
  5
2B3
330
65
100
AcDbEntity
  8
1
  6
Continuous
 62
     7
100
AcDbLine
 10
422.0125222850577
 20
228.3710959469153
 30
0.0
 11
413.0125222850577
 21
228.3710959469153
 31
0.0
  0
LINE
  5
2B4
330
65
100
AcDbEntity
  8
1
  6
Continuous
 62
     7
100
AcDbLine
 10
422.0125222850577
 20
227.5050705431307
 30
0.0
 11
410.0125222850577
 21
227.5050705431307
 31
0.0
  0
LINE
  5
2B5
330
65
100
AcDbEntity
  8
1
  6
Continuous
 62
     7
100
AcDbLine
 10
422.0125222850577
 20
228.3710959469153
 30
0.0
 11
422.0125222850577
 21
232.0050705431307
 31
0.0
  0
LINE
  5
2B6
330
65
100
AcDbEntity
  8
1
  6
Continuous
 62
     2
100
AcDbLine
 10
410.5125222850577
 20
227.3717372097976
 30
0.0
 11
410.5125222850577
 21
223.6390451393464
 31
0.0
  0
LINE
  5
2B7
330
65
100
AcDbEntity
  8
1
  6
Continuous
 62
     2
100
AcDbLine
 10
411.5125222850577
 20
227.1050705431308
 30
0.0
 11
411.5125222850577
 21
223.9069943317775
 31
0.0
  0
LINE
  5
2B8
330
65
100
AcDbEntity
  8
1
  6
Continuous
 62
     2
100
AcDbLine
 10
412.5125222850577
 20
226.8384038764642
 30
0.0
 11
412.5125222850577
 21
224.1749435242086
 31
0.0
  0
LINE
  5
2B9
330
65
100
AcDbEntity
  8
1
  6
Continuous
 62
     2
100
AcDbLine
 10
413.5125222850577
 20
226.5717372097975
 30
0.0
 11
413.5125222850577
 21
224.4428927166397
 31
0.0
  0
LINE
  5
2BA
330
65
100
AcDbEntity
  8
1
  6
Continuous
 62
     2
100
AcDbLine
 10
414.5125222850577
 20
226.3050705431307
 30
0.0
 11
414.5125222850577
 21
224.7108419090708
 31
0.0
  0
LINE
  5
2BB
330
65
100
AcDbEntity
  8
1
  6
Continuous
 62
     2
100
AcDbLine
 10
415.5125222850577
 20
226.038403876464
 30
0.0
 11
415.5125222850577
 21
224.9787911015019
 31
0.0
  0
ARC
  5
2BC
330
65
100
AcDbEntity
  8
1
  6
Continuous
 62
     7
100
AcDbCircle
 10
410.0125222850577
 20
224.0050705431307
 30
0.0
 40
0.5
100
AcDbArc
 50
180.0
 51
-90.0
  0
ARC
  5
2BD
330
65
100
AcDbEntity
  8
1
  6
Continuous
 62
     7
100
AcDbCircle
 10
410.0125222850577
 20
227.0050705431307
 30
0.0
 40
0.5
100
AcDbArc
 50
90.0
 51
180.0
  0
ARC
  5
2BE
330
65
100
AcDbEntity
  8
1
  6
Continuous
 62
     7
100
AcDbCircle
 10
425.0125222850577
 20
227.0050705431307
 30
0.0
 40
0.5
100
AcDbArc
 50
0.0
 51
90.0
  0
ARC
  5
2BF
330
65
100
AcDbEntity
  8
1
  6
Continuous
 62
     7
100
AcDbCircle
 10
425.0125222850577
 20
224.0050705431307
 30
0.0
 40
0.5
100
AcDbArc
 50
-90.0
 51
0.0
  0
ENDBLK
  5
67
330
65
100
AcDbEntity
  8
0
100
AcDbBlockEnd
  0
BLOCK
  5
2F0
330
2E7
100
AcDbEntity
  8
0
100
AcDbBlockBegin
  2
*D015
 70
     1
 71
     0
 10
0.0
 20
0.0
 30
0.0
  3
*D015
  1

  0
LINE
  5
2E8
330
2E7
100
AcDbEntity
  8
1
  6
Continuous
 62
     2
100
AcDbLine
 10
437.512522285058
 20
142.5050705431306
 30
0.0
 11
455.012522285058
 21
142.5050705431306
 31
0.0
  0
LINE
  5
2E9
330
2E7
100
AcDbEntity
  8
1
  6
Continuous
 62
     2
100
AcDbLine
 10
417.5125222850577
 20
142.5050705431306
 30
0.0
 11
437.512522285058
 21
142.5050705431306
 31
0.0
  0
LINE
  5
2EA
330
2E7
100
AcDbEntity
  8
1
  6
Continuous
 62
     2
100
AcDbLine
 10
400.0125222850577
 20
142.5050705431306
 30
0.0
 11
417.5125222850577
 21
142.5050705431306
 31
0.0
  0
LINE
  5
2EB
330
2E7
100
AcDbEntity
  8
1
  6
Continuous
 62
     2
100
AcDbLine
 10
417.5125222850577
 20
220.4964494343358
 30
0.0
 11
417.5125222850577
 21
140.0050705431306
 31
0.0
  0
LINE
  5
2EC
330
2E7
100
AcDbEntity
  8
1
  6
Continuous
 62
     2
100
AcDbLine
 10
437.512522285058
 20
233.0050705431307
 30
0.0
 11
437.512522285058
 21
140.0050705431306
 31
0.0
  0
SOLID
  5
2ED
330
2E7
100
AcDbEntity
  8
1
 62
     2
100
AcDbTrace
 10
408.7625222850577
 20
141.3531111892409
 30
0.0
 11
408.7625222850577
 21
143.6570298970203
 31
0.0
 12
417.5125222850577
 22
142.5050705431306
 32
0.0
 13
417.5125222850577
 23
142.5050705431306
 33
0.0
  0
SOLID
  5
2EE
330
2E7
100
AcDbEntity
  8
1
 62
     2
100
AcDbTrace
 10
446.262522285058
 20
143.6570298970203
 30
0.0
 11
446.262522285058
 21
141.3531111892409
 31
0.0
 12
437.512522285058
 22
142.5050705431306
 32
0.0
 13
437.512522285058
 23
142.5050705431306
 33
0.0
  0
MTEXT
  5
2EF
330
2E7
100
AcDbEntity
  8
1
 62
     7
100
AcDbMText
 10
420.9500222850579
 20
145.0050705431306
 30
0.0
 40
8.75
 41
0.0
 71
     7
 72
     1
  1
20
  7
CONVERTER_2
 11
0.9999999999970621
 21
2.424068405545307E-6
 31
0.0
 73
     1
 44
0.60024009603842
  0
ENDBLK
  5
2F1
330
2E7
100
AcDbEntity
  8
0
100
AcDbBlockEnd
  0
BLOCK
  5
2FB
330
2F4
100
AcDbEntity
  8
0
100
AcDbBlockBegin
  2
*D116
 70
     1
 71
     0
 10
0.0
 20
0.0
 30
0.0
  3
*D116
  1

  0
LINE
  5
2F5
330
2F4
100
AcDbEntity
  8
1
  6
Continuous
 62
     2
100
AcDbLine
 10
332.5125222850579
 20
346.5173423952867
 30
0.0
 11
392.5125222850579
 21
346.5173423952867
 31
0.0
  0
LINE
  5
2F6
330
2F4
100
AcDbEntity
  8
1
  6
Continuous
 62
     2
100
AcDbLine
 10
332.5125222850579
 20
307.5050705431307
 30
0.0
 11
332.5125222850579
 21
349.0173423952867
 31
0.0
  0
LINE
  5
2F7
330
2F4
100
AcDbEntity
  8
1
  6
Continuous
 62
     2
100
AcDbLine
 10
392.5125222850579
 20
324.195981415028
 30
0.0
 11
392.5125222850579
 21
349.0173423952867
 31
0.0
  0
SOLID
  5
2F8
330
2F4
100
AcDbEntity
  8
1
 62
     2
100
AcDbTrace
 10
341.2625222850579
 20
347.6693017491764
 30
0.0
 11
341.2625222850579
 21
345.365383041397
 31
0.0
 12
332.5125222850579
 22
346.5173423952867
 32
0.0
 13
332.5125222850579
 23
346.5173423952867
 33
0.0
  0
SOLID
  5
2F9
330
2F4
100
AcDbEntity
  8
1
 62
     2
100
AcDbTrace
 10
383.7625222850579
 20
345.365383041397
 30
0.0
 11
383.7625222850579
 21
347.6693017491764
 31
0.0
 12
392.5125222850579
 22
346.5173423952867
 32
0.0
 13
392.5125222850579
 23
346.5173423952867
 33
0.0
  0
MTEXT
  5
2FA
330
2F4
100
AcDbEntity
  8
1
 62
     7
100
AcDbMText
 10
355.9500222850579
 20
349.0173423952867
 30
0.0
 40
8.75
 41
0.0
 71
     7
 72
     1
  1
60
  7
CONVERTER_2
 11
0.9999999999970621
 21
2.424068405545307E-6
 31
0.0
 73
     1
 44
0.60024009603842
  0
ENDBLK
  5
2FC
330
2F4
100
AcDbEntity
  8
0
100
AcDbBlockEnd
  0
BLOCK
  5
306
330
2FF
100
AcDbEntity
  8
0
100
AcDbBlockBegin
  2
*D217
 70
     1
 71
     0
 10
0.0
 20
0.0
 30
0.0
  3
*D217
  1

  0
LINE
  5
300
330
2FF
100
AcDbEntity
  8
1
  6
Continuous
 62
     2
100
AcDbLine
 10
476.512522285058
 20
233.0050705431307
 30
0.0
 11
476.512522285058
 21
279.0050705431307
 31
0.0
  0
LINE
  5
301
330
2FF
100
AcDbEntity
  8
1
  6
Continuous
 62
     2
100
AcDbLine
 10
437.512522285058
 20
233.0050705431307
 30
0.0
 11
479.012522285058
 21
233.0050705431307
 31
0.0
  0
LINE
  5
302
330
2FF
100
AcDbEntity
  8
1
  6
Continuous
 62
     2
100
AcDbLine
 10
437.512522285058
 20
279.0050705431307
 30
0.0
 11
479.012522285058
 21
279.0050705431307
 31
0.0
  0
SOLID
  5
303
330
2FF
100
AcDbEntity
  8
1
 62
     2
100
AcDbTrace
 10
475.3605629311683
 20
241.7550705431307
 30
0.0
 11
477.6644816389477
 21
241.7550705431307
 31
0.0
 12
476.512522285058
 22
233.0050705431307
 32
0.0
 13
476.512522285058
 23
233.0050705431307
 33
0.0
  0
SOLID
  5
304
330
2FF
100
AcDbEntity
  8
1
 62
     2
100
AcDbTrace
 10
477.6644816389477
 20
270.2550705431307
 30
0.0
 11
475.3605629311683
 21
270.2550705431307
 31
0.0
 12
476.512522285058
 22
279.0050705431307
 32
0.0
 13
476.512522285058
 23
279.0050705431307
 33
0.0
  0
MTEXT
  5
305
330
2FF
100
AcDbEntity
  8
1
 62
     7
100
AcDbMText
 10
474.012522285058
 20
240.3425705431307
 30
0.0
 40
8.75
 41
0.0
 71
     7
 72
     1
  1
\C7;{\Fgdt;n}\C7;46
  7
CONVERTER_2
 11
0.0
 21
1.0
 31
0.0
 73
     1
 44
0.60024009603842
  0
ENDBLK
  5
307
330
2FF
100
AcDbEntity
  8
0
100
AcDbBlockEnd
  0
BLOCK
  5
311
330
30A
100
AcDbEntity
  8
0
100
AcDbBlockBegin
  2
*D318
 70
     1
 71
     0
 10
0.0
 20
0.0
 30
0.0
  3
*D318
  1

  0
LINE
  5
30B
330
30A
100
AcDbEntity
  8
1
  6
Continuous
 62
     2
100
AcDbLine
 10
451.5125222850579
 20
122.5050705431306
 30
0.0
 11
469.0125222850579
 21
122.5050705431306
 31
0.0
  0
LINE
  5
30C
330
30A
100
AcDbEntity
  8
1
  6
Continuous
 62
     2
100
AcDbLine
 10
437.5125222850579
 20
122.5050705431306
 30
0.0
 11
451.5125222850579
 21
122.5050705431306
 31
0.0
  0
LINE
  5
30D
330
30A
100
AcDbEntity
  8
1
  6
Continuous
 62
     2
100
AcDbLine
 10
437.5125222850579
 20
233.0050705431307
 30
0.0
 11
437.5125222850579
 21
120.0050705431306
 31
0.0
  0
LINE
  5
30E
330
30A
100
AcDbEntity
  8
1
  6
Continuous
 62
     2
100
AcDbLine
 10
451.5125222850579
 20
246.5050705431307
 30
0.0
 11
451.5125222850579
 21
120.0050705431306
 31
0.0
  0
SOLID
  5
30F
330
30A
100
AcDbEntity
  8
1
 62
     2
100
AcDbTrace
 10
460.2625222850579
 20
123.6570298970203
 30
0.0
 11
460.2625222850579
 21
121.3531111892409
 31
0.0
 12
451.5125222850579
 22
122.5050705431306
 32
0.0
 13
451.5125222850579
 23
122.5050705431306
 33
0.0
  0
MTEXT
  5
310
330
30A
100
AcDbEntity
  8
1
 62
     7
100
AcDbMText
 10
439.2625222850579
 20
125.0050705431306
 30
0.0
 40
8.75
 41
0.0
 71
     7
 72
     1
  1
14
  7
CONVERTER_2
 11
0.9999999999970621
 21
2.424068405545307E-6
 31
0.0
 73
     1
 44
0.60024009603842
  0
ENDBLK
  5
312
330
30A
100
AcDbEntity
  8
0
100
AcDbBlockEnd
  0
BLOCK
  5
314
330
313
100
AcDbEntity
  8
0
100
AcDbBlockBegin
  2
_None
 70
     0
 71
     0
 10
0.0
 20
0.0
 30
0.0
  3
_None
  1

  0
ENDBLK
  5
315
330
313
100
AcDbEntity
  8
0
100
AcDbBlockEnd
  0
BLOCK
  5
320
330
318
100
AcDbEntity
  8
0
100
AcDbBlockBegin
  2
*D420
 70
     1
 71
     0
 10
0.0
 20
0.0
 30
0.0
  3
*D420
  1

  0
LINE
  5
319
330
318
100
AcDbEntity
  8
1
  6
Continuous
 62
     2
100
AcDbLine
 10
373.512522285058
 20
122.5050705431306
 30
0.0
 11
437.512522285058
 21
122.5050705431306
 31
0.0
  0
LINE
  5
31A
330
318
100
AcDbEntity
  8
1
  6
Continuous
 62
     2
100
AcDbLine
 10
373.512522285058
 20
222.0050705431307
 30
0.0
 11
373.512522285058
 21
120.0050705431306
 31
0.0
  0
LINE
  5
31B
330
318
100
AcDbEntity
  8
1
  6
Continuous
 62
     2
100
AcDbLine
 10
437.512522285058
 20
233.0050705431307
 30
0.0
 11
437.512522285058
 21
120.0050705431306
 31
0.0
  0
SOLID
  5
31C
330
318
100
AcDbEntity
  8
1
 62
     2
100
AcDbTrace
 10
381.012522285058
 20
123.4924642750361
 30
0.0
 11
381.012522285058
 21
121.5176768112251
 31
0.0
 12
373.512522285058
 22
122.5050705431306
 32
0.0
 13
373.512522285058
 23
122.5050705431306
 33
0.0
  0
CIRCLE
  5
31D
102
{ACAD_REACTORS
330
31E
102
}
330
318
100
AcDbEntity
  8
1
 62
     2
100
AcDbCircle
 10
437.512522285058
 20
122.5050705431306
 30
0.0
 40
2.1875
  0
HATCH
  5
31E
330
318
100
AcDbEntity
  8
1
 62
     2
100
AcDbHatch
 10
0.0
 20
0.0
 30
0.0
210
0.0
220
0.0
230
1.0
  2
SOLID
 70
     1
 71
     1
 91
        1
 92
        1
 93
        1
 72
     2
 10
437.512522285058
 20
122.5050705431306
 40
2.1875
 50
0.0
 51
360.0
 73
     1
 97
        1
330
31D
 75
     0
 76
     1
 98
        0
  0
MTEXT
  5
31F
330
318
100
AcDbEntity
  8
1
 62
     7
100
AcDbMText
 10
398.950022285058
 20
125.0050705431306
 30
0.0
 40
8.75
 41
0.0
 71
     7
 72
     1
  1
64
  7
CONVERTER_2
 11
0.9999999999970621
 21
2.424068405545307E-6
 31
0.0
 73
     1
 44
0.60024009603842
  0
ENDBLK
  5
321
330
318
100
AcDbEntity
  8
0
100
AcDbBlockEnd
  0
BLOCK
  5
323
330
322
100
AcDbEntity
  8
0
100
AcDbBlockBegin
  2
_Dot
 70
     0
 71
     0
 10
0.0
 20
0.0
 30
0.0
  3
_Dot
  1

  0
LWPOLYLINE
  5
325
330
322
100
AcDbEntity
  8
0
  6
ByBlock
 62
     0
100
AcDbPolyline
 90
        2
 70
     1
 43
0.5
 10
-0.25
 20
0.0
 42
1.0
 10
0.25
 20
0.0
 42
1.0
  0
LINE
  5
326
330
322
100
AcDbEntity
  8
0
  6
ByBlock
 62
     0
370
    -2
100
AcDbLine
 10
-0.5
 20
0.0
 30
0.0
 11
-1.0
 21
0.0
 31
0.0
  0
ENDBLK
  5
324
330
322
100
AcDbEntity
  8
0
100
AcDbBlockEnd
  0
BLOCK
  5
330
330
329
100
AcDbEntity
  8
0
100
AcDbBlockBegin
  2
*D522
 70
     1
 71
     0
 10
0.0
 20
0.0
 30
0.0
  3
*D522
  1

  0
LINE
  5
32A
330
329
100
AcDbEntity
  8
1
  6
Continuous
 62
     2
100
AcDbLine
 10
203.5125222850579
 20
122.5050705431306
 30
0.0
 11
373.5125222850579
 21
122.5050705431306
 31
0.0
  0
LINE
  5
32B
330
329
100
AcDbEntity
  8
1
  6
Continuous
 62
     2
100
AcDbLine
 10
203.5125222850579
 20
164.7625425615817
 30
0.0
 11
203.5125222850579
 21
120.0050705431306
 31
0.0
  0
LINE
  5
32C
330
329
100
AcDbEntity
  8
1
  6
Continuous
 62
     2
100
AcDbLine
 10
373.5125222850579
 20
222.0050705431307
 30
0.0
 11
373.5125222850579
 21
120.0050705431306
 31
0.0
  0
SOLID
  5
32D
330
329
100
AcDbEntity
  8
1
 62
     2
100
AcDbTrace
 10
212.2625222850579
 20
123.6570298970203
 30
0.0
 11
212.2625222850579
 21
121.3531111892409
 31
0.0
 12
203.5125222850579
 22
122.5050705431306
 32
0.0
 13
203.5125222850579
 23
122.5050705431306
 33
0.0
  0
SOLID
  5
32E
330
329
100
AcDbEntity
  8
1
 62
     2
100
AcDbTrace
 10
364.7625222850579
 20
121.3531111892409
 30
0.0
 11
364.7625222850579
 21
123.6570298970203
 31
0.0
 12
373.5125222850579
 22
122.5050705431306
 32
0.0
 13
373.5125222850579
 23
122.5050705431306
 33
0.0
  0
MTEXT
  5
32F
330
329
100
AcDbEntity
  8
1
 62
     7
100
AcDbMText
 10
279.3250222850579
 20
125.0050705431306
 30
0.0
 40
8.75
 41
0.0
 71
     7
 72
     1
  1
170
  7
CONVERTER_2
 11
0.9999999999970621
 21
2.424068405545307E-6
 31
0.0
 73
     1
 44
0.60024009603842
  0
ENDBLK
  5
331
330
329
100
AcDbEntity
  8
0
100
AcDbBlockEnd
  0
BLOCK
  5
33B
330
334
100
AcDbEntity
  8
0
100
AcDbBlockBegin
  2
*D623
 70
     1
 71
     0
 10
0.0
 20
0.0
 30
0.0
  3
*D623
  1

  0
LINE
  5
335
330
334
100
AcDbEntity
  8
0
  6
Continuous
 62
     2
100
AcDbLine
 10
104.5125222850575
 20
321.3050705431306
 30
0.0
 11
104.5125222850575
 21
256.0050705431307
 31
0.0
  0
LINE
  5
336
330
334
100
AcDbEntity
  8
0
  6
Continuous
 62
     2
100
AcDbLine
 10
142.5125222850579
 20
321.3050705431306
 30
0.0
 11
102.0125222850575
 21
321.3050705431306
 31
0.0
  0
LINE
  5
337
330
334
100
AcDbEntity
  8
0
  6
Continuous
 62
     2
100
AcDbLine
 10
127.5125222850579
 20
256.0050705431307
 30
0.0
 11
102.0125222850575
 21
256.0050705431307
 31
0.0
  0
SOLID
  5
338
330
334
100
AcDbEntity
  8
0
 62
     2
100
AcDbTrace
 10
105.6644816389472
 20
312.5550705431306
 30
0.0
 11
103.3605629311678
 21
312.5550705431306
 31
0.0
 12
104.5125222850575
 22
321.3050705431306
 32
0.0
 13
104.5125222850575
 23
321.3050705431306
 33
0.0
  0
SOLID
  5
339
330
334
100
AcDbEntity
  8
0
 62
     2
100
AcDbTrace
 10
103.3605629311678
 20
264.7550705431307
 30
0.0
 11
105.6644816389472
 21
264.7550705431307
 31
0.0
 12
104.5125222850575
 22
256.0050705431307
 32
0.0
 13
104.5125222850575
 23
256.0050705431307
 33
0.0
  0
MTEXT
  5
33A
330
334
100
AcDbEntity
  8
0
 62
     7
100
AcDbMText
 10
102.0125222850575
 20
282.0925705431307
 30
0.0
 40
8.75
 41
0.0
 71
     7
 72
     1
  1
66
  7
CONVERTER_2
 11
0.0
 21
1.0
 31
0.0
 73
     1
 44
0.60024009603842
  0
ENDBLK
  5
33C
330
334
100
AcDbEntity
  8
0
100
AcDbBlockEnd
  0
BLOCK
  5
346
330
33F
100
AcDbEntity
  8
0
100
AcDbBlockBegin
  2
*D724
 70
     1
 71
     0
 10
0.0
 20
0.0
 30
0.0
  3
*D724
  1

  0
LINE
  5
340
330
33F
100
AcDbEntity
  8
1
  6
Continuous
 62
     2
100
AcDbLine
 10
104.5125222850575
 20
167.5050705431303
 30
0.0
 11
104.5125222850575
 21
256.0050705431307
 31
0.0
  0
LINE
  5
341
330
33F
100
AcDbEntity
  8
1
  6
Continuous
 62
     2
100
AcDbLine
 10
141.7668236978096
 20
167.5050705431303
 30
0.0
 11
102.0125222850575
 21
167.5050705431303
 31
0.0
  0
LINE
  5
342
330
33F
100
AcDbEntity
  8
1
  6
Continuous
 62
     2
100
AcDbLine
 10
127.5125222850579
 20
256.0050705431307
 30
0.0
 11
102.0125222850575
 21
256.0050705431307
 31
0.0
  0
SOLID
  5
343
330
33F
100
AcDbEntity
  8
1
 62
     2
100
AcDbTrace
 10
103.3605629311678
 20
176.2550705431303
 30
0.0
 11
105.6644816389472
 21
176.2550705431303
 31
0.0
 12
104.5125222850575
 22
167.5050705431303
 32
0.0
 13
104.5125222850575
 23
167.5050705431303
 33
0.0
  0
SOLID
  5
344
330
33F
100
AcDbEntity
  8
1
 62
     2
100
AcDbTrace
 10
105.6644816389472
 20
247.2550705431307
 30
0.0
 11
103.3605629311678
 21
247.2550705431307
 31
0.0
 12
104.5125222850575
 22
256.0050705431307
 32
0.0
 13
104.5125222850575
 23
256.0050705431307
 33
0.0
  0
MTEXT
  5
345
330
33F
100
AcDbEntity
  8
1
 62
     7
100
AcDbMText
 10
102.0125222850575
 20
205.1925705431308
 30
0.0
 40
8.75
 41
0.0
 71
     7
 72
     1
  1
89
  7
CONVERTER_2
 11
0.0
 21
1.0
 31
0.0
 73
     1
 44
0.60024009603842
  0
ENDBLK
  5
347
330
33F
100
AcDbEntity
  8
0
100
AcDbBlockEnd
  0
ENDSEC
  0
SECTION
  2
ENTITIES
  0
INSERT
  5
68
330
1F
100
AcDbEntity
  8
1
100
AcDbBlockReference
  2
_J__A4
 10
0.0
 20
0.0
 30
0.0
 41
2.5
 42
2.5
 43
2.5
  0
INSERT
  5
69
330
1F
100
AcDbEntity
  8
0
100
AcDbBlockReference
  2
A101-0
 10
303.5795045335786
 20
297.1332522301959
 30
0.0
  0
INSERT
  5
6A
330
1F
100
AcDbEntity
  8
0
100
AcDbBlockReference
  2
R261F
 10
118.9868079993436
 20
153.3341477118853
 30
0.0
  0
INSERT
  5
6B
330
1F
100
AcDbEntity
  8
1
100
AcDbBlockReference
  2
A10JD-60X
 10
251.6928000779046
 20
646.6919859142898
 30
0.0
  0
INSERT
  5
6C
330
1F
100
AcDbEntity
  8
0
100
AcDbBlockReference
  2
35-28
 10
1066.368322284032
 20
534.3108717997491
 30
0.0
  0
INSERT
  5
6D
330
1F
100
AcDbEntity
  8
0
100
AcDbBlockReference
  2
31-17
 10
940.472425481394
 20
202.905340518985
 30
0.0
  0
LINE
  5
2C0
330
1F
100
AcDbEntity
  8
1
  6
Continuous
 62
     2
100
AcDbLine
 10
220.787108284658
 20
539.5085897261768
 30
0.0
 11
237.268061510297
 21
539.5085897261768
 31
0.0
  0
LINE
  5
2C1
330
1F
100
AcDbEntity
  8
1
  6
Continuous
 62
     2
100
AcDbLine
 10
166.493854683029
 20
509.2957526789018
 30
0.0
 11
184.262315893628
 21
509.2957526789018
 31
0.0
  0
LINE
  5
2C2
330
1F
100
AcDbEntity
  8
1
  6
DASH_CENTER
 62
     2
100
AcDbLine
 10
417.5125222850577
 20
248.2185557963085
 30
0.0
 11
417.5125222850577
 21
220.4964494343358
 31
0.0
  0
LINE
  5
2C3
330
1F
100
AcDbEntity
  8
1
  6
DASH_CENTER
 62
     2
100
AcDbLine
 10
132.5125222850581
 20
581.6462389380538
 30
0.0
 11
172.5125222850581
 21
581.6462389380538
 31
0.0
  0
LINE
  5
2C4
330
1F
100
AcDbEntity
  8
1
  6
DASH_CENTER
 62
     2
100
AcDbLine
 10
132.5125222850581
 20
581.6462389380538
 30
0.0
 11
130.5125222850581
 21
581.6462389380538
 31
0.0
  0
LINE
  5
2C5
330
1F
100
AcDbEntity
  8
1
  6
DASH_CENTER
 62
     2
100
AcDbLine
 10
152.5125222850579
 20
324.7550705431307
 30
0.0
 11
152.5125222850579
 21
167.5050705431308
 31
0.0
  0
LINE
  5
2C6
330
1F
100
AcDbEntity
  8
1
  6
DASH_CENTER
 62
     2
100
AcDbLine
 10
203.5125222850579
 20
164.7625425615817
 30
0.0
 11
203.5125222850579
 21
209.5050705431307
 31
0.0
  0
LINE
  5
2C7
330
1F
100
AcDbEntity
  8
1
  6
DASH_CENTER
 62
     2
100
AcDbLine
 10
451.5125222850579
 20
256.0050705431307
 30
0.0
 11
435.0125222850579
 21
256.0050705431307
 31
0.0
  0
LINE
  5
2C8
330
1F
100
AcDbEntity
  8
1
  6
DASH_CENTER
 62
     2
100
AcDbLine
 10
435.0125222850579
 20
256.0050705431307
 30
0.0
 11
414.9702612790767
 21
256.0050705431307
 31
0.0
  0
LINE
  5
2C9
330
1F
100
AcDbEntity
  8
1
  6
DASH_CENTER
 62
     2
100
AcDbLine
 10
152.512522285058
 20
368.896238938054
 30
0.0
 11
152.5125222850579
 21
644.3962389380538
 31
0.0
  0
LINE
  5
2CA
330
1F
100
AcDbEntity
  8
1
  6
DASH_CENTER
 62
     2
100
AcDbLine
 10
214.5125222850584
 20
581.646238938054
 30
0.0
 11
172.5125222850581
 21
581.6462389380538
 31
0.0
  0
LINE
  5
2CB
330
1F
100
AcDbEntity
  8
1
  6
DASH_CENTER
 62
     2
100
AcDbLine
 10
130.5125222850581
 20
562.6462389380538
 30
0.0
 11
174.5125222850581
 21
562.6462389380538
 31
0.0
  0
LINE
  5
2CC
330
1F
100
AcDbEntity
  8
1
  6
DASH_CENTER
 62
     2
100
AcDbLine
 10
138.0125222850579
 20
392.646238938054
 30
0.0
 11
167.0125222850579
 21
392.646238938054
 31
0.0
  0
LINE
  5
2CD
330
1F
100
AcDbEntity
  8
1
  6
DASH_CENTER
 62
     2
100
AcDbLine
 10
127.5125222850579
 20
256.0050705431307
 30
0.0
 11
178.5883566343141
 21
256.0050705431307
 31
0.0
  0
LINE
  5
2CE
330
1F
100
AcDbEntity
  8
1
  6
DASH_CENTER
 62
     2
100
AcDbLine
 10
453.5125222850579
 20
256.0050705431307
 30
0.0
 11
451.5125222850579
 21
256.0050705431307
 31
0.0
  0
LINE
  5
2CF
330
1F
100
AcDbEntity
  8
1
  6
DASH_CENTER
 62
     2
100
AcDbLine
 10
373.5125222850579
 20
222.5050705431307
 30
0.0
 11
373.5125222850579
 21
246.5050705431307
 31
0.0
  0
LINE
  5
2D0
330
1F
100
AcDbEntity
  8
1
  6
DASH_CENTER
 62
     2
100
AcDbLine
 10
181.4485938028543
 20
195.0050705431307
 30
0.0
 11
346.5125222850579
 21
195.0050705431308
 31
0.0
  0
LINE
  5
2D1
330
1F
100
AcDbEntity
  8
1
  6
DASH_CENTER
 62
     2
100
AcDbLine
 10
392.5125222850579
 20
324.1959814150281
 30
0.0
 11
392.5125222850579
 21
236.4687685610646
 31
0.0
  0
LINE
  5
2D2
330
1F
100
AcDbEntity
  8
1
  6
DASH_CENTER
 62
     2
100
AcDbLine
 10
414.9702612790767
 20
256.0050705431307
 30
0.0
 11
357.512522285058
 21
256.0050705431307
 31
0.0
  0
LINE
  5
2D3
330
1F
100
AcDbEntity
  8
1
  6
DASH_CENTER
 62
     2
100
AcDbLine
 10
345.0125222850579
 20
322.0050705431307
 30
0.0
 11
345.0125222850579
 21
293.0050705431306
 31
0.0
  0
LINE
  5
2D4
330
1F
100
AcDbEntity
  8
1
  6
DASH_CENTER
 62
     2
100
AcDbLine
 10
330.512522285058
 20
307.5050705431306
 30
0.0
 11
359.5125222850579
 21
307.5050705431307
 31
0.0
  0
ARC
  5
2D5
330
1F
100
AcDbEntity
  8
1
  6
Continuous
 62
     2
100
AcDbCircle
 10
160.5125222850579
 20
597.8962389380539
 30
0.0
 40
69.1730619870044
100
AcDbArc
 50
-82.07673999032316
 51
-47.20359297991234
  0
ARC
  5
2D6
330
1F
100
AcDbEntity
  8
1
  6
DASH_CENTER
 62
     2
100
AcDbCircle
 10
346.5125222850579
 20
222.0050705431307
 30
0.0
 40
26.99999999999989
100
AcDbArc
 50
-90.0
 51
0.0
  0
SOLID
  5
2D7
330
1F
100
AcDbEntity
  8
1
 62
     2
100
AcDbTrace
 10
448.6500386594816
 20
238.5033279369617
 30
0.0
 11
446.6547865302904
 21
237.351368583072
 31
0.0
 12
443.277412594886
 22
245.5050705431307
 32
0.0
 13
443.277412594886
 23
245.5050705431307
 33
0.0
  0
LEADER
  5
2D8
330
1F
100
AcDbEntity
  8
1
  6
Continuous
 62
     2
100
AcDbLeader
  3
Standard
 71
     0
 76
     3
 10
443.277412594886
 20
245.5050705431307
 30
0.0
 10
461.6737124286511
 20
213.6417445597785
 30
0.0
 10
496.2828866291496
 20
213.6417445597785
 30
0.0
  0
SOLID
  5
2D9
330
1F
100
AcDbEntity
  8
1
 62
     2
100
AcDbTrace
 10
204.1606342356076
 20
542.3003670035276
 30
0.0
 11
202.5593104123512
 21
543.956810007415
 31
0.0
 12
209.6509392036154
 22
549.2102195136239
 32
0.0
 13
209.6509392036154
 23
549.2102195136239
 33
0.0
  0
LEADER
  5
2DA
330
1F
100
AcDbEntity
  8
1
  6
Continuous
 62
     2
100
AcDbLeader
  3
Standard
 71
     0
 76
     2
 10
209.6509392036154
 20
549.2102195136239
 30
0.0
 10
207.5083748781474
 20
547.1389503608795
 30
0.0
  0
SOLID
  5
2DB
330
1F
100
AcDbEntity
  8
1
 62
     2
100
AcDbTrace
 10
174.9380849045135
 20
531.0082174725645
 30
0.0
 11
175.1730152700106
 21
528.716307977095
 31
0.0
 12
166.3511595991588
 22
528.9700260798652
 32
0.0
 13
166.3511595991588
 23
528.9700260798652
 33
0.0
  0
LEADER
  5
2DC
330
1F
100
AcDbEntity
  8
1
  6
Continuous
 62
     2
100
AcDbLeader
  3
Standard
 71
     0
 76
     2
 10
166.3511595991588
 20
528.9700260798652
 30
0.0
 10
168.7788307471865
 20
529.2188725859078
 30
0.0
  0
MTEXT
  5
2DE
330
1F
100
AcDbEntity
  8
1
 62
     7
100
AcDbMText
 10
203.4648524778
 20
523.822141989325
 30
0.0
 40
8.75
 41
0.0
 71
     5
 72
     1
  1
90{\Fgdt;~}
  7
CONVERTER_2
 73
     1
 44
0.7202881152461
  0
MTEXT
  5
2DF
330
1F
100
AcDbEntity
  8
1
 62
     7
100
AcDbMText
 10
234.375
 20
42.5
 30
0.0
 40
8.75
 41
0.0
 71
     5
 72
     1
  1
2,5
  7
CONVERTER_2
 73
     1
 44
0.7202881152461
  0
MTEXT
  5
2E0
330
1F
100
AcDbEntity
  8
1
 62
     7
100
AcDbMText
 10
212.279388797474
 20
42.5632104673154
 30
0.0
 40
8.75
 41
0.0
 71
     5
 72
     1
  1
1
  7
CONVERTER_2
 73
     1
 44
0.7202881152461
  0
MTEXT
  5
2E1
330
1F
100
AcDbEntity
  8
1
 62
     7
100
AcDbMText
 10
85.0
 20
85.00000000000001
 30
0.0
 40
8.75
 41
0.0
 71
     4
 72
     1
  1
JIS
  7
CONVERTER_2
 73
     1
 44
0.7202881152461
  0
MTEXT
  5
2E2
330
1F
100
AcDbEntity
  8
1
 62
     7
100
AcDbMText
 10
142.5
 20
35.625
 30
0.0
 40
8.75
 41
0.0
 71
     5
 72
     1
  1
A102DCK-13
  7
CONVERTER_2
 73
     1
 44
0.7202881152461
  0
MTEXT
  5
2E3
330
1F
100
AcDbEntity
  8
1
 62
     7
100
AcDbMText
 10
228.1103641331878
 20
547.0085897261768
 30
0.0
 40
8.75
 41
0.0
 71
     5
 72
     1
  1
吐水
  7
CONVERTER_1
 73
     1
 44
1.32052821128451
  0
MTEXT
  5
2E4
330
1F
100
AcDbEntity
  8
1
 62
     7
100
AcDbMText
 10
175.2632114216698
 20
516.7957526789018
 30
0.0
 40
8.75
 41
0.0
 71
     5
 72
     1
  1
止水
  7
CONVERTER_1
 73
     1
 44
1.32052821128451
  0
MTEXT
  5
2E5
330
1F
100
AcDbEntity
  8
1
 62
     7
100
AcDbMText
 10
479.3176133785296
 20
221.1417445597785
 30
0.0
 40
8.75
 41
0.0
 71
     5
 72
     1
  1
PJ1/2
  7
CONVERTER_2
 73
     1
 44
1.32052821128451
  0
MTEXT
  5
2E6
330
1F
100
AcDbEntity
  8
0
 62
     7
100
AcDbMText
 10
142.5
 20
56.87500000000003
 30
0.0
 40
8.75
 41
0.0
 71
     5
 72
     1
  1
自在水栓
  7
CONVERTER_1
 73
     1
 44
1.32052821128451
  0
DIMENSION
  5
2F3
330
1F
100
AcDbEntity
  8
1
100
AcDbDimension
  2
*D015
 10
417.5125222850577
 20
142.5050705431306
 30
0.0
 11
427.5125222850579
 21
149.3800705431306
 31
0.0
  1
<>
 71
     5
 42
0.0
 53
0.00013888888889
  3
ME10_DIM_0
100
AcDbAlignedDimension
 13
437.5125222850579
 23
233.0050705431307
 33
0.0
 14
417.5125222850577
 24
220.4964494343358
 34
0.0
100
AcDbRotatedDimension
  0
DIMENSION
  5
2FE
330
1F
100
AcDbEntity
  8
1
100
AcDbDimension
  2
*D116
 10
332.5125222850579
 20
346.5173423952867
 30
0.0
 11
362.5125222850579
 21
353.3923423952867
 31
0.0
  1
<>
 71
     5
 42
0.0
 53
0.00013888888889
  3
ME10_DIM_1
100
AcDbAlignedDimension
 13
392.5125222850579
 23
324.1959814150281
 33
0.0
 14
332.5125222850579
 24
307.5050705431307
 34
0.0
100
AcDbRotatedDimension
  0
DIMENSION
  5
309
330
1F
100
AcDbEntity
  8
1
100
AcDbDimension
  2
*D217
 10
476.512522285058
 20
233.0050705431307
 30
0.0
 11
469.637522285058
 21
256.0050705431307
 31
0.0
 70
     1
  1
<>
 71
     5
 42
0.0
 53
90.0
  3
ME10_DIM_2
100
AcDbAlignedDimension
 13
437.5125222850579
 23
279.0050705431307
 33
0.0
 14
437.5125222850579
 24
233.0050705431307
 34
0.0
  0
DIMENSION
  5
317
330
1F
100
AcDbEntity
  8
1
100
AcDbDimension
  2
*D318
 10
437.5125222850579
 20
122.5050705431306
 30
0.0
 11
444.5125222850579
 21
129.3800705431306
 31
0.0
  1
<>
 71
     5
 42
0.0
 53
0.00013888888889
  3
ME10_DIM_3
100
AcDbAlignedDimension
 13
451.512522285058
 23
246.5050705431307
 33
0.0
 14
437.5125222850579
 24
233.0050705431307
 34
0.0
100
AcDbRotatedDimension
  0
DIMENSION
  5
328
330
1F
100
AcDbEntity
  8
1
100
AcDbDimension
  2
*D420
 10
373.512522285058
 20
122.5050705431306
 30
0.0
 11
405.512522285058
 21
129.3800705431306
 31
0.0
  1
<>
 71
     5
 42
0.0
 53
0.00013888888889
  3
ME10_DIM_4
100
AcDbAlignedDimension
 13
437.5125222850579
 23
233.0050705431307
 33
0.0
 14
373.5125222850579
 24
222.0050705431307
 34
0.0
100
AcDbRotatedDimension
  0
DIMENSION
  5
333
330
1F
100
AcDbEntity
  8
1
100
AcDbDimension
  2
*D522
 10
203.5125222850579
 20
122.5050705431306
 30
0.0
 11
288.5125222850579
 21
129.3800705431306
 31
0.0
  1
170
 71
     5
 42
0.0
 53
0.00013888888889
  3
ME10_DIM_5
100
AcDbAlignedDimension
 13
373.5125222850579
 23
222.0050705431307
 33
0.0
 14
203.5125222850579
 24
164.7625425615817
 34
0.0
100
AcDbRotatedDimension
  0
DIMENSION
  5
33E
330
1F
100
AcDbEntity
  8
0
100
AcDbDimension
  2
*D623
 10
104.5125222850575
 20
321.3050705431306
 30
0.0
 11
97.63752228505746
 21
288.6550705431307
 31
0.0
  1
66
 71
     5
 42
0.0
 53
90.0
  3
ME10_DIM_6
100
AcDbAlignedDimension
 13
127.5125222850579
 23
256.0050705431307
 33
0.0
 14
142.5125222850579
 24
321.3050705431306
 34
0.0
 50
90.0
100
AcDbRotatedDimension
  0
DIMENSION
  5
349
330
1F
100
AcDbEntity
  8
1
100
AcDbDimension
  2
*D724
 10
104.5125222850575
 20
167.5050705431303
 30
0.0
 11
97.63752228505746
 21
211.7550705431308
 31
0.0
  1
89
 71
     5
 42
0.0
 53
90.0
  3
ME10_DIM_7
100
AcDbAlignedDimension
 13
127.5125222850579
 23
256.0050705431307
 33
0.0
 14
141.7668236978096
 24
167.5050705431303
 34
0.0
 50
90.0
100
AcDbRotatedDimension
  0
ENDSEC
  0
SECTION
  2
OBJECTS
  0
DICTIONARY
  5
C
330
0
100
AcDbDictionary
281
     1
  3
ACAD_GROUP
350
D
  3
ACAD_LAYOUT
350
1A
  3
ACAD_MLINESTYLE
350
17
  3
ACAD_PLOTSETTINGS
350
19
  3
ACAD_PLOTSTYLENAME
350
E
  3
ACAD_TABLESTYLE
350
2A
  3
AcDbVariableDictionary
350
2C
  0
DICTIONARY
  5
D
102
{ACAD_REACTORS
330
C
102
}
330
C
100
AcDbDictionary
281
     1
  0
DICTIONARY
  5
1A
102
{ACAD_REACTORS
330
C
102
}
330
C
100
AcDbDictionary
281
     1
  3
Layout1
350
1E
  3
Layout2
350
26
  3
Model
350
22
  0
DICTIONARY
  5
17
102
{ACAD_REACTORS
330
C
102
}
330
C
100
AcDbDictionary
281
     1
  3
Standard
350
18
  0
DICTIONARY
  5
19
102
{ACAD_REACTORS
330
C
102
}
330
C
100
AcDbDictionary
281
     1
  0
ACDBDICTIONARYWDFLT
  5
E
102
{ACAD_REACTORS
330
C
102
}
330
C
100
AcDbDictionary
281
     1
  3
Normal
350
F
100
AcDbDictionaryWithDefault
340
F
  0
DICTIONARY
  5
2A
102
{ACAD_REACTORS
330
C
102
}
330
C
100
AcDbDictionary
281
     1
  3
Standard
350
2B
  0
DICTIONARY
  5
2C
102
{ACAD_REACTORS
330
C
102
}
330
C
100
AcDbDictionary
281
     1
  3
CTABLESTYLE
350
2D
  0
LAYOUT
  5
1E
102
{ACAD_REACTORS
330
1A
102
}
330
1A
100
AcDbPlotSettings
  1

  2

  4

  6

 40
0.0
 41
0.0
 42
0.0
 43
0.0
 44
0.0
 45
0.0
 46
0.0
 47
0.0
 48
0.0
 49
0.0
140
0.0
141
0.0
142
1.0
143
1.0
 70
   688
 72
     0
 73
     0
 74
     5
  7

 75
    16
147
1.0
148
0.0
149
0.0
100
AcDbLayout
  1
Layout1
 70
     1
 71
     1
 10
0.0
 20
0.0
 11
12.0
 21
9.0
 12
0.0
 22
0.0
 32
0.0
 14
1.00000000000000E+20
 24
1.00000000000000E+20
 34
1.00000000000000E+20
 15
-1.00000000000000E+20
 25
-1.00000000000000E+20
 35
-1.00000000000000E+20
146
0.0
 13
0.0
 23
0.0
 33
0.0
 16
1.0
 26
0.0
 36
0.0
 17
0.0
 27
1.0
 37
0.0
 76
     0
330
1B
  0
LAYOUT
  5
26
102
{ACAD_REACTORS
330
1A
102
}
330
1A
100
AcDbPlotSettings
  1

  2

  4

  6

 40
0.0
 41
0.0
 42
0.0
 43
0.0
 44
0.0
 45
0.0
 46
0.0
 47
0.0
 48
0.0
 49
0.0
140
0.0
141
0.0
142
1.0
143
1.0
 70
   688
 72
     0
 73
     0
 74
     5
  7

 75
    16
147
1.0
148
0.0
149
0.0
100
AcDbLayout
  1
Layout2
 70
     1
 71
     2
 10
0.0
 20
0.0
 11
0.0
 21
0.0
 12
0.0
 22
0.0
 32
0.0
 14
0.0
 24
0.0
 34
0.0
 15
0.0
 25
0.0
 35
0.0
146
0.0
 13
0.0
 23
0.0
 33
0.0
 16
1.0
 26
0.0
 36
0.0
 17
0.0
 27
1.0
 37
0.0
 76
     0
330
23
  0
LAYOUT
  5
22
102
{ACAD_REACTORS
330
1A
102
}
330
1A
100
AcDbPlotSettings
  1

  2

  4

  6

 40
0.0
 41
0.0
 42
0.0
 43
0.0
 44
0.0
 45
0.0
 46
0.0
 47
0.0
 48
0.0
 49
0.0
140
0.0
141
0.0
142
1.0
143
1.0
 70
  1712
 72
     0
 73
     0
 74
     0
  7

 75
     0
147
1.0
148
0.0
149
0.0
100
AcDbLayout
  1
Model
 70
     1
 71
     0
 10
0.0
 20
0.0
 11
0.0
 21
0.0
 12
0.0
 22
0.0
 32
0.0
 14
0.0
 24
0.0
 34
0.0
 15
525.0
 25
742.5
 35
0.0
146
0.0
 13
0.0
 23
0.0
 33
0.0
 16
1.0
 26
0.0
 36
0.0
 17
0.0
 27
1.0
 37
0.0
 76
     0
330
1F
  0
MLINESTYLE
  5
18
102
{ACAD_REACTORS
330
17
102
}
330
17
100
AcDbMlineStyle
  2
Standard
 70
     0
  3

 62
   256
 51
90.0
 52
90.0
 71
     2
 49
0.5
 62
   256
  6
BYLAYER
 49
-0.5
 62
   256
  6
BYLAYER
  0
ACDBPLACEHOLDER
  5
F
102
{ACAD_REACTORS
330
E
102
}
330
E
  0
TABLESTYLE
  5
2B
102
{ACAD_REACTORS
330
2A
102
}
330
2A
100
AcDbTableStyle
  3
Standard
 70
     0
 71
     0
 40
0.06
 41
0.06
280
     0
281
     0
  7
Standard
140
0.18
170
     2
 62
     0
 63
     7
283
     0
274
    -2
284
     1
 64
     0
275
    -2
285
     1
 65
     0
276
    -2
286
     1
 66
     0
277
    -2
287
     1
 67
     0
278
    -2
288
     1
 68
     0
279
    -2
289
     1
 69
     0
  7
Standard
140
0.25
170
     5
 62
     0
 63
     7
283
     0
274
    -2
284
     1
 64
     0
275
    -2
285
     1
 65
     0
276
    -2
286
     1
 66
     0
277
    -2
287
     1
 67
     0
278
    -2
288
     1
 68
     0
279
    -2
289
     1
 69
     0
  7
Standard
140
0.18
170
     5
 62
     0
 63
     7
283
     0
274
    -2
284
     1
 64
     0
275
    -2
285
     1
 65
     0
276
    -2
286
     1
 66
     0
277
    -2
287
     1
 67
     0
278
    -2
288
     1
 68
     0
279
    -2
289
     1
 69
     0
  0
DICTIONARYVAR
  5
2D
102
{ACAD_REACTORS
330
2C
102
}
330
2C
100
DictionaryVariables
280
     0
  1
Standard
  0
ENDSEC
  0
EOF
