  0
SECTION
  2
HEADER
  9
$ACADVER
  1
AC1015
  9
$ACADMAINTVER
 70
     6
  9
$DWGCODEPAGE
  3
ANSI_932
  9
$INSBASE
 10
0.0
 20
0.0
 30
0.0
  9
$EXTMIN
 10
0.0
 20
0.0
 30
0.0
  9
$EXTMAX
 10
630.0000000000003
 20
891.0
 30
0.0
  9
$LIMMIN
 10
0.0
 20
0.0
  9
$LIMMAX
 10
12.0
 20
9.0
  9
$ORTHOMODE
 70
     0
  9
$REGENMODE
 70
     1
  9
$FILLMODE
 70
     1
  9
$QTEXTMODE
 70
     0
  9
$MIRRTEXT
 70
     1
  9
$LTSCALE
 40
1.0
  9
$ATTMODE
 70
     1
  9
$TEXTSIZE
 40
0.2
  9
$TRACEWID
 40
0.05
  9
$TEXTSTYLE
  7
Standard
  9
$CLAYER
  8
0
  9
$CELTYPE
  6
ByLayer
  9
$CECOLOR
 62
   256
  9
$CELTSCALE
 40
1.0
  9
$DISPSILH
 70
     0
  9
$DIMSCALE
 40
1.0
  9
$DIMASZ
 40
0.18
  9
$DIMEXO
 40
0.0625
  9
$DIMDLI
 40
0.38
  9
$DIMRND
 40
0.0
  9
$DIMDLE
 40
0.0
  9
$DIMEXE
 40
0.18
  9
$DIMTP
 40
0.0
  9
$DIMTM
 40
0.0
  9
$DIMTXT
 40
0.18
  9
$DIMCEN
 40
0.09
  9
$DIMTSZ
 40
0.0
  9
$DIMTOL
 70
     0
  9
$DIMLIM
 70
     0
  9
$DIMTIH
 70
     1
  9
$DIMTOH
 70
     1
  9
$DIMSE1
 70
     0
  9
$DIMSE2
 70
     0
  9
$DIMTAD
 70
     0
  9
$DIMZIN
 70
     0
  9
$DIMBLK
  1

  9
$DIMASO
 70
     1
  9
$DIMSHO
 70
     1
  9
$DIMPOST
  1

  9
$DIMAPOST
  1

  9
$DIMALT
 70
     0
  9
$DIMALTD
 70
     2
  9
$DIMALTF
 40
25.4
  9
$DIMLFAC
 40
1.0
  9
$DIMTOFL
 70
     0
  9
$DIMTVP
 40
0.0
  9
$DIMTIX
 70
     0
  9
$DIMSOXD
 70
     0
  9
$DIMSAH
 70
     0
  9
$DIMBLK1
  1

  9
$DIMBLK2
  1

  9
$DIMSTYLE
  2
Standard
  9
$DIMCLRD
 70
     0
  9
$DIMCLRE
 70
     0
  9
$DIMCLRT
 70
     0
  9
$DIMTFAC
 40
1.0
  9
$DIMGAP
 40
0.09
  9
$DIMJUST
 70
     0
  9
$DIMSD1
 70
     0
  9
$DIMSD2
 70
     0
  9
$DIMTOLJ
 70
     1
  9
$DIMTZIN
 70
     0
  9
$DIMALTZ
 70
     0
  9
$DIMALTTZ
 70
     0
  9
$DIMUPT
 70
     0
  9
$DIMDEC
 70
     4
  9
$DIMTDEC
 70
     4
  9
$DIMALTU
 70
     2
  9
$DIMALTTD
 70
     2
  9
$DIMTXSTY
  7
Standard
  9
$DIMAUNIT
 70
     0
  9
$DIMADEC
 70
     0
  9
$DIMALTRND
 40
0.0
  9
$DIMAZIN
 70
     0
  9
$DIMDSEP
 70
    46
  9
$DIMATFIT
 70
     3
  9
$DIMFRAC
 70
     0
  9
$DIMLDRBLK
  1

  9
$DIMLUNIT
 70
     2
  9
$DIMLWD
 70
    -2
  9
$DIMLWE
 70
    -2
  9
$DIMTMOVE
 70
     0
  9
$LUNITS
 70
     2
  9
$LUPREC
 70
     4
  9
$SKETCHINC
 40
0.1
  9
$FILLETRAD
 40
0.5
  9
$AUNITS
 70
     0
  9
$AUPREC
 70
     0
  9
$MENU
  1
.
  9
$ELEVATION
 40
0.0
  9
$PELEVATION
 40
0.0
  9
$THICKNESS
 40
0.0
  9
$LIMCHECK
 70
     0
  9
$CHAMFERA
 40
0.5
  9
$CHAMFERB
 40
0.5
  9
$CHAMFERC
 40
1.0
  9
$CHAMFERD
 40
0.0
  9
$SKPOLY
 70
     0
  9
$TDCREATE
 40
2457246.769527153
  9
$TDUCREATE
 40
2457246.394527153
  9
$TDUPDATE
 40
2457246.769528056
  9
$TDUUPDATE
 40
2457246.394528056
  9
$TDINDWG
 40
0.0000000116
  9
$TDUSRTIMER
 40
0.0000000116
  9
$USRTIMER
 70
     1
  9
$ANGBASE
 50
0.0
  9
$ANGDIR
 70
     0
  9
$PDMODE
 70
     0
  9
$PDSIZE
 40
0.0
  9
$PLINEWID
 40
0.0
  9
$SPLFRAME
 70
     0
  9
$SPLINETYPE
 70
     6
  9
$SPLINESEGS
 70
     8
  9
$HANDSEED
  5
33D
  9
$SURFTAB1
 70
     6
  9
$SURFTAB2
 70
     6
  9
$SURFTYPE
 70
     6
  9
$SURFU
 70
     6
  9
$SURFV
 70
     6
  9
$UCSBASE
  2

  9
$UCSNAME
  2

  9
$UCSORG
 10
0.0
 20
0.0
 30
0.0
  9
$UCSXDIR
 10
1.0
 20
0.0
 30
0.0
  9
$UCSYDIR
 10
0.0
 20
1.0
 30
0.0
  9
$UCSORTHOREF
  2

  9
$UCSORTHOVIEW
 70
     0
  9
$UCSORGTOP
 10
0.0
 20
0.0
 30
0.0
  9
$UCSORGBOTTOM
 10
0.0
 20
0.0
 30
0.0
  9
$UCSORGLEFT
 10
0.0
 20
0.0
 30
0.0
  9
$UCSORGRIGHT
 10
0.0
 20
0.0
 30
0.0
  9
$UCSORGFRONT
 10
0.0
 20
0.0
 30
0.0
  9
$UCSORGBACK
 10
0.0
 20
0.0
 30
0.0
  9
$PUCSBASE
  2

  9
$PUCSNAME
  2

  9
$PUCSORG
 10
0.0
 20
0.0
 30
0.0
  9
$PUCSXDIR
 10
1.0
 20
0.0
 30
0.0
  9
$PUCSYDIR
 10
0.0
 20
1.0
 30
0.0
  9
$PUCSORTHOREF
  2

  9
$PUCSORTHOVIEW
 70
     0
  9
$PUCSORGTOP
 10
0.0
 20
0.0
 30
0.0
  9
$PUCSORGBOTTOM
 10
0.0
 20
0.0
 30
0.0
  9
$PUCSORGLEFT
 10
0.0
 20
0.0
 30
0.0
  9
$PUCSORGRIGHT
 10
0.0
 20
0.0
 30
0.0
  9
$PUCSORGFRONT
 10
0.0
 20
0.0
 30
0.0
  9
$PUCSORGBACK
 10
0.0
 20
0.0
 30
0.0
  9
$USERI1
 70
     0
  9
$USERI2
 70
     0
  9
$USERI3
 70
     0
  9
$USERI4
 70
     0
  9
$USERI5
 70
     0
  9
$USERR1
 40
18.1
  9
$USERR2
 40
0.0
  9
$USERR3
 40
0.0
  9
$USERR4
 40
0.0
  9
$USERR5
 40
0.0
  9
$WORLDVIEW
 70
     1
  9
$SHADEDGE
 70
     3
  9
$SHADEDIF
 70
    70
  9
$TILEMODE
 70
     1
  9
$MAXACTVP
 70
    64
  9
$PINSBASE
 10
0.0
 20
0.0
 30
0.0
  9
$PLIMCHECK
 70
     0
  9
$PEXTMIN
 10
1.00000000000000E+20
 20
1.00000000000000E+20
 30
1.00000000000000E+20
  9
$PEXTMAX
 10
-1.00000000000000E+20
 20
-1.00000000000000E+20
 30
-1.00000000000000E+20
  9
$PLIMMIN
 10
0.0
 20
0.0
  9
$PLIMMAX
 10
12.0
 20
9.0
  9
$UNITMODE
 70
     0
  9
$VISRETAIN
 70
     1
  9
$PLINEGEN
 70
     0
  9
$PSLTSCALE
 70
     1
  9
$TREEDEPTH
 70
  3020
  9
$CMLSTYLE
  2
Standard
  9
$CMLJUST
 70
     0
  9
$CMLSCALE
 40
1.0
  9
$PROXYGRAPHICS
 70
     1
  9
$MEASUREMENT
 70
     1
  9
$CELWEIGHT
370
    -1
  9
$ENDCAPS
280
     0
  9
$JOINSTYLE
280
     0
  9
$LWDISPLAY
290
     0
  9
$INSUNITS
 70
     4
  9
$HYPERLINKBASE
  1

  9
$STYLESHEET
  1

  9
$XEDIT
290
     1
  9
$CEPSNTYPE
380
     0
  9
$PSTYLEMODE
290
     1
  9
$FINGERPRINTGUID
  2
{DB153306-F5D6-4B01-878D-1854625B74C3}
  9
$VERSIONGUID
  2
{FAEB1C32-E019-11D5-929B-00C0DF256EC4}
  9
$EXTNAMES
290
     1
  9
$PSVPSCALE
 40
0.0
  9
$OLESTARTUP
290
     0
  0
ENDSEC
  0
SECTION
  2
CLASSES
  0
CLASS
  1
ACDBDICTIONARYWDFLT
  2
AcDbDictionaryWithDefault
  3
ObjectDBX Classes
 90
        0
280
     0
281
     0
  0
CLASS
  1
VISUALSTYLE
  2
AcDbVisualStyle
  3
ObjectDBX Classes
 90
     4095
280
     0
281
     0
  0
CLASS
  1
MATERIAL
  2
AcDbMaterial
  3
ObjectDBX Classes
 90
     1153
280
     0
281
     0
  0
CLASS
  1
DICTIONARYVAR
  2
AcDbDictionaryVar
  3
ObjectDBX Classes
 90
        0
280
     0
281
     0
  0
CLASS
  1
ACDBPLACEHOLDER
  2
AcDbPlaceHolder
  3
ObjectDBX Classes
 90
        0
280
     0
281
     0
  0
CLASS
  1
LAYOUT
  2
AcDbLayout
  3
ObjectDBX Classes
 90
        0
280
     0
281
     0
  0
ENDSEC
  0
SECTION
  2
TABLES
  0
TABLE
  2
VPORT
  5
8
330
0
100
AcDbSymbolTable
 70
     1
  0
VPORT
  5
29
330
8
100
AcDbSymbolTableRecord
100
AcDbViewportTableRecord
  2
*Active
 70
     0
 10
0.0
 20
0.0
 11
1.0
 21
1.0
 12
315.0000000000002
 22
445.5
 13
0.0
 23
0.0
 14
0.5
 24
0.5
 15
0.5
 25
0.5
 16
0.0
 26
0.0
 36
1.0
 17
0.0
 27
0.0
 37
0.0
 40
980.1
 41
1.60267857142857
 42
50.0
 43
0.0
 44
0.0
 50
0.0
 51
0.0
 71
     0
 72
   100
 73
     1
 74
     3
 75
     0
 76
     0
 77
     0
 78
     0
281
     0
 65
     1
110
0.0
120
0.0
130
0.0
111
1.0
121
0.0
131
0.0
112
0.0
122
1.0
132
0.0
 79
     0
146
0.0
  0
ENDTAB
  0
TABLE
  2
LTYPE
  5
5
330
0
100
AcDbSymbolTable
 70
     8
  0
LTYPE
  5
14
330
5
100
AcDbSymbolTableRecord
100
AcDbLinetypeTableRecord
  2
ByBlock
 70
     0
  3

 72
    65
 73
     0
 40
0.0
  0
LTYPE
  5
15
330
5
100
AcDbSymbolTableRecord
100
AcDbLinetypeTableRecord
  2
ByLayer
 70
     0
  3

 72
    65
 73
     0
 40
0.0
  0
LTYPE
  5
16
330
5
100
AcDbSymbolTableRecord
100
AcDbLinetypeTableRecord
  2
Continuous
 70
     0
  3
Solid line
 72
    65
 73
     0
 40
0.0
  0
LTYPE
  5
3F
330
5
100
AcDbSymbolTableRecord
100
AcDbLinetypeTableRecord
  2
DASHED
 70
     0
  3
Dashed
 72
    65
 73
     2
 40
15.0
 49
7.0
 74
     0
 49
-8.0
 74
     0
  0
LTYPE
  5
40
330
5
100
AcDbSymbolTableRecord
100
AcDbLinetypeTableRecord
  2
DOTTED
 70
     0
  3
Dotted
 72
    65
 73
     2
 40
1.0
 49
0.0
 74
     0
 49
-1.0
 74
     0
  0
LTYPE
  5
41
330
5
100
AcDbSymbolTableRecord
100
AcDbLinetypeTableRecord
  2
DOT_CENTER
 70
     0
  3
Dot_Center
 72
    65
 73
     4
 40
14.0
 49
12.0
 74
     0
 49
-1.0
 74
     0
 49
0.0
 74
     0
 49
-1.0
 74
     0
  0
LTYPE
  5
42
330
5
100
AcDbSymbolTableRecord
100
AcDbLinetypeTableRecord
  2
LONG_DASHED
 70
     0
  3
Long_Dashed
 72
    65
 73
     2
 40
15.0
 49
10.0
 74
     0
 49
-5.0
 74
     0
  0
LTYPE
  5
43
330
5
100
AcDbSymbolTableRecord
100
AcDbLinetypeTableRecord
  2
DASH_CENTER
 70
     0
  3
Dash_Center
 72
    65
 73
     4
 40
14.0
 49
11.0
 74
     0
 49
-1.0
 74
     0
 49
1.0
 74
     0
 49
-1.0
 74
     0
  0
LTYPE
  5
44
330
5
100
AcDbSymbolTableRecord
100
AcDbLinetypeTableRecord
  2
PHANTOM
 70
     0
  3
Phantom
 72
    65
 73
     6
 40
13.0
 49
10.0
 74
     0
 49
-1.0
 74
     0
 49
0.0
 74
     0
 49
-1.0
 74
     0
 49
0.0
 74
     0
 49
-1.0
 74
     0
  0
LTYPE
  5
45
330
5
100
AcDbSymbolTableRecord
100
AcDbLinetypeTableRecord
  2
CENTER_DASH_DASH
 70
     0
  3
Center_Dash_Dash
 72
    65
 73
     6
 40
14.0
 49
9.0
 74
     0
 49
-1.0
 74
     0
 49
1.0
 74
     0
 49
-1.0
 74
     0
 49
1.0
 74
     0
 49
-1.0
 74
     0
  0
ENDTAB
  0
TABLE
  2
LAYER
  5
2
330
0
100
AcDbSymbolTable
 70
     2
  0
LAYER
  5
10
330
2
100
AcDbSymbolTableRecord
100
AcDbLayerTableRecord
  2
0
 70
     0
 62
     7
  6
Continuous
370
    -3
390
F
  0
LAYER
  5
46
330
2
100
AcDbSymbolTableRecord
100
AcDbLayerTableRecord
  2
1
 70
     0
 62
     7
  6
Continuous
370
    -3
390
F
  0
ENDTAB
  0
TABLE
  2
STYLE
  5
3
330
0
100
AcDbSymbolTable
 70
     3
  0
STYLE
  5
11
330
3
100
AcDbSymbolTableRecord
100
AcDbTextStyleTableRecord
  2
Standard
 70
     0
 40
0.0
 41
1.0
 50
0.0
 71
     0
 42
0.2
  3
txt
  4

  0
STYLE
  5
282
330
3
100
AcDbSymbolTableRecord
100
AcDbTextStyleTableRecord
  2
CONVERTER_11
 70
     0
 40
0.0
 41
0.89
 50
0.0
 71
     0
 42
0.2
  3
MS Mincho.ttf
  4

1001
ACAD
1000
MS Mincho
1071
    32785
  0
STYLE
  5
2B1
330
3
100
AcDbSymbolTableRecord
100
AcDbTextStyleTableRecord
  2
CONVERTER_12
 70
     0
 40
0.0
 41
0.9
 50
0.0
 71
     0
 42
0.2
  3
txt.shx
  4

  0
ENDTAB
  0
TABLE
  2
VIEW
  5
6
330
0
100
AcDbSymbolTable
 70
     0
  0
ENDTAB
  0
TABLE
  2
UCS
  5
7
330
0
100
AcDbSymbolTable
 70
     0
  0
ENDTAB
  0
TABLE
  2
APPID
  5
9
330
0
100
AcDbSymbolTable
 70
     1
  0
APPID
  5
12
330
9
100
AcDbSymbolTableRecord
100
AcDbRegAppTableRecord
  2
ACAD
 70
     0
  0
ENDTAB
  0
TABLE
  2
DIMSTYLE
  5
A
330
0
100
AcDbSymbolTable
 70
     8
100
AcDbDimStyleTable
  0
DIMSTYLE
105
27
330
A
100
AcDbSymbolTableRecord
100
AcDbDimStyleTableRecord
  2
Standard
 70
     0
178
     0
340
11
  0
DIMSTYLE
105
2CE
102
{ACAD_REACTORS
330
2CF
102
}
330
A
100
AcDbSymbolTableRecord
100
AcDbDimStyleTableRecord
  2
ME10_DIM_10
 70
     0
 41
10.5
 42
0.0
 44
3.0
 73
     0
 74
     0
 77
     1
 78
     8
140
10.5
147
3.0
172
     1
173
     1
174
     1
175
     1
176
     2
177
     2
271
     2
178
     7
271
     2
340
2B1
344
2CB
  0
DIMSTYLE
105
2D9
102
{ACAD_REACTORS
330
2DA
102
}
330
A
100
AcDbSymbolTableRecord
100
AcDbDimStyleTableRecord
  2
ME10_DIM_11
 70
     0
 41
10.5
 42
0.0
 44
3.0
 73
     0
 74
     0
 77
     1
 78
     8
140
10.5
147
3.0
172
     1
173
     1
174
     1
175
     1
176
     2
177
     2
271
     2
178
     7
271
     2
340
2B1
  0
DIMSTYLE
105
2E4
102
{ACAD_REACTORS
330
2E5
102
}
330
A
100
AcDbSymbolTableRecord
100
AcDbDimStyleTableRecord
  2
ME10_DIM_12
 70
     0
 41
10.5
 42
0.0
 44
3.0
 73
     0
 74
     0
 77
     1
 78
     8
140
10.5
147
3.0
172
     1
173
     1
174
     1
175
     1
176
     2
177
     2
271
     2
178
     7
271
     2
340
2B1
  0
DIMSTYLE
105
2EF
102
{ACAD_REACTORS
330
2F0
102
}
330
A
100
AcDbSymbolTableRecord
100
AcDbDimStyleTableRecord
  2
ME10_DIM_13
 70
     0
 41
10.5
 42
0.0
 44
3.0
 73
     0
 74
     0
 77
     1
 78
     8
140
10.5
147
3.0
172
     1
173
     1
174
     1
175
     1
176
     2
177
     2
271
     2
178
     7
271
     2
340
2B1
  0
DIMSTYLE
105
2FA
102
{ACAD_REACTORS
330
2FB
102
}
330
A
100
AcDbSymbolTableRecord
100
AcDbDimStyleTableRecord
  2
ME10_DIM_14
 70
     0
 41
10.5
 42
0.0
 44
3.0
 73
     0
 74
     0
 77
     1
 78
     8
140
10.5
147
3.0
172
     1
173
     1
174
     1
175
     1
176
     2
177
     2
271
     2
178
     7
271
     2
340
2B1
  0
DIMSTYLE
105
305
102
{ACAD_REACTORS
330
306
102
}
330
A
100
AcDbSymbolTableRecord
100
AcDbDimStyleTableRecord
  2
ME10_DIM_15
 70
     0
 41
10.5
 42
0.0
 44
3.0
 73
     0
 74
     0
 77
     1
 78
     8
140
10.5
147
3.0
172
     1
173
     1
174
     1
175
     1
176
     2
177
     2
271
     2
178
     7
271
     2
340
2B1
  0
DIMSTYLE
105
310
102
{ACAD_REACTORS
330
311
102
}
330
A
100
AcDbSymbolTableRecord
100
AcDbDimStyleTableRecord
  2
ME10_DIM_16
 70
     0
  3
{\Fgdt;n}<>
 41
10.5
 42
0.0
 44
3.0
 73
     0
 74
     0
 77
     1
 78
     8
140
10.5
147
3.0
172
     1
173
     1
174
     1
175
     1
176
     2
177
     2
271
     2
178
     7
271
     2
340
2B1
  0
ENDTAB
  0
TABLE
  2
BLOCK_RECORD
  5
1
330
0
100
AcDbSymbolTable
 70
    15
  0
BLOCK_RECORD
  5
1F
330
1
100
AcDbSymbolTableRecord
100
AcDbBlockTableRecord
  2
*Model_Space
340
22
  0
BLOCK_RECORD
  5
1B
330
1
100
AcDbSymbolTableRecord
100
AcDbBlockTableRecord
  2
*Paper_Space
340
1E
  0
BLOCK_RECORD
  5
23
330
1
100
AcDbSymbolTableRecord
100
AcDbBlockTableRecord
  2
*Paper_Space0
340
26
  0
BLOCK_RECORD
  5
47
330
1
100
AcDbSymbolTableRecord
100
AcDbBlockTableRecord
  2
32-1-16
340
0
102
{BLKREFS
331
5A
102
}
  0
BLOCK_RECORD
  5
4A
330
1
100
AcDbSymbolTableRecord
100
AcDbBlockTableRecord
  2
60-1-16-170
340
0
102
{BLKREFS
331
5B
102
}
  0
BLOCK_RECORD
  5
4D
330
1
100
AcDbSymbolTableRecord
100
AcDbBlockTableRecord
  2
A105-0
340
0
102
{BLKREFS
331
5C
102
}
  0
BLOCK_RECORD
  5
50
330
1
100
AcDbSymbolTableRecord
100
AcDbBlockTableRecord
  2
81-100K
340
0
102
{BLKREFS
331
54
102
}
  0
BLOCK_RECORD
  5
53
330
1
100
AcDbSymbolTableRecord
100
AcDbBlockTableRecord
  2
81-100X-M21
340
0
102
{BLKREFS
331
5D
102
}
  0
BLOCK_RECORD
  5
57
330
1
100
AcDbSymbolTableRecord
100
AcDbBlockTableRecord
  2
開示A4
340
0
102
{BLKREFS
331
5E
102
}
  0
BLOCK_RECORD
  5
2C2
330
1
100
AcDbSymbolTableRecord
100
AcDbBlockTableRecord
  2
*D7
340
0
  0
BLOCK_RECORD
  5
2CB
330
1
100
AcDbSymbolTableRecord
100
AcDbBlockTableRecord
  2
_NONE
340
0
  0
BLOCK_RECORD
  5
2D0
330
1
100
AcDbSymbolTableRecord
100
AcDbBlockTableRecord
  2
*D9
340
0
  0
BLOCK_RECORD
  5
2DB
330
1
100
AcDbSymbolTableRecord
100
AcDbBlockTableRecord
  2
*D10
340
0
  0
BLOCK_RECORD
  5
2E6
330
1
100
AcDbSymbolTableRecord
100
AcDbBlockTableRecord
  2
*D11
340
0
  0
BLOCK_RECORD
  5
2F1
330
1
100
AcDbSymbolTableRecord
100
AcDbBlockTableRecord
  2
*D12
340
0
  0
BLOCK_RECORD
  5
2FC
330
1
100
AcDbSymbolTableRecord
100
AcDbBlockTableRecord
  2
*D13
340
0
  0
BLOCK_RECORD
  5
307
330
1
100
AcDbSymbolTableRecord
100
AcDbBlockTableRecord
  2
*D14
340
0
  0
ENDTAB
  0
ENDSEC
  0
SECTION
  2
BLOCKS
  0
BLOCK
  5
20
330
1F
100
AcDbEntity
  8
0
100
AcDbBlockBegin
  2
*Model_Space
 70
     0
 10
0.0
 20
0.0
 30
0.0
  3
*Model_Space
  1

  0
ENDBLK
  5
21
330
1F
100
AcDbEntity
  8
0
100
AcDbBlockEnd
  0
BLOCK
  5
1C
330
1B
100
AcDbEntity
 67
     1
  8
0
100
AcDbBlockBegin
  2
*Paper_Space
 70
     0
 10
0.0
 20
0.0
 30
0.0
  3
*Paper_Space
  1

  0
ENDBLK
  5
1D
330
1B
100
AcDbEntity
 67
     1
  8
0
100
AcDbBlockEnd
  0
BLOCK
  5
24
330
23
100
AcDbEntity
  8
0
100
AcDbBlockBegin
  2
*Paper_Space0
 70
     0
 10
0.0
 20
0.0
 30
0.0
  3
*Paper_Space0
  1

  0
ENDBLK
  5
25
330
23
100
AcDbEntity
  8
0
100
AcDbBlockEnd
  0
BLOCK
  5
48
330
47
100
AcDbEntity
  8
0
100
AcDbBlockBegin
  2
32-1-16
 70
     0
 10
517.980792640644
 20
410.0345159827795
 30
0.0
  3
32-1-16
  1

  0
LINE
  5
5F
330
47
100
AcDbEntity
  8
1
  6
Continuous
 62
     7
100
AcDbLine
 10
482.2974884005487
 20
240.7047141224483
 30
0.0
 11
482.4104884005487
 21
240.7047141224483
 31
0.0
  0
LINE
  5
60
330
47
100
AcDbEntity
  8
1
  6
Continuous
 62
     7
100
AcDbLine
 10
482.4104884005487
 20
240.7047141224483
 30
0.0
 11
455.8104884005487
 21
240.7047141224483
 31
0.0
  0
LINE
  5
61
330
47
100
AcDbEntity
  8
1
  6
Continuous
 62
     7
100
AcDbLine
 10
457.6104884005487
 20
231.7047141224483
 30
0.0
 11
457.5524673388179
 21
231.7047141224483
 31
0.0
  0
LINE
  5
62
330
47
100
AcDbEntity
  8
1
  6
Continuous
 62
     7
100
AcDbLine
 10
459.3425392081174
 20
230.7047141224483
 30
0.0
 11
478.8784375929799
 21
230.7047141224483
 31
0.0
  0
LINE
  5
63
330
47
100
AcDbEntity
  8
1
  6
Continuous
 62
     7
100
AcDbLine
 10
124.380874890932
 20
664.7400310525984
 30
0.0
 11
127.3894383986941
 21
663.0030361015181
 31
0.0
  0
LINE
  5
64
330
47
100
AcDbEntity
  8
1
  6
Continuous
 62
     7
100
AcDbLine
 10
104.8762832846524
 20
664.7400310525979
 30
0.0
 11
101.867719776891
 21
663.0030361015181
 31
0.0
  0
LINE
  5
65
330
47
100
AcDbEntity
  8
1
  6
Continuous
 62
     7
100
AcDbLine
 10
128.6285790877924
 20
660.8567814702733
 30
0.0
 11
128.6285790877924
 21
647.5526467746232
 31
0.0
  0
LINE
  5
66
330
47
100
AcDbEntity
  8
1
  6
Continuous
 62
     7
100
AcDbLine
 10
115.867719776891
 20
638.7543247955535
 30
0.0
 11
127.3894383986941
 21
645.4063921433786
 31
0.0
  0
LINE
  5
67
330
47
100
AcDbEntity
  8
1
  6
Continuous
 62
     7
100
AcDbLine
 10
101.867719776891
 20
645.4063921433786
 30
0.0
 11
113.3894383986936
 21
638.7543247955535
 31
0.0
  0
LINE
  5
68
330
47
100
AcDbEntity
  8
1
  6
Continuous
 62
     7
100
AcDbLine
 10
100.6285790877924
 20
660.8567814702733
 30
0.0
 11
100.6285790877924
 21
647.5526467746232
 31
0.0
  0
LINE
  5
69
330
47
100
AcDbEntity
  8
1
  6
Continuous
 62
     7
100
AcDbLine
 10
114.6285790877922
 20
241.7047141224487
 30
0.0
 11
101.3285790877919
 21
241.7047141224487
 31
0.0
  0
LINE
  5
6A
330
47
100
AcDbEntity
  8
1
  6
Continuous
 62
     7
100
AcDbLine
 10
104.8606298953607
 20
231.7047141224487
 30
0.0
 11
114.6285790877922
 21
231.7047141224487
 31
0.0
  0
LINE
  5
6B
330
47
100
AcDbEntity
  8
1
  6
Continuous
 62
     7
100
AcDbLine
 10
103.128579087792
 20
232.7047141224483
 30
0.0
 11
103.0705580260613
 21
232.7047141224483
 31
0.0
  0
LINE
  5
6C
330
47
100
AcDbEntity
  8
1
  6
Continuous
 62
     7
100
AcDbLine
 10
100.6285790877922
 20
241.1329653012782
 30
0.0
 11
100.6285790877922
 21
233.9915368727353
 31
0.0
  0
LINE
  5
6D
330
47
100
AcDbEntity
  8
1
  6
Continuous
 62
     7
100
AcDbLine
 10
114.6285790877922
 20
231.7047141224487
 30
0.0
 11
124.3965282802231
 21
231.7047141224487
 31
0.0
  0
LINE
  5
6E
330
47
100
AcDbEntity
  8
1
  6
Continuous
 62
     7
100
AcDbLine
 10
126.186600149523
 20
232.7047141224483
 30
0.0
 11
126.1285790877922
 21
232.7047141224483
 31
0.0
  0
LINE
  5
6F
330
47
100
AcDbEntity
  8
1
  6
Continuous
 62
     7
100
AcDbLine
 10
127.9285790877921
 20
241.7047141224487
 30
0.0
 11
114.6285790877922
 21
241.7047141224487
 31
0.0
  0
LINE
  5
70
330
47
100
AcDbEntity
  8
1
  6
Continuous
 62
     7
100
AcDbLine
 10
128.628579087792
 20
233.9915368727353
 30
0.0
 11
128.628579087792
 21
241.1329653012782
 31
0.0
  0
ARC
  5
F0
330
47
100
AcDbEntity
  8
1
  6
Continuous
 62
     7
100
AcDbCircle
 10
479.6104884005487
 20
236.5622510870068
 30
0.0
 40
5.000000000000014
100
AcDbArc
 50
285.3375576695554
 51
55.94420225743188
  0
ARC
  5
F1
330
47
100
AcDbEntity
  8
1
  6
Continuous
 62
     7
100
AcDbCircle
 10
458.6104884005487
 20
236.5622510870068
 30
0.0
 40
4.999999999999922
100
AcDbArc
 50
124.0557977425687
 51
254.6624423304434
  0
ARC
  5
F2
330
47
100
AcDbEntity
  8
1
  6
Continuous
 62
     7
100
AcDbCircle
 10
114.6285790877922
 20
654.2047141224483
 30
0.0
 40
15.50000000000014
100
AcDbArc
 50
25.41462091516051
 51
34.58537908483859
  0
ARC
  5
F3
330
47
100
AcDbEntity
  8
1
  6
Continuous
 62
     7
100
AcDbCircle
 10
114.6285790877908
 20
654.2047141224483
 30
0.0
 40
15.50000000000154
100
AcDbArc
 50
325.4146209151647
 51
334.5853790848413
  0
ARC
  5
F4
330
47
100
AcDbEntity
  8
1
  6
Continuous
 62
     7
100
AcDbCircle
 10
114.6285790877908
 20
654.2047141224483
 30
0.0
 40
15.5
100
AcDbArc
 50
265.414620915166
 51
270.0000000000052
  0
ARC
  5
F5
330
47
100
AcDbEntity
  8
1
  6
Continuous
 62
     7
100
AcDbCircle
 10
114.6285790877938
 20
654.2047141224483
 30
0.0
 40
15.5
100
AcDbArc
 50
269.9999999999941
 51
274.585379084834
  0
ARC
  5
F6
330
47
100
AcDbEntity
  8
1
  6
Continuous
 62
     7
100
AcDbCircle
 10
114.6285790877922
 20
654.2047141224483
 30
0.0
 40
15.49999999999985
100
AcDbArc
 50
205.4146209151615
 51
214.5853790848397
  0
ARC
  5
F7
330
47
100
AcDbEntity
  8
1
  6
Continuous
 62
     7
100
AcDbCircle
 10
114.6285790877922
 20
654.2047141224483
 30
0.0
 40
15.49999999999989
100
AcDbArc
 50
145.41462091516
 51
154.5853790848389
  0
ARC
  5
F8
330
47
100
AcDbEntity
  8
1
  6
Continuous
 62
     7
100
AcDbCircle
 10
104.1285790877919
 20
237.5622510870066
 30
0.0
 40
4.999999999999686
100
AcDbArc
 50
225.5729959991955
 51
254.6624423304449
  0
ARC
  5
F9
330
47
100
AcDbEntity
  8
1
  6
Continuous
 62
     7
100
AcDbCircle
 10
104.128579087794
 20
237.5622510870084
 30
0.0
 40
5.000000000000103
100
AcDbArc
 50
124.0557977425962
 51
134.4270040008334
  0
ARC
  5
FA
330
47
100
AcDbEntity
  8
1
  6
Continuous
 62
     7
100
AcDbCircle
 10
125.1285790877922
 20
237.5622510870066
 30
0.0
 40
5.000000000000071
100
AcDbArc
 50
285.337557669554
 51
314.4270040008052
  0
ARC
  5
FB
330
47
100
AcDbEntity
  8
1
  6
Continuous
 62
     7
100
AcDbCircle
 10
125.1285790877904
 20
237.562251087008
 30
0.0
 40
5.000000000000237
100
AcDbArc
 50
45.57299599917142
 51
55.94420225741018
  0
ARC
  5
164
330
47
100
AcDbEntity
  8
1
  6
Continuous
 62
     7
100
AcDbCircle
 10
103.128579087792
 20
231.7047141224487
 30
0.0
 40
0.9999999999999589
100
AcDbArc
 50
30.00000000000136
 51
90.0
  0
ARC
  5
165
330
47
100
AcDbEntity
  8
1
  6
Continuous
 62
     7
100
AcDbCircle
 10
104.8606298953607
 20
232.7047141224483
 30
0.0
 40
0.9999999999996861
100
AcDbArc
 50
209.999999999984
 51
270.0
  0
ARC
  5
166
330
47
100
AcDbEntity
  8
1
  6
Continuous
 62
     7
100
AcDbCircle
 10
103.0705580260613
 20
233.7047141224487
 30
0.0
 40
1.000000000000601
100
AcDbArc
 50
254.6624423304515
 51
270.0
  0
ARC
  5
167
330
47
100
AcDbEntity
  8
1
  6
Continuous
 62
     7
100
AcDbCircle
 10
126.1285790877922
 20
231.7047141224487
 30
0.0
 40
0.9999999999996021
100
AcDbArc
 50
90.0
 51
149.9999999999991
  0
ARC
  5
168
330
47
100
AcDbEntity
  8
1
  6
Continuous
 62
     7
100
AcDbCircle
 10
124.3965282802231
 20
232.7047141224483
 30
0.0
 40
0.9999999999996021
100
AcDbArc
 50
270.0
 51
330.0000000000273
  0
ARC
  5
169
330
47
100
AcDbEntity
  8
1
  6
Continuous
 62
     7
100
AcDbCircle
 10
126.186600149523
 20
233.7047141224487
 30
0.0
 40
1.000000000000398
100
AcDbArc
 50
270.0
 51
285.337557669532
  0
ARC
  5
16A
330
47
100
AcDbEntity
  8
1
  6
Continuous
 62
     7
100
AcDbCircle
 10
478.8784375929799
 20
231.7047141224483
 30
0.0
 40
0.9999999999998919
100
AcDbArc
 50
317.0585971351235
 51
330.0000000000027
  0
ARC
  5
16B
330
47
100
AcDbEntity
  8
1
  6
Continuous
 62
     7
100
AcDbCircle
 10
480.6104884005487
 20
230.7047141224483
 30
0.0
 40
1.0
100
AcDbArc
 50
90.0
 51
149.9999999999962
  0
ARC
  5
16C
330
47
100
AcDbEntity
  8
1
  6
Continuous
 62
     7
100
AcDbCircle
 10
478.8784375929799
 20
231.7047141224483
 30
0.0
 40
1.0
100
AcDbArc
 50
270.0
 51
317.0585971351235
  0
ARC
  5
16D
330
47
100
AcDbEntity
  8
1
  6
Continuous
 62
     7
100
AcDbCircle
 10
480.6685094622792
 20
232.7047141224483
 30
0.0
 40
1.0
100
AcDbArc
 50
270.0
 51
285.3375576695664
  0
ARC
  5
16E
330
47
100
AcDbEntity
  8
1
  6
Continuous
 62
     7
100
AcDbCircle
 10
459.3425392081174
 20
231.7047141224483
 30
0.0
 40
0.9999999999999344
100
AcDbArc
 50
210.0000000000022
 51
222.9414028648831
  0
ARC
  5
16F
330
47
100
AcDbEntity
  8
1
  6
Continuous
 62
     7
100
AcDbCircle
 10
457.6104884005487
 20
230.7047141224483
 30
0.0
 40
0.9999999999998851
100
AcDbArc
 50
30.0000000000038
 51
90.0
  0
ARC
  5
170
330
47
100
AcDbEntity
  8
1
  6
Continuous
 62
     7
100
AcDbCircle
 10
459.3425392081174
 20
231.7047141224483
 30
0.0
 40
0.9999999999997671
100
AcDbArc
 50
222.9414028648831
 51
270.0
  0
ARC
  5
171
330
47
100
AcDbEntity
  8
1
  6
Continuous
 62
     7
100
AcDbCircle
 10
457.5524673388179
 20
232.7047141224483
 30
0.0
 40
0.9999999999998892
100
AcDbArc
 50
254.6624423304462
 51
270.0
  0
LWPOLYLINE
  5
172
330
47
100
AcDbEntity
  8
1
  6
Continuous
 62
     7
100
AcDbPolyline
 90
       44
 70
     0
 43
0.0
 10
469.1104884005487
 20
232.9914340580912
 42
0.00192465439163
 10
469.741967186098
 20
233.0362442185006
 42
0.00579582716002
 10
470.3714889283916
 20
233.0906874920297
 42
0.00971919996736
 10
470.9970965841741
 20
233.1643969917972
 42
0.01368329092382
 10
471.6168331101889
 20
233.2670058309229
 42
0.01760392102875
 10
472.2287414631809
 20
233.4081471225258
 42
0.01424782008119
 10
472.6580584713961
 20
233.5369199872793
 42
0.0150649458913
 10
473.0799617080513
 20
233.6909278866434
 42
0.01597151023864
 10
473.491992843439
 20
233.8710137873522
 42
0.01694827318125
 10
473.8916935478521
 20
234.0780206561402
 42
0.0179676341133
 10
474.2766054915838
 20
234.3127914597429
 42
0.0138072635728
 10
474.5236385299361
 20
234.4856614172021
 42
0.01687834150022
 10
474.7593087881738
 20
234.6730992410933
 42
0.02010419477358
 10
474.979940678104
 20
234.8769224302466
 42
0.0233771979849
 10
475.181858611534
 20
235.0989484834941
 42
0.02648611292476
 10
475.3613870002705
 20
235.3409948996663
 42
0.02445672228589
 10
475.4948563027343
 20
235.5658350429975
 42
0.02597674843345
 10
475.6053768319342
 20
235.8036044380474
 42
0.02826569467706
 10
475.6892795847123
 20
236.0510793801659
 42
0.03124058801242
 10
475.7428955579114
 20
236.3050361647022
 42
0.0347059411792
 10
475.7625557483735
 20
236.5622510870064
 42
0.01406651419818
 10
475.7602736037662
 20
236.6631378651774
 42
0.02676468935537
 10
475.7391391472783
 20
236.8638400499543
 42
0.02540504877142
 10
475.6971356304108
 20
237.0613017251826
 42
0.02751525116187
 10
475.624559095758
 20
237.2831877838344
 42
0.0248597819343
 10
475.5289126894195
 20
237.4968848353739
 42
0.02238551344399
 10
475.4130764188499
 20
237.7014471259565
 42
0.02021357195382
 10
475.2799302915051
 20
237.8959289017365
 42
0.01840033127233
 10
475.13235431484
 20
238.0793844088701
 42
0.0214313842364
 10
474.9269795306579
 20
238.2966511080784
 42
0.01913624480328
 10
474.7052839454118
 20
238.4959880941109
 42
0.01676156054393
 10
474.4697695932732
 20
238.6789765189133
 42
0.01441088898015
 10
474.2229385084142
 20
238.8471975344311
 42
0.01214204844313
 10
473.9672927250065
 20
239.00223229261
 42
0.01447170597589
 10
473.6153185062141
 20
239.1910865365977
 42
0.01390216455005
 10
473.2535481252991
 20
239.3595164102109
 42
0.01337183374561
 10
472.8834700058072
 20
239.5078429523319
 42
0.01289027459568
 10
472.5065725712834
 20
239.6363872018424
 42
0.01246477621794
 10
472.1243442452737
 20
239.7454701976253
 42
0.01693514203081
 10
471.5323547047373
 20
239.8766716545378
 42
0.01315572423605
 10
470.933177411929
 20
239.9720692674443
 42
0.00934397811629
 10
470.3286093049155
 20
240.0406139973461
 42
0.00557289541327
 10
469.7204473217661
 20
240.0912568052452
 42
0.00185086034389
 10
469.1104884005487
 20
240.1329486521423
  0
LWPOLYLINE
  5
173
330
47
100
AcDbEntity
  8
1
  6
Continuous
 62
     7
100
AcDbPolyline
 90
       44
 70
     0
 43
0.0
 10
469.1104884005487
 20
240.1329486521423
 42
0.00185086034389
 10
468.500529479331
 20
240.0912568052451
 42
0.00556644147837
 10
467.8923674961815
 20
240.0406139973461
 42
0.00934173141055
 10
467.2877993891685
 20
239.9720692674443
 42
0.01315589743565
 10
466.6886220963596
 20
239.8766716545378
 42
0.01695323639196
 10
466.0966325558235
 20
239.7454701976254
 42
0.01299633660888
 10
465.7144042298133
 20
239.6363872018424
 42
0.01235021591136
 10
465.3375067952896
 20
239.5078429523318
 42
0.01390461711857
 10
464.9674286757979
 20
239.3595164102108
 42
0.01336366133307
 10
464.605658294883
 20
239.1910865365977
 42
0.01500653161663
 10
464.2536840760906
 20
239.0022322926098
 42
0.01133519578026
 10
463.998038292683
 20
238.8471975344313
 42
0.01520307637064
 10
463.7512072078237
 20
238.6789765189134
 42
0.01596177619545
 10
463.5156928556855
 20
238.4959880941111
 42
0.01994317772821
 10
463.293997270439
 20
238.2966511080785
 42
0.02065443639324
 10
463.0886224862568
 20
238.0793844088701
 42
0.01926883177584
 10
462.9410465095918
 20
237.8959289017365
 42
0.01928767021197
 10
462.8079003822472
 20
237.7014471259565
 42
0.02326137430595
 10
462.692064111678
 20
237.4968848353739
 42
0.02394991434106
 10
462.5964177053392
 20
237.2831877838344
 42
0.02842171795339
 10
462.5238411706862
 20
237.0613017251826
 42
0.02485456982809
 10
462.4818376538187
 20
236.8638400499543
 42
0.02749616515874
 10
462.4607031973306
 20
236.6631378651774
 42
0.01366107569407
 10
462.4584210527234
 20
236.5622510870064
 42
0.03580683291147
 10
462.4780812431857
 20
236.3050361647022
 42
0.03010776499775
 10
462.5316972163845
 20
236.0510793801659
 42
0.02931301198439
 10
462.615599969163
 20
235.8036044380474
 42
0.02481949340086
 10
462.7261204983627
 20
235.5658350429976
 42
0.02549238209719
 10
462.8595898008264
 20
235.3409948996663
 42
0.02574913665164
 10
463.039118189563
 20
235.0989484834941
 42
0.02417519361626
 10
463.2410361229931
 20
234.8769224302467
 42
0.01931968436899
 10
463.4616680129233
 20
234.6730992410931
 42
0.0176473440163
 10
463.697338271161
 20
234.4856614172022
 42
0.01301077157707
 10
463.9443713095134
 20
234.312791459743
 42
0.01843691884167
 10
464.329283253245
 20
234.0780206561401
 42
0.01647826988072
 10
464.7289839576579
 20
233.8710137873521
 42
0.01643479826172
 10
465.1410150930457
 20
233.6909278866432
 42
0.0145906411179
 10
465.5629183297008
 20
233.5369199872795
 42
0.01470806882888
 10
465.9922353379162
 20
233.4081471225259
 42
0.01765304786762
 10
466.6041436909082
 20
233.2670058309229
 42
0.01365605356197
 10
467.2238802169233
 20
233.164396991797
 42
0.00974511750433
 10
467.8494878727057
 20
233.0906874920297
 42
0.00576078778349
 10
468.4790096149993
 20
233.0362442185006
 42
0.00195276221649
 10
469.1104884005487
 20
232.9914340580913
  0
LWPOLYLINE
  5
174
330
47
100
AcDbEntity
  8
1
  6
Continuous
 62
     7
100
AcDbPolyline
 90
       20
 70
     1
 43
0.0
 10
481.2348440535308
 20
232.9915368727349
 42
0.11265893300261
 10
482.5882828429496
 20
233.3005487112142
 42
0.05318050181112
 10
483.1905028257365
 20
233.6740130415403
 42
0.05369152181952
 10
483.706947683344
 20
234.1734344280317
 42
0.05004038780436
 10
484.1152737089816
 20
234.7768939798708
 42
0.05093965801194
 10
484.3981774880963
 20
235.4591333472739
 42
0.11363181466173
 10
484.5103478023796
 20
237.1822991032842
 42
0.07464722031459
 10
484.1717598133138
 20
238.2381878842226
 42
0.05082855065581
 10
483.7827336670579
 20
238.8574619416717
 42
0.05246013701951
 10
483.282990565593
 20
239.3756408748133
 42
0.05385878676536
 10
482.6935009039808
 20
239.7712508785912
 42
0.05544331965748
 10
482.0399156119951
 20
240.0267718749194
 42
0.32832135649061
 10
478.5435648346547
 20
238.6603731195784
 42
0.03529415588037
 10
478.1961121389438
 20
238.0139792273324
 42
0.08105330327653
 10
477.9411649160596
 20
237.0590794788573
 42
0.19051703913739
 10
478.7627404237174
 20
234.1734344280318
 42
0.07426623431809
 10
479.2791852813251
 20
233.6740130415402
 42
0.0236303216098
 10
479.7761872030807
 20
233.353251295422
 42
0.07674782445763
 10
480.4297724950666
 20
233.0977302990936
 42
0.04419826061742
 10
481.2348440535308
 20
232.9915368727349
  0
LWPOLYLINE
  5
175
330
47
100
AcDbEntity
  8
1
  6
Continuous
 62
     7
100
AcDbPolyline
 90
       20
 70
     1
 43
0.0
 10
457.7912043060309
 20
233.0977302990933
 42
0.05504811579085
 10
458.4447895980163
 20
233.3532512954218
 42
0.04485113939124
 10
458.9417915197719
 20
233.6740130415404
 42
0.05230497295546
 10
459.4582363773794
 20
234.1734344280316
 42
0.20665312923703
 10
460.2798118850374
 20
237.0590794788569
 42
0.06607951643303
 10
460.0248646621533
 20
238.0139792273324
 42
0.05073562997556
 10
459.6774119664423
 20
238.6603731195783
 42
0.32817551108372
 10
456.181061189102
 20
240.0267718749195
 42
0.05504811579093
 10
455.5274758971167
 20
239.7712508785912
 42
0.05360670510269
 10
454.9379862355041
 20
239.3756408748129
 42
0.05203207804025
 10
454.4382431340391
 20
238.8574619416716
 42
0.0506878667738
 10
454.0492169877837
 20
238.2381878842227
 42
0.07392925131878
 10
453.7106289987181
 20
237.1822991032842
 42
0.11484518879868
 10
453.8227993130006
 20
235.4591333472738
 42
0.05015685749872
 10
454.1057030921157
 20
234.7768939798709
 42
0.0514312010744
 10
454.5140291177534
 20
234.1734344280316
 42
0.05298428923205
 10
455.0304739753606
 20
233.6740130415402
 42
0.05448921509408
 10
455.6326939581475
 20
233.3005487112142
 42
0.11265893300263
 10
456.9861327475666
 20
232.991536872735
 42
0.06541739421515
 10
457.7912043060309
 20
233.0977302990933
  0
LWPOLYLINE
  5
176
330
47
100
AcDbEntity
  8
1
  6
Continuous
 62
     7
100
AcDbPolyline
 90
       54
 70
     1
 43
0.0
 10
101.8902107586923
 20
237.2492962354409
 42
0.02105781887651
 10
101.9552401744038
 20
236.9422030707289
 42
0.04538998764851
 10
102.0661611325396
 20
236.633536690958
 42
0.00222427288393
 10
102.2215859991169
 20
236.3300129395622
 42
0.05445094831674
 10
102.6395285769233
 20
235.7768939798711
 42
0.05016448253373
 10
102.9156521488828
 20
235.5087231896536
 42
0.00173508830045
 10
103.2288135061044
 20
235.2572084659066
 42
0.03910602301065
 10
103.9255701015972
 20
234.826925305198
 42
0.03604691465952
 10
104.3307366571973
 20
234.6344321825475
 42
0.00087199348602
 10
104.7600700089364
 20
234.4656561211005
 42
0.03045771980214
 10
105.6582491605985
 20
234.2068772889204
 42
0.02898008236503
 10
106.1409370153366
 20
234.1126027432131
 42
0.0002565014566
 10
106.6328337220299
 20
234.0452794254396
 42
0.02724652339317
 10
107.628579087792
 20
233.9915368727352
 42
0.02699365380104
 10
108.6243244535537
 20
234.0452794254396
 42
0.02715406339962
 10
109.1162211602476
 20
234.1126027432131
 42
0.00053888659651
 10
109.5989090149854
 20
234.2068772889203
 42
0.0296412596307
 10
110.4970881666478
 20
234.4656561211007
 42
0.03089097075922
 10
110.9264215183867
 20
234.6344321825475
 42
0.00127587521819
 10
111.3315880739867
 20
234.8269253051979
 42
0.03754790008172
 10
112.0283446694795
 20
235.2572084659069
 42
0.04036312189551
 10
112.3415060267013
 20
235.5087231896537
 42
0.00215294460205
 10
112.6176295986608
 20
235.7768939798712
 42
0.05245375212209
 10
113.0355721764669
 20
236.3300129395623
 42
0.05728573061473
 10
113.1909970430443
 20
236.633536690958
 42
0.00152808186047
 10
113.3019180011804
 20
236.9422030707289
 42
0.0682908481025
 10
113.3894383986934
 20
237.5622510870066
 42
0.06832142522169
 10
113.3019180011804
 20
238.1822991032842
 42
0.06803237442468
 10
113.1909970430441
 20
238.4909654830555
 42
0.00222427288355
 10
113.0355721764672
 20
238.794489234451
 42
0.05445094831646
 10
112.6176295986606
 20
239.3476081941427
 42
0.0501644825366
 10
112.3415060267014
 20
239.61577898436
 42
0.00173508830015
 10
112.0283446694794
 20
239.867293708107
 42
0.03910602301079
 10
111.3315880739869
 20
240.2975768688154
 42
0.03604691465624
 10
110.9264215183866
 20
240.490069991466
 42
0.00087199348612
 10
110.4970881666478
 20
240.6588460529133
 42
0.03045771980208
 10
109.5989090149854
 20
240.917624885093
 42
0.0289800823648
 10
109.1162211602476
 20
241.0118994308007
 42
0.00025650145651
 10
108.624324453554
 20
241.079222748574
 42
0.02724652339317
 10
107.6285790877919
 20
241.1329653012781
 42
0.02699365380099
 10
106.63283372203
 20
241.079222748574
 42
0.02715406339699
 10
106.1409370153366
 20
241.0118994308007
 42
0.00053888659633
 10
105.6582491605985
 20
240.9176248850929
 42
0.02964125963076
 10
104.7600700089365
 20
240.6588460529133
 42
0.03089097076345
 10
104.3307366571973
 20
240.4900699914662
 42
0.00127587521807
 10
103.9255701015971
 20
240.2975768688153
 42
0.03754790008173
 10
103.2288135061045
 20
239.8672937081066
 42
0.04036312188589
 10
102.9156521488831
 20
239.61577898436
 42
0.00215294460206
 10
102.6395285769234
 20
239.3476081941427
 42
0.05245375212236
 10
102.2215859991168
 20
238.794489234451
 42
0.05728573060743
 10
102.0661611325397
 20
238.4909654830555
 42
0.00152808186059
 10
101.9552401744037
 20
238.1822991032842
 42
0.06829084810253
 10
101.8677197768909
 20
237.5622510870066
 10
101.8902107586923
 20
237.2492962354409
  0
LWPOLYLINE
  5
177
330
47
100
AcDbEntity
  8
1
  6
Continuous
 62
     7
100
AcDbPolyline
 90
       55
 70
     1
 43
0.0
 10
127.3894383986935
 20
237.5622510870066
 42
0.06829084810252
 10
127.3019180011804
 20
238.1822991032842
 42
0.00152808186092
 10
127.1909970430443
 20
238.4909654830555
 42
0.05728573060743
 10
127.0355721764673
 20
238.794489234451
 42
0.05245375212249
 10
126.6176295986609
 20
239.3476081941426
 42
0.00215294460206
 10
126.3415060267012
 20
239.6157789843601
 42
0.04036312188588
 10
126.0283446694795
 20
239.8672937081066
 42
0.03754790008152
 10
125.3315880739867
 20
240.2975768688152
 42
0.00127587521817
 10
124.9264215183869
 20
240.4900699914661
 42
0.0308909707662
 10
124.4970881666477
 20
240.6588460529133
 42
0.0296412596308
 10
123.5989090149854
 20
240.917624885093
 42
0.00053888659628
 10
123.1162211602476
 20
241.0118994308007
 42
0.02715406339962
 10
122.6243244535537
 20
241.0792227485739
 42
0.02699365380098
 10
121.6285790877922
 20
241.1329653012782
 42
0.02724652339317
 10
120.6328337220304
 20
241.0792227485741
 42
0.00025650145654
 10
120.1409370153363
 20
241.0118994308006
 42
0.02898008236484
 10
119.6582491605985
 20
240.9176248850929
 42
0.03045771980208
 10
118.7600700089364
 20
240.6588460529133
 42
0.0008719934862
 10
118.3307366571971
 20
240.4900699914662
 42
0.03604691465944
 10
117.9255701015971
 20
240.2975768688154
 42
0.03910602301063
 10
117.2288135061047
 20
239.8672937081069
 42
0.00173508830034
 10
116.9156521488829
 20
239.6157789843601
 42
0.05016448253681
 10
116.6395285769233
 20
239.3476081941427
 42
0.05445094831646
 10
116.221585999117
 20
238.794489234451
 42
0.00222427288355
 10
116.0661611325397
 20
238.4909654830555
 42
0.0680323744099
 10
115.9552401744035
 20
238.1822991032842
 42
0.06832142522133
 10
115.8677197768905
 20
237.5622510870066
 42
0.06829084810215
 10
115.9552401744035
 20
236.9422030707289
 42
0.00152808186047
 10
116.0661611325395
 20
236.633536690958
 42
0.05728573060737
 10
116.2215859991171
 20
236.3300129395622
 42
0.05245375212233
 10
116.6395285769232
 20
235.7768939798713
 42
0.00215294460228
 10
116.9156521488828
 20
235.5087231896537
 42
0.04036312189551
 10
117.2288135061044
 20
235.2572084659069
 42
0.03754790008179
 10
117.9255701015971
 20
234.8269253051981
 42
0.00127587521819
 10
118.3307366571971
 20
234.6344321825475
 42
0.03089097075611
 10
118.7600700089364
 20
234.4656561211005
 42
0.02964125963068
 10
119.6582491605985
 20
234.2068772889204
 42
0.00053888659651
 10
120.1409370153361
 20
234.1126027432131
 42
0.02715406339699
 10
120.6328337220301
 20
234.0452794254395
 42
0.02699365380103
 10
121.6285790877922
 20
233.9915368727353
 42
0.02724652339318
 10
122.6243244535537
 20
234.0452794254397
 42
0.00025650145669
 10
123.1162211602475
 20
234.112602743213
 42
0.02898008236785
 10
123.5989090149854
 20
234.2068772889204
 42
0.03045771980218
 10
124.4970881666476
 20
234.4656561211007
 42
0.00087199348611
 10
124.9264215183868
 20
234.6344321825475
 42
0.03604691465941
 10
125.3315880739867
 20
234.8269253051979
 42
0.03910602301058
 10
126.0283446694793
 20
235.2572084659066
 42
0.00173508830044
 10
126.3415060267011
 20
235.5087231896536
 42
0.05016448253897
 10
126.617629598661
 20
235.7768939798712
 42
0.05445094831659
 10
127.0355721764671
 20
236.3300129395623
 42
0.00222427288363
 10
127.1909970430444
 20
236.633536690958
 42
0.04538998764755
 10
127.3019180011804
 20
236.9422030707289
 42
0.02105781887634
 10
127.3669474168919
 20
237.2492962354409
 10
127.3894383986935
 20
237.5622510870066
 10
127.3669474168919
 20
237.2492962354409
  0
ENDBLK
  5
49
330
47
100
AcDbEntity
  8
0
100
AcDbBlockEnd
  0
BLOCK
  5
4B
330
4A
100
AcDbEntity
  8
0
100
AcDbBlockBegin
  2
60-1-16-170
 70
     0
 10
99.94425439513488
 20
134.8386162924539
 30
0.0
  3
60-1-16-170
  1

  0
LINE
  5
178
330
4A
100
AcDbEntity
  8
1
  6
Continuous
 62
     7
100
AcDbLine
 10
122.6285790877924
 20
642.7039477865025
 30
0.0
 11
122.6285790877924
 21
354.2269747004086
 31
0.0
  0
LINE
  5
179
330
4A
100
AcDbEntity
  8
1
  6
Continuous
 62
     7
100
AcDbLine
 10
106.6285790877924
 20
642.7039477865025
 30
0.0
 11
106.6285790877924
 21
354.2269747004086
 31
0.0
  0
LINE
  5
17A
330
4A
100
AcDbEntity
  8
1
  6
Continuous
 62
     7
100
AcDbLine
 10
122.6285790877922
 20
171.2047141224484
 30
0.0
 11
106.6285790877921
 21
171.2047141224484
 31
0.0
  0
LINE
  5
17B
330
4A
100
AcDbEntity
  8
1
  6
Continuous
 62
     7
100
AcDbLine
 10
107.2421720818059
 20
166.2047141224483
 30
0.0
 11
122.0149860937781
 21
166.2047141224483
 31
0.0
  0
LINE
  5
17C
330
4A
100
AcDbEntity
  8
1
  6
Continuous
 62
     7
100
AcDbLine
 10
106.6285790877921
 20
171.2047141224484
 30
0.0
 11
106.6285790877921
 21
231.7047141224487
 31
0.0
  0
LINE
  5
17D
330
4A
100
AcDbEntity
  8
1
  6
Continuous
 62
     7
100
AcDbLine
 10
122.6285790877922
 20
171.2047141224484
 30
0.0
 11
122.6285790877922
 21
231.7047141224487
 31
0.0
  0
LINE
  5
17E
330
4A
100
AcDbEntity
  8
1
  6
Continuous
 62
     7
100
AcDbLine
 10
442.1104884005486
 20
190.2047141224479
 30
0.0
 11
196.1086889961381
 21
190.2047141224479
 31
0.0
  0
LINE
  5
17F
330
4A
100
AcDbEntity
  8
1
  6
Continuous
 62
     7
100
AcDbLine
 10
177.1086889961381
 20
170.2047141224477
 30
0.0
 11
177.1086889961381
 21
171.2047141224477
 31
0.0
  0
LINE
  5
180
330
4A
100
AcDbEntity
  8
1
  6
Continuous
 62
     7
100
AcDbLine
 10
161.1086889961381
 20
170.2047141224477
 30
0.0
 11
161.1086889961381
 21
171.2047141224477
 31
0.0
  0
LINE
  5
181
330
4A
100
AcDbEntity
  8
1
  6
Continuous
 62
     7
100
AcDbLine
 10
477.1104884005487
 20
230.7047141224483
 30
0.0
 11
477.1104884005487
 21
225.2047141224479
 31
0.0
  0
LINE
  5
182
330
4A
100
AcDbEntity
  8
1
  6
Continuous
 62
     7
100
AcDbLine
 10
461.1104884005487
 20
225.2047141224479
 30
0.0
 11
461.1104884005487
 21
230.7047141224483
 31
0.0
  0
LINE
  5
183
330
4A
100
AcDbEntity
  8
1
  6
Continuous
 62
     7
100
AcDbLine
 10
442.1104884005486
 20
206.2047141224479
 30
0.0
 11
196.1086889961381
 21
206.2047141224479
 31
0.0
  0
LINE
  5
184
330
4A
100
AcDbEntity
  8
1
  6
Continuous
 62
     7
100
AcDbLine
 10
161.7222819901519
 20
165.2047141224477
 30
0.0
 11
176.4950960021241
 21
165.2047141224477
 31
0.0
  0
LINE
  5
185
330
4A
100
AcDbEntity
  8
0
  6
Continuous
 62
     7
100
AcDbLine
 10
161.1086889961381
 20
170.2047141224477
 30
0.0
 11
177.1086889961381
 21
170.2047141224477
 31
0.0
  0
ARC
  5
186
330
4A
100
AcDbEntity
  8
1
  6
Continuous
 62
     7
100
AcDbCircle
 10
114.6285790877922
 20
354.2047141224484
 30
0.0
 40
8.650000000000205
100
AcDbArc
 50
270.0
 51
22.35342559933281
  0
ARC
  5
187
330
4A
100
AcDbEntity
  8
1
  6
Continuous
 62
     7
100
AcDbCircle
 10
114.6285790877922
 20
354.2047141224484
 30
0.0
 40
8.650000000000114
100
AcDbArc
 50
157.6465744006669
 51
270.0
  0
ARC
  5
188
330
4A
100
AcDbEntity
  8
1
  6
Continuous
 62
     7
100
AcDbCircle
 10
114.6285790877922
 20
354.2047141224484
 30
0.0
 40
7.999999999999801
100
AcDbArc
 50
180.0
 51
0.0
  0
ARC
  5
189
330
4A
100
AcDbEntity
  8
1
  6
Continuous
 62
     7
100
AcDbCircle
 10
119.4185527930735
 20
169.0609944152261
 30
0.0
 40
3.860026294718296
100
AcDbArc
 50
0.0
 51
33.7357910000241
  0
ARC
  5
18A
330
4A
100
AcDbEntity
  8
1
  6
Continuous
 62
     7
100
AcDbCircle
 10
109.8386053825103
 20
169.0609944152261
 30
0.0
 40
3.860026294718196
100
AcDbArc
 50
180.0
 51
227.728344503582
  0
ARC
  5
18B
330
4A
100
AcDbEntity
  8
1
  6
Continuous
 62
     7
100
AcDbCircle
 10
109.8386053825103
 20
169.0609944152261
 30
0.0
 40
3.860026294718134
100
AcDbArc
 50
146.2642089999717
 51
180.0
  0
ARC
  5
18C
330
4A
100
AcDbEntity
  8
1
  6
Continuous
 62
     7
100
AcDbCircle
 10
119.4185527930735
 20
169.0609944152261
 30
0.0
 40
3.86002629471855
100
AcDbArc
 50
312.2716554964204
 51
0.0
  0
ARC
  5
18D
330
4A
100
AcDbEntity
  8
1
  6
Continuous
 62
     7
100
AcDbCircle
 10
114.6285790877922
 20
199.2047141224483
 30
0.0
 40
8.0
100
AcDbArc
 50
0.0
 51
180.0
  0
ARC
  5
18E
330
4A
100
AcDbEntity
  8
1
  6
Continuous
 62
     7
100
AcDbCircle
 10
173.8986627014197
 20
168.0609944152254
 30
0.0
 40
3.860026294718296
100
AcDbArc
 50
0.0
 51
33.73579100002691
  0
ARC
  5
18F
330
4A
100
AcDbEntity
  8
1
  6
Continuous
 62
     7
100
AcDbCircle
 10
164.3187152908562
 20
168.0609944152254
 30
0.0
 40
3.860026294718296
100
AcDbArc
 50
180.0
 51
227.7283445035819
  0
ARC
  5
190
330
4A
100
AcDbEntity
  8
1
  6
Continuous
 62
     7
100
AcDbCircle
 10
164.3187152908562
 20
168.0609944152254
 30
0.0
 40
3.860026294718067
100
AcDbArc
 50
146.2642089999705
 51
180.0
  0
ARC
  5
191
330
4A
100
AcDbEntity
  8
1
  6
Continuous
 62
     7
100
AcDbCircle
 10
173.8986627014197
 20
168.0609944152254
 30
0.0
 40
3.860026294718313
100
AcDbArc
 50
312.271655496419
 51
0.0
  0
ARC
  5
192
330
4A
100
AcDbEntity
  8
1
  6
Continuous
 62
     7
100
AcDbCircle
 10
196.1086889961381
 20
171.2047141224477
 30
0.0
 40
19.0000000000002
100
AcDbArc
 50
90.0
 51
180.0
  0
ARC
  5
193
330
4A
100
AcDbEntity
  8
1
  6
Continuous
 62
     7
100
AcDbCircle
 10
196.1086889961381
 20
171.2047141224477
 30
0.0
 40
35.0000000000002
100
AcDbArc
 50
90.0
 51
180.0
  0
ARC
  5
194
330
4A
100
AcDbEntity
  8
1
  6
Continuous
 62
     7
100
AcDbCircle
 10
442.1104884005486
 20
225.2047141224479
 30
0.0
 40
19.0
100
AcDbArc
 50
270.0
 51
0.0
  0
ARC
  5
195
330
4A
100
AcDbEntity
  8
1
  6
Continuous
 62
     7
100
AcDbCircle
 10
442.1104884005486
 20
225.2047141224479
 30
0.0
 40
35.0
100
AcDbArc
 50
270.0
 51
0.0
  0
ENDBLK
  5
4C
330
4A
100
AcDbEntity
  8
0
100
AcDbBlockEnd
  0
BLOCK
  5
4E
330
4D
100
AcDbEntity
  8
0
100
AcDbBlockBegin
  2
A105-0
 70
     0
 10
577.2310568735203
 20
320.0433710073243
 30
0.0
  3
A105-0
  1

  0
LINE
  5
196
330
4D
100
AcDbEntity
  8
1
  6
Continuous
 62
     7
100
AcDbLine
 10
516.5098228971952
 20
281.7047141224483
 30
0.0
 11
516.6815161183737
 21
276.2963776553364
 31
0.0
  0
LINE
  5
197
330
4D
100
AcDbEntity
  8
1
  6
Continuous
 62
     7
100
AcDbLine
 10
123.1290988755255
 20
670.6654706915215
 30
0.0
 11
126.3332913665282
 21
655.4980214328266
 31
0.0
  0
LINE
  5
198
330
4D
100
AcDbEntity
  8
1
  6
Continuous
 62
     7
100
AcDbLine
 10
102.9238668090562
 20
655.4980214328266
 30
0.0
 11
106.1280593000589
 21
670.6654706915215
 31
0.0
  0
LINE
  5
199
330
4D
100
AcDbEntity
  8
1
  6
Continuous
 62
     7
100
AcDbLine
 10
123.3785790877922
 20
711.3843782317165
 30
0.0
 11
123.3785790877922
 21
727.7047141224484
 31
0.0
  0
LINE
  5
19A
330
4D
100
AcDbEntity
  8
1
  6
Continuous
 62
     7
100
AcDbLine
 10
105.8785790877922
 20
727.7047141224484
 30
0.0
 11
105.8785790877921
 21
711.3843782317165
 31
0.0
  0
LINE
  5
19B
330
4D
100
AcDbEntity
  8
1
  6
Continuous
 62
     7
100
AcDbLine
 10
105.1285790877922
 20
748.2047141224484
 30
0.0
 11
124.1285790877922
 21
748.2047141224484
 31
0.0
  0
LINE
  5
19C
330
4D
100
AcDbEntity
  8
1
  6
Continuous
 62
     7
100
AcDbLine
 10
137.1285790877922
 20
731.7047141224484
 30
0.0
 11
92.12857908779218
 21
731.7047141224484
 31
0.0
  0
LINE
  5
19D
330
4D
100
AcDbEntity
  8
1
  6
Continuous
 62
     7
100
AcDbLine
 10
91.62857908779218
 20
734.2047141224484
 30
0.0
 11
91.62857908779218
 21
732.2047141224484
 31
0.0
  0
LINE
  5
19E
330
4D
100
AcDbEntity
  8
1
  6
Continuous
 62
     7
100
AcDbLine
 10
91.62857908779218
 20
734.2047141224484
 30
0.0
 11
137.6285790877922
 21
734.2047141224484
 31
0.0
  0
LINE
  5
19F
330
4D
100
AcDbEntity
  8
1
  6
Continuous
 62
     2
100
AcDbLine
 10
104.1285790877922
 20
734.2047141224484
 30
0.0
 11
105.1285790877922
 21
735.9367649300176
 31
0.0
  0
LINE
  5
1A0
330
4D
100
AcDbEntity
  8
1
  6
Continuous
 62
     7
100
AcDbLine
 10
105.1285790877922
 20
748.2047141224484
 30
0.0
 11
104.1285790877922
 21
747.2047141224484
 31
0.0
  0
LINE
  5
1A1
330
4D
100
AcDbEntity
  8
1
  6
Continuous
 62
     7
100
AcDbLine
 10
104.1285790877922
 20
734.2047141224484
 30
0.0
 11
104.1285790877922
 21
747.2047141224484
 31
0.0
  0
LINE
  5
1A2
330
4D
100
AcDbEntity
  8
1
  6
Continuous
 62
     2
100
AcDbLine
 10
105.1285790877922
 20
735.9367649300176
 30
0.0
 11
105.1285790877922
 21
748.2047141224484
 31
0.0
  0
LINE
  5
1A3
330
4D
100
AcDbEntity
  8
1
  6
Continuous
 62
     7
100
AcDbLine
 10
137.6285790877922
 20
734.2047141224484
 30
0.0
 11
137.6285790877922
 21
732.2047141224484
 31
0.0
  0
LINE
  5
1A4
330
4D
100
AcDbEntity
  8
1
  6
Continuous
 62
     7
100
AcDbLine
 10
125.1285790877922
 20
747.2047141224484
 30
0.0
 11
124.1285790877922
 21
748.2047141224484
 31
0.0
  0
LINE
  5
1A5
330
4D
100
AcDbEntity
  8
1
  6
Continuous
 62
     2
100
AcDbLine
 10
124.1285790877922
 20
748.2047141224484
 30
0.0
 11
124.1285790877922
 21
735.9367649300176
 31
0.0
  0
LINE
  5
1A6
330
4D
100
AcDbEntity
  8
1
  6
Continuous
 62
     2
100
AcDbLine
 10
124.1285790877922
 20
735.9367649300176
 30
0.0
 11
125.1285790877922
 21
734.2047141224484
 31
0.0
  0
LINE
  5
1A7
330
4D
100
AcDbEntity
  8
1
  6
Continuous
 62
     7
100
AcDbLine
 10
125.1285790877922
 20
747.2047141224484
 30
0.0
 11
125.1285790877922
 21
734.2047141224484
 31
0.0
  0
LINE
  5
1A8
330
4D
100
AcDbEntity
  8
1
  6
Continuous
 62
     7
100
AcDbLine
 10
104.1285790877922
 20
735.9367649300176
 30
0.0
 11
125.1285790877922
 21
735.9367649300176
 31
0.0
  0
LINE
  5
1A9
330
4D
100
AcDbEntity
  8
1
  6
Continuous
 62
     7
100
AcDbLine
 10
104.1285790877922
 20
747.2047141224484
 30
0.0
 11
125.1285790877922
 21
747.2047141224484
 31
0.0
  0
LINE
  5
1AA
330
4D
100
AcDbEntity
  8
1
  6
Continuous
 62
     7
100
AcDbLine
 10
127.6285790877922
 20
244.0646591778082
 30
0.0
 11
127.6285790877922
 21
243.9367649300173
 31
0.0
  0
LINE
  5
1AB
330
4D
100
AcDbEntity
  8
1
  6
Continuous
 62
     2
100
AcDbLine
 10
126.6285790877922
 20
242.2047141224484
 30
0.0
 11
126.6285790877922
 21
241.7047141224487
 31
0.0
  0
LINE
  5
1AC
330
4D
100
AcDbEntity
  8
1
  6
Continuous
 62
     7
100
AcDbLine
 10
127.6285790877922
 20
243.9367649300173
 30
0.0
 11
127.6285790877922
 21
241.7047141224487
 31
0.0
  0
LINE
  5
1AD
330
4D
100
AcDbEntity
  8
1
  6
Continuous
 62
     2
100
AcDbLine
 10
126.6285790877922
 20
242.2047141224484
 30
0.0
 11
127.6285790877922
 21
243.9367649300173
 31
0.0
  0
LINE
  5
1AE
330
4D
100
AcDbEntity
  8
1
  6
Continuous
 62
     7
100
AcDbLine
 10
127.6285790877922
 20
244.0646591778082
 30
0.0
 11
126.6497733706111
 21
247.4904791879411
 31
0.0
  0
LINE
  5
1AF
330
4D
100
AcDbEntity
  8
1
  6
Continuous
 62
     2
100
AcDbLine
 10
102.6285790877922
 20
241.7047141224487
 30
0.0
 11
102.6285790877922
 21
242.2047141224484
 31
0.0
  0
LINE
  5
1B0
330
4D
100
AcDbEntity
  8
1
  6
Continuous
 62
     7
100
AcDbLine
 10
127.6285790877922
 20
242.2047141224484
 30
0.0
 11
101.6285790877922
 21
242.2047141224484
 31
0.0
  0
LINE
  5
1B1
330
4D
100
AcDbEntity
  8
1
  6
Continuous
 62
     2
100
AcDbLine
 10
101.6285790877922
 20
243.9367649300173
 30
0.0
 11
102.6285790877922
 21
242.2047141224484
 31
0.0
  0
LINE
  5
1B2
330
4D
100
AcDbEntity
  8
1
  6
Continuous
 62
     7
100
AcDbLine
 10
101.6285790877922
 20
241.7047141224487
 30
0.0
 11
101.6285790877922
 21
243.9367649300173
 31
0.0
  0
LINE
  5
1B3
330
4D
100
AcDbEntity
  8
1
  6
Continuous
 62
     7
100
AcDbLine
 10
102.6073848049727
 20
247.4904791879411
 30
0.0
 11
101.6285790877922
 21
244.0646591778082
 31
0.0
  0
LINE
  5
1B4
330
4D
100
AcDbEntity
  8
1
  6
Continuous
 62
     7
100
AcDbLine
 10
101.6285884179611
 20
259.6891390041707
 30
0.0
 11
102.327495564575
 21
281.7047141224483
 31
0.0
  0
LINE
  5
1B5
330
4D
100
AcDbEntity
  8
1
  6
Continuous
 62
     7
100
AcDbLine
 10
491.526180838832
 20
275.9914250504609
 30
0.0
 11
491.7075550950856
 21
281.7047141224483
 31
0.0
  0
LINE
  5
1B6
330
4D
100
AcDbEntity
  8
1
  6
Continuous
 62
     7
100
AcDbLine
 10
456.1086889961404
 20
243.9367649300173
 30
0.0
 11
456.1086889961404
 21
244.0646591778083
 31
0.0
  0
LINE
  5
1B7
330
4D
100
AcDbEntity
  8
1
  6
Continuous
 62
     2
100
AcDbLine
 10
457.1086889961404
 20
240.7047141224483
 30
0.0
 11
457.1086889961404
 21
242.2047141224483
 31
0.0
  0
LINE
  5
1B8
330
4D
100
AcDbEntity
  8
1
  6
Continuous
 62
     2
100
AcDbLine
 10
481.1086889961404
 20
242.2047141224483
 30
0.0
 11
481.1086889961404
 21
240.7047141224483
 31
0.0
  0
LINE
  5
1B9
330
4D
100
AcDbEntity
  8
1
  6
Continuous
 62
     2
100
AcDbLine
 10
481.1086889961404
 20
242.2047141224483
 30
0.0
 11
482.1086889961404
 21
243.9367649300173
 31
0.0
  0
LINE
  5
1BA
330
4D
100
AcDbEntity
  8
1
  6
Continuous
 62
     7
100
AcDbLine
 10
481.1086889961404
 20
242.2047141224483
 30
0.0
 11
482.1086889961404
 21
242.2047141224483
 31
0.0
  0
LINE
  5
1BB
330
4D
100
AcDbEntity
  8
1
  6
Continuous
 62
     7
100
AcDbLine
 10
456.1086889961404
 20
242.2047141224483
 30
0.0
 11
481.1086889961404
 21
242.2047141224483
 31
0.0
  0
LINE
  5
1BC
330
4D
100
AcDbEntity
  8
1
  6
Continuous
 62
     2
100
AcDbLine
 10
456.1086889961404
 20
243.9367649300173
 30
0.0
 11
457.1086889961404
 21
242.2047141224483
 31
0.0
  0
LINE
  5
1BD
330
4D
100
AcDbEntity
  8
1
  6
Continuous
 62
     7
100
AcDbLine
 10
482.1086889961404
 20
244.0646591778083
 30
0.0
 11
482.1086889961404
 21
243.9367649300173
 31
0.0
  0
LINE
  5
1BE
330
4D
100
AcDbEntity
  8
1
  6
Continuous
 62
     7
100
AcDbLine
 10
546.6086889961404
 20
272.4547141224483
 30
0.0
 11
546.6086889961404
 21
282.2047141224483
 31
0.0
  0
LINE
  5
1BF
330
4D
100
AcDbEntity
  8
1
  6
Continuous
 62
     7
100
AcDbLine
 10
549.1086889961404
 20
282.7047141224483
 30
0.0
 11
547.1086889961404
 21
282.7047141224483
 31
0.0
  0
LINE
  5
1C0
330
4D
100
AcDbEntity
  8
1
  6
Continuous
 62
     7
100
AcDbLine
 10
549.1086889961404
 20
282.7047141224483
 30
0.0
 11
549.1086889961404
 21
270.2047141224483
 31
0.0
  0
LINE
  5
1C1
330
4D
100
AcDbEntity
  8
1
  6
Continuous
 62
     2
100
AcDbLine
 10
549.1086889961404
 20
270.2047141224483
 30
0.0
 11
550.8407398037095
 21
269.2047141224483
 31
0.0
  0
LINE
  5
1C2
330
4D
100
AcDbEntity
  8
1
  6
Continuous
 62
     7
100
AcDbLine
 10
563.1086889961404
 20
269.2047141224483
 30
0.0
 11
562.1086889961404
 21
270.2047141224483
 31
0.0
  0
LINE
  5
1C3
330
4D
100
AcDbEntity
  8
1
  6
Continuous
 62
     7
100
AcDbLine
 10
550.8407398037095
 20
269.2047141224483
 30
0.0
 11
550.8407398037095
 21
270.2047141224483
 31
0.0
  0
LINE
  5
1C4
330
4D
100
AcDbEntity
  8
1
  6
Continuous
 62
     7
100
AcDbLine
 10
549.1086889961404
 20
270.2047141224483
 30
0.0
 11
562.1086889961404
 21
270.2047141224483
 31
0.0
  0
LINE
  5
1C5
330
4D
100
AcDbEntity
  8
1
  6
Continuous
 62
     2
100
AcDbLine
 10
550.8407398037095
 20
269.2047141224483
 30
0.0
 11
563.1086889961404
 21
269.2047141224483
 31
0.0
  0
LINE
  5
1C6
330
4D
100
AcDbEntity
  8
1
  6
Continuous
 62
     7
100
AcDbLine
 10
549.1086889961404
 20
270.2047141224483
 30
0.0
 11
549.1086889961404
 21
236.7047141224483
 31
0.0
  0
LINE
  5
1C7
330
4D
100
AcDbEntity
  8
1
  6
Continuous
 62
     7
100
AcDbLine
 10
549.1086889961404
 20
236.7047141224483
 30
0.0
 11
547.1086889961404
 21
236.7047141224483
 31
0.0
  0
LINE
  5
1C8
330
4D
100
AcDbEntity
  8
1
  6
Continuous
 62
     7
100
AcDbLine
 10
546.6086889961404
 20
272.4547141224483
 30
0.0
 11
546.6086889961404
 21
237.2047141224483
 31
0.0
  0
LINE
  5
1C9
330
4D
100
AcDbEntity
  8
1
  6
Continuous
 62
     7
100
AcDbLine
 10
550.8407398037095
 20
249.2047141224483
 30
0.0
 11
550.8407398037095
 21
269.2047141224483
 31
0.0
  0
LINE
  5
1CA
330
4D
100
AcDbEntity
  8
1
  6
Continuous
 62
     7
100
AcDbLine
 10
562.1086889961404
 20
249.2047141224483
 30
0.0
 11
563.1086889961404
 21
250.2047141224483
 31
0.0
  0
LINE
  5
1CB
330
4D
100
AcDbEntity
  8
1
  6
Continuous
 62
     2
100
AcDbLine
 10
563.1086889961404
 20
250.2047141224483
 30
0.0
 11
550.8407398037095
 21
250.2047141224483
 31
0.0
  0
LINE
  5
1CC
330
4D
100
AcDbEntity
  8
1
  6
Continuous
 62
     2
100
AcDbLine
 10
550.8407398037095
 20
250.2047141224483
 30
0.0
 11
549.1086889961404
 21
249.2047141224483
 31
0.0
  0
LINE
  5
1CD
330
4D
100
AcDbEntity
  8
1
  6
Continuous
 62
     7
100
AcDbLine
 10
562.1086889961404
 20
249.2047141224483
 30
0.0
 11
549.1086889961404
 21
249.2047141224483
 31
0.0
  0
LINE
  5
1CE
330
4D
100
AcDbEntity
  8
1
  6
Continuous
 62
     7
100
AcDbLine
 10
563.1086889961404
 20
269.2047141224483
 30
0.0
 11
563.1086889961404
 21
250.2047141224483
 31
0.0
  0
LINE
  5
1CF
330
4D
100
AcDbEntity
  8
1
  6
Continuous
 62
     7
100
AcDbLine
 10
482.1086889961404
 20
243.9367649300173
 30
0.0
 11
482.1086889961404
 21
240.7047141224483
 31
0.0
  0
LINE
  5
1D0
330
4D
100
AcDbEntity
  8
1
  6
Continuous
 62
     7
100
AcDbLine
 10
481.0898358132614
 20
247.6306453178862
 30
0.0
 11
482.1086889961404
 21
244.0646591778083
 31
0.0
  0
LINE
  5
1D1
330
4D
100
AcDbEntity
  8
1
  6
Continuous
 62
     7
100
AcDbLine
 10
485.6763804049735
 20
251.2047141224483
 30
0.0
 11
484.8501628861675
 21
251.2047141224483
 31
0.0
  0
LINE
  5
1D2
330
4D
100
AcDbEntity
  8
1
  6
Continuous
 62
     7
100
AcDbLine
 10
526.2883531054088
 20
250.9547141224479
 30
0.0
 11
542.6086889961404
 21
250.9547141224483
 31
0.0
  0
LINE
  5
1D3
330
4D
100
AcDbEntity
  8
1
  6
Continuous
 62
     7
100
AcDbLine
 10
542.6086889961404
 20
268.4547141224483
 30
0.0
 11
526.2883531054096
 21
268.4547141224488
 31
0.0
  0
LINE
  5
1D4
330
4D
100
AcDbEntity
  8
1
  6
Continuous
 62
     7
100
AcDbLine
 10
457.0874947133217
 20
247.4904791879412
 30
0.0
 11
456.1086889961404
 21
244.0646591778083
 31
0.0
  0
LINE
  5
1D5
330
4D
100
AcDbEntity
  8
0
  6
Continuous
 62
     7
100
AcDbLine
 10
456.1086889961404
 20
244.0646591778083
 30
0.0
 11
456.1086889961404
 21
240.7047141224483
 31
0.0
  0
LINE
  5
1D6
330
4D
100
AcDbEntity
  8
1
  6
Continuous
 62
     7
100
AcDbLine
 10
126.9296626110103
 20
281.7047141224483
 30
0.0
 11
127.6285697576231
 21
259.6891390041707
 31
0.0
  0
ARC
  5
1D7
330
4D
100
AcDbEntity
  8
1
  6
Continuous
 62
     7
100
AcDbCircle
 10
98.62857908779229
 20
689.2047141224484
 30
0.0
 40
29.00000000000014
100
AcDbArc
 50
332.5607598493189
 51
337.4017542410527
  0
ARC
  5
1D8
330
4D
100
AcDbEntity
  8
1
  6
Continuous
 62
     7
100
AcDbCircle
 10
114.6285790877922
 20
654.2047141224483
 30
0.0
 40
13.00000000000016
100
AcDbArc
 50
142.4250638103309
 51
37.57493618966918
  0
ARC
  5
1D9
330
4D
100
AcDbEntity
  8
1
  6
Continuous
 62
     7
100
AcDbCircle
 10
130.6285790877922
 20
689.2047141224484
 30
0.0
 40
29.00000000000005
100
AcDbArc
 50
202.5982457589471
 51
207.4392401506813
  0
ARC
  5
1DA
330
4D
100
AcDbEntity
  8
1
  6
Continuous
 62
     7
100
AcDbCircle
 10
101.8785790877922
 20
727.7047141224484
 30
0.0
 40
4.0
100
AcDbArc
 50
0.0
 51
90.0
  0
ARC
  5
1DB
330
4D
100
AcDbEntity
  8
1
  6
Continuous
 62
     7
100
AcDbCircle
 10
127.3785790877922
 20
727.7047141224484
 30
0.0
 40
4.0
100
AcDbArc
 50
90.0
 51
180.0
  0
ARC
  5
1DC
330
4D
100
AcDbEntity
  8
1
  6
Continuous
 62
     7
100
AcDbCircle
 10
126.3330096617842
 20
243.8718157393834
 30
0.0
 40
24.0000000000016
100
AcDbArc
 50
152.1298826058547
 51
171.3280051740369
  0
ARC
  5
1DD
330
4D
100
AcDbEntity
  8
1
  6
Continuous
 62
     7
100
AcDbCircle
 10
96.2766846690803
 20
259.7657557145141
 30
0.0
 40
9.999999999999801
100
AcDbArc
 50
332.129882605854
 51
359.8094249769229
  0
ARC
  5
1DE
330
4D
100
AcDbEntity
  8
1
  6
Continuous
 62
     7
100
AcDbCircle
 10
114.6285790877922
 20
259.7047141224483
 30
0.0
 40
8.351995935906302
100
AcDbArc
 50
90.0
 51
179.8094249769209
  0
ARC
  5
1DF
330
4D
100
AcDbEntity
  8
1
  6
Continuous
 62
     7
100
AcDbCircle
 10
102.9241485137997
 20
243.8718157393834
 30
0.0
 40
24.00000000000156
100
AcDbArc
 50
8.67199482596315
 51
27.87011739414533
  0
ARC
  5
1E0
330
4D
100
AcDbEntity
  8
1
  6
Continuous
 62
     7
100
AcDbCircle
 10
132.980473506504
 20
259.7657557145141
 30
0.0
 40
9.999999999999883
100
AcDbArc
 50
180.1905750230771
 51
207.8701173941449
  0
ARC
  5
1E1
330
4D
100
AcDbEntity
  8
1
  6
Continuous
 62
     7
100
AcDbCircle
 10
114.6285790877922
 20
259.7047141224483
 30
0.0
 40
8.35199593590604
100
AcDbArc
 50
0.1905750230791
 51
90.0
  0
ARC
  5
1E2
330
4D
100
AcDbEntity
  8
0
  6
Continuous
 62
     7
100
AcDbCircle
 10
114.6285790877922
 20
259.7047141224483
 30
0.0
 40
23.00000000000017
100
AcDbArc
 50
122.5778011728604
 51
233.1036249967609
  0
ARC
  5
1E3
330
4D
100
AcDbEntity
  8
1
  6
Continuous
 62
     7
100
AcDbCircle
 10
114.6285790877922
 20
259.7047141224483
 30
0.0
 40
13.0000000000002
100
AcDbArc
 50
180.0686452889395
 51
214.3100927933891
  0
ARC
  5
1E4
330
4D
100
AcDbEntity
  8
1
  6
Continuous
 62
     7
100
AcDbCircle
 10
114.6285790877922
 20
259.7047141224483
 30
0.0
 40
12.99999999999994
100
AcDbArc
 50
325.6899072066107
 51
359.9313547110606
  0
ARC
  5
1E5
330
4D
100
AcDbEntity
  8
0
  6
Continuous
 62
     7
100
AcDbCircle
 10
114.6285790877922
 20
259.7047141224483
 30
0.0
 40
22.99999999999969
100
AcDbArc
 50
306.896375003239
 51
0.0
  0
ARC
  5
1E6
330
4D
100
AcDbEntity
  8
0
  6
Continuous
 62
     7
100
AcDbCircle
 10
114.6285790877922
 20
259.7047141224483
 30
0.0
 40
22.9999999999999
100
AcDbArc
 50
0.0
 51
57.42219882713962
  0
ARC
  5
1E7
330
4D
100
AcDbEntity
  8
1
  6
Continuous
 62
     7
100
AcDbCircle
 10
526.2883531054014
 20
299.4547141219674
 30
0.0
 40
30.99999999951869
100
AcDbArc
 50
268.0736638597785
 51
270.0000000000151
  0
ARC
  5
1E8
330
4D
100
AcDbEntity
  8
1
  6
Continuous
 62
     7
100
AcDbCircle
 10
482.6588644912138
 20
277.162194366474
 30
0.0
 40
9.000000000003554
100
AcDbArc
 50
272.1940450997747
 51
345.3431288945905
  0
ARC
  5
1E9
330
4D
100
AcDbEntity
  8
1
  6
Continuous
 62
     7
100
AcDbCircle
 10
484.8793337578015
 20
219.204714121989
 30
0.0
 40
49.00000000045963
100
AcDbArc
 50
92.19404509977842
 51
99.36066212030443
  0
ARC
  5
1EA
330
4D
100
AcDbEntity
  8
1
  6
Continuous
 62
     7
100
AcDbCircle
 10
480.8131195701327
 20
243.8718157393834
 30
0.0
 40
24.00000000000198
100
AcDbArc
 50
99.36066212030363
 51
171.3280051740365
  0
ARC
  5
1EB
330
4D
100
AcDbEntity
  8
1
  6
Continuous
 62
     7
100
AcDbCircle
 10
542.6086889961404
 20
272.4547141224483
 30
0.0
 40
4.0
100
AcDbArc
 50
270.0
 51
0.0
  0
ARC
  5
1EC
330
4D
100
AcDbEntity
  8
1
  6
Continuous
 62
     7
100
AcDbCircle
 10
542.6086889961404
 20
246.9547141224483
 30
0.0
 40
4.0
100
AcDbArc
 50
0.0
 51
90.0
  0
ARC
  5
1ED
330
4D
100
AcDbEntity
  8
1
  6
Continuous
 62
     7
100
AcDbCircle
 10
485.0677236205612
 20
247.2106350888245
 30
0.0
 40
3.999999999997915
100
AcDbArc
 50
93.11786651756768
 51
173.9726861048942
  0
ARC
  5
1EE
330
4D
100
AcDbEntity
  8
1
  6
Continuous
 62
     7
100
AcDbCircle
 10
504.1086889961404
 20
275.7047141224483
 30
0.0
 40
28.99999999999995
100
AcDbArc
 50
242.5607598493187
 51
291.6947160223856
  0
ARC
  5
1EF
330
4D
100
AcDbEntity
  8
1
  6
Continuous
 62
     7
100
AcDbCircle
 10
134.1285790877922
 20
670.7724055312815
 30
0.0
 40
10.99999999999985
100
AcDbArc
 50
152.560759849318
 51
180.5570010462634
  0
ARC
  5
1F0
330
4D
100
AcDbEntity
  8
1
  6
Continuous
 62
     7
100
AcDbCircle
 10
95.12857908779218
 20
670.7724055312815
 30
0.0
 40
11.00000000000007
100
AcDbArc
 50
359.4429989537366
 51
27.4392401506814
  0
ARC
  5
1F1
330
4D
100
AcDbEntity
  8
1
  6
Continuous
 62
     7
100
AcDbCircle
 10
74.87857908779198
 20
711.3843782317174
 30
0.0
 40
31.0000000000001
100
AcDbArc
 50
339.1227646257814
 51
359.9999999999983
  0
ARC
  5
1F2
330
4D
100
AcDbEntity
  8
1
  6
Continuous
 62
     7
100
AcDbCircle
 10
154.3785790877924
 20
711.3843782317174
 30
0.0
 40
31.00000000000018
100
AcDbArc
 50
180.0000000000017
 51
200.8772353742178
  0
ARC
  5
1F3
330
4D
100
AcDbEntity
  8
1
  6
Continuous
 62
     7
100
AcDbCircle
 10
137.1285790877922
 20
732.2047141224484
 30
0.0
 40
0.5
100
AcDbArc
 50
270.0
 51
0.0
  0
ARC
  5
1F4
330
4D
100
AcDbEntity
  8
1
  6
Continuous
 62
     7
100
AcDbCircle
 10
486.5286984623552
 20
276.1500752846349
 30
0.0
 40
5.00000000000002
100
AcDbArc
 50
345.3431288945889
 51
358.1816970355467
  0
ARC
  5
1F5
330
4D
100
AcDbEntity
  8
1
  6
Continuous
 62
     7
100
AcDbCircle
 10
521.6789984948504
 20
276.4550278895104
 30
0.0
 40
4.999999999999849
100
AcDbArc
 50
181.8183029644533
 51
194.6568711054896
  0
ARC
  5
1F6
330
4D
100
AcDbEntity
  8
1
  6
Continuous
 62
     7
100
AcDbCircle
 10
547.1086889961404
 20
282.2047141224483
 30
0.0
 40
0.5
100
AcDbArc
 50
90.0
 51
180.0
  0
ARC
  5
1F7
330
4D
100
AcDbEntity
  8
1
  6
Continuous
 62
     7
100
AcDbCircle
 10
547.1086889961404
 20
237.2047141224483
 30
0.0
 40
0.5
100
AcDbArc
 50
180.0
 51
270.0
  0
ARC
  5
1F8
330
4D
100
AcDbEntity
  8
1
  6
Continuous
 62
     7
100
AcDbCircle
 10
485.6763804049735
 20
240.2047141224483
 30
0.0
 40
11.00000000000013
100
AcDbArc
 50
62.56075984931876
 51
90.0
  0
ARC
  5
1F9
330
4D
100
AcDbEntity
  8
1
  6
Continuous
 62
     7
100
AcDbCircle
 10
526.2883531054096
 20
219.9547141224483
 30
0.0
 40
30.9999999999996
100
AcDbArc
 50
90.00000000000148
 51
111.6947160223881
  0
ARC
  5
1FA
330
4D
100
AcDbEntity
  8
1
  6
Continuous
 62
     7
100
AcDbCircle
 10
525.5488324659874
 20
277.4671469713545
 30
0.0
 40
8.999999999999778
100
AcDbArc
 50
194.6568711054909
 51
268.0736638597967
  0
ENDBLK
  5
4F
330
4D
100
AcDbEntity
  8
0
100
AcDbBlockEnd
  0
BLOCK
  5
51
330
50
100
AcDbEntity
  8
0
100
AcDbBlockBegin
  2
81-100K
 70
     0
 10
212.1765720036523
 20
452.5468356158791
 30
0.0
  3
81-100K
  1

  0
LINE
  5
1FB
330
50
100
AcDbEntity
  8
1
  6
Continuous
 62
     7
100
AcDbLine
 10
99.12857908779218
 20
294.2047141224483
 30
0.0
 11
99.12857908779229
 21
281.9047141224481
 31
0.0
  0
LINE
  5
1FC
330
50
100
AcDbEntity
  8
1
  6
Continuous
 62
     7
100
AcDbLine
 10
130.1285790877922
 20
294.2047141224483
 30
0.0
 11
130.1285790877922
 21
281.9047141224481
 31
0.0
  0
LINE
  5
1FD
330
50
100
AcDbEntity
  8
1
  6
Continuous
 62
     7
100
AcDbLine
 10
99.32857908779248
 20
281.7047141224483
 30
0.0
 11
129.9285790877923
 21
281.7047141224483
 31
0.0
  0
LINE
  5
1FE
330
50
100
AcDbEntity
  8
1
  6
Continuous
 62
     7
100
AcDbLine
 10
488.6104884005509
 20
287.3723016064548
 30
0.0
 11
488.6104884005511
 21
281.9047141224481
 31
0.0
  0
LINE
  5
1FF
330
50
100
AcDbEntity
  8
1
  6
Continuous
 62
     7
100
AcDbLine
 10
519.6104884005509
 20
291.6244145512084
 30
0.0
 11
519.6104884005509
 21
281.9047141224481
 31
0.0
  0
LINE
  5
200
330
50
100
AcDbEntity
  8
1
  6
Continuous
 62
     7
100
AcDbLine
 10
488.6104884005509
 20
294.2047141224483
 30
0.0
 11
488.6104884005509
 21
287.3723016064548
 31
0.0
  0
LINE
  5
201
330
50
100
AcDbEntity
  8
1
  6
Continuous
 62
     7
100
AcDbLine
 10
519.6104884005509
 20
294.2047141224483
 30
0.0
 11
519.6104884005509
 21
291.6244145512084
 31
0.0
  0
LINE
  5
202
330
50
100
AcDbEntity
  8
1
  6
Continuous
 62
     7
100
AcDbLine
 10
488.8104884005512
 20
281.7047141224483
 30
0.0
 11
519.410488400551
 21
281.7047141224483
 31
0.0
  0
LINE
  5
203
330
50
100
AcDbEntity
  8
1
  6
PHANTOM
 62
     5
100
AcDbLine
 10
145.6285790877921
 20
693.2047141224484
 30
0.0
 11
132.1285790877921
 21
693.2047141224484
 31
0.0
  0
LINE
  5
204
330
50
100
AcDbEntity
  8
1
  6
PHANTOM
 62
     5
100
AcDbLine
 10
145.6285790877921
 20
685.2047141224483
 30
0.0
 11
132.1285790877921
 21
685.2047141224483
 31
0.0
  0
LINE
  5
205
330
50
100
AcDbEntity
  8
1
  6
Continuous
 62
     7
100
AcDbLine
 10
118.6285790877922
 20
673.7047141224484
 30
0.0
 11
118.6285790877922
 21
674.2297349905765
 31
0.0
  0
LINE
  5
206
330
50
100
AcDbEntity
  8
1
  6
Continuous
 62
     7
100
AcDbLine
 10
110.6285790877921
 20
673.7047141224484
 30
0.0
 11
110.6285790877921
 21
674.2297349905765
 31
0.0
  0
LINE
  5
207
330
50
100
AcDbEntity
  8
1
  6
Continuous
 62
     7
100
AcDbLine
 10
118.6285790877922
 20
673.7047141224484
 30
0.0
 11
118.6285790877922
 21
673.7047141224508
 31
0.0
  0
LINE
  5
208
330
50
100
AcDbEntity
  8
1
  6
Continuous
 62
     7
100
AcDbLine
 10
118.6285790877922
 20
658.2047141224485
 30
0.0
 11
118.6285790877922
 21
673.7047141224484
 31
0.0
  0
LINE
  5
209
330
50
100
AcDbEntity
  8
1
  6
Continuous
 62
     7
100
AcDbLine
 10
110.6285790877921
 20
658.2047141224485
 30
0.0
 11
110.6285790877921
 21
673.7047141224484
 31
0.0
  0
LINE
  5
20A
330
50
100
AcDbEntity
  8
1
  6
Continuous
 62
     7
100
AcDbLine
 10
118.6285790877922
 20
705.2047141224485
 30
0.0
 11
118.6285790877922
 21
704.1796932543203
 31
0.0
  0
LINE
  5
20B
330
50
100
AcDbEntity
  8
1
  6
Continuous
 62
     7
100
AcDbLine
 10
110.6285790877922
 20
705.2047141224485
 30
0.0
 11
110.6285790877922
 21
704.1796932543205
 31
0.0
  0
ARC
  5
20C
330
50
100
AcDbEntity
  8
1
  6
Continuous
 62
     7
100
AcDbCircle
 10
114.6285790877922
 20
294.2047141224483
 30
0.0
 40
15.49999999999999
100
AcDbArc
 50
0.0
 51
90.0
  0
ARC
  5
20D
330
50
100
AcDbEntity
  8
1
  6
Continuous
 62
     7
100
AcDbCircle
 10
504.1104884005509
 20
294.2047141224483
 30
0.0
 40
15.5
100
AcDbArc
 50
90.0
 51
99.36885182365498
  0
ARC
  5
20E
330
50
100
AcDbEntity
  8
1
  6
Continuous
 62
     7
100
AcDbCircle
 10
504.1104884005509
 20
294.2047141224483
 30
0.0
 40
15.50000000000006
100
AcDbArc
 50
0.0
 51
61.49777619691733
  0
ARC
  5
20F
330
50
100
AcDbEntity
  8
1
  6
Continuous
 62
     7
100
AcDbCircle
 10
504.1104884005509
 20
294.2047141224483
 30
0.0
 40
15.50000000000023
100
AcDbArc
 50
61.49777619691733
 51
90.0
  0
ARC
  5
210
330
50
100
AcDbEntity
  8
1
  6
Continuous
 62
     7
100
AcDbCircle
 10
504.1104884005509
 20
294.2047141224483
 30
0.0
 40
15.50000000000023
100
AcDbArc
 50
99.36885182365498
 51
180.0
  0
ARC
  5
211
330
50
100
AcDbEntity
  8
1
  6
Continuous
 62
     7
100
AcDbCircle
 10
517.110488400551
 20
298.7047141224483
 30
0.0
 40
7.0
100
AcDbArc
 50
0.0
 51
47.37714539218378
  0
ARC
  5
212
330
50
100
AcDbEntity
  8
1
  6
Continuous
 62
     7
100
AcDbCircle
 10
496.6104884005511
 20
249.7047141224483
 30
0.0
 40
60.00000000000008
100
AcDbArc
 50
66.58728051639275
 51
75.62455135571639
  0
ARC
  5
213
330
50
100
AcDbEntity
  8
1
  6
Continuous
 62
     7
100
AcDbCircle
 10
517.110488400551
 20
298.7047141224483
 30
0.0
 40
7.000000000000131
100
AcDbArc
 50
312.6228546078146
 51
0.0
  0
ARC
  5
214
330
50
100
AcDbEntity
  8
1
  6
Continuous
 62
     7
100
AcDbCircle
 10
496.6104884005511
 20
347.7047141224483
 30
0.0
 40
59.99999999999986
100
AcDbArc
 50
246.587280516392
 51
261.5155502586236
  0
ARC
  5
215
330
50
100
AcDbEntity
  8
1
  6
Continuous
 62
     7
100
AcDbCircle
 10
476.1104884005511
 20
298.7047141224483
 30
0.0
 40
6.999999999999886
100
AcDbArc
 50
180.0
 51
227.3771453921657
  0
ARC
  5
216
330
50
100
AcDbEntity
  8
1
  6
Continuous
 62
     7
100
AcDbCircle
 10
496.6104884005511
 20
347.7047141224483
 30
0.0
 40
59.99999999999991
100
AcDbArc
 50
293.1688797851183
 51
293.4127194836071
  0
ARC
  5
217
330
50
100
AcDbEntity
  8
1
  6
Continuous
 62
     7
100
AcDbCircle
 10
496.6104884005511
 20
249.7047141224483
 30
0.0
 40
60.0
100
AcDbArc
 50
90.0
 51
113.4127194836067
  0
ARC
  5
218
330
50
100
AcDbEntity
  8
1
  6
Continuous
 62
     7
100
AcDbCircle
 10
476.1104884005511
 20
298.7047141224483
 30
0.0
 40
6.999999999999948
100
AcDbArc
 50
132.6228546078034
 51
180.0
  0
ARC
  5
219
330
50
100
AcDbEntity
  8
1
  6
Continuous
 62
     7
100
AcDbCircle
 10
496.6104884005511
 20
249.7047141224483
 30
0.0
 40
60.0000000000001
100
AcDbArc
 50
85.2420766648555
 51
90.0
  0
ARC
  5
21A
330
50
100
AcDbEntity
  8
1
  6
PHANTOM
 62
     5
100
AcDbCircle
 10
98.62857908779209
 20
689.2047141224484
 30
0.0
 40
4.000000000000002
100
AcDbArc
 50
100.000000000001
 51
259.999999999999
  0
ARC
  5
21B
330
50
100
AcDbEntity
  8
1
  6
PHANTOM
 62
     5
100
AcDbCircle
 10
145.6285790877921
 20
689.2047141224484
 30
0.0
 40
4.000000000000114
100
AcDbArc
 50
270.0
 51
90.0
  0
ARC
  5
21C
330
50
100
AcDbEntity
  8
1
  6
Continuous
 62
     7
100
AcDbCircle
 10
114.6285790877922
 20
705.2047141224485
 30
0.0
 40
4.0
100
AcDbArc
 50
0.0
 51
180.0
  0
ARC
  5
21D
330
50
100
AcDbEntity
  8
1
  6
Continuous
 62
     7
100
AcDbCircle
 10
114.6285790877922
 20
689.2047141224484
 30
0.0
 40
15.50000000000009
100
AcDbArc
 50
104.9552483166433
 51
255.0447516833563
  0
ARC
  5
21E
330
50
100
AcDbEntity
  8
1
  6
Continuous
 62
     7
100
AcDbCircle
 10
114.6285790877922
 20
689.2047141224484
 30
0.0
 40
15.49999999999998
100
AcDbArc
 50
284.9552483166433
 51
75.04475168335665
  0
ARC
  5
21F
330
50
100
AcDbEntity
  8
1
  6
Continuous
 62
     7
100
AcDbCircle
 10
114.6285790877922
 20
658.2047141224485
 30
0.0
 40
4.000000000000099
100
AcDbArc
 50
180.0
 51
0.0
  0
ARC
  5
220
330
50
100
AcDbEntity
  8
1
  6
Continuous
 62
     7
100
AcDbCircle
 10
114.6285790877922
 20
294.2047141224483
 30
0.0
 40
15.5
100
AcDbArc
 50
90.0
 51
180.0
  0
ARC
  5
221
330
50
100
AcDbEntity
  8
1
  6
Continuous
 62
     7
100
AcDbCircle
 10
114.6285790877922
 20
305.9799950213267
 30
0.0
 40
3.724719101123539
100
AcDbArc
 50
4.33382936637568
 51
90.0
  0
ARC
  5
222
330
50
100
AcDbEntity
  8
1
  6
Continuous
 62
     7
100
AcDbCircle
 10
114.6285790877922
 20
291.4294332235708
 30
0.0
 40
3.72471910112344
100
AcDbArc
 50
184.3338293663758
 51
270.0
  0
ARC
  5
223
330
50
100
AcDbEntity
  8
1
  6
Continuous
 62
     7
100
AcDbCircle
 10
210.6285790877925
 20
298.7047141224492
 30
0.0
 40
100.0000000000001
100
AcDbArc
 50
180.0
 51
184.3338293663745
  0
ARC
  5
224
330
50
100
AcDbEntity
  8
1
  6
Continuous
 62
     7
100
AcDbCircle
 10
114.6285790877922
 20
291.4294332235708
 30
0.0
 40
3.724719101123924
100
AcDbArc
 50
270.0
 51
355.6661706336243
  0
ARC
  5
225
330
50
100
AcDbEntity
  8
1
  6
Continuous
 62
     7
100
AcDbCircle
 10
18.62857908779218
 20
298.7047141224492
 30
0.0
 40
100.0000000000001
100
AcDbArc
 50
355.6661706336254
 51
0.0
  0
ARC
  5
226
330
50
100
AcDbEntity
  8
1
  6
Continuous
 62
     7
100
AcDbCircle
 10
210.6285790877925
 20
298.7047141224492
 30
0.0
 40
100.0000000000002
100
AcDbArc
 50
175.666170633626
 51
180.0
  0
ARC
  5
227
330
50
100
AcDbEntity
  8
1
  6
Continuous
 62
     7
100
AcDbCircle
 10
114.6285790877922
 20
305.9799950213267
 30
0.0
 40
3.724719101121593
100
AcDbArc
 50
90.0
 51
175.6661706336242
  0
ARC
  5
228
330
50
100
AcDbEntity
  8
1
  6
Continuous
 62
     7
100
AcDbCircle
 10
18.62857908779218
 20
298.7047141224492
 30
0.0
 40
100.0
100
AcDbArc
 50
0.0
 51
4.33382936637402
  0
SPLINE
  5
229
330
50
100
AcDbEntity
  8
1
  6
Continuous
 62
     7
100
AcDbSpline
210
0.0
220
0.0
230
1.0
 70
     8
 71
     3
 72
    27
 73
    23
 74
    21
 42
0.000000001
 43
0.0000000001
 44
0.00000001
 40
0.0
 40
0.0
 40
0.0
 40
0.0
 40
0.3521433567560135
 40
0.7044480106677282
 40
1.400800675077241
 40
2.097184225501664
 40
2.76983829403364
 40
3.442561383172281
 40
4.077219721058778
 40
4.712002505240368
 40
5.29674162380233
 40
5.881694777238823
 40
6.408245068039275
 40
6.935160786667889
 40
7.40065698210314
 40
7.866768373608879
 40
8.276154744419275
 40
8.686465288213473
 40
9.055039980231067
 40
9.424428423782837
 40
9.778116410379619
 40
10.13180439006611
 40
10.13180439006611
 40
10.13180439006611
 40
10.13180439006611
 10
118.6285790877922
 20
704.7047141224484
 30
0.0
 10
118.6278479843941
 20
704.5873306047966
 30
0.0
 10
118.6263854379838
 20
704.3525098027363
 30
0.0
 10
118.6109397751363
 20
703.8857844616944
 30
0.0
 10
118.5735705311235
 20
703.3051267315014
 30
0.0
 10
118.4993039183661
 20
702.6204443038249
 30
0.0
 10
118.3952281433254
 20
701.9476313415589
 30
0.0
 10
118.2641896149152
 20
701.3004859429649
 30
0.0
 10
118.1040737526266
 20
700.6729402029969
 30
0.0
 10
117.9203765887364
 20
700.0824657315717
 30
0.0
 10
117.7087799566002
 20
699.5190775437977
 30
0.0
 10
117.478022242198
 20
699.0024195635764
 30
0.0
 10
117.2209158571995
 20
698.5200999953923
 30
0.0
 10
116.9496419520591
 20
698.0918620507509
 30
0.0
 10
116.6540648649875
 20
697.705070669994
 30
0.0
 10
116.3489394861573
 20
697.3772121359888
 30
0.0
 10
116.0225476037113
 20
697.0978659876328
 30
0.0
 10
115.6896182893474
 20
696.8810248832289
 30
0.0
 10
115.3408729556019
 20
696.7191910699244
 30
0.0
 10
114.9879058550803
 20
696.6252849789458
 30
0.0
 10
114.6281115062498
 20
696.5872475539077
 30
0.0
 10
114.3936163854272
 20
696.6180832071967
 30
0.0
 10
114.2763688263561
 20
696.6335010388639
 30
0.0
 11
118.6285790877922
 21
704.7047141224484
 31
0.0
 11
118.6248102686429
 21
704.3525909437535
 31
0.0
 11
118.6135038111948
 21
704.0004677650583
 31
0.0
 11
118.5685077329074
 21
703.3055703725485
 31
0.0
 11
118.4931316338963
 21
702.6132781705103
 31
0.0
 11
118.3901176192892
 21
701.9485589751353
 31
0.0
 11
118.2560412940544
 21
701.2893322359571
 31
0.0
 11
118.0988073711723
 21
700.674459322823
 31
0.0
 11
117.9094083243203
 21
700.0685903732267
 31
0.0
 11
117.7033158396709
 21
699.5213740316626
 31
0.0
 11
117.4636483936387
 21
698.9877733317719
 31
0.0
 11
117.2152704945873
 21
698.5234850292177
 31
0.0
 11
116.9319408875456
 21
698.0792277747483
 31
0.0
 11
116.6484021979353
 21
697.7100496073509
 31
0.0
 11
116.3295047120672
 21
697.3701022253191
 31
0.0
 11
116.0173971366337
 21
697.1051757040115
 31
0.0
 11
115.6728380929834
 21
696.8823892425701
 31
0.0
 11
115.3375082844084
 21
696.7294146609729
 31
0.0
 11
114.980789349228
 21
696.6335010388639
 31
0.0
 11
114.6285790877921
 21
696.6012035943135
 31
0.0
 11
114.2763688263561
 21
696.6335010388639
 31
0.0
  0
SPLINE
  5
22A
330
50
100
AcDbEntity
  8
1
  6
Continuous
 62
     7
100
AcDbSpline
210
0.0
220
0.0
230
1.0
 70
     8
 71
     3
 72
    25
 73
    21
 74
    19
 42
0.000000001
 43
0.0000000001
 44
0.00000001
 40
0.0
 40
0.0
 40
0.0
 40
0.0
 40
0.369388434942153
 40
0.7379631240430546
 40
1.148273668939841
 40
1.557660040225435
 40
2.023771432016701
 40
2.489267627625181
 40
3.016183346390927
 40
3.542733637288682
 40
4.127686790808859
 40
4.712425909433066
 40
5.347208693667088
 40
5.98186703158935
 40
6.654590120750217
 40
7.327244189277573
 40
8.023627739649532
 40
8.71998040384632
 40
9.072285057531756
 40
9.42442841458154
 40
9.42442841458154
 40
9.42442841458154
 40
9.42442841458154
 10
114.2763688263561
 20
696.6335010388639
 30
0.0
 10
114.1560715119332
 20
696.6612354512623
 30
0.0
 10
113.9157418967739
 20
696.7166431913681
 30
0.0
 10
113.5677037394309
 20
696.8817932750911
 30
0.0
 10
113.234565008042
 20
697.0976523256537
 30
0.0
 10
112.9082327751216
 20
697.377278201448
 30
0.0
 10
112.6030893506714
 20
697.7050521123324
 30
0.0
 10
112.307517436888
 20
698.0918677535171
 30
0.0
 10
112.0362419742722
 20
698.5200983945954
 30
0.0
 10
111.7791360333406
 20
699.0024200452176
 30
0.0
 10
111.5483781875646
 20
699.5190774092987
 30
0.0
 10
111.3367815925392
 20
700.0824657709777
 30
0.0
 10
111.1530844179565
 20
700.6729401921195
 30
0.0
 10
110.9929685587091
 20
701.3004859461652
 30
0.0
 10
110.8619300295043
 20
701.9476313408145
 30
0.0
 10
110.7578542547609
 20
702.6204443041722
 30
0.0
 10
110.6835876420608
 20
703.3051267314676
 30
0.0
 10
110.6462183981857
 20
703.8857844615803
 30
0.0
 10
110.6307727360791
 20
704.3525098026053
 30
0.0
 10
110.6293101911908
 20
704.5873306046996
 30
0.0
 10
110.6285790877922
 20
704.7047141224498
 30
0.0
 11
114.2763688263561
 21
696.6335010388639
 31
0.0
 11
113.9196498911757
 21
696.7294146609729
 31
0.0
 11
113.5843200826007
 21
696.8823892425701
 31
0.0
 11
113.2397610389505
 21
697.1051757040115
 31
0.0
 11
112.927653463517
 21
697.3701022253191
 31
0.0
 11
112.6087559776488
 21
697.7100496073509
 31
0.0
 11
112.3252172880386
 21
698.0792277747483
 31
0.0
 11
112.0418876809969
 21
698.5234850292177
 31
0.0
 11
111.7935097819455
 21
698.9877733317718
 31
0.0
 11
111.5538423359131
 21
699.5213740316625
 31
0.0
 11
111.3477498512638
 21
700.0685903732267
 31
0.0
 11
111.1583508044119
 21
700.6744593228229
 31
0.0
 11
111.0011168815299
 21
701.289332235957
 31
0.0
 11
110.8670405562952
 21
701.9485589751353
 31
0.0
 11
110.7640265416881
 21
702.6132781705102
 31
0.0
 11
110.6886504426769
 21
703.3055703725482
 31
0.0
 11
110.6436543643895
 21
704.0004677650583
 31
0.0
 11
110.6323479069415
 21
704.352590943754
 31
0.0
 11
110.6285790877922
 21
704.7047141224498
 31
0.0
  0
SPLINE
  5
22B
330
50
100
AcDbEntity
  8
1
  6
Continuous
 62
     7
100
AcDbSpline
210
0.0
220
0.0
230
1.0
 70
     8
 71
     3
 72
    27
 73
    23
 74
    21
 42
0.000000001
 43
0.0000000001
 44
0.00000001
 40
0.0
 40
0.0
 40
0.0
 40
0.0
 40
0.5635691099583312
 40
1.12723855711732
 40
2.238983738624223
 40
3.350752159096072
 40
4.416730897015559
 40
5.482762972378759
 40
6.474560141235933
 40
7.466461889392002
 40
8.358933083414826
 40
9.251594011154129
 40
10.024621505764
 40
10.7980840288556
 40
11.43923201099738
 40
12.08113212820474
 40
12.59132663089544
 40
13.10432938414694
 40
13.50843920731081
 40
13.91674533165418
 40
14.27825507390665
 40
14.63976480459901
 40
14.63976480459901
 40
14.63976480459901
 40
14.63976480459901
 10
118.6285790877922
 20
673.7047141224508
 30
0.0
 10
118.6278492149734
 20
673.8925719607827
 30
0.0
 10
118.6263893420268
 20
674.268321083457
 30
0.0
 10
118.6110088221367
 20
675.014520140283
 30
0.0
 10
118.5737017371584
 20
675.942942675264
 30
0.0
 10
118.4997689589468
 20
677.0370939617826
 30
0.0
 10
118.3958911273542
 20
678.1134957169338
 30
0.0
 10
118.2655829891134
 20
679.1467556905183
 30
0.0
 10
118.1058069530114
 20
680.1508668768306
 30
0.0
 10
117.9235467902228
 20
681.0923396638898
 30
0.0
 10
117.7124867923409
 20
681.9938496837583
 30
0.0
 10
117.4844597956768
 20
682.8158641142124
 30
0.0
 10
117.2281838426169
 20
683.5877692274553
 30
0.0
 10
116.9619475038287
 20
684.2672377108158
 30
0.0
 10
116.6676033864976
 20
684.8868297486849
 30
0.0
 10
116.3708473897735
 20
685.4068512431298
 30
0.0
 10
116.0450716038595
 20
685.8574471714118
 30
0.0
 10
115.7213191319125
 20
686.2082420172592
 30
0.0
 10
115.3674316215249
 20
686.4784959694063
 30
0.0
 10
115.0060390987229
 20
686.6352374367236
 30
0.0
 10
114.6274416505532
 20
686.706135024709
 30
0.0
 10
114.3900333373208
 20
686.6528062261801
 30
0.0
 10
114.2713291817822
 20
686.6261418308073
 30
0.0
 11
118.6285790877922
 21
673.7047141224508
 31
0.0
 11
118.6248188491969
 21
674.2682706779478
 31
0.0
 11
118.6135381334112
 21
674.831827233445
 31
0.0
 11
118.5686491012758
 21
675.9426658011578
 31
0.0
 11
118.4933204802648
 21
677.0518793151424
 31
0.0
 11
118.3907278632828
 21
678.112909675023
 31
0.0
 11
118.256590724866
 21
679.1704689469879
 31
0.0
 11
118.1003683245508
 21
680.1498851944003
 31
0.0
 11
117.9106500744778
 21
681.1234744627533
 31
0.0
 11
117.706640451734
 21
681.9923155908356
 31
0.0
 11
117.4661750409442
 21
682.8519782676655
 31
0.0
 11
117.2218025999431
 21
683.5853633079465
 31
0.0
 11
116.9367829720714
 21
684.3043960513469
 31
0.0
 11
116.6605479227106
 21
684.8829847932395
 31
0.0
 11
116.338264126245
 21
685.4381144309036
 31
0.0
 11
116.0376894974461
 21
685.8503683850724
 31
0.0
 11
115.6850912861137
 21
686.2229892723119
 31
0.0
 11
115.3603409236778
 21
686.4634928080019
 31
0.0
 11
114.9858289938019
 21
686.6261418308072
 31
0.0
 11
114.6285790877921
 21
686.6814753257611
 31
0.0
 11
114.2713291817822
 21
686.6261418308073
 31
0.0
  0
SPLINE
  5
22C
330
50
100
AcDbEntity
  8
1
  6
Continuous
 62
     7
100
AcDbSpline
210
0.0
220
0.0
230
1.0
 70
     8
 71
     3
 72
    25
 73
    21
 74
    19
 42
0.000000001
 43
0.0000000001
 44
0.00000001
 40
0.0
 40
0.0
 40
0.0
 40
0.0
 40
0.408306115338229
 40
0.8124159427216613
 40
1.325418696420786
 40
1.835613199235194
 40
2.477513316534699
 40
3.118661298731337
 40
3.892123821874006
 40
4.665151316520396
 40
5.557812244293874
 40
6.450283438342446
 40
7.442185186521672
 40
8.433982355394656
 40
9.500014430768365
 40
10.56599316868593
 40
11.67776158913205
 40
12.78950677050838
 40
13.35317621738042
 40
13.91674532635755
 40
13.91674532635755
 40
13.91674532635755
 40
13.91674532635755
 10
114.2713291817822
 20
686.6261418308073
 30
0.0
 10
114.1431809478689
 20
686.5781059224726
 30
0.0
 10
113.8882014966669
 20
686.4825277921142
 30
0.0
 10
113.5363694246978
 20
686.2068398285564
 30
0.0
 10
113.2119326050414
 20
685.8578542063528
 30
0.0
 10
112.8863639017542
 20
685.4067108083264
 30
0.0
 10
112.5895393200964
 20
684.8868706337518
 30
0.0
 10
112.2952157699719
 20
684.267224222015
 30
0.0
 10
112.028972864042
 20
683.5877731005422
 30
0.0
 10
111.7726988371562
 20
682.8158628951799
 30
0.0
 10
111.5446712495827
 20
681.9938500270614
 30
0.0
 10
111.3336114213747
 20
681.0923395587419
 30
0.0
 10
111.1513512084044
 20
680.1508669044505
 30
0.0
 10
110.991575186495
 20
679.1467556807258
 30
0.0
 10
110.8612670442166
 20
678.1134957178599
 30
0.0
 10
110.7573892138541
 20
677.0370939597391
 30
0.0
 10
110.6834564351016
 20
675.942942674106
 30
0.0
 10
110.6461493510844
 20
675.0145201390612
 30
0.0
 10
110.6307688295924
 20
674.2683210827345
 30
0.0
 10
110.6293089606091
 20
673.8925719604547
 30
0.0
 10
110.6285790877921
 20
673.7047141224484
 30
0.0
 11
114.2713291817822
 21
686.6261418308073
 31
0.0
 11
113.8968172519064
 21
686.4634928080018
 31
0.0
 11
113.5720668894705
 21
686.2229892723119
 31
0.0
 11
113.219468678138
 21
685.8503683850724
 31
0.0
 11
112.9188940493392
 21
685.4381144309035
 31
0.0
 11
112.5966102528734
 21
684.8829847932395
 31
0.0
 11
112.3203752035126
 21
684.3043960513469
 31
0.0
 11
112.0353555756408
 21
683.5853633079464
 31
0.0
 11
111.7909831346397
 21
682.8519782676653
 31
0.0
 11
111.5505177238499
 21
681.9923155908356
 31
0.0
 11
111.3465081011061
 21
681.1234744627533
 31
0.0
 11
111.1567898510331
 21
680.1498851944003
 31
0.0
 11
111.0005674507181
 21
679.1704689469879
 31
0.0
 11
110.8664303123014
 21
678.1129096750232
 31
0.0
 11
110.7638376953194
 21
677.0518793151425
 31
0.0
 11
110.6885090743082
 21
675.9426658011578
 31
0.0
 11
110.643620042173
 21
674.831827233445
 31
0.0
 11
110.6323393263873
 21
674.2682706779468
 31
0.0
 11
110.6285790877921
 21
673.7047141224484
 31
0.0
  0
ARC
  5
22D
330
50
100
AcDbEntity
  8
1
  6
Continuous
 62
     7
100
AcDbCircle
 10
129.9285790877923
 20
281.9047141224481
 30
0.0
 40
0.1999999999998181
100
AcDbArc
 50
270.0
 51
0.0
  0
ARC
  5
22E
330
50
100
AcDbEntity
  8
1
  6
Continuous
 62
     7
100
AcDbCircle
 10
99.32857908779248
 20
281.9047141224481
 30
0.0
 40
0.2000000000001876
100
AcDbArc
 50
180.0
 51
270.0
  0
ARC
  5
22F
330
50
100
AcDbEntity
  8
1
  6
Continuous
 62
     7
100
AcDbCircle
 10
520.6104884005509
 20
291.6244145512084
 30
0.0
 40
1.000000000000093
100
AcDbArc
 50
113.1688797851168
 51
180.0
  0
ARC
  5
230
330
50
100
AcDbEntity
  8
1
  6
Continuous
 62
     7
100
AcDbCircle
 10
518.4648274730208
 20
297.2330600609303
 30
0.0
 40
5.000000000000036
100
AcDbArc
 50
293.4127194836087
 51
312.6228546078153
  0
ARC
  5
231
330
50
100
AcDbEntity
  8
1
  6
Continuous
 62
     7
100
AcDbCircle
 10
518.4648274730208
 20
300.176368183966
 30
0.0
 40
4.999999999999959
100
AcDbArc
 50
47.37714539218469
 51
66.58728051639181
  0
ARC
  5
232
330
50
100
AcDbEntity
  8
1
  6
Continuous
 62
     7
100
AcDbCircle
 10
519.410488400551
 20
281.9047141224481
 30
0.0
 40
0.1999999999998181
100
AcDbArc
 50
270.0
 51
0.0
  0
ARC
  5
233
330
50
100
AcDbEntity
  8
1
  6
Continuous
 62
     7
100
AcDbCircle
 10
488.8104884005512
 20
281.9047141224481
 30
0.0
 40
0.2000000000001023
100
AcDbArc
 50
180.0
 51
270.0
  0
ARC
  5
234
330
50
100
AcDbEntity
  8
1
  6
Continuous
 62
     7
100
AcDbCircle
 10
487.6104884005509
 20
287.3723016064548
 30
0.0
 40
1.0
100
AcDbArc
 50
0.0
 51
81.51555025861369
  0
ARC
  5
235
330
50
100
AcDbEntity
  8
1
  6
Continuous
 62
     7
100
AcDbCircle
 10
474.7561493280808
 20
297.2330600609308
 30
0.0
 40
4.999999999999889
100
AcDbArc
 50
227.3771453921654
 51
246.5872805163899
  0
ARC
  5
236
330
50
100
AcDbEntity
  8
1
  6
Continuous
 62
     7
100
AcDbCircle
 10
474.7561493280817
 20
300.1763681839664
 30
0.0
 40
4.999999999999924
100
AcDbArc
 50
113.4127194836057
 51
132.6228546078033
  0
ENDBLK
  5
52
330
50
100
AcDbEntity
  8
0
100
AcDbBlockEnd
  0
BLOCK
  5
55
330
53
100
AcDbEntity
  8
0
100
AcDbBlockBegin
  2
81-100X-M21
 70
     0
 10
123.4949563996569
 20
123.0
 30
0.0
  3
81-100X-M21
  1

  0
INSERT
  5
54
330
53
100
AcDbEntity
  8
0
100
AcDbBlockReference
  2
81-100K
 10
212.1765720036523
 20
452.5468356158791
 30
0.0
  0
ENDBLK
  5
56
330
53
100
AcDbEntity
  8
0
100
AcDbBlockEnd
  0
BLOCK
  5
58
330
57
100
AcDbEntity
  8
0
100
AcDbBlockBegin
  2
開示A4
 70
     0
 10
0.0
 20
0.0
 30
0.0
  3
開示A4
  1

  0
POINT
  5
237
330
57
100
AcDbEntity
  8
1
 62
     4
100
AcDbPoint
 10
34.0
 20
34.00000000000001
 30
0.0
  0
POINT
  5
238
330
57
100
AcDbEntity
  8
1
 62
     4
100
AcDbPoint
 10
57.00000000000003
 20
12.25
 30
0.0
  0
POINT
  5
239
330
57
100
AcDbEntity
  8
1
 62
     4
100
AcDbPoint
 10
57.00000000000003
 20
20.75000000000001
 30
0.0
  0
POINT
  5
23A
330
57
100
AcDbEntity
  8
1
 62
     4
100
AcDbPoint
 10
57.00000000000003
 20
24.75000000000001
 30
0.0
  0
POINT
  5
23B
330
57
100
AcDbEntity
  8
1
 62
     4
100
AcDbPoint
 10
57.00000000000003
 20
16.25
 30
0.0
  0
POINT
  5
23C
330
57
100
AcDbEntity
  8
1
 62
     4
100
AcDbPoint
 10
157.5
 20
19.00000000000001
 30
0.0
  0
POINT
  5
23D
330
57
100
AcDbEntity
  8
1
 62
     4
100
AcDbPoint
 10
47.50000000000003
 20
282.0000000000003
 30
0.0
  0
POINT
  5
23E
330
57
100
AcDbEntity
  8
1
 62
     4
100
AcDbPoint
 10
57.00000000000003
 20
22.75000000000001
 30
0.0
  0
POINT
  5
23F
330
57
100
AcDbEntity
  8
1
 62
     4
100
AcDbPoint
 10
57.00000000000003
 20
14.25
 30
0.0
  0
POINT
  5
240
330
57
100
AcDbEntity
  8
1
 62
     4
100
AcDbPoint
 10
157.5
 20
12.5
 30
0.0
  0
POINT
  5
241
330
57
100
AcDbEntity
  8
1
 62
     4
100
AcDbPoint
 10
163.25
 20
12.5
 30
0.0
  0
POINT
  5
242
330
57
100
AcDbEntity
  8
1
 62
     4
100
AcDbPoint
 10
151.75
 20
12.5
 30
0.0
  0
POINT
  5
243
330
57
100
AcDbEntity
  8
1
 62
     4
100
AcDbPoint
 10
134.75
 20
12.5
 30
0.0
  0
POINT
  5
244
330
57
100
AcDbEntity
  8
1
 62
     4
100
AcDbPoint
 10
146.25
 20
12.5
 30
0.0
  0
POINT
  5
245
330
57
100
AcDbEntity
  8
1
 62
     4
100
AcDbPoint
 10
140.5
 20
12.5
 30
0.0
  0
POINT
  5
246
330
57
100
AcDbEntity
  8
1
 62
     4
100
AcDbPoint
 10
140.5
 20
19.00000000000001
 30
0.0
  0
POINT
  5
247
330
57
100
AcDbEntity
  8
1
 62
     4
100
AcDbPoint
 10
117.75
 20
12.5
 30
0.0
  0
POINT
  5
248
330
57
100
AcDbEntity
  8
1
 62
     4
100
AcDbPoint
 10
129.25
 20
12.5
 30
0.0
  0
POINT
  5
249
330
57
100
AcDbEntity
  8
1
 62
     4
100
AcDbPoint
 10
123.5
 20
12.5
 30
0.0
  0
POINT
  5
24A
330
57
100
AcDbEntity
  8
1
 62
     4
100
AcDbPoint
 10
123.5
 20
19.00000000000001
 30
0.0
  0
POINT
  5
24B
330
57
100
AcDbEntity
  8
1
 62
     4
100
AcDbPoint
 10
100.75
 20
12.5
 30
0.0
  0
POINT
  5
24C
330
57
100
AcDbEntity
  8
1
 62
     4
100
AcDbPoint
 10
112.25
 20
12.5
 30
0.0
  0
POINT
  5
24D
330
57
100
AcDbEntity
  8
1
 62
     4
100
AcDbPoint
 10
106.5
 20
12.5
 30
0.0
  0
POINT
  5
24E
330
57
100
AcDbEntity
  8
1
 62
     4
100
AcDbPoint
 10
106.5
 20
19.00000000000001
 30
0.0
  0
POINT
  5
24F
330
57
100
AcDbEntity
  8
1
 62
     4
100
AcDbPoint
 10
85.25000000000003
 20
17.0
 30
0.0
  0
POINT
  5
250
330
57
100
AcDbEntity
  8
1
 62
     4
100
AcDbPoint
 10
93.75000000000003
 20
17.0
 30
0.0
  0
LINE
  5
251
330
57
100
AcDbEntity
  8
1
  6
Continuous
 62
     2
100
AcDbLine
 10
81.00000000000003
 20
27.00000000000001
 30
0.0
 11
81.00000000000003
 21
10.0
 31
0.0
  0
LINE
  5
252
330
57
100
AcDbEntity
  8
1
  6
DOT_CENTER
 62
     2
100
AcDbLine
 10
187.0
 20
26.50000000000001
 30
0.0
 11
187.0
 21
20.50000000000001
 31
0.0
  0
LINE
  5
253
330
57
100
AcDbEntity
  8
1
  6
DOT_CENTER
 62
     2
100
AcDbLine
 10
184.0
 20
23.50000000000001
 30
0.0
 11
197.0
 21
23.50000000000001
 31
0.0
  0
LINE
  5
254
330
57
100
AcDbEntity
  8
1
  6
Continuous
 62
     7
100
AcDbLine
 10
196.0
 20
21.50000000000001
 30
0.0
 11
191.0
 21
22.30000000000001
 31
0.0
  0
LINE
  5
255
330
57
100
AcDbEntity
  8
1
  6
Continuous
 62
     7
100
AcDbLine
 10
196.0
 20
25.50000000000001
 30
0.0
 11
196.0
 21
21.50000000000001
 31
0.0
  0
LINE
  5
256
330
57
100
AcDbEntity
  8
1
  6
Continuous
 62
     7
100
AcDbLine
 10
191.0
 20
24.70000000000001
 30
0.0
 11
196.0
 21
25.50000000000001
 31
0.0
  0
LINE
  5
257
330
57
100
AcDbEntity
  8
1
  6
Continuous
 62
     7
100
AcDbLine
 10
191.0
 20
24.70000000000001
 30
0.0
 11
191.0
 21
22.30000000000001
 31
0.0
  0
LINE
  5
258
330
57
100
AcDbEntity
  8
1
  6
Continuous
 62
     2
100
AcDbLine
 10
33.0
 20
27.0
 30
0.0
 11
33.0
 21
10.0
 31
0.0
  0
LINE
  5
259
330
57
100
AcDbEntity
  8
1
  6
Continuous
 62
     2
100
AcDbLine
 10
25.0
 20
18.50000000000001
 30
0.0
 11
81.00000000000003
 21
18.50000000000001
 31
0.0
  0
LINE
  5
25A
330
57
100
AcDbEntity
  8
1
  6
Continuous
 62
     7
100
AcDbLine
 10
200.0
 20
287.0000000000003
 30
0.0
 11
105.0
 21
287.0000000000003
 31
0.0
  0
LINE
  5
25B
330
57
100
AcDbEntity
  8
1
  6
Continuous
 62
     7
100
AcDbLine
 10
200.0
 20
10.0
 30
0.0
 11
200.0
 21
148.5
 31
0.0
  0
LINE
  5
25C
330
57
100
AcDbEntity
  8
1
  6
Continuous
 62
     7
100
AcDbLine
 10
25.0
 20
10.0
 30
0.0
 11
105.0
 21
10.0
 31
0.0
  0
LINE
  5
25D
330
57
100
AcDbEntity
  8
1
  6
PHANTOM
 62
     4
100
AcDbLine
 10
0.0
 20
297.0
 30
0.0
 11
0.0
 21
0.0
 31
0.0
  0
LINE
  5
25E
330
57
100
AcDbEntity
  8
1
  6
PHANTOM
 62
     4
100
AcDbLine
 10
210.0000000000001
 20
297.0
 30
0.0
 11
0.0
 21
297.0
 31
0.0
  0
LINE
  5
25F
330
57
100
AcDbEntity
  8
1
  6
PHANTOM
 62
     4
100
AcDbLine
 10
210.0000000000001
 20
0.0
 30
0.0
 11
210.0000000000001
 21
297.0
 31
0.0
  0
LINE
  5
260
330
57
100
AcDbEntity
  8
1
  6
PHANTOM
 62
     4
100
AcDbLine
 10
0.0
 20
0.0
 30
0.0
 11
210.0000000000001
 21
0.0
 31
0.0
  0
LINE
  5
261
330
57
100
AcDbEntity
  8
1
  6
Continuous
 62
     7
100
AcDbLine
 10
25.0
 20
41.0
 30
0.0
 11
200.0
 21
41.0
 31
0.0
  0
LINE
  5
262
330
57
100
AcDbEntity
  8
1
  6
Continuous
 62
     7
100
AcDbLine
 10
200.0
 20
27.00000000000001
 30
0.0
 11
25.0
 21
27.00000000000001
 31
0.0
  0
LINE
  5
263
330
57
100
AcDbEntity
  8
1
  6
Continuous
 62
     2
100
AcDbLine
 10
33.0
 20
41.00000000000001
 30
0.0
 11
33.0
 21
27.0
 31
0.0
  0
LINE
  5
264
330
57
100
AcDbEntity
  8
1
  6
Continuous
 62
     2
100
AcDbLine
 10
55.00000000000003
 20
287.0000000000003
 30
0.0
 11
55.00000000000003
 21
277.0000000000003
 31
0.0
  0
LINE
  5
265
330
57
100
AcDbEntity
  8
1
  6
Continuous
 62
     2
100
AcDbLine
 10
40.0
 20
287.0000000000003
 30
0.0
 11
40.0
 21
277.0000000000003
 31
0.0
  0
LINE
  5
266
330
57
100
AcDbEntity
  8
1
  6
Continuous
 62
     7
100
AcDbLine
 10
25.0
 20
10.0
 30
0.0
 11
25.0
 21
148.5
 31
0.0
  0
LINE
  5
267
330
57
100
AcDbEntity
  8
1
  6
Continuous
 62
     2
100
AcDbLine
 10
55.00000000000003
 20
277.0000000000003
 30
0.0
 11
25.0
 21
277.0000000000003
 31
0.0
  0
LINE
  5
268
330
57
100
AcDbEntity
  8
1
  6
Continuous
 62
     2
100
AcDbLine
 10
166.0
 20
27.00000000000001
 30
0.0
 11
166.0
 21
10.0
 31
0.0
  0
LINE
  5
269
330
57
100
AcDbEntity
  8
1
  6
Continuous
 62
     2
100
AcDbLine
 10
132.0
 20
27.00000000000001
 30
0.0
 11
132.0
 21
9.99999999999999
 31
0.0
  0
LINE
  5
26A
330
57
100
AcDbEntity
  8
1
  6
Continuous
 62
     2
100
AcDbLine
 10
149.0
 20
27.00000000000001
 30
0.0
 11
149.0
 21
10.0
 31
0.0
  0
LINE
  5
26B
330
57
100
AcDbEntity
  8
1
  6
Continuous
 62
     2
100
AcDbLine
 10
115.0
 20
27.00000000000001
 30
0.0
 11
115.0
 21
9.99999999999999
 31
0.0
  0
LINE
  5
26C
330
57
100
AcDbEntity
  8
1
  6
Continuous
 62
     2
100
AcDbLine
 10
98.00000000000003
 20
27.00000000000001
 30
0.0
 11
98.00000000000003
 21
9.99999999999999
 31
0.0
  0
LINE
  5
26D
330
57
100
AcDbEntity
  8
1
  6
Continuous
 62
     2
100
AcDbLine
 10
166.0
 20
20.00000000000001
 30
0.0
 11
200.0
 21
20.00000000000001
 31
0.0
  0
LINE
  5
26E
330
57
100
AcDbEntity
  8
1
  6
Continuous
 62
     2
100
AcDbLine
 10
105.0
 20
287.0000000000003
 30
0.0
 11
105.0
 21
292.0000000000003
 31
0.0
  0
LINE
  5
26F
330
57
100
AcDbEntity
  8
1
  6
Continuous
 62
     7
100
AcDbLine
 10
105.0
 20
287.0000000000003
 30
0.0
 11
25.0
 21
287.0000000000003
 31
0.0
  0
LINE
  5
270
330
57
100
AcDbEntity
  8
1
  6
Continuous
 62
     2
100
AcDbLine
 10
25.0
 20
148.5
 30
0.0
 11
20.0
 21
148.5
 31
0.0
  0
LINE
  5
271
330
57
100
AcDbEntity
  8
1
  6
Continuous
 62
     7
100
AcDbLine
 10
25.0
 20
148.5
 30
0.0
 11
25.0
 21
287.0000000000003
 31
0.0
  0
LINE
  5
272
330
57
100
AcDbEntity
  8
1
  6
Continuous
 62
     2
100
AcDbLine
 10
200.0
 20
148.5
 30
0.0
 11
205.0
 21
148.5
 31
0.0
  0
LINE
  5
273
330
57
100
AcDbEntity
  8
1
  6
Continuous
 62
     7
100
AcDbLine
 10
200.0
 20
148.5
 30
0.0
 11
200.0
 21
287.0000000000003
 31
0.0
  0
LINE
  5
274
330
57
100
AcDbEntity
  8
1
  6
Continuous
 62
     2
100
AcDbLine
 10
105.0
 20
10.0
 30
0.0
 11
105.0
 21
5.0
 31
0.0
  0
LINE
  5
275
330
57
100
AcDbEntity
  8
1
  6
Continuous
 62
     7
100
AcDbLine
 10
105.0
 20
10.0
 30
0.0
 11
200.0
 21
10.0
 31
0.0
  0
CIRCLE
  5
276
330
57
100
AcDbEntity
  8
1
  6
DOT_CENTER
 62
     7
100
AcDbCircle
 10
89.50000000000003
 20
18.0
 30
0.0
 40
0.1000000000000227
  0
CIRCLE
  5
277
330
57
100
AcDbEntity
  8
1
  6
DOT_CENTER
 62
     7
100
AcDbCircle
 10
89.50000000000003
 20
16.0
 30
0.0
 40
0.1000000000000227
  0
CIRCLE
  5
278
330
57
100
AcDbEntity
  8
1
  6
Continuous
 62
     7
100
AcDbCircle
 10
187.0
 20
23.50000000000001
 30
0.0
 40
2.0
  0
CIRCLE
  5
279
330
57
100
AcDbEntity
  8
1
  6
Continuous
 62
     7
100
AcDbCircle
 10
187.0
 20
23.50000000000001
 30
0.0
 40
1.200000000000102
  0
CIRCLE
  5
27A
330
57
100
AcDbEntity
  8
1
  6
Continuous
 62
     7
100
AcDbCircle
 10
154.5
 20
12.5
 30
0.0
 40
0.3000000000000114
  0
CIRCLE
  5
27B
330
57
100
AcDbEntity
  8
1
  6
Continuous
 62
     7
100
AcDbCircle
 10
160.5
 20
12.5
 30
0.0
 40
0.3000000000000114
  0
CIRCLE
  5
27C
330
57
100
AcDbEntity
  8
1
  6
Continuous
 62
     7
100
AcDbCircle
 10
143.5
 20
12.5
 30
0.0
 40
0.3000000000000114
  0
CIRCLE
  5
27D
330
57
100
AcDbEntity
  8
1
  6
Continuous
 62
     7
100
AcDbCircle
 10
137.5
 20
12.5
 30
0.0
 40
0.3000000000000114
  0
CIRCLE
  5
27E
330
57
100
AcDbEntity
  8
1
  6
Continuous
 62
     7
100
AcDbCircle
 10
126.5
 20
12.5
 30
0.0
 40
0.2999999999999972
  0
CIRCLE
  5
27F
330
57
100
AcDbEntity
  8
1
  6
Continuous
 62
     7
100
AcDbCircle
 10
120.5
 20
12.5
 30
0.0
 40
0.2999999999999972
  0
CIRCLE
  5
280
330
57
100
AcDbEntity
  8
1
  6
Continuous
 62
     7
100
AcDbCircle
 10
109.5
 20
12.5
 30
0.0
 40
0.2999999999999972
  0
CIRCLE
  5
281
330
57
100
AcDbEntity
  8
1
  6
Continuous
 62
     7
100
AcDbCircle
 10
103.5
 20
12.5
 30
0.0
 40
0.2999999999999972
  0
MTEXT
  5
283
330
57
100
AcDbEntity
  8
1
 62
   250
100
AcDbMText
 10
25.0
 20
5.0
 30
0.0
 40
3.5
 41
0.0
 71
     4
 72
     1
  1
備考欄の文字列 原点位置=4
  7
CONVERTER_11
 73
     1
 44
0.54545454545455
  0
MTEXT
  5
284
330
57
100
AcDbEntity
  8
1
 62
     2
100
AcDbMText
 10
89.50000000000003
 20
24.00000000000001
 30
0.0
 40
3.5
 41
0.0
 71
     5
 72
     1
  1
尺度
  7
CONVERTER_11
 73
     1
 44
0.54545454545455
  0
MTEXT
  5
285
330
57
100
AcDbEntity
  8
1
 62
     2
100
AcDbMText
 10
135.5
 20
25.00000000000001
 30
0.0
 40
3.0
 41
0.0
 71
     5
 72
     1
  1
製図
  7
CONVERTER_11
 73
     1
 44
0.59090909090909
  0
MTEXT
  5
286
330
57
100
AcDbEntity
  8
1
 62
     2
100
AcDbMText
 10
152.5
 20
25.00000000000001
 30
0.0
 40
3.0
 41
0.0
 71
     5
 72
     1
  1
設計
  7
CONVERTER_11
 73
     1
 44
0.59090909090909
  0
MTEXT
  5
287
330
57
100
AcDbEntity
  8
1
 62
     2
100
AcDbMText
 10
118.5
 20
25.00000000000001
 30
0.0
 40
3.0
 41
0.0
 71
     5
 72
     1
  1
検図
  7
CONVERTER_11
 73
     1
 44
0.59090909090909
  0
MTEXT
  5
288
330
57
100
AcDbEntity
  8
1
 62
     2
100
AcDbMText
 10
175.0
 20
23.50000000000001
 30
0.0
 40
3.5
 41
0.0
 71
     5
 72
     1
  1
第三角法
  7
CONVERTER_11
 73
     1
 44
0.54545454545455
  0
MTEXT
  5
289
330
57
100
AcDbEntity
  8
1
 62
     2
100
AcDbMText
 10
101.5
 20
25.00000000000001
 30
0.0
 40
3.0
 41
0.0
 71
     5
 72
     1
  1
承認
  7
CONVERTER_11
 73
     1
 44
0.59090909090909
  0
MTEXT
  5
28A
330
57
100
AcDbEntity
  8
1
 62
     2
100
AcDbMText
 10
29.0
 20
14.25
 30
0.0
 40
3.5
 41
0.0
 71
     5
 72
     1
  1
品番
  7
CONVERTER_11
 73
     1
 44
0.72727272727273
  0
MTEXT
  5
28B
330
57
100
AcDbEntity
  8
1
 62
     2
100
AcDbMText
 10
29.0
 20
22.75
 30
0.0
 40
3.5
 41
0.0
 71
     5
 72
     1
  1
品名
  7
CONVERTER_11
 73
     1
 44
0.72727272727273
  0
MTEXT
  5
28C
330
57
100
AcDbEntity
  8
1
 62
     2
100
AcDbMText
 10
29.0
 20
34.00000000000001
 30
0.0
 40
3.5
 41
0.0
 71
     5
 72
     1
  1
備考
  7
CONVERTER_11
 73
     1
 44
0.45454545454545
  0
MTEXT
  5
28D
330
57
100
AcDbEntity
  8
1
 62
     2
100
AcDbMText
 10
32.5
 20
282.0000000000003
 30
0.0
 40
5.0
 41
0.0
 71
     5
 72
     1
  1
図番
  7
CONVERTER_11
 73
     1
 44
0.45454545454545
  0
MTEXT
  5
28E
330
57
100
AcDbEntity
  8
1
 62
     7
100
AcDbMText
 10
171.5
 20
15.0
 30
0.0
 40
2.5
 41
0.0
 71
     5
 72
     1
  1
株式会社
  7
CONVERTER_11
 73
     1
 44
1.0
  0
MTEXT
  5
28F
330
57
100
AcDbEntity
  8
1
 62
     7
100
AcDbMText
 10
188.5
 20
15.0
 30
0.0
 40
3.0
 41
0.0
 71
     5
 72
     1
  1
三栄水栓製作所
  7
CONVERTER_11
 73
     1
 44
1.0
  0
ENDBLK
  5
59
330
57
100
AcDbEntity
  8
0
100
AcDbBlockEnd
  0
BLOCK
  5
2C9
330
2C2
100
AcDbEntity
  8
0
100
AcDbBlockBegin
  2
*D7
 70
     1
 10
0.0
 20
0.0
 30
0.0
  3
*D7
  1

  0
LINE
  5
2C3
330
2C2
100
AcDbEntity
  8
0
  6
Continuous
 62
     2
100
AcDbLine
 10
549.1086889961404
 20
135.7047141224477
 30
0.0
 11
563.1086889961404
 21
135.7047141224477
 31
0.0
  0
LINE
  5
2C4
330
2C2
100
AcDbEntity
  8
0
  6
Continuous
 62
     2
100
AcDbLine
 10
563.1086889961404
 20
135.7047141224477
 30
0.0
 11
586.5432324058678
 21
135.7047141224477
 31
0.0
  0
LINE
  5
2C5
330
2C2
100
AcDbEntity
  8
0
  6
Continuous
 62
     2
100
AcDbLine
 10
549.1086889961404
 20
236.7047141224483
 30
0.0
 11
549.1086889961404
 21
132.7047141224477
 31
0.0
  0
LINE
  5
2C6
330
2C2
100
AcDbEntity
  8
0
  6
Continuous
 62
     2
100
AcDbLine
 10
563.1086889961404
 20
250.2047141224482
 30
0.0
 11
563.1086889961404
 21
132.7047141224477
 31
0.0
  0
SOLID
  5
2C7
330
2C2
100
AcDbEntity
  8
0
 62
     2
100
AcDbTrace
 10
573.6086889961404
 20
137.0870653471154
 30
0.0
 11
573.6086889961404
 21
134.3223628977801
 31
0.0
 12
563.1086889961404
 22
135.7047141224477
 32
0.0
 13
563.1086889961404
 23
135.7047141224477
 33
0.0
  0
MTEXT
  5
2C8
330
2C2
100
AcDbEntity
  8
0
 62
     7
100
AcDbMText
 10
573.9432324058679
 20
138.7047141224477
 30
0.0
 40
10.5
 41
0.0
 71
     7
 72
     1
  1
14
  7
CONVERTER_12
 11
0.9999999999970619
 21
2.424068405545306E-6
 31
0.0
 73
     1
 44
0.60024009603842
  0
ENDBLK
  5
2CA
330
2C2
100
AcDbEntity
  8
0
100
AcDbBlockEnd
  0
BLOCK
  5
2CC
330
2CB
100
AcDbEntity
  8
0
100
AcDbBlockBegin
  2
_NONE
 70
     0
 10
0.0
 20
0.0
 30
0.0
  3
_NONE
  1

  0
ENDBLK
  5
2CD
330
2CB
100
AcDbEntity
  8
0
100
AcDbBlockEnd
  0
BLOCK
  5
2D7
330
2D0
100
AcDbEntity
  8
0
100
AcDbBlockBegin
  2
*D9
 70
     1
 10
0.0
 20
0.0
 30
0.0
  3
*D9
  1

  0
LINE
  5
2D1
330
2D0
100
AcDbEntity
  8
0
  6
Continuous
 62
     2
100
AcDbLine
 10
504.1104884005509
 20
135.7047141224477
 30
0.0
 11
549.1086889961404
 21
135.7047141224477
 31
0.0
  0
LINE
  5
2D2
330
2D0
100
AcDbEntity
  8
0
  6
Continuous
 62
     2
100
AcDbLine
 10
504.1104884005509
 20
242.7047141224484
 30
0.0
 11
504.1104884005509
 21
132.7047141224477
 31
0.0
  0
LINE
  5
2D3
330
2D0
100
AcDbEntity
  8
0
  6
Continuous
 62
     2
100
AcDbLine
 10
549.1086889961404
 20
236.7047141224483
 30
0.0
 11
549.1086889961404
 21
132.7047141224477
 31
0.0
  0
SOLID
  5
2D4
330
2D0
100
AcDbEntity
  8
0
 62
     2
100
AcDbTrace
 10
514.6104884005509
 20
137.0870653471154
 30
0.0
 11
514.6104884005509
 21
134.3223628977801
 31
0.0
 12
504.1104884005509
 22
135.7047141224477
 32
0.0
 13
504.1104884005509
 23
135.7047141224477
 33
0.0
  0
SOLID
  5
2D5
330
2D0
100
AcDbEntity
  8
0
 62
     2
100
AcDbTrace
 10
538.6086889961404
 20
134.3223628977801
 30
0.0
 11
538.6086889961404
 21
137.0870653471154
 31
0.0
 12
549.1086889961404
 22
135.7047141224477
 32
0.0
 13
549.1086889961404
 23
135.7047141224477
 33
0.0
  0
MTEXT
  5
2D6
330
2D0
100
AcDbEntity
  8
0
 62
     7
100
AcDbMText
 10
518.7345886983456
 20
138.7047141224477
 30
0.0
 40
10.5
 41
0.0
 71
     7
 72
     1
  1
45
  7
CONVERTER_12
 11
0.9999999999970619
 21
2.424068405545306E-6
 31
0.0
 73
     1
 44
0.60024009603842
  0
ENDBLK
  5
2D8
330
2D0
100
AcDbEntity
  8
0
100
AcDbBlockEnd
  0
BLOCK
  5
2E2
330
2DB
100
AcDbEntity
  8
0
100
AcDbBlockBegin
  2
*D10
 70
     1
 10
0.0
 20
0.0
 30
0.0
  3
*D10
  1

  0
LINE
  5
2DC
330
2DB
100
AcDbEntity
  8
0
  6
Continuous
 62
     2
100
AcDbLine
 10
469.1104884005487
 20
135.7047141224477
 30
0.0
 11
504.1104884005509
 21
135.7047141224477
 31
0.0
  0
LINE
  5
2DD
330
2DB
100
AcDbEntity
  8
0
  6
Continuous
 62
     2
100
AcDbLine
 10
469.1104884005487
 20
225.2047141224478
 30
0.0
 11
469.1104884005487
 21
132.7047141224477
 31
0.0
  0
LINE
  5
2DE
330
2DB
100
AcDbEntity
  8
0
  6
Continuous
 62
     2
100
AcDbLine
 10
504.1104884005509
 20
242.7047141224484
 30
0.0
 11
504.1104884005509
 21
132.7047141224477
 31
0.0
  0
SOLID
  5
2DF
330
2DB
100
AcDbEntity
  8
0
 62
     2
100
AcDbTrace
 10
479.6104884005487
 20
137.0870653471154
 30
0.0
 11
479.6104884005487
 21
134.3223628977801
 31
0.0
 12
469.1104884005487
 22
135.7047141224477
 32
0.0
 13
469.1104884005487
 23
135.7047141224477
 33
0.0
  0
SOLID
  5
2E0
330
2DB
100
AcDbEntity
  8
0
 62
     2
100
AcDbTrace
 10
493.6104884005509
 20
134.3223628977801
 30
0.0
 11
493.6104884005509
 21
137.0870653471154
 31
0.0
 12
504.1104884005509
 22
135.7047141224477
 32
0.0
 13
504.1104884005509
 23
135.7047141224477
 33
0.0
  0
MTEXT
  5
2E1
330
2DB
100
AcDbEntity
  8
0
 62
     7
100
AcDbMText
 10
478.7354884005498
 20
138.7047141224477
 30
0.0
 40
10.5
 41
0.0
 71
     7
 72
     1
  1
35
  7
CONVERTER_12
 11
0.9999999999970619
 21
2.424068405545306E-6
 31
0.0
 73
     1
 44
0.60024009603842
  0
ENDBLK
  5
2E3
330
2DB
100
AcDbEntity
  8
0
100
AcDbBlockEnd
  0
BLOCK
  5
2ED
330
2E6
100
AcDbEntity
  8
0
100
AcDbBlockBegin
  2
*D11
 70
     1
 10
0.0
 20
0.0
 30
0.0
  3
*D11
  1

  0
LINE
  5
2E7
330
2E6
100
AcDbEntity
  8
0
  6
Continuous
 62
     2
100
AcDbLine
 10
169.108688996138
 20
135.7047141224477
 30
0.0
 11
469.1104884005486
 21
135.7047141224477
 31
0.0
  0
LINE
  5
2E8
330
2E6
100
AcDbEntity
  8
0
  6
Continuous
 62
     2
100
AcDbLine
 10
169.108688996138
 20
162.0566692028258
 30
0.0
 11
169.108688996138
 21
132.7047141224477
 31
0.0
  0
LINE
  5
2E9
330
2E6
100
AcDbEntity
  8
0
  6
Continuous
 62
     2
100
AcDbLine
 10
469.1104884005486
 20
225.2047141224478
 30
0.0
 11
469.1104884005486
 21
132.7047141224477
 31
0.0
  0
SOLID
  5
2EA
330
2E6
100
AcDbEntity
  8
0
 62
     2
100
AcDbTrace
 10
179.608688996138
 20
137.0870653471154
 30
0.0
 11
179.608688996138
 21
134.3223628977801
 31
0.0
 12
169.108688996138
 22
135.7047141224477
 32
0.0
 13
169.108688996138
 23
135.7047141224477
 33
0.0
  0
SOLID
  5
2EB
330
2E6
100
AcDbEntity
  8
0
 62
     2
100
AcDbTrace
 10
458.6104884005486
 20
134.3223628977801
 30
0.0
 11
458.6104884005486
 21
137.0870653471154
 31
0.0
 12
469.1104884005486
 22
135.7047141224477
 32
0.0
 13
469.1104884005486
 23
135.7047141224477
 33
0.0
  0
MTEXT
  5
2EC
330
2E6
100
AcDbEntity
  8
0
 62
     7
100
AcDbMText
 10
306.5095886983433
 20
138.7047141224477
 30
0.0
 40
10.5
 41
0.0
 71
     7
 72
     1
  1
300
  7
CONVERTER_12
 11
0.9999999999970619
 21
2.424068405545306E-6
 31
0.0
 73
     1
 44
0.60024009603842
  0
ENDBLK
  5
2EE
330
2E6
100
AcDbEntity
  8
0
100
AcDbBlockEnd
  0
BLOCK
  5
2F8
330
2F1
100
AcDbEntity
  8
0
100
AcDbBlockBegin
  2
*D12
 70
     1
 10
0.0
 20
0.0
 30
0.0
  3
*D12
  1

  0
LINE
  5
2F2
330
2F1
100
AcDbEntity
  8
0
  6
Continuous
 62
     2
100
AcDbLine
 10
296.9703739112725
 20
259.7047141224484
 30
0.0
 11
296.9703739112725
 21
165.2047141224479
 31
0.0
  0
LINE
  5
2F3
330
2F1
100
AcDbEntity
  8
0
  6
Continuous
 62
     2
100
AcDbLine
 10
459.9779370483728
 20
259.7047141224484
 30
0.0
 11
293.9703739112725
 21
259.7047141224484
 31
0.0
  0
LINE
  5
2F4
330
2F1
100
AcDbEntity
  8
0
  6
Continuous
 62
     2
100
AcDbLine
 10
176.4950960021241
 20
165.2047141224479
 30
0.0
 11
299.9703739112725
 21
165.2047141224479
 31
0.0
  0
SOLID
  5
2F5
330
2F1
100
AcDbEntity
  8
0
 62
     2
100
AcDbTrace
 10
298.3527251359401
 20
249.2047141224484
 30
0.0
 11
295.5880226866048
 21
249.2047141224484
 31
0.0
 12
296.9703739112725
 22
259.7047141224484
 32
0.0
 13
296.9703739112725
 23
259.7047141224484
 33
0.0
  0
SOLID
  5
2F6
330
2F1
100
AcDbEntity
  8
0
 62
     2
100
AcDbTrace
 10
295.5880226866048
 20
175.7047141224479
 30
0.0
 11
298.3527251359401
 21
175.7047141224479
 31
0.0
 12
296.9703739112725
 22
165.2047141224479
 32
0.0
 13
296.9703739112725
 23
165.2047141224479
 33
0.0
  0
MTEXT
  5
2F7
330
2F1
100
AcDbEntity
  8
0
 62
     7
100
AcDbMText
 10
293.9703739112725
 20
210.9563842938666
 30
0.0
 40
10.5
 41
0.0
 71
     7
 72
     1
  1
95
  7
CONVERTER_12
 11
0.0
 21
1.0
 31
0.0
 73
     1
 44
0.60024009603842
  0
ENDBLK
  5
2F9
330
2F1
100
AcDbEntity
  8
0
100
AcDbBlockEnd
  0
BLOCK
  5
303
330
2FC
100
AcDbEntity
  8
0
100
AcDbBlockBegin
  2
*D13
 70
     1
 10
0.0
 20
0.0
 30
0.0
  3
*D13
  1

  0
LINE
  5
2FD
330
2FC
100
AcDbEntity
  8
0
  6
Continuous
 62
     2
100
AcDbLine
 10
296.9703739112725
 20
309.7047141224482
 30
0.0
 11
296.9703739112725
 21
259.7047141224482
 31
0.0
  0
LINE
  5
2FE
330
2FC
100
AcDbEntity
  8
0
  6
Continuous
 62
     2
100
AcDbLine
 10
504.1104884005509
 20
309.7047141224482
 30
0.0
 11
293.9703739112725
 21
309.7047141224482
 31
0.0
  0
LINE
  5
2FF
330
2FC
100
AcDbEntity
  8
0
  6
Continuous
 62
     2
100
AcDbLine
 10
459.9779370483728
 20
259.7047141224482
 30
0.0
 11
293.9703739112725
 21
259.7047141224482
 31
0.0
  0
SOLID
  5
300
330
2FC
100
AcDbEntity
  8
0
 62
     2
100
AcDbTrace
 10
298.3527251359401
 20
299.2047141224482
 30
0.0
 11
295.5880226866048
 21
299.2047141224482
 31
0.0
 12
296.9703739112725
 22
309.7047141224482
 32
0.0
 13
296.9703739112725
 23
309.7047141224482
 33
0.0
  0
SOLID
  5
301
330
2FC
100
AcDbEntity
  8
0
 62
     2
100
AcDbTrace
 10
295.5880226866048
 20
270.2047141224482
 30
0.0
 11
298.3527251359401
 21
270.2047141224482
 31
0.0
 12
296.9703739112725
 22
259.7047141224482
 32
0.0
 13
296.9703739112725
 23
259.7047141224482
 33
0.0
  0
MTEXT
  5
302
330
2FC
100
AcDbEntity
  8
0
 62
     7
100
AcDbMText
 10
293.9703739112725
 20
277.7548412133593
 30
0.0
 40
10.5
 41
0.0
 71
     7
 72
     1
  1
50
  7
CONVERTER_12
 11
0.0
 21
1.0
 31
0.0
 73
     1
 44
0.60024009603842
  0
ENDBLK
  5
304
330
2FC
100
AcDbEntity
  8
0
100
AcDbBlockEnd
  0
BLOCK
  5
30E
330
307
100
AcDbEntity
  8
0
100
AcDbBlockBegin
  2
*D14
 70
     1
 10
0.0
 20
0.0
 30
0.0
  3
*D14
  1

  0
LINE
  5
308
330
307
100
AcDbEntity
  8
0
  6
Continuous
 62
     2
100
AcDbLine
 10
592.6086889961402
 20
282.7047141224484
 30
0.0
 11
592.6086889961402
 21
236.7047141224484
 31
0.0
  0
LINE
  5
309
330
307
100
AcDbEntity
  8
0
  6
Continuous
 62
     2
100
AcDbLine
 10
549.1086889961404
 20
282.7047141224484
 30
0.0
 11
595.6086889961402
 21
282.7047141224484
 31
0.0
  0
LINE
  5
30A
330
307
100
AcDbEntity
  8
0
  6
Continuous
 62
     2
100
AcDbLine
 10
549.1086889961404
 20
236.7047141224484
 30
0.0
 11
595.6086889961402
 21
236.7047141224484
 31
0.0
  0
SOLID
  5
30B
330
307
100
AcDbEntity
  8
0
 62
     2
100
AcDbTrace
 10
593.9910402208079
 20
272.2047141224484
 30
0.0
 11
591.2263377714726
 21
272.2047141224484
 31
0.0
 12
592.6086889961402
 22
282.7047141224484
 32
0.0
 13
592.6086889961402
 23
282.7047141224484
 33
0.0
  0
SOLID
  5
30C
330
307
100
AcDbEntity
  8
0
 62
     2
100
AcDbTrace
 10
591.2263377714726
 20
247.2047141224484
 30
0.0
 11
593.9910402208079
 21
247.2047141224484
 31
0.0
 12
592.6086889961402
 22
236.7047141224484
 32
0.0
 13
592.6086889961402
 23
236.7047141224484
 33
0.0
  0
MTEXT
  5
30D
330
307
100
AcDbEntity
  8
0
 62
     7
100
AcDbMText
 10
589.6086889961402
 20
249.5197141224483
 30
0.0
 40
10.5
 41
0.0
 71
     7
 72
     1
  1
\C7;{\Fgdt;n}\C7;46
  7
CONVERTER_12
 11
0.0
 21
1.0
 31
0.0
 73
     1
 44
0.60024009603842
  0
ENDBLK
  5
30F
330
307
100
AcDbEntity
  8
0
100
AcDbBlockEnd
  0
ENDSEC
  0
SECTION
  2
ENTITIES
  0
INSERT
  5
5A
330
1F
100
AcDbEntity
  8
0
100
AcDbBlockReference
  2
32-1-16
 10
517.980792640644
 20
410.0345159827795
 30
0.0
  0
INSERT
  5
5B
330
1F
100
AcDbEntity
  8
0
100
AcDbBlockReference
  2
60-1-16-170
 10
99.94425439513488
 20
134.8386162924539
 30
0.0
  0
INSERT
  5
5C
330
1F
100
AcDbEntity
  8
1
100
AcDbBlockReference
  2
A105-0
 10
577.2310568735203
 20
320.0433710073243
 30
0.0
  0
INSERT
  5
5D
330
1F
100
AcDbEntity
  8
1
100
AcDbBlockReference
  2
81-100X-M21
 10
123.4949563996569
 20
123.0
 30
0.0
  0
INSERT
  5
5E
330
1F
100
AcDbEntity
  8
1
100
AcDbBlockReference
  2
開示A4
 10
0.0
 20
0.0
 30
0.0
 41
3.0
 42
3.0
 43
3.0
  0
LINE
  5
290
330
1F
100
AcDbEntity
  8
0
  6
DASH_CENTER
 62
     2
100
AcDbLine
 10
88.62857908779218
 20
259.7047141224483
 30
0.0
 11
140.628579087792
 21
259.7047141224483
 31
0.0
  0
LINE
  5
291
330
1F
100
AcDbEntity
  8
0
  6
DASH_CENTER
 62
     2
100
AcDbLine
 10
114.6285790877922
 20
312.4793983108776
 30
0.0
 11
114.6285790877922
 21
162.7617416208641
 31
0.0
  0
LINE
  5
292
330
1F
100
AcDbEntity
  8
1
  6
DASH_CENTER
 62
     2
100
AcDbLine
 10
169.1086889961381
 20
162.0566692028258
 30
0.0
 11
169.1086889961381
 21
171.2047141224477
 31
0.0
  0
LINE
  5
293
330
1F
100
AcDbEntity
  8
1
  6
DASH_CENTER
 62
     2
100
AcDbLine
 10
467.0043621906685
 20
298.7047141224483
 30
0.0
 11
526.8603350376064
 21
298.7047141224483
 31
0.0
  0
LINE
  5
294
330
1F
100
AcDbEntity
  8
1
  6
DASH_CENTER
 62
     2
100
AcDbLine
 10
504.1104884005509
 20
312.4793983108776
 30
0.0
 11
504.1104884005509
 21
279.9793983108776
 31
0.0
  0
LINE
  5
295
330
1F
100
AcDbEntity
  8
1
  6
DASH_CENTER
 62
     2
100
AcDbLine
 10
469.1104884005487
 20
247.2047141224479
 30
0.0
 11
469.1104884005487
 21
225.2047141224479
 31
0.0
  0
LINE
  5
296
330
1F
100
AcDbEntity
  8
1
  6
DASH_CENTER
 62
     2
100
AcDbLine
 10
196.1086889961381
 20
198.2047141224477
 30
0.0
 11
442.1104884005486
 21
198.2047141224477
 31
0.0
  0
LINE
  5
297
330
1F
100
AcDbEntity
  8
1
  6
DASH_CENTER
 62
     2
100
AcDbLine
 10
126.0028012816545
 20
354.2047141224484
 30
0.0
 11
103.6506278755715
 21
354.2047141224484
 31
0.0
  0
LINE
  5
298
330
1F
100
AcDbEntity
  8
1
  6
DASH_CENTER
 62
     2
100
AcDbLine
 10
459.977937048373
 20
259.7047141224483
 30
0.0
 11
566.1104884005509
 21
259.7047141224483
 31
0.0
  0
LINE
  5
299
330
1F
100
AcDbEntity
  8
1
  6
DASH_CENTER
 62
     2
100
AcDbLine
 10
504.1104884005509
 20
242.7047141224484
 30
0.0
 11
504.1104884005509
 21
279.9793983108776
 31
0.0
  0
LINE
  5
29A
330
1F
100
AcDbEntity
  8
1
  6
DASH_CENTER
 62
     2
100
AcDbLine
 10
469.1104884005487
 20
247.2047141224479
 30
0.0
 11
469.1104884005487
 21
267.0486858901824
 31
0.0
  0
LINE
  5
29B
330
1F
100
AcDbEntity
  8
1
  6
DASH_CENTER
 62
     2
100
AcDbLine
 10
114.6285790877922
 20
341.5547141224482
 30
0.0
 11
114.6285790877922
 21
754.2047141224484
 31
0.0
  0
LINE
  5
29C
330
1F
100
AcDbEntity
  8
1
  6
DASH_CENTER
 62
     2
100
AcDbLine
 10
133.1285790877922
 20
689.2047141224484
 30
0.0
 11
96.12857908779218
 21
689.2047141224484
 31
0.0
  0
LINE
  5
29D
330
1F
100
AcDbEntity
  8
1
  6
DASH_CENTER
 62
     2
100
AcDbLine
 10
130.6285790877924
 20
654.2047141224483
 30
0.0
 11
98.62857908779198
 21
654.2047141224483
 31
0.0
  0
LINE
  5
29E
330
1F
100
AcDbEntity
  8
1
  6
Continuous
 62
     2
100
AcDbLine
 10
162.327181364586
 20
683.2973176689094
 30
0.0
 11
198.066296437138
 21
683.2973176689094
 31
0.0
  0
LINE
  5
29F
330
1F
100
AcDbEntity
  8
1
  6
Continuous
 62
     2
100
AcDbLine
 10
136.630462262835
 20
638.3364537419347
 30
0.0
 11
174.4371294470209
 21
638.3364537419347
 31
0.0
  0
LINE
  5
2A0
330
1F
100
AcDbEntity
  8
1
  6
Continuous
 62
     7
100
AcDbLine
 10
497.5162436453594
 20
760.4125534110267
 30
0.0
 11
555.5162436453594
 21
760.4125534110267
 31
0.0
  0
LINE
  5
2A1
330
1F
100
AcDbEntity
  8
1
  6
Continuous
 62
     7
100
AcDbLine
 10
390.5162436453592
 20
760.4125534110267
 30
0.0
 11
497.5162436453594
 21
760.4125534110267
 31
0.0
  0
LINE
  5
2A2
330
1F
100
AcDbEntity
  8
1
  6
Continuous
 62
     7
100
AcDbLine
 10
555.5162436453594
 20
760.4125534110267
 30
0.0
 11
555.5162436453594
 21
690.4125534110267
 31
0.0
  0
LINE
  5
2A3
330
1F
100
AcDbEntity
  8
1
  6
Continuous
 62
     7
100
AcDbLine
 10
555.5162436453594
 20
690.4125534110267
 30
0.0
 11
390.5162436453592
 21
690.4125534110267
 31
0.0
  0
LINE
  5
2A4
330
1F
100
AcDbEntity
  8
1
  6
Continuous
 62
     7
100
AcDbLine
 10
390.5162436453592
 20
690.4125534110267
 30
0.0
 11
390.5162436453592
 21
760.4125534110267
 31
0.0
  0
LINE
  5
2A5
330
1F
100
AcDbEntity
  8
1
  6
Continuous
 62
     2
100
AcDbLine
 10
390.5162436453592
 20
730.4125534110267
 30
0.0
 11
555.5162436453594
 21
730.4125534110267
 31
0.0
  0
LINE
  5
2A6
330
1F
100
AcDbEntity
  8
1
  6
Continuous
 62
     2
100
AcDbLine
 10
390.5162436453592
 20
710.4125534110267
 30
0.0
 11
555.5162436453594
 21
710.4125534110267
 31
0.0
  0
LINE
  5
2A7
330
1F
100
AcDbEntity
  8
1
  6
Continuous
 62
     2
100
AcDbLine
 10
497.5162436453594
 20
690.4125534110267
 30
0.0
 11
497.5162436453594
 21
760.4125534110267
 31
0.0
  0
ARC
  5
2A8
330
1F
100
AcDbEntity
  8
1
  6
DASH_CENTER
 62
     2
100
AcDbCircle
 10
196.1086889961381
 20
171.2047141224477
 30
0.0
 40
27.0
100
AcDbArc
 50
90.0
 51
180.0
  0
ARC
  5
2A9
330
1F
100
AcDbEntity
  8
1
  6
DASH_CENTER
 62
     2
100
AcDbCircle
 10
442.1104884005486
 20
225.2047141224479
 30
0.0
 40
27.0000000000002
100
AcDbArc
 50
270.0
 51
0.0
  0
ARC
  5
2AA
330
1F
100
AcDbEntity
  8
1
  6
Continuous
 62
     2
100
AcDbCircle
 10
126.6285790877923
 20
686.7047141224484
 30
0.0
 40
29.99999999999984
100
AcDbArc
 50
295.0000000000002
 51
334.9999999999998
  0
SOLID
  5
2AB
330
1F
100
AcDbEntity
  8
1
 62
     2
100
AcDbTrace
 10
142.8107588282291
 20
663.6618433647145
 30
0.0
 11
144.3026302838521
 21
661.3342052499601
 31
0.0
 12
134.7166111644994
 22
656.8320799349844
 32
0.0
 13
134.7166111644994
 23
656.8320799349844
 33
0.0
  0
LEADER
  5
2AC
330
1F
100
AcDbEntity
  8
1
  6
Continuous
 62
     2
100
AcDbLeader
  3
Standard
 71
     0
 76
     2
 10
134.7166111644994
 20
656.8320799349844
 30
0.0
 10
136.4004365724122
 20
657.9113074344802
 30
0.0
  0
SOLID
  5
2AD
330
1F
100
AcDbEntity
  8
1
 62
     2
100
AcDbTrace
 10
153.4783931534317
 20
671.2383432087317
 30
0.0
 11
150.9727217947598
 21
672.4067569521001
 31
0.0
 12
156.6630492223732
 22
681.3387818443007
 32
0.0
 13
156.6630492223732
 23
681.3387818443007
 33
0.0
  0
LEADER
  5
2AE
330
1F
100
AcDbEntity
  8
1
  6
Continuous
 62
     2
100
AcDbLeader
  3
Standard
 71
     0
 76
     2
 10
156.6630492223732
 20
681.3387818443007
 30
0.0
 10
155.8178126988918
 20
679.5261662702275
 30
0.0
  0
SOLID
  5
2AF
330
1F
100
AcDbEntity
  8
1
 62
     2
100
AcDbTrace
 10
129.1814278102776
 20
750.4891564745188
 30
0.0
 11
131.575730365307
 21
749.1068052498512
 31
0.0
 12
125.1285790877922
 22
740.7047141224484
 32
0.0
 13
125.1285790877922
 23
740.7047141224484
 33
0.0
  0
LEADER
  5
2B0
330
1F
100
AcDbEntity
  8
1
  6
Continuous
 62
     2
100
AcDbLeader
  3
Standard
 71
     0
 76
     3
 10
125.1285790877922
 20
740.7047141224484
 30
0.0
 10
141.1549437051803
 20
768.4631919003889
 30
0.0
 10
196.444511896795
 20
768.4631919003889
 30
0.0
  0
MTEXT
  5
2B2
330
1F
100
AcDbEntity
  8
1
 62
     7
100
AcDbMText
 10
281.2500000000001
 20
51.0
 30
0.0
 40
10.5
 41
0.0
 71
     5
 72
     1
  1
3
  7
CONVERTER_12
 73
     1
 44
0.7202881152461
  0
MTEXT
  5
2B3
330
1F
100
AcDbEntity
  8
1
 62
     7
100
AcDbMText
 10
255.7500000000001
 20
51.0
 30
0.0
 40
10.5
 41
0.0
 71
     5
 72
     1
  1
1
  7
CONVERTER_12
 73
     1
 44
0.7202881152461
  0
MTEXT
  5
2B4
330
1F
100
AcDbEntity
  8
0
 62
     7
100
AcDbMText
 10
171.0000000000001
 20
48.75
 30
0.0
 40
10.5
 41
0.0
 71
     5
 72
     1
  1
A105-L3-13
  7
CONVERTER_12
 73
     1
 44
0.7202881152461
  0
MTEXT
  5
2B5
330
1F
100
AcDbEntity
  8
0
 62
     7
100
AcDbMText
 10
171.0000000000001
 20
68.25000000000003
 30
0.0
 40
10.5
 41
0.0
 71
     5
 72
     1
  1
ミニセラ自在水栓
  7
CONVERTER_11
 73
     1
 44
1.0
  0
MTEXT
  5
2B6
330
1F
100
AcDbEntity
  8
1
 62
     7
100
AcDbMText
 10
155.1224324175441
 20
648.8364537419347
 30
0.0
 40
15.0
 41
0.0
 71
     5
 72
     1
  1
止水
  7
CONVERTER_11
 73
     1
 44
0.54545454545455
  0
MTEXT
  5
2B7
330
1F
100
AcDbEntity
  8
1
 62
     7
100
AcDbMText
 10
180.4904945393472
 20
693.7973176689094
 30
0.0
 40
15.0
 41
0.0
 71
     5
 72
     1
  1
吐水
  7
CONVERTER_11
 73
     1
 44
0.54545454545455
  0
MTEXT
  5
2B8
330
1F
100
AcDbEntity
  8
0
 62
     7
100
AcDbMText
 10
168.7997278009876
 20
778.9631919003889
 30
0.0
 40
10.5
 41
0.0
 71
     5
 72
     1
  1
PJ1/2
  7
CONVERTER_12
 73
     1
 44
0.7202881152461
  0
MTEXT
  5
2B9
330
1F
100
AcDbEntity
  8
0
 62
     7
100
AcDbMText
 10
102.0
 20
102.0
 30
0.0
 40
10.5
 41
0.0
 71
     4
 72
     1
  1
JIS
  7
CONVERTER_12
 73
     1
 44
1.32052821128451
  0
MTEXT
  5
2BA
330
1F
100
AcDbEntity
  8
0
 62
     7
100
AcDbMText
 10
171.0000000000001
 20
36.75
 30
0.0
 40
10.5
 41
0.0
 71
     5
 72
     1
  1
A105-L3-13R
  7
CONVERTER_12
 73
     1
 44
0.7202881152461
  0
MTEXT
  5
2BB
330
1F
100
AcDbEntity
  8
1
 62
     2
100
AcDbMText
 10
444.0162436453589
 20
745.4125534110267
 30
0.0
 40
10.5
 41
0.0
 71
     5
 72
     1
  1
品番
  7
CONVERTER_11
 73
     1
 44
0.54545454545455
  0
MTEXT
  5
2BC
330
1F
100
AcDbEntity
  8
1
 62
     2
100
AcDbMText
 10
526.5162436453594
 20
750.4125534110267
 30
0.0
 40
10.5
 41
0.0
 71
     5
 72
     1
  1
ハンドル
  7
CONVERTER_11
 73
     1
 44
0.54545454545455
  0
MTEXT
  5
2BD
330
1F
100
AcDbEntity
  8
1
 62
     7
100
AcDbMText
 10
526.5162436453594
 20
700.4125534110267
 30
0.0
 40
10.5
 41
0.0
 71
     5
 72
     1
  1
赤
  7
CONVERTER_11
 73
     1
 44
0.54545454545455
  0
MTEXT
  5
2BE
330
1F
100
AcDbEntity
  8
1
 62
     7
100
AcDbMText
 10
444.0162436453589
 20
700.4125534110267
 30
0.0
 40
10.5
 41
0.0
 71
     5
 72
     1
  1
A105-L3-13R
  7
CONVERTER_12
 73
     1
 44
0.7202881152461
  0
MTEXT
  5
2BF
330
1F
100
AcDbEntity
  8
1
 62
     7
100
AcDbMText
 10
444.0162436453589
 20
720.4125534110267
 30
0.0
 40
10.5
 41
0.0
 71
     5
 72
     1
  1
A105-L3-13
  7
CONVERTER_12
 73
     1
 44
0.7202881152461
  0
MTEXT
  5
2C0
330
1F
100
AcDbEntity
  8
1
 62
     7
100
AcDbMText
 10
526.5162436453594
 20
720.4125534110267
 30
0.0
 40
10.5
 41
0.0
 71
     5
 72
     1
  1
－
  7
CONVERTER_11
 73
     1
 44
0.54545454545455
  0
MTEXT
  5
2C1
330
1F
100
AcDbEntity
  8
1
 62
     2
100
AcDbMText
 10
526.5162436453594
 20
740.4125534110267
 30
0.0
 40
10.5
 41
0.0
 71
     5
 72
     1
  1
表示リング
  7
CONVERTER_11
 73
     1
 44
0.54545454545455
  0
DIMENSION
  5
2CF
330
1F
100
AcDbEntity
  8
0
100
AcDbDimension
  2
*D7
 10
549.1086889961404
 20
135.7047141224477
 30
0.0
 11
580.2432324058678
 21
143.9547141224477
 31
0.0
 70
    32
  1
<>
 71
     5
 42
-1.0
 53
0.00013888888889
  3
ME10_DIM_10
100
AcDbAlignedDimension
 13
563.1086889961404
 23
250.2047141224483
 33
0.0
 14
549.1086889961404
 24
236.7047141224483
 34
0.0
100
AcDbRotatedDimension
  0
DIMENSION
  5
2DA
330
1F
100
AcDbEntity
  8
0
100
AcDbDimension
  2
*D9
 10
504.1104884005509
 20
135.7047141224477
 30
0.0
 11
526.6095886983456
 21
143.9547141224477
 31
0.0
 70
    32
  1
<>
 71
     5
 42
-1.0
 53
0.00013888888889
  3
ME10_DIM_11
100
AcDbAlignedDimension
 13
549.1086889961404
 23
236.7047141224483
 33
0.0
 14
504.1104884005509
 24
242.7047141224484
 34
0.0
100
AcDbRotatedDimension
  0
DIMENSION
  5
2E5
330
1F
100
AcDbEntity
  8
0
100
AcDbDimension
  2
*D10
 10
469.1104884005487
 20
135.7047141224477
 30
0.0
 11
486.6104884005498
 21
143.9547141224477
 31
0.0
 70
    32
  1
<>
 71
     5
 42
-1.0
 53
0.00013888888889
  3
ME10_DIM_12
100
AcDbAlignedDimension
 13
504.1104884005509
 23
242.7047141224484
 33
0.0
 14
469.1104884005487
 24
225.2047141224479
 34
0.0
100
AcDbRotatedDimension
  0
DIMENSION
  5
2F0
330
1F
100
AcDbEntity
  8
0
100
AcDbDimension
  2
*D11
 10
169.108688996138
 20
135.7047141224477
 30
0.0
 11
319.1095886983433
 21
143.9547141224477
 31
0.0
 70
    32
  1
<>
 71
     5
 42
-1.0
 53
0.00013888888889
  3
ME10_DIM_13
100
AcDbAlignedDimension
 13
469.1104884005487
 23
225.2047141224479
 33
0.0
 14
169.1086889961381
 24
162.0566692028258
 34
0.0
100
AcDbRotatedDimension
  0
DIMENSION
  5
2FB
330
1F
100
AcDbEntity
  8
0
100
AcDbDimension
  2
*D12
 10
296.9703739112725
 20
259.7047141224484
 30
0.0
 11
288.7203739112725
 21
218.8313842938666
 31
0.0
 70
    32
  1
95
 71
     5
 42
-1.0
 53
90.0
  3
ME10_DIM_14
100
AcDbAlignedDimension
 13
176.4950960021241
 23
165.2047141224477
 33
0.0
 14
459.977937048373
 24
259.7047141224483
 34
0.0
 50
90.0
100
AcDbRotatedDimension
  0
DIMENSION
  5
306
330
1F
100
AcDbEntity
  8
0
100
AcDbDimension
  2
*D13
 10
296.9703739112725
 20
309.7047141224482
 30
0.0
 11
288.7203739112725
 21
285.6298412133593
 31
0.0
 70
    32
  1
<>
 71
     5
 42
-1.0
 53
90.0
  3
ME10_DIM_15
100
AcDbAlignedDimension
 13
459.977937048373
 23
259.7047141224483
 33
0.0
 14
504.1104884005509
 24
309.7047141224483
 34
0.0
 50
90.0
100
AcDbRotatedDimension
  0
DIMENSION
  5
311
330
1F
100
AcDbEntity
  8
0
100
AcDbDimension
  2
*D14
 10
592.6086889961402
 20
282.7047141224484
 30
0.0
 11
584.3586889961402
 21
259.7047141224483
 31
0.0
 70
    32
  1
<>
 71
     5
 42
-1.0
 53
90.0
  3
ME10_DIM_16
100
AcDbAlignedDimension
 13
549.1086889961404
 23
236.7047141224483
 33
0.0
 14
549.1086889961404
 24
282.7047141224483
 34
0.0
 50
90.0
100
AcDbRotatedDimension
  0
ENDSEC
  0
SECTION
  2
OBJECTS
  0
DICTIONARY
  5
C
330
0
100
AcDbDictionary
281
     1
  3
ACAD_GROUP
350
D
  3
ACAD_LAYOUT
350
1A
  3
ACAD_MATERIAL
350
3B
  3
ACAD_MLEADERSTYLE
350
314
  3
ACAD_MLINESTYLE
350
17
  3
ACAD_PLOTSETTINGS
350
19
  3
ACAD_PLOTSTYLENAME
350
E
  3
ACAD_VISUALSTYLE
350
2A
  3
AcDbVariableDictionary
350
312
  0
DICTIONARY
  5
D
102
{ACAD_REACTORS
330
C
102
}
330
C
100
AcDbDictionary
281
     1
  0
DICTIONARY
  5
1A
102
{ACAD_REACTORS
330
C
102
}
330
C
100
AcDbDictionary
281
     1
  3
Layout1
350
1E
  3
Layout2
350
26
  3
Model
350
22
  0
DICTIONARY
  5
3B
102
{ACAD_REACTORS
330
C
102
}
330
C
100
AcDbDictionary
281
     1
  3
ByBlock
350
3D
  3
ByLayer
350
3C
  3
Global
350
3E
  0
DICTIONARY
  5
314
102
{ACAD_REACTORS
330
C
102
}
330
C
100
AcDbDictionary
281
     1
  0
DICTIONARY
  5
17
102
{ACAD_REACTORS
330
C
102
}
330
C
100
AcDbDictionary
281
     1
  3
Standard
350
18
  0
DICTIONARY
  5
19
102
{ACAD_REACTORS
330
C
102
}
330
C
100
AcDbDictionary
281
     1
  0
ACDBDICTIONARYWDFLT
  5
E
102
{ACAD_REACTORS
330
C
102
}
330
C
100
AcDbDictionary
281
     1
  3
Normal
350
F
100
AcDbDictionaryWithDefault
340
F
  0
DICTIONARY
  5
2A
102
{ACAD_REACTORS
330
C
102
}
330
C
100
AcDbDictionary
281
     1
  3
2dWireframe
350
2F
  3
3D Hidden
350
31
  3
3dWireframe
350
30
  3
Basic
350
32
  3
Brighten
350
36
  3
ColorChange
350
3A
  3
Conceptual
350
34
  3
Dim
350
35
  3
Facepattern
350
39
  3
Flat
350
2B
  3
FlatWithEdges
350
2C
  3
Gouraud
350
2D
  3
GouraudWithEdges
350
2E
  3
Linepattern
350
38
  3
Realistic
350
33
  3
Thicken
350
37
  0
DICTIONARY
  5
312
102
{ACAD_REACTORS
330
C
102
}
330
C
100
AcDbDictionary
281
     1
  3
DIMASSOC
350
315
  3
HIDETEXT
350
316
  0
LAYOUT
  5
1E
102
{ACAD_REACTORS
330
1A
102
}
330
1A
100
AcDbPlotSettings
  1

  2
none_device
  4

  6

 40
0.0
 41
0.0
 42
0.0
 43
0.0
 44
0.0
 45
0.0
 46
0.0
 47
0.0
 48
0.0
 49
0.0
140
0.0
141
0.0
142
1.0
143
1.0
 70
   688
 72
     0
 73
     0
 74
     5
  7

 75
    16
147
1.0
148
0.0
149
0.0
100
AcDbLayout
  1
Layout1
 70
     1
 71
     1
 10
0.0
 20
0.0
 11
12.0
 21
9.0
 12
0.0
 22
0.0
 32
0.0
 14
1.00000000000000E+20
 24
1.00000000000000E+20
 34
1.00000000000000E+20
 15
-1.00000000000000E+20
 25
-1.00000000000000E+20
 35
-1.00000000000000E+20
146
0.0
 13
0.0
 23
0.0
 33
0.0
 16
1.0
 26
0.0
 36
0.0
 17
0.0
 27
1.0
 37
0.0
 76
     0
330
1B
  0
LAYOUT
  5
26
102
{ACAD_REACTORS
330
1A
102
}
330
1A
100
AcDbPlotSettings
  1

  2
none_device
  4

  6

 40
0.0
 41
0.0
 42
0.0
 43
0.0
 44
0.0
 45
0.0
 46
0.0
 47
0.0
 48
0.0
 49
0.0
140
0.0
141
0.0
142
1.0
143
1.0
 70
   688
 72
     0
 73
     0
 74
     5
  7

 75
    16
147
1.0
148
0.0
149
0.0
100
AcDbLayout
  1
Layout2
 70
     1
 71
     2
 10
0.0
 20
0.0
 11
0.0
 21
0.0
 12
0.0
 22
0.0
 32
0.0
 14
0.0
 24
0.0
 34
0.0
 15
0.0
 25
0.0
 35
0.0
146
0.0
 13
0.0
 23
0.0
 33
0.0
 16
1.0
 26
0.0
 36
0.0
 17
0.0
 27
1.0
 37
0.0
 76
     0
330
23
  0
LAYOUT
  5
22
102
{ACAD_REACTORS
330
1A
102
}
330
1A
100
AcDbPlotSettings
  1

  2
none_device
  4

  6

 40
0.0
 41
0.0
 42
0.0
 43
0.0
 44
0.0
 45
0.0
 46
0.0
 47
0.0
 48
0.0
 49
0.0
140
0.0
141
0.0
142
1.0
143
1.0
 70
  1712
 72
     0
 73
     0
 74
     0
  7

 75
     0
147
1.0
148
0.0
149
0.0
100
AcDbLayout
  1
Model
 70
     1
 71
     0
 10
0.0
 20
0.0
 11
12.0
 21
9.0
 12
0.0
 22
0.0
 32
0.0
 14
0.0
 24
0.0
 34
0.0
 15
630.0000000000003
 25
891.0
 35
0.0
146
0.0
 13
0.0
 23
0.0
 33
0.0
 16
1.0
 26
0.0
 36
0.0
 17
0.0
 27
1.0
 37
0.0
 76
     0
330
1F
331
29
  0
MATERIAL
  5
3D
102
{ACAD_REACTORS
330
3B
102
}
102
{ACAD_XDICTIONARY
360
339
102
}
330
3B
100
AcDbMaterial
  1
ByBlock
  0
MATERIAL
  5
3C
102
{ACAD_REACTORS
330
3B
102
}
102
{ACAD_XDICTIONARY
360
337
102
}
330
3B
100
AcDbMaterial
  1
ByLayer
  0
MATERIAL
  5
3E
102
{ACAD_REACTORS
330
3B
102
}
102
{ACAD_XDICTIONARY
360
33B
102
}
330
3B
100
AcDbMaterial
  1
Global
  0
MLINESTYLE
  5
18
102
{ACAD_REACTORS
330
17
102
}
330
17
100
AcDbMlineStyle
  2
Standard
 70
     0
  3

 62
   256
 51
90.0
 52
90.0
 71
     2
 49
0.5
 62
   256
  6
BYLAYER
 49
-0.5
 62
   256
  6
BYLAYER
  0
ACDBPLACEHOLDER
  5
F
102
{ACAD_REACTORS
330
E
102
}
330
E
  0
VISUALSTYLE
  5
2F
102
{ACAD_REACTORS
330
2A
102
}
102
{ACAD_XDICTIONARY
360
31F
102
}
330
2A
100
AcDbVisualStyle
  2
2dWireframe
 70
     4
 71
     0
 72
     2
 73
     0
 90
        0
 40
-0.6
 41
-30.0
 62
     5
 63
     7
 74
     1
 91
        4
 64
     7
 65
   257
 75
     1
175
     1
 42
1.0
 92
        0
 66
   257
 43
1.0
 76
     1
 77
     6
 78
     2
 67
     7
 79
     5
170
     0
171
     0
290
     0
174
     0
 93
        1
 44
0.0
173
     0
291
     0
 45
0.0
1001
ACAD
1000
AcDbSavedByObjectVersion
1070
     0
  0
VISUALSTYLE
  5
31
102
{ACAD_REACTORS
330
2A
102
}
102
{ACAD_XDICTIONARY
360
323
102
}
330
2A
100
AcDbVisualStyle
  2
3D Hidden
 70
     6
 71
     1
 72
     2
 73
     2
 90
        0
 40
-0.6
 41
-30.0
 62
     5
 63
     7
 74
     2
 91
        2
 64
     7
 65
   257
 75
     2
175
     1
 42
40.0
 92
        0
 66
   257
 43
1.0
 76
     1
 77
     6
 78
     2
 67
     7
 79
     3
170
     0
171
     0
290
     0
174
     0
 93
        1
 44
0.0
173
     0
291
     0
 45
0.0
1001
ACAD
1000
AcDbSavedByObjectVersion
1070
     0
  0
VISUALSTYLE
  5
30
102
{ACAD_REACTORS
330
2A
102
}
102
{ACAD_XDICTIONARY
360
321
102
}
330
2A
100
AcDbVisualStyle
  2
3dWireframe
 70
     5
 71
     0
 72
     2
 73
     0
 90
        0
 40
-0.6
 41
-30.0
 62
     5
 63
     7
 74
     1
 91
        4
 64
     7
 65
   257
 75
     1
175
     1
 42
1.0
 92
        0
 66
   257
 43
1.0
 76
     1
 77
     6
 78
     2
 67
     7
 79
     5
170
     0
171
     0
290
     0
174
     0
 93
        1
 44
0.0
173
     0
291
     0
 45
0.0
1001
ACAD
1000
AcDbSavedByObjectVersion
1070
     0
  0
VISUALSTYLE
  5
32
102
{ACAD_REACTORS
330
2A
102
}
102
{ACAD_XDICTIONARY
360
325
102
}
330
2A
100
AcDbVisualStyle
  2
Basic
 70
     7
 71
     1
 72
     0
 73
     1
 90
        0
 40
-0.6
 41
-30.0
 62
     5
 63
     7
 74
     0
 91
        4
 64
     7
 65
   257
 75
     1
175
     1
 42
1.0
 92
        8
 66
     7
 43
1.0
 76
     1
 77
     6
 78
     2
 67
     7
 79
     5
170
     0
171
     0
290
     0
174
     0
 93
        1
 44
0.0
173
     0
291
     1
 45
0.0
1001
ACAD
1000
AcDbSavedByObjectVersion
1070
     0
  0
VISUALSTYLE
  5
36
102
{ACAD_REACTORS
330
2A
102
}
102
{ACAD_XDICTIONARY
360
32D
102
}
330
2A
100
AcDbVisualStyle
  2
Brighten
 70
    12
 71
     2
 72
     2
 73
     0
 90
        0
 40
-0.6
 41
-30.0
 62
     5
 63
     7
 74
     1
 91
        4
 64
     7
 65
   257
 75
     1
175
     1
 42
1.0
 92
        8
 66
     7
 43
1.0
 76
     1
 77
     6
 78
     2
 67
     7
 79
     5
170
     0
171
     0
290
     0
174
     0
 93
        1
 44
50.0
173
     0
291
     1
 45
0.0
1001
ACAD
1000
AcDbSavedByObjectVersion
1070
     0
  0
VISUALSTYLE
  5
3A
102
{ACAD_REACTORS
330
2A
102
}
102
{ACAD_XDICTIONARY
360
335
102
}
330
2A
100
AcDbVisualStyle
  2
ColorChange
 70
    16
 71
     2
 72
     2
 73
     3
 90
        0
 40
-0.6
 41
-30.0
 62
     5
 63
     8
 74
     1
 91
        4
 64
     7
 65
   257
 75
     1
175
     1
 42
1.0
 92
        8
 66
     8
 43
1.0
 76
     1
 77
     6
 78
     2
 67
     7
 79
     5
170
     0
171
     0
290
     0
174
     0
 93
        1
 44
0.0
173
     0
291
     1
 45
0.0
1001
ACAD
1000
AcDbSavedByObjectVersion
1070
     0
  0
VISUALSTYLE
  5
34
102
{ACAD_REACTORS
330
2A
102
}
102
{ACAD_XDICTIONARY
360
329
102
}
330
2A
100
AcDbVisualStyle
  2
Conceptual
 70
     9
 71
     3
 72
     2
 73
     0
 90
        0
 40
-0.6
 41
-30.0
 62
     5
 63
     7
 74
     2
 91
        2
 64
     7
 65
   257
 75
     1
175
     1
 42
40.0
 92
        8
 66
     7
 43
1.0
 76
     1
 77
     6
 78
     2
 67
     7
 79
     3
170
     0
171
     0
290
     0
174
     0
 93
        1
 44
0.0
173
     0
291
     0
 45
0.0
1001
ACAD
1000
AcDbSavedByObjectVersion
1070
     0
  0
VISUALSTYLE
  5
35
102
{ACAD_REACTORS
330
2A
102
}
102
{ACAD_XDICTIONARY
360
32B
102
}
330
2A
100
AcDbVisualStyle
  2
Dim
 70
    11
 71
     2
 72
     2
 73
     0
 90
        0
 40
-0.6
 41
-30.0
 62
     5
 63
     7
 74
     1
 91
        4
 64
     7
 65
   257
 75
     1
175
     1
 42
1.0
 92
        8
 66
     7
 43
1.0
 76
     1
 77
     6
 78
     2
 67
     7
 79
     5
170
     0
171
     0
290
     0
174
     0
 93
        1
 44
-50.0
173
     0
291
     1
 45
0.0
1001
ACAD
1000
AcDbSavedByObjectVersion
1070
     0
  0
VISUALSTYLE
  5
39
102
{ACAD_REACTORS
330
2A
102
}
102
{ACAD_XDICTIONARY
360
333
102
}
330
2A
100
AcDbVisualStyle
  2
Facepattern
 70
    15
 71
     2
 72
     2
 73
     0
 90
        0
 40
-0.6
 41
-30.0
 62
     5
 63
     7
 74
     1
 91
        4
 64
     7
 65
   257
 75
     1
175
     1
 42
1.0
 92
        8
 66
     7
 43
1.0
 76
     1
 77
     6
 78
     2
 67
     7
 79
     5
170
     0
171
     0
290
     0
174
     0
 93
        1
 44
0.0
173
     0
291
     1
 45
0.0
1001
ACAD
1000
AcDbSavedByObjectVersion
1070
     0
  0
VISUALSTYLE
  5
2B
102
{ACAD_REACTORS
330
2A
102
}
102
{ACAD_XDICTIONARY
360
317
102
}
330
2A
100
AcDbVisualStyle
  2
Flat
 70
     0
 71
     2
 72
     1
 73
     1
 90
        2
 40
-0.6
 41
30.0
 62
     5
 63
     7
 74
     0
 91
        4
 64
     7
 65
   257
 75
     1
175
     1
 42
1.0
 92
        8
 66
     7
 43
1.0
 76
     1
 77
     6
 78
     2
 67
     7
 79
     5
170
     0
171
     0
290
     0
174
     0
 93
       13
 44
0.0
173
     0
291
     1
 45
0.0
1001
ACAD
1000
AcDbSavedByObjectVersion
1070
     0
  0
VISUALSTYLE
  5
2C
102
{ACAD_REACTORS
330
2A
102
}
102
{ACAD_XDICTIONARY
360
319
102
}
330
2A
100
AcDbVisualStyle
  2
FlatWithEdges
 70
     1
 71
     2
 72
     1
 73
     1
 90
        2
 40
-0.6
 41
30.0
 62
     5
 63
     7
 74
     1
 91
        4
 64
     7
 65
   257
 75
     1
175
     1
 42
1.0
 92
        0
 66
   257
 43
1.0
 76
     1
 77
     6
 78
     2
 67
     7
 79
     5
170
     0
171
     0
290
     0
174
     0
 93
       13
 44
0.0
173
     0
291
     1
 45
0.0
1001
ACAD
1000
AcDbSavedByObjectVersion
1070
     0
  0
VISUALSTYLE
  5
2D
102
{ACAD_REACTORS
330
2A
102
}
102
{ACAD_XDICTIONARY
360
31B
102
}
330
2A
100
AcDbVisualStyle
  2
Gouraud
 70
     2
 71
     2
 72
     2
 73
     1
 90
        2
 40
-0.6
 41
30.0
 62
     5
 63
     7
 74
     0
 91
        4
 64
     7
 65
   257
 75
     1
175
     1
 42
1.0
 92
        0
 66
     7
 43
1.0
 76
     1
 77
     6
 78
     2
 67
     7
 79
     5
170
     0
171
     0
290
     0
174
     0
 93
       13
 44
0.0
173
     0
291
     1
 45
0.0
1001
ACAD
1000
AcDbSavedByObjectVersion
1070
     0
  0
VISUALSTYLE
  5
2E
102
{ACAD_REACTORS
330
2A
102
}
102
{ACAD_XDICTIONARY
360
31D
102
}
330
2A
100
AcDbVisualStyle
  2
GouraudWithEdges
 70
     3
 71
     2
 72
     2
 73
     1
 90
        2
 40
-0.6
 41
30.0
 62
     5
 63
     7
 74
     1
 91
        4
 64
     7
 65
   257
 75
     1
175
     1
 42
1.0
 92
        0
 66
   257
 43
1.0
 76
     1
 77
     6
 78
     2
 67
     7
 79
     5
170
     0
171
     0
290
     0
174
     0
 93
       13
 44
0.0
173
     0
291
     1
 45
0.0
1001
ACAD
1000
AcDbSavedByObjectVersion
1070
     0
  0
VISUALSTYLE
  5
38
102
{ACAD_REACTORS
330
2A
102
}
102
{ACAD_XDICTIONARY
360
331
102
}
330
2A
100
AcDbVisualStyle
  2
Linepattern
 70
    14
 71
     2
 72
     2
 73
     0
 90
        0
 40
-0.6
 41
-30.0
 62
     5
 63
     7
 74
     1
 91
        4
 64
     7
 65
   257
 75
     7
175
     7
 42
1.0
 92
        8
 66
     7
 43
1.0
 76
     1
 77
     6
 78
     2
 67
     7
 79
     5
170
     0
171
     0
290
     0
174
     0
 93
        1
 44
0.0
173
     0
291
     1
 45
0.0
1001
ACAD
1000
AcDbSavedByObjectVersion
1070
     0
  0
VISUALSTYLE
  5
33
102
{ACAD_REACTORS
330
2A
102
}
102
{ACAD_XDICTIONARY
360
327
102
}
330
2A
100
AcDbVisualStyle
  2
Realistic
 70
     8
 71
     2
 72
     2
 73
     0
 90
        0
 40
-0.6
 41
-30.0
 62
     5
 63
     7
 74
     1
 91
        0
 64
     7
 65
   257
 75
     1
175
     1
 42
1.0
 92
        8
 66
     8
 43
1.0
 76
     1
 77
     6
 78
     2
 67
     7
 79
     5
170
     0
171
     0
290
     0
174
     0
 93
       13
 44
0.0
173
     0
291
     0
 45
0.0
1001
ACAD
1000
AcDbSavedByObjectVersion
1070
     0
  0
VISUALSTYLE
  5
37
102
{ACAD_REACTORS
330
2A
102
}
102
{ACAD_XDICTIONARY
360
32F
102
}
330
2A
100
AcDbVisualStyle
  2
Thicken
 70
    13
 71
     2
 72
     2
 73
     0
 90
        0
 40
-0.6
 41
-30.0
 62
     5
 63
     7
 74
     1
 91
        4
 64
     7
 65
   257
 75
     1
175
     1
 42
1.0
 92
       12
 66
     7
 43
1.0
 76
     1
 77
     6
 78
     2
 67
     7
 79
     5
170
     0
171
     0
290
     0
174
     0
 93
        1
 44
0.0
173
     0
291
     1
 45
0.0
1001
ACAD
1000
AcDbSavedByObjectVersion
1070
     0
  0
DICTIONARYVAR
  5
315
102
{ACAD_REACTORS
330
312
102
}
330
312
100
DictionaryVariables
280
     0
  1
2
  0
DICTIONARYVAR
  5
316
102
{ACAD_REACTORS
330
312
102
}
330
312
100
DictionaryVariables
280
     0
  1
1
  0
DICTIONARY
  5
339
330
3D
100
AcDbDictionary
280
     1
281
     1
  3
ACAD_XREC_ROUNDTRIP
360
33A
  0
DICTIONARY
  5
337
330
3C
100
AcDbDictionary
280
     1
281
     1
  3
ACAD_XREC_ROUNDTRIP
360
338
  0
DICTIONARY
  5
33B
330
3E
100
AcDbDictionary
280
     1
281
     1
  3
ACAD_XREC_ROUNDTRIP
360
33C
  0
DICTIONARY
  5
31F
330
2F
100
AcDbDictionary
280
     1
281
     1
  3
ACAD_XREC_ROUNDTRIP
360
320
  0
DICTIONARY
  5
323
330
31
100
AcDbDictionary
280
     1
281
     1
  3
ACAD_XREC_ROUNDTRIP
360
324
  0
DICTIONARY
  5
321
330
30
100
AcDbDictionary
280
     1
281
     1
  3
ACAD_XREC_ROUNDTRIP
360
322
  0
DICTIONARY
  5
325
330
32
100
AcDbDictionary
280
     1
281
     1
  3
ACAD_XREC_ROUNDTRIP
360
326
  0
DICTIONARY
  5
32D
330
36
100
AcDbDictionary
280
     1
281
     1
  3
ACAD_XREC_ROUNDTRIP
360
32E
  0
DICTIONARY
  5
335
330
3A
100
AcDbDictionary
280
     1
281
     1
  3
ACAD_XREC_ROUNDTRIP
360
336
  0
DICTIONARY
  5
329
330
34
100
AcDbDictionary
280
     1
281
     1
  3
ACAD_XREC_ROUNDTRIP
360
32A
  0
DICTIONARY
  5
32B
330
35
100
AcDbDictionary
280
     1
281
     1
  3
ACAD_XREC_ROUNDTRIP
360
32C
  0
DICTIONARY
  5
333
330
39
100
AcDbDictionary
280
     1
281
     1
  3
ACAD_XREC_ROUNDTRIP
360
334
  0
DICTIONARY
  5
317
330
2B
100
AcDbDictionary
280
     1
281
     1
  3
ACAD_XREC_ROUNDTRIP
360
318
  0
DICTIONARY
  5
319
330
2C
100
AcDbDictionary
280
     1
281
     1
  3
ACAD_XREC_ROUNDTRIP
360
31A
  0
DICTIONARY
  5
31B
330
2D
100
AcDbDictionary
280
     1
281
     1
  3
ACAD_XREC_ROUNDTRIP
360
31C
  0
DICTIONARY
  5
31D
330
2E
100
AcDbDictionary
280
     1
281
     1
  3
ACAD_XREC_ROUNDTRIP
360
31E
  0
DICTIONARY
  5
331
330
38
100
AcDbDictionary
280
     1
281
     1
  3
ACAD_XREC_ROUNDTRIP
360
332
  0
DICTIONARY
  5
327
330
33
100
AcDbDictionary
280
     1
281
     1
  3
ACAD_XREC_ROUNDTRIP
360
328
  0
DICTIONARY
  5
32F
330
37
100
AcDbDictionary
280
     1
281
     1
  3
ACAD_XREC_ROUNDTRIP
360
330
  0
XRECORD
  5
33A
102
{ACAD_REACTORS
330
339
102
}
330
339
100
AcDbXrecord
280
     1
102
MATERIAL
148
0.0
149
0.0
149
0.0
 93
        0
 94
      127
282
     0
 72
     1
 77
     1
171
     1
175
     1
179
     1
273
     0
  0
XRECORD
  5
338
102
{ACAD_REACTORS
330
337
102
}
330
337
100
AcDbXrecord
280
     1
102
MATERIAL
148
0.0
149
0.0
149
0.0
 93
        0
 94
      127
282
     0
 72
     1
 77
     1
171
     1
175
     1
179
     1
273
     0
  0
XRECORD
  5
33C
102
{ACAD_REACTORS
330
33B
102
}
330
33B
100
AcDbXrecord
280
     1
102
MATERIAL
148
0.0
149
0.0
149
0.0
 93
        0
 94
      127
282
     0
 72
     1
 77
     1
171
     1
175
     1
179
     1
273
     0
  0
XRECORD
  5
320
102
{ACAD_REACTORS
330
31F
102
}
330
31F
100
AcDbXrecord
280
     1
102
RTVSPropertyOp0
 70
     1
102
RTVSPropertyOp1
 70
     1
102
RTVSPropertyOp2
 70
     1
102
RTVSPropertyOp3
 70
     1
102
RTVSPropertyOp4
 70
     1
102
RTVSPropertyOp5
 70
     1
102
RTVSPropertyOp6
 70
     1
102
RTVSPropertyOp7
 70
     1
102
RTVSPropertyOp8
 70
     1
102
RTVSPropertyOp9
 70
     1
102
RTVSPropertyOp10
 70
     1
102
RTVSPropertyOp11
 70
     1
102
RTVSPropertyOp12
 70
     1
102
RTVSPropertyOp13
 70
     1
102
RTVSPropertyOp14
 70
     1
102
RTVSPropertyOp15
 70
     1
102
RTVSPropertyOp16
 70
     1
102
RTVSPropertyOp17
 70
     1
102
RTVSPropertyOp18
 70
     1
102
RTVSPropertyOp19
 70
     1
102
RTVSPropertyOp20
 70
     1
102
RTVSPropertyOp21
 70
     1
102
RTVSPropertyOp22
 70
     1
102
RTVSPropertyOp23
 70
     1
102
RTVSPropertyOp24
 70
     1
102
RTVSPropertyOp25
 70
     1
102
RTVSPropertyOp26
 70
     1
102
RTVSPropertyOp27
 70
     1
102
RTVSPropertyOp28
 70
     1
102
RTVSPropertyOp29
 70
     1
102
RTVSPropertyOp30
 70
     1
102
RTVSPropertyOp31
 70
     1
102
RTVSPropertyOp32
 70
     1
  0
XRECORD
  5
324
102
{ACAD_REACTORS
330
323
102
}
330
323
100
AcDbXrecord
280
     1
102
RTVSPropertyOp0
 70
     1
102
RTVSPropertyOp1
 70
     1
102
RTVSPropertyOp2
 70
     1
102
RTVSPropertyOp3
 70
     1
102
RTVSPropertyOp4
 70
     1
102
RTVSPropertyOp5
 70
     1
102
RTVSPropertyOp6
 70
     1
102
RTVSPropertyOp7
 70
     1
102
RTVSPropertyOp8
 70
     1
102
RTVSPropertyOp9
 70
     1
102
RTVSPropertyOp10
 70
     1
102
RTVSPropertyOp11
 70
     1
102
RTVSPropertyOp12
 70
     1
102
RTVSPropertyOp13
 70
     1
102
RTVSPropertyOp14
 70
     1
102
RTVSPropertyOp15
 70
     1
102
RTVSPropertyOp16
 70
     1
102
RTVSPropertyOp17
 70
     1
102
RTVSPropertyOp18
 70
     1
102
RTVSPropertyOp19
 70
     1
102
RTVSPropertyOp20
 70
     1
102
RTVSPropertyOp21
 70
     1
102
RTVSPropertyOp22
 70
     1
102
RTVSPropertyOp23
 70
     1
102
RTVSPropertyOp24
 70
     1
102
RTVSPropertyOp25
 70
     1
102
RTVSPropertyOp26
 70
     1
102
RTVSPropertyOp27
 70
     1
102
RTVSPropertyOp28
 70
     1
102
RTVSPropertyOp29
 70
     1
102
RTVSPropertyOp30
 70
     1
102
RTVSPropertyOp31
 70
     1
102
RTVSPropertyOp32
 70
     1
  0
XRECORD
  5
322
102
{ACAD_REACTORS
330
321
102
}
330
321
100
AcDbXrecord
280
     1
102
RTVSPropertyOp0
 70
     1
102
RTVSPropertyOp1
 70
     1
102
RTVSPropertyOp2
 70
     1
102
RTVSPropertyOp3
 70
     1
102
RTVSPropertyOp4
 70
     1
102
RTVSPropertyOp5
 70
     1
102
RTVSPropertyOp6
 70
     1
102
RTVSPropertyOp7
 70
     1
102
RTVSPropertyOp8
 70
     1
102
RTVSPropertyOp9
 70
     1
102
RTVSPropertyOp10
 70
     1
102
RTVSPropertyOp11
 70
     1
102
RTVSPropertyOp12
 70
     1
102
RTVSPropertyOp13
 70
     1
102
RTVSPropertyOp14
 70
     1
102
RTVSPropertyOp15
 70
     1
102
RTVSPropertyOp16
 70
     1
102
RTVSPropertyOp17
 70
     1
102
RTVSPropertyOp18
 70
     1
102
RTVSPropertyOp19
 70
     1
102
RTVSPropertyOp20
 70
     1
102
RTVSPropertyOp21
 70
     1
102
RTVSPropertyOp22
 70
     1
102
RTVSPropertyOp23
 70
     1
102
RTVSPropertyOp24
 70
     1
102
RTVSPropertyOp25
 70
     1
102
RTVSPropertyOp26
 70
     1
102
RTVSPropertyOp27
 70
     1
102
RTVSPropertyOp28
 70
     1
102
RTVSPropertyOp29
 70
     1
102
RTVSPropertyOp30
 70
     1
102
RTVSPropertyOp31
 70
     1
102
RTVSPropertyOp32
 70
     1
  0
XRECORD
  5
326
102
{ACAD_REACTORS
330
325
102
}
330
325
100
AcDbXrecord
280
     1
102
RTVSPropertyOp0
 70
     1
102
RTVSPropertyOp1
 70
     1
102
RTVSPropertyOp2
 70
     1
102
RTVSPropertyOp3
 70
     1
102
RTVSPropertyOp4
 70
     1
102
RTVSPropertyOp5
 70
     1
102
RTVSPropertyOp6
 70
     1
102
RTVSPropertyOp7
 70
     1
102
RTVSPropertyOp8
 70
     1
102
RTVSPropertyOp9
 70
     1
102
RTVSPropertyOp10
 70
     1
102
RTVSPropertyOp11
 70
     1
102
RTVSPropertyOp12
 70
     1
102
RTVSPropertyOp13
 70
     1
102
RTVSPropertyOp14
 70
     1
102
RTVSPropertyOp15
 70
     1
102
RTVSPropertyOp16
 70
     1
102
RTVSPropertyOp17
 70
     1
102
RTVSPropertyOp18
 70
     1
102
RTVSPropertyOp19
 70
     1
102
RTVSPropertyOp20
 70
     1
102
RTVSPropertyOp21
 70
     1
102
RTVSPropertyOp22
 70
     1
102
RTVSPropertyOp23
 70
     1
102
RTVSPropertyOp24
 70
     1
102
RTVSPropertyOp25
 70
     1
102
RTVSPropertyOp26
 70
     1
102
RTVSPropertyOp27
 70
     1
102
RTVSPropertyOp28
 70
     1
102
RTVSPropertyOp29
 70
     1
102
RTVSPropertyOp30
 70
     1
102
RTVSPropertyOp31
 70
     1
102
RTVSPropertyOp32
 70
     1
  0
XRECORD
  5
32E
102
{ACAD_REACTORS
330
32D
102
}
330
32D
100
AcDbXrecord
280
     1
102
RTVSPropertyOp0
 70
     1
102
RTVSPropertyOp1
 70
     1
102
RTVSPropertyOp2
 70
     1
102
RTVSPropertyOp3
 70
     1
102
RTVSPropertyOp4
 70
     1
102
RTVSPropertyOp5
 70
     1
102
RTVSPropertyOp6
 70
     1
102
RTVSPropertyOp7
 70
     1
102
RTVSPropertyOp8
 70
     1
102
RTVSPropertyOp9
 70
     1
102
RTVSPropertyOp10
 70
     1
102
RTVSPropertyOp11
 70
     1
102
RTVSPropertyOp12
 70
     1
102
RTVSPropertyOp13
 70
     1
102
RTVSPropertyOp14
 70
     1
102
RTVSPropertyOp15
 70
     1
102
RTVSPropertyOp16
 70
     1
102
RTVSPropertyOp17
 70
     1
102
RTVSPropertyOp18
 70
     1
102
RTVSPropertyOp19
 70
     1
102
RTVSPropertyOp20
 70
     1
102
RTVSPropertyOp21
 70
     1
102
RTVSPropertyOp22
 70
     1
102
RTVSPropertyOp23
 70
     1
102
RTVSPropertyOp24
 70
     1
102
RTVSPropertyOp25
 70
     1
102
RTVSPropertyOp26
 70
     1
102
RTVSPropertyOp27
 70
     1
102
RTVSPropertyOp28
 70
     1
102
RTVSPropertyOp29
 70
     1
102
RTVSPropertyOp30
 70
     1
102
RTVSPropertyOp31
 70
     1
102
RTVSPropertyOp32
 70
     1
  0
XRECORD
  5
336
102
{ACAD_REACTORS
330
335
102
}
330
335
100
AcDbXrecord
280
     1
102
RTVSPropertyOp0
 70
     1
102
RTVSPropertyOp1
 70
     1
102
RTVSPropertyOp2
 70
     1
102
RTVSPropertyOp3
 70
     1
102
RTVSPropertyOp4
 70
     1
102
RTVSPropertyOp5
 70
     1
102
RTVSPropertyOp6
 70
     1
102
RTVSPropertyOp7
 70
     1
102
RTVSPropertyOp8
 70
     1
102
RTVSPropertyOp9
 70
     1
102
RTVSPropertyOp10
 70
     1
102
RTVSPropertyOp11
 70
     1
102
RTVSPropertyOp12
 70
     1
102
RTVSPropertyOp13
 70
     1
102
RTVSPropertyOp14
 70
     1
102
RTVSPropertyOp15
 70
     1
102
RTVSPropertyOp16
 70
     1
102
RTVSPropertyOp17
 70
     1
102
RTVSPropertyOp18
 70
     1
102
RTVSPropertyOp19
 70
     1
102
RTVSPropertyOp20
 70
     1
102
RTVSPropertyOp21
 70
     1
102
RTVSPropertyOp22
 70
     1
102
RTVSPropertyOp23
 70
     1
102
RTVSPropertyOp24
 70
     1
102
RTVSPropertyOp25
 70
     1
102
RTVSPropertyOp26
 70
     1
102
RTVSPropertyOp27
 70
     1
102
RTVSPropertyOp28
 70
     1
102
RTVSPropertyOp29
 70
     1
102
RTVSPropertyOp30
 70
     1
102
RTVSPropertyOp31
 70
     1
102
RTVSPropertyOp32
 70
     1
  0
XRECORD
  5
32A
102
{ACAD_REACTORS
330
329
102
}
330
329
100
AcDbXrecord
280
     1
102
RTVSPropertyOp0
 70
     1
102
RTVSPropertyOp1
 70
     1
102
RTVSPropertyOp2
 70
     1
102
RTVSPropertyOp3
 70
     1
102
RTVSPropertyOp4
 70
     1
102
RTVSPropertyOp5
 70
     1
102
RTVSPropertyOp6
 70
     1
102
RTVSPropertyOp7
 70
     1
102
RTVSPropertyOp8
 70
     1
102
RTVSPropertyOp9
 70
     1
102
RTVSPropertyOp10
 70
     1
102
RTVSPropertyOp11
 70
     1
102
RTVSPropertyOp12
 70
     1
102
RTVSPropertyOp13
 70
     1
102
RTVSPropertyOp14
 70
     1
102
RTVSPropertyOp15
 70
     1
102
RTVSPropertyOp16
 70
     1
102
RTVSPropertyOp17
 70
     1
102
RTVSPropertyOp18
 70
     1
102
RTVSPropertyOp19
 70
     1
102
RTVSPropertyOp20
 70
     1
102
RTVSPropertyOp21
 70
     1
102
RTVSPropertyOp22
 70
     1
102
RTVSPropertyOp23
 70
     1
102
RTVSPropertyOp24
 70
     1
102
RTVSPropertyOp25
 70
     1
102
RTVSPropertyOp26
 70
     1
102
RTVSPropertyOp27
 70
     1
102
RTVSPropertyOp28
 70
     1
102
RTVSPropertyOp29
 70
     1
102
RTVSPropertyOp30
 70
     1
102
RTVSPropertyOp31
 70
     1
102
RTVSPropertyOp32
 70
     1
  0
XRECORD
  5
32C
102
{ACAD_REACTORS
330
32B
102
}
330
32B
100
AcDbXrecord
280
     1
102
RTVSPropertyOp0
 70
     1
102
RTVSPropertyOp1
 70
     1
102
RTVSPropertyOp2
 70
     1
102
RTVSPropertyOp3
 70
     1
102
RTVSPropertyOp4
 70
     1
102
RTVSPropertyOp5
 70
     1
102
RTVSPropertyOp6
 70
     1
102
RTVSPropertyOp7
 70
     1
102
RTVSPropertyOp8
 70
     1
102
RTVSPropertyOp9
 70
     1
102
RTVSPropertyOp10
 70
     1
102
RTVSPropertyOp11
 70
     1
102
RTVSPropertyOp12
 70
     1
102
RTVSPropertyOp13
 70
     1
102
RTVSPropertyOp14
 70
     1
102
RTVSPropertyOp15
 70
     1
102
RTVSPropertyOp16
 70
     1
102
RTVSPropertyOp17
 70
     1
102
RTVSPropertyOp18
 70
     1
102
RTVSPropertyOp19
 70
     1
102
RTVSPropertyOp20
 70
     1
102
RTVSPropertyOp21
 70
     1
102
RTVSPropertyOp22
 70
     1
102
RTVSPropertyOp23
 70
     1
102
RTVSPropertyOp24
 70
     1
102
RTVSPropertyOp25
 70
     1
102
RTVSPropertyOp26
 70
     1
102
RTVSPropertyOp27
 70
     1
102
RTVSPropertyOp28
 70
     1
102
RTVSPropertyOp29
 70
     1
102
RTVSPropertyOp30
 70
     1
102
RTVSPropertyOp31
 70
     1
102
RTVSPropertyOp32
 70
     1
  0
XRECORD
  5
334
102
{ACAD_REACTORS
330
333
102
}
330
333
100
AcDbXrecord
280
     1
102
RTVSPropertyOp0
 70
     1
102
RTVSPropertyOp1
 70
     1
102
RTVSPropertyOp2
 70
     1
102
RTVSPropertyOp3
 70
     1
102
RTVSPropertyOp4
 70
     1
102
RTVSPropertyOp5
 70
     1
102
RTVSPropertyOp6
 70
     1
102
RTVSPropertyOp7
 70
     1
102
RTVSPropertyOp8
 70
     1
102
RTVSPropertyOp9
 70
     1
102
RTVSPropertyOp10
 70
     1
102
RTVSPropertyOp11
 70
     1
102
RTVSPropertyOp12
 70
     1
102
RTVSPropertyOp13
 70
     1
102
RTVSPropertyOp14
 70
     1
102
RTVSPropertyOp15
 70
     1
102
RTVSPropertyOp16
 70
     1
102
RTVSPropertyOp17
 70
     1
102
RTVSPropertyOp18
 70
     1
102
RTVSPropertyOp19
 70
     1
102
RTVSPropertyOp20
 70
     1
102
RTVSPropertyOp21
 70
     1
102
RTVSPropertyOp22
 70
     1
102
RTVSPropertyOp23
 70
     1
102
RTVSPropertyOp24
 70
     1
102
RTVSPropertyOp25
 70
     1
102
RTVSPropertyOp26
 70
     1
102
RTVSPropertyOp27
 70
     1
102
RTVSPropertyOp28
 70
     1
102
RTVSPropertyOp29
 70
     1
102
RTVSPropertyOp30
 70
     1
102
RTVSPropertyOp31
 70
     1
102
RTVSPropertyOp32
 70
     1
  0
XRECORD
  5
318
102
{ACAD_REACTORS
330
317
102
}
330
317
100
AcDbXrecord
280
     1
102
RTVSPropertyOp0
 70
     1
102
RTVSPropertyOp1
 70
     1
102
RTVSPropertyOp2
 70
     1
102
RTVSPropertyOp3
 70
     1
102
RTVSPropertyOp4
 70
     1
102
RTVSPropertyOp5
 70
     1
102
RTVSPropertyOp6
 70
     1
102
RTVSPropertyOp7
 70
     1
102
RTVSPropertyOp8
 70
     1
102
RTVSPropertyOp9
 70
     1
102
RTVSPropertyOp10
 70
     1
102
RTVSPropertyOp11
 70
     1
102
RTVSPropertyOp12
 70
     1
102
RTVSPropertyOp13
 70
     1
102
RTVSPropertyOp14
 70
     1
102
RTVSPropertyOp15
 70
     1
102
RTVSPropertyOp16
 70
     1
102
RTVSPropertyOp17
 70
     1
102
RTVSPropertyOp18
 70
     1
102
RTVSPropertyOp19
 70
     1
102
RTVSPropertyOp20
 70
     1
102
RTVSPropertyOp21
 70
     1
102
RTVSPropertyOp22
 70
     1
102
RTVSPropertyOp23
 70
     1
102
RTVSPropertyOp24
 70
     1
102
RTVSPropertyOp25
 70
     1
102
RTVSPropertyOp26
 70
     1
102
RTVSPropertyOp27
 70
     1
102
RTVSPropertyOp28
 70
     1
102
RTVSPropertyOp29
 70
     1
102
RTVSPropertyOp30
 70
     1
102
RTVSPropertyOp31
 70
     1
102
RTVSPropertyOp32
 70
     1
  0
XRECORD
  5
31A
102
{ACAD_REACTORS
330
319
102
}
330
319
100
AcDbXrecord
280
     1
102
RTVSPropertyOp0
 70
     1
102
RTVSPropertyOp1
 70
     1
102
RTVSPropertyOp2
 70
     1
102
RTVSPropertyOp3
 70
     1
102
RTVSPropertyOp4
 70
     1
102
RTVSPropertyOp5
 70
     1
102
RTVSPropertyOp6
 70
     1
102
RTVSPropertyOp7
 70
     1
102
RTVSPropertyOp8
 70
     1
102
RTVSPropertyOp9
 70
     1
102
RTVSPropertyOp10
 70
     1
102
RTVSPropertyOp11
 70
     1
102
RTVSPropertyOp12
 70
     1
102
RTVSPropertyOp13
 70
     1
102
RTVSPropertyOp14
 70
     1
102
RTVSPropertyOp15
 70
     1
102
RTVSPropertyOp16
 70
     1
102
RTVSPropertyOp17
 70
     1
102
RTVSPropertyOp18
 70
     1
102
RTVSPropertyOp19
 70
     1
102
RTVSPropertyOp20
 70
     1
102
RTVSPropertyOp21
 70
     1
102
RTVSPropertyOp22
 70
     1
102
RTVSPropertyOp23
 70
     1
102
RTVSPropertyOp24
 70
     1
102
RTVSPropertyOp25
 70
     1
102
RTVSPropertyOp26
 70
     1
102
RTVSPropertyOp27
 70
     1
102
RTVSPropertyOp28
 70
     1
102
RTVSPropertyOp29
 70
     1
102
RTVSPropertyOp30
 70
     1
102
RTVSPropertyOp31
 70
     1
102
RTVSPropertyOp32
 70
     1
  0
XRECORD
  5
31C
102
{ACAD_REACTORS
330
31B
102
}
330
31B
100
AcDbXrecord
280
     1
102
RTVSPropertyOp0
 70
     1
102
RTVSPropertyOp1
 70
     1
102
RTVSPropertyOp2
 70
     1
102
RTVSPropertyOp3
 70
     1
102
RTVSPropertyOp4
 70
     1
102
RTVSPropertyOp5
 70
     1
102
RTVSPropertyOp6
 70
     1
102
RTVSPropertyOp7
 70
     1
102
RTVSPropertyOp8
 70
     1
102
RTVSPropertyOp9
 70
     1
102
RTVSPropertyOp10
 70
     1
102
RTVSPropertyOp11
 70
     1
102
RTVSPropertyOp12
 70
     1
102
RTVSPropertyOp13
 70
     1
102
RTVSPropertyOp14
 70
     1
102
RTVSPropertyOp15
 70
     1
102
RTVSPropertyOp16
 70
     1
102
RTVSPropertyOp17
 70
     1
102
RTVSPropertyOp18
 70
     1
102
RTVSPropertyOp19
 70
     1
102
RTVSPropertyOp20
 70
     1
102
RTVSPropertyOp21
 70
     1
102
RTVSPropertyOp22
 70
     1
102
RTVSPropertyOp23
 70
     1
102
RTVSPropertyOp24
 70
     1
102
RTVSPropertyOp25
 70
     1
102
RTVSPropertyOp26
 70
     1
102
RTVSPropertyOp27
 70
     1
102
RTVSPropertyOp28
 70
     1
102
RTVSPropertyOp29
 70
     1
102
RTVSPropertyOp30
 70
     1
102
RTVSPropertyOp31
 70
     1
102
RTVSPropertyOp32
 70
     1
  0
XRECORD
  5
31E
102
{ACAD_REACTORS
330
31D
102
}
330
31D
100
AcDbXrecord
280
     1
102
RTVSPropertyOp0
 70
     1
102
RTVSPropertyOp1
 70
     1
102
RTVSPropertyOp2
 70
     1
102
RTVSPropertyOp3
 70
     1
102
RTVSPropertyOp4
 70
     1
102
RTVSPropertyOp5
 70
     1
102
RTVSPropertyOp6
 70
     1
102
RTVSPropertyOp7
 70
     1
102
RTVSPropertyOp8
 70
     1
102
RTVSPropertyOp9
 70
     1
102
RTVSPropertyOp10
 70
     1
102
RTVSPropertyOp11
 70
     1
102
RTVSPropertyOp12
 70
     1
102
RTVSPropertyOp13
 70
     1
102
RTVSPropertyOp14
 70
     1
102
RTVSPropertyOp15
 70
     1
102
RTVSPropertyOp16
 70
     1
102
RTVSPropertyOp17
 70
     1
102
RTVSPropertyOp18
 70
     1
102
RTVSPropertyOp19
 70
     1
102
RTVSPropertyOp20
 70
     1
102
RTVSPropertyOp21
 70
     1
102
RTVSPropertyOp22
 70
     1
102
RTVSPropertyOp23
 70
     1
102
RTVSPropertyOp24
 70
     1
102
RTVSPropertyOp25
 70
     1
102
RTVSPropertyOp26
 70
     1
102
RTVSPropertyOp27
 70
     1
102
RTVSPropertyOp28
 70
     1
102
RTVSPropertyOp29
 70
     1
102
RTVSPropertyOp30
 70
     1
102
RTVSPropertyOp31
 70
     1
102
RTVSPropertyOp32
 70
     1
  0
XRECORD
  5
332
102
{ACAD_REACTORS
330
331
102
}
330
331
100
AcDbXrecord
280
     1
102
RTVSPropertyOp0
 70
     1
102
RTVSPropertyOp1
 70
     1
102
RTVSPropertyOp2
 70
     1
102
RTVSPropertyOp3
 70
     1
102
RTVSPropertyOp4
 70
     1
102
RTVSPropertyOp5
 70
     1
102
RTVSPropertyOp6
 70
     1
102
RTVSPropertyOp7
 70
     1
102
RTVSPropertyOp8
 70
     1
102
RTVSPropertyOp9
 70
     1
102
RTVSPropertyOp10
 70
     1
102
RTVSPropertyOp11
 70
     1
102
RTVSPropertyOp12
 70
     1
102
RTVSPropertyOp13
 70
     1
102
RTVSPropertyOp14
 70
     1
102
RTVSPropertyOp15
 70
     1
102
RTVSPropertyOp16
 70
     1
102
RTVSPropertyOp17
 70
     1
102
RTVSPropertyOp18
 70
     1
102
RTVSPropertyOp19
 70
     1
102
RTVSPropertyOp20
 70
     1
102
RTVSPropertyOp21
 70
     1
102
RTVSPropertyOp22
 70
     1
102
RTVSPropertyOp23
 70
     1
102
RTVSPropertyOp24
 70
     1
102
RTVSPropertyOp25
 70
     1
102
RTVSPropertyOp26
 70
     1
102
RTVSPropertyOp27
 70
     1
102
RTVSPropertyOp28
 70
     1
102
RTVSPropertyOp29
 70
     1
102
RTVSPropertyOp30
 70
     1
102
RTVSPropertyOp31
 70
     1
102
RTVSPropertyOp32
 70
     1
  0
XRECORD
  5
328
102
{ACAD_REACTORS
330
327
102
}
330
327
100
AcDbXrecord
280
     1
102
RTVSPropertyOp0
 70
     1
102
RTVSPropertyOp1
 70
     1
102
RTVSPropertyOp2
 70
     1
102
RTVSPropertyOp3
 70
     1
102
RTVSPropertyOp4
 70
     1
102
RTVSPropertyOp5
 70
     1
102
RTVSPropertyOp6
 70
     1
102
RTVSPropertyOp7
 70
     1
102
RTVSPropertyOp8
 70
     1
102
RTVSPropertyOp9
 70
     1
102
RTVSPropertyOp10
 70
     1
102
RTVSPropertyOp11
 70
     1
102
RTVSPropertyOp12
 70
     1
102
RTVSPropertyOp13
 70
     1
102
RTVSPropertyOp14
 70
     1
102
RTVSPropertyOp15
 70
     1
102
RTVSPropertyOp16
 70
     1
102
RTVSPropertyOp17
 70
     1
102
RTVSPropertyOp18
 70
     1
102
RTVSPropertyOp19
 70
     1
102
RTVSPropertyOp20
 70
     1
102
RTVSPropertyOp21
 70
     1
102
RTVSPropertyOp22
 70
     1
102
RTVSPropertyOp23
 70
     1
102
RTVSPropertyOp24
 70
     1
102
RTVSPropertyOp25
 70
     1
102
RTVSPropertyOp26
 70
     1
102
RTVSPropertyOp27
 70
     1
102
RTVSPropertyOp28
 70
     1
102
RTVSPropertyOp29
 70
     1
102
RTVSPropertyOp30
 70
     1
102
RTVSPropertyOp31
 70
     1
102
RTVSPropertyOp32
 70
     1
  0
XRECORD
  5
330
102
{ACAD_REACTORS
330
32F
102
}
330
32F
100
AcDbXrecord
280
     1
102
RTVSPropertyOp0
 70
     1
102
RTVSPropertyOp1
 70
     1
102
RTVSPropertyOp2
 70
     1
102
RTVSPropertyOp3
 70
     1
102
RTVSPropertyOp4
 70
     1
102
RTVSPropertyOp5
 70
     1
102
RTVSPropertyOp6
 70
     1
102
RTVSPropertyOp7
 70
     1
102
RTVSPropertyOp8
 70
     1
102
RTVSPropertyOp9
 70
     1
102
RTVSPropertyOp10
 70
     1
102
RTVSPropertyOp11
 70
     1
102
RTVSPropertyOp12
 70
     1
102
RTVSPropertyOp13
 70
     1
102
RTVSPropertyOp14
 70
     1
102
RTVSPropertyOp15
 70
     1
102
RTVSPropertyOp16
 70
     1
102
RTVSPropertyOp17
 70
     1
102
RTVSPropertyOp18
 70
     1
102
RTVSPropertyOp19
 70
     1
102
RTVSPropertyOp20
 70
     1
102
RTVSPropertyOp21
 70
     1
102
RTVSPropertyOp22
 70
     1
102
RTVSPropertyOp23
 70
     1
102
RTVSPropertyOp24
 70
     1
102
RTVSPropertyOp25
 70
     1
102
RTVSPropertyOp26
 70
     1
102
RTVSPropertyOp27
 70
     1
102
RTVSPropertyOp28
 70
     1
102
RTVSPropertyOp29
 70
     1
102
RTVSPropertyOp30
 70
     1
102
RTVSPropertyOp31
 70
     1
102
RTVSPropertyOp32
 70
     1
  0
ENDSEC
  0
EOF
