  0
SECTION
  2
HEADER
  9
$ACADVER
  1
AC1015
  9
$ACADMAINTVER
 70
     6
  9
$DWGCODEPAGE
  3
DOS932
  9
$INSBASE
 10
0.0
 20
0.0
 30
0.0
  9
$EXTMIN
 10
0.00000000000014
 20
-0.00000000000002
 30
0.0
  9
$EXTMAX
 10
525.0000000000005
 20
742.5
 30
0.0
  9
$LIMMIN
 10
0.0
 20
0.0
  9
$LIMMAX
 10
12.0
 20
9.0
  9
$ORTHOMODE
 70
     0
  9
$REGENMODE
 70
     1
  9
$FILLMODE
 70
     1
  9
$QTEXTMODE
 70
     0
  9
$MIRRTEXT
 70
     1
  9
$LTSCALE
 40
1.0
  9
$ATTMODE
 70
     1
  9
$TEXTSIZE
 40
0.2
  9
$TRACEWID
 40
0.05
  9
$TEXTSTYLE
  7
Standard
  9
$CLAYER
  8
0
  9
$CELTYPE
  6
ByLayer
  9
$CECOLOR
 62
   256
  9
$CELTSCALE
 40
1.0
  9
$DISPSILH
 70
     0
  9
$DIMSCALE
 40
1.0
  9
$DIMASZ
 40
0.18
  9
$DIMEXO
 40
0.0625
  9
$DIMDLI
 40
0.38
  9
$DIMRND
 40
0.0
  9
$DIMDLE
 40
0.0
  9
$DIMEXE
 40
0.18
  9
$DIMTP
 40
0.0
  9
$DIMTM
 40
0.0
  9
$DIMTXT
 40
0.18
  9
$DIMCEN
 40
0.09
  9
$DIMTSZ
 40
0.0
  9
$DIMTOL
 70
     0
  9
$DIMLIM
 70
     0
  9
$DIMTIH
 70
     1
  9
$DIMTOH
 70
     1
  9
$DIMSE1
 70
     0
  9
$DIMSE2
 70
     0
  9
$DIMTAD
 70
     0
  9
$DIMZIN
 70
     0
  9
$DIMBLK
  1

  9
$DIMASO
 70
     1
  9
$DIMSHO
 70
     1
  9
$DIMPOST
  1

  9
$DIMAPOST
  1

  9
$DIMALT
 70
     0
  9
$DIMALTD
 70
     2
  9
$DIMALTF
 40
25.4
  9
$DIMLFAC
 40
1.0
  9
$DIMTOFL
 70
     0
  9
$DIMTVP
 40
0.0
  9
$DIMTIX
 70
     0
  9
$DIMSOXD
 70
     0
  9
$DIMSAH
 70
     0
  9
$DIMBLK1
  1

  9
$DIMBLK2
  1

  9
$DIMSTYLE
  2
Standard
  9
$DIMCLRD
 70
     0
  9
$DIMCLRE
 70
     0
  9
$DIMCLRT
 70
     0
  9
$DIMTFAC
 40
1.0
  9
$DIMGAP
 40
0.09
  9
$DIMJUST
 70
     0
  9
$DIMSD1
 70
     0
  9
$DIMSD2
 70
     0
  9
$DIMTOLJ
 70
     1
  9
$DIMTZIN
 70
     0
  9
$DIMALTZ
 70
     0
  9
$DIMALTTZ
 70
     0
  9
$DIMUPT
 70
     0
  9
$DIMDEC
 70
     4
  9
$DIMTDEC
 70
     4
  9
$DIMALTU
 70
     2
  9
$DIMALTTD
 70
     2
  9
$DIMTXSTY
  7
Standard
  9
$DIMAUNIT
 70
     0
  9
$DIMADEC
 70
     0
  9
$DIMALTRND
 40
0.0
  9
$DIMAZIN
 70
     0
  9
$DIMDSEP
 70
    46
  9
$DIMATFIT
 70
     3
  9
$DIMFRAC
 70
     0
  9
$DIMLDRBLK
  1

  9
$DIMLUNIT
 70
     2
  9
$DIMLWD
 70
    -2
  9
$DIMLWE
 70
    -2
  9
$DIMTMOVE
 70
     0
  9
$LUNITS
 70
     2
  9
$LUPREC
 70
     4
  9
$SKETCHINC
 40
0.1
  9
$FILLETRAD
 40
0.5
  9
$AUNITS
 70
     0
  9
$AUPREC
 70
     0
  9
$MENU
  1
.
  9
$ELEVATION
 40
0.0
  9
$PELEVATION
 40
0.0
  9
$THICKNESS
 40
0.0
  9
$LIMCHECK
 70
     0
  9
$CHAMFERA
 40
0.5
  9
$CHAMFERB
 40
0.5
  9
$CHAMFERC
 40
1.0
  9
$CHAMFERD
 40
0.0
  9
$SKPOLY
 70
     0
  9
$TDCREATE
 40
2456142.466686551
  9
$TDUCREATE
 40
2456142.091686551
  9
$TDUPDATE
 40
2456142.466686563
  9
$TDUUPDATE
 40
2456142.091686563
  9
$TDINDWG
 40
0.0000000116
  9
$TDUSRTIMER
 40
0.0000000116
  9
$USRTIMER
 70
     1
  9
$ANGBASE
 50
0.0
  9
$ANGDIR
 70
     0
  9
$PDMODE
 70
     0
  9
$PDSIZE
 40
0.0
  9
$PLINEWID
 40
0.0
  9
$SPLFRAME
 70
     0
  9
$SPLINETYPE
 70
     6
  9
$SPLINESEGS
 70
     8
  9
$HANDSEED
  5
32A
  9
$SURFTAB1
 70
     6
  9
$SURFTAB2
 70
     6
  9
$SURFTYPE
 70
     6
  9
$SURFU
 70
     6
  9
$SURFV
 70
     6
  9
$UCSBASE
  2

  9
$UCSNAME
  2

  9
$UCSORG
 10
0.0
 20
0.0
 30
0.0
  9
$UCSXDIR
 10
1.0
 20
0.0
 30
0.0
  9
$UCSYDIR
 10
0.0
 20
1.0
 30
0.0
  9
$UCSORTHOREF
  2

  9
$UCSORTHOVIEW
 70
     0
  9
$UCSORGTOP
 10
0.0
 20
0.0
 30
0.0
  9
$UCSORGBOTTOM
 10
0.0
 20
0.0
 30
0.0
  9
$UCSORGLEFT
 10
0.0
 20
0.0
 30
0.0
  9
$UCSORGRIGHT
 10
0.0
 20
0.0
 30
0.0
  9
$UCSORGFRONT
 10
0.0
 20
0.0
 30
0.0
  9
$UCSORGBACK
 10
0.0
 20
0.0
 30
0.0
  9
$PUCSBASE
  2

  9
$PUCSNAME
  2

  9
$PUCSORG
 10
0.0
 20
0.0
 30
0.0
  9
$PUCSXDIR
 10
1.0
 20
0.0
 30
0.0
  9
$PUCSYDIR
 10
0.0
 20
1.0
 30
0.0
  9
$PUCSORTHOREF
  2

  9
$PUCSORTHOVIEW
 70
     0
  9
$PUCSORGTOP
 10
0.0
 20
0.0
 30
0.0
  9
$PUCSORGBOTTOM
 10
0.0
 20
0.0
 30
0.0
  9
$PUCSORGLEFT
 10
0.0
 20
0.0
 30
0.0
  9
$PUCSORGRIGHT
 10
0.0
 20
0.0
 30
0.0
  9
$PUCSORGFRONT
 10
0.0
 20
0.0
 30
0.0
  9
$PUCSORGBACK
 10
0.0
 20
0.0
 30
0.0
  9
$USERI1
 70
     0
  9
$USERI2
 70
     0
  9
$USERI3
 70
     0
  9
$USERI4
 70
     0
  9
$USERI5
 70
     0
  9
$USERR1
 40
13.2
  9
$USERR2
 40
0.0
  9
$USERR3
 40
0.0
  9
$USERR4
 40
0.0
  9
$USERR5
 40
0.0
  9
$WORLDVIEW
 70
     1
  9
$SHADEDGE
 70
     3
  9
$SHADEDIF
 70
    70
  9
$TILEMODE
 70
     1
  9
$MAXACTVP
 70
    64
  9
$PINSBASE
 10
0.0
 20
0.0
 30
0.0
  9
$PLIMCHECK
 70
     0
  9
$PEXTMIN
 10
1.00000000000000E+20
 20
1.00000000000000E+20
 30
1.00000000000000E+20
  9
$PEXTMAX
 10
-1.00000000000000E+20
 20
-1.00000000000000E+20
 30
-1.00000000000000E+20
  9
$PLIMMIN
 10
0.0
 20
0.0
  9
$PLIMMAX
 10
12.0
 20
9.0
  9
$UNITMODE
 70
     0
  9
$VISRETAIN
 70
     1
  9
$PLINEGEN
 70
     0
  9
$PSLTSCALE
 70
     1
  9
$TREEDEPTH
 70
  3020
  9
$CMLSTYLE
  2
Standard
  9
$CMLJUST
 70
     0
  9
$CMLSCALE
 40
1.0
  9
$PROXYGRAPHICS
 70
     1
  9
$MEASUREMENT
 70
     1
  9
$CELWEIGHT
370
    -1
  9
$ENDCAPS
280
     0
  9
$JOINSTYLE
280
     0
  9
$LWDISPLAY
290
     0
  9
$INSUNITS
 70
     1
  9
$HYPERLINKBASE
  1

  9
$STYLESHEET
  1

  9
$XEDIT
290
     1
  9
$CEPSNTYPE
380
     0
  9
$PSTYLEMODE
290
     0
  9
$FINGERPRINTGUID
  2
{FAEB1C30-E019-11D5-929B-00C0DF256EC4}
  9
$VERSIONGUID
  2
{FAEB1C32-E019-11D5-929B-00C0DF256EC4}
  9
$EXTNAMES
290
     1
  9
$PSVPSCALE
 40
0.0
  9
$OLESTARTUP
290
     0
  0
ENDSEC
  0
SECTION
  2
CLASSES
  0
CLASS
  1
ACDBDICTIONARYWDFLT
  2
AcDbDictionaryWithDefault
  3
ObjectDBX Classes
 90
        0
280
     0
281
     0
  0
CLASS
  1
TABLESTYLE
  2
AcDbTableStyle
  3
ObjectDBX Classes
 90
     2047
280
     0
281
     0
  0
CLASS
  1
DICTIONARYVAR
  2
AcDbDictionaryVar
  3
ObjectDBX Classes
 90
        0
280
     0
281
     0
  0
CLASS
  1

  2
exOdDbSpline
  3

 90
        0
280
     0
281
     1
  0
CLASS
  1

  2
exOdDbPolyline
  3

 90
        0
280
     0
281
     1
  0
CLASS
  1

  2
exOdDbCircle
  3

 90
        0
280
     0
281
     1
  0
CLASS
  1
ACDBPLACEHOLDER
  2
AcDbPlaceHolder
  3
ObjectDBX Classes
 90
        0
280
     0
281
     0
  0
CLASS
  1
LAYOUT
  2
AcDbLayout
  3
ObjectDBX Classes
 90
        0
280
     0
281
     0
  0
ENDSEC
  0
SECTION
  2
TABLES
  0
TABLE
  2
VPORT
  5
8
330
0
100
AcDbSymbolTable
 70
     2
  0
VPORT
  5
29
330
8
100
AcDbSymbolTableRecord
100
AcDbViewportTableRecord
  2
*Active
 70
     0
 10
0.0
 20
0.0
 11
1.0
 21
1.0
 12
262.5000000000003
 22
371.25
 13
0.0
 23
0.0
 14
0.5
 24
0.5
 15
0.5
 25
0.5
 16
0.0
 26
0.0
 36
1.0
 17
0.0
 27
0.0
 37
0.0
 40
816.7500000000001
 41
1.60267857142857
 42
50.0
 43
0.0
 44
0.0
 50
0.0
 51
0.0
 71
     0
 72
   100
 73
     1
 74
     3
 75
     0
 76
     0
 77
     0
 78
     0
281
     0
 65
     1
110
0.0
120
0.0
130
0.0
111
1.0
121
0.0
131
0.0
112
0.0
122
1.0
132
0.0
 79
     0
146
0.0
  0
ENDTAB
  0
TABLE
  2
LTYPE
  5
5
330
0
100
AcDbSymbolTable
 70
     8
  0
LTYPE
  5
14
330
5
100
AcDbSymbolTableRecord
100
AcDbLinetypeTableRecord
  2
ByBlock
 70
     0
  3

 72
    65
 73
     0
 40
0.0
  0
LTYPE
  5
15
330
5
100
AcDbSymbolTableRecord
100
AcDbLinetypeTableRecord
  2
ByLayer
 70
     0
  3

 72
    65
 73
     0
 40
0.0
  0
LTYPE
  5
16
330
5
100
AcDbSymbolTableRecord
100
AcDbLinetypeTableRecord
  2
Continuous
 70
     0
  3
Solid line
 72
    65
 73
     0
 40
0.0
  0
LTYPE
  5
2E
330
5
100
AcDbSymbolTableRecord
100
AcDbLinetypeTableRecord
  2
DASHED
 70
     0
  3
Dashed
 72
    65
 73
     2
 40
15.0
 49
7.0
 74
     0
 49
-8.0
 74
     0
  0
LTYPE
  5
2F
330
5
100
AcDbSymbolTableRecord
100
AcDbLinetypeTableRecord
  2
DOTTED
 70
     0
  3
Dotted
 72
    65
 73
     2
 40
1.0
 49
0.0
 74
     0
 49
-1.0
 74
     0
  0
LTYPE
  5
30
330
5
100
AcDbSymbolTableRecord
100
AcDbLinetypeTableRecord
  2
DOT_CENTER
 70
     0
  3
Dot_Center
 72
    65
 73
     4
 40
14.0
 49
12.0
 74
     0
 49
-1.0
 74
     0
 49
0.0
 74
     0
 49
-1.0
 74
     0
  0
LTYPE
  5
31
330
5
100
AcDbSymbolTableRecord
100
AcDbLinetypeTableRecord
  2
LONG_DASHED
 70
     0
  3
Long_Dashed
 72
    65
 73
     2
 40
15.0
 49
10.0
 74
     0
 49
-5.0
 74
     0
  0
LTYPE
  5
32
330
5
100
AcDbSymbolTableRecord
100
AcDbLinetypeTableRecord
  2
DASH_CENTER
 70
     0
  3
Dash_Center
 72
    65
 73
     4
 40
14.0
 49
11.0
 74
     0
 49
-1.0
 74
     0
 49
1.0
 74
     0
 49
-1.0
 74
     0
  0
LTYPE
  5
33
330
5
100
AcDbSymbolTableRecord
100
AcDbLinetypeTableRecord
  2
PHANTOM
 70
     0
  3
Phantom
 72
    65
 73
     6
 40
13.0
 49
10.0
 74
     0
 49
-1.0
 74
     0
 49
0.0
 74
     0
 49
-1.0
 74
     0
 49
0.0
 74
     0
 49
-1.0
 74
     0
  0
LTYPE
  5
34
330
5
100
AcDbSymbolTableRecord
100
AcDbLinetypeTableRecord
  2
CENTER_DASH_DASH
 70
     0
  3
Center_Dash_Dash
 72
    65
 73
     6
 40
14.0
 49
9.0
 74
     0
 49
-1.0
 74
     0
 49
1.0
 74
     0
 49
-1.0
 74
     0
 49
1.0
 74
     0
 49
-1.0
 74
     0
  0
ENDTAB
  0
TABLE
  2
LAYER
  5
2
330
0
100
AcDbSymbolTable
 70
     2
  0
LAYER
  5
10
330
2
100
AcDbSymbolTableRecord
100
AcDbLayerTableRecord
  2
0
 70
     0
 62
     7
  6
Continuous
370
    -3
390
F
  0
LAYER
  5
35
330
2
100
AcDbSymbolTableRecord
100
AcDbLayerTableRecord
  2
1
 70
     0
 62
     7
  6
Continuous
370
    -3
390
F
  0
ENDTAB
  0
TABLE
  2
STYLE
  5
3
330
0
100
AcDbSymbolTable
 70
     3
  0
STYLE
  5
11
330
3
100
AcDbSymbolTableRecord
100
AcDbTextStyleTableRecord
  2
Standard
 70
     0
 40
0.0
 41
1.0
 50
0.0
 71
     0
 42
0.2
  3
txt
  4

  0
STYLE
  5
2A9
330
3
100
AcDbSymbolTableRecord
100
AcDbTextStyleTableRecord
  2
CONVERTER_1
 70
     0
 40
0.0
 41
0.89
 50
0.0
 71
     0
 42
0.2
  3
msmincho.ttc
  4

1001
ACAD
1000
MS Mincho
1071
    32785
  0
STYLE
  5
2D1
330
3
100
AcDbSymbolTableRecord
100
AcDbTextStyleTableRecord
  2
CONVERTER_2
 70
     0
 40
0.0
 41
0.9
 50
0.0
 71
     0
 42
0.2
  3
txt.shx
  4

  0
ENDTAB
  0
TABLE
  2
VIEW
  5
6
330
0
100
AcDbSymbolTable
 70
     0
  0
ENDTAB
  0
TABLE
  2
UCS
  5
7
330
0
100
AcDbSymbolTable
 70
     0
  0
ENDTAB
  0
TABLE
  2
APPID
  5
9
330
0
100
AcDbSymbolTable
 70
     1
  0
APPID
  5
12
330
9
100
AcDbSymbolTableRecord
100
AcDbRegAppTableRecord
  2
ACAD
 70
     0
  0
ENDTAB
  0
TABLE
  2
DIMSTYLE
  5
A
330
0
100
AcDbSymbolTable
 70
     8
100
AcDbDimStyleTable
  0
DIMSTYLE
105
27
330
A
100
AcDbSymbolTableRecord
100
AcDbDimStyleTableRecord
  2
Standard
 70
     0
340
11
  0
DIMSTYLE
105
2E3
102
{ACAD_REACTORS
330
2E4
102
}
330
A
100
AcDbSymbolTableRecord
100
AcDbDimStyleTableRecord
  2
ME10_DIM_0
 70
     0
 41
8.75
 42
0.0
 44
2.5
 73
     0
 74
     0
 77
     1
 78
     8
140
8.75
147
0.625
172
     1
173
     1
176
     2
177
     2
178
     7
271
     2
340
2D1
  0
DIMSTYLE
105
2EE
102
{ACAD_REACTORS
330
2EF
102
}
330
A
100
AcDbSymbolTableRecord
100
AcDbDimStyleTableRecord
  2
ME10_DIM_1
 70
     0
 41
8.75
 42
0.0
 44
2.5
 73
     0
 74
     0
 77
     1
 78
     8
140
8.75
147
0.625
172
     1
173
     1
176
     2
177
     2
178
     7
271
     2
340
2D1
  0
DIMSTYLE
105
2F9
102
{ACAD_REACTORS
330
2FA
102
}
330
A
100
AcDbSymbolTableRecord
100
AcDbDimStyleTableRecord
  2
ME10_DIM_2
 70
     0
  3
{\Fgdt;n}<>
 41
8.75
 42
0.0
 44
2.5
 73
     0
 74
     0
 77
     1
 78
     8
140
8.75
147
0.625
172
     1
173
     1
176
     2
177
     2
178
     7
271
     2
340
2D1
  0
DIMSTYLE
105
304
102
{ACAD_REACTORS
330
305
102
}
330
A
100
AcDbSymbolTableRecord
100
AcDbDimStyleTableRecord
  2
ME10_DIM_3
 70
     0
 41
8.75
 42
0.0
 44
2.5
 73
     0
 74
     0
 77
     1
 78
     8
140
8.75
147
0.625
172
     1
173
     1
176
     2
177
     2
178
     7
271
     2
340
2D1
  0
DIMSTYLE
105
30F
102
{ACAD_REACTORS
330
310
102
}
330
A
100
AcDbSymbolTableRecord
100
AcDbDimStyleTableRecord
  2
ME10_DIM_4
 70
     0
 41
8.75
 42
0.0
 44
2.5
 73
     0
 74
     0
 77
     1
 78
     8
140
8.75
147
0.625
172
     1
173
     1
176
     2
177
     2
178
     7
271
     2
340
2D1
  0
DIMSTYLE
105
31A
102
{ACAD_REACTORS
330
31B
102
}
330
A
100
AcDbSymbolTableRecord
100
AcDbDimStyleTableRecord
  2
ME10_DIM_5
 70
     0
 41
8.75
 42
0.0
 44
2.5
 73
     0
 74
     0
 77
     1
 78
     8
140
8.75
147
0.625
172
     1
173
     1
176
     2
177
     2
178
     7
271
     2
340
2D1
  0
DIMSTYLE
105
328
102
{ACAD_REACTORS
330
329
102
}
330
A
100
AcDbSymbolTableRecord
100
AcDbDimStyleTableRecord
  2
ME10_DIM_6
 70
     0
 41
8.75
 42
0.0
 44
2.5
 73
     0
 74
     0
 77
     1
 78
     8
140
8.75
147
0.625
172
     1
173
     1
176
     2
177
     2
178
     7
271
     2
340
2D1
344
325
  0
ENDTAB
  0
TABLE
  2
BLOCK_RECORD
  5
1
330
0
100
AcDbSymbolTable
 70
    17
  0
BLOCK_RECORD
  5
1F
330
1
100
AcDbSymbolTableRecord
100
AcDbBlockTableRecord
  2
*Model_Space
340
22
  0
BLOCK_RECORD
  5
1B
330
1
100
AcDbSymbolTableRecord
100
AcDbBlockTableRecord
  2
*Paper_Space
340
1E
  0
BLOCK_RECORD
  5
23
330
1
100
AcDbSymbolTableRecord
100
AcDbBlockTableRecord
  2
*Paper_Space0
340
26
  0
BLOCK_RECORD
  5
36
330
1
100
AcDbSymbolTableRecord
100
AcDbBlockTableRecord
  2
81-100K
340
0
102
{BLKREFS
331
3A
102
}
  0
BLOCK_RECORD
  5
39
330
1
100
AcDbSymbolTableRecord
100
AcDbBlockTableRecord
  2
81-100X-M21
340
0
102
{BLKREFS
331
4F
102
}
  0
BLOCK_RECORD
  5
3D
330
1
100
AcDbSymbolTableRecord
100
AcDbBlockTableRecord
  2
A105-0
340
0
102
{BLKREFS
331
50
102
}
  0
BLOCK_RECORD
  5
40
330
1
100
AcDbSymbolTableRecord
100
AcDbBlockTableRecord
  2
30-111
340
0
102
{BLKREFS
331
51
102
}
  0
BLOCK_RECORD
  5
43
330
1
100
AcDbSymbolTableRecord
100
AcDbBlockTableRecord
  2
60-2-16-170
340
0
102
{BLKREFS
331
52
102
}
  0
BLOCK_RECORD
  5
46
330
1
100
AcDbSymbolTableRecord
100
AcDbBlockTableRecord
  2
32-1-16
340
0
102
{BLKREFS
331
53
102
}
  0
BLOCK_RECORD
  5
49
330
1
100
AcDbSymbolTableRecord
100
AcDbBlockTableRecord
  2
A10-0A-13
340
0
102
{BLKREFS
331
54
102
}
  0
BLOCK_RECORD
  5
4C
330
1
100
AcDbSymbolTableRecord
100
AcDbBlockTableRecord
  2
_J__A4
340
0
102
{BLKREFS
331
55
102
}
  0
BLOCK_RECORD
  5
2DA
330
1
100
AcDbSymbolTableRecord
100
AcDbBlockTableRecord
  2
*D09
340
0
  0
BLOCK_RECORD
  5
2E5
330
1
100
AcDbSymbolTableRecord
100
AcDbBlockTableRecord
  2
*D110
340
0
  0
BLOCK_RECORD
  5
2F0
330
1
100
AcDbSymbolTableRecord
100
AcDbBlockTableRecord
  2
*D211
340
0
  0
BLOCK_RECORD
  5
2FB
330
1
100
AcDbSymbolTableRecord
100
AcDbBlockTableRecord
  2
*D312
340
0
  0
BLOCK_RECORD
  5
306
330
1
100
AcDbSymbolTableRecord
100
AcDbBlockTableRecord
  2
*D413
340
0
  0
BLOCK_RECORD
  5
311
330
1
100
AcDbSymbolTableRecord
100
AcDbBlockTableRecord
  2
*D514
340
0
  0
BLOCK_RECORD
  5
31C
330
1
100
AcDbSymbolTableRecord
100
AcDbBlockTableRecord
  2
*D615
340
0
  0
BLOCK_RECORD
  5
325
330
1
100
AcDbSymbolTableRecord
100
AcDbBlockTableRecord
  2
_None
340
0
  0
ENDTAB
  0
ENDSEC
  0
SECTION
  2
BLOCKS
  0
BLOCK
  5
20
330
1F
100
AcDbEntity
  8
0
100
AcDbBlockBegin
  2
*Model_Space
 70
     0
 71
     0
 10
0.0
 20
0.0
 30
0.0
  3
*Model_Space
  1

  0
ENDBLK
  5
21
330
1F
100
AcDbEntity
  8
0
100
AcDbBlockEnd
  0
BLOCK
  5
1C
330
1B
100
AcDbEntity
 67
     1
  8
0
100
AcDbBlockBegin
  2
*Paper_Space
 70
     0
 71
     0
 10
0.0
 20
0.0
 30
0.0
  3
*Paper_Space
  1

  0
ENDBLK
  5
1D
330
1B
100
AcDbEntity
 67
     1
  8
0
100
AcDbBlockEnd
  0
BLOCK
  5
24
330
23
100
AcDbEntity
  8
0
100
AcDbBlockBegin
  2
*Paper_Space0
 70
     0
 71
     0
 10
0.0
 20
0.0
 30
0.0
  3
*Paper_Space0
  1

  0
ENDBLK
  5
25
330
23
100
AcDbEntity
  8
0
100
AcDbBlockEnd
  0
BLOCK
  5
37
330
36
100
AcDbEntity
  8
0
100
AcDbBlockBegin
  2
81-100K
 70
     0
 71
     0
 10
227.2986257495253
 20
428.7016405398452
 30
0.0
  3
81-100K
  1

  0
LINE
  5
56
330
36
100
AcDbEntity
  8
1
  6
Continuous
 62
     7
100
AcDbLine
 10
109.2506328336651
 20
291.8595190464143
 30
0.0
 11
109.2506328336652
 21
279.5595190464144
 31
0.0
  0
LINE
  5
57
330
36
100
AcDbEntity
  8
1
  6
Continuous
 62
     7
100
AcDbLine
 10
140.2506328336651
 20
291.8595190464143
 30
0.0
 11
140.2506328336651
 21
279.5595190464144
 31
0.0
  0
LINE
  5
58
330
36
100
AcDbEntity
  8
1
  6
Continuous
 62
     7
100
AcDbLine
 10
109.4506328336654
 20
279.3595190464144
 30
0.0
 11
140.0506328336652
 21
279.3595190464144
 31
0.0
  0
LINE
  5
59
330
36
100
AcDbEntity
  8
1
  6
Continuous
 62
     7
100
AcDbLine
 10
373.7325421464238
 20
285.0271065304209
 30
0.0
 11
373.732542146424
 21
279.5595190464144
 31
0.0
  0
LINE
  5
5A
330
36
100
AcDbEntity
  8
1
  6
Continuous
 62
     7
100
AcDbLine
 10
404.7325421464238
 20
289.2792194751743
 30
0.0
 11
404.7325421464238
 21
279.5595190464144
 31
0.0
  0
LINE
  5
5B
330
36
100
AcDbEntity
  8
1
  6
Continuous
 62
     7
100
AcDbLine
 10
373.7325421464238
 20
291.8595190464143
 30
0.0
 11
373.7325421464238
 21
285.0271065304209
 31
0.0
  0
LINE
  5
5C
330
36
100
AcDbEntity
  8
1
  6
Continuous
 62
     7
100
AcDbLine
 10
404.7325421464238
 20
291.8595190464143
 30
0.0
 11
404.7325421464238
 21
289.2792194751743
 31
0.0
  0
LINE
  5
5D
330
36
100
AcDbEntity
  8
1
  6
Continuous
 62
     7
100
AcDbLine
 10
373.9325421464241
 20
279.3595190464144
 30
0.0
 11
404.5325421464239
 21
279.3595190464144
 31
0.0
  0
LINE
  5
5E
330
36
100
AcDbEntity
  8
1
  6
PHANTOM
 62
     5
100
AcDbLine
 10
155.750632833665
 20
571.6095190464154
 30
0.0
 11
142.250632833665
 21
571.6095190464154
 31
0.0
  0
LINE
  5
5F
330
36
100
AcDbEntity
  8
1
  6
PHANTOM
 62
     5
100
AcDbLine
 10
155.750632833665
 20
563.6095190464152
 30
0.0
 11
142.250632833665
 21
563.6095190464152
 31
0.0
  0
LINE
  5
60
330
36
100
AcDbEntity
  8
1
  6
Continuous
 62
     7
100
AcDbLine
 10
128.7506328336651
 20
552.1095190464154
 30
0.0
 11
128.7506328336651
 21
552.6345399145434
 31
0.0
  0
LINE
  5
61
330
36
100
AcDbEntity
  8
1
  6
Continuous
 62
     7
100
AcDbLine
 10
120.750632833665
 20
552.1095190464154
 30
0.0
 11
120.750632833665
 21
552.6345399145434
 31
0.0
  0
LINE
  5
62
330
36
100
AcDbEntity
  8
1
  6
Continuous
 62
     7
100
AcDbLine
 10
128.7506328336651
 20
552.1095190464154
 30
0.0
 11
128.7506328336651
 21
552.1095190464177
 31
0.0
  0
LINE
  5
63
330
36
100
AcDbEntity
  8
1
  6
Continuous
 62
     7
100
AcDbLine
 10
128.7506328336651
 20
536.6095190464155
 30
0.0
 11
128.7506328336651
 21
552.1095190464154
 31
0.0
  0
LINE
  5
64
330
36
100
AcDbEntity
  8
1
  6
Continuous
 62
     7
100
AcDbLine
 10
120.750632833665
 20
536.6095190464155
 30
0.0
 11
120.750632833665
 21
552.1095190464154
 31
0.0
  0
LINE
  5
65
330
36
100
AcDbEntity
  8
1
  6
Continuous
 62
     7
100
AcDbLine
 10
128.7506328336651
 20
583.6095190464155
 30
0.0
 11
128.7506328336651
 21
582.5844981782873
 31
0.0
  0
LINE
  5
66
330
36
100
AcDbEntity
  8
1
  6
Continuous
 62
     7
100
AcDbLine
 10
120.7506328336651
 20
583.6095190464155
 30
0.0
 11
120.7506328336651
 21
582.5844981782874
 31
0.0
  0
ARC
  5
67
330
36
100
AcDbEntity
  8
1
  6
Continuous
 62
     7
100
AcDbCircle
 10
124.7506328336651
 20
303.6347999452928
 30
0.0
 40
3.724719101123531
100
AcDbArc
 50
4.33382936637393
 51
90.0
  0
ARC
  5
68
330
36
100
AcDbEntity
  8
1
  6
Continuous
 62
     7
100
AcDbCircle
 10
124.7506328336651
 20
289.0842381475369
 30
0.0
 40
3.724719101123335
100
AcDbArc
 50
-175.6661706336223
 51
-90.0
  0
ARC
  5
69
330
36
100
AcDbEntity
  8
1
  6
Continuous
 62
     7
100
AcDbCircle
 10
220.7506328336654
 20
296.3595190464151
 30
0.0
 40
100.0
100
AcDbArc
 50
180.0
 51
-175.6661706336255
  0
ARC
  5
6A
330
36
100
AcDbEntity
  8
1
  6
Continuous
 62
     7
100
AcDbCircle
 10
124.7506328336651
 20
289.0842381475369
 30
0.0
 40
3.72471910112381
100
AcDbArc
 50
-90.0
 51
-4.33382936637742
  0
ARC
  5
6B
330
36
100
AcDbEntity
  8
1
  6
Continuous
 62
     7
100
AcDbCircle
 10
28.75063283366512
 20
296.3595190464151
 30
0.0
 40
100.0000000000001
100
AcDbArc
 50
-4.33382936637447
 51
0.0
  0
ARC
  5
6C
330
36
100
AcDbEntity
  8
1
  6
Continuous
 62
     7
100
AcDbCircle
 10
220.7506328336654
 20
296.3595190464151
 30
0.0
 40
100.0000000000001
100
AcDbArc
 50
175.6661706336259
 51
180.0
  0
ARC
  5
6D
330
36
100
AcDbEntity
  8
1
  6
Continuous
 62
     7
100
AcDbCircle
 10
124.7506328336651
 20
303.6347999452928
 30
0.0
 40
3.724719101121593
100
AcDbArc
 50
90.0
 51
175.6661706336258
  0
ARC
  5
6E
330
36
100
AcDbEntity
  8
1
  6
Continuous
 62
     7
100
AcDbCircle
 10
28.75063283366512
 20
296.3595190464151
 30
0.0
 40
99.99999999999997
100
AcDbArc
 50
0.0
 51
4.33382936637408
  0
ARC
  5
6F
330
36
100
AcDbEntity
  8
1
  6
Continuous
 62
     7
100
AcDbCircle
 10
124.7506328336651
 20
291.8595190464144
 30
0.0
 40
15.5
100
AcDbArc
 50
90.0
 51
-179.9999999999996
  0
ARC
  5
70
330
36
100
AcDbEntity
  8
1
  6
Continuous
 62
     7
100
AcDbCircle
 10
124.7506328336651
 20
291.8595190464144
 30
0.0
 40
15.5
100
AcDbArc
 50
-0.00000000000042
 51
90.0
  0
ARC
  5
71
330
36
100
AcDbEntity
  8
1
  6
Continuous
 62
     7
100
AcDbCircle
 10
389.2325421464238
 20
291.8595190464144
 30
0.0
 40
15.5
100
AcDbArc
 50
90.0
 51
99.36885182365532
  0
ARC
  5
72
330
36
100
AcDbEntity
  8
1
  6
Continuous
 62
     7
100
AcDbCircle
 10
389.2325421464238
 20
291.8595190464144
 30
0.0
 40
15.5
100
AcDbArc
 50
-0.00000000000042
 51
61.49777619691704
  0
ARC
  5
73
330
36
100
AcDbEntity
  8
1
  6
Continuous
 62
     7
100
AcDbCircle
 10
389.2325421464238
 20
291.8595190464144
 30
0.0
 40
15.50000000000008
100
AcDbArc
 50
61.49777619691704
 51
90.0
  0
ARC
  5
74
330
36
100
AcDbEntity
  8
1
  6
Continuous
 62
     7
100
AcDbCircle
 10
389.2325421464238
 20
291.8595190464144
 30
0.0
 40
15.50000000000001
100
AcDbArc
 50
99.36885182365532
 51
-179.9999999999996
  0
ARC
  5
75
330
36
100
AcDbEntity
  8
1
  6
Continuous
 62
     7
100
AcDbCircle
 10
402.232542146424
 20
296.3595190464143
 30
0.0
 40
7.0
100
AcDbArc
 50
0.0
 51
47.37714539218476
  0
ARC
  5
76
330
36
100
AcDbEntity
  8
1
  6
Continuous
 62
     7
100
AcDbCircle
 10
381.732542146424
 20
247.3595190464143
 30
0.0
 40
60.00000000000006
100
AcDbArc
 50
66.58728051639274
 51
75.62455135571636
  0
ARC
  5
77
330
36
100
AcDbEntity
  8
1
  6
Continuous
 62
     7
100
AcDbCircle
 10
402.232542146424
 20
296.3595190464143
 30
0.0
 40
6.999999999999926
100
AcDbArc
 50
-47.37714539218444
 51
0.0
  0
ARC
  5
78
330
36
100
AcDbEntity
  8
1
  6
Continuous
 62
     7
100
AcDbCircle
 10
381.732542146424
 20
345.3595190464143
 30
0.0
 40
59.99999999999992
100
AcDbArc
 50
-113.412719483608
 51
-98.48444974137647
  0
ARC
  5
79
330
36
100
AcDbEntity
  8
1
  6
Continuous
 62
     7
100
AcDbCircle
 10
361.232542146424
 20
296.3595190464143
 30
0.0
 40
6.999999999999886
100
AcDbArc
 50
180.0
 51
-132.6228546078341
  0
ARC
  5
7A
330
36
100
AcDbEntity
  8
1
  6
Continuous
 62
     7
100
AcDbCircle
 10
381.732542146424
 20
345.3595190464143
 30
0.0
 40
59.99999999999981
100
AcDbArc
 50
-66.83112021488162
 51
-66.58728051639277
  0
ARC
  5
7B
330
36
100
AcDbEntity
  8
1
  6
Continuous
 62
     7
100
AcDbCircle
 10
381.732542146424
 20
247.3595190464143
 30
0.0
 40
59.99999999999997
100
AcDbArc
 50
90.0
 51
113.4127194836067
  0
ARC
  5
7C
330
36
100
AcDbEntity
  8
1
  6
Continuous
 62
     7
100
AcDbCircle
 10
361.232542146424
 20
296.3595190464143
 30
0.0
 40
6.999999999999906
100
AcDbArc
 50
132.6228546078037
 51
180.0
  0
ARC
  5
7D
330
36
100
AcDbEntity
  8
1
  6
Continuous
 62
     7
100
AcDbCircle
 10
381.732542146424
 20
247.3595190464143
 30
0.0
 40
59.99999999999996
100
AcDbArc
 50
85.24207666485553
 51
90.0
  0
ARC
  5
7E
330
36
100
AcDbEntity
  8
1
  6
PHANTOM
 62
     5
100
AcDbCircle
 10
108.750632833665
 20
567.6095190464154
 30
0.0
 40
3.999999999999985
100
AcDbArc
 50
99.99999999999962
 51
-99.99999999999962
  0
ARC
  5
7F
330
36
100
AcDbEntity
  8
1
  6
PHANTOM
 62
     5
100
AcDbCircle
 10
155.750632833665
 20
567.6095190464154
 30
0.0
 40
4.000000000000114
100
AcDbArc
 50
-90.0
 51
90.0
  0
ARC
  5
80
330
36
100
AcDbEntity
  8
1
  6
Continuous
 62
     7
100
AcDbCircle
 10
124.7506328336651
 20
583.6095190464155
 30
0.0
 40
4.0
100
AcDbArc
 50
0.0
 51
180.0
  0
ARC
  5
81
330
36
100
AcDbEntity
  8
1
  6
Continuous
 62
     7
100
AcDbCircle
 10
124.7506328336651
 20
567.6095190464154
 30
0.0
 40
15.50000000000009
100
AcDbArc
 50
104.9552483166433
 51
-104.9552483166437
  0
ARC
  5
82
330
36
100
AcDbEntity
  8
1
  6
Continuous
 62
     7
100
AcDbCircle
 10
124.7506328336651
 20
567.6095190464154
 30
0.0
 40
15.49999999999998
100
AcDbArc
 50
-75.04475168335665
 51
75.04475168335665
  0
ARC
  5
83
330
36
100
AcDbEntity
  8
1
  6
Continuous
 62
     7
100
AcDbCircle
 10
124.7506328336651
 20
536.6095190464155
 30
0.0
 40
4.0000000000001
100
AcDbArc
 50
180.0
 51
0.0
  0
SPLINE
  5
84
330
36
100
AcDbEntity
  8
1
  6
Continuous
 62
     7
100
AcDbSpline
210
0.0
220
0.0
230
1.0
 70
     8
 71
     3
 72
    27
 73
    23
 74
    21
 42
0.0000000001
 43
0.0000000001
 44
0.00000001
 40
0.0
 40
0.0
 40
0.0
 40
0.0
 40
0.3521433471926851
 40
0.7044480008014509
 40
1.400800665173696
 40
2.097184215600473
 40
2.769838284127039
 40
3.442561373247724
 40
4.077219711104174
 40
4.712002495238473
 40
5.296741613738183
 40
5.881694767086054
 40
6.408245057776088
 40
6.935160776250138
 40
7.40065697149646
 40
7.866768362736071
 40
8.276154733216554
 40
8.6864652765404
 40
9.055039967931176
 40
9.424428410660925
 40
9.778116399127086
 40
10.13180438759338
 40
10.13180438759338
 40
10.13180438759338
 40
10.13180438759338
 10
128.7506328336651
 20
583.1095190464154
 30
0.0
 10
128.7499017302869
 20
582.9921355319514
 30
0.0
 10
128.7484391886336
 20
582.757314733119
 30
0.0
 10
128.7329935207189
 20
582.2905893954938
 30
0.0
 10
128.6956242782499
 20
581.7099316654183
 30
0.0
 10
128.621357664852
 20
581.0252492377701
 30
0.0
 10
128.5172818900435
 20
580.3524362754988
 30
0.0
 10
128.386243361761
 20
579.705290876891
 30
0.0
 10
128.2261274996966
 20
579.077745136902
 30
0.0
 10
128.0424303360787
 20
578.4872706654408
 30
0.0
 10
127.8308337042647
 20
577.9238824776182
 30
0.0
 10
127.6000759902486
 20
577.4072244973222
 30
0.0
 10
127.3429696056996
 20
576.9249049290336
 30
0.0
 10
127.0716957010904
 20
576.4966669842419
 30
0.0
 10
126.7761186146457
 20
576.10987560326
 30
0.0
 10
126.4709932365497
 20
575.7820170689644
 30
0.0
 10
126.1446013549991
 20
575.5026709200452
 30
0.0
 10
125.8116720416743
 20
575.285829815227
 30
0.0
 10
125.4629267092776
 20
575.1239959997251
 30
0.0
 10
125.1099596093781
 20
575.0300899094611
 30
0.0
 10
124.7501652581737
 20
574.9920524666807
 30
0.0
 10
124.5156701342106
 20
575.0228881307806
 30
0.0
 10
124.398422572229
 20
575.0383059628308
 30
0.0
 11
128.7506328336651
 21
583.1095190464154
 31
0.0
 11
128.7468640145158
 21
582.7573958677203
 31
0.0
 11
128.7355575570677
 21
582.4052726890252
 31
0.0
 11
128.6905614787803
 21
581.7103752965153
 31
0.0
 11
128.6151853797692
 21
581.0180830944771
 31
0.0
 11
128.5121713651621
 21
580.3533638991022
 31
0.0
 11
128.3780950399274
 21
579.6941371599239
 31
0.0
 11
128.2208611170452
 21
579.07926424679
 31
0.0
 11
128.0314620701932
 21
578.4733952971938
 31
0.0
 11
127.8253695855439
 21
577.9261789556296
 31
0.0
 11
127.5857021395116
 21
577.3925782557387
 31
0.0
 11
127.3373242404603
 21
576.9282899531846
 31
0.0
 11
127.0539946334186
 21
576.4840326987153
 31
0.0
 11
126.7704559438083
 21
576.1148545313179
 31
0.0
 11
126.4515584579402
 21
575.774907149286
 31
0.0
 11
126.1394508825066
 21
575.5099806279784
 31
0.0
 11
125.7948918388564
 21
575.2871941665371
 31
0.0
 11
125.4595620302814
 21
575.1342195849398
 31
0.0
 11
125.1028430951009
 21
575.0383059628309
 31
0.0
 11
124.750632833665
 21
575.0060085182804
 31
0.0
 11
124.398422572229
 21
575.0383059628308
 31
0.0
  0
SPLINE
  5
85
330
36
100
AcDbEntity
  8
1
  6
Continuous
 62
     7
100
AcDbSpline
210
0.0
220
0.0
230
1.0
 70
     8
 71
     3
 72
    25
 73
    21
 74
    19
 42
0.0000000001
 43
0.0000000001
 44
0.00000001
 40
0.0
 40
0.0
 40
0.0
 40
0.0
 40
0.3693884427297103
 40
0.7379631341203964
 40
1.148273677444206
 40
1.557660047924721
 40
2.023771439164454
 40
2.489267634410687
 40
3.016183352884728
 40
3.542733643574789
 40
4.127686796922574
 40
4.712425915422284
 40
5.34720869955667
 40
5.981867037413099
 40
6.654590126533773
 40
7.327244195060341
 40
8.023627745487008
 40
8.719980409859366
 40
9.072285063468586
 40
9.424428410662181
 40
9.424428410662181
 40
9.424428410662181
 40
9.424428410662181
 10
124.398422572229
 20
575.0383059628308
 30
0.0
 10
124.27812525527
 20
575.0660403758141
 30
0.0
 10
124.0377956326285
 20
575.1214481037248
 30
0.0
 10
123.6897574819777
 20
575.2865982108312
 30
0.0
 10
123.356618750098
 20
575.5024572583493
 30
0.0
 10
123.0302865191643
 20
575.7820831356999
 30
0.0
 10
122.7251430954985
 20
576.1098570462445
 30
0.0
 10
122.4295711824416
 20
576.4966726875572
 30
0.0
 10
122.1582957203447
 20
576.9249033285923
 30
0.0
 10
121.9011897798378
 20
577.4072249791927
 30
0.0
 10
121.67043193441
 20
577.9238823432411
 30
0.0
 10
121.4588353396618
 20
578.487270704882
 30
0.0
 10
121.2751381653072
 20
579.0777451259933
 30
0.0
 10
121.1150223062341
 20
579.7052908800092
 30
0.0
 10
120.9839837771044
 20
580.352436274644
 30
0.0
 10
120.879908002529
 20
581.0252492380087
 30
0.0
 10
120.805641389066
 20
581.7099316653519
 30
0.0
 10
120.768272146613
 20
582.2905893955021
 30
0.0
 10
120.7528264786963
 20
582.7573147331185
 30
0.0
 10
120.7513639370433
 20
582.992135531952
 30
0.0
 10
120.7506328336651
 20
583.1095190464167
 30
0.0
 11
124.398422572229
 21
575.0383059628308
 31
0.0
 11
124.0417036370486
 21
575.1342195849398
 31
0.0
 11
123.7063738284737
 21
575.2871941665371
 31
0.0
 11
123.3618147848235
 21
575.5099806279784
 31
0.0
 11
123.0497072093899
 21
575.774907149286
 31
0.0
 11
122.7308097235217
 21
576.114854531318
 31
0.0
 11
122.4472710339115
 21
576.4840326987153
 31
0.0
 11
122.1639414268698
 21
576.9282899531846
 31
0.0
 11
121.9155635278184
 21
577.3925782557387
 31
0.0
 11
121.675896081786
 21
577.9261789556294
 31
0.0
 11
121.4698035971368
 21
578.4733952971936
 31
0.0
 11
121.2804045502848
 21
579.07926424679
 31
0.0
 11
121.1231706274028
 21
579.6941371599239
 31
0.0
 11
120.9890943021681
 21
580.3533638991022
 31
0.0
 11
120.886080287561
 21
581.0180830944771
 31
0.0
 11
120.8107041885498
 21
581.7103752965152
 31
0.0
 11
120.7657081102624
 21
582.4052726890252
 31
0.0
 11
120.7544016528144
 21
582.7573958677208
 31
0.0
 11
120.7506328336651
 21
583.1095190464167
 31
0.0
  0
SPLINE
  5
86
330
36
100
AcDbEntity
  8
1
  6
Continuous
 62
     7
100
AcDbSpline
210
0.0
220
0.0
230
1.0
 70
     8
 71
     3
 72
    27
 73
    23
 74
    21
 42
0.0000000001
 43
0.0000000001
 44
0.00000001
 40
0.0
 40
0.0
 40
0.0
 40
0.0
 40
0.5635691001448702
 40
1.127238547420767
 40
2.238983728981836
 40
3.350752149449672
 40
4.416730887346397
 40
5.482762962671124
 40
6.474560131479102
 40
7.466461879568617
 40
8.358933073512366
 40
9.251594001144261
 40
10.02462149562873
 40
10.79808401854377
 40
11.43923200047938
 40
12.08113211738021
 40
12.59132661970798
 40
13.10432937237304
 40
13.50843919479957
 40
13.91674531799507
 40
14.27825505646393
 40
14.63976479493282
 40
14.63976479493282
 40
14.63976479493282
 40
14.63976479493282
 10
128.7506328336651
 20
552.1095190464177
 30
0.0
 10
128.749902960859
 20
552.2973768814784
 30
0.0
 10
128.7484430852882
 20
552.6731260009051
 30
0.0
 10
128.7330625657948
 20
553.4193250545069
 30
0.0
 10
128.6957554803848
 20
554.3477475895377
 30
0.0
 10
128.6218227023091
 20
555.4418988760672
 30
0.0
 10
128.5179448707534
 20
556.5183006312024
 30
0.0
 10
128.3876367326231
 20
557.5515606047624
 30
0.0
 10
128.2278606966456
 20
558.5556717910423
 30
0.0
 10
128.0456005340163
 20
559.4971445780657
 30
0.0
 10
127.8345405363239
 20
560.3986545978913
 30
0.0
 10
127.6065135398922
 20
561.220669028301
 30
0.0
 10
127.3502375871141
 20
561.9925741414933
 30
0.0
 10
127.0840012486735
 20
562.6720426248047
 30
0.0
 10
126.7896571317751
 20
563.2916346626242
 30
0.0
 10
126.4929011355923
 20
563.8116561570313
 30
0.0
 10
126.1671253503913
 20
564.2622520853159
 30
0.0
 10
125.843372879321
 20
564.6130469311535
 30
0.0
 10
125.4894853703048
 20
564.8833008837444
 30
0.0
 10
125.1280928492605
 20
565.0400423505648
 30
0.0
 10
124.7494954019315
 20
565.1109399426135
 30
0.0
 10
124.5120870857472
 20
565.0576111507206
 30
0.0
 10
124.3933829276551
 20
565.0309467547743
 30
0.0
 11
128.7506328336651
 21
552.1095190464177
 31
0.0
 11
128.7468725950698
 21
552.6730756019149
 31
0.0
 11
128.7355918792841
 21
553.2366321574119
 31
0.0
 11
128.6907028471487
 21
554.3474707251247
 31
0.0
 11
128.6153742261377
 21
555.4566842391093
 31
0.0
 11
128.5127816091558
 21
556.5177145989901
 31
0.0
 11
128.3786444707389
 21
557.5752738709548
 31
0.0
 11
128.2224220704238
 21
558.5546901183672
 31
0.0
 11
128.0327038203508
 21
559.5282793867202
 31
0.0
 11
127.828694197607
 21
560.3971205148025
 31
0.0
 11
127.5882287868172
 21
561.2567831916324
 31
0.0
 11
127.343856345816
 21
561.9901682319135
 31
0.0
 11
127.0588367179444
 21
562.7092009753139
 31
0.0
 11
126.7826016685836
 21
563.2877897172065
 31
0.0
 11
126.4603178721179
 21
563.8429193548705
 31
0.0
 11
126.1597432433191
 21
564.2551733090394
 31
0.0
 11
125.8071450319866
 21
564.6277941962787
 31
0.0
 11
125.4823946695507
 21
564.8682977319687
 31
0.0
 11
125.1078827396748
 21
565.0309467547742
 31
0.0
 11
124.750632833665
 21
565.0862802497279
 31
0.0
 11
124.3933829276551
 21
565.0309467547743
 31
0.0
  0
SPLINE
  5
87
330
36
100
AcDbEntity
  8
1
  6
Continuous
 62
     7
100
AcDbSpline
210
0.0
220
0.0
230
1.0
 70
     8
 71
     3
 72
    25
 73
    21
 74
    19
 42
0.0000000001
 43
0.0000000001
 44
0.00000001
 40
0.0
 40
0.0
 40
0.0
 40
0.0
 40
0.4083061231954304
 40
0.8124159456219563
 40
1.325418698287093
 40
1.835613200614847
 40
2.477513317515688
 40
3.118661299451326
 40
3.892123822366514
 40
4.665151316850876
 40
5.557812244482775
 40
6.450283438426524
 40
7.44218518651592
 40
8.433982355323993
 40
9.500014430648712
 40
10.56599316854544
 40
11.67776158901317
 40
12.78950677057435
 40
13.35317621785138
 40
13.9167453179975
 40
13.9167453179975
 40
13.9167453179975
 40
13.9167453179975
 10
124.3933829276551
 20
565.0309467547743
 30
0.0
 10
124.2652346912757
 20
564.9829108455149
 30
0.0
 10
124.0102552414865
 20
564.8873327083581
 30
0.0
 10
123.65842317264
 20
564.6116447410328
 30
0.0
 10
123.3339863539333
 20
564.2626591208759
 30
0.0
 10
123.0084176515526
 20
563.8115157229474
 30
0.0
 10
122.7115930702342
 20
563.2916755486502
 30
0.0
 10
122.4172695204521
 20
562.6720291370694
 30
0.0
 10
122.1510266147648
 20
561.9925780157397
 30
0.0
 10
121.8947525880772
 20
561.2206678104975
 30
0.0
 10
121.6667250006651
 20
560.3986549424761
 30
0.0
 10
121.4556651725852
 20
559.4971444742424
 30
0.0
 10
121.2734049597239
 20
558.5556718200186
 30
0.0
 10
121.113628937889
 20
557.5515605963498
 30
0.0
 10
120.9833207956993
 20
556.5183006335217
 30
0.0
 10
120.8794429652676
 20
555.4418988754151
 30
0.0
 10
120.8055101868763
 20
554.3477475897192
 30
0.0
 10
120.7682031015438
 20
553.4193250544837
 30
0.0
 10
120.7528225820402
 20
552.6731260009078
 30
0.0
 10
120.7513627064706
 20
552.2973768814779
 30
0.0
 10
120.750632833665
 20
552.1095190464154
 30
0.0
 11
124.3933829276551
 21
565.0309467547743
 31
0.0
 11
124.0188709977793
 21
564.8682977319688
 31
0.0
 11
123.6941206353434
 21
564.6277941962788
 31
0.0
 11
123.3415224240109
 21
564.2551733090394
 31
0.0
 11
123.0409477952121
 21
563.8429193548705
 31
0.0
 11
122.7186639987464
 21
563.2877897172065
 31
0.0
 11
122.4424289493856
 21
562.7092009753139
 31
0.0
 11
122.1574093215138
 21
561.9901682319133
 31
0.0
 11
121.9130368805126
 21
561.2567831916324
 31
0.0
 11
121.6725714697228
 21
560.3971205148025
 31
0.0
 11
121.468561846979
 21
559.5282793867202
 31
0.0
 11
121.278843596906
 21
558.5546901183673
 31
0.0
 11
121.122621196591
 21
557.5752738709548
 31
0.0
 11
120.9884840581743
 21
556.5177145989901
 31
0.0
 11
120.8858914411923
 21
555.4566842391093
 31
0.0
 11
120.8105628201812
 21
554.3474707251248
 31
0.0
 11
120.7656737880459
 21
553.2366321574119
 31
0.0
 11
120.7543930722602
 21
552.6730756019138
 31
0.0
 11
120.750632833665
 21
552.1095190464154
 31
0.0
  0
ARC
  5
88
330
36
100
AcDbEntity
  8
1
  6
Continuous
 62
     7
100
AcDbCircle
 10
140.0506328336652
 20
279.5595190464144
 30
0.0
 40
0.1999999999999886
100
AcDbArc
 50
-90.0
 51
0.0
  0
ARC
  5
89
330
36
100
AcDbEntity
  8
1
  6
Continuous
 62
     7
100
AcDbCircle
 10
109.4506328336654
 20
279.5595190464144
 30
0.0
 40
0.2000000000002018
100
AcDbArc
 50
180.0
 51
-90.0
  0
ARC
  5
8A
330
36
100
AcDbEntity
  8
1
  6
Continuous
 62
     7
100
AcDbCircle
 10
405.7325421464238
 20
289.2792194751743
 30
0.0
 40
1.00000000000028
100
AcDbArc
 50
113.1688797851087
 51
180.0
  0
ARC
  5
8B
330
36
100
AcDbEntity
  8
1
  6
Continuous
 62
     7
100
AcDbCircle
 10
403.5868812188937
 20
294.8878649848964
 30
0.0
 40
5.000000000000036
100
AcDbArc
 50
-66.5872805163913
 51
-47.37714539218382
  0
ARC
  5
8C
330
36
100
AcDbEntity
  8
1
  6
Continuous
 62
     7
100
AcDbCircle
 10
403.5868812188937
 20
297.8311731079321
 30
0.0
 40
4.999999999999959
100
AcDbArc
 50
47.3771453921847
 51
66.5872805163913
  0
ARC
  5
8D
330
36
100
AcDbEntity
  8
1
  6
Continuous
 62
     7
100
AcDbCircle
 10
404.5325421464239
 20
279.5595190464144
 30
0.0
 40
0.1999999999999886
100
AcDbArc
 50
-90.0
 51
0.0
  0
ARC
  5
8E
330
36
100
AcDbEntity
  8
1
  6
Continuous
 62
     7
100
AcDbCircle
 10
373.9325421464241
 20
279.5595190464144
 30
0.0
 40
0.2000000000001023
100
AcDbArc
 50
180.0
 51
-90.0
  0
ARC
  5
8F
330
36
100
AcDbEntity
  8
1
  6
Continuous
 62
     7
100
AcDbCircle
 10
372.7325421464238
 20
285.0271065304209
 30
0.0
 40
1.0
100
AcDbArc
 50
0.0
 51
81.51555025862012
  0
ARC
  5
90
330
36
100
AcDbEntity
  8
1
  6
Continuous
 62
     7
100
AcDbCircle
 10
359.8782030739537
 20
294.8878649848969
 30
0.0
 40
5.000000000000014
100
AcDbArc
 50
-132.6228546078333
 51
-113.4127194836093
  0
ARC
  5
91
330
36
100
AcDbEntity
  8
1
  6
Continuous
 62
     7
100
AcDbCircle
 10
359.8782030739546
 20
297.8311731079323
 30
0.0
 40
4.999999999999975
100
AcDbArc
 50
113.4127194836055
 51
132.6228546078029
  0
ENDBLK
  5
38
330
36
100
AcDbEntity
  8
0
100
AcDbBlockEnd
  0
BLOCK
  5
3B
330
39
100
AcDbEntity
  8
0
100
AcDbBlockBegin
  2
81-100X-M21
 70
     0
 71
     0
 10
138.6170101455298
 20
99.15480492396623
 30
0.0
  3
81-100X-M21
  1

  0
INSERT
  5
3A
330
39
100
AcDbEntity
  8
0
100
AcDbBlockReference
  2
81-100K
 10
227.2986257495253
 20
428.7016405398452
 30
0.0
  0
ENDBLK
  5
3C
330
39
100
AcDbEntity
  8
0
100
AcDbBlockEnd
  0
BLOCK
  5
3E
330
3D
100
AcDbEntity
  8
0
100
AcDbBlockBegin
  2
A105-0
 70
     0
 71
     0
 10
592.3531106193932
 20
296.1981759312904
 30
0.0
  3
A105-0
  1

  0
LINE
  5
92
330
3D
100
AcDbEntity
  8
1
  6
Continuous
 62
     7
100
AcDbLine
 10
401.6336760474788
 20
279.3595190464144
 30
0.0
 11
401.8053692686571
 21
273.9511825793025
 31
0.0
  0
LINE
  5
93
330
3D
100
AcDbEntity
  8
1
  6
Continuous
 62
     7
100
AcDbLine
 10
133.2511526213984
 20
549.0702756154884
 30
0.0
 11
136.4553451124011
 21
533.9028263567935
 31
0.0
  0
LINE
  5
94
330
3D
100
AcDbEntity
  8
1
  6
Continuous
 62
     7
100
AcDbLine
 10
113.0459205549291
 20
533.9028263567935
 30
0.0
 11
116.2501130459318
 21
549.0702756154884
 31
0.0
  0
LINE
  5
95
330
3D
100
AcDbEntity
  8
1
  6
Continuous
 62
     7
100
AcDbLine
 10
133.5006328336651
 20
589.7891831556834
 30
0.0
 11
133.5006328336651
 21
606.1095190464154
 31
0.0
  0
LINE
  5
96
330
3D
100
AcDbEntity
  8
1
  6
Continuous
 62
     7
100
AcDbLine
 10
116.0006328336651
 20
606.1095190464154
 30
0.0
 11
116.000632833665
 21
589.7891831556834
 31
0.0
  0
LINE
  5
97
330
3D
100
AcDbEntity
  8
1
  6
Continuous
 62
     7
100
AcDbLine
 10
115.2506328336651
 20
626.6095190464154
 30
0.0
 11
134.2506328336651
 21
626.6095190464154
 31
0.0
  0
LINE
  5
98
330
3D
100
AcDbEntity
  8
1
  6
Continuous
 62
     7
100
AcDbLine
 10
147.2506328336651
 20
610.1095190464154
 30
0.0
 11
102.2506328336651
 21
610.1095190464154
 31
0.0
  0
LINE
  5
99
330
3D
100
AcDbEntity
  8
1
  6
Continuous
 62
     7
100
AcDbLine
 10
101.7506328336651
 20
612.6095190464154
 30
0.0
 11
101.7506328336651
 21
610.6095190464154
 31
0.0
  0
LINE
  5
9A
330
3D
100
AcDbEntity
  8
1
  6
Continuous
 62
     7
100
AcDbLine
 10
101.7506328336651
 20
612.6095190464154
 30
0.0
 11
147.7506328336651
 21
612.6095190464154
 31
0.0
  0
LINE
  5
9B
330
3D
100
AcDbEntity
  8
1
  6
Continuous
 62
     2
100
AcDbLine
 10
114.2506328336651
 20
612.6095190464154
 30
0.0
 11
115.2506328336651
 21
614.3415698539844
 31
0.0
  0
LINE
  5
9C
330
3D
100
AcDbEntity
  8
1
  6
Continuous
 62
     7
100
AcDbLine
 10
115.2506328336651
 20
626.6095190464154
 30
0.0
 11
114.2506328336651
 21
625.6095190464154
 31
0.0
  0
LINE
  5
9D
330
3D
100
AcDbEntity
  8
1
  6
Continuous
 62
     7
100
AcDbLine
 10
114.2506328336651
 20
612.6095190464154
 30
0.0
 11
114.2506328336651
 21
625.6095190464154
 31
0.0
  0
LINE
  5
9E
330
3D
100
AcDbEntity
  8
1
  6
Continuous
 62
     2
100
AcDbLine
 10
115.2506328336651
 20
614.3415698539844
 30
0.0
 11
115.2506328336651
 21
626.6095190464154
 31
0.0
  0
LINE
  5
9F
330
3D
100
AcDbEntity
  8
1
  6
Continuous
 62
     7
100
AcDbLine
 10
147.7506328336651
 20
612.6095190464154
 30
0.0
 11
147.7506328336651
 21
610.6095190464154
 31
0.0
  0
LINE
  5
A0
330
3D
100
AcDbEntity
  8
1
  6
Continuous
 62
     7
100
AcDbLine
 10
135.2506328336651
 20
625.6095190464154
 30
0.0
 11
134.2506328336651
 21
626.6095190464154
 31
0.0
  0
LINE
  5
A1
330
3D
100
AcDbEntity
  8
1
  6
Continuous
 62
     2
100
AcDbLine
 10
134.2506328336651
 20
626.6095190464154
 30
0.0
 11
134.2506328336651
 21
614.3415698539844
 31
0.0
  0
LINE
  5
A2
330
3D
100
AcDbEntity
  8
1
  6
Continuous
 62
     2
100
AcDbLine
 10
134.2506328336651
 20
614.3415698539844
 30
0.0
 11
135.2506328336651
 21
612.6095190464154
 31
0.0
  0
LINE
  5
A3
330
3D
100
AcDbEntity
  8
1
  6
Continuous
 62
     7
100
AcDbLine
 10
135.2506328336651
 20
625.6095190464154
 30
0.0
 11
135.2506328336651
 21
612.6095190464154
 31
0.0
  0
LINE
  5
A4
330
3D
100
AcDbEntity
  8
1
  6
Continuous
 62
     7
100
AcDbLine
 10
114.2506328336651
 20
614.3415698539844
 30
0.0
 11
135.2506328336651
 21
614.3415698539844
 31
0.0
  0
LINE
  5
A5
330
3D
100
AcDbEntity
  8
1
  6
Continuous
 62
     7
100
AcDbLine
 10
114.2506328336651
 20
625.6095190464154
 30
0.0
 11
135.2506328336651
 21
625.6095190464154
 31
0.0
  0
LINE
  5
A6
330
3D
100
AcDbEntity
  8
1
  6
Continuous
 62
     7
100
AcDbLine
 10
137.7506328336651
 20
241.7194641017741
 30
0.0
 11
137.7506328336651
 21
241.5915698539832
 31
0.0
  0
LINE
  5
A7
330
3D
100
AcDbEntity
  8
1
  6
Continuous
 62
     2
100
AcDbLine
 10
136.7506328336651
 20
239.8595190464145
 30
0.0
 11
136.7506328336651
 21
239.3595190464146
 31
0.0
  0
LINE
  5
A8
330
3D
100
AcDbEntity
  8
1
  6
Continuous
 62
     7
100
AcDbLine
 10
137.7506328336651
 20
241.5915698539832
 30
0.0
 11
137.7506328336651
 21
239.3595190464146
 31
0.0
  0
LINE
  5
A9
330
3D
100
AcDbEntity
  8
1
  6
Continuous
 62
     2
100
AcDbLine
 10
136.7506328336651
 20
239.8595190464145
 30
0.0
 11
137.7506328336651
 21
241.5915698539832
 31
0.0
  0
LINE
  5
AA
330
3D
100
AcDbEntity
  8
1
  6
Continuous
 62
     7
100
AcDbLine
 10
137.7506328336651
 20
241.7194641017741
 30
0.0
 11
136.771827116484
 21
245.145284111907
 31
0.0
  0
LINE
  5
AB
330
3D
100
AcDbEntity
  8
1
  6
Continuous
 62
     2
100
AcDbLine
 10
112.7506328336651
 20
239.3595190464146
 30
0.0
 11
112.7506328336651
 21
239.8595190464145
 31
0.0
  0
LINE
  5
AC
330
3D
100
AcDbEntity
  8
1
  6
Continuous
 62
     7
100
AcDbLine
 10
137.7506328336651
 20
239.8595190464145
 30
0.0
 11
111.7506328336651
 21
239.8595190464145
 31
0.0
  0
LINE
  5
AD
330
3D
100
AcDbEntity
  8
1
  6
Continuous
 62
     2
100
AcDbLine
 10
111.7506328336651
 20
241.5915698539832
 30
0.0
 11
112.7506328336651
 21
239.8595190464145
 31
0.0
  0
LINE
  5
AE
330
3D
100
AcDbEntity
  8
1
  6
Continuous
 62
     7
100
AcDbLine
 10
111.7506328336651
 20
239.3595190464146
 30
0.0
 11
111.7506328336651
 21
241.5915698539832
 31
0.0
  0
LINE
  5
AF
330
3D
100
AcDbEntity
  8
1
  6
Continuous
 62
     7
100
AcDbLine
 10
112.7294385508457
 20
245.145284111907
 30
0.0
 11
111.7506328336651
 21
241.7194641017741
 31
0.0
  0
LINE
  5
B0
330
3D
100
AcDbEntity
  8
1
  6
Continuous
 62
     7
100
AcDbLine
 10
111.7506421638341
 20
257.3439439281368
 30
0.0
 11
112.4580556340171
 21
279.6274682388455
 31
0.0
  0
LINE
  5
B1
330
3D
100
AcDbEntity
  8
1
  6
Continuous
 62
     7
100
AcDbLine
 10
137.0432100333139
 20
279.6274682388455
 30
0.0
 11
137.7506235034961
 21
257.3439439281368
 31
0.0
  0
LINE
  5
B2
330
3D
100
AcDbEntity
  8
1
  6
Continuous
 62
     7
100
AcDbLine
 10
376.6500339891154
 20
273.6462299744268
 30
0.0
 11
376.8314082453691
 21
279.3595190464144
 31
0.0
  0
LINE
  5
B3
330
3D
100
AcDbEntity
  8
1
  6
Continuous
 62
     7
100
AcDbLine
 10
341.2325421464238
 20
241.5915698539832
 30
0.0
 11
341.2325421464238
 21
241.7194641017744
 31
0.0
  0
LINE
  5
B4
330
3D
100
AcDbEntity
  8
1
  6
Continuous
 62
     2
100
AcDbLine
 10
342.2325421464238
 20
238.3595190464144
 30
0.0
 11
342.2325421464238
 21
239.8595190464144
 31
0.0
  0
LINE
  5
B5
330
3D
100
AcDbEntity
  8
1
  6
Continuous
 62
     2
100
AcDbLine
 10
366.2325421464238
 20
239.8595190464144
 30
0.0
 11
366.2325421464238
 21
238.3595190464144
 31
0.0
  0
LINE
  5
B6
330
3D
100
AcDbEntity
  8
1
  6
Continuous
 62
     2
100
AcDbLine
 10
366.2325421464238
 20
239.8595190464144
 30
0.0
 11
367.2325421464238
 21
241.5915698539832
 31
0.0
  0
LINE
  5
B7
330
3D
100
AcDbEntity
  8
1
  6
Continuous
 62
     7
100
AcDbLine
 10
366.2325421464238
 20
239.8595190464144
 30
0.0
 11
367.2325421464238
 21
239.8595190464144
 31
0.0
  0
LINE
  5
B8
330
3D
100
AcDbEntity
  8
1
  6
Continuous
 62
     7
100
AcDbLine
 10
341.2325421464238
 20
239.8595190464144
 30
0.0
 11
366.2325421464238
 21
239.8595190464144
 31
0.0
  0
LINE
  5
B9
330
3D
100
AcDbEntity
  8
1
  6
Continuous
 62
     2
100
AcDbLine
 10
341.2325421464238
 20
241.5915698539832
 30
0.0
 11
342.2325421464238
 21
239.8595190464144
 31
0.0
  0
LINE
  5
BA
330
3D
100
AcDbEntity
  8
1
  6
Continuous
 62
     7
100
AcDbLine
 10
367.2325421464238
 20
241.7194641017744
 30
0.0
 11
367.2325421464238
 21
241.5915698539832
 31
0.0
  0
LINE
  5
BB
330
3D
100
AcDbEntity
  8
1
  6
Continuous
 62
     7
100
AcDbLine
 10
431.7325421464238
 20
270.1095190464144
 30
0.0
 11
431.7325421464238
 21
279.8595190464144
 31
0.0
  0
LINE
  5
BC
330
3D
100
AcDbEntity
  8
1
  6
Continuous
 62
     7
100
AcDbLine
 10
434.2325421464238
 20
280.3595190464144
 30
0.0
 11
432.2325421464238
 21
280.3595190464144
 31
0.0
  0
LINE
  5
BD
330
3D
100
AcDbEntity
  8
1
  6
Continuous
 62
     7
100
AcDbLine
 10
434.2325421464238
 20
280.3595190464144
 30
0.0
 11
434.2325421464238
 21
267.8595190464144
 31
0.0
  0
LINE
  5
BE
330
3D
100
AcDbEntity
  8
1
  6
Continuous
 62
     2
100
AcDbLine
 10
434.2325421464238
 20
267.8595190464144
 30
0.0
 11
435.9645929539929
 21
266.8595190464144
 31
0.0
  0
LINE
  5
BF
330
3D
100
AcDbEntity
  8
1
  6
Continuous
 62
     7
100
AcDbLine
 10
448.2325421464238
 20
266.8595190464144
 30
0.0
 11
447.2325421464238
 21
267.8595190464144
 31
0.0
  0
LINE
  5
C0
330
3D
100
AcDbEntity
  8
1
  6
Continuous
 62
     7
100
AcDbLine
 10
435.9645929539929
 20
266.8595190464144
 30
0.0
 11
435.9645929539929
 21
267.8595190464144
 31
0.0
  0
LINE
  5
C1
330
3D
100
AcDbEntity
  8
1
  6
Continuous
 62
     7
100
AcDbLine
 10
434.2325421464238
 20
267.8595190464144
 30
0.0
 11
447.2325421464238
 21
267.8595190464144
 31
0.0
  0
LINE
  5
C2
330
3D
100
AcDbEntity
  8
1
  6
Continuous
 62
     2
100
AcDbLine
 10
435.9645929539929
 20
266.8595190464144
 30
0.0
 11
448.2325421464238
 21
266.8595190464144
 31
0.0
  0
LINE
  5
C3
330
3D
100
AcDbEntity
  8
1
  6
Continuous
 62
     7
100
AcDbLine
 10
434.2325421464238
 20
267.8595190464144
 30
0.0
 11
434.2325421464238
 21
234.3595190464144
 31
0.0
  0
LINE
  5
C4
330
3D
100
AcDbEntity
  8
1
  6
Continuous
 62
     7
100
AcDbLine
 10
434.2325421464238
 20
234.3595190464144
 30
0.0
 11
432.2325421464238
 21
234.3595190464144
 31
0.0
  0
LINE
  5
C5
330
3D
100
AcDbEntity
  8
1
  6
Continuous
 62
     7
100
AcDbLine
 10
431.7325421464238
 20
270.1095190464144
 30
0.0
 11
431.7325421464238
 21
234.8595190464144
 31
0.0
  0
LINE
  5
C6
330
3D
100
AcDbEntity
  8
1
  6
Continuous
 62
     7
100
AcDbLine
 10
435.9645929539929
 20
246.8595190464145
 30
0.0
 11
435.9645929539929
 21
266.8595190464144
 31
0.0
  0
LINE
  5
C7
330
3D
100
AcDbEntity
  8
1
  6
Continuous
 62
     7
100
AcDbLine
 10
447.2325421464238
 20
246.8595190464145
 30
0.0
 11
448.2325421464238
 21
247.8595190464144
 31
0.0
  0
LINE
  5
C8
330
3D
100
AcDbEntity
  8
1
  6
Continuous
 62
     2
100
AcDbLine
 10
448.2325421464238
 20
247.8595190464144
 30
0.0
 11
435.9645929539929
 21
247.8595190464144
 31
0.0
  0
LINE
  5
C9
330
3D
100
AcDbEntity
  8
1
  6
Continuous
 62
     2
100
AcDbLine
 10
435.9645929539929
 20
247.8595190464144
 30
0.0
 11
434.2325421464238
 21
246.8595190464145
 31
0.0
  0
LINE
  5
CA
330
3D
100
AcDbEntity
  8
1
  6
Continuous
 62
     7
100
AcDbLine
 10
447.2325421464238
 20
246.8595190464145
 30
0.0
 11
434.2325421464238
 21
246.8595190464145
 31
0.0
  0
LINE
  5
CB
330
3D
100
AcDbEntity
  8
1
  6
Continuous
 62
     7
100
AcDbLine
 10
448.2325421464238
 20
266.8595190464144
 30
0.0
 11
448.2325421464238
 21
247.8595190464144
 31
0.0
  0
LINE
  5
CC
330
3D
100
AcDbEntity
  8
1
  6
Continuous
 62
     7
100
AcDbLine
 10
367.2325421464238
 20
241.5915698539832
 30
0.0
 11
367.2325421464238
 21
238.3595190464144
 31
0.0
  0
LINE
  5
CD
330
3D
100
AcDbEntity
  8
1
  6
Continuous
 62
     7
100
AcDbLine
 10
366.2136889635449
 20
245.2854502418521
 30
0.0
 11
367.2325421464238
 21
241.7194641017744
 31
0.0
  0
LINE
  5
CE
330
3D
100
AcDbEntity
  8
1
  6
Continuous
 62
     7
100
AcDbLine
 10
370.8002335552569
 20
248.8595190464144
 30
0.0
 11
369.974016036451
 21
248.8595190464144
 31
0.0
  0
LINE
  5
CF
330
3D
100
AcDbEntity
  8
1
  6
Continuous
 62
     7
100
AcDbLine
 10
411.4122062556921
 20
248.609519046414
 30
0.0
 11
427.7325421464238
 21
248.6095190464144
 31
0.0
  0
LINE
  5
D0
330
3D
100
AcDbEntity
  8
1
  6
Continuous
 62
     7
100
AcDbLine
 10
427.7325421464238
 20
266.1095190464144
 30
0.0
 11
411.412206255693
 21
266.1095190464147
 31
0.0
  0
LINE
  5
D1
330
3D
100
AcDbEntity
  8
1
  6
Continuous
 62
     7
100
AcDbLine
 10
342.2113478636052
 20
245.1452841119072
 30
0.0
 11
341.2325421464238
 21
241.7194641017744
 31
0.0
  0
LINE
  5
D2
330
3D
100
AcDbEntity
  8
0
  6
Continuous
 62
     7
100
AcDbLine
 10
341.2325421464238
 20
241.7194641017744
 30
0.0
 11
341.2325421464238
 21
238.3595190464144
 31
0.0
  0
ARC
  5
D3
330
3D
100
AcDbEntity
  8
1
  6
Continuous
 62
     7
100
AcDbCircle
 10
108.7506328336652
 20
567.6095190464154
 30
0.0
 40
29.00000000000014
100
AcDbArc
 50
-27.43924015068116
 51
-22.59824575894724
  0
ARC
  5
D4
330
3D
100
AcDbEntity
  8
1
  6
Continuous
 62
     7
100
AcDbCircle
 10
124.7506328336651
 20
532.6095190464152
 30
0.0
 40
13.00000000000007
100
AcDbArc
 50
142.4250638103305
 51
37.57493618966918
  0
ARC
  5
D5
330
3D
100
AcDbEntity
  8
1
  6
Continuous
 62
     7
100
AcDbCircle
 10
140.7506328336651
 20
567.6095190464154
 30
0.0
 40
29.00000000000006
100
AcDbArc
 50
-157.4017542410529
 51
-152.5607598493187
  0
ARC
  5
D6
330
3D
100
AcDbEntity
  8
1
  6
Continuous
 62
     7
100
AcDbCircle
 10
112.0006328336651
 20
606.1095190464154
 30
0.0
 40
4.0
100
AcDbArc
 50
0.0
 51
90.0
  0
ARC
  5
D7
330
3D
100
AcDbEntity
  8
1
  6
Continuous
 62
     7
100
AcDbCircle
 10
137.5006328336651
 20
606.1095190464154
 30
0.0
 40
4.0
100
AcDbArc
 50
90.0
 51
180.0
  0
ARC
  5
D8
330
3D
100
AcDbEntity
  8
1
  6
Continuous
 62
     7
100
AcDbCircle
 10
136.4550634076571
 20
241.5266206633495
 30
0.0
 40
24.00000000000147
100
AcDbArc
 50
152.1298826058547
 51
171.3280051740373
  0
ARC
  5
D9
330
3D
100
AcDbEntity
  8
1
  6
Continuous
 62
     7
100
AcDbCircle
 10
106.3987384149532
 20
257.4205606384802
 30
0.0
 40
9.999999999999917
100
AcDbArc
 50
-27.87011739414618
 51
-0.19057502307807
  0
ARC
  5
DA
330
3D
100
AcDbEntity
  8
1
  6
Continuous
 62
     7
100
AcDbCircle
 10
124.7506328336651
 20
257.3595190464144
 30
0.0
 40
8.351995935906132
100
AcDbArc
 50
90.0
 51
179.8094249769221
  0
ARC
  5
DB
330
3D
100
AcDbEntity
  8
1
  6
Continuous
 62
     7
100
AcDbCircle
 10
113.0462022596726
 20
241.5266206633495
 30
0.0
 40
24.00000000000151
100
AcDbArc
 50
8.67199482596269
 51
27.87011739414515
  0
ARC
  5
DC
330
3D
100
AcDbEntity
  8
1
  6
Continuous
 62
     7
100
AcDbCircle
 10
143.1025272523769
 20
257.4205606384802
 30
0.0
 40
9.999999999999757
100
AcDbArc
 50
-179.8094249769219
 51
-152.1298826058546
  0
ARC
  5
DD
330
3D
100
AcDbEntity
  8
1
  6
Continuous
 62
     7
100
AcDbCircle
 10
124.7506328336651
 20
257.3595190464144
 30
0.0
 40
8.351995935906155
100
AcDbArc
 50
0.19057502307793
 51
90.0
  0
ARC
  5
DE
330
3D
100
AcDbEntity
  8
0
  6
Continuous
 62
     7
100
AcDbCircle
 10
124.7506328336651
 20
257.3595190464144
 30
0.0
 40
23.00000000000002
100
AcDbArc
 50
122.5778011728606
 51
-126.8963750032389
  0
ARC
  5
DF
330
3D
100
AcDbEntity
  8
1
  6
Continuous
 62
     7
100
AcDbCircle
 10
124.7506328336651
 20
257.3595190464144
 30
0.0
 40
13.00000000000009
100
AcDbArc
 50
-179.9313547110605
 51
-145.6899072066106
  0
ARC
  5
E0
330
3D
100
AcDbEntity
  8
1
  6
Continuous
 62
     7
100
AcDbCircle
 10
124.7506328336651
 20
257.3595190464144
 30
0.0
 40
13.00000000000004
100
AcDbArc
 50
-34.3100927933891
 51
-0.06864528893948
  0
ARC
  5
E1
330
3D
100
AcDbEntity
  8
0
  6
Continuous
 62
     7
100
AcDbCircle
 10
124.7506328336651
 20
257.3595190464144
 30
0.0
 40
22.99999999999986
100
AcDbArc
 50
-53.10362499676133
 51
0.0
  0
ARC
  5
E2
330
3D
100
AcDbEntity
  8
0
  6
Continuous
 62
     7
100
AcDbCircle
 10
124.7506328336651
 20
257.3595190464144
 30
0.0
 40
22.99999999999992
100
AcDbArc
 50
0.0
 51
57.42219882713913
  0
ARC
  5
E3
330
3D
100
AcDbEntity
  8
1
  6
Continuous
 62
     7
100
AcDbCircle
 10
411.4122062556849
 20
297.1095190459335
 30
0.0
 40
30.99999999951887
100
AcDbArc
 50
-91.92633614022151
 51
-89.99999999998509
  0
ARC
  5
E4
330
3D
100
AcDbEntity
  8
1
  6
Continuous
 62
     7
100
AcDbCircle
 10
367.7827176414971
 20
274.8169992904401
 30
0.0
 40
9.00000000000367
100
AcDbArc
 50
-87.805954900225
 51
-14.65687110541037
  0
ARC
  5
E5
330
3D
100
AcDbEntity
  8
1
  6
Continuous
 62
     7
100
AcDbCircle
 10
370.0031869080849
 20
216.859519045955
 30
0.0
 40
49.0000000004596
100
AcDbArc
 50
92.19404509977855
 51
99.36066212030441
  0
ARC
  5
E6
330
3D
100
AcDbEntity
  8
1
  6
Continuous
 62
     7
100
AcDbCircle
 10
365.9369727204162
 20
241.5266206633494
 30
0.0
 40
24.00000000000208
100
AcDbArc
 50
99.36066212030374
 51
171.3280051740365
  0
ARC
  5
E7
330
3D
100
AcDbEntity
  8
1
  6
Continuous
 62
     7
100
AcDbCircle
 10
427.7325421464238
 20
270.1095190464144
 30
0.0
 40
4.0
100
AcDbArc
 50
-90.0
 51
0.0
  0
ARC
  5
E8
330
3D
100
AcDbEntity
  8
1
  6
Continuous
 62
     7
100
AcDbCircle
 10
427.7325421464238
 20
244.6095190464145
 30
0.0
 40
4.0
100
AcDbArc
 50
0.0
 51
90.0
  0
ARC
  5
E9
330
3D
100
AcDbEntity
  8
1
  6
Continuous
 62
     7
100
AcDbCircle
 10
370.1915767708447
 20
244.8654400127907
 30
0.0
 40
3.999999999997769
100
AcDbArc
 50
93.11786651756698
 51
173.972686104899
  0
ARC
  5
EA
330
3D
100
AcDbEntity
  8
1
  6
Continuous
 62
     7
100
AcDbCircle
 10
389.2325421464238
 20
273.3595190464143
 30
0.0
 40
28.9999999999998
100
AcDbArc
 50
-117.4392401506813
 51
-68.3052839776142
  0
ARC
  5
EB
330
3D
100
AcDbEntity
  8
1
  6
Continuous
 62
     7
100
AcDbCircle
 10
144.2506328336651
 20
549.1772104552484
 30
0.0
 40
10.99999999999985
100
AcDbArc
 50
152.560759849318
 51
-179.4429989537366
  0
ARC
  5
EC
330
3D
100
AcDbEntity
  8
1
  6
Continuous
 62
     7
100
AcDbCircle
 10
105.2506328336651
 20
549.1772104552484
 30
0.0
 40
11.00000000000006
100
AcDbArc
 50
-0.55700104626343
 51
27.43924015068123
  0
ARC
  5
ED
330
3D
100
AcDbEntity
  8
1
  6
Continuous
 62
     7
100
AcDbCircle
 10
85.0006328336649
 20
589.7891831556843
 30
0.0
 40
31.00000000000008
100
AcDbArc
 50
-20.87723537421861
 51
-0.00000000000168
  0
ARC
  5
EE
330
3D
100
AcDbEntity
  8
1
  6
Continuous
 62
     7
100
AcDbCircle
 10
164.5006328336654
 20
589.7891831556843
 30
0.0
 40
31.00000000000031
100
AcDbArc
 50
-179.9999999999983
 51
-159.1227646257822
  0
ARC
  5
EF
330
3D
100
AcDbEntity
  8
1
  6
Continuous
 62
     7
100
AcDbCircle
 10
147.2506328336651
 20
610.6095190464154
 30
0.0
 40
0.5
100
AcDbArc
 50
-90.0
 51
0.0
  0
ARC
  5
F0
330
3D
100
AcDbEntity
  8
1
  6
Continuous
 62
     7
100
AcDbCircle
 10
371.6525516126386
 20
273.8048802086008
 30
0.0
 40
4.999999999999965
100
AcDbArc
 50
-14.65687110541127
 51
-1.8183029644539
  0
ARC
  5
F1
330
3D
100
AcDbEntity
  8
1
  6
Continuous
 62
     7
100
AcDbCircle
 10
406.8028516451338
 20
274.1098328134763
 30
0.0
 40
4.999999999999844
100
AcDbArc
 50
-178.1816970355487
 51
-165.3431288945102
  0
ARC
  5
F2
330
3D
100
AcDbEntity
  8
1
  6
Continuous
 62
     7
100
AcDbCircle
 10
432.2325421464238
 20
279.8595190464144
 30
0.0
 40
0.5
100
AcDbArc
 50
90.0
 51
180.0
  0
ARC
  5
F3
330
3D
100
AcDbEntity
  8
1
  6
Continuous
 62
     7
100
AcDbCircle
 10
432.2325421464238
 20
234.8595190464144
 30
0.0
 40
0.5
100
AcDbArc
 50
180.0
 51
-90.0
  0
ARC
  5
F4
330
3D
100
AcDbEntity
  8
1
  6
Continuous
 62
     7
100
AcDbCircle
 10
370.8002335552569
 20
237.8595190464144
 30
0.0
 40
11.00000000000016
100
AcDbArc
 50
62.56075984931852
 51
90.0
  0
ARC
  5
F5
330
3D
100
AcDbEntity
  8
1
  6
Continuous
 62
     7
100
AcDbCircle
 10
411.412206255693
 20
217.6095190464142
 30
0.0
 40
30.9999999999998
100
AcDbArc
 50
90.00000000000158
 51
111.694716022388
  0
ARC
  5
F6
330
3D
100
AcDbEntity
  8
1
  6
Continuous
 62
     7
100
AcDbCircle
 10
410.6726856162709
 20
275.1219518953205
 30
0.0
 40
8.999999999999794
100
AcDbArc
 50
-165.3431288945087
 51
-91.9263361402033
  0
ENDBLK
  5
3F
330
3D
100
AcDbEntity
  8
0
100
AcDbBlockEnd
  0
BLOCK
  5
41
330
40
100
AcDbEntity
  8
0
100
AcDbBlockBegin
  2
30-111
 70
     0
 71
     0
 10
674.2691652793494
 20
108.4388334304823
 30
0.0
  3
30-111
  1

  0
LINE
  5
F7
330
40
100
AcDbEntity
  8
1
  6
Continuous
 62
     7
100
AcDbLine
 10
196.0307427420105
 20
162.5595190464139
 30
0.0
 11
196.0307427420105
 21
147.759519046414
 31
0.0
  0
LINE
  5
F8
330
40
100
AcDbEntity
  8
1
  6
Continuous
 62
     7
100
AcDbLine
 10
194.9307427420106
 20
145.759519046414
 30
0.0
 11
184.2807427420105
 21
145.759519046414
 31
0.0
  0
LINE
  5
F9
330
40
100
AcDbEntity
  8
1
  6
Continuous
 62
     7
100
AcDbLine
 10
196.0307427420105
 20
162.5595190464139
 30
0.0
 11
195.8307427420106
 21
162.7595190464139
 31
0.0
  0
LINE
  5
FA
330
40
100
AcDbEntity
  8
1
  6
Continuous
 62
     7
100
AcDbLine
 10
172.7307427420116
 20
162.7595190464151
 30
0.0
 11
195.8307427420106
 21
162.7595190464139
 31
0.0
  0
LINE
  5
FB
330
40
100
AcDbEntity
  8
1
  6
Continuous
 62
     7
100
AcDbLine
 10
172.5307427420105
 20
147.759519046414
 30
0.0
 11
172.5307427420105
 21
162.559519046414
 31
0.0
  0
LINE
  5
FC
330
40
100
AcDbEntity
  8
1
  6
Continuous
 62
     7
100
AcDbLine
 10
184.2807427420105
 20
145.759519046414
 30
0.0
 11
173.6307427420104
 21
145.759519046414
 31
0.0
  0
LINE
  5
FD
330
40
100
AcDbEntity
  8
1
  6
Continuous
 62
     7
100
AcDbLine
 10
172.7307427420104
 20
162.759519046414
 30
0.0
 11
172.5307427420105
 21
162.559519046414
 31
0.0
  0
LINE
  5
FE
330
40
100
AcDbEntity
  8
1
  6
Continuous
 62
     7
100
AcDbLine
 10
136.5506328336646
 20
162.5595190464139
 30
0.0
 11
136.5506328336647
 21
147.759519046414
 31
0.0
  0
LINE
  5
FF
330
40
100
AcDbEntity
  8
1
  6
Continuous
 62
     7
100
AcDbLine
 10
135.4506328336648
 20
145.759519046414
 30
0.0
 11
124.8006328336646
 21
145.759519046414
 31
0.0
  0
LINE
  5
100
330
40
100
AcDbEntity
  8
1
  6
Continuous
 62
     7
100
AcDbLine
 10
136.5506328336646
 20
162.5595190464139
 30
0.0
 11
136.3506328336647
 21
162.7595190464139
 31
0.0
  0
LINE
  5
101
330
40
100
AcDbEntity
  8
1
  6
Continuous
 62
     7
100
AcDbLine
 10
113.2506328336657
 20
162.7595190464151
 30
0.0
 11
136.3506328336647
 21
162.7595190464139
 31
0.0
  0
LINE
  5
102
330
40
100
AcDbEntity
  8
1
  6
Continuous
 62
     7
100
AcDbLine
 10
113.0506328336647
 20
147.759519046414
 30
0.0
 11
113.0506328336647
 21
162.559519046414
 31
0.0
  0
LINE
  5
103
330
40
100
AcDbEntity
  8
1
  6
Continuous
 62
     7
100
AcDbLine
 10
124.8006328336646
 20
145.759519046414
 30
0.0
 11
114.1506328336646
 21
145.759519046414
 31
0.0
  0
LINE
  5
104
330
40
100
AcDbEntity
  8
1
  6
Continuous
 62
     7
100
AcDbLine
 10
113.2506328336647
 20
162.759519046414
 30
0.0
 11
113.0506328336647
 21
162.559519046414
 31
0.0
  0
LINE
  5
105
330
40
100
AcDbEntity
  8
1
  6
Continuous
 62
     7
100
AcDbLine
 10
172.5307427420105
 20
147.759519046414
 30
0.0
 11
196.0307427420105
 21
147.759519046414
 31
0.0
  0
LINE
  5
106
330
40
100
AcDbEntity
  8
1
  6
Continuous
 62
     7
100
AcDbLine
 10
172.5307427420105
 20
162.559519046414
 30
0.0
 11
196.0307427420105
 21
162.5595190464139
 31
0.0
  0
LINE
  5
107
330
40
100
AcDbEntity
  8
1
  6
Continuous
 62
     7
100
AcDbLine
 10
113.0506328336647
 20
147.759519046414
 30
0.0
 11
136.5506328336647
 21
147.759519046414
 31
0.0
  0
LINE
  5
108
330
40
100
AcDbEntity
  8
1
  6
Continuous
 62
     7
100
AcDbLine
 10
113.0506328336647
 20
162.559519046414
 30
0.0
 11
136.5506328336646
 21
162.5595190464139
 31
0.0
  0
ARC
  5
109
330
40
100
AcDbEntity
  8
1
  6
Continuous
 62
     7
100
AcDbCircle
 10
181.4969984091711
 20
154.4505784294756
 30
0.0
 40
16.00000000000001
100
AcDbArc
 50
-32.90114381390483
 51
-24.7204436720407
  0
ARC
  5
10A
330
40
100
AcDbEntity
  8
1
  6
Continuous
 62
     7
100
AcDbCircle
 10
187.0644870748498
 20
154.4505784294757
 30
0.0
 40
15.99999999999991
100
AcDbArc
 50
-155.2795563279589
 51
-147.0988561860947
  0
ARC
  5
10B
330
40
100
AcDbEntity
  8
1
  6
Continuous
 62
     7
100
AcDbCircle
 10
122.0168885008252
 20
154.4505784294756
 30
0.0
 40
16.00000000000009
100
AcDbArc
 50
-32.90114381390463
 51
-24.72044367204051
  0
ARC
  5
10C
330
40
100
AcDbEntity
  8
1
  6
Continuous
 62
     7
100
AcDbCircle
 10
127.5843771665041
 20
154.4505784294757
 30
0.0
 40
15.99999999999999
100
AcDbArc
 50
-155.279556327959
 51
-147.0988561860948
  0
ENDBLK
  5
42
330
40
100
AcDbEntity
  8
0
100
AcDbBlockEnd
  0
BLOCK
  5
44
330
43
100
AcDbEntity
  8
0
100
AcDbBlockBegin
  2
60-2-16-170
 70
     0
 71
     0
 10
115.0663081410078
 20
110.9934212164201
 30
0.0
  3
60-2-16-170
  1

  0
LINE
  5
10D
330
43
100
AcDbEntity
  8
1
  6
Continuous
 62
     7
100
AcDbLine
 10
132.7506328336654
 20
521.0625136626229
 30
0.0
 11
132.7506328336654
 21
371.1495488649299
 31
0.0
  0
LINE
  5
10E
330
43
100
AcDbEntity
  8
1
  6
Continuous
 62
     7
100
AcDbLine
 10
116.7506328336654
 20
521.0625136626229
 30
0.0
 11
116.7506328336654
 21
371.1495488649303
 31
0.0
  0
LINE
  5
10F
330
43
100
AcDbEntity
  8
1
  6
Continuous
 62
     7
100
AcDbLine
 10
116.750632833665
 20
168.8595190464145
 30
0.0
 11
116.750632833665
 21
229.3595190464146
 31
0.0
  0
LINE
  5
110
330
43
100
AcDbEntity
  8
1
  6
Continuous
 62
     7
100
AcDbLine
 10
132.7506328336651
 20
168.8595190464145
 30
0.0
 11
132.7506328336651
 21
229.3595190464146
 31
0.0
  0
LINE
  5
111
330
43
100
AcDbEntity
  8
1
  6
Continuous
 62
     7
100
AcDbLine
 10
327.2325421464216
 20
187.8595190464139
 30
0.0
 11
211.230742742011
 21
187.8595190464139
 31
0.0
  0
LINE
  5
112
330
43
100
AcDbEntity
  8
1
  6
Continuous
 62
     7
100
AcDbLine
 10
362.2325421464216
 20
228.3595190464144
 30
0.0
 11
362.2325421464216
 21
222.8595190464139
 31
0.0
  0
LINE
  5
113
330
43
100
AcDbEntity
  8
1
  6
Continuous
 62
     7
100
AcDbLine
 10
346.2325421464216
 20
222.8595190464139
 30
0.0
 11
346.2325421464216
 21
228.3595190464144
 31
0.0
  0
LINE
  5
114
330
43
100
AcDbEntity
  8
1
  6
Continuous
 62
     7
100
AcDbLine
 10
327.2325421464216
 20
203.8595190464139
 30
0.0
 11
211.230742742011
 21
203.8595190464139
 31
0.0
  0
LINE
  5
115
330
43
100
AcDbEntity
  8
1
  6
Continuous
 62
     7
100
AcDbLine
 10
192.2307427420108
 20
167.3595190464139
 30
0.0
 11
192.230742742011
 21
168.8595190464139
 31
0.0
  0
LINE
  5
116
330
43
100
AcDbEntity
  8
1
  6
Continuous
 62
     7
100
AcDbLine
 10
193.2307427420108
 20
167.3595190464139
 30
0.0
 11
175.2307427420108
 21
167.3595190464139
 31
0.0
  0
LINE
  5
117
330
43
100
AcDbEntity
  8
1
  6
Continuous
 62
     7
100
AcDbLine
 10
176.2307427420108
 20
167.3595190464139
 30
0.0
 11
176.230742742011
 21
168.8595190464139
 31
0.0
  0
LINE
  5
118
330
43
100
AcDbEntity
  8
1
  6
Continuous
 62
     7
100
AcDbLine
 10
173.2307427420108
 20
163.8595190464138
 30
0.0
 11
173.2307427420108
 21
162.7595190464151
 31
0.0
  0
LINE
  5
119
330
43
100
AcDbEntity
  8
1
  6
Continuous
 62
     2
100
AcDbLine
 10
173.9077427420108
 20
162.7595190464151
 30
0.0
 11
173.9077427420108
 21
164.3514196226173
 31
0.0
  0
LINE
  5
11A
330
43
100
AcDbEntity
  8
1
  6
Continuous
 62
     7
100
AcDbLine
 10
132.7506328336649
 20
167.3595190464139
 30
0.0
 11
132.7506328336651
 21
168.8595190464145
 31
0.0
  0
LINE
  5
11B
330
43
100
AcDbEntity
  8
1
  6
Continuous
 62
     7
100
AcDbLine
 10
133.7506328336649
 20
167.3595190464139
 30
0.0
 11
115.7506328336649
 21
167.3595190464139
 31
0.0
  0
LINE
  5
11C
330
43
100
AcDbEntity
  8
1
  6
Continuous
 62
     2
100
AcDbLine
 10
135.0736328336648
 20
164.3514196226173
 30
0.0
 11
135.0736328336648
 21
162.759519046414
 31
0.0
  0
LINE
  5
11D
330
43
100
AcDbEntity
  8
1
  6
Continuous
 62
     7
100
AcDbLine
 10
135.7506328336649
 20
162.759519046414
 30
0.0
 11
135.7506328336649
 21
163.8595190464138
 31
0.0
  0
LINE
  5
11E
330
43
100
AcDbEntity
  8
1
  6
Continuous
 62
     7
100
AcDbLine
 10
116.7506328336649
 20
167.3595190464139
 30
0.0
 11
116.750632833665
 21
168.8595190464145
 31
0.0
  0
LINE
  5
11F
330
43
100
AcDbEntity
  8
1
  6
Continuous
 62
     7
100
AcDbLine
 10
113.7506328336649
 20
163.8595190464138
 30
0.0
 11
113.7506328336649
 21
162.7595190464151
 31
0.0
  0
LINE
  5
120
330
43
100
AcDbEntity
  8
1
  6
Continuous
 62
     7
100
AcDbLine
 10
116.7506328336654
 20
366.7365509723024
 30
0.0
 11
116.7506328336654
 21
362.6095190464152
 31
0.0
  0
LINE
  5
121
330
43
100
AcDbEntity
  8
1
  6
Continuous
 62
     7
100
AcDbLine
 10
116.7506328336654
 20
369.136500181777
 30
0.0
 11
116.7506328336654
 21
366.7365509723024
 31
0.0
  0
LINE
  5
122
330
43
100
AcDbEntity
  8
1
  6
Continuous
 62
     7
100
AcDbLine
 10
116.7506328336654
 20
370.1619749473088
 30
0.0
 11
116.7506328336654
 21
369.136500181777
 31
0.0
  0
LINE
  5
123
330
43
100
AcDbEntity
  8
1
  6
Continuous
 62
     7
100
AcDbLine
 10
116.7506328336654
 20
371.1495488649303
 30
0.0
 11
116.7506328336654
 21
370.1619749473088
 31
0.0
  0
LINE
  5
124
330
43
100
AcDbEntity
  8
1
  6
Continuous
 62
     7
100
AcDbLine
 10
132.7506328336654
 20
366.7365509723015
 30
0.0
 11
132.7506328336654
 21
362.6095190464152
 31
0.0
  0
LINE
  5
125
330
43
100
AcDbEntity
  8
1
  6
Continuous
 62
     7
100
AcDbLine
 10
132.7506328336654
 20
369.1365001817764
 30
0.0
 11
132.7506328336654
 21
366.7365509723015
 31
0.0
  0
LINE
  5
126
330
43
100
AcDbEntity
  8
1
  6
Continuous
 62
     7
100
AcDbLine
 10
132.7506328336654
 20
370.1619749473084
 30
0.0
 11
132.7506328336654
 21
369.1365001817764
 31
0.0
  0
LINE
  5
127
330
43
100
AcDbEntity
  8
1
  6
Continuous
 62
     7
100
AcDbLine
 10
132.7506328336654
 20
371.1495488649299
 30
0.0
 11
132.7506328336654
 21
370.1619749473084
 31
0.0
  0
LINE
  5
128
330
43
100
AcDbEntity
  8
1
  6
Continuous
 62
     7
100
AcDbLine
 10
195.2307427420108
 20
162.759519046414
 30
0.0
 11
195.2307427420108
 21
163.8595190464138
 31
0.0
  0
LINE
  5
129
330
43
100
AcDbEntity
  8
1
  6
Continuous
 62
     2
100
AcDbLine
 10
194.5537427420106
 20
164.3514196226173
 30
0.0
 11
194.5537427420106
 21
162.759519046414
 31
0.0
  0
LINE
  5
12A
330
43
100
AcDbEntity
  8
1
  6
Continuous
 62
     7
100
AcDbLine
 10
173.2307427420108
 20
163.8595190464138
 30
0.0
 11
195.2307427420108
 21
163.8595190464138
 31
0.0
  0
LINE
  5
12B
330
43
100
AcDbEntity
  8
1
  6
Continuous
 62
     2
100
AcDbLine
 10
114.4276328336649
 20
162.7595190464151
 30
0.0
 11
114.4276328336649
 21
164.3514196226173
 31
0.0
  0
LINE
  5
12C
330
43
100
AcDbEntity
  8
1
  6
Continuous
 62
     7
100
AcDbLine
 10
113.7506328336649
 20
163.8595190464138
 30
0.0
 11
135.7506328336649
 21
163.8595190464138
 31
0.0
  0
ARC
  5
12D
330
43
100
AcDbEntity
  8
1
  6
Continuous
 62
     7
100
AcDbCircle
 10
124.7506328336651
 20
362.6095190464152
 30
0.0
 40
7.999999999999687
100
AcDbArc
 50
180.0
 51
0.0
  0
ARC
  5
12E
330
43
100
AcDbEntity
  8
1
  6
Continuous
 62
     7
100
AcDbCircle
 10
124.7506328336651
 20
196.8595190464144
 30
0.0
 40
8.0
100
AcDbArc
 50
0.0
 51
180.0
  0
ARC
  5
12F
330
43
100
AcDbEntity
  8
1
  6
Continuous
 62
     7
100
AcDbCircle
 10
211.230742742011
 20
168.8595190464139
 30
0.0
 40
19.0
100
AcDbArc
 50
90.0
 51
180.0
  0
ARC
  5
130
330
43
100
AcDbEntity
  8
1
  6
Continuous
 62
     7
100
AcDbCircle
 10
211.230742742011
 20
168.8595190464139
 30
0.0
 40
35.0
100
AcDbArc
 50
90.0
 51
180.0
  0
ARC
  5
131
330
43
100
AcDbEntity
  8
1
  6
Continuous
 62
     7
100
AcDbCircle
 10
327.2325421464216
 20
222.8595190464139
 30
0.0
 40
19.0
100
AcDbArc
 50
-90.0
 51
0.0
  0
ARC
  5
132
330
43
100
AcDbEntity
  8
1
  6
Continuous
 62
     7
100
AcDbCircle
 10
327.2325421464216
 20
222.8595190464139
 30
0.0
 40
35.0
100
AcDbArc
 50
-90.0
 51
0.0
  0
ARC
  5
133
330
43
100
AcDbEntity
  8
1
  6
Continuous
 62
     7
100
AcDbCircle
 10
198.2149465775676
 20
167.7566489063078
 30
0.0
 40
4.999999999999843
100
AcDbArc
 50
-175.4444286404417
 51
-137.0745758663645
  0
ARC
  5
134
330
43
100
AcDbEntity
  8
1
  6
Continuous
 62
     7
100
AcDbCircle
 10
171.2309030027014
 20
167.3237131831619
 30
0.0
 40
4.000000000000132
100
AcDbArc
 50
-60.00265065508904
 51
-47.99388355439792
  0
ARC
  5
135
330
43
100
AcDbEntity
  8
1
  6
Continuous
 62
     7
100
AcDbCircle
 10
170.2465389064538
 20
167.7566489063078
 30
0.0
 40
5.000000000000066
100
AcDbArc
 50
-42.92542413363528
 51
-4.5555713595581
  0
ARC
  5
136
330
43
100
AcDbEntity
  8
1
  6
Continuous
 62
     7
100
AcDbCircle
 10
137.750472572974
 20
167.3237131831619
 30
0.0
 40
3.999999999999992
100
AcDbArc
 50
-132.0061164456
 51
-119.9973493449074
  0
ARC
  5
137
330
43
100
AcDbEntity
  8
1
  6
Continuous
 62
     7
100
AcDbCircle
 10
138.7348366692219
 20
167.7566489063078
 30
0.0
 40
5.000000000000041
100
AcDbArc
 50
-175.4444286404419
 51
-137.0745758663654
  0
ARC
  5
138
330
43
100
AcDbEntity
  8
1
  6
Continuous
 62
     7
100
AcDbCircle
 10
111.7507930943557
 20
167.3237131831619
 30
0.0
 40
4.00000000000004
100
AcDbArc
 50
-60.00265065509133
 51
-47.99388355440004
  0
ARC
  5
139
330
43
100
AcDbEntity
  8
1
  6
Continuous
 62
     7
100
AcDbCircle
 10
110.766428998108
 20
167.7566489063078
 30
0.0
 40
4.999999999999982
100
AcDbArc
 50
-42.92542413363617
 51
-4.55557135955819
  0
ARC
  5
13A
330
43
100
AcDbEntity
  8
0
  6
Continuous
 62
     7
100
AcDbCircle
 10
124.7506328336651
 20
362.6095190464152
 30
0.0
 40
9.001799404412829
100
AcDbArc
 50
152.7117416754914
 51
27.28825832450167
  0
ARC
  5
13B
330
43
100
AcDbEntity
  8
0
  6
Continuous
 62
     2
100
AcDbCircle
 10
124.7506328336651
 20
362.6095190464152
 30
0.0
 40
10.32479940441287
100
AcDbArc
 50
140.7899355168652
 51
39.21006448312997
  0
ARC
  5
13C
330
43
100
AcDbEntity
  8
0
  6
Continuous
 62
     7
100
AcDbCircle
 10
124.7506328336651
 20
362.6095190464152
 30
0.0
 40
11.0017994044128
100
AcDbArc
 50
136.6483128900507
 51
43.35168710994553
  0
ARC
  5
13D
330
43
100
AcDbEntity
  8
0
  6
Continuous
 62
     7
100
AcDbCircle
 10
124.7506328336651
 20
362.6095190464152
 30
0.0
 40
11.70179940441308
100
AcDbArc
 50
133.1299645700218
 51
46.87003542997467
  0
ARC
  5
13E
330
43
100
AcDbEntity
  8
1
  6
Continuous
 62
     7
100
AcDbCircle
 10
197.2305824813199
 20
167.3237131831619
 30
0.0
 40
4.000000000000068
100
AcDbArc
 50
-132.0061164456012
 51
-119.9973493449078
  0
ENDBLK
  5
45
330
43
100
AcDbEntity
  8
0
100
AcDbBlockEnd
  0
BLOCK
  5
47
330
46
100
AcDbEntity
  8
0
100
AcDbBlockBegin
  2
32-1-16
 70
     0
 71
     0
 10
533.1028463865168
 20
386.1893209067457
 30
0.0
  3
32-1-16
  1

  0
LINE
  5
13F
330
46
100
AcDbEntity
  8
1
  6
Continuous
 62
     7
100
AcDbLine
 10
354.2325421464216
 20
229.3595190464142
 30
0.0
 11
345.4342201673518
 21
229.3595190464142
 31
0.0
  0
LINE
  5
140
330
46
100
AcDbEntity
  8
1
  6
Continuous
 62
     7
100
AcDbLine
 10
363.0308641254911
 20
229.3595190464142
 30
0.0
 11
354.2325421464216
 21
229.3595190464142
 31
0.0
  0
LINE
  5
141
330
46
100
AcDbEntity
  8
1
  6
Continuous
 62
     7
100
AcDbLine
 10
367.4195421464217
 20
238.3595190464144
 30
0.0
 11
367.5325421464216
 21
238.3595190464144
 31
0.0
  0
LINE
  5
142
330
46
100
AcDbEntity
  8
1
  6
Continuous
 62
     7
100
AcDbLine
 10
367.5325421464216
 20
238.3595190464144
 30
0.0
 11
340.9325421464216
 21
238.3595190464144
 31
0.0
  0
LINE
  5
143
330
46
100
AcDbEntity
  8
1
  6
Continuous
 62
     7
100
AcDbLine
 10
342.7325421464216
 20
229.3595190464144
 30
0.0
 11
342.6745210846908
 21
229.3595190464144
 31
0.0
  0
LINE
  5
144
330
46
100
AcDbEntity
  8
1
  6
Continuous
 62
     7
100
AcDbLine
 10
344.4645929539902
 20
228.3595190464144
 30
0.0
 11
364.0004913388528
 21
228.3595190464144
 31
0.0
  0
LINE
  5
145
330
46
100
AcDbEntity
  8
1
  6
Continuous
 62
     7
100
AcDbLine
 10
134.5029286368049
 20
543.1448359765652
 30
0.0
 11
137.511492144567
 21
541.4078410254849
 31
0.0
  0
LINE
  5
146
330
46
100
AcDbEntity
  8
1
  6
Continuous
 62
     7
100
AcDbLine
 10
114.9983370305254
 20
543.144835976565
 30
0.0
 11
111.9897735227639
 21
541.4078410254849
 31
0.0
  0
LINE
  5
147
330
46
100
AcDbEntity
  8
1
  6
Continuous
 62
     7
100
AcDbLine
 10
138.7506328336654
 20
539.2615863942401
 30
0.0
 11
138.7506328336654
 21
525.9574516985902
 31
0.0
  0
LINE
  5
148
330
46
100
AcDbEntity
  8
1
  6
Continuous
 62
     7
100
AcDbLine
 10
125.9897735227639
 20
517.1591297195205
 30
0.0
 11
137.511492144567
 21
523.8111970673456
 31
0.0
  0
LINE
  5
149
330
46
100
AcDbEntity
  8
1
  6
Continuous
 62
     7
100
AcDbLine
 10
111.9897735227639
 20
523.8111970673456
 30
0.0
 11
123.5114921445666
 21
517.1591297195205
 31
0.0
  0
LINE
  5
14A
330
46
100
AcDbEntity
  8
1
  6
Continuous
 62
     7
100
AcDbLine
 10
110.7506328336654
 20
539.2615863942401
 30
0.0
 11
110.7506328336654
 21
525.9574516985902
 31
0.0
  0
LINE
  5
14B
330
46
100
AcDbEntity
  8
1
  6
Continuous
 62
     7
100
AcDbLine
 10
124.7506328336651
 20
239.3595190464146
 30
0.0
 11
111.4506328336648
 21
239.3595190464146
 31
0.0
  0
LINE
  5
14C
330
46
100
AcDbEntity
  8
1
  6
Continuous
 62
     7
100
AcDbLine
 10
124.7506328336651
 20
230.3595190464144
 30
0.0
 11
115.9523108545952
 21
230.3595190464144
 31
0.0
  0
LINE
  5
14D
330
46
100
AcDbEntity
  8
1
  6
Continuous
 62
     7
100
AcDbLine
 10
114.9826836412336
 20
229.3595190464146
 30
0.0
 11
124.7506328336651
 21
229.3595190464146
 31
0.0
  0
LINE
  5
14E
330
46
100
AcDbEntity
  8
1
  6
Continuous
 62
     7
100
AcDbLine
 10
113.2506328336649
 20
230.3595190464144
 30
0.0
 11
113.1926117719343
 21
230.3595190464144
 31
0.0
  0
LINE
  5
14F
330
46
100
AcDbEntity
  8
1
  6
Continuous
 62
     7
100
AcDbLine
 10
110.7506328336651
 20
238.7877702252441
 30
0.0
 11
110.7506328336651
 21
231.6463417967012
 31
0.0
  0
LINE
  5
150
330
46
100
AcDbEntity
  8
1
  6
Continuous
 62
     7
100
AcDbLine
 10
133.5489548127349
 20
230.3595190464144
 30
0.0
 11
124.7506328336651
 21
230.3595190464144
 31
0.0
  0
LINE
  5
151
330
46
100
AcDbEntity
  8
1
  6
Continuous
 62
     7
100
AcDbLine
 10
124.7506328336651
 20
229.3595190464146
 30
0.0
 11
134.5185820260961
 21
229.3595190464146
 31
0.0
  0
LINE
  5
152
330
46
100
AcDbEntity
  8
1
  6
Continuous
 62
     7
100
AcDbLine
 10
136.308653895396
 20
230.3595190464144
 30
0.0
 11
136.2506328336651
 21
230.3595190464144
 31
0.0
  0
LINE
  5
153
330
46
100
AcDbEntity
  8
1
  6
Continuous
 62
     7
100
AcDbLine
 10
138.0506328336651
 20
239.3595190464146
 30
0.0
 11
124.7506328336651
 21
239.3595190464146
 31
0.0
  0
LINE
  5
154
330
46
100
AcDbEntity
  8
1
  6
Continuous
 62
     7
100
AcDbLine
 10
138.7506328336649
 20
231.6463417967012
 30
0.0
 11
138.7506328336649
 21
238.7877702252441
 31
0.0
  0
ARC
  5
1D4
330
46
100
AcDbEntity
  8
1
  6
Continuous
 62
     7
100
AcDbCircle
 10
364.7325421464216
 20
234.2170560109728
 30
0.0
 40
5.000000000000014
100
AcDbArc
 50
-74.66244233044463
 51
55.94420225743242
  0
ARC
  5
1D5
330
46
100
AcDbEntity
  8
1
  6
Continuous
 62
     7
100
AcDbCircle
 10
343.7325421464216
 20
234.2170560109728
 30
0.0
 40
4.999999999999993
100
AcDbArc
 50
124.0557977425681
 51
-105.3375576695579
  0
ARC
  5
1D6
330
46
100
AcDbEntity
  8
1
  6
Continuous
 62
     7
100
AcDbCircle
 10
124.7506328336651
 20
532.6095190464152
 30
0.0
 40
15.50000000000021
100
AcDbArc
 50
25.41462091515993
 51
34.58537908483822
  0
ARC
  5
1D7
330
46
100
AcDbEntity
  8
1
  6
Continuous
 62
     7
100
AcDbCircle
 10
124.7506328336638
 20
532.6095190464152
 30
0.0
 40
15.50000000000146
100
AcDbArc
 50
-34.5853790848355
 51
-25.41462091515863
  0
ARC
  5
1D8
330
46
100
AcDbEntity
  8
1
  6
Continuous
 62
     7
100
AcDbCircle
 10
124.7506328336638
 20
532.6095190464152
 30
0.0
 40
15.5
100
AcDbArc
 50
-94.58537908483403
 51
-89.99999999999523
  0
ARC
  5
1D9
330
46
100
AcDbEntity
  8
1
  6
Continuous
 62
     7
100
AcDbCircle
 10
124.7506328336667
 20
532.6095190464152
 30
0.0
 40
15.5
100
AcDbArc
 50
-90.00000000000594
 51
-85.41462091516597
  0
ARC
  5
1DA
330
46
100
AcDbEntity
  8
1
  6
Continuous
 62
     7
100
AcDbCircle
 10
124.7506328336651
 20
532.6095190464152
 30
0.0
 40
15.49999999999974
100
AcDbArc
 50
-154.5853790848383
 51
-145.4146209151603
  0
ARC
  5
1DB
330
46
100
AcDbEntity
  8
1
  6
Continuous
 62
     7
100
AcDbCircle
 10
124.7506328336651
 20
532.6095190464152
 30
0.0
 40
15.49999999999981
100
AcDbArc
 50
145.4146209151603
 51
154.5853790848391
  0
ARC
  5
1DC
330
46
100
AcDbEntity
  8
1
  6
Continuous
 62
     7
100
AcDbCircle
 10
114.2506328336648
 20
235.2170560109726
 30
0.0
 40
4.999999999999787
100
AcDbArc
 50
-134.4270040008033
 51
-105.3375576695552
  0
ARC
  5
1DD
330
46
100
AcDbEntity
  8
1
  6
Continuous
 62
     7
100
AcDbCircle
 10
114.2506328336669
 20
235.2170560109743
 30
0.0
 40
5.000000000000103
100
AcDbArc
 50
124.0557977425962
 51
134.4270040008335
  0
ARC
  5
1DE
330
46
100
AcDbEntity
  8
1
  6
Continuous
 62
     7
100
AcDbCircle
 10
135.2506328336651
 20
235.2170560109726
 30
0.0
 40
4.999999999999992
100
AcDbArc
 50
-74.66244233044557
 51
-45.57299599919588
  0
ARC
  5
1DF
330
46
100
AcDbEntity
  8
1
  6
Continuous
 62
     7
100
AcDbCircle
 10
135.2506328336633
 20
235.217056010974
 30
0.0
 40
5.000000000000156
100
AcDbArc
 50
45.57299599917051
 51
55.94420225740851
  0
ARC
  5
248
330
46
100
AcDbEntity
  8
1
  6
Continuous
 62
     7
100
AcDbCircle
 10
113.2506328336649
 20
229.3595190464146
 30
0.0
 40
0.9999999999999713
100
AcDbArc
 50
30.00000000000095
 51
90.0
  0
ARC
  5
249
330
46
100
AcDbEntity
  8
1
  6
Continuous
 62
     7
100
AcDbCircle
 10
114.9826836412336
 20
230.3595190464144
 30
0.0
 40
0.9999999999997856
100
AcDbArc
 50
-150.0000000000061
 51
-90.0
  0
ARC
  5
24A
330
46
100
AcDbEntity
  8
1
  6
Continuous
 62
     7
100
AcDbCircle
 10
113.1926117719343
 20
231.3595190464146
 30
0.0
 40
1.000000000000404
100
AcDbArc
 50
-105.3375576695567
 51
-90.0
  0
ARC
  5
24B
330
46
100
AcDbEntity
  8
1
  6
Continuous
 62
     7
100
AcDbCircle
 10
136.2506328336651
 20
229.3595190464146
 30
0.0
 40
0.9999999999998011
100
AcDbArc
 50
90.0
 51
149.9999999999987
  0
ARC
  5
24C
330
46
100
AcDbEntity
  8
1
  6
Continuous
 62
     7
100
AcDbCircle
 10
134.5185820260961
 20
230.3595190464144
 30
0.0
 40
0.9999999999998011
100
AcDbArc
 50
-90.0
 51
-29.99999999998579
  0
ARC
  5
24D
330
46
100
AcDbEntity
  8
1
  6
Continuous
 62
     7
100
AcDbCircle
 10
136.308653895396
 20
231.3595190464146
 30
0.0
 40
1.000000000000199
100
AcDbArc
 50
-90.0
 51
-74.66244233046925
  0
ARC
  5
24E
330
46
100
AcDbEntity
  8
1
  6
Continuous
 62
     7
100
AcDbCircle
 10
364.0004913388528
 20
229.3595190464144
 30
0.0
 40
0.99999999999995
100
AcDbArc
 50
-42.94140286488002
 51
-29.99999999999729
  0
ARC
  5
24F
330
46
100
AcDbEntity
  8
1
  6
Continuous
 62
     7
100
AcDbCircle
 10
365.7325421464216
 20
228.3595190464144
 30
0.0
 40
1.0
100
AcDbArc
 50
90.0
 51
149.9999999999962
  0
ARC
  5
250
330
46
100
AcDbEntity
  8
1
  6
Continuous
 62
     7
100
AcDbCircle
 10
364.0004913388528
 20
229.3595190464144
 30
0.0
 40
1.0
100
AcDbArc
 50
-90.0
 51
-42.94140286488002
  0
ARC
  5
251
330
46
100
AcDbEntity
  8
1
  6
Continuous
 62
     7
100
AcDbCircle
 10
365.7905632081521
 20
230.3595190464144
 30
0.0
 40
1.0
100
AcDbArc
 50
-90.0
 51
-74.66244233043496
  0
ARC
  5
252
330
46
100
AcDbEntity
  8
1
  6
Continuous
 62
     7
100
AcDbCircle
 10
344.4645929539902
 20
229.3595190464144
 30
0.0
 40
0.9999999999998359
100
AcDbArc
 50
-149.9999999999946
 51
-137.0585971351089
  0
ARC
  5
253
330
46
100
AcDbEntity
  8
1
  6
Continuous
 62
     7
100
AcDbCircle
 10
342.7325421464216
 20
228.3595190464144
 30
0.0
 40
0.9999999999998851
100
AcDbArc
 50
30.0000000000038
 51
90.0
  0
ARC
  5
254
330
46
100
AcDbEntity
  8
1
  6
Continuous
 62
     7
100
AcDbCircle
 10
344.4645929539902
 20
229.3595190464144
 30
0.0
 40
0.999999999999742
100
AcDbArc
 50
-137.0585971351089
 51
-90.0
  0
ARC
  5
255
330
46
100
AcDbEntity
  8
1
  6
Continuous
 62
     7
100
AcDbCircle
 10
342.6745210846908
 20
230.3595190464144
 30
0.0
 40
1.000000000000002
100
AcDbArc
 50
-105.3375576695588
 51
-90.0
  0
LWPOLYLINE
  5
256
330
46
100
AcDbEntity
  8
1
  6
Continuous
 62
     7
100
AcDbPolyline
 90
       44
 70
     0
 43
0.0
 10
354.2325421464216
 20
230.6462389820572
 42
0.00192465439163
 10
354.8640209319709
 20
230.6910491424667
 42
0.00579582716002
 10
355.4935426742645
 20
230.7454924159956
 42
0.00971919996736
 10
356.119150330047
 20
230.8192019157632
 42
0.01368329092382
 10
356.7388868560618
 20
230.9218107548889
 42
0.01760392102875
 10
357.3507952090538
 20
231.0629520464919
 42
0.01424782008119
 10
357.780112217269
 20
231.1917249112453
 42
0.0150649458913
 10
358.2020154539242
 20
231.3457328106094
 42
0.01597151023864
 10
358.614046589312
 20
231.5258187113181
 42
0.01694827318125
 10
359.013747293725
 20
231.7328255801062
 42
0.0179676341133
 10
359.3986592374567
 20
231.967596383709
 42
0.0138072635728
 10
359.6456922758089
 20
232.1404663411682
 42
0.01687834150023
 10
359.8813625340467
 20
232.3279041650592
 42
0.02010419477359
 10
360.1019944239769
 20
232.5317273542128
 42
0.02337719798488
 10
360.3039123574067
 20
232.7537534074601
 42
0.02648611292478
 10
360.4834407461435
 20
232.9957998236323
 42
0.02445672228587
 10
360.6169100486071
 20
233.2206399669635
 42
0.02597674843346
 10
360.7274305778071
 20
233.4584093620134
 42
0.02826569467705
 10
360.8113333305852
 20
233.7058843041318
 42
0.03124058801243
 10
360.8649493037843
 20
233.9598410886682
 42
0.0347059411792
 10
360.8846094942464
 20
234.2170560109724
 42
0.01406651419817
 10
360.8823273496391
 20
234.3179427891434
 42
0.02676468935538
 10
360.8611928931512
 20
234.5186449739204
 42
0.02540504877139
 10
360.8191893762837
 20
234.7161066491485
 42
0.02751525116189
 10
360.7466128416309
 20
234.9379927078005
 42
0.0248597819343
 10
360.6509664352925
 20
235.15168975934
 42
0.02238551344398
 10
360.5351301647229
 20
235.3562520499225
 42
0.02021357195383
 10
360.401984037378
 20
235.5507338257026
 42
0.01840033127233
 10
360.2544080607129
 20
235.7341893328362
 42
0.02143138423639
 10
360.049033276531
 20
235.9514560320444
 42
0.01913624480329
 10
359.8273376912846
 20
236.1507930180769
 42
0.01676156054393
 10
359.5918233391461
 20
236.3337814428794
 42
0.01441088898014
 10
359.3449922542872
 20
236.5020024583972
 42
0.01214204844313
 10
359.0893464708796
 20
236.6570372165758
 42
0.0144717059759
 10
358.737372252087
 20
236.8458914605637
 42
0.01390216455005
 10
358.375601871172
 20
237.0143213341769
 42
0.01337183374561
 10
358.00552375168
 20
237.1626478762979
 42
0.01289027459568
 10
357.6286263171563
 20
237.2911921258085
 42
0.01246477621794
 10
357.2463979911466
 20
237.4002751215914
 42
0.01693514203081
 10
356.6544084506102
 20
237.5314765785039
 42
0.01315572423605
 10
356.0552311578019
 20
237.6268741914103
 42
0.00934397811629
 10
355.4506630507884
 20
237.6954189213122
 42
0.00557289541327
 10
354.842501067639
 20
237.7460617292112
 42
0.00185086034389
 10
354.2325421464216
 20
237.7877535761084
  0
LWPOLYLINE
  5
257
330
46
100
AcDbEntity
  8
1
  6
Continuous
 62
     7
100
AcDbPolyline
 90
       44
 70
     0
 43
0.0
 10
354.2325421464216
 20
237.7877535761084
 42
0.00185086034389
 10
353.6225832252039
 20
237.7460617292112
 42
0.00556644147837
 10
353.0144212420544
 20
237.6954189213122
 42
0.00934173141055
 10
352.4098531350414
 20
237.6268741914103
 42
0.01315589743565
 10
351.8106758422325
 20
237.5314765785039
 42
0.01695323639196
 10
351.2186863016964
 20
237.4002751215914
 42
0.01299633660888
 10
350.8364579756862
 20
237.2911921258085
 42
0.01235021591136
 10
350.4595605411626
 20
237.1626478762979
 42
0.01390461711857
 10
350.0894824216707
 20
237.0143213341768
 42
0.01336366133307
 10
349.7277120407558
 20
236.8458914605638
 42
0.01500653161663
 10
349.3757378219634
 20
236.6570372165758
 42
0.01133519578026
 10
349.1200920385559
 20
236.5020024583972
 42
0.01520307637063
 10
348.8732609536967
 20
236.3337814428793
 42
0.01596177619545
 10
348.6377466015584
 20
236.1507930180772
 42
0.01994317772822
 10
348.4160510163118
 20
235.9514560320446
 42
0.02065443639324
 10
348.2106762321298
 20
235.7341893328361
 42
0.01926883177583
 10
348.0631002554647
 20
235.5507338257027
 42
0.01928767021198
 10
347.9299541281201
 20
235.3562520499224
 42
0.02326137430594
 10
347.8141178575509
 20
235.15168975934
 42
0.02394991434106
 10
347.7184714512121
 20
234.9379927078005
 42
0.02842171795342
 10
347.6458949165591
 20
234.7161066491485
 42
0.02485456982806
 10
347.6038913996916
 20
234.5186449739204
 42
0.02749616515875
 10
347.5827569432036
 20
234.3179427891434
 42
0.01366107569407
 10
347.5804747985964
 20
234.2170560109724
 42
0.03580683291147
 10
347.6001349890586
 20
233.9598410886682
 42
0.03010776499777
 10
347.6537509622575
 20
233.7058843041318
 42
0.02931301198437
 10
347.7376537150359
 20
233.4584093620134
 42
0.02481949340088
 10
347.8481742442356
 20
233.2206399669635
 42
0.02549238209718
 10
347.9816435466993
 20
232.9957998236323
 42
0.02574913665166
 10
348.161171935436
 20
232.7537534074601
 42
0.02417519361624
 10
348.3630898688659
 20
232.5317273542127
 42
0.01931968436899
 10
348.5837217587962
 20
232.3279041650593
 42
0.01764734401631
 10
348.819392017034
 20
232.1404663411681
 42
0.01301077157706
 10
349.0664250553862
 20
231.967596383709
 42
0.01843691884167
 10
349.4513369991179
 20
231.7328255801062
 42
0.01647826988072
 10
349.8510377035308
 20
231.5258187113182
 42
0.01643479826172
 10
350.2630688389186
 20
231.3457328106093
 42
0.0145906411179
 10
350.6849720755736
 20
231.1917249112454
 42
0.01470806882888
 10
351.1142890837891
 20
231.0629520464919
 42
0.01765304786762
 10
351.7261974367812
 20
230.9218107548889
 42
0.01365605356197
 10
352.3459339627962
 20
230.8192019157631
 42
0.00974511750433
 10
352.9715416185786
 20
230.7454924159956
 42
0.00576078778349
 10
353.6010633608722
 20
230.6910491424666
 42
0.00195276221649
 10
354.2325421464216
 20
230.6462389820572
  0
LWPOLYLINE
  5
258
330
46
100
AcDbEntity
  8
1
  6
Continuous
 62
     7
100
AcDbPolyline
 90
       20
 70
     1
 43
0.0
 10
366.3568977994037
 20
230.646341796701
 42
0.11265893300261
 10
367.7103365888225
 20
230.9553536351802
 42
0.05318050181112
 10
368.3125565716094
 20
231.3288179655063
 42
0.05369152181953
 10
368.8290014292169
 20
231.8282393519978
 42
0.05004038780435
 10
369.2373274548544
 20
232.4316989038368
 42
0.05093965801193
 10
369.5202312339692
 20
233.1139382712398
 42
0.11363181466173
 10
369.6324015482525
 20
234.8371040272501
 42
0.0746472203146
 10
369.2938135591867
 20
235.8929928081887
 42
0.05082855065581
 10
368.9047874129308
 20
236.5122668656377
 42
0.05246013701952
 10
368.4050443114658
 20
237.0304457987794
 42
0.05385878676536
 10
367.8155546498537
 20
237.4260558025572
 42
0.05544331965749
 10
367.161969357868
 20
237.6815767988854
 42
0.32832135649059
 10
363.6656185805277
 20
236.3151780435445
 42
0.03529415588037
 10
363.3181658848167
 20
235.6687841512985
 42
0.08105330327652
 10
363.0632186619324
 20
234.7138844028234
 42
0.19051703913739
 10
363.8847941695903
 20
231.8282393519978
 42
0.07426623431809
 10
364.401239027198
 20
231.3288179655062
 42
0.0236303216098
 10
364.8982409489537
 20
231.008056219388
 42
0.07674782445762
 10
365.5518262409394
 20
230.7525352230595
 42
0.04419826061742
 10
366.3568977994037
 20
230.646341796701
  0
LWPOLYLINE
  5
259
330
46
100
AcDbEntity
  8
1
  6
Continuous
 62
     7
100
AcDbPolyline
 90
       20
 70
     1
 43
0.0
 10
342.9132580519038
 20
230.7525352230594
 42
0.05504811579083
 10
343.5668433438891
 20
231.0080562193878
 42
0.04485113939125
 10
344.0638452656448
 20
231.3288179655064
 42
0.05230497295547
 10
344.5802901232524
 20
231.8282393519977
 42
0.20665312923703
 10
345.4018656309102
 20
234.713884402823
 42
0.06607951643303
 10
345.1469184080261
 20
235.6687841512985
 42
0.05073562997556
 10
344.7994657123152
 20
236.3151780435445
 42
0.3281755110837
 10
341.3031149349749
 20
237.6815767988855
 42
0.05504811579093
 10
340.6495296429896
 20
237.4260558025572
 42
0.05360670510268
 10
340.060039981377
 20
237.030445798779
 42
0.05203207804026
 10
339.5602968799119
 20
236.5122668656377
 42
0.0506878667738
 10
339.1712707336565
 20
235.8929928081888
 42
0.07392925131879
 10
338.8326827445909
 20
234.8371040272501
 42
0.11484518879867
 10
338.9448530588737
 20
233.1139382712398
 42
0.05015685749871
 10
339.2277568379885
 20
232.4316989038369
 42
0.0514312010744
 10
339.6360828636263
 20
231.8282393519976
 42
0.05298428923206
 10
340.1525277212336
 20
231.3288179655063
 42
0.05448921509408
 10
340.7547477040204
 20
230.9553536351802
 42
0.11265893300263
 10
342.1081864934395
 20
230.6463417967011
 42
0.06541739421516
 10
342.9132580519038
 20
230.7525352230595
  0
LWPOLYLINE
  5
25A
330
46
100
AcDbEntity
  8
1
  6
Continuous
 62
     7
100
AcDbPolyline
 90
       54
 70
     1
 43
0.0
 10
112.0122645045652
 20
234.9041011594069
 42
0.02105781887651
 10
112.0772939202767
 20
234.5970079946949
 42
0.04538998764851
 10
112.1882148784125
 20
234.288341614924
 42
0.00222427288393
 10
112.3436397449898
 20
233.9848178635282
 42
0.05445094831674
 10
112.7615823227962
 20
233.4316989038371
 42
0.05016448253372
 10
113.0377058947557
 20
233.1635281136196
 42
0.00173508830045
 10
113.3508672519773
 20
232.9120133898726
 42
0.03910602301065
 10
114.0476238474702
 20
232.481730229164
 42
0.03604691465951
 10
114.4527904030703
 20
232.2892371065135
 42
0.00087199348602
 10
114.8821237548094
 20
232.1204610450666
 42
0.03045771980214
 10
115.7803029064714
 20
231.8616822128864
 42
0.02898008236503
 10
116.2629907612095
 20
231.767407667179
 42
0.0002565014566
 10
116.7548874679029
 20
231.7000843494056
 42
0.02724652339317
 10
117.7506328336649
 20
231.6463417967012
 42
0.02699365380104
 10
118.7463781994267
 20
231.7000843494055
 42
0.02715406339961
 10
119.2382749061205
 20
231.767407667179
 42
0.00053888659651
 10
119.7209627608584
 20
231.8616822128864
 42
0.0296412596307
 10
120.6191419125207
 20
232.1204610450666
 42
0.03089097075923
 10
121.0484752642597
 20
232.2892371065136
 42
0.00127587521819
 10
121.4536418198596
 20
232.481730229164
 42
0.03754790008172
 10
122.1503984153524
 20
232.9120133898729
 42
0.04036312189551
 10
122.4635597725743
 20
233.1635281136196
 42
0.00215294460205
 10
122.7396833445337
 20
233.4316989038372
 42
0.05245375212209
 10
123.1576259223399
 20
233.9848178635282
 42
0.05728573061473
 10
123.3130507889172
 20
234.288341614924
 42
0.00152808186047
 10
123.4239717470533
 20
234.5970079946949
 42
0.0682908481025
 10
123.5114921445663
 20
235.2170560109726
 42
0.06832142522169
 10
123.4239717470533
 20
235.8371040272503
 42
0.06803237442464
 10
123.3130507889171
 20
236.1457704070214
 42
0.00222427288355
 10
123.1576259223401
 20
236.449294158417
 42
0.05445094831645
 10
122.7396833445337
 20
237.0024131181086
 42
0.05016448253662
 10
122.4635597725743
 20
237.270583908326
 42
0.00173508830015
 10
122.1503984153524
 20
237.5220986320729
 42
0.0391060230108
 10
121.4536418198597
 20
237.9523817927814
 42
0.03604691465622
 10
121.0484752642597
 20
238.1448749154321
 42
0.00087199348612
 10
120.6191419125207
 20
238.3136509768792
 42
0.03045771980208
 10
119.7209627608584
 20
238.5724298090589
 42
0.0289800823648
 10
119.2382749061205
 20
238.6667043547666
 42
0.00025650145651
 10
118.7463781994269
 20
238.73402767254
 42
0.02724652339317
 10
117.7506328336648
 20
238.7877702252441
 42
0.02699365380099
 10
116.7548874679029
 20
238.7340276725399
 42
0.02715406339699
 10
116.2629907612095
 20
238.6667043547666
 42
0.00053888659633
 10
115.7803029064714
 20
238.5724298090589
 42
0.02964125963076
 10
114.8821237548094
 20
238.3136509768792
 42
0.03089097076344
 10
114.4527904030703
 20
238.1448749154321
 42
0.00127587521807
 10
114.0476238474702
 20
237.9523817927812
 42
0.03754790008173
 10
113.3508672519774
 20
237.5220986320726
 42
0.04036312188588
 10
113.0377058947561
 20
237.2705839083261
 42
0.00215294460206
 10
112.7615823227962
 20
237.0024131181085
 42
0.05245375212235
 10
112.3436397449898
 20
236.449294158417
 42
0.05728573060744
 10
112.1882148784125
 20
236.1457704070214
 42
0.00152808186059
 10
112.0772939202767
 20
235.8371040272503
 42
0.06829084810253
 10
111.9897735227638
 20
235.2170560109726
 10
112.0122645045652
 20
234.9041011594069
  0
LWPOLYLINE
  5
25B
330
46
100
AcDbEntity
  8
1
  6
Continuous
 62
     7
100
AcDbPolyline
 90
       55
 70
     1
 43
0.0
 10
137.5114921445664
 20
235.2170560109726
 42
0.06829084810253
 10
137.4239717470533
 20
235.8371040272503
 42
0.00152808186092
 10
137.3130507889173
 20
236.1457704070214
 42
0.05728573060745
 10
137.1576259223401
 20
236.449294158417
 42
0.05245375212249
 10
136.7396833445339
 20
237.0024131181086
 42
0.00215294460206
 10
136.4635597725741
 20
237.270583908326
 42
0.04036312188589
 10
136.1503984153524
 20
237.5220986320726
 42
0.03754790008152
 10
135.4536418198596
 20
237.9523817927812
 42
0.00127587521817
 10
135.0484752642599
 20
238.1448749154321
 42
0.0308909707662
 10
134.6191419125206
 20
238.3136509768792
 42
0.02964125963079
 10
133.7209627608584
 20
238.5724298090589
 42
0.00053888659628
 10
133.2382749061205
 20
238.6667043547666
 42
0.02715406339961
 10
132.7463781994267
 20
238.7340276725399
 42
0.02699365380098
 10
131.7506328336651
 20
238.7877702252441
 42
0.02724652339317
 10
130.7548874679034
 20
238.73402767254
 42
0.00025650145654
 10
130.2629907612093
 20
238.6667043547666
 42
0.02898008236485
 10
129.7803029064714
 20
238.5724298090589
 42
0.03045771980209
 10
128.8821237548093
 20
238.3136509768792
 42
0.0008719934862
 10
128.45279040307
 20
238.1448749154321
 42
0.03604691465942
 10
128.0476238474702
 20
237.9523817927814
 42
0.03910602301064
 10
127.3508672519776
 20
237.5220986320729
 42
0.00173508830034
 10
127.037705894756
 20
237.270583908326
 42
0.05016448253683
 10
126.7615823227962
 20
237.0024131181085
 42
0.05445094831645
 10
126.34363974499
 20
236.449294158417
 42
0.00222427288355
 10
126.1882148784125
 20
236.1457704070214
 42
0.06803237440986
 10
126.0772939202765
 20
235.8371040272503
 42
0.06832142522134
 10
125.9897735227634
 20
235.2170560109726
 42
0.06829084810215
 10
126.0772939202765
 20
234.5970079946949
 42
0.00152808186047
 10
126.1882148784125
 20
234.288341614924
 42
0.05728573060737
 10
126.34363974499
 20
233.9848178635282
 42
0.05245375212233
 10
126.7615823227961
 20
233.4316989038372
 42
0.00215294460228
 10
127.0377058947557
 20
233.1635281136196
 42
0.04036312189551
 10
127.3508672519774
 20
232.9120133898729
 42
0.03754790008179
 10
128.0476238474701
 20
232.481730229164
 42
0.00127587521819
 10
128.45279040307
 20
232.2892371065136
 42
0.03089097075612
 10
128.8821237548093
 20
232.1204610450666
 42
0.02964125963068
 10
129.7803029064714
 20
231.8616822128864
 42
0.00053888659651
 10
130.2629907612092
 20
231.767407667179
 42
0.02715406339699
 10
130.754887467903
 20
231.7000843494055
 42
0.02699365380103
 10
131.7506328336651
 20
231.6463417967012
 42
0.02724652339318
 10
132.7463781994267
 20
231.7000843494056
 42
0.00025650145669
 10
133.2382749061204
 20
231.767407667179
 42
0.02898008236786
 10
133.7209627608584
 20
231.8616822128864
 42
0.03045771980218
 10
134.6191419125206
 20
232.1204610450666
 42
0.00087199348611
 10
135.0484752642598
 20
232.2892371065136
 42
0.0360469146594
 10
135.4536418198596
 20
232.481730229164
 42
0.03910602301058
 10
136.1503984153522
 20
232.9120133898726
 42
0.00173508830044
 10
136.4635597725741
 20
233.1635281136196
 42
0.05016448253895
 10
136.7396833445339
 20
233.4316989038371
 42
0.0544509483166
 10
137.1576259223401
 20
233.9848178635282
 42
0.00222427288363
 10
137.3130507889173
 20
234.288341614924
 42
0.04538998764755
 10
137.4239717470533
 20
234.5970079946949
 42
0.02105781887634
 10
137.4890011627648
 20
234.9041011594069
 10
137.5114921445664
 20
235.2170560109726
 10
137.4890011627648
 20
234.9041011594069
  0
ENDBLK
  5
48
330
46
100
AcDbEntity
  8
0
100
AcDbBlockEnd
  0
BLOCK
  5
4A
330
49
100
AcDbEntity
  8
0
100
AcDbBlockBegin
  2
A10-0A-13
 70
     0
 71
     0
 10
904.6485862221859
 20
205.7034887766368
 30
0.0
  3
A10-0A-13
  1

  0
LINE
  5
25C
330
49
100
AcDbEntity
  8
1
  6
Continuous
 62
     7
100
AcDbLine
 10
111.7506328336651
 20
241.5915698539832
 30
0.0
 11
111.7506328336651
 21
241.7194641017741
 31
0.0
  0
ARC
  5
25D
330
49
100
AcDbEntity
  8
1
  6
Continuous
 62
     7
100
AcDbCircle
 10
124.7506328336652
 20
257.3595190462954
 30
0.0
 40
13.0000000000001
100
AcDbArc
 50
179.9999999994757
 51
-179.9313547115849
  0
ENDBLK
  5
4B
330
49
100
AcDbEntity
  8
0
100
AcDbBlockEnd
  0
BLOCK
  5
4D
330
4C
100
AcDbEntity
  8
0
100
AcDbBlockBegin
  2
_J__A4
 70
     0
 71
     0
 10
0.00000000000006
 20
-0.00000000000001
 30
0.0
  3
_J__A4
  1

  0
POINT
  5
25E
330
4C
100
AcDbEntity
  8
1
 62
     4
100
AcDbPoint
 10
34.00000000000006
 20
34.0
 30
0.0
  0
POINT
  5
25F
330
4C
100
AcDbEntity
  8
1
 62
     4
100
AcDbPoint
 10
57.00000000000006
 20
12.24999999999999
 30
0.0
  0
POINT
  5
260
330
4C
100
AcDbEntity
  8
1
 62
     4
100
AcDbPoint
 10
57.00000000000006
 20
20.75
 30
0.0
  0
POINT
  5
261
330
4C
100
AcDbEntity
  8
1
 62
     4
100
AcDbPoint
 10
57.00000000000006
 20
24.75
 30
0.0
  0
POINT
  5
262
330
4C
100
AcDbEntity
  8
1
 62
     4
100
AcDbPoint
 10
57.00000000000006
 20
16.24999999999999
 30
0.0
  0
POINT
  5
263
330
4C
100
AcDbEntity
  8
1
 62
     4
100
AcDbPoint
 10
157.5
 20
19.00000000000001
 30
0.0
  0
POINT
  5
264
330
4C
100
AcDbEntity
  8
1
 62
     4
100
AcDbPoint
 10
47.50000000000006
 20
282.0000000000003
 30
0.0
  0
POINT
  5
265
330
4C
100
AcDbEntity
  8
1
 62
     4
100
AcDbPoint
 10
57.0
 20
22.75000000000001
 30
0.0
  0
POINT
  5
266
330
4C
100
AcDbEntity
  8
1
 62
     4
100
AcDbPoint
 10
56.99999999999994
 20
14.25000000000001
 30
0.0
  0
POINT
  5
267
330
4C
100
AcDbEntity
  8
1
 62
     4
100
AcDbPoint
 10
157.5000000000001
 20
12.49999999999999
 30
0.0
  0
POINT
  5
268
330
4C
100
AcDbEntity
  8
1
 62
     4
100
AcDbPoint
 10
163.2500000000001
 20
12.49999999999999
 30
0.0
  0
POINT
  5
269
330
4C
100
AcDbEntity
  8
1
 62
     4
100
AcDbPoint
 10
151.7500000000001
 20
12.49999999999999
 30
0.0
  0
POINT
  5
26A
330
4C
100
AcDbEntity
  8
1
 62
     4
100
AcDbPoint
 10
134.7500000000001
 20
12.49999999999999
 30
0.0
  0
POINT
  5
26B
330
4C
100
AcDbEntity
  8
1
 62
     4
100
AcDbPoint
 10
146.2500000000001
 20
12.49999999999999
 30
0.0
  0
POINT
  5
26C
330
4C
100
AcDbEntity
  8
1
 62
     4
100
AcDbPoint
 10
140.5000000000001
 20
12.49999999999999
 30
0.0
  0
POINT
  5
26D
330
4C
100
AcDbEntity
  8
1
 62
     4
100
AcDbPoint
 10
140.5
 20
19.00000000000001
 30
0.0
  0
POINT
  5
26E
330
4C
100
AcDbEntity
  8
1
 62
     4
100
AcDbPoint
 10
117.7500000000001
 20
12.49999999999999
 30
0.0
  0
POINT
  5
26F
330
4C
100
AcDbEntity
  8
1
 62
     4
100
AcDbPoint
 10
129.2500000000001
 20
12.49999999999999
 30
0.0
  0
POINT
  5
270
330
4C
100
AcDbEntity
  8
1
 62
     4
100
AcDbPoint
 10
123.5000000000001
 20
12.49999999999999
 30
0.0
  0
POINT
  5
271
330
4C
100
AcDbEntity
  8
1
 62
     4
100
AcDbPoint
 10
123.5
 20
19.00000000000001
 30
0.0
  0
POINT
  5
272
330
4C
100
AcDbEntity
  8
1
 62
     4
100
AcDbPoint
 10
100.7500000000001
 20
12.49999999999999
 30
0.0
  0
POINT
  5
273
330
4C
100
AcDbEntity
  8
1
 62
     4
100
AcDbPoint
 10
112.2500000000001
 20
12.49999999999999
 30
0.0
  0
POINT
  5
274
330
4C
100
AcDbEntity
  8
1
 62
     4
100
AcDbPoint
 10
106.5000000000001
 20
12.49999999999999
 30
0.0
  0
POINT
  5
275
330
4C
100
AcDbEntity
  8
1
 62
     4
100
AcDbPoint
 10
106.5000000000001
 20
19.0
 30
0.0
  0
POINT
  5
276
330
4C
100
AcDbEntity
  8
1
 62
     4
100
AcDbPoint
 10
85.25000000000006
 20
16.99999999999999
 30
0.0
  0
POINT
  5
277
330
4C
100
AcDbEntity
  8
1
 62
     4
100
AcDbPoint
 10
93.75000000000006
 20
16.99999999999999
 30
0.0
  0
LINE
  5
278
330
4C
100
AcDbEntity
  8
1
  6
Continuous
 62
     2
100
AcDbLine
 10
81.0
 20
27.00000000000001
 30
0.0
 11
81.00000000000006
 21
9.99999999999999
 31
0.0
  0
LINE
  5
279
330
4C
100
AcDbEntity
  8
1
  6
DOT_CENTER
 62
     2
100
AcDbLine
 10
187.0000000000001
 20
26.5
 30
0.0
 11
187.0000000000001
 21
20.5
 31
0.0
  0
LINE
  5
27A
330
4C
100
AcDbEntity
  8
1
  6
DOT_CENTER
 62
     2
100
AcDbLine
 10
184.0000000000001
 20
23.5
 30
0.0
 11
196.9999999999999
 21
23.50000000000002
 31
0.0
  0
LINE
  5
27B
330
4C
100
AcDbEntity
  8
1
  6
Continuous
 62
     7
100
AcDbLine
 10
196.0000000000001
 20
21.5
 30
0.0
 11
191.0000000000001
 21
22.3
 31
0.0
  0
LINE
  5
27C
330
4C
100
AcDbEntity
  8
1
  6
Continuous
 62
     7
100
AcDbLine
 10
196.0000000000001
 20
25.5
 30
0.0
 11
196.0000000000001
 21
21.5
 31
0.0
  0
LINE
  5
27D
330
4C
100
AcDbEntity
  8
1
  6
Continuous
 62
     7
100
AcDbLine
 10
191.0000000000001
 20
24.7
 30
0.0
 11
196.0000000000001
 21
25.5
 31
0.0
  0
LINE
  5
27E
330
4C
100
AcDbEntity
  8
1
  6
Continuous
 62
     7
100
AcDbLine
 10
191.0000000000001
 20
24.7
 30
0.0
 11
191.0000000000001
 21
22.3
 31
0.0
  0
LINE
  5
27F
330
4C
100
AcDbEntity
  8
1
  6
Continuous
 62
     2
100
AcDbLine
 10
33.00000000000006
 20
26.99999999999999
 30
0.0
 11
33.00000000000006
 21
9.99999999999999
 31
0.0
  0
LINE
  5
280
330
4C
100
AcDbEntity
  8
1
  6
Continuous
 62
     2
100
AcDbLine
 10
25.00000000000006
 20
18.5
 30
0.0
 11
81.0
 21
18.50000000000001
 31
0.0
  0
LINE
  5
281
330
4C
100
AcDbEntity
  8
1
  6
Continuous
 62
     7
100
AcDbLine
 10
200.0
 20
287.0000000000003
 30
0.0
 11
105.0000000000001
 21
287.0000000000003
 31
0.0
  0
LINE
  5
282
330
4C
100
AcDbEntity
  8
1
  6
Continuous
 62
     7
100
AcDbLine
 10
200.0000000000001
 20
9.99999999999999
 30
0.0
 11
200.0000000000001
 21
148.5
 31
0.0
  0
LINE
  5
283
330
4C
100
AcDbEntity
  8
1
  6
Continuous
 62
     7
100
AcDbLine
 10
25.00000000000006
 20
9.99999999999999
 30
0.0
 11
105.0000000000001
 21
9.99999999999999
 31
0.0
  0
LINE
  5
284
330
4C
100
AcDbEntity
  8
1
  6
PHANTOM
 62
     4
100
AcDbLine
 10
0.00000000000006
 20
297.0
 30
0.0
 11
0.00000000000006
 21
0.0
 31
0.0
  0
LINE
  5
285
330
4C
100
AcDbEntity
  8
1
  6
PHANTOM
 62
     4
100
AcDbLine
 10
210.0000000000002
 20
297.0
 30
0.0
 11
0.00000000000006
 21
297.0
 31
0.0
  0
LINE
  5
286
330
4C
100
AcDbEntity
  8
1
  6
PHANTOM
 62
     4
100
AcDbLine
 10
210.0000000000001
 20
0.0
 30
0.0
 11
210.0000000000002
 21
297.0
 31
0.0
  0
LINE
  5
287
330
4C
100
AcDbEntity
  8
1
  6
PHANTOM
 62
     4
100
AcDbLine
 10
0.00000000000006
 20
-0.00000000000001
 30
0.0
 11
210.0000000000001
 21
0.0
 31
0.0
  0
LINE
  5
288
330
4C
100
AcDbEntity
  8
1
  6
Continuous
 62
     7
100
AcDbLine
 10
25.00000000000006
 20
40.99999999999999
 30
0.0
 11
200.0
 21
41.0
 31
0.0
  0
LINE
  5
289
330
4C
100
AcDbEntity
  8
1
  6
Continuous
 62
     7
100
AcDbLine
 10
200.0000000000001
 20
27.0
 30
0.0
 11
25.00000000000006
 21
27.0
 31
0.0
  0
LINE
  5
28A
330
4C
100
AcDbEntity
  8
1
  6
Continuous
 62
     2
100
AcDbLine
 10
33.0
 20
41.00000000000001
 30
0.0
 11
33.00000000000006
 21
26.99999999999999
 31
0.0
  0
LINE
  5
28B
330
4C
100
AcDbEntity
  8
1
  6
Continuous
 62
     2
100
AcDbLine
 10
55.0
 20
287.0000000000003
 30
0.0
 11
55.0
 21
277.0000000000003
 31
0.0
  0
LINE
  5
28C
330
4C
100
AcDbEntity
  8
1
  6
Continuous
 62
     2
100
AcDbLine
 10
40.0
 20
287.0000000000003
 30
0.0
 11
40.00000000000006
 21
277.0000000000003
 31
0.0
  0
LINE
  5
28D
330
4C
100
AcDbEntity
  8
1
  6
Continuous
 62
     7
100
AcDbLine
 10
25.00000000000006
 20
9.99999999999999
 30
0.0
 11
25.00000000000006
 21
148.5
 31
0.0
  0
LINE
  5
28E
330
4C
100
AcDbEntity
  8
1
  6
Continuous
 62
     2
100
AcDbLine
 10
55.0
 20
277.0000000000003
 30
0.0
 11
25.00000000000006
 21
277.0000000000003
 31
0.0
  0
LINE
  5
28F
330
4C
100
AcDbEntity
  8
1
  6
Continuous
 62
     2
100
AcDbLine
 10
166.0
 20
27.00000000000001
 30
0.0
 11
166.0000000000001
 21
9.99999999999999
 31
0.0
  0
LINE
  5
290
330
4C
100
AcDbEntity
  8
1
  6
Continuous
 62
     2
100
AcDbLine
 10
132.0
 20
27.00000000000001
 30
0.0
 11
132.0000000000001
 21
9.99999999999998
 31
0.0
  0
LINE
  5
291
330
4C
100
AcDbEntity
  8
1
  6
Continuous
 62
     2
100
AcDbLine
 10
149.0
 20
27.00000000000001
 30
0.0
 11
149.0000000000001
 21
9.99999999999999
 31
0.0
  0
LINE
  5
292
330
4C
100
AcDbEntity
  8
1
  6
Continuous
 62
     2
100
AcDbLine
 10
115.0
 20
27.00000000000001
 30
0.0
 11
115.0000000000001
 21
9.99999999999998
 31
0.0
  0
LINE
  5
293
330
4C
100
AcDbEntity
  8
1
  6
Continuous
 62
     2
100
AcDbLine
 10
98.0
 20
27.00000000000001
 30
0.0
 11
98.00000000000006
 21
9.99999999999999
 31
0.0
  0
LINE
  5
294
330
4C
100
AcDbEntity
  8
1
  6
Continuous
 62
     2
100
AcDbLine
 10
166.0000000000001
 20
20.0
 30
0.0
 11
200.0000000000001
 21
20.0
 31
0.0
  0
LINE
  5
295
330
4C
100
AcDbEntity
  8
1
  6
Continuous
 62
     2
100
AcDbLine
 10
105.0000000000001
 20
287.0000000000003
 30
0.0
 11
105.0
 21
292.0000000000003
 31
0.0
  0
LINE
  5
296
330
4C
100
AcDbEntity
  8
1
  6
Continuous
 62
     7
100
AcDbLine
 10
105.0000000000001
 20
287.0000000000003
 30
0.0
 11
25.0
 21
287.0000000000003
 31
0.0
  0
LINE
  5
297
330
4C
100
AcDbEntity
  8
1
  6
Continuous
 62
     2
100
AcDbLine
 10
25.00000000000006
 20
148.5
 30
0.0
 11
20.00000000000006
 21
148.5
 31
0.0
  0
LINE
  5
298
330
4C
100
AcDbEntity
  8
1
  6
Continuous
 62
     7
100
AcDbLine
 10
25.00000000000006
 20
148.5
 30
0.0
 11
25.0
 21
287.0000000000003
 31
0.0
  0
LINE
  5
299
330
4C
100
AcDbEntity
  8
1
  6
Continuous
 62
     2
100
AcDbLine
 10
200.0000000000001
 20
148.5
 30
0.0
 11
205.0
 21
148.5
 31
0.0
  0
LINE
  5
29A
330
4C
100
AcDbEntity
  8
1
  6
Continuous
 62
     7
100
AcDbLine
 10
200.0000000000001
 20
148.5
 30
0.0
 11
200.0
 21
287.0000000000003
 31
0.0
  0
LINE
  5
29B
330
4C
100
AcDbEntity
  8
1
  6
Continuous
 62
     2
100
AcDbLine
 10
105.0000000000001
 20
9.99999999999999
 30
0.0
 11
105.0000000000001
 21
4.99999999999999
 31
0.0
  0
LINE
  5
29C
330
4C
100
AcDbEntity
  8
1
  6
Continuous
 62
     7
100
AcDbLine
 10
105.0000000000001
 20
9.99999999999999
 30
0.0
 11
200.0000000000001
 21
9.99999999999999
 31
0.0
  0
CIRCLE
  5
29D
330
4C
100
AcDbEntity
  8
1
  6
DOT_CENTER
 62
     7
100
AcDbCircle
 10
89.50000000000006
 20
17.99999999999999
 30
0.0
 40
0.1000000000000227
  0
CIRCLE
  5
29E
330
4C
100
AcDbEntity
  8
1
  6
DOT_CENTER
 62
     7
100
AcDbCircle
 10
89.50000000000006
 20
15.99999999999999
 30
0.0
 40
0.1000000000000227
  0
CIRCLE
  5
29F
330
4C
100
AcDbEntity
  8
1
  6
Continuous
 62
     7
100
AcDbCircle
 10
187.0000000000001
 20
23.5
 30
0.0
 40
2.0
  0
CIRCLE
  5
2A0
330
4C
100
AcDbEntity
  8
1
  6
Continuous
 62
     7
100
AcDbCircle
 10
187.0000000000001
 20
23.5
 30
0.0
 40
1.199999999999989
  0
CIRCLE
  5
2A1
330
4C
100
AcDbEntity
  8
1
  6
Continuous
 62
     7
100
AcDbCircle
 10
154.5000000000001
 20
12.49999999999999
 30
0.0
 40
0.299999999999983
  0
CIRCLE
  5
2A2
330
4C
100
AcDbEntity
  8
1
  6
Continuous
 62
     7
100
AcDbCircle
 10
160.5000000000001
 20
12.49999999999999
 30
0.0
 40
0.2999999999998977
  0
CIRCLE
  5
2A3
330
4C
100
AcDbEntity
  8
1
  6
Continuous
 62
     7
100
AcDbCircle
 10
143.5000000000001
 20
12.49999999999999
 30
0.0
 40
0.2999999999998977
  0
CIRCLE
  5
2A4
330
4C
100
AcDbEntity
  8
1
  6
Continuous
 62
     7
100
AcDbCircle
 10
137.5000000000001
 20
12.49999999999999
 30
0.0
 40
0.299999999999983
  0
CIRCLE
  5
2A5
330
4C
100
AcDbEntity
  8
1
  6
Continuous
 62
     7
100
AcDbCircle
 10
126.5000000000001
 20
12.49999999999999
 30
0.0
 40
0.2999999999998977
  0
CIRCLE
  5
2A6
330
4C
100
AcDbEntity
  8
1
  6
Continuous
 62
     7
100
AcDbCircle
 10
120.5000000000001
 20
12.49999999999999
 30
0.0
 40
0.2999999999999972
  0
CIRCLE
  5
2A7
330
4C
100
AcDbEntity
  8
1
  6
Continuous
 62
     7
100
AcDbCircle
 10
109.5000000000001
 20
12.49999999999999
 30
0.0
 40
0.2999999999998977
  0
CIRCLE
  5
2A8
330
4C
100
AcDbEntity
  8
1
  6
Continuous
 62
     7
100
AcDbCircle
 10
103.5000000000001
 20
12.49999999999999
 30
0.0
 40
0.2999999999999972
  0
MTEXT
  5
2AA
330
4C
100
AcDbEntity
  8
1
 62
   250
100
AcDbMText
 10
25.00000000000006
 20
4.99999999999999
 30
0.0
 40
3.5
 41
0.0
 71
     4
 72
     1
  1
備考欄の文字列 原点位置=4
  7
CONVERTER_1
 73
     1
 44
0.7202881152461
  0
MTEXT
  5
2AB
330
4C
100
AcDbEntity
  8
1
 62
     2
100
AcDbMText
 10
89.50000000000006
 20
24.0
 30
0.0
 40
3.5
 41
0.0
 71
     5
 72
     1
  1
尺度
  7
CONVERTER_1
 73
     1
 44
0.7202881152461
  0
MTEXT
  5
2AC
330
4C
100
AcDbEntity
  8
1
 62
     2
100
AcDbMText
 10
135.5000000000001
 20
25.0
 30
0.0
 40
3.0
 41
0.0
 71
     5
 72
     1
  1
製図
  7
CONVERTER_1
 73
     1
 44
0.78031212484994
  0
MTEXT
  5
2AD
330
4C
100
AcDbEntity
  8
1
 62
     2
100
AcDbMText
 10
152.5000000000001
 20
25.0
 30
0.0
 40
3.0
 41
0.0
 71
     5
 72
     1
  1
設計
  7
CONVERTER_1
 73
     1
 44
0.78031212484994
  0
MTEXT
  5
2AE
330
4C
100
AcDbEntity
  8
1
 62
     2
100
AcDbMText
 10
118.5000000000001
 20
25.0
 30
0.0
 40
3.0
 41
0.0
 71
     5
 72
     1
  1
検図
  7
CONVERTER_1
 73
     1
 44
0.78031212484994
  0
MTEXT
  5
2AF
330
4C
100
AcDbEntity
  8
1
 62
     2
100
AcDbMText
 10
175.0000000000001
 20
23.5
 30
0.0
 40
3.5
 41
0.0
 71
     5
 72
     1
  1
第三角法
  7
CONVERTER_1
 73
     1
 44
0.7202881152461
  0
MTEXT
  5
2B0
330
4C
100
AcDbEntity
  8
1
 62
     2
100
AcDbMText
 10
101.5000000000001
 20
25.0
 30
0.0
 40
3.0
 41
0.0
 71
     5
 72
     1
  1
承認
  7
CONVERTER_1
 73
     1
 44
0.78031212484994
  0
MTEXT
  5
2B1
330
4C
100
AcDbEntity
  8
1
 62
     2
100
AcDbMText
 10
29.00000000000006
 20
14.24999999999999
 30
0.0
 40
3.5
 41
0.0
 71
     5
 72
     1
  1
品番
  7
CONVERTER_1
 73
     1
 44
0.96038415366146
  0
MTEXT
  5
2B2
330
4C
100
AcDbEntity
  8
1
 62
     2
100
AcDbMText
 10
29.00000000000006
 20
22.74999999999999
 30
0.0
 40
3.5
 41
0.0
 71
     5
 72
     1
  1
品名
  7
CONVERTER_1
 73
     1
 44
0.96038415366146
  0
MTEXT
  5
2B3
330
4C
100
AcDbEntity
  8
1
 62
     2
100
AcDbMText
 10
29.00000000000006
 20
34.0
 30
0.0
 40
3.5
 41
0.0
 71
     5
 72
     1
  1
備考
  7
CONVERTER_1
 73
     1
 44
0.60024009603842
  0
MTEXT
  5
2B4
330
4C
100
AcDbEntity
  8
1
 62
     2
100
AcDbMText
 10
32.50000000000006
 20
282.0000000000003
 30
0.0
 40
5.0
 41
0.0
 71
     5
 72
     1
  1
図番
  7
CONVERTER_1
 73
     1
 44
0.60024009603842
  0
MTEXT
  5
2B5
330
4C
100
AcDbEntity
  8
1
 62
     7
100
AcDbMText
 10
171.5000000000001
 20
14.99999999999999
 30
0.0
 40
2.5
 41
0.0
 71
     5
 72
     1
  1
株式会社
  7
CONVERTER_1
 73
     1
 44
1.32052821128451
  0
MTEXT
  5
2B6
330
4C
100
AcDbEntity
  8
1
 62
     7
100
AcDbMText
 10
188.5000000000001
 20
14.99999999999999
 30
0.0
 40
3.0
 41
0.0
 71
     5
 72
     1
  1
三栄水栓製作所
  7
CONVERTER_1
 73
     1
 44
1.32052821128451
  0
ENDBLK
  5
4E
330
4C
100
AcDbEntity
  8
0
100
AcDbBlockEnd
  0
BLOCK
  5
2E1
330
2DA
100
AcDbEntity
  8
0
100
AcDbBlockBegin
  2
*D09
 70
     1
 71
     0
 10
0.0
 20
0.0
 30
0.0
  3
*D09
  1

  0
LINE
  5
2DB
330
2DA
100
AcDbEntity
  8
0
  6
Continuous
 62
     2
100
AcDbLine
 10
311.5924276571454
 20
257.3595190464144
 30
0.0
 11
311.5924276571454
 21
145.759519046414
 31
0.0
  0
LINE
  5
2DC
330
2DA
100
AcDbEntity
  8
0
  6
Continuous
 62
     2
100
AcDbLine
 10
345.0999907942458
 20
257.3595190464144
 30
0.0
 11
309.0924276571454
 21
257.3595190464144
 31
0.0
  0
LINE
  5
2DD
330
2DA
100
AcDbEntity
  8
0
  6
Continuous
 62
     2
100
AcDbLine
 10
194.9307427420106
 20
145.759519046414
 30
0.0
 11
314.0924276571454
 21
145.759519046414
 31
0.0
  0
SOLID
  5
2DE
330
2DA
100
AcDbEntity
  8
0
 62
     2
100
AcDbTrace
 10
312.7443870110351
 20
248.6095190464144
 30
0.0
 11
310.4404683032557
 21
248.6095190464144
 31
0.0
 12
311.5924276571454
 22
257.3595190464144
 32
0.0
 13
311.5924276571454
 23
257.3595190464144
 33
0.0
  0
SOLID
  5
2DF
330
2DA
100
AcDbEntity
  8
0
 62
     2
100
AcDbTrace
 10
310.4404683032557
 20
154.509519046414
 30
0.0
 11
312.7443870110351
 21
154.509519046414
 31
0.0
 12
311.5924276571454
 22
145.759519046414
 32
0.0
 13
311.5924276571454
 23
145.759519046414
 33
0.0
  0
MTEXT
  5
2E0
330
2DA
100
AcDbEntity
  8
0
 62
     7
100
AcDbMText
 10
309.0924276571454
 20
210.3056578919486
 30
0.0
 40
8.75
 41
0.0
 71
     7
 72
     1
  1
112
  7
CONVERTER_2
 11
0.0
 21
1.0
 31
0.0
 73
     1
 44
0.60024009603842
  0
ENDBLK
  5
2E2
330
2DA
100
AcDbEntity
  8
0
100
AcDbBlockEnd
  0
BLOCK
  5
2EC
330
2E5
100
AcDbEntity
  8
0
100
AcDbBlockBegin
  2
*D110
 70
     1
 71
     0
 10
0.0
 20
0.0
 30
0.0
  3
*D110
  1

  0
LINE
  5
2E6
330
2E5
100
AcDbEntity
  8
0
  6
Continuous
 62
     2
100
AcDbLine
 10
354.2325421464216
 20
120.759519046414
 30
0.0
 11
184.230742742011
 21
120.759519046414
 31
0.0
  0
LINE
  5
2E7
330
2E5
100
AcDbEntity
  8
0
  6
Continuous
 62
     2
100
AcDbLine
 10
354.2325421464216
 20
222.8595190464139
 30
0.0
 11
354.2325421464216
 21
118.259519046414
 31
0.0
  0
LINE
  5
2E8
330
2E5
100
AcDbEntity
  8
0
  6
Continuous
 62
     2
100
AcDbLine
 10
184.230742742011
 20
143.759519046414
 30
0.0
 11
184.230742742011
 21
118.259519046414
 31
0.0
  0
SOLID
  5
2E9
330
2E5
100
AcDbEntity
  8
0
 62
     2
100
AcDbTrace
 10
345.4825421464216
 20
119.6075596925243
 30
0.0
 11
345.4825421464216
 21
121.9114784003037
 31
0.0
 12
354.2325421464216
 22
120.759519046414
 32
0.0
 13
354.2325421464216
 23
120.759519046414
 33
0.0
  0
SOLID
  5
2EA
330
2E5
100
AcDbEntity
  8
0
 62
     2
100
AcDbTrace
 10
192.980742742011
 20
121.9114784003037
 30
0.0
 11
192.980742742011
 21
119.6075596925243
 31
0.0
 12
184.230742742011
 22
120.759519046414
 32
0.0
 13
184.230742742011
 23
120.759519046414
 33
0.0
  0
MTEXT
  5
2EB
330
2E5
100
AcDbEntity
  8
0
 62
     7
100
AcDbMText
 10
267.4699727298961
 20
123.259519046414
 30
0.0
 40
8.75
 41
0.0
 71
     7
 72
     1
  1
170
  7
CONVERTER_2
 11
0.9999999999970621
 21
2.424068405545307E-6
 31
0.0
 73
     1
 44
0.60024009603842
  0
ENDBLK
  5
2ED
330
2E5
100
AcDbEntity
  8
0
100
AcDbBlockEnd
  0
BLOCK
  5
2F7
330
2F0
100
AcDbEntity
  8
0
100
AcDbBlockBegin
  2
*D211
 70
     1
 71
     0
 10
0.0
 20
0.0
 30
0.0
  3
*D211
  1

  0
LINE
  5
2F1
330
2F0
100
AcDbEntity
  8
0
  6
Continuous
 62
     2
100
AcDbLine
 10
473.2325421464239
 20
280.3595190464144
 30
0.0
 11
473.2325421464239
 21
234.3595190464144
 31
0.0
  0
LINE
  5
2F2
330
2F0
100
AcDbEntity
  8
0
  6
Continuous
 62
     2
100
AcDbLine
 10
434.2325421464238
 20
280.3595190464144
 30
0.0
 11
475.7325421464239
 21
280.3595190464144
 31
0.0
  0
LINE
  5
2F3
330
2F0
100
AcDbEntity
  8
0
  6
Continuous
 62
     2
100
AcDbLine
 10
434.2325421464238
 20
234.3595190464144
 30
0.0
 11
475.7325421464239
 21
234.3595190464144
 31
0.0
  0
SOLID
  5
2F4
330
2F0
100
AcDbEntity
  8
0
 62
     2
100
AcDbTrace
 10
474.3845015003136
 20
271.6095190464144
 30
0.0
 11
472.0805827925342
 21
271.6095190464144
 31
0.0
 12
473.2325421464239
 22
280.3595190464144
 32
0.0
 13
473.2325421464239
 23
280.3595190464144
 33
0.0
  0
SOLID
  5
2F5
330
2F0
100
AcDbEntity
  8
0
 62
     2
100
AcDbTrace
 10
472.0805827925342
 20
243.1095190464144
 30
0.0
 11
474.3845015003136
 21
243.1095190464144
 31
0.0
 12
473.2325421464239
 22
234.3595190464144
 32
0.0
 13
473.2325421464239
 23
234.3595190464144
 33
0.0
  0
MTEXT
  5
2F6
330
2F0
100
AcDbEntity
  8
0
 62
     7
100
AcDbMText
 10
470.7325421464239
 20
241.6970190464144
 30
0.0
 40
8.75
 41
0.0
 71
     7
 72
     1
  1
\C7;{\Fgdt;n}\C7;46
  7
CONVERTER_2
 11
0.0
 21
1.0
 31
0.0
 73
     1
 44
0.60024009603842
  0
ENDBLK
  5
2F8
330
2F0
100
AcDbEntity
  8
0
100
AcDbBlockEnd
  0
BLOCK
  5
302
330
2FB
100
AcDbEntity
  8
0
100
AcDbBlockBegin
  2
*D312
 70
     1
 71
     0
 10
0.0
 20
0.0
 30
0.0
  3
*D312
  1

  0
LINE
  5
2FC
330
2FB
100
AcDbEntity
  8
0
  6
Continuous
 62
     2
100
AcDbLine
 10
311.5924276571454
 20
307.3595190464143
 30
0.0
 11
311.5924276571454
 21
257.3595190464143
 31
0.0
  0
LINE
  5
2FD
330
2FB
100
AcDbEntity
  8
0
  6
Continuous
 62
     2
100
AcDbLine
 10
389.2325421464238
 20
307.3595190464143
 30
0.0
 11
309.0924276571454
 21
307.3595190464143
 31
0.0
  0
LINE
  5
2FE
330
2FB
100
AcDbEntity
  8
0
  6
Continuous
 62
     2
100
AcDbLine
 10
345.0999907942458
 20
257.3595190464143
 30
0.0
 11
309.0924276571454
 21
257.3595190464143
 31
0.0
  0
SOLID
  5
2FF
330
2FB
100
AcDbEntity
  8
0
 62
     2
100
AcDbTrace
 10
312.7443870110351
 20
298.6095190464143
 30
0.0
 11
310.4404683032557
 21
298.6095190464143
 31
0.0
 12
311.5924276571454
 22
307.3595190464143
 32
0.0
 13
311.5924276571454
 23
307.3595190464143
 33
0.0
  0
SOLID
  5
300
330
2FB
100
AcDbEntity
  8
0
 62
     2
100
AcDbTrace
 10
310.4404683032557
 20
266.1095190464143
 30
0.0
 11
312.7443870110351
 21
266.1095190464143
 31
0.0
 12
311.5924276571454
 22
257.3595190464143
 32
0.0
 13
311.5924276571454
 23
257.3595190464143
 33
0.0
  0
MTEXT
  5
301
330
2FB
100
AcDbEntity
  8
0
 62
     7
100
AcDbMText
 10
309.0924276571454
 20
276.7221461373256
 30
0.0
 40
8.75
 41
0.0
 71
     7
 72
     1
  1
50
  7
CONVERTER_2
 11
0.0
 21
1.0
 31
0.0
 73
     1
 44
0.60024009603842
  0
ENDBLK
  5
303
330
2FB
100
AcDbEntity
  8
0
100
AcDbBlockEnd
  0
BLOCK
  5
30D
330
306
100
AcDbEntity
  8
0
100
AcDbBlockBegin
  2
*D413
 70
     1
 71
     0
 10
0.0
 20
0.0
 30
0.0
  3
*D413
  1

  0
LINE
  5
307
330
306
100
AcDbEntity
  8
0
  6
Continuous
 62
     2
100
AcDbLine
 10
354.2325421464216
 20
120.759519046414
 30
0.0
 11
389.2325421464238
 21
120.759519046414
 31
0.0
  0
LINE
  5
308
330
306
100
AcDbEntity
  8
0
  6
Continuous
 62
     2
100
AcDbLine
 10
354.2325421464216
 20
222.8595190464139
 30
0.0
 11
354.2325421464216
 21
118.259519046414
 31
0.0
  0
LINE
  5
309
330
306
100
AcDbEntity
  8
0
  6
Continuous
 62
     2
100
AcDbLine
 10
389.2325421464238
 20
240.3595190464145
 30
0.0
 11
389.2325421464238
 21
118.259519046414
 31
0.0
  0
SOLID
  5
30A
330
306
100
AcDbEntity
  8
0
 62
     2
100
AcDbTrace
 10
362.9825421464216
 20
121.9114784003037
 30
0.0
 11
362.9825421464216
 21
119.6075596925243
 31
0.0
 12
354.2325421464216
 22
120.759519046414
 32
0.0
 13
354.2325421464216
 23
120.759519046414
 33
0.0
  0
SOLID
  5
30B
330
306
100
AcDbEntity
  8
0
 62
     2
100
AcDbTrace
 10
380.4825421464238
 20
119.6075596925243
 30
0.0
 11
380.4825421464238
 21
121.9114784003037
 31
0.0
 12
389.2325421464238
 22
120.759519046414
 32
0.0
 13
389.2325421464238
 23
120.759519046414
 33
0.0
  0
MTEXT
  5
30C
330
306
100
AcDbEntity
  8
0
 62
     7
100
AcDbMText
 10
365.1700421464227
 20
123.259519046414
 30
0.0
 40
8.75
 41
0.0
 71
     7
 72
     1
  1
35
  7
CONVERTER_2
 11
0.9999999999970621
 21
2.424068405545307E-6
 31
0.0
 73
     1
 44
0.60024009603842
  0
ENDBLK
  5
30E
330
306
100
AcDbEntity
  8
0
100
AcDbBlockEnd
  0
BLOCK
  5
318
330
311
100
AcDbEntity
  8
0
100
AcDbBlockBegin
  2
*D514
 70
     1
 71
     0
 10
0.0
 20
0.0
 30
0.0
  3
*D514
  1

  0
LINE
  5
312
330
311
100
AcDbEntity
  8
0
  6
Continuous
 62
     2
100
AcDbLine
 10
389.2325421464238
 20
120.759519046414
 30
0.0
 11
434.2325421464238
 21
120.759519046414
 31
0.0
  0
LINE
  5
313
330
311
100
AcDbEntity
  8
0
  6
Continuous
 62
     2
100
AcDbLine
 10
389.2325421464238
 20
240.3595190464145
 30
0.0
 11
389.2325421464238
 21
118.259519046414
 31
0.0
  0
LINE
  5
314
330
311
100
AcDbEntity
  8
0
  6
Continuous
 62
     2
100
AcDbLine
 10
434.2325421464238
 20
234.3595190464144
 30
0.0
 11
434.2325421464238
 21
118.259519046414
 31
0.0
  0
SOLID
  5
315
330
311
100
AcDbEntity
  8
0
 62
     2
100
AcDbTrace
 10
397.9825421464238
 20
121.9114784003037
 30
0.0
 11
397.9825421464238
 21
119.6075596925243
 31
0.0
 12
389.2325421464238
 22
120.759519046414
 32
0.0
 13
389.2325421464238
 23
120.759519046414
 33
0.0
  0
SOLID
  5
316
330
311
100
AcDbEntity
  8
0
 62
     2
100
AcDbTrace
 10
425.4825421464238
 20
119.6075596925243
 30
0.0
 11
425.4825421464238
 21
121.9114784003037
 31
0.0
 12
434.2325421464238
 22
120.759519046414
 32
0.0
 13
434.2325421464238
 23
120.759519046414
 33
0.0
  0
MTEXT
  5
317
330
311
100
AcDbEntity
  8
0
 62
     7
100
AcDbMText
 10
405.1700421464238
 20
123.259519046414
 30
0.0
 40
8.75
 41
0.0
 71
     7
 72
     1
  1
45
  7
CONVERTER_2
 11
0.9999999999970621
 21
2.424068405545307E-6
 31
0.0
 73
     1
 44
0.60024009603842
  0
ENDBLK
  5
319
330
311
100
AcDbEntity
  8
0
100
AcDbBlockEnd
  0
BLOCK
  5
323
330
31C
100
AcDbEntity
  8
0
100
AcDbBlockBegin
  2
*D615
 70
     1
 71
     0
 10
0.0
 20
0.0
 30
0.0
  3
*D615
  1

  0
LINE
  5
31D
330
31C
100
AcDbEntity
  8
0
  6
Continuous
 62
     2
100
AcDbLine
 10
434.2325421464238
 20
120.759519046414
 30
0.0
 11
448.2325421464238
 21
120.759519046414
 31
0.0
  0
LINE
  5
31E
330
31C
100
AcDbEntity
  8
0
  6
Continuous
 62
     2
100
AcDbLine
 10
448.2325421464238
 20
120.759519046414
 30
0.0
 11
465.7325421464238
 21
120.759519046414
 31
0.0
  0
LINE
  5
31F
330
31C
100
AcDbEntity
  8
0
  6
Continuous
 62
     2
100
AcDbLine
 10
448.2325421464238
 20
247.8595190464144
 30
0.0
 11
448.2325421464238
 21
118.259519046414
 31
0.0
  0
LINE
  5
320
330
31C
100
AcDbEntity
  8
0
  6
Continuous
 62
     2
100
AcDbLine
 10
434.2325421464238
 20
234.3595190464144
 30
0.0
 11
434.2325421464238
 21
118.259519046414
 31
0.0
  0
SOLID
  5
321
330
31C
100
AcDbEntity
  8
0
 62
     2
100
AcDbTrace
 10
456.9825421464238
 20
121.9114784003037
 30
0.0
 11
456.9825421464238
 21
119.6075596925243
 31
0.0
 12
448.2325421464238
 22
120.759519046414
 32
0.0
 13
448.2325421464238
 23
120.759519046414
 33
0.0
  0
MTEXT
  5
322
330
31C
100
AcDbEntity
  8
0
 62
     7
100
AcDbMText
 10
450.9804645392041
 20
123.259519046414
 30
0.0
 40
8.75
 41
0.0
 71
     7
 72
     1
  1
14
  7
CONVERTER_2
 11
0.9999999999970621
 21
2.424068405545307E-6
 31
0.0
 73
     1
 44
0.60024009603842
  0
ENDBLK
  5
324
330
31C
100
AcDbEntity
  8
0
100
AcDbBlockEnd
  0
BLOCK
  5
326
330
325
100
AcDbEntity
  8
0
100
AcDbBlockBegin
  2
_None
 70
     0
 71
     0
 10
0.0
 20
0.0
 30
0.0
  3
_None
  1

  0
ENDBLK
  5
327
330
325
100
AcDbEntity
  8
0
100
AcDbBlockEnd
  0
ENDSEC
  0
SECTION
  2
ENTITIES
  0
INSERT
  5
4F
330
1F
100
AcDbEntity
  8
1
100
AcDbBlockReference
  2
81-100X-M21
 10
138.6170101455298
 20
99.15480492396623
 30
0.0
  0
INSERT
  5
50
330
1F
100
AcDbEntity
  8
1
100
AcDbBlockReference
  2
A105-0
 10
592.3531106193932
 20
296.1981759312904
 30
0.0
  0
INSERT
  5
51
330
1F
100
AcDbEntity
  8
1
100
AcDbBlockReference
  2
30-111
 10
674.2691652793494
 20
108.4388334304823
 30
0.0
  0
INSERT
  5
52
330
1F
100
AcDbEntity
  8
0
100
AcDbBlockReference
  2
60-2-16-170
 10
115.0663081410078
 20
110.9934212164201
 30
0.0
  0
INSERT
  5
53
330
1F
100
AcDbEntity
  8
0
100
AcDbBlockReference
  2
32-1-16
 10
533.1028463865168
 20
386.1893209067457
 30
0.0
  0
INSERT
  5
54
330
1F
100
AcDbEntity
  8
0
100
AcDbBlockReference
  2
A10-0A-13
 10
904.6485862221859
 20
205.7034887766368
 30
0.0
  0
INSERT
  5
55
330
1F
100
AcDbEntity
  8
1
100
AcDbBlockReference
  2
_J__A4
 10
0.00000000000014
 20
-0.00000000000002
 30
0.0
 41
2.5
 42
2.5
 43
2.5
  0
LINE
  5
2B7
330
1F
100
AcDbEntity
  8
1
  6
DASH_CENTER
 62
     2
100
AcDbLine
 10
124.7506328336651
 20
143.759519046414
 30
0.0
 11
124.7506328336651
 21
168.8595190464139
 31
0.0
  0
LINE
  5
2B8
330
1F
100
AcDbEntity
  8
1
  6
DASH_CENTER
 62
     2
100
AcDbLine
 10
140.7506328336654
 20
532.6095190464151
 30
0.0
 11
108.7506328336649
 21
532.6095190464151
 31
0.0
  0
LINE
  5
2B9
330
1F
100
AcDbEntity
  8
1
  6
DASH_CENTER
 62
     2
100
AcDbLine
 10
143.250632833665
 20
567.6095190464154
 30
0.0
 11
106.2506328336651
 21
567.6095190464154
 31
0.0
  0
LINE
  5
2BA
330
1F
100
AcDbEntity
  8
1
  6
DASH_CENTER
 62
     2
100
AcDbLine
 10
124.7506328336651
 20
348.907719642002
 30
0.0
 11
124.7506328336651
 21
629.6095190464154
 31
0.0
  0
LINE
  5
2BB
330
1F
100
AcDbEntity
  8
1
  6
DASH_CENTER
 62
     2
100
AcDbLine
 10
354.2325421464216
 20
244.8595190464139
 30
0.0
 11
354.2325421464216
 21
264.7034908141484
 31
0.0
  0
LINE
  5
2BC
330
1F
100
AcDbEntity
  8
1
  6
DASH_CENTER
 62
     2
100
AcDbLine
 10
389.2325421464238
 20
240.3595190464145
 30
0.0
 11
389.2325421464238
 21
277.6342032348438
 31
0.0
  0
LINE
  5
2BD
330
1F
100
AcDbEntity
  8
1
  6
DASH_CENTER
 62
     2
100
AcDbLine
 10
345.0999907942459
 20
257.3595190464144
 30
0.0
 11
451.2325421464238
 21
257.3595190464144
 31
0.0
  0
LINE
  5
2BE
330
1F
100
AcDbEntity
  8
1
  6
DASH_CENTER
 62
     2
100
AcDbLine
 10
138.4523958839218
 20
362.6095190464151
 30
0.0
 11
111.0488705595443
 21
362.6095190464151
 31
0.0
  0
LINE
  5
2BF
330
1F
100
AcDbEntity
  8
1
  6
DASH_CENTER
 62
     2
100
AcDbLine
 10
211.230742742011
 20
195.8595190464139
 30
0.0
 11
327.2325421464216
 21
195.8595190464139
 31
0.0
  0
LINE
  5
2C0
330
1F
100
AcDbEntity
  8
1
  6
DASH_CENTER
 62
     2
100
AcDbLine
 10
354.2325421464216
 20
244.8595190464139
 30
0.0
 11
354.2325421464216
 21
222.8595190464139
 31
0.0
  0
LINE
  5
2C1
330
1F
100
AcDbEntity
  8
1
  6
DASH_CENTER
 62
     2
100
AcDbLine
 10
389.2325421464238
 20
310.1342032348438
 30
0.0
 11
389.2325421464238
 21
277.6342032348438
 31
0.0
  0
LINE
  5
2C2
330
1F
100
AcDbEntity
  8
1
  6
DASH_CENTER
 62
     2
100
AcDbLine
 10
352.1264159365414
 20
296.3595190464142
 30
0.0
 11
411.9823887834793
 21
296.3595190464142
 31
0.0
  0
LINE
  5
2C3
330
1F
100
AcDbEntity
  8
1
  6
DASH_CENTER
 62
     2
100
AcDbLine
 10
184.230742742011
 20
143.759519046414
 30
0.0
 11
184.230742742011
 21
168.8595190464139
 31
0.0
  0
LINE
  5
2C4
330
1F
100
AcDbEntity
  8
0
  6
DASH_CENTER
 62
     2
100
AcDbLine
 10
124.7506328336651
 20
310.1342032348438
 30
0.0
 11
124.7506328336651
 21
144.4645914644524
 31
0.0
  0
LINE
  5
2C5
330
1F
100
AcDbEntity
  8
0
  6
DASH_CENTER
 62
     2
100
AcDbLine
 10
98.75063283366512
 20
257.3595190464144
 30
0.0
 11
150.7506328336649
 21
257.3595190464144
 31
0.0
  0
LINE
  5
2C6
330
1F
100
AcDbEntity
  8
1
  6
Continuous
 62
     2
100
AcDbLine
 10
169.9642198888821
 20
556.5749315983329
 30
0.0
 11
188.017917003981
 21
556.5749315983329
 31
0.0
  0
LINE
  5
2C7
330
1F
100
AcDbEntity
  8
1
  6
Continuous
 62
     2
100
AcDbLine
 10
149.700233243805
 20
521.6140676713583
 30
0.0
 11
166.992126349691
 21
521.6140676713583
 31
0.0
  0
ARC
  5
2C8
330
1F
100
AcDbEntity
  8
1
  6
Continuous
 62
     2
100
AcDbCircle
 10
134.7506328336651
 20
567.6095190464152
 30
0.0
 40
30.0
100
AcDbArc
 50
-64.99999999999974
 51
-24.99999999999987
  0
ARC
  5
2C9
330
1F
100
AcDbEntity
  8
1
  6
DASH_CENTER
 62
     2
100
AcDbCircle
 10
327.2325421464216
 20
222.8595190464139
 30
0.0
 40
27.0
100
AcDbArc
 50
-90.0
 51
0.0
  0
ARC
  5
2CA
330
1F
100
AcDbEntity
  8
1
  6
DASH_CENTER
 62
     2
100
AcDbCircle
 10
211.230742742011
 20
168.8595190464139
 30
0.0
 40
27.0
100
AcDbArc
 50
90.0
 51
180.0
  0
SOLID
  5
2CB
330
1F
100
AcDbEntity
  8
1
 62
     2
100
AcDbTrace
 10
160.6312229107948
 20
549.3265545719601
 30
0.0
 11
158.5431634452349
 21
550.3002326914337
 31
0.0
 12
163.2851029682461
 22
557.7435867682675
 32
0.0
 13
163.2851029682461
 23
557.7435867682675
 33
0.0
  0
LEADER
  5
2CC
330
1F
100
AcDbEntity
  8
1
  6
Continuous
 62
     2
100
AcDbLeader
  3
Standard
 71
     0
 76
     2
 10
163.2851029682461
 20
557.7435867682675
 30
0.0
 10
162.4398664447647
 20
555.9309711941943
 30
0.0
  0
SOLID
  5
2CD
330
1F
100
AcDbEntity
  8
1
 62
     2
100
AcDbTrace
 10
151.0599191886468
 20
543.3169884348454
 30
0.0
 11
152.0335973081204
 21
541.2289289692855
 31
0.0
 12
143.6165651118129
 22
538.5750489118343
 32
0.0
 13
143.6165651118129
 23
538.5750489118343
 33
0.0
  0
LEADER
  5
2CE
330
1F
100
AcDbEntity
  8
1
  6
Continuous
 62
     2
100
AcDbLeader
  3
Standard
 71
     0
 76
     2
 10
143.6165651118129
 20
538.5750489118343
 30
0.0
 10
145.4291806858862
 20
539.4202854353158
 30
0.0
  0
SOLID
  5
2CF
330
1F
100
AcDbEntity
  8
1
 62
     2
100
AcDbTrace
 10
138.6280067690696
 20
627.2632210064742
 30
0.0
 11
140.6232588982608
 21
626.1112616525844
 31
0.0
 12
135.2506328336651
 22
619.1095190464155
 32
0.0
 13
135.2506328336651
 23
619.1095190464155
 33
0.0
  0
LEADER
  5
2D0
330
1F
100
AcDbEntity
  8
1
  6
Continuous
 62
     2
100
AcDbLeader
  3
Standard
 71
     0
 76
     3
 10
135.2506328336651
 20
619.1095190464155
 30
0.0
 10
151.0943052132319
 20
646.5515645863009
 30
0.0
 10
188.1523285887471
 20
646.5515645863009
 30
0.0
  0
MTEXT
  5
2D2
330
1F
100
AcDbEntity
  8
0
 62
     7
100
AcDbMText
 10
169.6233169009895
 20
654.0515645863009
 30
0.0
 40
8.75
 41
0.0
 71
     5
 72
     1
  1
PJ1/2
  7
CONVERTER_2
 73
     1
 44
0.7202881152461
  0
MTEXT
  5
2D3
330
1F
100
AcDbEntity
  8
1
 62
     7
100
AcDbMText
 10
178.9969746165136
 20
564.0749315983329
 30
0.0
 40
8.75
 41
0.0
 71
     5
 72
     1
  1
吐水
  7
CONVERTER_1
 73
     1
 44
0.7202881152461
  0
MTEXT
  5
2D4
330
1F
100
AcDbEntity
  8
1
 62
     7
100
AcDbMText
 10
158.1289124947107
 20
529.1140676713583
 30
0.0
 40
8.75
 41
0.0
 71
     5
 72
     1
  1
止水
  7
CONVERTER_1
 73
     1
 44
0.7202881152461
  0
MTEXT
  5
2D5
330
1F
100
AcDbEntity
  8
0
 62
     7
100
AcDbMText
 10
234.375
 20
42.5
 30
0.0
 40
8.75
 41
0.0
 71
     5
 72
     1
  1
2,5
  7
CONVERTER_2
 73
     1
 44
0.7202881152461
  0
MTEXT
  5
2D6
330
1F
100
AcDbEntity
  8
0
 62
     7
100
AcDbMText
 10
213.125
 20
42.5
 30
0.0
 40
8.75
 41
0.0
 71
     5
 72
     1
  1
1
  7
CONVERTER_2
 73
     1
 44
0.7202881152461
  0
MTEXT
  5
2D7
330
1F
100
AcDbEntity
  8
0
 62
     7
100
AcDbMText
 10
142.5
 20
56.87500000000003
 30
0.0
 40
8.75
 41
0.0
 71
     5
 72
     1
  1
ミニセラ自在水栓
  7
CONVERTER_1
 73
     1
 44
1.32052821128451
  0
MTEXT
  5
2D8
330
1F
100
AcDbEntity
  8
0
 62
     7
100
AcDbMText
 10
142.5
 20
35.625
 30
0.0
 40
8.75
 41
0.0
 71
     5
 72
     1
  1
A105H-13
  7
CONVERTER_2
 73
     1
 44
1.32052821128451
  0
MTEXT
  5
2D9
330
1F
100
AcDbEntity
  8
0
 62
     7
100
AcDbMText
 10
85.0
 20
85.00000000000001
 30
0.0
 40
8.75
 41
0.0
 71
     4
 72
     1
  1
JIS
  7
CONVERTER_2
 73
     1
 44
1.32052821128451
  0
DIMENSION
  5
2E4
330
1F
100
AcDbEntity
  8
0
100
AcDbDimension
  2
*D09
 10
311.5924276571454
 20
257.3595190464144
 30
0.0
 11
304.7174276571454
 21
218.1806578919486
 31
0.0
  1
112
 71
     5
 42
0.0
 53
90.0
  3
ME10_DIM_0
100
AcDbAlignedDimension
 13
194.9307427420106
 23
145.759519046414
 33
0.0
 14
345.0999907942459
 24
257.3595190464144
 34
0.0
 50
90.0
100
AcDbRotatedDimension
  0
DIMENSION
  5
2EF
330
1F
100
AcDbEntity
  8
0
100
AcDbDimension
  2
*D110
 10
354.2325421464216
 20
120.759519046414
 30
0.0
 11
276.6574727298961
 21
127.634519046414
 31
0.0
  1
<>
 71
     5
 42
0.0
 53
0.00013888888889
  3
ME10_DIM_1
100
AcDbAlignedDimension
 13
184.230742742011
 23
143.759519046414
 33
0.0
 14
354.2325421464216
 24
222.8595190464139
 34
0.0
100
AcDbRotatedDimension
  0
DIMENSION
  5
2FA
330
1F
100
AcDbEntity
  8
0
100
AcDbDimension
  2
*D211
 10
473.2325421464239
 20
280.3595190464144
 30
0.0
 11
466.3575421464239
 21
257.3595190464144
 31
0.0
  1
<>
 71
     5
 42
0.0
 53
90.0
  3
ME10_DIM_2
100
AcDbAlignedDimension
 13
434.2325421464238
 23
234.3595190464144
 33
0.0
 14
434.2325421464238
 24
280.3595190464144
 34
0.0
 50
90.0
100
AcDbRotatedDimension
  0
DIMENSION
  5
305
330
1F
100
AcDbEntity
  8
0
100
AcDbDimension
  2
*D312
 10
311.5924276571454
 20
307.3595190464143
 30
0.0
 11
304.7174276571454
 21
283.2846461373256
 31
0.0
  1
<>
 71
     5
 42
0.0
 53
90.0
  3
ME10_DIM_3
100
AcDbAlignedDimension
 13
345.0999907942459
 23
257.3595190464144
 33
0.0
 14
389.2325421464238
 24
307.3595190464144
 34
0.0
 50
90.0
100
AcDbRotatedDimension
  0
DIMENSION
  5
310
330
1F
100
AcDbEntity
  8
0
100
AcDbDimension
  2
*D413
 10
354.2325421464216
 20
120.759519046414
 30
0.0
 11
371.7325421464227
 21
127.634519046414
 31
0.0
  1
<>
 71
     5
 42
0.0
 53
0.00013888888889
  3
ME10_DIM_4
100
AcDbAlignedDimension
 13
389.2325421464238
 23
240.3595190464145
 33
0.0
 14
354.2325421464216
 24
222.8595190464139
 34
0.0
100
AcDbRotatedDimension
  0
DIMENSION
  5
31B
330
1F
100
AcDbEntity
  8
0
100
AcDbDimension
  2
*D514
 10
389.2325421464238
 20
120.759519046414
 30
0.0
 11
411.7325421464238
 21
127.634519046414
 31
0.0
  1
<>
 71
     5
 42
0.0
 53
0.00013888888889
  3
ME10_DIM_5
100
AcDbAlignedDimension
 13
434.2325421464238
 23
234.3595190464144
 33
0.0
 14
389.2325421464238
 24
240.3595190464145
 34
0.0
100
AcDbRotatedDimension
  0
DIMENSION
  5
329
330
1F
100
AcDbEntity
  8
0
100
AcDbDimension
  2
*D615
 10
434.2325421464238
 20
120.759519046414
 30
0.0
 11
456.2304645392041
 21
127.634519046414
 31
0.0
  1
<>
 71
     5
 42
0.0
 53
0.00013888888889
  3
ME10_DIM_6
100
AcDbAlignedDimension
 13
448.2325421464238
 23
247.8595190464144
 33
0.0
 14
434.2325421464238
 24
234.3595190464144
 34
0.0
100
AcDbRotatedDimension
  0
ENDSEC
  0
SECTION
  2
OBJECTS
  0
DICTIONARY
  5
C
330
0
100
AcDbDictionary
281
     1
  3
ACAD_GROUP
350
D
  3
ACAD_LAYOUT
350
1A
  3
ACAD_MLINESTYLE
350
17
  3
ACAD_PLOTSETTINGS
350
19
  3
ACAD_PLOTSTYLENAME
350
E
  3
ACAD_TABLESTYLE
350
2A
  3
AcDbVariableDictionary
350
2C
  0
DICTIONARY
  5
D
102
{ACAD_REACTORS
330
C
102
}
330
C
100
AcDbDictionary
281
     1
  0
DICTIONARY
  5
1A
102
{ACAD_REACTORS
330
C
102
}
330
C
100
AcDbDictionary
281
     1
  3
Layout1
350
1E
  3
Layout2
350
26
  3
Model
350
22
  0
DICTIONARY
  5
17
102
{ACAD_REACTORS
330
C
102
}
330
C
100
AcDbDictionary
281
     1
  3
Standard
350
18
  0
DICTIONARY
  5
19
102
{ACAD_REACTORS
330
C
102
}
330
C
100
AcDbDictionary
281
     1
  0
ACDBDICTIONARYWDFLT
  5
E
102
{ACAD_REACTORS
330
C
102
}
330
C
100
AcDbDictionary
281
     1
  3
Normal
350
F
100
AcDbDictionaryWithDefault
340
F
  0
DICTIONARY
  5
2A
102
{ACAD_REACTORS
330
C
102
}
330
C
100
AcDbDictionary
281
     1
  3
Standard
350
2B
  0
DICTIONARY
  5
2C
102
{ACAD_REACTORS
330
C
102
}
330
C
100
AcDbDictionary
281
     1
  3
CTABLESTYLE
350
2D
  0
LAYOUT
  5
1E
102
{ACAD_REACTORS
330
1A
102
}
330
1A
100
AcDbPlotSettings
  1

  2

  4

  6

 40
0.0
 41
0.0
 42
0.0
 43
0.0
 44
0.0
 45
0.0
 46
0.0
 47
0.0
 48
0.0
 49
0.0
140
0.0
141
0.0
142
1.0
143
1.0
 70
   688
 72
     0
 73
     0
 74
     5
  7

 75
    16
147
1.0
148
0.0
149
0.0
100
AcDbLayout
  1
Layout1
 70
     1
 71
     1
 10
0.0
 20
0.0
 11
12.0
 21
9.0
 12
0.0
 22
0.0
 32
0.0
 14
1.00000000000000E+20
 24
1.00000000000000E+20
 34
1.00000000000000E+20
 15
-1.00000000000000E+20
 25
-1.00000000000000E+20
 35
-1.00000000000000E+20
146
0.0
 13
0.0
 23
0.0
 33
0.0
 16
1.0
 26
0.0
 36
0.0
 17
0.0
 27
1.0
 37
0.0
 76
     0
330
1B
  0
LAYOUT
  5
26
102
{ACAD_REACTORS
330
1A
102
}
330
1A
100
AcDbPlotSettings
  1

  2

  4

  6

 40
0.0
 41
0.0
 42
0.0
 43
0.0
 44
0.0
 45
0.0
 46
0.0
 47
0.0
 48
0.0
 49
0.0
140
0.0
141
0.0
142
1.0
143
1.0
 70
   688
 72
     0
 73
     0
 74
     5
  7

 75
    16
147
1.0
148
0.0
149
0.0
100
AcDbLayout
  1
Layout2
 70
     1
 71
     2
 10
0.0
 20
0.0
 11
0.0
 21
0.0
 12
0.0
 22
0.0
 32
0.0
 14
0.0
 24
0.0
 34
0.0
 15
0.0
 25
0.0
 35
0.0
146
0.0
 13
0.0
 23
0.0
 33
0.0
 16
1.0
 26
0.0
 36
0.0
 17
0.0
 27
1.0
 37
0.0
 76
     0
330
23
  0
LAYOUT
  5
22
102
{ACAD_REACTORS
330
1A
102
}
330
1A
100
AcDbPlotSettings
  1

  2

  4

  6

 40
0.0
 41
0.0
 42
0.0
 43
0.0
 44
0.0
 45
0.0
 46
0.0
 47
0.0
 48
0.0
 49
0.0
140
0.0
141
0.0
142
1.0
143
1.0
 70
  1712
 72
     0
 73
     0
 74
     0
  7

 75
     0
147
1.0
148
0.0
149
0.0
100
AcDbLayout
  1
Model
 70
     1
 71
     0
 10
0.0
 20
0.0
 11
0.0
 21
0.0
 12
0.0
 22
0.0
 32
0.0
 14
0.00000000000014
 24
-0.00000000000002
 34
0.0
 15
525.0000000000005
 25
742.5
 35
0.0
146
0.0
 13
0.0
 23
0.0
 33
0.0
 16
1.0
 26
0.0
 36
0.0
 17
0.0
 27
1.0
 37
0.0
 76
     0
330
1F
  0
MLINESTYLE
  5
18
102
{ACAD_REACTORS
330
17
102
}
330
17
100
AcDbMlineStyle
  2
Standard
 70
     0
  3

 62
   256
 51
90.0
 52
90.0
 71
     2
 49
0.5
 62
   256
  6
BYLAYER
 49
-0.5
 62
   256
  6
BYLAYER
  0
ACDBPLACEHOLDER
  5
F
102
{ACAD_REACTORS
330
E
102
}
330
E
  0
TABLESTYLE
  5
2B
102
{ACAD_REACTORS
330
2A
102
}
330
2A
100
AcDbTableStyle
  3
Standard
 70
     0
 71
     0
 40
0.06
 41
0.06
280
     0
281
     0
  7
Standard
140
0.18
170
     2
 62
     0
 63
     7
283
     0
274
    -2
284
     1
 64
     0
275
    -2
285
     1
 65
     0
276
    -2
286
     1
 66
     0
277
    -2
287
     1
 67
     0
278
    -2
288
     1
 68
     0
279
    -2
289
     1
 69
     0
  7
Standard
140
0.25
170
     5
 62
     0
 63
     7
283
     0
274
    -2
284
     1
 64
     0
275
    -2
285
     1
 65
     0
276
    -2
286
     1
 66
     0
277
    -2
287
     1
 67
     0
278
    -2
288
     1
 68
     0
279
    -2
289
     1
 69
     0
  7
Standard
140
0.18
170
     5
 62
     0
 63
     7
283
     0
274
    -2
284
     1
 64
     0
275
    -2
285
     1
 65
     0
276
    -2
286
     1
 66
     0
277
    -2
287
     1
 67
     0
278
    -2
288
     1
 68
     0
279
    -2
289
     1
 69
     0
  0
DICTIONARYVAR
  5
2D
102
{ACAD_REACTORS
330
2C
102
}
330
2C
100
DictionaryVariables
280
     0
  1
Standard
  0
ENDSEC
  0
EOF
