  0
SECTION
  2
HEADER
  9
$ACADVER
  1
AC1015
  9
$ACADMAINTVER
 70
     6
  9
$DWGCODEPAGE
  3
DOS932
  9
$INSBASE
 10
0.0
 20
0.0
 30
0.0
  9
$EXTMIN
 10
1002.12028248235
 20
1.1123602113846
 30
0.0
  9
$EXTMAX
 10
1422.12028248235
 20
595.1123602113846
 30
0.0
  9
$LIMMIN
 10
0.0
 20
0.0
  9
$LIMMAX
 10
12.0
 20
9.0
  9
$ORTHOMODE
 70
     0
  9
$REGENMODE
 70
     1
  9
$FILLMODE
 70
     1
  9
$QTEXTMODE
 70
     0
  9
$MIRRTEXT
 70
     1
  9
$LTSCALE
 40
1.0
  9
$ATTMODE
 70
     1
  9
$TEXTSIZE
 40
0.2
  9
$TRACEWID
 40
0.05
  9
$TEXTSTYLE
  7
Standard
  9
$CLAYER
  8
0
  9
$CELTYPE
  6
ByLayer
  9
$CECOLOR
 62
   256
  9
$CELTSCALE
 40
1.0
  9
$DISPSILH
 70
     0
  9
$DIMSCALE
 40
1.0
  9
$DIMASZ
 40
0.18
  9
$DIMEXO
 40
0.0625
  9
$DIMDLI
 40
0.38
  9
$DIMRND
 40
0.0
  9
$DIMDLE
 40
0.0
  9
$DIMEXE
 40
0.18
  9
$DIMTP
 40
0.0
  9
$DIMTM
 40
0.0
  9
$DIMTXT
 40
0.18
  9
$DIMCEN
 40
0.09
  9
$DIMTSZ
 40
0.0
  9
$DIMTOL
 70
     0
  9
$DIMLIM
 70
     0
  9
$DIMTIH
 70
     1
  9
$DIMTOH
 70
     1
  9
$DIMSE1
 70
     0
  9
$DIMSE2
 70
     0
  9
$DIMTAD
 70
     0
  9
$DIMZIN
 70
     0
  9
$DIMBLK
  1

  9
$DIMASO
 70
     1
  9
$DIMSHO
 70
     1
  9
$DIMPOST
  1

  9
$DIMAPOST
  1

  9
$DIMALT
 70
     0
  9
$DIMALTD
 70
     2
  9
$DIMALTF
 40
25.4
  9
$DIMLFAC
 40
1.0
  9
$DIMTOFL
 70
     0
  9
$DIMTVP
 40
0.0
  9
$DIMTIX
 70
     0
  9
$DIMSOXD
 70
     0
  9
$DIMSAH
 70
     0
  9
$DIMBLK1
  1

  9
$DIMBLK2
  1

  9
$DIMSTYLE
  2
Standard
  9
$DIMCLRD
 70
     0
  9
$DIMCLRE
 70
     0
  9
$DIMCLRT
 70
     0
  9
$DIMTFAC
 40
1.0
  9
$DIMGAP
 40
0.09
  9
$DIMJUST
 70
     0
  9
$DIMSD1
 70
     0
  9
$DIMSD2
 70
     0
  9
$DIMTOLJ
 70
     1
  9
$DIMTZIN
 70
     0
  9
$DIMALTZ
 70
     0
  9
$DIMALTTZ
 70
     0
  9
$DIMUPT
 70
     0
  9
$DIMDEC
 70
     4
  9
$DIMTDEC
 70
     4
  9
$DIMALTU
 70
     2
  9
$DIMALTTD
 70
     2
  9
$DIMTXSTY
  7
Standard
  9
$DIMAUNIT
 70
     0
  9
$DIMADEC
 70
     0
  9
$DIMALTRND
 40
0.0
  9
$DIMAZIN
 70
     0
  9
$DIMDSEP
 70
    46
  9
$DIMATFIT
 70
     3
  9
$DIMFRAC
 70
     0
  9
$DIMLDRBLK
  1

  9
$DIMLUNIT
 70
     2
  9
$DIMLWD
 70
    -2
  9
$DIMLWE
 70
    -2
  9
$DIMTMOVE
 70
     0
  9
$LUNITS
 70
     2
  9
$LUPREC
 70
     4
  9
$SKETCHINC
 40
0.1
  9
$FILLETRAD
 40
0.5
  9
$AUNITS
 70
     0
  9
$AUPREC
 70
     0
  9
$MENU
  1
.
  9
$ELEVATION
 40
0.0
  9
$PELEVATION
 40
0.0
  9
$THICKNESS
 40
0.0
  9
$LIMCHECK
 70
     0
  9
$CHAMFERA
 40
0.5
  9
$CHAMFERB
 40
0.5
  9
$CHAMFERC
 40
1.0
  9
$CHAMFERD
 40
0.0
  9
$SKPOLY
 70
     0
  9
$TDCREATE
 40
2456141.48402434
  9
$TDUCREATE
 40
2456141.10902434
  9
$TDUPDATE
 40
2456141.484024352
  9
$TDUUPDATE
 40
2456141.109024352
  9
$TDINDWG
 40
0.0000000116
  9
$TDUSRTIMER
 40
0.0000000116
  9
$USRTIMER
 70
     1
  9
$ANGBASE
 50
0.0
  9
$ANGDIR
 70
     0
  9
$PDMODE
 70
     0
  9
$PDSIZE
 40
0.0
  9
$PLINEWID
 40
0.0
  9
$SPLFRAME
 70
     0
  9
$SPLINETYPE
 70
     6
  9
$SPLINESEGS
 70
     8
  9
$HANDSEED
  5
46F
  9
$SURFTAB1
 70
     6
  9
$SURFTAB2
 70
     6
  9
$SURFTYPE
 70
     6
  9
$SURFU
 70
     6
  9
$SURFV
 70
     6
  9
$UCSBASE
  2

  9
$UCSNAME
  2

  9
$UCSORG
 10
0.0
 20
0.0
 30
0.0
  9
$UCSXDIR
 10
1.0
 20
0.0
 30
0.0
  9
$UCSYDIR
 10
0.0
 20
1.0
 30
0.0
  9
$UCSORTHOREF
  2

  9
$UCSORTHOVIEW
 70
     0
  9
$UCSORGTOP
 10
0.0
 20
0.0
 30
0.0
  9
$UCSORGBOTTOM
 10
0.0
 20
0.0
 30
0.0
  9
$UCSORGLEFT
 10
0.0
 20
0.0
 30
0.0
  9
$UCSORGRIGHT
 10
0.0
 20
0.0
 30
0.0
  9
$UCSORGFRONT
 10
0.0
 20
0.0
 30
0.0
  9
$UCSORGBACK
 10
0.0
 20
0.0
 30
0.0
  9
$PUCSBASE
  2

  9
$PUCSNAME
  2

  9
$PUCSORG
 10
0.0
 20
0.0
 30
0.0
  9
$PUCSXDIR
 10
1.0
 20
0.0
 30
0.0
  9
$PUCSYDIR
 10
0.0
 20
1.0
 30
0.0
  9
$PUCSORTHOREF
  2

  9
$PUCSORTHOVIEW
 70
     0
  9
$PUCSORGTOP
 10
0.0
 20
0.0
 30
0.0
  9
$PUCSORGBOTTOM
 10
0.0
 20
0.0
 30
0.0
  9
$PUCSORGLEFT
 10
0.0
 20
0.0
 30
0.0
  9
$PUCSORGRIGHT
 10
0.0
 20
0.0
 30
0.0
  9
$PUCSORGFRONT
 10
0.0
 20
0.0
 30
0.0
  9
$PUCSORGBACK
 10
0.0
 20
0.0
 30
0.0
  9
$USERI1
 70
     0
  9
$USERI2
 70
     0
  9
$USERI3
 70
     0
  9
$USERI4
 70
     0
  9
$USERI5
 70
     0
  9
$USERR1
 40
13.2
  9
$USERR2
 40
0.0
  9
$USERR3
 40
0.0
  9
$USERR4
 40
0.0
  9
$USERR5
 40
0.0
  9
$WORLDVIEW
 70
     1
  9
$SHADEDGE
 70
     3
  9
$SHADEDIF
 70
    70
  9
$TILEMODE
 70
     1
  9
$MAXACTVP
 70
    64
  9
$PINSBASE
 10
0.0
 20
0.0
 30
0.0
  9
$PLIMCHECK
 70
     0
  9
$PEXTMIN
 10
1.00000000000000E+20
 20
1.00000000000000E+20
 30
1.00000000000000E+20
  9
$PEXTMAX
 10
-1.00000000000000E+20
 20
-1.00000000000000E+20
 30
-1.00000000000000E+20
  9
$PLIMMIN
 10
0.0
 20
0.0
  9
$PLIMMAX
 10
12.0
 20
9.0
  9
$UNITMODE
 70
     0
  9
$VISRETAIN
 70
     1
  9
$PLINEGEN
 70
     0
  9
$PSLTSCALE
 70
     1
  9
$TREEDEPTH
 70
  3020
  9
$CMLSTYLE
  2
Standard
  9
$CMLJUST
 70
     0
  9
$CMLSCALE
 40
1.0
  9
$PROXYGRAPHICS
 70
     1
  9
$MEASUREMENT
 70
     1
  9
$CELWEIGHT
370
    -1
  9
$ENDCAPS
280
     0
  9
$JOINSTYLE
280
     0
  9
$LWDISPLAY
290
     0
  9
$INSUNITS
 70
     1
  9
$HYPERLINKBASE
  1

  9
$STYLESHEET
  1

  9
$XEDIT
290
     1
  9
$CEPSNTYPE
380
     0
  9
$PSTYLEMODE
290
     0
  9
$FINGERPRINTGUID
  2
{FAEB1C30-E019-11D5-929B-00C0DF256EC4}
  9
$VERSIONGUID
  2
{FAEB1C32-E019-11D5-929B-00C0DF256EC4}
  9
$EXTNAMES
290
     1
  9
$PSVPSCALE
 40
0.0
  9
$OLESTARTUP
290
     0
  0
ENDSEC
  0
SECTION
  2
CLASSES
  0
CLASS
  1
ACDBDICTIONARYWDFLT
  2
AcDbDictionaryWithDefault
  3
ObjectDBX Classes
 90
        0
280
     0
281
     0
  0
CLASS
  1
TABLESTYLE
  2
AcDbTableStyle
  3
ObjectDBX Classes
 90
     2047
280
     0
281
     0
  0
CLASS
  1
DICTIONARYVAR
  2
AcDbDictionaryVar
  3
ObjectDBX Classes
 90
        0
280
     0
281
     0
  0
CLASS
  1

  2
exOdDbSpline
  3

 90
        0
280
     0
281
     1
  0
CLASS
  1

  2
exOdDbPolyline
  3

 90
        0
280
     0
281
     1
  0
CLASS
  1

  2
exOdDbCircle
  3

 90
        0
280
     0
281
     1
  0
CLASS
  1
ACDBPLACEHOLDER
  2
AcDbPlaceHolder
  3
ObjectDBX Classes
 90
        0
280
     0
281
     0
  0
CLASS
  1
LAYOUT
  2
AcDbLayout
  3
ObjectDBX Classes
 90
        0
280
     0
281
     0
  0
ENDSEC
  0
SECTION
  2
TABLES
  0
TABLE
  2
VPORT
  5
8
330
0
100
AcDbSymbolTable
 70
     2
  0
VPORT
  5
29
330
8
100
AcDbSymbolTableRecord
100
AcDbViewportTableRecord
  2
*Active
 70
     0
 10
0.0
 20
0.0
 11
1.0
 21
1.0
 12
1212.12028248235
 22
298.1123602113846
 13
0.0
 23
0.0
 14
0.5
 24
0.5
 15
0.5
 25
0.5
 16
0.0
 26
0.0
 36
1.0
 17
0.0
 27
0.0
 37
0.0
 40
653.4000000000001
 41
1.60267857142857
 42
50.0
 43
0.0
 44
0.0
 50
0.0
 51
0.0
 71
     0
 72
   100
 73
     1
 74
     3
 75
     0
 76
     0
 77
     0
 78
     0
281
     0
 65
     1
110
0.0
120
0.0
130
0.0
111
1.0
121
0.0
131
0.0
112
0.0
122
1.0
132
0.0
 79
     0
146
0.0
  0
ENDTAB
  0
TABLE
  2
LTYPE
  5
5
330
0
100
AcDbSymbolTable
 70
     8
  0
LTYPE
  5
14
330
5
100
AcDbSymbolTableRecord
100
AcDbLinetypeTableRecord
  2
ByBlock
 70
     0
  3

 72
    65
 73
     0
 40
0.0
  0
LTYPE
  5
15
330
5
100
AcDbSymbolTableRecord
100
AcDbLinetypeTableRecord
  2
ByLayer
 70
     0
  3

 72
    65
 73
     0
 40
0.0
  0
LTYPE
  5
16
330
5
100
AcDbSymbolTableRecord
100
AcDbLinetypeTableRecord
  2
Continuous
 70
     0
  3
Solid line
 72
    65
 73
     0
 40
0.0
  0
LTYPE
  5
2E
330
5
100
AcDbSymbolTableRecord
100
AcDbLinetypeTableRecord
  2
DASHED
 70
     0
  3
Dashed
 72
    65
 73
     2
 40
15.0
 49
7.0
 74
     0
 49
-8.0
 74
     0
  0
LTYPE
  5
2F
330
5
100
AcDbSymbolTableRecord
100
AcDbLinetypeTableRecord
  2
DOTTED
 70
     0
  3
Dotted
 72
    65
 73
     2
 40
1.0
 49
0.0
 74
     0
 49
-1.0
 74
     0
  0
LTYPE
  5
30
330
5
100
AcDbSymbolTableRecord
100
AcDbLinetypeTableRecord
  2
DOT_CENTER
 70
     0
  3
Dot_Center
 72
    65
 73
     4
 40
14.0
 49
12.0
 74
     0
 49
-1.0
 74
     0
 49
0.0
 74
     0
 49
-1.0
 74
     0
  0
LTYPE
  5
31
330
5
100
AcDbSymbolTableRecord
100
AcDbLinetypeTableRecord
  2
LONG_DASHED
 70
     0
  3
Long_Dashed
 72
    65
 73
     2
 40
15.0
 49
10.0
 74
     0
 49
-5.0
 74
     0
  0
LTYPE
  5
32
330
5
100
AcDbSymbolTableRecord
100
AcDbLinetypeTableRecord
  2
DASH_CENTER
 70
     0
  3
Dash_Center
 72
    65
 73
     4
 40
14.0
 49
11.0
 74
     0
 49
-1.0
 74
     0
 49
1.0
 74
     0
 49
-1.0
 74
     0
  0
LTYPE
  5
33
330
5
100
AcDbSymbolTableRecord
100
AcDbLinetypeTableRecord
  2
PHANTOM
 70
     0
  3
Phantom
 72
    65
 73
     6
 40
13.0
 49
10.0
 74
     0
 49
-1.0
 74
     0
 49
0.0
 74
     0
 49
-1.0
 74
     0
 49
0.0
 74
     0
 49
-1.0
 74
     0
  0
LTYPE
  5
34
330
5
100
AcDbSymbolTableRecord
100
AcDbLinetypeTableRecord
  2
CENTER_DASH_DASH
 70
     0
  3
Center_Dash_Dash
 72
    65
 73
     6
 40
14.0
 49
9.0
 74
     0
 49
-1.0
 74
     0
 49
1.0
 74
     0
 49
-1.0
 74
     0
 49
1.0
 74
     0
 49
-1.0
 74
     0
  0
ENDTAB
  0
TABLE
  2
LAYER
  5
2
330
0
100
AcDbSymbolTable
 70
     5
  0
LAYER
  5
10
330
2
100
AcDbSymbolTableRecord
100
AcDbLayerTableRecord
  2
0
 70
     0
 62
     7
  6
Continuous
370
    -3
390
F
  0
LAYER
  5
35
330
2
100
AcDbSymbolTableRecord
100
AcDbLayerTableRecord
  2
1
 70
     0
 62
     7
  6
Continuous
370
    -3
390
F
  0
LAYER
  5
36
330
2
100
AcDbSymbolTableRecord
100
AcDbLayerTableRecord
  2
11
 70
     0
 62
     7
  6
Continuous
370
    -3
390
F
  0
LAYER
  5
37
330
2
100
AcDbSymbolTableRecord
100
AcDbLayerTableRecord
  2
123
 70
     0
 62
     7
  6
Continuous
370
    -3
390
F
  0
LAYER
  5
38
330
2
100
AcDbSymbolTableRecord
100
AcDbLayerTableRecord
  2
LEVER_BODY
 70
     0
 62
     7
  6
Continuous
370
    -3
390
F
  0
ENDTAB
  0
TABLE
  2
STYLE
  5
3
330
0
100
AcDbSymbolTable
 70
     3
  0
STYLE
  5
11
330
3
100
AcDbSymbolTableRecord
100
AcDbTextStyleTableRecord
  2
Standard
 70
     0
 40
0.0
 41
1.0
 50
0.0
 71
     0
 42
0.2
  3
txt
  4

  0
STYLE
  5
34A
330
3
100
AcDbSymbolTableRecord
100
AcDbTextStyleTableRecord
  2
CONVERTER_1
 70
     0
 40
0.0
 41
0.89
 50
0.0
 71
     0
 42
0.2
  3
msmincho.ttc
  4

1001
ACAD
1000
MS Mincho
1071
    32785
  0
STYLE
  5
413
330
3
100
AcDbSymbolTableRecord
100
AcDbTextStyleTableRecord
  2
CONVERTER_2
 70
     0
 40
0.0
 41
0.9
 50
0.0
 71
     0
 42
0.2
  3
txt.shx
  4

  0
ENDTAB
  0
TABLE
  2
VIEW
  5
6
330
0
100
AcDbSymbolTable
 70
     0
  0
ENDTAB
  0
TABLE
  2
UCS
  5
7
330
0
100
AcDbSymbolTable
 70
     0
  0
ENDTAB
  0
TABLE
  2
APPID
  5
9
330
0
100
AcDbSymbolTable
 70
     1
  0
APPID
  5
12
330
9
100
AcDbSymbolTableRecord
100
AcDbRegAppTableRecord
  2
ACAD
 70
     0
  0
ENDTAB
  0
TABLE
  2
DIMSTYLE
  5
A
330
0
100
AcDbSymbolTable
 70
     8
100
AcDbDimStyleTable
  0
DIMSTYLE
105
27
330
A
100
AcDbSymbolTableRecord
100
AcDbDimStyleTableRecord
  2
Standard
 70
     0
340
11
  0
DIMSTYLE
105
423
102
{ACAD_REACTORS
330
424
102
}
330
A
100
AcDbSymbolTableRecord
100
AcDbDimStyleTableRecord
  2
ME10_DIM_0
 70
     0
 41
7.0
 42
0.0
 44
2.0
 73
     0
 74
     0
 77
     1
 78
     8
140
7.0
147
0.625
172
     1
173
     1
176
     2
177
     2
178
     7
271
     2
340
413
  0
DIMSTYLE
105
42E
102
{ACAD_REACTORS
330
42F
102
}
330
A
100
AcDbSymbolTableRecord
100
AcDbDimStyleTableRecord
  2
ME10_DIM_1
 70
     0
 41
7.0
 42
0.0
 44
2.0
 73
     0
 74
     0
 77
     1
 78
     8
140
7.0
147
0.625
172
     1
173
     1
176
     2
177
     2
178
     7
271
     2
340
413
  0
DIMSTYLE
105
439
102
{ACAD_REACTORS
330
43A
102
}
330
A
100
AcDbSymbolTableRecord
100
AcDbDimStyleTableRecord
  2
ME10_DIM_2
 70
     0
 41
7.0
 42
0.0
 44
2.0
 73
     0
 74
     0
 77
     1
 78
     8
140
7.0
147
0.625
172
     1
173
     1
176
     2
177
     2
178
     7
271
     2
340
413
  0
DIMSTYLE
105
444
102
{ACAD_REACTORS
330
445
102
}
330
A
100
AcDbSymbolTableRecord
100
AcDbDimStyleTableRecord
  2
ME10_DIM_3
 70
     0
 41
7.0
 42
0.0
 44
2.0
 73
     0
 74
     0
 77
     1
 78
     8
140
7.0
147
0.625
172
     1
173
     1
176
     2
177
     2
178
     7
271
     2
340
413
  0
DIMSTYLE
105
44D
102
{ACAD_REACTORS
330
44E
102
}
330
A
100
AcDbSymbolTableRecord
100
AcDbDimStyleTableRecord
  2
ME10_DIM_4
 70
     0
 41
7.0
 42
0.0
 44
2.0
 73
     0
 74
     0
 77
     1
 78
     8
140
7.0
147
0.625
172
     1
173
     1
176
     2
177
     2
178
     7
271
     2
340
413
  0
DIMSTYLE
105
458
102
{ACAD_REACTORS
330
459
102
}
330
A
100
AcDbSymbolTableRecord
100
AcDbDimStyleTableRecord
  2
ME10_DIM_5
 70
     0
 41
7.0
 42
0.0
 44
2.0
 73
     0
 74
     0
 77
     1
 78
     8
140
7.0
147
0.625
172
     1
173
     1
176
     2
177
     2
178
     7
271
     2
340
413
  0
DIMSTYLE
105
465
102
{ACAD_REACTORS
330
466
102
}
330
A
100
AcDbSymbolTableRecord
100
AcDbDimStyleTableRecord
  2
ME10_DIM_6
 70
     0
 41
7.0
 42
0.0
 44
2.0
 73
     0
 74
     0
 77
     1
 78
     8
140
7.0
147
0.625
172
     1
173
     1
176
     2
177
     2
178
     7
271
     2
340
413
  0
ENDTAB
  0
TABLE
  2
BLOCK_RECORD
  5
1
330
0
100
AcDbSymbolTable
 70
    19
  0
BLOCK_RECORD
  5
1F
330
1
100
AcDbSymbolTableRecord
100
AcDbBlockTableRecord
  2
*Model_Space
340
22
  0
BLOCK_RECORD
  5
1B
330
1
100
AcDbSymbolTableRecord
100
AcDbBlockTableRecord
  2
*Paper_Space
340
1E
  0
BLOCK_RECORD
  5
23
330
1
100
AcDbSymbolTableRecord
100
AcDbBlockTableRecord
  2
*Paper_Space0
340
26
  0
BLOCK_RECORD
  5
39
330
1
100
AcDbSymbolTableRecord
100
AcDbBlockTableRecord
  2
87-182-MW2
340
0
102
{BLKREFS
331
5B
102
}
  0
BLOCK_RECORD
  5
3C
330
1
100
AcDbSymbolTableRecord
100
AcDbBlockTableRecord
  2
82-20-__F_
340
0
102
{BLKREFS
331
49
102
}
  0
BLOCK_RECORD
  5
3F
330
1
100
AcDbSymbolTableRecord
100
AcDbBlockTableRecord
  2
84-359-__F_
340
0
102
{BLKREFS
331
4A
102
}
  0
BLOCK_RECORD
  5
42
330
1
100
AcDbSymbolTableRecord
100
AcDbBlockTableRecord
  2
60-7A-______-M2
340
0
102
{BLKREFS
331
4B
102
}
  0
BLOCK_RECORD
  5
45
330
1
100
AcDbSymbolTableRecord
100
AcDbBlockTableRecord
  2
32-1-16-M1
340
0
102
{BLKREFS
331
4C
102
}
  0
BLOCK_RECORD
  5
48
330
1
100
AcDbSymbolTableRecord
100
AcDbBlockTableRecord
  2
60-7X3-______-__F_
340
0
102
{BLKREFS
331
5C
102
}
  0
BLOCK_RECORD
  5
4F
330
1
100
AcDbSymbolTableRecord
100
AcDbBlockTableRecord
  2
_J__A4
340
0
102
{BLKREFS
331
5D
102
}
  0
BLOCK_RECORD
  5
52
330
1
100
AcDbSymbolTableRecord
100
AcDbBlockTableRecord
  2
A1071-0-M1__1
340
0
102
{BLKREFS
331
5E
102
}
  0
BLOCK_RECORD
  5
55
330
1
100
AcDbSymbolTableRecord
100
AcDbBlockTableRecord
  2
32-238-M1
340
0
102
{BLKREFS
331
5F
102
}
  0
BLOCK_RECORD
  5
58
330
1
100
AcDbSymbolTableRecord
100
AcDbBlockTableRecord
  2
A1071-0-M1__2
340
0
102
{BLKREFS
331
60
102
}
  0
BLOCK_RECORD
  5
41A
330
1
100
AcDbSymbolTableRecord
100
AcDbBlockTableRecord
  2
*D011
340
0
  0
BLOCK_RECORD
  5
425
330
1
100
AcDbSymbolTableRecord
100
AcDbBlockTableRecord
  2
*D112
340
0
  0
BLOCK_RECORD
  5
430
330
1
100
AcDbSymbolTableRecord
100
AcDbBlockTableRecord
  2
*D213
340
0
  0
BLOCK_RECORD
  5
43B
330
1
100
AcDbSymbolTableRecord
100
AcDbBlockTableRecord
  2
*D314
340
0
  0
BLOCK_RECORD
  5
446
330
1
100
AcDbSymbolTableRecord
100
AcDbBlockTableRecord
  2
*D415
340
0
  0
BLOCK_RECORD
  5
44F
330
1
100
AcDbSymbolTableRecord
100
AcDbBlockTableRecord
  2
*D516
340
0
  0
BLOCK_RECORD
  5
45A
330
1
100
AcDbSymbolTableRecord
100
AcDbBlockTableRecord
  2
*D617
340
0
  0
BLOCK_RECORD
  5
467
330
1
100
AcDbSymbolTableRecord
100
AcDbBlockTableRecord
  2
*D718
340
0
102
{BLKREFS
331
46E
102
}
  0
ENDTAB
  0
ENDSEC
  0
SECTION
  2
BLOCKS
  0
BLOCK
  5
20
330
1F
100
AcDbEntity
  8
0
100
AcDbBlockBegin
  2
*Model_Space
 70
     0
 71
     0
 10
0.0
 20
0.0
 30
0.0
  3
*Model_Space
  1

  0
ENDBLK
  5
21
330
1F
100
AcDbEntity
  8
0
100
AcDbBlockEnd
  0
BLOCK
  5
1C
330
1B
100
AcDbEntity
 67
     1
  8
0
100
AcDbBlockBegin
  2
*Paper_Space
 70
     0
 71
     0
 10
0.0
 20
0.0
 30
0.0
  3
*Paper_Space
  1

  0
ENDBLK
  5
1D
330
1B
100
AcDbEntity
 67
     1
  8
0
100
AcDbBlockEnd
  0
BLOCK
  5
24
330
23
100
AcDbEntity
  8
0
100
AcDbBlockBegin
  2
*Paper_Space0
 70
     0
 71
     0
 10
0.0
 20
0.0
 30
0.0
  3
*Paper_Space0
  1

  0
ENDBLK
  5
25
330
23
100
AcDbEntity
  8
0
100
AcDbBlockEnd
  0
BLOCK
  5
3A
330
39
100
AcDbEntity
  8
0
100
AcDbBlockBegin
  2
87-182-MW2
 70
     0
 71
     0
 10
804.088274844543
 20
76.94181542035699
 30
0.0
  3
87-182-MW2
  1

  0
LINE
  5
61
330
39
100
AcDbEntity
  8
0
  6
Continuous
 62
     7
100
AcDbLine
 10
1332.830203401159
 20
278.5294402033877
 30
0.0
 11
1332.286196401159
 21
278.5294402033877
 31
0.0
  0
LINE
  5
C6
330
39
100
AcDbEntity
  8
0
  6
Continuous
 62
     7
100
AcDbLine
 10
1350.805117401159
 20
284.9262752033877
 30
0.0
 11
1348.625521401159
 21
283.6678832033877
 31
0.0
  0
LINE
  5
C7
330
39
100
AcDbEntity
  8
0
  6
Continuous
 62
     7
100
AcDbLine
 10
1348.625521401159
 20
283.6678832033877
 30
0.0
 11
1347.488986401159
 21
283.0117242033877
 31
0.0
  0
LINE
  5
C8
330
39
100
AcDbEntity
  8
0
  6
Continuous
 62
     7
100
AcDbLine
 10
1340.885714401159
 20
279.1993162033877
 30
0.0
 11
1347.488986401159
 21
283.0117242033877
 31
0.0
  0
LINE
  5
C9
330
39
100
AcDbEntity
  8
0
  6
Continuous
 62
     7
100
AcDbLine
 10
1345.967669401159
 20
307.2717652033877
 30
0.0
 11
1345.935870401159
 21
307.3114682033877
 31
0.0
  0
LINE
  5
CA
330
39
100
AcDbEntity
  8
0
  6
Continuous
 62
     7
100
AcDbLine
 10
1255.808108401159
 20
321.8009702033877
 30
0.0
 11
1255.767916401159
 21
319.5653742033877
 31
0.0
  0
LINE
  5
CB
330
39
100
AcDbEntity
  8
0
  6
Continuous
 62
     7
100
AcDbLine
 10
1318.821063401159
 20
278.5294402033877
 30
0.0
 11
1316.327792497152
 21
278.5294402033877
 31
0.0
  0
LINE
  5
CC
330
39
100
AcDbEntity
  8
0
  6
Continuous
 62
     7
100
AcDbLine
 10
1318.821063401159
 20
278.5294402033877
 30
0.0
 11
1330.215853401159
 21
278.5294402033877
 31
0.0
  0
LINE
  5
CD
330
39
100
AcDbEntity
  8
0
  6
Continuous
 62
     7
100
AcDbLine
 10
1332.286196401159
 20
278.5294402033877
 30
0.0
 11
1330.215853401159
 21
278.5294402033877
 31
0.0
  0
LINE
  5
CE
330
39
100
AcDbEntity
  8
0
  6
Continuous
 62
     7
100
AcDbLine
 10
1338.385714401159
 20
278.5294402033877
 30
0.0
 11
1332.830203401159
 21
278.5294402033877
 31
0.0
  0
LINE
  5
CF
330
39
100
AcDbEntity
  8
0
  6
Continuous
 62
     7
100
AcDbLine
 10
1257.767596785131
 20
317.5294252033877
 30
0.0
 11
1265.29740768877
 21
317.5294252033867
 31
0.0
  0
LINE
  5
FD
330
39
100
AcDbEntity
  8
0
  6
Continuous
 62
     2
100
AcDbLine
 10
1261.056480102655
 20
319.8250344282057
 30
0.0
 11
1260.180300401159
 21
319.7940732033877
 31
0.0
  0
LINE
  5
10C
330
39
100
AcDbEntity
  8
0
  6
Continuous
 62
     2
100
AcDbLine
 10
1260.598162401159
 20
322.5881102033877
 30
0.0
 11
1261.465014401159
 21
322.5209712033877
 31
0.0
  0
LINE
  5
12E
330
39
100
AcDbEntity
  8
0
  6
Continuous
 62
     7
100
AcDbLine
 10
1065.521297641201
 20
310.4217282033877
 30
0.0
 11
1065.498485641201
 21
310.1721862033877
 31
0.0
  0
LINE
  5
12F
330
39
100
AcDbEntity
  8
0
  6
Continuous
 62
     7
100
AcDbLine
 10
1076.954616641201
 20
322.5527712033877
 30
0.0
 11
1076.700283641201
 21
322.4813902033877
 31
0.0
  0
LINE
  5
130
330
39
100
AcDbEntity
  8
0
  6
Continuous
 62
     7
100
AcDbLine
 10
1065.436260641201
 20
278.5294402033877
 30
0.0
 11
1065.430408641201
 21
278.5294402033877
 31
0.0
  0
LINE
  5
131
330
39
100
AcDbEntity
  8
0
  6
Continuous
 62
     7
100
AcDbLine
 10
1065.487965641201
 20
278.5294402033877
 30
0.0
 11
1065.436260641201
 21
278.5294402033877
 31
0.0
  0
LINE
  5
132
330
39
100
AcDbEntity
  8
0
  6
Continuous
 62
     7
100
AcDbLine
 10
1065.487965641201
 20
278.5294402033877
 30
0.0
 11
1072.380978641201
 21
278.5294402033877
 31
0.0
  0
LINE
  5
133
330
39
100
AcDbEntity
  8
0
  6
Continuous
 62
     7
100
AcDbLine
 10
1081.921337641201
 20
278.5294402033877
 30
0.0
 11
1072.380978641201
 21
278.5294402033877
 31
0.0
  0
LINE
  5
134
330
39
100
AcDbEntity
  8
0
  6
Continuous
 62
     7
100
AcDbLine
 10
1064.930485641201
 20
279.0384272033877
 30
0.0
 11
1065.485609083498
 21
309.9163630608817
 31
0.0
  0
LINE
  5
135
330
39
100
AcDbEntity
  8
0
  6
Continuous
 62
     2
100
AcDbLine
 10
1064.936451641201
 20
279.0384272033877
 30
0.0
 11
1064.930485641201
 21
279.0384272033877
 31
0.0
  0
LINE
  5
136
330
39
100
AcDbEntity
  8
0
  6
Continuous
 62
     2
100
AcDbLine
 10
1064.988247641201
 20
279.0384432033877
 30
0.0
 11
1064.936451641201
 21
279.0384272033877
 31
0.0
  0
LINE
  5
137
330
39
100
AcDbEntity
  8
0
  6
Continuous
 62
     2
100
AcDbLine
 10
1081.921337641201
 20
279.0265252033877
 30
0.0
 11
1072.136349641201
 21
279.0268922033877
 31
0.0
  0
LINE
  5
138
330
39
100
AcDbEntity
  8
0
  6
Continuous
 62
     7
100
AcDbLine
 10
1076.096801763938
 20
319.7943022045947
 30
0.0
 11
1075.856182641201
 21
319.8251092033877
 31
0.0
  0
LINE
  5
1CD
330
39
100
AcDbEntity
  8
0
  6
Continuous
 62
     7
100
AcDbLine
 10
1087.980508948228
 20
319.8251092033877
 30
0.0
 11
1087.739889825491
 21
319.7943022045947
 31
0.0
  0
LINE
  5
1CE
330
39
100
AcDbEntity
  8
0
  6
Continuous
 62
     2
100
AcDbLine
 10
1091.700341948229
 20
279.0268922033877
 30
0.0
 11
1081.915353948228
 21
279.0265252033877
 31
0.0
  0
LINE
  5
1CF
330
39
100
AcDbEntity
  8
0
  6
Continuous
 62
     2
100
AcDbLine
 10
1098.900239948228
 20
279.0384272033877
 30
0.0
 11
1098.848443948228
 21
279.0384432033877
 31
0.0
  0
LINE
  5
1D0
330
39
100
AcDbEntity
  8
0
  6
Continuous
 62
     2
100
AcDbLine
 10
1098.906205948228
 20
279.0384272033877
 30
0.0
 11
1098.900239948228
 21
279.0384272033877
 31
0.0
  0
LINE
  5
1D1
330
39
100
AcDbEntity
  8
0
  6
Continuous
 62
     7
100
AcDbLine
 10
1098.351082505931
 20
309.9163630608817
 30
0.0
 11
1098.906205948228
 21
279.0384272033877
 31
0.0
  0
LINE
  5
1D2
330
39
100
AcDbEntity
  8
0
  6
Continuous
 62
     7
100
AcDbLine
 10
1091.455712948228
 20
278.5294402033877
 30
0.0
 11
1081.915353948228
 21
278.5294402033877
 31
0.0
  0
LINE
  5
1D3
330
39
100
AcDbEntity
  8
0
  6
Continuous
 62
     7
100
AcDbLine
 10
1091.455712948228
 20
278.5294402033877
 30
0.0
 11
1098.348725948228
 21
278.5294402033877
 31
0.0
  0
LINE
  5
1D4
330
39
100
AcDbEntity
  8
0
  6
Continuous
 62
     7
100
AcDbLine
 10
1098.400430948228
 20
278.5294402033877
 30
0.0
 11
1098.348725948228
 21
278.5294402033877
 31
0.0
  0
LINE
  5
1D5
330
39
100
AcDbEntity
  8
0
  6
Continuous
 62
     7
100
AcDbLine
 10
1098.406282948228
 20
278.5294402033877
 30
0.0
 11
1098.400430948228
 21
278.5294402033877
 31
0.0
  0
LINE
  5
1D6
330
39
100
AcDbEntity
  8
0
  6
Continuous
 62
     7
100
AcDbLine
 10
1087.136407948228
 20
322.4813902033877
 30
0.0
 11
1086.882074948228
 21
322.5527712033877
 31
0.0
  0
LINE
  5
1D7
330
39
100
AcDbEntity
  8
0
  6
Continuous
 62
     7
100
AcDbLine
 10
1098.338205948228
 20
310.1721862033877
 30
0.0
 11
1098.315393948228
 21
310.4217282033877
 31
0.0
  0
LINE
  5
1D8
330
39
100
AcDbEntity
  8
1
  6
Continuous
 62
     7
100
AcDbLine
 10
1070.418341773468
 20
278.5294402033877
 30
0.0
 11
1081.918341773468
 21
278.5294402033877
 31
0.0
  0
LINE
  5
1D9
330
39
100
AcDbEntity
  8
1
  6
Continuous
 62
     7
100
AcDbLine
 10
1081.918341773468
 20
278.5294402033877
 30
0.0
 11
1093.418341773468
 21
278.5294402033877
 31
0.0
  0
LINE
  5
1DA
330
39
100
AcDbEntity
  8
0
  6
PHANTOM
 62
     2
100
AcDbLine
 10
1279.206271401159
 20
355.6694252033877
 30
0.0
 11
1285.817979356615
 21
352.066180810299
 31
0.0
  0
LINE
  5
1DB
330
39
100
AcDbEntity
  8
0
  6
PHANTOM
 62
     2
100
AcDbLine
 10
1279.529766328895
 20
360.3578196455902
 30
0.0
 11
1278.424673966704
 21
358.4140409176722
 31
0.0
  0
ARC
  5
1DC
330
39
100
AcDbEntity
  8
0
  6
Continuous
 62
     7
100
AcDbCircle
 10
1328.642999811942
 20
387.5985537975218
 30
0.0
 40
10.00536199999903
100
AcDbArc
 50
-108.1062810000013
 51
-92.00808499999157
  0
ARC
  5
1DD
330
39
100
AcDbEntity
  8
0
  6
Continuous
 62
     7
100
AcDbCircle
 10
1338.803396428476
 20
677.4369934145869
 30
0.0
 40
300.0218179917686
100
AcDbArc
 50
-92.00771746509767
 51
-91.23281846509731
  0
ARC
  5
1DE
330
39
100
AcDbEntity
  8
0
  6
Continuous
 62
     7
100
AcDbCircle
 10
1332.903147811942
 20
403.2664007975218
 30
0.0
 40
25.78774500000022
100
AcDbArc
 50
-91.23263999999696
 51
-89.99997500000129
  0
ARC
  5
1DF
330
39
100
AcDbEntity
  8
0
  6
Continuous
 62
     7
100
AcDbCircle
 10
1332.903737712526
 20
403.2671395833861
 30
0.0
 40
25.78848379235434
100
AcDbArc
 50
-90.00128561727277
 51
-77.31077361727044
  0
ARC
  5
1E0
330
39
100
AcDbEntity
  8
0
  6
Continuous
 62
     7
100
AcDbCircle
 10
1345.358582668414
 20
385.3257666276918
 30
0.0
 40
3.868754465861857
100
AcDbArc
 50
-54.56943967035028
 51
-23.49301167034543
  0
ARC
  5
1E1
330
39
100
AcDbEntity
  8
0
  6
Continuous
 62
     7
100
AcDbCircle
 10
1332.638733992659
 20
403.2740131035221
 30
0.0
 40
25.86725115132082
100
AcDbArc
 50
-71.4504057374031
 51
-54.65917473740575
  0
ARC
  5
1E2
330
39
100
AcDbEntity
  8
0
  6
Continuous
 62
     7
100
AcDbCircle
 10
1261.898964360029
 20
394.4718039649495
 30
0.0
 40
6.058667498305938
100
AcDbArc
 50
-179.9791595560681
 51
-105.1360015560566
  0
ARC
  5
1E3
330
39
100
AcDbEntity
  8
0
  6
Continuous
 62
     7
100
AcDbCircle
 10
1338.101829772248
 20
675.7916697007526
 30
0.0
 40
297.5166290232604
100
AcDbArc
 50
-105.1559434647114
 51
-104.2416344647114
  0
ARC
  5
1E4
330
39
100
AcDbEntity
  8
0
  6
Continuous
 62
     7
100
AcDbCircle
 10
1340.405731379033
 20
681.8658309929097
 30
0.0
 40
303.9659744992387
100
AcDbArc
 50
-103.3343704603825
 51
-95.09886946038286
  0
ARC
  5
1E5
330
39
100
AcDbEntity
  8
0
  6
Continuous
 62
     7
100
AcDbCircle
 10
1352.14767766068
 20
731.0159303790315
 30
0.0
 40
354.4991187507698
100
AcDbArc
 50
-104.2462175079134
 51
-103.3488735079135
  0
ARC
  5
1E6
330
39
100
AcDbEntity
  8
0
  6
Continuous
 62
     7
100
AcDbCircle
 10
1333.43302166875
 20
400.9361111354033
 30
0.0
 40
23.3981251171762
100
AcDbArc
 50
-77.32134357131093
 51
-71.47312357130946
  0
ARC
  5
1E7
330
39
100
AcDbEntity
  8
0
  6
Continuous
 62
     7
100
AcDbCircle
 10
1257.767594837221
 20
319.5294267206774
 30
0.0
 40
2.000001517290481
100
AcDbArc
 50
178.9701258034987
 51
-89.99994419652997
  0
ARC
  5
1E8
330
39
100
AcDbEntity
  8
0
  6
Continuous
 62
     7
100
AcDbCircle
 10
1333.43302166875
 20
388.0030624596402
 30
0.0
 40
23.39812511717662
100
AcDbArc
 50
71.47312357130946
 51
77.32134357131093
  0
ARC
  5
1E9
330
39
100
AcDbEntity
  8
0
  6
Continuous
 62
     7
100
AcDbCircle
 10
1352.14767766068
 20
57.923243216012
 30
0.0
 40
354.4991187507699
100
AcDbArc
 50
103.3488735079135
 51
104.2462175079134
  0
ARC
  5
1EA
330
39
100
AcDbEntity
  8
0
  6
Continuous
 62
     7
100
AcDbCircle
 10
1340.405731379033
 20
107.0733426021336
 30
0.0
 40
303.965974499239
100
AcDbArc
 50
95.09886946038284
 51
103.3343704603825
  0
ARC
  5
1EB
330
39
100
AcDbEntity
  8
0
  6
Continuous
 62
     7
100
AcDbCircle
 10
1338.101829772248
 20
113.1475038942911
 30
0.0
 40
297.5166290232598
100
AcDbArc
 50
104.2416344647114
 51
105.1559434647114
  0
ARC
  5
1EC
330
39
100
AcDbEntity
  8
0
  6
Continuous
 62
     7
100
AcDbCircle
 10
1261.898964360029
 20
394.4673696300943
 30
0.0
 40
6.058667498306549
100
AcDbArc
 50
105.1360015560573
 51
179.9791595560713
  0
ARC
  5
1ED
330
39
100
AcDbEntity
  8
0
  6
Continuous
 62
     7
100
AcDbCircle
 10
1332.638733992659
 20
385.6651604915214
 30
0.0
 40
25.8672511513198
100
AcDbArc
 50
54.65917473740568
 51
71.45040573740306
  0
ARC
  5
1EE
330
39
100
AcDbEntity
  8
0
  6
Continuous
 62
     7
100
AcDbCircle
 10
1345.358582668414
 20
403.6134069673515
 30
0.0
 40
3.868754465862602
100
AcDbArc
 50
23.49301167034851
 51
54.56943967035174
  0
ARC
  5
1EF
330
39
100
AcDbEntity
  8
0
  6
Continuous
 62
     7
100
AcDbCircle
 10
1332.903737712526
 20
385.6720340116576
 30
0.0
 40
25.7884837923547
100
AcDbArc
 50
77.31077361727033
 51
90.00128561727277
  0
ARC
  5
1F0
330
39
100
AcDbEntity
  8
0
  6
Continuous
 62
     7
100
AcDbCircle
 10
1332.903147811942
 20
385.6727727975217
 30
0.0
 40
25.78774500000044
100
AcDbArc
 50
89.99997500000129
 51
91.23263999999695
  0
ARC
  5
1F1
330
39
100
AcDbEntity
  8
0
  6
Continuous
 62
     7
100
AcDbCircle
 10
1338.803396428476
 20
111.5021801804564
 30
0.0
 40
300.0218179917688
100
AcDbArc
 50
91.23281846509731
 51
92.00771746509767
  0
ARC
  5
1F2
330
39
100
AcDbEntity
  8
0
  6
Continuous
 62
     7
100
AcDbCircle
 10
1328.642999811942
 20
401.3406197975219
 30
0.0
 40
10.00536199999928
100
AcDbArc
 50
92.00808499999164
 51
108.1062810000017
  0
ARC
  5
1F3
330
39
100
AcDbEntity
  8
0
  6
Continuous
 62
     7
100
AcDbCircle
 10
1338.385708811408
 20
283.5294415500061
 30
0.0
 40
5.000001346621501
100
AcDbArc
 50
-89.99993594618879
 51
-59.99993494617984
  0
ARC
  5
1F4
330
39
100
AcDbEntity
  8
0
  6
Continuous
 62
     7
100
AcDbCircle
 10
1383.821750651439
 20
310.4946696188829
 30
0.0
 40
36.10956443738685
100
AcDbArc
 50
-163.7914248539412
 51
-162.3769878539408
  0
ARC
  5
1F5
330
39
100
AcDbEntity
  8
0
  6
Continuous
 62
     7
100
AcDbCircle
 10
1211.360110194286
 20
276.3345203786053
 30
0.0
 40
139.9872628008087
100
AcDbArc
 50
3.70960500328616
 51
9.55117900328619
  0
ARC
  5
1F6
330
39
100
AcDbEntity
  8
0
  6
Continuous
 62
     7
100
AcDbCircle
 10
1323.727031023868
 20
293.176839743412
 30
0.0
 40
26.43579537811255
100
AcDbArc
 50
16.01076548758114
 51
22.80785248758135
  0
ARC
  5
1F7
330
39
100
AcDbEntity
  8
0
  6
Continuous
 62
     7
100
AcDbCircle
 10
1348.857623401159
 20
300.3876092033877
 30
0.0
 40
0.291162000000527
100
AcDbArc
 50
5.444022000047
 51
16.09065000002631
  0
ARC
  5
1F8
330
39
100
AcDbEntity
  8
0
  6
Continuous
 62
     7
100
AcDbCircle
 10
1233.578341401159
 20
-226.6669097966123
 30
0.0
 40
550.1465780000003
100
AcDbArc
 50
81.20530100000001
 51
87.55381799999996
  0
ARC
  5
1F9
330
39
100
AcDbEntity
  8
0
  6
Continuous
 62
     7
100
AcDbCircle
 10
1185.267132219985
 20
-175.6359362627734
 30
0.0
 40
500.0287201934957
100
AcDbArc
 50
75.8789570002465
 51
80.19670200024648
  0
ARC
  5
1FA
330
39
100
AcDbEntity
  8
0
  6
Continuous
 62
     7
100
AcDbCircle
 10
1335.467917330315
 20
298.0151549562995
 30
0.0
 40
13.99998148146561
100
AcDbArc
 50
41.60743560361845
 51
69.74075260362152
  0
ARC
  5
1FB
330
39
100
AcDbEntity
  8
0
  6
Continuous
 62
     7
100
AcDbCircle
 10
1299.803400275515
 20
201.3925784284864
 30
0.0
 40
116.994544792105
100
AcDbArc
 50
69.74036277864084
 51
81.20457577864094
  0
ARC
  5
1FC
330
39
100
AcDbEntity
  8
0
  6
Continuous
 62
     7
100
AcDbCircle
 10
1265.297412401159
 20
287.5294252033877
 30
0.0
 40
29.99999999999984
100
AcDbArc
 50
80.19721899999976
 51
90.00000900000003
  0
ARC
  5
1FD
330
39
100
AcDbEntity
  8
0
  6
Continuous
 62
     7
100
AcDbCircle
 10
1304.820010401159
 20
299.5853332033877
 30
0.0
 40
10.00000099999958
100
AcDbArc
 50
5.26363600000084
 51
75.87885999999948
  0
ARC
  5
1FE
330
39
100
AcDbEntity
  8
0
  6
Continuous
 62
     7
100
AcDbCircle
 10
1257.007940126685
 20
321.779415378492
 30
0.0
 40
1.200025324755881
100
AcDbArc
 50
87.55536329286066
 51
178.9707992928225
  0
ARC
  5
1FF
330
39
100
AcDbEntity
  8
0
  6
Continuous
 62
     7
100
AcDbCircle
 10
1065.838978025993
 20
277.5684843519631
 30
0.0
 40
249.9930747926507
100
AcDbArc
 50
0.33416909839689
 51
5.26368609839699
  0
ARC
  5
200
330
39
100
AcDbEntity
  8
0
  6
Continuous
 62
     7
100
AcDbCircle
 10
1350.555116269097
 20
285.3592886011318
 30
0.0
 40
0.5000011686567729
100
AcDbArc
 50
-59.99992752462449
 51
3.70976247528847
  0
ARC
  5
201
330
39
100
AcDbEntity
  8
0
  6
Continuous
 62
     7
100
AcDbCircle
 10
1316.327792401159
 20
279.0294402033877
 30
0.0
 40
0.4999999999999315
100
AcDbArc
 50
-179.6657630000015
 51
-89.99998900003016
  0
ARC
  5
202
330
39
100
AcDbEntity
  8
0
  6
Continuous
 62
     2
100
AcDbCircle
 10
1239.63841700555
 20
956.5069046156418
 30
0.0
 40
637.0420215748744
100
AcDbArc
 50
-88.07328890321571
 51
-87.7332199032157
  0
ARC
  5
203
330
39
100
AcDbEntity
  8
0
  6
Continuous
 62
     2
100
AcDbCircle
 10
1261.79878128112
 20
245.894208019252
 30
0.0
 40
73.91758623353601
100
AcDbArc
 50
91.25463424380469
 51
94.67989924380485
  0
ARC
  5
204
330
39
100
AcDbEntity
  8
0
  6
Continuous
 62
     2
100
AcDbCircle
 10
1266.168271471942
 20
286.9382883801644
 30
0.0
 40
33.05198531227087
100
AcDbArc
 50
82.93681491474031
 51
92.31187091473947
  0
ARC
  5
205
330
39
100
AcDbEntity
  8
0
  6
Continuous
 62
     2
100
AcDbCircle
 10
1264.676795486243
 20
375.8187039932573
 30
0.0
 40
53.38662157380691
100
AcDbArc
 50
-98.20346242135588
 51
-94.3815544213554
  0
ARC
  5
206
330
39
100
AcDbEntity
  8
0
  6
Continuous
 62
     2
100
AcDbCircle
 10
1294.445207202861
 20
184.9205267352871
 30
0.0
 40
131.9073657478436
100
AcDbArc
 50
73.51034417110759
 51
79.84910117110741
  0
ARC
  5
207
330
39
100
AcDbEntity
  8
0
  6
Continuous
 62
     2
100
AcDbCircle
 10
1324.02228069119
 20
285.8165465594194
 30
0.0
 40
26.76731933929495
100
AcDbArc
 50
71.19159377602327
 51
72.9153697760234
  0
ARC
  5
208
330
39
100
AcDbEntity
  8
0
  6
Continuous
 62
     2
100
AcDbCircle
 10
1319.812976401159
 20
273.4698392033877
 30
0.0
 40
39.81183600000006
100
AcDbArc
 50
70.35599599999961
 51
71.1859800000003
  0
ARC
  5
209
330
39
100
AcDbEntity
  8
0
  6
Continuous
 62
     7
100
AcDbCircle
 10
1069.398475378893
 20
309.8476491615969
 30
0.0
 40
3.913469591755857
100
AcDbArc
 50
175.2431004330074
 51
178.9939314330059
  0
ARC
  5
20A
330
39
100
AcDbEntity
  8
0
  6
Continuous
 62
     7
100
AcDbCircle
 10
1065.43040658381
 20
279.0294418881305
 30
0.0
 40
0.5000016847466546
100
AcDbArc
 50
178.970306758864
 51
-89.99976424116024
  0
ARC
  5
20B
330
39
100
AcDbEntity
  8
0
  6
Continuous
 62
     2
100
AcDbCircle
 10
1073.630362557783
 20
3415.301200083667
 30
0.0
 40
3136.274663728374
100
AcDbArc
 50
-90.15788073128115
 51
-90.02729373128115
  0
ARC
  5
20C
330
39
100
AcDbEntity
  8
0
  6
Continuous
 62
     7
100
AcDbCircle
 10
1081.935696641201
 20
394.1066042033877
 30
0.0
 40
74.5413369999998
100
AcDbArc
 50
-94.49263599999988
 51
-90.01103499999987
  0
ARC
  5
20D
330
39
100
AcDbEntity
  8
0
  6
Continuous
 62
     7
100
AcDbCircle
 10
1074.539445540829
 20
317.900980464648
 30
0.0
 40
2.089133647426438
100
AcDbArc
 50
80.87497163380556
 51
118.3886386338052
  0
ARC
  5
20E
330
39
100
AcDbEntity
  8
0
  6
Continuous
 62
     7
100
AcDbCircle
 10
1080.020032871824
 20
353.0098523014222
 30
0.0
 40
33.44495213370168
100
AcDbArc
 50
-98.85663738051309
 51
-97.15180238051205
  0
ARC
  5
20F
330
39
100
AcDbEntity
  8
0
  6
Continuous
 62
     7
100
AcDbCircle
 10
1083.816658717605
 20
353.0098523014222
 30
0.0
 40
33.44495213370186
100
AcDbArc
 50
-82.84819761948796
 51
-81.14336261948652
  0
ARC
  5
210
330
39
100
AcDbEntity
  8
0
  6
Continuous
 62
     7
100
AcDbCircle
 10
1089.2972460486
 20
317.900980464648
 30
0.0
 40
2.089133647426516
100
AcDbArc
 50
61.61136136620025
 51
99.12502836619444
  0
ARC
  5
211
330
39
100
AcDbEntity
  8
0
  6
Continuous
 62
     7
100
AcDbCircle
 10
1081.900994948228
 20
394.1066042033877
 30
0.0
 40
74.54133699999963
100
AcDbArc
 50
-89.98896500000015
 51
-85.50736400000014
  0
ARC
  5
212
330
39
100
AcDbEntity
  8
0
  6
Continuous
 62
     2
100
AcDbCircle
 10
1090.206329031646
 20
3415.301200083667
 30
0.0
 40
3136.274663728373
100
AcDbArc
 50
-89.97270626871885
 51
-89.84211926871885
  0
ARC
  5
213
330
39
100
AcDbEntity
  8
0
  6
Continuous
 62
     7
100
AcDbCircle
 10
1098.406285005619
 20
279.0294418881305
 30
0.0
 40
0.5000016847470457
100
AcDbArc
 50
-90.00023575886581
 51
1.02969324113646
  0
ARC
  5
214
330
39
100
AcDbEntity
  8
0
  6
Continuous
 62
     7
100
AcDbCircle
 10
1094.438216210536
 20
309.8476491615969
 30
0.0
 40
3.91346959175517
100
AcDbArc
 50
1.0060685669941
 51
4.75689956699264
  0
ARC
  5
215
330
39
100
AcDbEntity
  8
0
  6
PHANTOM
 62
     2
100
AcDbCircle
 10
1280.5729890291
 20
359.7647368707315
 30
0.0
 40
1.200025324755366
100
AcDbArc
 50
58.96589085346052
 51
150.3813268534104
  0
ARC
  5
216
330
39
100
AcDbEntity
  8
0
  6
PHANTOM
 62
     2
100
AcDbCircle
 10
1271.462067631999
 20
325.724051083282
 30
0.0
 40
30.00000000000017
100
AcDbArc
 50
51.60774656056205
 51
61.4105365605623
  0
ARC
  5
217
330
39
100
AcDbEntity
  8
0
  6
PHANTOM
 62
     2
100
AcDbCircle
 10
1280.163331474321
 20
357.4255692992765
 30
0.0
 40
2.000001517291169
100
AcDbArc
 50
150.3806533640704
 51
-118.589416635979
  0
ARC
  5
218
330
39
100
AcDbEntity
  8
0
  6
PHANTOM
 62
     2
100
AcDbCircle
 10
997.5518298451916
 20
-110.5982518398096
 30
0.0
 40
550.1465780000006
100
AcDbArc
 50
52.61582856056264
 51
58.96434556056265
  0
ARC
  5
219
330
39
100
AcDbEntity
  8
0
  6
PHANTOM
 62
     2
100
AcDbCircle
 10
979.551040906953
 20
-42.6710497042917
 30
0.0
 40
500.0287201934959
100
AcDbArc
 50
47.28948456080915
 51
51.60722956080907
  0
SPLINE
  5
21A
330
39
100
AcDbEntity
  8
0
  6
Continuous
 62
     7
100
AcDbSpline
210
0.0
220
0.0
230
1.0
 70
     8
 71
     3
 72
     9
 73
     5
 74
     3
 42
0.0000000001
 43
0.0000000001
 44
0.00000001
 40
0.0
 40
0.0
 40
0.0
 40
0.0
 40
5.486258646493694
 40
10.97248922049433
 40
10.97248922049433
 40
10.97248922049433
 40
10.97248922049433
 10
1351.128097282874
 20
394.4695817810919
 30
0.0
 10
1351.033601511882
 20
392.6312467771459
 30
0.0
 10
1350.84461045342
 20
388.9545861757817
 30
0.0
 10
1349.552636421189
 20
385.5072172057563
 30
0.0
 10
1348.906651057794
 20
383.7835371306928
 30
0.0
 11
1351.128097282874
 21
394.4695817810919
 31
0.0
 11
1350.568862815493
 21
389.0118999704034
 31
0.0
 11
1348.906651057794
 21
383.7835371306928
 31
0.0
  0
SPLINE
  5
21B
330
39
100
AcDbEntity
  8
0
  6
Continuous
 62
     7
100
AcDbSpline
210
0.0
220
0.0
230
1.0
 70
     8
 71
     3
 72
     9
 73
     5
 74
     3
 42
0.0000000001
 43
0.0000000001
 44
0.00000001
 40
0.0
 40
0.0
 40
0.0
 40
0.0
 40
5.486258646493297
 40
10.97248922049404
 40
10.97248922049404
 40
10.97248922049404
 40
10.97248922049404
 10
1351.128097282874
 20
394.4695918139519
 30
0.0
 10
1351.033601511882
 20
396.307926817898
 30
0.0
 10
1350.84461045342
 20
399.9845874192617
 30
0.0
 10
1349.552636421189
 20
403.4319563892872
 30
0.0
 10
1348.906651057794
 20
405.1556364643507
 30
0.0
 11
1351.128097282874
 21
394.4695918139519
 31
0.0
 11
1350.568862815493
 21
399.92727362464
 31
0.0
 11
1348.906651057794
 21
405.1556364643507
 31
0.0
  0
SPLINE
  5
21C
330
39
100
AcDbEntity
  8
0
  6
Continuous
 62
     7
100
AcDbSpline
210
0.0
220
0.0
230
1.0
 70
     8
 71
     3
 72
     9
 73
     5
 74
     3
 42
0.0000000001
 43
0.0000000001
 44
0.00000001
 40
0.0
 40
0.0
 40
0.0
 40
0.0
 40
2.202012006592077
 40
4.403964724823594
 40
4.403964724823594
 40
4.403964724823594
 40
4.403964724823594
 10
1348.095812440004
 20
303.4244623733697
 30
0.0
 10
1347.796535509193
 20
304.0963429686321
 30
0.0
 10
1347.197989705493
 20
305.4400860690203
 30
0.0
 10
1346.377772488547
 20
306.6612109717286
 30
0.0
 10
1345.967669401159
 20
307.2717652033877
 30
0.0
 11
1348.095812440004
 21
303.4244623733697
 31
0.0
 11
1347.142562302125
 21
305.4094487843583
 31
0.0
 11
1345.967669401159
 21
307.2717652033877
 31
0.0
  0
SPLINE
  5
21D
330
39
100
AcDbEntity
  8
0
  6
Continuous
 62
     2
100
AcDbSpline
210
0.0
220
0.0
230
1.0
 70
     8
 71
     3
 72
    23
 73
    19
 74
    17
 42
0.0000000001
 43
0.0000000001
 44
0.00000001
 40
0.0
 40
0.0
 40
0.0
 40
0.0
 40
0.0781784390472768
 40
0.1563568837368639
 40
0.1762761836260962
 40
0.1961909301219121
 40
0.2161078073421806
 40
0.2360258745890598
 40
0.2563026740741714
 40
0.2765793016993256
 40
0.2968559974417475
 40
0.317132842432401
 40
0.3378105953117805
 40
0.3584880810718861
 40
0.3791659801282106
 40
0.3998454132429425
 40
0.4663525470214128
 40
0.5328596339682027
 40
0.5328596339682027
 40
0.5328596339682027
 40
0.5328596339682027
 10
1348.625521274553
 20
283.6678832142767
 30
0.0
 10
1348.647383503638
 20
283.6822111666408
 30
0.0
 10
1348.691107963387
 20
283.7108670724032
 30
0.0
 10
1348.731230204513
 20
283.7546529641435
 30
0.0
 10
1348.754630646339
 20
283.7862575344293
 30
0.0
 10
1348.765692650047
 20
283.8028337943497
 30
0.0
 10
1348.775972562963
 20
283.8198992883338
 30
0.0
 10
1348.785511172878
 20
283.8375288385565
 30
0.0
 10
1348.794279769787
 20
283.8556867186039
 30
0.0
 10
1348.802256358834
 20
283.8743361462678
 30
0.0
 10
1348.809385891966
 20
283.8933253417359
 30
0.0
 10
1348.815706686768
 20
283.9127392862489
 30
0.0
 10
1348.821197178235
 20
283.9325432636254
 30
0.0
 10
1348.825839764675
 20
283.9526991272739
 30
0.0
 10
1348.829611675764
 20
283.9730391767509
 30
0.0
 10
1348.834612528334
 20
284.0086424849945
 30
0.0
 10
1348.837673939711
 20
284.0600335796805
 30
0.0
 10
1348.833033914024
 20
284.1041849895309
 30
0.0
 10
1348.830713901997
 20
284.1262606866837
 30
0.0
 11
1348.625521274553
 21
283.6678832142767
 31
0.0
 11
1348.689073948802
 21
283.7134126105786
 31
0.0
 11
1348.74266368389
 21
283.7703336919749
 31
0.0
 11
1348.75450053932
 21
283.786354533451
 31
0.0
 11
1348.765561964003
 21
283.8029147874338
 31
0.0
 11
1348.775839234427
 21
283.8199752596094
 31
0.0
 11
1348.785319249821
 21
283.8374926427181
 31
0.0
 11
1348.794139125081
 21
283.855750747706
 31
0.0
 11
1348.802115173821
 21
283.8743927506656
 31
0.0
 11
1348.809244184224
 21
283.8933748896628
 31
0.0
 11
1348.815523315487
 21
283.9126550077474
 31
0.0
 11
1348.821049928641
 21
283.9325805193138
 31
0.0
 11
1348.8256946072
 21
283.9527295981623
 31
0.0
 11
1348.829462285767
 21
283.9730613493805
 31
0.0
 11
1348.832358145638
 21
283.993537016636
 31
0.0
 11
1348.835851558081
 21
284.0599523380079
 31
0.0
 11
1348.830713901997
 21
284.1262606866837
 31
0.0
  0
LWPOLYLINE
  5
21E
330
39
100
AcDbEntity
  8
0
  6
Continuous
 62
     7
100
AcDbPolyline
 90
        9
 70
     0
 43
0.0
 10
1348.163782811942
 20
390.6497627975218
 10
1348.370584811943
 20
390.681500797522
 10
1348.561899811943
 20
390.7777227975219
 10
1348.706888811943
 20
390.9049507975219
 10
1348.837839811943
 20
391.0717287975217
 10
1348.940302811942
 20
391.2463817975217
 10
1349.031824811942
 20
391.4448677975217
 10
1349.134409811943
 20
391.7314277975218
 10
1349.220423811943
 20
392.0460027975219
  0
LWPOLYLINE
  5
21F
330
39
100
AcDbEntity
  8
0
  6
Continuous
 62
     7
100
AcDbPolyline
 90
        9
 70
     0
 43
0.0
 10
1347.707910811942
 20
391.2195867975217
 10
1347.841821811942
 20
391.2317027975219
 10
1347.969965811943
 20
391.2681407975217
 10
1348.095041811942
 20
391.3311287975218
 10
1348.211862811942
 20
391.4190797975216
 10
1348.323480811942
 20
391.5351997975217
 10
1348.425211811943
 20
391.6748787975218
 10
1348.596094811942
 20
392.0095347975218
 10
1348.729959811943
 20
392.4089487975216
  0
LWPOLYLINE
  5
220
330
39
100
AcDbEntity
  8
0
  6
Continuous
 62
     7
100
AcDbPolyline
 90
        4
 70
     0
 43
0.0
 10
1348.729959811943
 20
392.4089487975216
 10
1348.869211811943
 20
393.0442637975216
 10
1348.956888811943
 20
393.7421397975218
 10
1348.986734811942
 20
394.4695867975217
  0
LWPOLYLINE
  5
221
330
39
100
AcDbEntity
  8
0
  6
Continuous
 62
     7
100
AcDbPolyline
 90
        5
 70
     0
 43
0.0
 10
1349.220423811943
 20
392.0460027975219
 10
1349.308954811942
 20
392.4744087975219
 10
1349.380350811943
 20
392.9310427975217
 10
1349.454630811943
 20
393.6880927975217
 10
1349.479807811943
 20
394.4695867975217
  0
LWPOLYLINE
  5
222
330
39
100
AcDbEntity
  8
0
  6
Continuous
 62
     7
100
AcDbPolyline
 90
       11
 70
     0
 43
0.0
 10
1347.707910811942
 20
391.2195867975217
 10
1347.621210811943
 20
391.2356387975217
 10
1347.455087811943
 20
391.3196537975218
 10
1347.277399811942
 20
391.4603397975218
 10
1347.034662811942
 20
391.7238287975217
 10
1346.793817811943
 20
392.0702037975218
 10
1346.573969811942
 20
392.4816717975218
 10
1346.389322811942
 20
392.9412667975219
 10
1346.250314811943
 20
393.4339427975217
 10
1346.164148811943
 20
393.9469737975219
 10
1346.134973811943
 20
394.4695867975217
  0
LWPOLYLINE
  5
223
330
39
100
AcDbEntity
  8
0
  6
Continuous
 62
     7
100
AcDbPolyline
 90
        5
 70
     0
 43
0.0
 10
1313.390863811942
 20
379.1027047975217
 10
1317.235697811942
 20
378.7771737975218
 10
1322.016840811943
 20
378.4198127975219
 10
1323.886682811943
 20
378.2757697975217
 10
1325.533527133977
 20
378.0886406319869
  0
LWPOLYLINE
  5
224
330
39
100
AcDbEntity
  8
0
  6
Continuous
 62
     7
100
AcDbPolyline
 90
       14
 70
     0
 43
0.0
 10
1346.008829811943
 20
394.4695867975217
 10
1346.011392811943
 20
394.3071107975218
 10
1346.070947811943
 20
393.6715217975218
 10
1346.206690811942
 20
393.0520147975217
 10
1346.412256811942
 20
392.4625067975217
 10
1346.678385811943
 20
391.9191717975218
 10
1346.830621811942
 20
391.6706367975216
 10
1346.993509811943
 20
391.4411137975219
 10
1347.274530811942
 20
391.1184517975216
 10
1347.570642811942
 20
390.8679937975217
 10
1347.725137811943
 20
390.7729617975217
 10
1347.879160811942
 20
390.7036867975216
 10
1348.023126811942
 20
390.6636177975217
 10
1348.163782811942
 20
390.6497627975218
  0
LWPOLYLINE
  5
225
330
39
100
AcDbEntity
  8
0
  6
Continuous
 62
     7
100
AcDbPolyline
 90
        5
 70
     0
 43
0.0
 10
1325.533527133977
 20
410.8505329630566
 10
1323.886682811943
 20
410.6634037975218
 10
1322.016840811943
 20
410.5193607975216
 10
1317.235697811942
 20
410.1619997975217
 10
1313.390863811942
 20
409.8364687975218
  0
LWPOLYLINE
  5
226
330
39
100
AcDbEntity
  8
0
  6
Continuous
 62
     7
100
AcDbPolyline
 90
       11
 70
     0
 43
0.0
 10
1346.134973811943
 20
394.4695867975217
 10
1346.164148811943
 20
394.9921997975216
 10
1346.250314811943
 20
395.5052307975218
 10
1346.389322811942
 20
395.9979067975219
 10
1346.573969811942
 20
396.4575017975217
 10
1346.793817811943
 20
396.8689697975217
 10
1347.034662811942
 20
397.2153447975218
 10
1347.277399811942
 20
397.4788337975217
 10
1347.455087811943
 20
397.6195197975217
 10
1347.621210811943
 20
397.7035347975218
 10
1347.707910811942
 20
397.7195867975217
  0
LWPOLYLINE
  5
227
330
39
100
AcDbEntity
  8
0
  6
Continuous
 62
     7
100
AcDbPolyline
 90
        5
 70
     0
 43
0.0
 10
1349.479807811943
 20
394.4695867975217
 10
1349.454630811943
 20
395.2510807975218
 10
1349.380350811943
 20
396.0081307975217
 10
1349.308954811942
 20
396.4647647975216
 10
1349.220423811943
 20
396.8931707975216
  0
LWPOLYLINE
  5
228
330
39
100
AcDbEntity
  8
0
  6
Continuous
 62
     7
100
AcDbPolyline
 90
        4
 70
     0
 43
0.0
 10
1348.986734811942
 20
394.4695867975217
 10
1348.956888811943
 20
395.1970337975217
 10
1348.869211811943
 20
395.8949097975217
 10
1348.729959811943
 20
396.5302247975217
  0
LWPOLYLINE
  5
229
330
39
100
AcDbEntity
  8
0
  6
Continuous
 62
     7
100
AcDbPolyline
 90
        9
 70
     0
 43
0.0
 10
1348.729959811943
 20
396.5302247975217
 10
1348.596094811942
 20
396.9296387975219
 10
1348.425211811943
 20
397.2642947975219
 10
1348.323480811942
 20
397.4039737975218
 10
1348.211862811942
 20
397.5200937975217
 10
1348.095041811942
 20
397.6080447975219
 10
1347.969965811943
 20
397.6710327975218
 10
1347.841821811942
 20
397.7074707975216
 10
1347.707910811942
 20
397.7195867975217
  0
LWPOLYLINE
  5
22A
330
39
100
AcDbEntity
  8
0
  6
Continuous
 62
     7
100
AcDbPolyline
 90
        9
 70
     0
 43
0.0
 10
1349.220423811943
 20
396.8931707975216
 10
1349.134409811943
 20
397.2077457975217
 10
1349.031824811942
 20
397.4943057975218
 10
1348.940302811942
 20
397.6927917975218
 10
1348.837839811943
 20
397.8674447975218
 10
1348.706888811943
 20
398.0342227975216
 10
1348.561899811943
 20
398.1614507975219
 10
1348.370584811943
 20
398.2576727975218
 10
1348.163782811942
 20
398.2894107975217
  0
LWPOLYLINE
  5
22B
330
39
100
AcDbEntity
  8
0
  6
Continuous
 62
     7
100
AcDbPolyline
 90
       14
 70
     0
 43
0.0
 10
1348.163782811942
 20
398.2894107975217
 10
1348.023126811942
 20
398.2755557975218
 10
1347.879160811942
 20
398.2354867975218
 10
1347.725137811943
 20
398.1662117975218
 10
1347.570642811942
 20
398.0711797975218
 10
1347.274530811942
 20
397.8207217975219
 10
1346.993509811943
 20
397.4980597975218
 10
1346.830621811942
 20
397.2685367975219
 10
1346.678385811943
 20
397.0200017975217
 10
1346.412256811942
 20
396.4766667975218
 10
1346.206690811942
 20
395.8871587975218
 10
1346.070947811943
 20
395.2676517975217
 10
1346.011392811943
 20
394.6320627975217
 10
1346.008829811943
 20
394.4695867975217
  0
LWPOLYLINE
  5
22C
330
39
100
AcDbEntity
  8
0
  6
Continuous
 62
     2
100
AcDbPolyline
 90
       18
 70
     0
 43
0.0
 10
1330.201632401159
 20
279.0384432033877
 10
1330.138644401159
 20
281.6117302033877
 10
1330.092318401159
 20
282.7345642033877
 10
1329.987231401159
 20
284.4929262033877
 10
1329.833880401159
 20
286.2418272033877
 10
1329.624423401159
 20
287.9767512033877
 10
1329.424151401159
 20
289.2867492033877
 10
1329.188311401159
 20
290.5828302033877
 10
1328.917681401159
 20
291.8637142033877
 10
1328.692935401159
 20
292.8140012033877
 10
1328.450640401159
 20
293.7553462033877
 10
1327.918292401159
 20
295.6116392033877
 10
1327.580950401159
 20
296.6812802033877
 10
1327.226626401159
 20
297.7412172033877
 10
1326.760531401159
 20
299.0599122033877
 10
1326.275881401159
 20
300.3613642033877
 10
1325.519732401159
 20
302.2867492033877
 10
1324.738620401159
 20
304.1754822033877
  0
LWPOLYLINE
  5
22D
330
39
100
AcDbEntity
  8
0
  6
Continuous
 62
     2
100
AcDbPolyline
 90
       19
 70
     0
 43
0.0
 10
1324.738620401159
 20
304.1754822033877
 10
1324.468585401159
 20
304.8450682033877
 10
1324.150408401159
 20
305.5195372033877
 10
1323.722644401159
 20
306.2827822033877
 10
1323.227771401159
 20
307.0169122033877
 10
1322.670703401159
 20
307.7066712033877
 10
1322.133471401159
 20
308.2714902033877
 10
1321.562426401159
 20
308.7905332033877
 10
1321.163562401159
 20
309.1135622033877
 10
1320.754428401159
 20
309.4169982033877
 10
1320.336749401159
 20
309.7019402033877
 10
1319.912158401159
 20
309.9695492033877
 10
1319.047946401159
 20
310.4581362033877
 10
1318.077990401159
 20
310.9373842033877
 10
1317.099719401159
 20
311.3665832033877
 10
1316.115252401159
 20
311.7558042033877
 10
1315.122027401159
 20
312.1067562033877
 10
1314.230181401159
 20
312.3773862033877
 10
1313.326388401159
 20
312.6029112033877
  0
LWPOLYLINE
  5
22E
330
39
100
AcDbEntity
  8
0
  6
Continuous
 62
     2
100
AcDbPolyline
 90
       11
 70
     0
 43
0.0
 10
1313.326388401159
 20
312.6029112033877
 10
1309.064669401159
 20
313.5246332033877
 10
1304.781344401159
 20
314.3933472033877
 10
1300.482196401159
 20
315.2102112033877
 10
1296.165454401159
 20
315.9783992033877
 10
1293.280535401159
 20
316.4646972033877
 10
1290.392276401159
 20
316.9312502033877
 10
1284.611315401159
 20
317.8094542033877
 10
1278.834033401159
 20
318.6224422033877
 10
1274.524813401159
 20
319.1939142033877
 10
1270.232470401159
 20
319.7394472033877
  0
LWPOLYLINE
  5
22F
330
39
100
AcDbEntity
  8
0
  6
Continuous
 62
     2
100
AcDbPolyline
 90
       15
 70
     0
 43
0.0
 10
1261.465014401159
 20
322.5209712033877
 10
1264.238085401159
 20
322.2918762033877
 10
1267.015292401159
 20
322.0406252033877
 10
1271.668185401159
 20
321.5737972033877
 10
1276.330126401159
 20
321.0529842033877
 10
1280.999896401159
 20
320.4829462033877
 10
1284.335742401159
 20
320.0486512033877
 10
1287.674609401159
 20
319.5931452033877
 10
1291.358538401159
 20
319.0680902033877
 10
1295.045306401159
 20
318.5207882033877
 10
1299.245013401159
 20
317.8727782033877
 10
1303.443286401159
 20
317.2008722033877
 10
1307.721453401159
 20
316.4932922033877
 10
1312.005435401159
 20
315.7631892033877
 10
1317.69272521027
 20
314.7631470301297
  0
LWPOLYLINE
  5
230
330
39
100
AcDbEntity
  8
0
  6
Continuous
 62
     2
100
AcDbPolyline
 90
       21
 70
     0
 43
0.0
 10
1333.196719759482
 20
310.9646081639967
 10
1334.786578401159
 20
310.3612732033877
 10
1336.328677401159
 20
309.7084102033877
 10
1337.436984401159
 20
309.1931212033877
 10
1338.622103401159
 20
308.5843872033877
 10
1339.210559401159
 20
308.2548582033877
 10
1339.794451401159
 20
307.9069582033877
 10
1340.372210401159
 20
307.5393432033877
 10
1340.942126401159
 20
307.1505182033877
 10
1341.502307401159
 20
306.7389282033877
 10
1342.050646401159
 20
306.3028322033877
 10
1342.815325401159
 20
305.6274782033877
 10
1343.184268401159
 20
305.2672182033877
 10
1343.542605401159
 20
304.8909972033877
 10
1344.001284401159
 20
304.3635002033877
 10
1344.434420401159
 20
303.8054872033877
 10
1344.837619401159
 20
303.2161622033877
 10
1345.250979401159
 20
302.5125182033877
 10
1345.612216401159
 20
301.7700562033877
 10
1345.913195401159
 20
300.9928032033877
 10
1346.146533401159
 20
300.1877802033877
  0
LWPOLYLINE
  5
231
330
39
100
AcDbEntity
  8
0
  6
Continuous
 62
     2
100
AcDbPolyline
 90
        9
 70
     0
 43
0.0
 10
1346.146533401159
 20
300.1877802033877
 10
1346.654681401159
 20
298.1332762033877
 10
1347.122485401159
 20
296.0542052033877
 10
1347.545932401159
 20
293.9524902033877
 10
1347.902316401159
 20
291.9458672033877
 10
1348.213778401159
 20
289.9185242033877
 10
1348.478030401159
 20
287.8718932033877
 10
1348.693255401159
 20
285.8080202033877
 10
1348.830713901997
 20
284.1262606866837
  0
LWPOLYLINE
  5
232
330
39
100
AcDbEntity
  8
0
  6
Continuous
 62
     2
100
AcDbPolyline
 90
        6
 70
     0
 43
0.0
 10
1330.215838401159
 20
278.5294402033877
 10
1330.215014401159
 20
278.5302942033877
 10
1330.214358401159
 20
278.5322022033877
 10
1330.211581401159
 20
278.5525422033877
 10
1330.206011401159
 20
278.6683252033877
 10
1330.201632401159
 20
279.0384432033877
  0
LWPOLYLINE
  5
233
330
39
100
AcDbEntity
  8
0
  6
Continuous
 62
     7
100
AcDbPolyline
 90
        6
 70
     0
 43
0.0
 10
1098.315393948228
 20
310.4217282033877
 10
1098.185281948228
 20
311.4616152033877
 10
1098.008790948228
 20
312.4188292033877
 10
1097.822892948228
 20
313.1550962033877
 10
1097.597947948229
 20
313.8356072033877
 10
1097.495843948228
 20
314.0925962033877
  0
LWPOLYLINE
  5
234
330
39
100
AcDbEntity
  8
0
  6
Continuous
 62
     7
100
AcDbPolyline
 90
       18
 70
     0
 43
0.0
 10
1097.495843948228
 20
314.0925962033877
 10
1097.113816948228
 20
314.9155942033877
 10
1096.669381948228
 20
315.7106382033877
 10
1096.161424948228
 20
316.4801392033877
 10
1095.590768948228
 20
317.2221132033877
 10
1095.063943948228
 20
317.8222102033877
 10
1094.367479948228
 20
318.5199642033877
 10
1093.608407948228
 20
319.1829592033877
 10
1092.977563948228
 20
319.6713012033877
 10
1092.213380948228
 20
320.1993462033877
 10
1091.293534948228
 20
320.7564752033877
 10
1090.755372948228
 20
321.0477962033877
 10
1090.198510948228
 20
321.3250182033877
 10
1089.622789948228
 20
321.5877742033877
 10
1089.028955948228
 20
321.8352112033877
 10
1088.416429948228
 20
322.0670832033877
 10
1087.785562948228
 20
322.2826592033877
 10
1087.136407948228
 20
322.4813902033877
  0
LWPOLYLINE
  5
235
330
39
100
AcDbEntity
  8
0
  6
Continuous
 62
     7
100
AcDbPolyline
 90
        6
 70
     0
 43
0.0
 10
1086.882074948228
 20
322.5527712033877
 10
1086.460252948228
 20
322.6460022033877
 10
1085.773530948228
 20
322.7520812033877
 10
1084.702653948228
 20
322.8657282033877
 10
1083.231767948228
 20
322.9547182033877
 10
1081.915353948228
 20
322.9794062033877
  0
LWPOLYLINE
  5
236
330
39
100
AcDbEntity
  8
0
  6
Continuous
 62
     2
100
AcDbPolyline
 90
        5
 70
     0
 43
0.0
 10
1098.848443948228
 20
279.0384432033877
 10
1098.727525948228
 20
285.3059142033877
 10
1098.544725948229
 20
293.1474062033877
 10
1098.402803948228
 20
298.0297912033877
 10
1098.189492948228
 20
304.1754822033877
  0
LWPOLYLINE
  5
237
330
39
100
AcDbEntity
  8
0
  6
Continuous
 62
     2
100
AcDbPolyline
 90
       13
 70
     0
 43
0.0
 10
1096.505016595208
 20
303.6192565000367
 10
1095.028909948228
 20
303.0721492033877
 10
1094.240014948228
 20
302.7898012033877
 10
1092.990541948228
 20
302.3666442033877
 10
1092.078996948229
 20
302.0803892033877
 10
1091.134584948228
 20
301.8061882033877
 10
1089.827874948228
 20
301.4670472033877
 10
1088.472627948228
 20
301.1671502033877
 10
1087.075700948228
 20
300.9151672033877
 10
1085.829782948228
 20
300.7403932033877
 10
1084.564019948228
 20
300.6116392033877
 10
1083.283742948228
 20
300.5318352033877
 10
1081.915353948228
 20
300.5027222033877
  0
LWPOLYLINE
  5
238
330
39
100
AcDbEntity
  8
0
  6
Continuous
 62
     2
100
AcDbPolyline
 90
        9
 70
     0
 43
0.0
 10
1096.077142948228
 20
310.7890072033877
 10
1094.461160948228
 20
310.4800472033877
 10
1092.755433948228
 20
310.1850642033877
 10
1090.970933948228
 20
309.9168152033877
 10
1089.588464948228
 20
309.7398132033877
 10
1088.173951948229
 20
309.5878352033877
 10
1086.143739948228
 20
309.4226442033877
 10
1084.075475948228
 20
309.3196162033877
 10
1081.915353948228
 20
309.2831482033877
  0
LWPOLYLINE
  5
239
330
39
100
AcDbEntity
  8
0
  6
Continuous
 62
     7
100
AcDbPolyline
 90
        9
 70
     0
 43
0.0
 10
1098.189492948228
 20
304.1754822033877
 10
1098.071130948228
 20
306.8797052033877
 10
1097.992532948229
 20
308.1275692033877
 10
1097.862565948228
 20
309.5935422033877
 10
1097.714883948228
 20
310.7239132033877
 10
1097.613038948228
 20
311.3149172033877
 10
1097.505654948228
 20
311.8335932033877
 10
1097.397599948228
 20
312.2616022033877
 10
1097.282960948228
 20
312.6029112033877
  0
LWPOLYLINE
  5
23A
330
39
100
AcDbEntity
  8
0
  6
Continuous
 62
     7
100
AcDbPolyline
 90
       16
 70
     0
 43
0.0
 10
1097.282960948228
 20
312.6029112033877
 10
1097.085305948228
 20
313.0706232033877
 10
1096.871949948228
 20
313.5250002033877
 10
1096.642778948228
 20
313.9661622033877
 10
1096.397775948228
 20
314.3941712033877
 10
1096.137590948228
 20
314.8080812033877
 10
1095.861390948228
 20
315.2095092033877
 10
1095.567765948228
 20
315.6004692033877
 10
1095.257783948228
 20
315.9794672033877
 10
1094.659120948228
 20
316.6320862033877
 10
1094.007806948228
 20
317.2490902033877
 10
1093.304261948228
 20
317.8329832033877
 10
1092.549119948228
 20
318.3865722033877
 10
1092.017442948228
 20
318.7403622033877
 10
1091.463563948228
 20
319.0830742033877
 10
1090.290524163585
 20
319.7388808926097
  0
LWPOLYLINE
  5
23B
330
39
100
AcDbEntity
  8
0
  6
Continuous
 62
     7
100
AcDbPolyline
 90
       16
 70
     0
 43
0.0
 10
1073.546167425844
 20
319.7388808926097
 10
1072.373127641201
 20
319.0830742033877
 10
1071.819248641201
 20
318.7403622033877
 10
1071.287571641201
 20
318.3865722033877
 10
1070.532429641201
 20
317.8329832033877
 10
1069.828884641201
 20
317.2490902033877
 10
1069.177570641201
 20
316.6320862033877
 10
1068.578907641201
 20
315.9794672033877
 10
1068.268925641201
 20
315.6004692033877
 10
1067.975300641201
 20
315.2095092033877
 10
1067.699100641201
 20
314.8080812033877
 10
1067.438915641201
 20
314.3941712033877
 10
1067.193912641201
 20
313.9661622033877
 10
1066.964741641201
 20
313.5250002033877
 10
1066.751385641201
 20
313.0706232033877
 10
1066.553730641201
 20
312.6029112033877
  0
LWPOLYLINE
  5
23C
330
39
100
AcDbEntity
  8
0
  6
Continuous
 62
     7
100
AcDbPolyline
 90
        9
 70
     0
 43
0.0
 10
1066.553730641201
 20
312.6029112033877
 10
1066.439091641201
 20
312.2616022033877
 10
1066.331036641201
 20
311.8335932033877
 10
1066.223652641201
 20
311.3149172033877
 10
1066.121807641201
 20
310.7239132033877
 10
1065.974125641201
 20
309.5935422033877
 10
1065.844158641201
 20
308.1275692033877
 10
1065.765560641201
 20
306.8797052033877
 10
1065.647198641201
 20
304.1754822033877
  0
LWPOLYLINE
  5
23D
330
39
100
AcDbEntity
  8
0
  6
Continuous
 62
     2
100
AcDbPolyline
 90
        9
 70
     0
 43
0.0
 10
1081.921337641201
 20
309.2831482033877
 10
1079.761215641201
 20
309.3196162033877
 10
1077.692951641201
 20
309.4226442033877
 10
1075.662739641201
 20
309.5878352033877
 10
1074.248226641201
 20
309.7398132033877
 10
1072.865757641201
 20
309.9168152033877
 10
1071.081257641201
 20
310.1850642033877
 10
1069.375530641201
 20
310.4800472033877
 10
1067.759548641201
 20
310.7890072033877
  0
LWPOLYLINE
  5
23E
330
39
100
AcDbEntity
  8
0
  6
Continuous
 62
     2
100
AcDbPolyline
 90
       13
 70
     0
 43
0.0
 10
1081.921337641201
 20
300.5027222033877
 10
1080.552948641201
 20
300.5318352033877
 10
1079.272671641201
 20
300.6116392033877
 10
1078.006908641201
 20
300.7403932033877
 10
1076.760990641201
 20
300.9151672033877
 10
1075.364063641201
 20
301.1671502033877
 10
1074.008816641201
 20
301.4670472033877
 10
1072.702106641201
 20
301.8061882033877
 10
1071.757694641201
 20
302.0803892033877
 10
1070.846149641202
 20
302.3666442033877
 10
1069.596676641201
 20
302.7898012033877
 10
1068.807781641202
 20
303.0721492033877
 10
1067.331674994221
 20
303.6192565000367
  0
LWPOLYLINE
  5
23F
330
39
100
AcDbEntity
  8
0
  6
Continuous
 62
     2
100
AcDbPolyline
 90
        5
 70
     0
 43
0.0
 10
1065.647198641201
 20
304.1754822033877
 10
1065.433887641201
 20
298.0297912033877
 10
1065.291965641201
 20
293.1474062033877
 10
1065.109165641201
 20
285.3059142033877
 10
1064.988247641201
 20
279.0384432033877
  0
LWPOLYLINE
  5
240
330
39
100
AcDbEntity
  8
0
  6
Continuous
 62
     7
100
AcDbPolyline
 90
        6
 70
     0
 43
0.0
 10
1081.921337641201
 20
322.9794062033877
 10
1080.604923641201
 20
322.9547182033877
 10
1079.134037641201
 20
322.8657282033877
 10
1078.063160641201
 20
322.7520812033877
 10
1077.376438641201
 20
322.6460022033877
 10
1076.954616641201
 20
322.5527712033877
  0
LWPOLYLINE
  5
241
330
39
100
AcDbEntity
  8
0
  6
Continuous
 62
     7
100
AcDbPolyline
 90
       18
 70
     0
 43
0.0
 10
1076.700283641201
 20
322.4813902033877
 10
1076.051128641201
 20
322.2826592033877
 10
1075.420261641201
 20
322.0670832033877
 10
1074.807735641201
 20
321.8352112033877
 10
1074.213901641201
 20
321.5877742033877
 10
1073.638180641201
 20
321.3250182033877
 10
1073.081318641201
 20
321.0477962033877
 10
1072.543156641201
 20
320.7564752033877
 10
1071.623310641201
 20
320.1993462033877
 10
1070.859127641201
 20
319.6713012033877
 10
1070.228283641201
 20
319.1829592033877
 10
1069.469211641201
 20
318.5199642033877
 10
1068.772747641202
 20
317.8222102033877
 10
1068.245922641201
 20
317.2221132033877
 10
1067.675266641201
 20
316.4801392033877
 10
1067.167309641201
 20
315.7106382033877
 10
1066.722874641201
 20
314.9155942033877
 10
1066.340847641201
 20
314.0925962033877
  0
LWPOLYLINE
  5
242
330
39
100
AcDbEntity
  8
0
  6
Continuous
 62
     7
100
AcDbPolyline
 90
        6
 70
     0
 43
0.0
 10
1066.340847641201
 20
314.0925962033877
 10
1066.238743641201
 20
313.8356072033877
 10
1066.013798641201
 20
313.1550962033877
 10
1065.827900641201
 20
312.4188292033877
 10
1065.651409641201
 20
311.4616152033877
 10
1065.521297641201
 20
310.4217282033877
  0
ENDBLK
  5
3B
330
39
100
AcDbEntity
  8
0
100
AcDbBlockEnd
  0
BLOCK
  5
3D
330
3C
100
AcDbEntity
  8
0
100
AcDbBlockBegin
  2
82-20-__F_
 70
     0
 71
     0
 10
1105.251066710512
 20
218.9215295343232
 30
0.0
  3
82-20-__F_
  1

  0
LINE
  5
243
330
3C
100
AcDbEntity
  8
1
  6
Continuous
 62
     7
100
AcDbLine
 10
1133.830203401159
 20
152.5294432033882
 30
0.0
 11
1158.83020340116
 21
152.5294432033883
 31
0.0
  0
LINE
  5
244
330
3C
100
AcDbEntity
  8
1
  6
Continuous
 62
     7
100
AcDbLine
 10
1133.830203401159
 20
152.5294432033882
 30
0.0
 11
1133.830203401159
 21
162.3294432033883
 31
0.0
  0
LINE
  5
245
330
3C
100
AcDbEntity
  8
1
  6
Continuous
 62
     7
100
AcDbLine
 10
1134.622980866273
 20
149.7547220754909
 30
0.0
 11
1133.830203401159
 21
152.5294432033882
 31
0.0
  0
LINE
  5
246
330
3C
100
AcDbEntity
  8
1
  6
Continuous
 62
     7
100
AcDbLine
 10
1158.037425936046
 20
149.754722075491
 30
0.0
 11
1158.83020340116
 21
152.5294432033883
 31
0.0
  0
LINE
  5
247
330
3C
100
AcDbEntity
  8
1
  6
Continuous
 62
     7
100
AcDbLine
 10
1158.83020340116
 20
152.5294432033883
 30
0.0
 11
1158.83020340116
 21
162.3294432033886
 31
0.0
  0
LINE
  5
248
330
3C
100
AcDbEntity
  8
1
  6
Continuous
 62
     7
100
AcDbLine
 10
1135.584504813914
 20
149.0294432033883
 30
0.0
 11
1157.075901988405
 21
149.0294432033886
 31
0.0
  0
LINE
  5
249
330
3C
100
AcDbEntity
  8
1
  6
Continuous
 62
     7
100
AcDbLine
 10
1134.030203401159
 20
162.5294432033882
 30
0.0
 11
1158.630203401159
 21
162.5294432033866
 31
0.0
  0
LINE
  5
24A
330
3C
100
AcDbEntity
  8
1
  6
Continuous
 62
     7
100
AcDbLine
 10
1069.418341773468
 20
152.5294432033882
 30
0.0
 11
1094.418341773468
 21
152.5294432033883
 31
0.0
  0
LINE
  5
24B
330
3C
100
AcDbEntity
  8
1
  6
Continuous
 62
     7
100
AcDbLine
 10
1069.418341773468
 20
152.5294432033882
 30
0.0
 11
1069.418341773468
 21
162.3294432033883
 31
0.0
  0
LINE
  5
24C
330
3C
100
AcDbEntity
  8
1
  6
Continuous
 62
     7
100
AcDbLine
 10
1070.211119238581
 20
149.754722075491
 30
0.0
 11
1069.418341773468
 21
152.5294432033882
 31
0.0
  0
LINE
  5
24D
330
3C
100
AcDbEntity
  8
1
  6
Continuous
 62
     7
100
AcDbLine
 10
1093.625564308354
 20
149.754722075491
 30
0.0
 11
1094.418341773468
 21
152.5294432033883
 31
0.0
  0
LINE
  5
24E
330
3C
100
AcDbEntity
  8
1
  6
Continuous
 62
     7
100
AcDbLine
 10
1094.418341773468
 20
152.5294432033883
 30
0.0
 11
1094.418341773468
 21
162.3294432033885
 31
0.0
  0
LINE
  5
24F
330
3C
100
AcDbEntity
  8
1
  6
Continuous
 62
     7
100
AcDbLine
 10
1071.172643186222
 20
149.0294432033882
 30
0.0
 11
1092.664040360714
 21
149.0294432033886
 31
0.0
  0
LINE
  5
250
330
3C
100
AcDbEntity
  8
1
  6
Continuous
 62
     7
100
AcDbLine
 10
1069.618341773468
 20
162.5294432033882
 30
0.0
 11
1094.218341773468
 21
162.5294432033865
 31
0.0
  0
ARC
  5
251
330
3C
100
AcDbEntity
  8
1
  6
Continuous
 62
     7
100
AcDbCircle
 10
1158.630203401159
 20
162.3294432033885
 30
0.0
 40
0.200000000000955
100
AcDbArc
 50
0.00000000002443
 51
90.0
  0
ARC
  5
252
330
3C
100
AcDbEntity
  8
1
  6
Continuous
 62
     7
100
AcDbCircle
 10
1134.030203401159
 20
162.3294432033881
 30
0.0
 40
0.2000000000001023
100
AcDbArc
 50
90.0
 51
179.999999999943
  0
ARC
  5
253
330
3C
100
AcDbEntity
  8
1
  6
Continuous
 62
     7
100
AcDbCircle
 10
1157.075901988405
 20
150.0294432033886
 30
0.0
 40
1.0
100
AcDbArc
 50
-90.0
 51
-15.94539590093068
  0
ARC
  5
254
330
3C
100
AcDbEntity
  8
1
  6
Continuous
 62
     7
100
AcDbCircle
 10
1135.584504813914
 20
150.0294432033883
 30
0.0
 40
1.000000000000081
100
AcDbArc
 50
-164.0546040990767
 51
-90.0
  0
ARC
  5
255
330
3C
100
AcDbEntity
  8
1
  6
Continuous
 62
     7
100
AcDbCircle
 10
1094.218341773468
 20
162.3294432033885
 30
0.0
 40
0.2000000000000455
100
AcDbArc
 50
0.0
 51
90.0
  0
ARC
  5
256
330
3C
100
AcDbEntity
  8
1
  6
Continuous
 62
     7
100
AcDbCircle
 10
1069.618341773468
 20
162.3294432033882
 30
0.0
 40
0.2000000000000171
100
AcDbArc
 50
90.0
 51
179.9999999999674
  0
ARC
  5
257
330
3C
100
AcDbEntity
  8
1
  6
Continuous
 62
     7
100
AcDbCircle
 10
1092.664040360714
 20
150.0294432033886
 30
0.0
 40
1.0
100
AcDbArc
 50
-90.0
 51
-15.94539590094858
  0
ARC
  5
258
330
3C
100
AcDbEntity
  8
1
  6
Continuous
 62
     7
100
AcDbCircle
 10
1071.172643186222
 20
150.0294432033882
 30
0.0
 40
1.000000000000245
100
AcDbArc
 50
-164.0546040990912
 51
-90.0
  0
ENDBLK
  5
3E
330
3C
100
AcDbEntity
  8
0
100
AcDbBlockEnd
  0
BLOCK
  5
40
330
3F
100
AcDbEntity
  8
0
100
AcDbBlockBegin
  2
84-359-__F_
 70
     0
 71
     0
 10
1600.330203401159
 20
151.5294432033884
 30
0.0
  3
84-359-__F_
  1

  0
LINE
  5
259
330
3F
100
AcDbEntity
  8
1
  6
Continuous
 62
     7
100
AcDbLine
 10
1146.403162811943
 20
407.5695867975221
 30
0.0
 11
1176.239974164622
 21
405.0832108532429
 31
0.0
  0
LINE
  5
25A
330
3F
100
AcDbEntity
  8
1
  6
PHANTOM
 62
     5
100
AcDbLine
 10
1176.239974164622
 20
405.0832108532429
 30
0.0
 11
1176.403162811943
 21
405.0695867975219
 31
0.0
  0
LINE
  5
25B
330
3F
100
AcDbEntity
  8
1
  6
Continuous
 62
     7
100
AcDbLine
 10
1176.56610649263
 20
383.8858811655907
 30
0.0
 11
1182.403162811943
 21
384.4695867975217
 31
0.0
  0
LINE
  5
25C
330
3F
100
AcDbEntity
  8
1
  6
Continuous
 62
     7
100
AcDbLine
 10
1176.205333629799
 20
383.8531010323432
 30
0.0
 11
1146.403162811943
 21
381.3695867975218
 31
0.0
  0
LINE
  5
25D
330
3F
100
AcDbEntity
  8
1
  6
PHANTOM
 62
     5
100
AcDbLine
 10
1176.56610649263
 20
405.0532924294532
 30
0.0
 11
1176.403162811943
 21
405.0695867975219
 31
0.0
  0
LINE
  5
25E
330
3F
100
AcDbEntity
  8
1
  6
Continuous
 62
     7
100
AcDbLine
 10
1182.403162811943
 20
384.4695867975217
 30
0.0
 11
1182.403162811943
 21
404.4695867975217
 31
0.0
  0
LINE
  5
25F
330
3F
100
AcDbEntity
  8
1
  6
PHANTOM
 62
     5
100
AcDbLine
 10
1176.403162811943
 20
383.8695867975218
 30
0.0
 11
1176.56610649263
 21
383.8858811655907
 31
0.0
  0
LINE
  5
260
330
3F
100
AcDbEntity
  8
1
  6
Continuous
 62
     7
100
AcDbLine
 10
1182.403162811943
 20
404.4695867975217
 30
0.0
 11
1176.56610649263
 21
405.0532924294532
 31
0.0
  0
LINE
  5
261
330
3F
100
AcDbEntity
  8
1
  6
PHANTOM
 62
     5
100
AcDbLine
 10
1176.403162811943
 20
383.8695867975218
 30
0.0
 11
1176.205333629799
 21
383.8531010323432
 31
0.0
  0
LINE
  5
262
330
3F
100
AcDbEntity
  8
1
  6
DASH_CENTER
 62
     2
100
AcDbLine
 10
1176.403162811943
 20
405.0695867975219
 30
0.0
 11
1176.403162811943
 21
405.0453275174839
 31
0.0
  0
LINE
  5
263
330
3F
100
AcDbEntity
  8
1
  6
DASH_CENTER
 62
     2
100
AcDbLine
 10
1135.603162811943
 20
408.469586797522
 30
0.0
 11
1135.603162811943
 21
408.469586797522
 31
0.0
  0
LINE
  5
264
330
3F
100
AcDbEntity
  8
1
  6
Continuous
 62
     7
100
AcDbLine
 10
1135.603162811943
 20
408.469586797522
 30
0.0
 11
1146.403162811943
 21
407.5695867975221
 31
0.0
  0
LINE
  5
265
330
3F
100
AcDbEntity
  8
1
  6
Continuous
 62
     7
100
AcDbLine
 10
1146.403162811943
 20
381.3695867975218
 30
0.0
 11
1135.603162811943
 21
380.4695867975217
 31
0.0
  0
LINE
  5
266
330
3F
100
AcDbEntity
  8
1
  6
DASH_CENTER
 62
     2
100
AcDbLine
 10
1176.403162811943
 20
383.8939212728571
 30
0.0
 11
1176.403162811943
 21
383.8695867975218
 31
0.0
  0
LINE
  5
267
330
3F
100
AcDbEntity
  8
123
  6
Continuous
 62
     7
100
AcDbLine
 10
1133.738702011159
 20
168.0641296333884
 30
0.0
 11
1131.766150051159
 21
171.3594324733883
 31
0.0
  0
LINE
  5
268
330
3F
100
AcDbEntity
  8
123
  6
Continuous
 62
     7
100
AcDbLine
 10
1127.614727881863
 20
184.0448501135513
 30
0.0
 11
1127.403162821159
 21
185.9534452433882
 31
0.0
  0
LINE
  5
269
330
3F
100
AcDbEntity
  8
123
  6
Continuous
 62
     7
100
AcDbLine
 10
1133.830203401159
 20
167.7758096533885
 30
0.0
 11
1133.794156351159
 21
167.9549829133885
 31
0.0
  0
LINE
  5
26A
330
3F
100
AcDbEntity
  8
123
  6
Continuous
 62
     7
100
AcDbLine
 10
1133.794156351159
 20
167.9549829133885
 30
0.0
 11
1133.738702011159
 21
168.0641296333884
 31
0.0
  0
LINE
  5
26B
330
3F
100
AcDbEntity
  8
123
  6
Continuous
 62
     7
100
AcDbLine
 10
1128.944916641159
 20
187.5512685933882
 30
0.0
 11
1175.572481561159
 21
186.1521791233884
 31
0.0
  0
LINE
  5
26C
330
3F
100
AcDbEntity
  8
123
  6
Continuous
 62
     7
100
AcDbLine
 10
1182.330203401159
 20
181.4385971133884
 30
0.0
 11
1182.330203401159
 21
183.3899911433884
 31
0.0
  0
LINE
  5
26D
330
3F
100
AcDbEntity
  8
123
  6
Continuous
 62
     7
100
AcDbLine
 10
1177.075839001159
 20
185.9927433433882
 30
0.0
 11
1182.166268971159
 21
185.0594978433883
 31
0.0
  0
LINE
  5
26E
330
3F
100
AcDbEntity
  8
123
  6
Continuous
 62
     7
100
AcDbLine
 10
1182.166268971159
 20
165.9993885633885
 30
0.0
 11
1177.075866601159
 21
165.0661481233883
 31
0.0
  0
LINE
  5
26F
330
3F
100
AcDbEntity
  8
123
  6
Continuous
 62
     7
100
AcDbLine
 10
1182.330203401159
 20
183.5294432033884
 30
0.0
 11
1182.330203401159
 21
184.8627765333883
 31
0.0
  0
LINE
  5
270
330
3F
100
AcDbEntity
  8
123
  6
Continuous
 62
     7
100
AcDbLine
 10
1182.330203401159
 20
166.1961098733884
 30
0.0
 11
1182.330203401159
 21
167.5294432033884
 31
0.0
  0
LINE
  5
271
330
3F
100
AcDbEntity
  8
123
  6
Continuous
 62
     7
100
AcDbLine
 10
1182.330203401159
 20
167.5294432033884
 30
0.0
 11
1182.330203401159
 21
181.4385971133884
 31
0.0
  0
LINE
  5
272
330
3F
100
AcDbEntity
  8
123
  6
Continuous
 62
     7
100
AcDbLine
 10
1182.330203401159
 20
183.3899911433884
 30
0.0
 11
1182.330203401159
 21
183.5294432033884
 31
0.0
  0
LINE
  5
273
330
3F
100
AcDbEntity
  8
123
  6
Continuous
 62
     7
100
AcDbLine
 10
1175.572453380762
 20
164.9067106425594
 30
0.0
 11
1159.315210031159
 21
164.4189928433884
 31
0.0
  0
LINE
  5
274
330
3F
100
AcDbEntity
  8
123
  6
Continuous
 62
     7
100
AcDbLine
 10
1157.184804321159
 20
165.8276538933883
 30
0.0
 11
1158.830203401159
 21
163.9192178333883
 31
0.0
  0
LINE
  5
275
330
3F
100
AcDbEntity
  8
123
  6
Continuous
 62
     7
100
AcDbLine
 10
1158.830203401159
 20
163.2294432033884
 30
0.0
 11
1158.830203401159
 21
163.9192178333883
 31
0.0
  0
LINE
  5
276
330
3F
100
AcDbEntity
  8
123
  6
Continuous
 62
     7
100
AcDbLine
 10
1159.315210031159
 20
164.4189928433884
 30
0.0
 11
1159.164604421159
 21
164.3895960933883
 31
0.0
  0
LINE
  5
277
330
3F
100
AcDbEntity
  8
123
  6
Continuous
 62
     7
100
AcDbLine
 10
1157.330203401159
 20
162.5294432033884
 30
0.0
 11
1157.330203401159
 21
163.0294432033884
 31
0.0
  0
LINE
  5
278
330
3F
100
AcDbEntity
  8
123
  6
Continuous
 62
     7
100
AcDbLine
 10
1146.330203401159
 20
163.0294432033884
 30
0.0
 11
1157.330203401159
 21
163.0294432033884
 31
0.0
  0
LINE
  5
279
330
3F
100
AcDbEntity
  8
123
  6
Continuous
 62
     7
100
AcDbLine
 10
1157.330203401159
 20
163.0294432033884
 30
0.0
 11
1158.630203401159
 21
163.0294432033884
 31
0.0
  0
LINE
  5
27A
330
3F
100
AcDbEntity
  8
123
  6
Continuous
 62
     7
100
AcDbLine
 10
1134.030203401159
 20
163.0294432033884
 30
0.0
 11
1135.330203401159
 21
163.0294432033884
 31
0.0
  0
LINE
  5
27B
330
3F
100
AcDbEntity
  8
123
  6
Continuous
 62
     7
100
AcDbLine
 10
1133.830203401159
 20
163.2294432033884
 30
0.0
 11
1133.830203401159
 21
167.7758096533885
 31
0.0
  0
LINE
  5
27C
330
3F
100
AcDbEntity
  8
123
  6
Continuous
 62
     7
100
AcDbLine
 10
1135.330203401159
 20
162.5294432033884
 30
0.0
 11
1135.330203401159
 21
163.0294432033884
 31
0.0
  0
LINE
  5
27D
330
3F
100
AcDbEntity
  8
123
  6
Continuous
 62
     7
100
AcDbLine
 10
1135.330203401159
 20
163.0294432033884
 30
0.0
 11
1146.330203401159
 21
163.0294432033884
 31
0.0
  0
LINE
  5
27E
330
3F
100
AcDbEntity
  8
11
  6
Continuous
 62
     7
100
AcDbLine
 10
1067.308398983468
 20
182.5294710333885
 30
0.0
 11
1067.552428243468
 21
183.2050675233884
 31
0.0
  0
LINE
  5
27F
330
3F
100
AcDbEntity
  8
11
  6
Continuous
 62
     7
100
AcDbLine
 10
1067.308354323468
 20
181.0159685433884
 30
0.0
 11
1067.223000133468
 21
181.7788496033884
 31
0.0
  0
LINE
  5
280
330
3F
100
AcDbEntity
  8
11
  6
Continuous
 62
     7
100
AcDbLine
 10
1067.673633633468
 20
179.5674164233885
 30
0.0
 11
1067.308354323468
 21
181.0159685433884
 31
0.0
  0
LINE
  5
281
330
3F
100
AcDbEntity
  8
11
  6
Continuous
 62
     7
100
AcDbLine
 10
1068.723022523468
 20
175.8799831033884
 30
0.0
 11
1067.673633633468
 21
179.5674164233885
 31
0.0
  0
LINE
  5
282
330
3F
100
AcDbEntity
  8
11
  6
Continuous
 62
     7
100
AcDbLine
 10
1069.418341773468
 20
173.6606605733884
 30
0.0
 11
1068.723022523468
 21
175.8799831033884
 31
0.0
  0
LINE
  5
283
330
3F
100
AcDbEntity
  8
11
  6
Continuous
 62
     7
100
AcDbLine
 10
1070.475494203468
 20
170.8435257833885
 30
0.0
 11
1069.907623613468
 21
172.2321807933884
 31
0.0
  0
LINE
  5
284
330
3F
100
AcDbEntity
  8
11
  6
Continuous
 62
     7
100
AcDbLine
 10
1093.905844573468
 20
172.2430145833885
 30
0.0
 11
1092.804520701787
 21
169.5605251621785
 31
0.0
  0
LINE
  5
285
330
3F
100
AcDbEntity
  8
11
  6
Continuous
 62
     7
100
AcDbLine
 10
1095.337256483467
 20
176.6215839033885
 30
0.0
 11
1094.418341773468
 21
173.6611124133884
 31
0.0
  0
LINE
  5
286
330
3F
100
AcDbEntity
  8
11
  6
Continuous
 62
     7
100
AcDbLine
 10
1096.528503494286
 20
181.0159343826454
 30
0.0
 11
1095.337256483467
 21
176.6215839033885
 31
0.0
  0
LINE
  5
287
330
3F
100
AcDbEntity
  8
11
  6
Continuous
 62
     7
100
AcDbLine
 10
1095.422337873468
 20
184.2384293233884
 30
0.0
 11
1096.110606383468
 21
183.5033637833884
 31
0.0
  0
LINE
  5
288
330
3F
100
AcDbEntity
  8
11
  6
Continuous
 62
     7
100
AcDbLine
 10
1096.110606383468
 20
183.5033637833884
 30
0.0
 11
1096.525869313468
 21
182.5249802333885
 31
0.0
  0
LINE
  5
289
330
3F
100
AcDbEntity
  8
11
  6
Continuous
 62
     7
100
AcDbLine
 10
1094.418341773468
 20
163.0294432033884
 30
0.0
 11
1094.418341773468
 21
173.6611124133884
 31
0.0
  0
LINE
  5
28A
330
3F
100
AcDbEntity
  8
11
  6
Continuous
 62
     7
100
AcDbLine
 10
1069.418341773468
 20
163.0294432033884
 30
0.0
 11
1069.418341773468
 21
173.6606605733884
 31
0.0
  0
LINE
  5
28B
330
3F
100
AcDbEntity
  8
11
  6
Continuous
 62
     7
100
AcDbLine
 10
1070.918341773468
 20
163.0294432033884
 30
0.0
 11
1092.918341773468
 21
163.0294432033884
 31
0.0
  0
LINE
  5
28C
330
3F
100
AcDbEntity
  8
11
  6
Continuous
 62
     7
100
AcDbLine
 10
1069.418341773468
 20
163.0294432033884
 30
0.0
 11
1070.918341773468
 21
163.0294432033884
 31
0.0
  0
LINE
  5
28D
330
3F
100
AcDbEntity
  8
11
  6
Continuous
 62
     7
100
AcDbLine
 10
1070.918341773468
 20
162.5294432033865
 30
0.0
 11
1070.918341773468
 21
163.0294432033884
 31
0.0
  0
LINE
  5
28E
330
3F
100
AcDbEntity
  8
11
  6
Continuous
 62
     7
100
AcDbLine
 10
1092.918341773468
 20
162.5294432033865
 30
0.0
 11
1092.918341773468
 21
163.0294432033884
 31
0.0
  0
LINE
  5
28F
330
3F
100
AcDbEntity
  8
11
  6
Continuous
 62
     7
100
AcDbLine
 10
1092.918341773468
 20
163.0294432033884
 30
0.0
 11
1094.418341773468
 21
163.0294432033884
 31
0.0
  0
ARC
  5
290
330
3F
100
AcDbEntity
  8
1
  6
Continuous
 62
     7
100
AcDbCircle
 10
1143.454382324138
 20
394.469586797522
 30
0.0
 40
16.05121951219497
100
AcDbArc
 50
119.2837690824658
 51
-119.2837690824651
  0
ARC
  5
291
330
3F
100
AcDbEntity
  8
1
  6
Continuous
 62
     7
100
AcDbCircle
 10
1174.57603211221
 20
403.7866249697904
 30
0.0
 40
19.99999999999997
100
AcDbArc
 50
-85.32721668903864
 51
-84.28940686250003
  0
ARC
  5
292
330
3F
100
AcDbEntity
  8
123
  6
Continuous
 62
     7
100
AcDbCircle
 10
1136.201932831159
 20
168.1141280233883
 30
0.0
 40
1.232912090000176
100
AcDbArc
 50
-110.953438039973
 51
-61.37583527000393
  0
ARC
  5
293
330
3F
100
AcDbEntity
  8
123
  6
Continuous
 62
     7
100
AcDbCircle
 10
1135.192935101159
 20
170.2658029333884
 30
0.0
 40
3.60790326999942
100
AcDbArc
 50
-63.68084577000588
 51
-37.0147565600001
  0
ARC
  5
294
330
3F
100
AcDbEntity
  8
123
  6
Continuous
 62
     7
100
AcDbCircle
 10
1114.953613461159
 20
187.1711616433884
 30
0.0
 40
29.97480180000042
100
AcDbArc
 50
-39.52743428999933
 51
-30.76588694000159
  0
ARC
  5
295
330
3F
100
AcDbEntity
  8
123
  6
Continuous
 62
     7
100
AcDbCircle
 10
1130.381155851159
 20
177.7451103433884
 30
0.0
 40
11.89855447000027
100
AcDbArc
 50
-29.76520259000127
 51
-23.92563488999916
  0
ARC
  5
296
330
3F
100
AcDbEntity
  8
123
  6
Continuous
 62
     7
100
AcDbCircle
 10
1161.397387561159
 20
164.4583613933883
 30
0.0
 40
21.84528555999977
100
AcDbArc
 50
143.2764304899986
 51
157.2116802100001
  0
ARC
  5
297
330
3F
100
AcDbEntity
  8
123
  6
Continuous
 62
     7
100
AcDbCircle
 10
1150.665284261159
 20
172.4012692433885
 30
0.0
 40
8.493836969999993
100
AcDbArc
 50
127.0015243500009
 51
142.933502900004
  0
ARC
  5
298
330
3F
100
AcDbEntity
  8
123
  6
Continuous
 62
     7
100
AcDbCircle
 10
1147.561701271159
 20
176.5681127233884
 30
0.0
 40
3.298394749999786
100
AcDbArc
 50
97.0221729599989
 51
127.5083354700035
  0
ARC
  5
299
330
3F
100
AcDbEntity
  8
123
  6
Continuous
 62
     7
100
AcDbCircle
 10
1147.298976361159
 20
177.4312911533884
 30
0.0
 40
2.414566869999819
100
AcDbArc
 50
45.15099630998806
 51
93.33620037000519
  0
ARC
  5
29A
330
3F
100
AcDbEntity
  8
123
  6
Continuous
 62
     7
100
AcDbCircle
 10
1144.197702791159
 20
174.2302434933883
 30
0.0
 40
6.871403030000304
100
AcDbArc
 50
26.00566696000218
 51
45.64134692999502
  0
ARC
  5
29B
330
3F
100
AcDbEntity
  8
123
  6
Continuous
 62
     7
100
AcDbCircle
 10
1127.771036921159
 20
165.9575560733883
 30
0.0
 40
25.26319433000034
100
AcDbArc
 50
17.79967665999879
 51
26.53330698000075
  0
ARC
  5
29C
330
3F
100
AcDbEntity
  8
123
  6
Continuous
 62
     7
100
AcDbCircle
 10
1112.636938211159
 20
114.7477456333884
 30
0.0
 40
57.10630493
100
AcDbArc
 50
66.11321774000022
 51
68.21532167999966
  0
ARC
  5
29D
330
3F
100
AcDbEntity
  8
123
  6
Continuous
 62
     7
100
AcDbCircle
 10
1145.698425141159
 20
180.1225452433885
 30
0.0
 40
16.45905327000028
100
AcDbArc
 50
-161.1938738900005
 51
-147.8309565700002
  0
ARC
  5
29E
330
3F
100
AcDbEntity
  8
123
  6
Continuous
 62
     7
100
AcDbCircle
 10
1153.826208941159
 20
185.5045253933884
 30
0.0
 40
26.00590304000003
100
AcDbArc
 50
-168.4149542999988
 51
-155.7337616099996
  0
ARC
  5
29F
330
3F
100
AcDbEntity
  8
123
  6
Continuous
 62
     7
100
AcDbCircle
 10
1150.870431941159
 20
186.6363913733883
 30
0.0
 40
23.39965507000039
100
AcDbArc
 50
-173.641375839999
 51
-164.2428335099998
  0
ARC
  5
2A0
330
3F
100
AcDbEntity
  8
123
  6
Continuous
 62
     7
100
AcDbCircle
 10
1143.936924751159
 20
184.4685805033885
 30
0.0
 40
16.60030443000063
100
AcDbArc
 50
173.152047469999
 51
174.8681457900011
  0
ARC
  5
2A1
330
3F
100
AcDbEntity
  8
123
  6
Continuous
 62
     7
100
AcDbCircle
 10
1135.544660681159
 20
182.9416006233885
 30
0.0
 40
8.81680923000053
100
AcDbArc
 50
153.3383208899987
 51
156.5664362999999
  0
ARC
  5
2A2
330
3F
100
AcDbEntity
  8
123
  6
Continuous
 62
     7
100
AcDbCircle
 10
1132.130874581159
 20
182.9109448533884
 30
0.0
 40
5.98638891000009
100
AcDbArc
 50
133.4902481100003
 51
138.240762169996
  0
ARC
  5
2A3
330
3F
100
AcDbEntity
  8
123
  6
Continuous
 62
     7
100
AcDbCircle
 10
1130.268647811159
 20
183.3304162233881
 30
0.0
 40
4.526840690000738
100
AcDbArc
 50
113.6401091099994
 51
119.9177803100018
  0
ARC
  5
2A4
330
3F
100
AcDbEntity
  8
123
  6
Continuous
 62
     7
100
AcDbCircle
 10
1129.672640451159
 20
181.0395252633884
 30
0.0
 40
6.552280749999997
100
AcDbArc
 50
96.37666558000055
 51
100.7237848099992
  0
ARC
  5
2A5
330
3F
100
AcDbEntity
  8
123
  6
Continuous
 62
     7
100
AcDbCircle
 10
1164.411299901159
 20
178.3788693233885
 30
0.0
 40
13.43481032999978
100
AcDbArc
 50
-159.5289576799986
 51
-145.1568466699985
  0
ARC
  5
2A6
330
3F
100
AcDbEntity
  8
123
  6
Continuous
 62
     7
100
AcDbCircle
 10
1200.913126031159
 20
203.8257591833883
 30
0.0
 40
57.93118440000011
100
AcDbArc
 50
-145.1270838800004
 51
-139.0107074499998
  0
ARC
  5
2A7
330
3F
100
AcDbEntity
  8
123
  6
Continuous
 62
     7
100
AcDbCircle
 10
1182.130203401159
 20
166.1961098733884
 30
0.0
 40
0.20000000000053
100
AcDbArc
 50
-79.61114218000705
 51
0.0
  0
ARC
  5
2A8
330
3F
100
AcDbEntity
  8
123
  6
Continuous
 62
     7
100
AcDbCircle
 10
1175.272560321159
 20
176.1566772733884
 30
0.0
 40
10.00000049999988
100
AcDbArc
 50
79.6111427800016
 51
88.28132024000196
  0
ARC
  5
2A9
330
3F
100
AcDbEntity
  8
123
  6
Continuous
 62
     7
100
AcDbCircle
 10
1182.130203401159
 20
184.8627765333883
 30
0.0
 40
0.2000000000000455
100
AcDbArc
 50
0.0
 51
79.61114218000705
  0
ARC
  5
2AA
330
3F
100
AcDbEntity
  8
123
  6
Continuous
 62
     7
100
AcDbCircle
 10
1175.272587441159
 20
174.9022160133882
 30
0.0
 40
10.00000235999979
100
AcDbArc
 50
-88.28163754000011
 51
-79.61114194000183
  0
ARC
  5
2AB
330
3F
100
AcDbEntity
  8
123
  6
Continuous
 62
     7
100
AcDbCircle
 10
1159.343188461159
 20
163.9085820233884
 30
0.0
 40
0.5130953099995227
100
AcDbArc
 50
110.3682357799614
 51
178.8122461000493
  0
ARC
  5
2AC
330
3F
100
AcDbEntity
  8
123
  6
Continuous
 62
     7
100
AcDbCircle
 10
1158.630203401159
 20
163.2294432033884
 30
0.0
 40
0.1999999999999886
100
AcDbArc
 50
-90.0
 51
0.0
  0
ARC
  5
2AD
330
3F
100
AcDbEntity
  8
123
  6
Continuous
 62
     7
100
AcDbCircle
 10
1134.030203401159
 20
163.2294432033884
 30
0.0
 40
0.2000000000000455
100
AcDbArc
 50
180.0
 51
-90.0
  0
ARC
  5
2AE
330
3F
100
AcDbEntity
  8
11
  6
Continuous
 62
     7
100
AcDbCircle
 10
1081.997468033468
 20
164.2148177133884
 30
0.0
 40
24.10751236000058
100
AcDbArc
 50
56.16004569999964
 51
67.96486310999983
  0
ARC
  5
2AF
330
3F
100
AcDbEntity
  8
11
  6
Continuous
 62
     7
100
AcDbCircle
 10
1081.897840793468
 20
163.2223684333885
 30
0.0
 40
25.06640861000029
100
AcDbArc
 50
68.60487172000072
 51
111.3223252099991
  0
ARC
  5
2B0
330
3F
100
AcDbEntity
  8
11
  6
Continuous
 62
     7
100
AcDbCircle
 10
1079.706889633468
 20
168.3592307433885
 30
0.0
 40
19.48527475000006
100
AcDbArc
 50
110.8131961599992
 51
125.4191997100033
  0
ARC
  5
2B1
330
3F
100
AcDbEntity
  8
11
  6
Continuous
 62
     7
100
AcDbCircle
 10
1090.871174033468
 20
179.4685449933886
 30
0.0
 40
23.76075832999939
100
AcDbArc
 50
172.5984316200011
 51
174.4202046300016
  0
ARC
  5
2B2
330
3F
100
AcDbEntity
  8
11
  6
Continuous
 62
     7
100
AcDbCircle
 10
1096.587168373468
 20
163.5824628033884
 30
0.0
 40
35.04372627000011
100
AcDbArc
 50
144.8314925900004
 51
145.94791617
  0
ARC
  5
2B3
330
3F
100
AcDbEntity
  8
11
  6
Continuous
 62
     7
100
AcDbCircle
 10
1070.037434073468
 20
182.1327657733884
 30
0.0
 40
2.658761680000151
100
AcDbArc
 50
127.629609140006
 51
142.0712457399969
  0
ARC
  5
2B4
330
3F
100
AcDbEntity
  8
11
  6
Continuous
 62
     7
100
AcDbCircle
 10
1082.562875773468
 20
174.8831157933884
 30
0.0
 40
12.69984645000027
100
AcDbArc
 50
-155.4308951681533
 51
-140.4715531400012
  0
ARC
  5
2B5
330
3F
100
AcDbEntity
  8
11
  6
Continuous
 62
     7
100
AcDbCircle
 10
1094.696031823468
 20
181.5207222433886
 30
0.0
 40
26.47153535000057
100
AcDbArc
 50
-162.7269928899996
 51
-159.4583673499993
  0
ARC
  5
2B6
330
3F
100
AcDbEntity
  8
11
  6
Continuous
 62
     7
100
AcDbCircle
 10
1084.221970223468
 20
176.0597309333884
 30
0.0
 40
14.70287044000011
100
AcDbArc
 50
-159.2203685200018
 51
-153.9489322087806
  0
ARC
  5
2B7
330
3F
100
AcDbEntity
  8
11
  6
Continuous
 62
     7
100
AcDbCircle
 10
1074.229199633468
 20
167.4665365733885
 30
0.0
 40
1.435115550000428
100
AcDbArc
 50
-89.47335675001534
 51
-72.01171668999345
  0
ARC
  5
2B8
330
3F
100
AcDbEntity
  8
11
  6
Continuous
 62
     7
100
AcDbCircle
 10
1074.303703343468
 20
167.9486847533884
 30
0.0
 40
1.91818323999998
100
AcDbArc
 50
-143.2189467100118
 51
-91.83171424000203
  0
ARC
  5
2B9
330
3F
100
AcDbEntity
  8
11
  6
Continuous
 62
     7
100
AcDbCircle
 10
1089.121814703468
 20
168.3995894833884
 30
0.0
 40
2.520104109999369
100
AcDbArc
 50
-49.51638785000564
 51
-39.39561934998488
  0
ARC
  5
2BA
330
3F
100
AcDbEntity
  8
11
  6
Continuous
 62
     7
100
AcDbCircle
 10
1089.622728573468
 20
167.7071468333886
 30
0.0
 40
1.66963779000017
100
AcDbArc
 50
-105.9364654100045
 51
-47.16286415999077
  0
ARC
  5
2BB
330
3F
100
AcDbEntity
  8
11
  6
Continuous
 62
     7
100
AcDbCircle
 10
1083.807746823468
 20
149.5709649733885
 30
0.0
 40
17.37691262000028
100
AcDbArc
 50
72.04580627000101
 51
76.9626783300007
  0
ARC
  5
2BC
330
3F
100
AcDbEntity
  8
11
  6
Continuous
 62
     7
100
AcDbCircle
 10
1081.471460133468
 20
143.7825335433884
 30
0.0
 40
23.33166653999966
100
AcDbArc
 50
91.01774072000032
 51
106.9423473900034
  0
ARC
  5
2BD
330
3F
100
AcDbEntity
  8
11
  6
Continuous
 62
     7
100
AcDbCircle
 10
1081.992827223468
 20
140.5888337633884
 30
0.0
 40
26.53818944000003
100
AcDbArc
 50
77.51993052999978
 51
92.0207704700007
  0
ARC
  5
2BE
330
3F
100
AcDbEntity
  8
11
  6
Continuous
 62
     7
100
AcDbCircle
 10
1081.260214673468
 20
174.8918801133884
 30
0.0
 40
12.71590922000031
100
AcDbArc
 50
-39.51994915999992
 51
-24.78828821379701
  0
ARC
  5
2BF
330
3F
100
AcDbEntity
  8
11
  6
Continuous
 62
     7
100
AcDbCircle
 10
1083.179693453468
 20
176.9210767733885
 30
0.0
 40
11.70190514000011
100
AcDbArc
 50
-23.56375583999823
 51
-16.17571573000035
  0
ARC
  5
2C0
330
3F
100
AcDbEntity
  8
11
  6
Continuous
 62
     7
100
AcDbCircle
 10
1094.420389133468
 20
181.9625827533884
 30
0.0
 40
2.1792975299996
100
AcDbArc
 50
-4.91528946001204
 51
14.95519724999343
  0
ARC
  5
2C1
330
3F
100
AcDbEntity
  8
11
  6
Continuous
 62
     7
100
AcDbCircle
 10
1093.399494703468
 20
181.6586202633884
 30
0.0
 40
3.194329530000073
100
AcDbArc
 50
-11.60689846000571
 51
2.10326843000585
  0
ENDBLK
  5
41
330
3F
100
AcDbEntity
  8
0
100
AcDbBlockEnd
  0
BLOCK
  5
43
330
42
100
AcDbEntity
  8
0
100
AcDbBlockBegin
  2
60-7A-______-M2
 70
     0
 71
     0
 10
1320.229158546525
 20
137.3076836281076
 30
0.0
  3
60-7A-______-M2
  1

  0
LINE
  5
2C2
330
42
100
AcDbEntity
  8
1
  6
Continuous
 62
     7
100
AcDbLine
 10
1308.330203401159
 20
202.5294432033884
 30
0.0
 11
1308.330203401159
 21
208.0294432033884
 31
0.0
  0
LINE
  5
2C3
330
42
100
AcDbEntity
  8
1
  6
Continuous
 62
     7
100
AcDbLine
 10
1289.330203401159
 20
183.5294432033886
 30
0.0
 11
1182.330203401159
 21
183.5294432033886
 31
0.0
  0
LINE
  5
2C4
330
42
100
AcDbEntity
  8
1
  6
Continuous
 62
     7
100
AcDbLine
 10
1289.330203401159
 20
167.5294432033886
 30
0.0
 11
1182.330203401159
 21
167.5294432033886
 31
0.0
  0
LINE
  5
2C5
330
42
100
AcDbEntity
  8
1
  6
Continuous
 62
     7
100
AcDbLine
 10
1324.330203401159
 20
208.0294432033884
 30
0.0
 11
1324.330203401159
 21
202.5294432033884
 31
0.0
  0
LINE
  5
2C6
330
42
100
AcDbEntity
  8
1
  6
Continuous
 62
     7
100
AcDbLine
 10
1268.736393533864
 20
402.469586797522
 30
0.0
 11
1182.403162811942
 21
402.469586797522
 31
0.0
  0
LINE
  5
2C7
330
42
100
AcDbEntity
  8
1
  6
Continuous
 62
     7
100
AcDbLine
 10
1268.736393533862
 20
386.4695867975217
 30
0.0
 11
1182.403162811942
 21
386.4695867975217
 31
0.0
  0
LINE
  5
2C8
330
42
100
AcDbEntity
  8
1
  6
Continuous
 62
     7
100
AcDbLine
 10
1089.918341773468
 20
208.0294432033884
 30
0.0
 11
1089.918341773468
 21
186.9709769112193
 31
0.0
  0
LINE
  5
2C9
330
42
100
AcDbEntity
  8
1
  6
Continuous
 62
     7
100
AcDbLine
 10
1073.918341773468
 20
186.9709769112193
 30
0.0
 11
1073.918341773468
 21
208.0294432033884
 31
0.0
  0
ARC
  5
2CA
330
42
100
AcDbEntity
  8
1
  6
Continuous
 62
     7
100
AcDbCircle
 10
1289.330203401159
 20
202.5294432033884
 30
0.0
 40
18.9999999999998
100
AcDbArc
 50
-90.0
 51
0.0
  0
ARC
  5
2CB
330
42
100
AcDbEntity
  8
1
  6
Continuous
 62
     7
100
AcDbCircle
 10
1289.330203401159
 20
202.5294432033884
 30
0.0
 40
34.9999999999998
100
AcDbArc
 50
-90.0
 51
0.0
  0
ENDBLK
  5
44
330
42
100
AcDbEntity
  8
0
100
AcDbBlockEnd
  0
BLOCK
  5
46
330
45
100
AcDbEntity
  8
0
100
AcDbBlockBegin
  2
32-1-16-M1
 70
     0
 71
     0
 10
1175.443189516321
 20
292.2710728927322
 30
0.0
  3
32-1-16-M1
  1

  0
LINE
  5
2CC
330
45
100
AcDbEntity
  8
1
  6
Continuous
 62
     7
100
AcDbLine
 10
1316.330203401159
 20
209.0294432033884
 30
0.0
 11
1307.53188142209
 21
209.0294432033884
 31
0.0
  0
LINE
  5
2CD
330
45
100
AcDbEntity
  8
1
  6
Continuous
 62
     7
100
AcDbLine
 10
1308.130203401159
 20
208.0294432033884
 30
0.0
 11
1316.330203401159
 21
208.0294432033884
 31
0.0
  0
LINE
  5
2CE
330
45
100
AcDbEntity
  8
1
  6
Continuous
 62
     7
100
AcDbLine
 10
1304.830203401159
 20
209.0294432033884
 30
0.0
 11
1304.772182339429
 21
209.0294432033884
 31
0.0
  0
LINE
  5
2CF
330
45
100
AcDbEntity
  8
1
  6
Continuous
 62
     7
100
AcDbLine
 10
1316.330203401159
 20
218.0294432033884
 30
0.0
 11
1303.030203401159
 21
218.0294432033884
 31
0.0
  0
LINE
  5
2D0
330
45
100
AcDbEntity
  8
1
  6
Continuous
 62
     7
100
AcDbLine
 10
1306.562254208728
 20
208.0294432033884
 30
0.0
 11
1308.130203401159
 21
208.0294432033884
 31
0.0
  0
LINE
  5
2D1
330
45
100
AcDbEntity
  8
1
  6
Continuous
 62
     7
100
AcDbLine
 10
1324.530203401159
 20
208.0294432033884
 30
0.0
 11
1326.09815259359
 21
208.0294432033884
 31
0.0
  0
LINE
  5
2D2
330
45
100
AcDbEntity
  8
1
  6
Continuous
 62
     7
100
AcDbLine
 10
1329.630203401159
 20
218.0294432033884
 30
0.0
 11
1316.330203401159
 21
218.0294432033884
 31
0.0
  0
LINE
  5
2D3
330
45
100
AcDbEntity
  8
1
  6
Continuous
 62
     7
100
AcDbLine
 10
1327.888224462889
 20
209.0294432033884
 30
0.0
 11
1327.830203401159
 21
209.0294432033884
 31
0.0
  0
LINE
  5
2D4
330
45
100
AcDbEntity
  8
1
  6
Continuous
 62
     7
100
AcDbLine
 10
1316.330203401159
 20
208.0294432033884
 30
0.0
 11
1324.530203401159
 21
208.0294432033884
 31
0.0
  0
LINE
  5
2D5
330
45
100
AcDbEntity
  8
1
  6
Continuous
 62
     7
100
AcDbLine
 10
1325.128525380228
 20
209.0294432033884
 30
0.0
 11
1316.330203401159
 21
209.0294432033884
 31
0.0
  0
LINE
  5
2D6
330
45
100
AcDbEntity
  8
1
  6
Continuous
 62
     7
100
AcDbLine
 10
1081.918341773468
 20
208.0294432033884
 30
0.0
 11
1090.118341773468
 21
208.0294432033884
 31
0.0
  0
LINE
  5
2D7
330
45
100
AcDbEntity
  8
1
  6
Continuous
 62
     7
100
AcDbLine
 10
1095.918341773468
 20
217.4576943822183
 30
0.0
 11
1095.918341773468
 21
210.3162659536754
 31
0.0
  0
LINE
  5
2D8
330
45
100
AcDbEntity
  8
1
  6
Continuous
 62
     7
100
AcDbLine
 10
1090.118341773468
 20
208.0294432033884
 30
0.0
 11
1091.686290965899
 21
208.0294432033884
 31
0.0
  0
LINE
  5
2D9
330
45
100
AcDbEntity
  8
1
  6
Continuous
 62
     7
100
AcDbLine
 10
1095.218341773468
 20
218.0294432033884
 30
0.0
 11
1081.918341773468
 21
218.0294432033884
 31
0.0
  0
LINE
  5
2DA
330
45
100
AcDbEntity
  8
1
  6
Continuous
 62
     7
100
AcDbLine
 10
1093.476362835198
 20
209.0294432033884
 30
0.0
 11
1093.418341773468
 21
209.0294432033884
 31
0.0
  0
LINE
  5
2DB
330
45
100
AcDbEntity
  8
1
  6
Continuous
 62
     7
100
AcDbLine
 10
1091.686290965899
 20
209.0294432033884
 30
0.0
 11
1081.918341773468
 21
209.0294432033884
 31
0.0
  0
LINE
  5
2DC
330
45
100
AcDbEntity
  8
1
  6
Continuous
 62
     7
100
AcDbLine
 10
1073.718341773468
 20
208.0294432033884
 30
0.0
 11
1081.918341773468
 21
208.0294432033884
 31
0.0
  0
LINE
  5
2DD
330
45
100
AcDbEntity
  8
1
  6
Continuous
 62
     7
100
AcDbLine
 10
1067.918341773468
 20
210.3162659536754
 30
0.0
 11
1067.918341773468
 21
217.4576943822183
 31
0.0
  0
LINE
  5
2DE
330
45
100
AcDbEntity
  8
1
  6
Continuous
 62
     7
100
AcDbLine
 10
1072.150392581036
 20
208.0294432033884
 30
0.0
 11
1073.718341773468
 21
208.0294432033884
 31
0.0
  0
LINE
  5
2DF
330
45
100
AcDbEntity
  8
1
  6
Continuous
 62
     7
100
AcDbLine
 10
1081.918341773468
 20
218.0294432033884
 30
0.0
 11
1068.618341773468
 21
218.0294432033884
 31
0.0
  0
LINE
  5
2E0
330
45
100
AcDbEntity
  8
1
  6
Continuous
 62
     7
100
AcDbLine
 10
1070.418341773468
 20
209.0294432033884
 30
0.0
 11
1070.360320711737
 21
209.0294432033884
 31
0.0
  0
LINE
  5
2E1
330
45
100
AcDbEntity
  8
1
  6
Continuous
 62
     7
100
AcDbLine
 10
1081.918341773468
 20
209.0294432033884
 30
0.0
 11
1072.150392581036
 21
209.0294432033884
 31
0.0
  0
ARC
  5
2E2
330
45
100
AcDbEntity
  8
1
  6
Continuous
 62
     7
100
AcDbCircle
 10
1305.830203401159
 20
213.8869801679469
 30
0.0
 40
4.999999999999914
100
AcDbArc
 50
124.055797742568
 51
-105.3375576695507
  0
ARC
  5
2E3
330
45
100
AcDbEntity
  8
1
  6
Continuous
 62
     7
100
AcDbCircle
 10
1326.830203401159
 20
213.8869801679469
 30
0.0
 40
4.999999999999992
100
AcDbArc
 50
-74.66244233044928
 51
55.94420225743206
  0
ARC
  5
2E4
330
45
100
AcDbEntity
  8
1
  6
Continuous
 62
     7
100
AcDbCircle
 10
1092.418341773468
 20
213.8869801679468
 30
0.0
 40
4.9999999999998
100
AcDbArc
 50
-74.66244233044868
 51
-45.57299599919402
  0
ARC
  5
2E5
330
45
100
AcDbEntity
  8
1
  6
Continuous
 62
     7
100
AcDbCircle
 10
1092.418341773468
 20
213.8869801679468
 30
0.0
 40
5.000000000000057
100
AcDbArc
 50
45.57299599919494
 51
55.94420225743261
  0
ARC
  5
2E6
330
45
100
AcDbEntity
  8
1
  6
Continuous
 62
     7
100
AcDbCircle
 10
1071.418341773468
 20
213.8869801679468
 30
0.0
 40
4.999999999999975
100
AcDbArc
 50
-134.427004000806
 51
-105.3375576695639
  0
ARC
  5
2E7
330
45
100
AcDbEntity
  8
1
  6
Continuous
 62
     7
100
AcDbCircle
 10
1071.418341773468
 20
213.8869801679468
 30
0.0
 40
4.999999999999985
100
AcDbArc
 50
124.0557977425674
 51
134.4270040008051
  0
SPLINE
  5
2E8
330
45
100
AcDbEntity
  8
1
  6
Continuous
 62
     7
100
AcDbSpline
210
0.0
220
0.0
230
1.0
 70
     8
 71
     3
 72
    43
 73
    39
 74
    37
 42
0.0000000001
 43
0.0000000001
 44
0.00000001
 40
0.0
 40
0.0
 40
0.0
 40
0.0
 40
0.5012710906055242
 40
1.001984470898424
 40
1.493602134271895
 40
1.985705227942923
 40
2.512425585344707
 40
3.038783447863472
 40
3.434645320388677
 40
3.830703187904367
 40
4.329133508878037
 40
4.827210810688895
 40
5.131964616372545
 40
5.436749660625395
 40
5.790243661844537
 40
6.143721616677131
 40
6.471929725797112
 40
6.80002065206258
 40
7.113894046109499
 40
7.427712079415143
 40
7.741528936074695
 40
8.055403667264862
 40
8.383501461407356
 40
8.711702501440207
 40
9.065150496484034
 40
9.418674357561745
 40
9.80367480893192
 40
10.18871464436699
 40
10.60671041348142
 40
11.0247542145272
 40
11.47339319184252
 40
11.92198656269436
 40
12.39577736518548
 40
12.86975784123605
 40
13.36182388263424
 40
13.85347803440308
 40
14.35420364214384
 40
14.85546266185611
 40
14.85546266185611
 40
14.85546266185611
 40
14.85546266185611
 10
1074.918341773468
 20
217.4576943822183
 30
0.0
 10
1075.085351303908
 20
217.452522327963
 30
0.0
 10
1075.419184551284
 20
217.4421839738399
 30
0.0
 10
1075.916237730481
 20
217.4094435061424
 30
0.0
 10
1076.406948595169
 20
217.3428446865837
 30
0.0
 10
1076.900993686094
 20
217.2445091939644
 30
0.0
 10
1077.399906622606
 20
217.1152503578091
 30
0.0
 10
1077.858716592273
 20
216.9630084176783
 30
0.0
 10
1078.266019326787
 20
216.7974302378558
 30
0.0
 10
1078.654114364683
 20
216.61138244288
 30
0.0
 10
1079.057282372515
 20
216.3801276803723
 30
0.0
 10
1079.411952386755
 20
216.1289986046785
 30
0.0
 10
1079.693463383121
 20
215.8896694409773
 30
0.0
 10
1079.922016621388
 20
215.6637959837308
 30
0.0
 10
1080.140162597927
 20
215.4058237380453
 30
0.0
 10
1080.333351055494
 20
215.1189542155624
 30
0.0
 10
1080.487155841121
 20
214.818657494704
 30
0.0
 10
1080.597443557637
 20
214.5136094854244
 30
0.0
 10
1080.664033933713
 20
214.2010536088487
 30
0.0
 10
1080.68678354184
 20
213.886980598554
 30
0.0
 10
1080.664035669143
 20
213.5729069136208
 30
0.0
 10
1080.597443404655
 20
213.2603489202077
 30
0.0
 10
1080.487152356803
 20
212.9553015760728
 30
0.0
 10
1080.333355646903
 20
212.6550133528753
 30
0.0
 10
1080.14016582893
 20
212.3681422353697
 30
0.0
 10
1079.904734157061
 20
212.0897314842695
 30
0.0
 10
1079.635082034288
 20
211.8289354804396
 30
0.0
 10
1079.325906432053
 20
211.580711325737
 30
0.0
 10
1078.987847114173
 20
211.3531789262133
 30
0.0
 10
1078.61468022927
 20
211.1423552505197
 30
0.0
 10
1078.21816708346
 20
210.9544166403121
 30
0.0
 10
1077.792517476597
 20
210.7871662739337
 30
0.0
 10
1077.348958939531
 20
210.6450556024306
 30
0.0
 10
1076.883758233505
 20
210.5260251698881
 30
0.0
 10
1076.406957527583
 20
210.4311304944726
 30
0.0
 10
1075.916246503054
 20
210.3645153770133
 30
0.0
 10
1075.419180700006
 20
210.3317698208689
 30
0.0
 10
1075.085347321653
 20
210.3214357432074
 30
0.0
 10
1074.918341773468
 20
210.3162659536754
 30
0.0
 11
1074.918341773468
 21
217.4576943822183
 31
0.0
 11
1075.419274100245
 21
217.4392685778447
 31
0.0
 11
1075.918704494601
 21
217.4034472099523
 31
0.0
 11
1076.405932061305
 21
217.3378939858932
 31
0.0
 11
1076.888671700661
 21
217.2423539660331
 31
0.0
 11
1077.398382111743
 21
217.1095773425768
 31
0.0
 11
1077.897729312489
 21
216.9431292349213
 31
0.0
 11
1078.264336419678
 21
216.7937778001181
 31
0.0
 11
1078.621350759662
 21
216.6223059497554
 31
0.0
 11
1079.053157397424
 21
216.3733565323017
 31
0.0
 11
1079.458958854963
 21
216.0845552586922
 31
0.0
 11
1079.690890641642
 21
215.886862243119
 31
0.0
 11
1079.907392284336
 21
215.6723372750825
 31
0.0
 11
1080.135042400973
 21
215.4019053367073
 31
0.0
 11
1080.331778757308
 21
215.108236355287
 31
0.0
 11
1080.480832048359
 21
214.8158262335076
 31
0.0
 11
1080.591680686856
 21
214.5070281842245
 31
0.0
 11
1080.656895265764
 21
214.2000044617072
 31
0.0
 11
1080.679201084369
 21
213.8869801679468
 31
0.0
 11
1080.656896593012
 21
213.5739569592402
 31
0.0
 11
1080.591680686856
 21
213.2669321516692
 31
0.0
 11
1080.480827819751
 21
212.9581283233643
 31
0.0
 11
1080.331778757308
 21
212.6657239806067
 31
0.0
 11
1080.135059679349
 21
212.3720794853963
 31
0.0
 11
1079.907392284336
 21
212.1016230608111
 31
0.0
 11
1079.631194742297
 21
211.8334062355995
 31
0.0
 11
1079.331416036174
 21
211.5917693132815
 31
0.0
 11
1078.985013594628
 21
211.3578338275415
 31
0.0
 11
1078.621350759662
 21
211.1516543861382
 31
0.0
 11
1078.216135773891
 21
210.9590985571603
 31
0.0
 11
1077.798771428918
 21
210.7946509487337
 31
0.0
 11
1077.347730694398
 21
210.6495993016264
 31
0.0
 11
1076.888671700661
 21
210.5316063698606
 31
0.0
 11
1076.40596685293
 21
210.4360814041483
 31
0.0
 11
1075.918704494601
 21
210.3705131259414
 31
0.0
 11
1075.419262210403
 21
210.3346866133788
 31
0.0
 11
1074.918341773468
 21
210.3162659536754
 31
0.0
  0
SPLINE
  5
2E9
330
45
100
AcDbEntity
  8
1
  6
Continuous
 62
     7
100
AcDbSpline
210
0.0
220
0.0
230
1.0
 70
     8
 71
     3
 72
    43
 73
    39
 74
    37
 42
0.0000000001
 43
0.0000000001
 44
0.00000001
 40
0.0
 40
0.0
 40
0.0
 40
0.0
 40
0.5012710906057515
 40
1.001984470899558
 40
1.493602134272804
 40
1.985705227943832
 40
2.512425585345616
 40
3.038783447864382
 40
3.434645320389587
 40
3.830703187905481
 40
4.329133508879153
 40
4.82721081069001
 40
5.131964616373643
 40
5.436749660626351
 40
5.790243661845053
 40
6.143721616677521
 40
6.471929725797527
 40
6.800020652063276
 40
7.113894046110159
 40
7.427712079415888
 40
7.741528936075541
 40
8.055403667265626
 40
8.383501461408221
 40
8.711702501441328
 40
9.065150496485108
 40
9.418674357562278
 40
9.803674808932493
 40
10.18871464436752
 40
10.60671041348177
 40
11.02475421452755
 40
11.47339319184268
 40
11.92198656269472
 40
12.39577736518583
 40
12.86975784123663
 40
13.36182388263459
 40
13.85347803440343
 40
14.35420364214464
 40
14.8554626618576
 40
14.8554626618576
 40
14.8554626618576
 40
14.8554626618576
 10
1074.918341773468
 20
217.4576943822183
 30
0.0
 10
1074.751332243028
 20
217.452522327963
 30
0.0
 10
1074.417498995651
 20
217.4421839738399
 30
0.0
 10
1073.920445816454
 20
217.4094435061425
 30
0.0
 10
1073.429734951766
 20
217.3428446865837
 30
0.0
 10
1072.935689860841
 20
217.2445091939644
 30
0.0
 10
1072.43677692433
 20
217.1152503578092
 30
0.0
 10
1071.977966954662
 20
216.9630084176783
 30
0.0
 10
1071.570664220148
 20
216.7974302378557
 30
0.0
 10
1071.182569182252
 20
216.6113824428801
 30
0.0
 10
1070.779401174419
 20
216.3801276803723
 30
0.0
 10
1070.42473116018
 20
216.1289986046786
 30
0.0
 10
1070.143220163814
 20
215.8896694409773
 30
0.0
 10
1069.914666925547
 20
215.663795983731
 30
0.0
 10
1069.696520949009
 20
215.4058237380451
 30
0.0
 10
1069.503332491443
 20
215.1189542155624
 30
0.0
 10
1069.349527705815
 20
214.8186574947038
 30
0.0
 10
1069.239239989298
 20
214.5136094854245
 30
0.0
 10
1069.172649613222
 20
214.2010536088487
 30
0.0
 10
1069.149900005094
 20
213.886980598554
 30
0.0
 10
1069.172647877792
 20
213.5729069136209
 30
0.0
 10
1069.23924014228
 20
213.2603489202076
 30
0.0
 10
1069.349531190133
 20
212.9553015760728
 30
0.0
 10
1069.503327900033
 20
212.6550133528754
 30
0.0
 10
1069.696517718006
 20
212.3681422353701
 30
0.0
 10
1069.931949389874
 20
212.0897314842692
 30
0.0
 10
1070.201601512647
 20
211.8289354804396
 30
0.0
 10
1070.510777114882
 20
211.5807113257371
 30
0.0
 10
1070.848836432762
 20
211.3531789262132
 30
0.0
 10
1071.222003317664
 20
211.1423552505199
 30
0.0
 10
1071.618516463475
 20
210.9544166403119
 30
0.0
 10
1072.044166070339
 20
210.7871662739337
 30
0.0
 10
1072.487724607404
 20
210.6450556024307
 30
0.0
 10
1072.952925313431
 20
210.5260251698881
 30
0.0
 10
1073.429726019352
 20
210.4311304944727
 30
0.0
 10
1073.920437043881
 20
210.3645153770134
 30
0.0
 10
1074.417502846929
 20
210.3317698208689
 30
0.0
 10
1074.751336225283
 20
210.3214357432074
 30
0.0
 10
1074.918341773468
 20
210.3162659536754
 30
0.0
 11
1074.918341773468
 21
217.4576943822183
 31
0.0
 11
1074.417409446691
 21
217.4392685778447
 31
0.0
 11
1073.917979052334
 21
217.4034472099523
 31
0.0
 11
1073.43075148563
 21
217.3378939858932
 31
0.0
 11
1072.948011846274
 21
217.2423539660331
 31
0.0
 11
1072.438301435192
 21
217.1095773425768
 31
0.0
 11
1071.938954234446
 21
216.9431292349213
 31
0.0
 11
1071.572347127257
 21
216.7937778001181
 31
0.0
 11
1071.215332787273
 21
216.6223059497554
 31
0.0
 11
1070.783526149511
 21
216.3733565323017
 31
0.0
 11
1070.377724691972
 21
216.0845552586922
 31
0.0
 11
1070.145792905293
 21
215.8868622431191
 31
0.0
 11
1069.929291262599
 21
215.6723372750825
 31
0.0
 11
1069.701641145963
 21
215.4019053367073
 31
0.0
 11
1069.504904789628
 21
215.108236355287
 31
0.0
 11
1069.355851498577
 21
214.8158262335075
 31
0.0
 11
1069.245002860079
 21
214.5070281842245
 31
0.0
 11
1069.179788281171
 21
214.2000044617073
 31
0.0
 11
1069.157482462566
 21
213.8869801679468
 31
0.0
 11
1069.179786953923
 21
213.5739569592401
 31
0.0
 11
1069.245002860079
 21
213.2669321516692
 31
0.0
 11
1069.355855727185
 21
212.9581283233644
 31
0.0
 11
1069.504904789628
 21
212.6657239806067
 31
0.0
 11
1069.701623867587
 21
212.3720794853963
 31
0.0
 11
1069.929291262599
 21
212.1016230608111
 31
0.0
 11
1070.205488804638
 21
211.8334062355994
 31
0.0
 11
1070.505267510761
 21
211.5917693132815
 31
0.0
 11
1070.851669952307
 21
211.3578338275415
 31
0.0
 11
1071.215332787273
 21
211.1516543861382
 31
0.0
 11
1071.620547773043
 21
210.9590985571603
 31
0.0
 11
1072.037912118017
 21
210.7946509487337
 31
0.0
 11
1072.488952852537
 21
210.6495993016265
 31
0.0
 11
1072.948011846274
 21
210.5316063698606
 31
0.0
 11
1073.430716694005
 21
210.4360814041483
 31
0.0
 11
1073.917979052334
 21
210.3705131259414
 31
0.0
 11
1074.417421336533
 21
210.3346866133788
 31
0.0
 11
1074.918341773468
 21
210.3162659536754
 31
0.0
  0
SPLINE
  5
2EA
330
45
100
AcDbEntity
  8
1
  6
Continuous
 62
     7
100
AcDbSpline
210
0.0
220
0.0
230
1.0
 70
     8
 71
     3
 72
    43
 73
    39
 74
    37
 42
0.0000000001
 43
0.0000000001
 44
0.00000001
 40
0.0
 40
0.0
 40
0.0
 40
0.0
 40
0.5012710906057515
 40
1.001984470899558
 40
1.493602134272804
 40
1.985705227943832
 40
2.512425585345623
 40
3.038783447864379
 40
3.434645320389563
 40
3.830703187905482
 40
4.32913350887845
 40
4.827210810689024
 40
5.13196461637302
 40
5.436749660626193
 40
5.790243661844873
 40
6.143721616677365
 40
6.471929725797345
 40
6.800020652063121
 40
7.113894046110003
 40
7.427712079415732
 40
7.741528936075389
 40
8.055403667265596
 40
8.383501461408036
 40
8.711702501440938
 40
9.065150496484764
 40
9.418674357561889
 40
9.803674808932104
 40
10.18871464436714
 40
10.60671041348138
 40
11.02475421452716
 40
11.47339319184229
 40
11.92198656269433
 40
12.39577736518545
 40
12.86975784123624
 40
13.3618238826342
 40
13.85347803440304
 40
14.35420364214425
 40
14.85546266185721
 40
14.85546266185721
 40
14.85546266185721
 40
14.85546266185721
 10
1088.918341773468
 20
217.4576943822183
 30
0.0
 10
1088.751332243028
 20
217.452522327963
 30
0.0
 10
1088.417498995651
 20
217.4421839738399
 30
0.0
 10
1087.920445816454
 20
217.4094435061425
 30
0.0
 10
1087.429734951766
 20
217.3428446865836
 30
0.0
 10
1086.935689860841
 20
217.2445091939644
 30
0.0
 10
1086.436776924329
 20
217.115250357809
 30
0.0
 10
1085.977966954662
 20
216.9630084176783
 30
0.0
 10
1085.570664220148
 20
216.7974302378557
 30
0.0
 10
1085.182569182253
 20
216.6113824428804
 30
0.0
 10
1084.77940117442
 20
216.3801276803718
 30
0.0
 10
1084.424731160181
 20
216.1289986046783
 30
0.0
 10
1084.143220163815
 20
215.8896694409772
 30
0.0
 10
1083.914666925547
 20
215.6637959837312
 30
0.0
 10
1083.696520949008
 20
215.4058237380452
 30
0.0
 10
1083.503332491443
 20
215.1189542155623
 30
0.0
 10
1083.349527705815
 20
214.8186574947038
 30
0.0
 10
1083.239239989298
 20
214.5136094854245
 30
0.0
 10
1083.172649613222
 20
214.2010536088488
 30
0.0
 10
1083.149900005094
 20
213.8869805985539
 30
0.0
 10
1083.172647877793
 20
213.5729069136208
 30
0.0
 10
1083.239240142281
 20
213.2603489202078
 30
0.0
 10
1083.349531190133
 20
212.9553015760728
 30
0.0
 10
1083.503327900033
 20
212.6550133528753
 30
0.0
 10
1083.696517718006
 20
212.36814223537
 30
0.0
 10
1083.931949389874
 20
212.0897314842692
 30
0.0
 10
1084.201601512647
 20
211.8289354804394
 30
0.0
 10
1084.510777114882
 20
211.5807113257371
 30
0.0
 10
1084.848836432763
 20
211.3531789262132
 30
0.0
 10
1085.222003317664
 20
211.1423552505199
 30
0.0
 10
1085.618516463475
 20
210.9544166403119
 30
0.0
 10
1086.044166070338
 20
210.7871662739337
 30
0.0
 10
1086.487724607404
 20
210.6450556024307
 30
0.0
 10
1086.952925313431
 20
210.526025169888
 30
0.0
 10
1087.429726019352
 20
210.4311304944727
 30
0.0
 10
1087.920437043881
 20
210.3645153770133
 30
0.0
 10
1088.41750284693
 20
210.3317698208689
 30
0.0
 10
1088.751336225283
 20
210.3214357432074
 30
0.0
 10
1088.918341773468
 20
210.3162659536754
 30
0.0
 11
1088.918341773468
 21
217.4576943822183
 31
0.0
 11
1088.417409446691
 21
217.4392685778447
 31
0.0
 11
1087.917979052334
 21
217.4034472099523
 31
0.0
 11
1087.43075148563
 21
217.3378939858932
 31
0.0
 11
1086.948011846274
 21
217.2423539660331
 31
0.0
 11
1086.438301435192
 21
217.1095773425768
 31
0.0
 11
1085.938954234446
 21
216.9431292349213
 31
0.0
 11
1085.572347127257
 21
216.7937778001182
 31
0.0
 11
1085.215332787273
 21
216.6223059497554
 31
0.0
 11
1084.783526149512
 21
216.3733565323015
 31
0.0
 11
1084.377724691973
 21
216.0845552586922
 31
0.0
 11
1084.145792905293
 21
215.886862243119
 31
0.0
 11
1083.929291262599
 21
215.6723372750825
 31
0.0
 11
1083.701641145963
 21
215.4019053367073
 31
0.0
 11
1083.504904789628
 21
215.108236355287
 31
0.0
 11
1083.355851498577
 21
214.8158262335076
 31
0.0
 11
1083.245002860079
 21
214.5070281842245
 31
0.0
 11
1083.179788281171
 21
214.2000044617073
 31
0.0
 11
1083.157482462566
 21
213.8869801679468
 31
0.0
 11
1083.179786953924
 21
213.5739569592402
 31
0.0
 11
1083.24500286008
 21
213.2669321516692
 31
0.0
 11
1083.355855727185
 21
212.9581283233644
 31
0.0
 11
1083.504904789628
 21
212.6657239806067
 31
0.0
 11
1083.701623867587
 21
212.3720794853963
 31
0.0
 11
1083.929291262599
 21
212.1016230608111
 31
0.0
 11
1084.205488804638
 21
211.8334062355994
 31
0.0
 11
1084.505267510761
 21
211.5917693132815
 31
0.0
 11
1084.851669952307
 21
211.3578338275415
 31
0.0
 11
1085.215332787273
 21
211.1516543861382
 31
0.0
 11
1085.620547773043
 21
210.9590985571603
 31
0.0
 11
1086.037912118017
 21
210.7946509487337
 31
0.0
 11
1086.488952852537
 21
210.6495993016265
 31
0.0
 11
1086.948011846274
 21
210.5316063698606
 31
0.0
 11
1087.430716694005
 21
210.4360814041483
 31
0.0
 11
1087.917979052334
 21
210.3705131259414
 31
0.0
 11
1088.417421336533
 21
210.3346866133788
 31
0.0
 11
1088.918341773468
 21
210.3162659536754
 31
0.0
  0
SPLINE
  5
2EB
330
45
100
AcDbEntity
  8
1
  6
Continuous
 62
     7
100
AcDbSpline
210
0.0
220
0.0
230
1.0
 70
     8
 71
     3
 72
    43
 73
    39
 74
    37
 42
0.0000000001
 43
0.0000000001
 44
0.00000001
 40
0.0
 40
0.0
 40
0.0
 40
0.0
 40
0.5012710906055242
 40
1.001984470898424
 40
1.493602134271895
 40
1.985705227942923
 40
2.512425585344714
 40
3.03878344786347
 40
3.434645320388675
 40
3.830703187904365
 40
4.329133508878092
 40
4.827210810688884
 40
5.131964616372844
 40
5.436749660626058
 40
5.790243661844863
 40
6.143721616677252
 40
6.471929725797051
 40
6.800020652062646
 40
7.113894046109536
 40
7.427712079415208
 40
7.741528936074761
 40
8.055403667264928
 40
8.383501461407368
 40
8.71170250144027
 40
9.065150496484144
 40
9.418674357561226
 40
9.803674808931728
 40
10.18871464436715
 40
10.60671041348154
 40
11.02475421452736
 40
11.47339319184248
 40
11.92198656269452
 40
12.39577736518565
 40
12.86975784123622
 40
13.36182388263396
 40
13.85347803440325
 40
14.35420364214401
 40
14.85546266185628
 40
14.85546266185628
 40
14.85546266185628
 40
14.85546266185628
 10
1088.918341773468
 20
217.4576943822183
 30
0.0
 10
1089.085351303908
 20
217.4525223279631
 30
0.0
 10
1089.419184551285
 20
217.4421839738399
 30
0.0
 10
1089.916237730481
 20
217.4094435061424
 30
0.0
 10
1090.40694859517
 20
217.3428446865837
 30
0.0
 10
1090.900993686094
 20
217.2445091939644
 30
0.0
 10
1091.399906622605
 20
217.115250357809
 30
0.0
 10
1091.858716592273
 20
216.9630084176784
 30
0.0
 10
1092.266019326787
 20
216.7974302378557
 30
0.0
 10
1092.654114364683
 20
216.6113824428801
 30
0.0
 10
1093.057282372516
 20
216.3801276803722
 30
0.0
 10
1093.411952386755
 20
216.1289986046784
 30
0.0
 10
1093.693463383121
 20
215.8896694409773
 30
0.0
 10
1093.922016621389
 20
215.6637959837311
 30
0.0
 10
1094.140162597928
 20
215.4058237380454
 30
0.0
 10
1094.333351055494
 20
215.1189542155624
 30
0.0
 10
1094.48715584112
 20
214.8186574947038
 30
0.0
 10
1094.597443557637
 20
214.5136094854245
 30
0.0
 10
1094.664033933713
 20
214.2010536088487
 30
0.0
 10
1094.68678354184
 20
213.8869805985541
 30
0.0
 10
1094.664035669143
 20
213.5729069136208
 30
0.0
 10
1094.597443404655
 20
213.2603489202077
 30
0.0
 10
1094.487152356803
 20
212.9553015760728
 30
0.0
 10
1094.333355646903
 20
212.6550133528754
 30
0.0
 10
1094.14016582893
 20
212.36814223537
 30
0.0
 10
1093.904734157062
 20
212.089731484269
 30
0.0
 10
1093.635082034288
 20
211.8289354804396
 30
0.0
 10
1093.325906432053
 20
211.5807113257371
 30
0.0
 10
1092.987847114173
 20
211.3531789262135
 30
0.0
 10
1092.614680229271
 20
211.1423552505198
 30
0.0
 10
1092.21816708346
 20
210.9544166403119
 30
0.0
 10
1091.792517476596
 20
210.7871662739337
 30
0.0
 10
1091.348958939531
 20
210.6450556024307
 30
0.0
 10
1090.883758233505
 20
210.5260251698881
 30
0.0
 10
1090.406957527583
 20
210.4311304944725
 30
0.0
 10
1089.916246503055
 20
210.3645153770134
 30
0.0
 10
1089.419180700006
 20
210.3317698208689
 30
0.0
 10
1089.085347321653
 20
210.3214357432074
 30
0.0
 10
1088.918341773468
 20
210.3162659536754
 30
0.0
 11
1088.918341773468
 21
217.4576943822183
 31
0.0
 11
1089.419274100245
 21
217.4392685778447
 31
0.0
 11
1089.918704494601
 21
217.4034472099523
 31
0.0
 11
1090.405932061305
 21
217.3378939858932
 31
0.0
 11
1090.888671700661
 21
217.2423539660331
 31
0.0
 11
1091.398382111743
 21
217.1095773425768
 31
0.0
 11
1091.897729312489
 21
216.9431292349213
 31
0.0
 11
1092.264336419678
 21
216.7937778001181
 31
0.0
 11
1092.621350759662
 21
216.6223059497554
 31
0.0
 11
1093.053157397424
 21
216.3733565323016
 31
0.0
 11
1093.458958854963
 21
216.0845552586922
 31
0.0
 11
1093.690890641643
 21
215.8868622431191
 31
0.0
 11
1093.907392284337
 21
215.6723372750825
 31
0.0
 11
1094.135042400973
 21
215.4019053367074
 31
0.0
 11
1094.331778757308
 21
215.108236355287
 31
0.0
 11
1094.480832048358
 21
214.8158262335075
 31
0.0
 11
1094.591680686856
 21
214.5070281842245
 31
0.0
 11
1094.656895265764
 21
214.2000044617072
 31
0.0
 11
1094.679201084369
 21
213.8869801679468
 31
0.0
 11
1094.656896593012
 21
213.5739569592402
 31
0.0
 11
1094.591680686856
 21
213.2669321516692
 31
0.0
 11
1094.480827819751
 21
212.9581283233644
 31
0.0
 11
1094.331778757308
 21
212.6657239806067
 31
0.0
 11
1094.135059679349
 21
212.3720794853962
 31
0.0
 11
1093.907392284337
 21
212.1016230608111
 31
0.0
 11
1093.631194742297
 21
211.8334062355995
 31
0.0
 11
1093.331416036174
 21
211.5917693132815
 31
0.0
 11
1092.985013594628
 21
211.3578338275416
 31
0.0
 11
1092.621350759662
 21
211.1516543861382
 31
0.0
 11
1092.216135773891
 21
210.9590985571603
 31
0.0
 11
1091.798771428918
 21
210.7946509487337
 31
0.0
 11
1091.347730694398
 21
210.6495993016264
 31
0.0
 11
1090.888671700661
 21
210.5316063698606
 31
0.0
 11
1090.405966852931
 21
210.4360814041483
 31
0.0
 11
1089.918704494601
 21
210.3705131259414
 31
0.0
 11
1089.419262210403
 21
210.3346866133788
 31
0.0
 11
1088.918341773468
 21
210.3162659536754
 31
0.0
  0
SPLINE
  5
2EC
330
45
100
AcDbEntity
  8
1
  6
Continuous
 62
     7
100
AcDbSpline
210
0.0
220
0.0
230
1.0
 70
    11
 71
     3
 72
    79
 73
    75
 74
    73
 42
0.0000000001
 43
0.0000000001
 44
0.00000001
 40
0.0
 40
0.0
 40
0.0
 40
0.0
 40
0.2903672562530689
 40
0.5807357597935915
 40
0.8724071051833005
 40
1.164081918216831
 40
1.458189931539732
 40
1.752302927360254
 40
2.049663207833421
 40
2.347029113126078
 40
2.648045792769234
 40
2.949067942938734
 40
3.253697753141408
 40
3.558332281909002
 40
3.866104864362197
 40
4.173881026138316
 40
4.483966067734764
 40
4.794053328113855
 40
5.105362224075894
 40
5.416671870214032
 40
5.727981516352189
 40
6.039290412314256
 40
6.349377672693228
 40
6.65946271428975
 40
6.967238876065787
 40
7.275011458519081
 40
7.579645987286725
 40
7.884275797489422
 40
8.185297947658899
 40
8.486314627302075
 40
8.783680532594733
 40
9.081040813067901
 40
9.375153808888578
 40
9.669261822211272
 40
9.960936635244194
 40
10.25260798063456
 40
10.54297648417508
 40
10.83334374042815
 40
11.12371099668121
 40
11.41407950022196
 40
11.70575084561276
 40
11.99742565864612
 40
12.2915336719684
 40
12.58564666778868
 40
12.88300694826185
 40
13.18037285355451
 40
13.48138953319766
 40
13.78241168336716
 40
14.08704149356986
 40
14.3916760223375
 40
14.69944860479087
 40
15.00722476656685
 40
15.31730980816327
 40
15.6273970685423
 40
15.93870596450445
 40
16.2500156106426
 40
16.56132525678075
 40
16.87263415274287
 40
17.18272141312194
 40
17.49280645471841
 40
17.80058261649437
 40
18.10835519894776
 40
18.41298972771538
 40
18.71761953791803
 40
19.01864168808751
 40
19.31965836773068
 40
19.61702427302329
 40
19.9143845534965
 40
20.20849754931682
 40
20.5026055626391
 40
20.79428037567288
 40
21.08595172106323
 40
21.37632022460397
 40
21.66668748085704
 40
21.66668748085704
 40
21.66668748085704
 40
21.66668748085704
 10
1328.454559054141
 20
210.3162659536754
 30
0.0
 10
1328.551382863875
 20
210.3188975510782
 30
0.0
 10
1328.745030899255
 20
210.3241607571881
 30
0.0
 10
1329.033391777643
 20
210.3664558308819
 30
0.0
 10
1329.317103920889
 20
210.4336667239241
 30
0.0
 10
1329.594528983249
 20
210.5277218894757
 30
0.0
 10
1329.862849894325
 20
210.6471533473914
 30
0.0
 10
1330.120849657436
 20
210.7914288430615
 30
0.0
 10
1330.365651660457
 20
210.9590329184243
 30
0.0
 10
1330.596347885302
 20
211.1491954727254
 30
0.0
 10
1330.81024359237
 20
211.3598181931653
 30
0.0
 10
1331.00661713475
 20
211.5900398091142
 30
0.0
 10
1331.183166479719
 20
211.8372762326202
 30
0.0
 10
1331.339269276199
 20
212.1005104069673
 30
0.0
 10
1331.473158290621
 20
212.3768739616432
 30
0.0
 10
1331.58428630744
 20
212.6650874055923
 30
0.0
 10
1331.671477067238
 20
212.9622258488282
 30
0.0
 10
1331.734302673699
 20
213.2666490029374
 30
0.0
 10
1331.772151223471
 20
213.5755856153034
 30
0.0
 10
1331.784813485429
 20
213.8869801679471
 30
0.0
 10
1331.772151223472
 20
214.1983747205894
 30
0.0
 10
1331.734302673698
 20
214.5073113329598
 30
0.0
 10
1331.671477067239
 20
214.8117344870525
 30
0.0
 10
1331.584286307439
 20
215.1088729303505
 30
0.0
 10
1331.473158290621
 20
215.3970863740682
 30
0.0
 10
1331.339269276199
 20
215.6734499296046
 30
0.0
 10
1331.183166479719
 20
215.9366841007708
 30
0.0
 10
1331.00661713475
 20
216.1839205360761
 30
0.0
 10
1330.81024359237
 20
216.41414210849
 30
0.0
 10
1330.596347885302
 20
216.6247649903411
 30
0.0
 10
1330.365651660458
 20
216.8149269492481
 30
0.0
 10
1330.120849657435
 20
216.9825332328681
 30
0.0
 10
1329.862849894325
 20
217.126800573352
 30
0.0
 10
1329.594528983249
 20
217.246262312709
 30
0.0
 10
1329.317103920889
 20
217.3402053597777
 30
0.0
 10
1329.033391777643
 20
217.407833332225
 30
0.0
 10
1328.745030899255
 20
217.4485784570739
 30
0.0
 10
1328.454559054141
 20
217.462252335001
 30
0.0
 10
1328.164087209027
 20
217.4485784570739
 30
0.0
 10
1327.875726330639
 20
217.407833332225
 30
0.0
 10
1327.592014187392
 20
217.3402053597778
 30
0.0
 10
1327.314589125032
 20
217.2462623127092
 30
0.0
 10
1327.046268213957
 20
217.126800573352
 30
0.0
 10
1326.788268450847
 20
216.982533232868
 30
0.0
 10
1326.543466447824
 20
216.8149269492482
 30
0.0
 10
1326.312770222981
 20
216.624764990341
 30
0.0
 10
1326.098874515911
 20
216.4141421084901
 30
0.0
 10
1325.902500973532
 20
216.183920536076
 30
0.0
 10
1325.725951628563
 20
215.9366841007708
 30
0.0
 10
1325.569848832084
 20
215.6734499296046
 30
0.0
 10
1325.435959817661
 20
215.3970863740682
 30
0.0
 10
1325.324831800843
 20
215.1088729303506
 30
0.0
 10
1325.237641041043
 20
214.8117344870524
 30
0.0
 10
1325.174815434584
 20
214.5073113329599
 30
0.0
 10
1325.13696688481
 20
214.1983747205894
 30
0.0
 10
1325.124304622852
 20
213.8869801679472
 30
0.0
 10
1325.136966884809
 20
213.5755856153033
 30
0.0
 10
1325.174815434584
 20
213.2666490029375
 30
0.0
 10
1325.237641041043
 20
212.9622258488281
 30
0.0
 10
1325.324831800842
 20
212.6650874055924
 30
0.0
 10
1325.435959817661
 20
212.376873961643
 30
0.0
 10
1325.569848832083
 20
212.1005104069675
 30
0.0
 10
1325.725951628564
 20
211.8372762326202
 30
0.0
 10
1325.902500973532
 20
211.5900398091142
 30
0.0
 10
1326.098874515912
 20
211.3598181931653
 30
0.0
 10
1326.312770222981
 20
211.1491954727255
 30
0.0
 10
1326.543466447824
 20
210.9590329184244
 30
0.0
 10
1326.788268450847
 20
210.7914288430615
 30
0.0
 10
1327.046268213956
 20
210.6471533473915
 30
0.0
 10
1327.314589125033
 20
210.5277218894755
 30
0.0
 10
1327.592014187393
 20
210.433666723924
 30
0.0
 10
1327.875726330638
 20
210.3664558308819
 30
0.0
 10
1328.164087209028
 20
210.3241607571881
 30
0.0
 10
1328.357735244407
 20
210.3188975510782
 30
0.0
 10
1328.454559054141
 20
210.3162659536754
 30
0.0
 11
1328.454559054141
 21
210.3162659536754
 31
0.0
 11
1328.744606815939
 21
210.329883566528
 31
0.0
 11
1329.032118740475
 21
210.3705131259416
 31
0.0
 11
1329.315856050343
 21
210.4380802237801
 31
0.0
 11
1329.592129567998
 21
210.5316063698606
 31
0.0
 11
1329.860846630097
 21
210.6511499352984
 31
0.0
 11
1330.117575891097
 21
210.7946509487337
 31
0.0
 11
1330.362993180879
 21
210.9625601214405
 31
0.0
 11
1330.592492289132
 21
211.1516543861384
 31
0.0
 11
1330.807046848169
 21
211.362787951968
 31
0.0
 11
1331.002448667668
 21
211.5917693132817
 31
0.0
 11
1331.179552072809
 21
211.8396275492791
 31
0.0
 11
1331.334988709592
 21
212.1016230608111
 31
0.0
 11
1331.469241938215
 21
212.3785707690781
 31
0.0
 11
1331.580008354002
 21
212.6657239806067
 31
0.0
 11
1331.667366109475
 21
212.963249367054
 31
0.0
 11
1331.73006280299
 21
213.2669321516693
 31
0.0
 11
1331.767945222959
 21
213.5759275415417
 31
0.0
 11
1331.780592728053
 21
213.8869801679469
 31
0.0
 11
1331.767945222959
 21
214.1980327943521
 31
0.0
 11
1331.73006280299
 21
214.5070281842245
 31
0.0
 11
1331.667366109475
 21
214.8107109688397
 31
0.0
 11
1331.580008354002
 21
215.108236355287
 31
0.0
 11
1331.469241938215
 21
215.3953895668157
 31
0.0
 11
1331.334988709592
 21
215.6723372750826
 31
0.0
 11
1331.179552072809
 21
215.9343327866147
 31
0.0
 11
1331.002448667668
 21
216.1821910226121
 31
0.0
 11
1330.807046848169
 21
216.4111723839257
 31
0.0
 11
1330.592492289132
 21
216.6223059497554
 31
0.0
 11
1330.362993180879
 21
216.8114002144534
 31
0.0
 11
1330.117575891097
 21
216.9793093871601
 31
0.0
 11
1329.860846630097
 21
217.1228104005953
 31
0.0
 11
1329.592129567998
 21
217.2423539660331
 31
0.0
 11
1329.315856050344
 21
217.3358801121138
 31
0.0
 11
1329.032118740475
 21
217.4034472099522
 31
0.0
 11
1328.744606815939
 21
217.4440767693658
 31
0.0
 11
1328.454559054141
 21
217.4576943822183
 31
0.0
 11
1328.164511292343
 21
217.4440767693658
 31
0.0
 11
1327.876999367807
 21
217.4034472099522
 31
0.0
 11
1327.593262057938
 21
217.3358801121138
 31
0.0
 11
1327.316988540283
 21
217.2423539660331
 31
0.0
 11
1327.048271478185
 21
217.1228104005953
 31
0.0
 11
1326.791542217185
 21
216.9793093871601
 31
0.0
 11
1326.546124927403
 21
216.8114002144534
 31
0.0
 11
1326.31662581915
 21
216.6223059497554
 31
0.0
 11
1326.102071260113
 21
216.4111723839258
 31
0.0
 11
1325.906669440614
 21
216.1821910226121
 31
0.0
 11
1325.729566035474
 21
215.9343327866147
 31
0.0
 11
1325.57412939869
 21
215.6723372750826
 31
0.0
 11
1325.439876170067
 21
215.3953895668157
 31
0.0
 11
1325.32910975428
 21
215.108236355287
 31
0.0
 11
1325.241751998807
 21
214.8107109688397
 31
0.0
 11
1325.179055305292
 21
214.5070281842245
 31
0.0
 11
1325.141172885323
 21
214.198032794352
 31
0.0
 11
1325.128525380228
 21
213.8869801679469
 31
0.0
 11
1325.141172885323
 21
213.5759275415417
 31
0.0
 11
1325.179055305292
 21
213.2669321516693
 31
0.0
 11
1325.241751998807
 21
212.9632493670541
 31
0.0
 11
1325.32910975428
 21
212.6657239806067
 31
0.0
 11
1325.439876170067
 21
212.3785707690781
 31
0.0
 11
1325.57412939869
 21
212.1016230608111
 31
0.0
 11
1325.729566035474
 21
211.8396275492791
 31
0.0
 11
1325.906669440614
 21
211.5917693132817
 31
0.0
 11
1326.102071260113
 21
211.3627879519681
 31
0.0
 11
1326.31662581915
 21
211.1516543861384
 31
0.0
 11
1326.546124927403
 21
210.9625601214405
 31
0.0
 11
1326.791542217185
 21
210.7946509487337
 31
0.0
 11
1327.048271478185
 21
210.6511499352984
 31
0.0
 11
1327.316988540283
 21
210.5316063698606
 31
0.0
 11
1327.593262057938
 21
210.43808022378
 31
0.0
 11
1327.876999367807
 21
210.3705131259416
 31
0.0
 11
1328.164511292343
 21
210.329883566528
 31
0.0
 11
1328.454559054141
 21
210.3162659536754
 31
0.0
  0
SPLINE
  5
2ED
330
45
100
AcDbEntity
  8
0
  6
Continuous
 62
     7
100
AcDbSpline
210
0.0
220
0.0
230
1.0
 70
     8
 71
     3
 72
    43
 73
    39
 74
    37
 42
0.0000000001
 43
0.0000000001
 44
0.00000001
 40
0.0
 40
0.0
 40
0.0
 40
0.0
 40
0.5784924346494115
 40
1.156524046728809
 40
1.72232090931386
 40
2.288472344060572
 40
2.830388859922181
 40
3.372141563086125
 40
3.879699039779587
 40
4.387293526384656
 40
4.852877386294486
 40
5.318416919005474
 40
5.737827449218339
 40
6.157193999955762
 40
6.531387348815052
 40
6.905486864834836
 40
7.242297735608958
 40
7.578904886439185
 40
7.893985522446631
 40
8.208913029675978
 40
8.523840536905183
 40
8.838921172912574
 40
9.17552832374294
 40
9.512339194517068
 40
9.886438710536897
 40
10.26063205939615
 40
10.67999861013353
 40
11.09940914034632
 40
11.56494867305711
 40
12.03053253296714
 40
12.53812701957221
 40
13.04568449626568
 40
13.58743719942964
 40
14.12935371529126
 40
14.69550515003819
 40
15.26130201262302
 40
15.83933362470218
 40
16.41782605935182
 40
16.41782605935182
 40
16.41782605935182
 40
16.41782605935182
 10
1316.330203401159
 20
217.4554294887827
 30
0.0
 10
1316.522964567165
 20
217.4502717387882
 30
0.0
 10
1316.908333347134
 20
217.4399603474227
 30
0.0
 10
1317.481736382269
 20
217.4072458883598
 30
0.0
 10
1318.048181127314
 20
217.340726566293
 30
0.0
 10
1318.598261369036
 20
217.2460011726801
 30
0.0
 10
1319.135414647175
 20
217.1271110434062
 30
0.0
 10
1319.646814635293
 20
216.9853297203673
 30
0.0
 10
1320.138460026083
 20
216.8182545984501
 30
0.0
 10
1320.595458985225
 20
216.6308655139116
 30
0.0
 10
1321.026694615111
 20
216.4202369953023
 30
0.0
 10
1321.416155225476
 20
216.1935242848489
 30
0.0
 10
1321.773781752775
 20
215.9454463369968
 30
0.0
 10
1322.084473262723
 20
215.6856861235515
 30
0.0
 10
1322.357315364835
 20
215.4071818333839
 30
0.0
 10
1322.580296487299
 20
215.1211989748302
 30
0.0
 10
1322.759068716149
 20
214.8201732408843
 30
0.0
 10
1322.886999518299
 20
214.5151369198442
 30
0.0
 10
1322.964428705657
 20
214.2010777866883
 30
0.0
 10
1322.991190151015
 20
213.8857963139071
 30
0.0
 10
1322.964428705657
 20
213.5705148411258
 30
0.0
 10
1322.886999518298
 20
213.2564557079701
 30
0.0
 10
1322.759068716149
 20
212.9514193869299
 30
0.0
 10
1322.580296487299
 20
212.6503936529838
 30
0.0
 10
1322.357315364836
 20
212.36441079443
 30
0.0
 10
1322.084473262722
 20
212.0859065042626
 30
0.0
 10
1321.773781752775
 20
211.8261462908171
 30
0.0
 10
1321.416155225475
 20
211.5780683429656
 30
0.0
 10
1321.026694615112
 20
211.3513556325117
 30
0.0
 10
1320.595458985225
 20
211.1407271139027
 30
0.0
 10
1320.138460026083
 20
210.9533380293641
 30
0.0
 10
1319.646814635293
 20
210.7862629074469
 30
0.0
 10
1319.135414647176
 20
210.6444815844079
 30
0.0
 10
1318.598261369035
 20
210.525591455134
 30
0.0
 10
1318.048181127314
 20
210.4308660615211
 30
0.0
 10
1317.481736382269
 20
210.3643467394543
 30
0.0
 10
1316.908333347134
 20
210.3316322803914
 30
0.0
 10
1316.522964567165
 20
210.3213208890261
 30
0.0
 10
1316.330203401159
 20
210.3161631390316
 30
0.0
 11
1316.330203401159
 21
217.4554294887827
 31
0.0
 11
1316.908403470083
 21
217.4370398927377
 31
0.0
 11
1317.485322837351
 21
217.4011987399341
 31
0.0
 11
1318.047320082011
 21
217.3357374024466
 31
0.0
 11
1318.605344553994
 21
217.2401542672502
 31
0.0
 11
1319.134330985536
 21
217.1224815626478
 31
0.0
 11
1319.656237257985
 21
216.977189325541
 31
0.0
 11
1320.136632811208
 21
216.813376308381
 31
0.0
 11
1320.60607010629
 21
216.6202939714937
 31
0.0
 11
1321.024063079658
 21
216.4152325055301
 31
0.0
 11
1321.425982908453
 21
216.1803122898431
 31
0.0
 11
1321.770009301798
 21
215.940414325
 31
0.0
 11
1322.091063028876
 21
215.6706129013448
 31
0.0
 11
1322.352065570143
 21
215.402474251048
 31
0.0
 11
1322.581102344646
 21
215.106682763998
 31
0.0
 11
1322.752155760031
 21
214.8165409163498
 31
0.0
 11
1322.881211259125
 21
214.5056566096637
 31
0.0
 11
1322.956281157755
 21
214.1996495549957
 31
0.0
 11
1322.982271114811
 21
213.885796313907
 31
0.0
 11
1322.956281157755
 21
213.5719430728184
 31
0.0
 11
1322.881211259125
 21
213.2659360181505
 31
0.0
 11
1322.752155760031
 21
212.9550517114643
 31
0.0
 11
1322.581102344646
 21
212.664909863816
 31
0.0
 11
1322.352065570143
 21
212.369118376766
 31
0.0
 11
1322.091063028876
 21
212.1009797264692
 31
0.0
 11
1321.770009301798
 21
211.8311783028141
 31
0.0
 11
1321.425982908453
 21
211.5912803379711
 31
0.0
 11
1321.024063079659
 21
211.3563601222841
 31
0.0
 11
1320.60607010629
 21
211.1512986563205
 31
0.0
 11
1320.136632811208
 21
210.9582163194332
 31
0.0
 11
1319.656237257985
 21
210.7944033022732
 31
0.0
 11
1319.134330985536
 21
210.6491110651664
 31
0.0
 11
1318.605344553994
 21
210.5314383605639
 31
0.0
 11
1318.047320082011
 21
210.4358552253675
 31
0.0
 11
1317.485322837351
 21
210.37039388788
 31
0.0
 11
1316.908403470083
 21
210.3345527350765
 31
0.0
 11
1316.330203401159
 21
210.3161631390316
 31
0.0
  0
SPLINE
  5
2EE
330
45
100
AcDbEntity
  8
0
  6
Continuous
 62
     7
100
AcDbSpline
210
0.0
220
0.0
230
1.0
 70
     8
 71
     3
 72
    43
 73
    39
 74
    37
 42
0.0000000001
 43
0.0000000001
 44
0.00000001
 40
0.0
 40
0.0
 40
0.0
 40
0.0
 40
0.5784924346496387
 40
1.156524046728809
 40
1.72232090931386
 40
2.288472344060572
 40
2.830388859922181
 40
3.372141563086125
 40
3.879699039779157
 40
4.387293526384647
 40
4.852877386294067
 40
5.318416919005447
 40
5.737827449218126
 40
6.157193999955723
 40
6.531387348815172
 40
6.905486864834817
 40
7.242297735608823
 40
7.578904886439137
 40
7.893985522446583
 40
8.20891302967593
 40
8.523840536905135
 40
8.838921172912526
 40
9.175528323742892
 40
9.51233919451702
 40
9.886438710536849
 40
10.2606320593961
 40
10.67999861013349
 40
11.09940914034627
 40
11.56494867305785
 40
12.03053253296706
 40
12.53812701957213
 40
13.0456844962656
 40
13.58743719942956
 40
14.12935371529118
 40
14.69550515003811
 40
15.26130201262294
 40
15.8393336247021
 40
16.41782605935174
 40
16.41782605935174
 40
16.41782605935174
 40
16.41782605935174
 10
1316.330203401159
 20
217.4554294887827
 30
0.0
 10
1316.137442235152
 20
217.4502717387882
 30
0.0
 10
1315.752073455184
 20
217.4399603474227
 30
0.0
 10
1315.178670420049
 20
217.4072458883597
 30
0.0
 10
1314.612225675004
 20
217.340726566293
 30
0.0
 10
1314.062145433283
 20
217.2460011726801
 30
0.0
 10
1313.524992155142
 20
217.1271110434062
 30
0.0
 10
1313.013592167025
 20
216.9853297203673
 30
0.0
 10
1312.521946776236
 20
216.81825459845
 30
0.0
 10
1312.064947817094
 20
216.6308655139119
 30
0.0
 10
1311.633712187207
 20
216.4202369953021
 30
0.0
 10
1311.244251576843
 20
216.1935242848491
 30
0.0
 10
1310.886625049543
 20
215.9454463369968
 30
0.0
 10
1310.575933539596
 20
215.6856861235515
 30
0.0
 10
1310.303091437482
 20
215.407181833384
 30
0.0
 10
1310.080110315019
 20
215.1211989748303
 30
0.0
 10
1309.901338086169
 20
214.8201732408842
 30
0.0
 10
1309.77340728402
 20
214.5151369198441
 30
0.0
 10
1309.695978096661
 20
214.2010777866883
 30
0.0
 10
1309.669216651304
 20
213.8857963139071
 30
0.0
 10
1309.695978096661
 20
213.5705148411257
 30
0.0
 10
1309.77340728402
 20
213.2564557079701
 30
0.0
 10
1309.901338086169
 20
212.9514193869299
 30
0.0
 10
1310.080110315019
 20
212.6503936529838
 30
0.0
 10
1310.303091437482
 20
212.36441079443
 30
0.0
 10
1310.575933539596
 20
212.0859065042626
 30
0.0
 10
1310.886625049543
 20
211.8261462908171
 30
0.0
 10
1311.244251576843
 20
211.5780683429652
 30
0.0
 10
1311.633712187208
 20
211.3513556325123
 30
0.0
 10
1312.064947817094
 20
211.1407271139024
 30
0.0
 10
1312.521946776235
 20
210.9533380293642
 30
0.0
 10
1313.013592167025
 20
210.7862629074469
 30
0.0
 10
1313.524992155142
 20
210.6444815844079
 30
0.0
 10
1314.062145433283
 20
210.525591455134
 30
0.0
 10
1314.612225675004
 20
210.4308660615211
 30
0.0
 10
1315.178670420049
 20
210.3643467394543
 30
0.0
 10
1315.752073455184
 20
210.3316322803914
 30
0.0
 10
1316.137442235153
 20
210.3213208890261
 30
0.0
 10
1316.330203401159
 20
210.3161631390316
 30
0.0
 11
1316.330203401159
 21
217.4554294887827
 31
0.0
 11
1315.752003332235
 21
217.4370398927377
 31
0.0
 11
1315.175083964967
 21
217.4011987399341
 31
0.0
 11
1314.613086720307
 21
217.3357374024466
 31
0.0
 11
1314.055062248324
 21
217.2401542672502
 31
0.0
 11
1313.526075816782
 21
217.1224815626478
 31
0.0
 11
1313.004169544333
 21
216.977189325541
 31
0.0
 11
1312.523773991111
 21
216.813376308381
 31
0.0
 11
1312.054336696028
 21
216.6202939714937
 31
0.0
 11
1311.63634372266
 21
216.4152325055301
 31
0.0
 11
1311.234423893865
 21
216.1803122898431
 31
0.0
 11
1310.890397500521
 21
215.940414325
 31
0.0
 11
1310.569343773442
 21
215.6706129013448
 31
0.0
 11
1310.308341232175
 21
215.402474251048
 31
0.0
 11
1310.079304457672
 21
215.106682763998
 31
0.0
 11
1309.908251042287
 21
214.8165409163498
 31
0.0
 11
1309.779195543193
 21
214.5056566096637
 31
0.0
 11
1309.704125644563
 21
214.1996495549957
 31
0.0
 11
1309.678135687507
 21
213.885796313907
 31
0.0
 11
1309.704125644563
 21
213.5719430728184
 31
0.0
 11
1309.779195543193
 21
213.2659360181505
 31
0.0
 11
1309.908251042287
 21
212.9550517114643
 31
0.0
 11
1310.079304457672
 21
212.664909863816
 31
0.0
 11
1310.308341232176
 21
212.369118376766
 31
0.0
 11
1310.569343773442
 21
212.1009797264692
 31
0.0
 11
1310.890397500521
 21
211.8311783028141
 31
0.0
 11
1311.234423893865
 21
211.5912803379711
 31
0.0
 11
1311.63634372266
 21
211.3563601222841
 31
0.0
 11
1312.054336696028
 21
211.1512986563205
 31
0.0
 11
1312.52377399111
 21
210.9582163194332
 31
0.0
 11
1313.004169544333
 21
210.7944033022732
 31
0.0
 11
1313.526075816782
 21
210.6491110651664
 31
0.0
 11
1314.055062248324
 21
210.5314383605639
 31
0.0
 11
1314.613086720307
 21
210.4358552253675
 31
0.0
 11
1315.175083964967
 21
210.37039388788
 31
0.0
 11
1315.752003332235
 21
210.3345527350765
 31
0.0
 11
1316.330203401159
 21
210.3161631390316
 31
0.0
  0
SPLINE
  5
2EF
330
45
100
AcDbEntity
  8
1
  6
Continuous
 62
     7
100
AcDbSpline
210
0.0
220
0.0
230
1.0
 70
    11
 71
     3
 72
    79
 73
    75
 74
    73
 42
0.0000000001
 43
0.0000000001
 44
0.00000001
 40
0.0
 40
0.0
 40
0.0
 40
0.0
 40
0.2903672562528418
 40
0.5807357597935895
 40
0.8724071051828561
 40
1.164081918216817
 40
1.458189931539719
 40
1.75230292736024
 40
2.049663207833406
 40
2.347029113126064
 40
2.648045792769058
 40
2.949067942938705
 40
3.253697753141511
 40
3.55833228190899
 40
3.866104864362284
 40
4.173881026138321
 40
4.483966067734833
 40
4.794053328113878
 40
5.105362224075917
 40
5.416671870214056
 40
5.727981516352212
 40
6.039290412314279
 40
6.349377672693205
 40
6.65946271428979
 40
6.967238876065746
 40
7.275011458519139
 40
7.579645987286783
 40
7.88427579748948
 40
8.185297947658958
 40
8.486314627302134
 40
8.783680532594792
 40
9.081040813067958
 40
9.375153808888834
 40
9.66926182221132
 40
9.960936635244671
 40
10.2526079806346
 40
10.54297648417512
 40
10.83334374042818
 40
11.12371099668125
 40
11.414079500222
 40
11.70575084561236
 40
11.99742565864614
 40
12.29153367196901
 40
12.58564666778953
 40
12.88300694826201
 40
13.1803728535546
 40
13.4813895331984
 40
13.7824116833679
 40
14.08704149357042
 40
14.39167602233776
 40
14.69944860479116
 40
15.00722476656711
 40
15.31730980816364
 40
15.62739706854261
 40
15.93870596450476
 40
16.25001561064291
 40
16.56132525678105
 40
16.87263415274317
 40
17.18272141312219
 40
17.49280645471873
 40
17.80058261649461
 40
18.1083551989481
 40
18.41298972771551
 40
18.71761953791787
 40
19.01864168808735
 40
19.31965836773117
 40
19.61702427302306
 40
19.91438455349629
 40
20.20849754931686
 40
20.50260556263972
 40
20.79428037567348
 40
21.08595172106384
 40
21.37632022460459
 40
21.66668748085766
 40
21.66668748085766
 40
21.66668748085766
 40
21.66668748085766
 10
1304.205847748177
 20
210.3162659536754
 30
0.0
 10
1304.109023938443
 20
210.3188975510783
 30
0.0
 10
1303.915375903064
 20
210.3241607571882
 30
0.0
 10
1303.627015024675
 20
210.3664558308818
 30
0.0
 10
1303.343302881429
 20
210.4336667239243
 30
0.0
 10
1303.065877819069
 20
210.5277218894755
 30
0.0
 10
1302.797556907993
 20
210.6471533473915
 30
0.0
 10
1302.539557144882
 20
210.7914288430614
 30
0.0
 10
1302.294755141861
 20
210.9590329184244
 30
0.0
 10
1302.064058917016
 20
211.1491954727254
 30
0.0
 10
1301.850163209948
 20
211.3598181931654
 30
0.0
 10
1301.653789667569
 20
211.5900398091143
 30
0.0
 10
1301.477240322599
 20
211.83727623262
 30
0.0
 10
1301.321137526119
 20
212.1005104069675
 30
0.0
 10
1301.187248511697
 20
212.376873961643
 30
0.0
 10
1301.076120494878
 20
212.6650874055925
 30
0.0
 10
1300.988929735079
 20
212.9622258488281
 30
0.0
 10
1300.92610412862
 20
213.2666490029375
 30
0.0
 10
1300.888255578846
 20
213.5755856153033
 30
0.0
 10
1300.875593316889
 20
213.8869801679472
 30
0.0
 10
1300.888255578846
 20
214.1983747205894
 30
0.0
 10
1300.92610412862
 20
214.5073113329598
 30
0.0
 10
1300.988929735078
 20
214.8117344870526
 30
0.0
 10
1301.076120494879
 20
215.1088729303505
 30
0.0
 10
1301.187248511697
 20
215.3970863740682
 30
0.0
 10
1301.321137526119
 20
215.6734499296045
 30
0.0
 10
1301.477240322599
 20
215.9366841007708
 30
0.0
 10
1301.653789667568
 20
216.1839205360761
 30
0.0
 10
1301.850163209948
 20
216.41414210849
 30
0.0
 10
1302.064058917016
 20
216.624764990341
 30
0.0
 10
1302.294755141861
 20
216.8149269492482
 30
0.0
 10
1302.539557144883
 20
216.9825332328683
 30
0.0
 10
1302.797556907993
 20
217.1268005733518
 30
0.0
 10
1303.065877819069
 20
217.2462623127092
 30
0.0
 10
1303.343302881428
 20
217.3402053597775
 30
0.0
 10
1303.627015024675
 20
217.4078333322251
 30
0.0
 10
1303.915375903063
 20
217.4485784570738
 30
0.0
 10
1304.205847748177
 20
217.4622523350011
 30
0.0
 10
1304.49631959329
 20
217.4485784570738
 30
0.0
 10
1304.784680471679
 20
217.407833332225
 30
0.0
 10
1305.068392614925
 20
217.3402053597776
 30
0.0
 10
1305.345817677286
 20
217.2462623127092
 30
0.0
 10
1305.614138588362
 20
217.1268005733523
 30
0.0
 10
1305.872138351472
 20
216.9825332328683
 30
0.0
 10
1306.116940354494
 20
216.8149269492478
 30
0.0
 10
1306.347636579338
 20
216.6247649903408
 30
0.0
 10
1306.561532286407
 20
216.4141421084904
 30
0.0
 10
1306.757905828786
 20
216.183920536076
 30
0.0
 10
1306.934455173755
 20
215.936684100771
 30
0.0
 10
1307.090557970235
 20
215.6734499296044
 30
0.0
 10
1307.224446984657
 20
215.3970863740682
 30
0.0
 10
1307.335575001476
 20
215.1088729303505
 30
0.0
 10
1307.422765761276
 20
214.8117344870525
 30
0.0
 10
1307.485591367734
 20
214.5073113329598
 30
0.0
 10
1307.523439917508
 20
214.1983747205894
 30
0.0
 10
1307.536102179467
 20
213.8869801679472
 30
0.0
 10
1307.523439917508
 20
213.5755856153033
 30
0.0
 10
1307.485591367734
 20
213.2666490029376
 30
0.0
 10
1307.422765761275
 20
212.962225848828
 30
0.0
 10
1307.335575001476
 20
212.6650874055925
 30
0.0
 10
1307.224446984658
 20
212.3768739616429
 30
0.0
 10
1307.090557970234
 20
212.1005104069676
 30
0.0
 10
1306.934455173755
 20
211.8372762326202
 30
0.0
 10
1306.757905828786
 20
211.5900398091142
 30
0.0
 10
1306.561532286408
 20
211.359818193165
 30
0.0
 10
1306.347636579338
 20
211.149195472726
 30
0.0
 10
1306.116940354495
 20
210.9590329184242
 30
0.0
 10
1305.872138351472
 20
210.7914288430615
 30
0.0
 10
1305.614138588362
 20
210.6471533473913
 30
0.0
 10
1305.345817677286
 20
210.5277218894758
 30
0.0
 10
1305.068392614925
 20
210.4336667239239
 30
0.0
 10
1304.784680471679
 20
210.366455830882
 30
0.0
 10
1304.496319593291
 20
210.3241607571881
 30
0.0
 10
1304.302671557911
 20
210.3188975510782
 30
0.0
 10
1304.205847748177
 20
210.3162659536754
 30
0.0
 11
1304.205847748177
 21
210.3162659536754
 31
0.0
 11
1303.915799986379
 21
210.329883566528
 31
0.0
 11
1303.628288061843
 21
210.3705131259416
 31
0.0
 11
1303.344550751976
 21
210.4380802237801
 31
0.0
 11
1303.06827723432
 21
210.5316063698606
 31
0.0
 11
1302.799560172221
 21
210.6511499352984
 31
0.0
 11
1302.542830911221
 21
210.7946509487337
 31
0.0
 11
1302.297413621439
 21
210.9625601214405
 31
0.0
 11
1302.067914513186
 21
211.1516543861384
 31
0.0
 11
1301.85335995415
 21
211.362787951968
 31
0.0
 11
1301.65795813465
 21
211.5917693132817
 31
0.0
 11
1301.480854729509
 21
211.8396275492791
 31
0.0
 11
1301.325418092726
 21
212.1016230608111
 31
0.0
 11
1301.191164864103
 21
212.3785707690781
 31
0.0
 11
1301.080398448316
 21
212.6657239806067
 31
0.0
 11
1300.993040692843
 21
212.963249367054
 31
0.0
 11
1300.930343999328
 21
213.2669321516693
 31
0.0
 11
1300.892461579359
 21
213.5759275415417
 31
0.0
 11
1300.879814074265
 21
213.8869801679469
 31
0.0
 11
1300.892461579359
 21
214.1980327943521
 31
0.0
 11
1300.930343999328
 21
214.5070281842245
 31
0.0
 11
1300.993040692842
 21
214.8107109688397
 31
0.0
 11
1301.080398448316
 21
215.108236355287
 31
0.0
 11
1301.191164864103
 21
215.3953895668157
 31
0.0
 11
1301.325418092726
 21
215.6723372750826
 31
0.0
 11
1301.48085472951
 21
215.9343327866147
 31
0.0
 11
1301.65795813465
 21
216.1821910226121
 31
0.0
 11
1301.853359954149
 21
216.4111723839257
 31
0.0
 11
1302.067914513186
 21
216.6223059497554
 31
0.0
 11
1302.297413621439
 21
216.8114002144534
 31
0.0
 11
1302.542830911221
 21
216.9793093871601
 31
0.0
 11
1302.799560172221
 21
217.1228104005953
 31
0.0
 11
1303.06827723432
 21
217.2423539660331
 31
0.0
 11
1303.344550751975
 21
217.3358801121138
 31
0.0
 11
1303.628288061843
 21
217.4034472099522
 31
0.0
 11
1303.915799986379
 21
217.4440767693658
 31
0.0
 11
1304.205847748177
 21
217.4576943822183
 31
0.0
 11
1304.495895509975
 21
217.4440767693658
 31
0.0
 11
1304.783407434511
 21
217.4034472099522
 31
0.0
 11
1305.06714474438
 21
217.3358801121138
 31
0.0
 11
1305.343418262035
 21
217.2423539660331
 31
0.0
 11
1305.612135324134
 21
217.1228104005954
 31
0.0
 11
1305.868864585134
 21
216.9793093871601
 31
0.0
 11
1306.114281874915
 21
216.8114002144532
 31
0.0
 11
1306.343780983168
 21
216.6223059497554
 31
0.0
 11
1306.558335542206
 21
216.4111723839258
 31
0.0
 11
1306.753737361705
 21
216.1821910226121
 31
0.0
 11
1306.930840766845
 21
215.9343327866147
 31
0.0
 11
1307.086277403628
 21
215.6723372750826
 31
0.0
 11
1307.220530632251
 21
215.3953895668157
 31
0.0
 11
1307.331297048038
 21
215.108236355287
 31
0.0
 11
1307.418654803511
 21
214.8107109688397
 31
0.0
 11
1307.481351497026
 21
214.5070281842245
 31
0.0
 11
1307.519233916995
 21
214.198032794352
 31
0.0
 11
1307.53188142209
 21
213.8869801679469
 31
0.0
 11
1307.519233916995
 21
213.5759275415417
 31
0.0
 11
1307.481351497026
 21
213.2669321516693
 31
0.0
 11
1307.418654803511
 21
212.9632493670541
 31
0.0
 11
1307.331297048038
 21
212.6657239806067
 31
0.0
 11
1307.220530632251
 21
212.3785707690781
 31
0.0
 11
1307.086277403628
 21
212.1016230608111
 31
0.0
 11
1306.930840766845
 21
211.839627549279
 31
0.0
 11
1306.753737361705
 21
211.5917693132817
 31
0.0
 11
1306.558335542206
 21
211.3627879519681
 31
0.0
 11
1306.343780983168
 21
211.1516543861384
 31
0.0
 11
1306.114281874916
 21
210.9625601214406
 31
0.0
 11
1305.868864585134
 21
210.7946509487337
 31
0.0
 11
1305.612135324134
 21
210.6511499352983
 31
0.0
 11
1305.343418262035
 21
210.5316063698606
 31
0.0
 11
1305.06714474438
 21
210.43808022378
 31
0.0
 11
1304.783407434511
 21
210.3705131259416
 31
0.0
 11
1304.495895509975
 21
210.329883566528
 31
0.0
 11
1304.205847748177
 21
210.3162659536754
 31
0.0
  0
ARC
  5
2F0
330
45
100
AcDbEntity
  8
1
  6
Continuous
 62
     7
100
AcDbCircle
 10
1304.830203401159
 20
208.0294432033884
 30
0.0
 40
1.000000000000476
100
AcDbArc
 50
29.99999999998426
 51
90.0
  0
ARC
  5
2F1
330
45
100
AcDbEntity
  8
1
  6
Continuous
 62
     7
100
AcDbCircle
 10
1306.562254208728
 20
209.0294432033884
 30
0.0
 40
0.9999999999996883
100
AcDbArc
 50
-149.9999999999897
 51
-137.0585971351277
  0
ARC
  5
2F2
330
45
100
AcDbEntity
  8
1
  6
Continuous
 62
     7
100
AcDbCircle
 10
1304.772182339429
 20
210.0294432033884
 30
0.0
 40
1.000000000000089
100
AcDbArc
 50
-105.3375576695709
 51
-90.0
  0
ARC
  5
2F3
330
45
100
AcDbEntity
  8
1
  6
Continuous
 62
     7
100
AcDbCircle
 10
1306.562254208728
 20
209.0294432033884
 30
0.0
 40
1.000000000000136
100
AcDbArc
 50
-137.0585971351277
 51
-90.0
  0
ARC
  5
2F4
330
45
100
AcDbEntity
  8
1
  6
Continuous
 62
     7
100
AcDbCircle
 10
1326.09815259359
 20
209.0294432033884
 30
0.0
 40
1.0
100
AcDbArc
 50
-90.0
 51
-42.94140286487234
  0
ARC
  5
2F5
330
45
100
AcDbEntity
  8
1
  6
Continuous
 62
     7
100
AcDbCircle
 10
1327.888224462889
 20
210.0294432033884
 30
0.0
 40
1.0
100
AcDbArc
 50
-90.0
 51
-74.6624423304291
  0
ARC
  5
2F6
330
45
100
AcDbEntity
  8
1
  6
Continuous
 62
     7
100
AcDbCircle
 10
1326.09815259359
 20
209.0294432033884
 30
0.0
 40
1.000000000000136
100
AcDbArc
 50
-42.94140286487234
 51
-30.00000000001032
  0
ARC
  5
2F7
330
45
100
AcDbEntity
  8
1
  6
Continuous
 62
     7
100
AcDbCircle
 10
1327.830203401159
 20
208.0294432033884
 30
0.0
 40
1.0
100
AcDbArc
 50
90.0
 51
150.0000000000158
  0
ARC
  5
2F8
330
45
100
AcDbEntity
  8
1
  6
Continuous
 62
     7
100
AcDbCircle
 10
1091.686290965899
 20
209.0294432033884
 30
0.0
 40
1.0
100
AcDbArc
 50
-90.0
 51
-42.94140286487234
  0
ARC
  5
2F9
330
45
100
AcDbEntity
  8
1
  6
Continuous
 62
     7
100
AcDbCircle
 10
1093.476362835198
 20
210.0294432033884
 30
0.0
 40
1.0
100
AcDbArc
 50
-90.0
 51
-74.66244233042738
  0
ARC
  5
2FA
330
45
100
AcDbEntity
  8
1
  6
Continuous
 62
     7
100
AcDbCircle
 10
1091.686290965899
 20
209.0294432033884
 30
0.0
 40
1.000000000000136
100
AcDbArc
 50
-42.94140286487234
 51
-30.00000000001032
  0
ARC
  5
2FB
330
45
100
AcDbEntity
  8
1
  6
Continuous
 62
     7
100
AcDbCircle
 10
1093.418341773468
 20
208.0294432033884
 30
0.0
 40
1.0
100
AcDbArc
 50
90.0
 51
150.0000000000158
  0
ARC
  5
2FC
330
45
100
AcDbEntity
  8
1
  6
Continuous
 62
     7
100
AcDbCircle
 10
1072.150392581036
 20
209.0294432033884
 30
0.0
 40
0.9999999999993036
100
AcDbArc
 50
-137.0585971350833
 51
-90.0
  0
ARC
  5
2FD
330
45
100
AcDbEntity
  8
1
  6
Continuous
 62
     7
100
AcDbCircle
 10
1070.360320711737
 20
210.0294432033884
 30
0.0
 40
0.9999999999999795
100
AcDbArc
 50
-105.3375576695726
 51
-90.0
  0
ARC
  5
2FE
330
45
100
AcDbEntity
  8
1
  6
Continuous
 62
     7
100
AcDbCircle
 10
1072.150392581036
 20
209.0294432033884
 30
0.0
 40
0.9999999999994913
100
AcDbArc
 50
-149.9999999999832
 51
-137.0585971350833
  0
ARC
  5
2FF
330
45
100
AcDbEntity
  8
1
  6
Continuous
 62
     7
100
AcDbCircle
 10
1070.418341773468
 20
208.0294432033884
 30
0.0
 40
0.9999999999996883
100
AcDbArc
 50
30.00000000001032
 51
90.0
  0
ENDBLK
  5
47
330
45
100
AcDbEntity
  8
0
100
AcDbBlockEnd
  0
BLOCK
  5
4D
330
48
100
AcDbEntity
  8
0
100
AcDbBlockBegin
  2
60-7X3-______-__F_
 70
     0
 71
     0
 10
1049.913260086829
 20
-198.320656445986
 30
0.0
  3
60-7X3-______-__F_
  1

  0
INSERT
  5
49
330
48
100
AcDbEntity
  8
0
100
AcDbBlockReference
  2
82-20-__F_
 10
1105.251066710512
 20
218.9215295343232
 30
0.0
  0
INSERT
  5
4A
330
48
100
AcDbEntity
  8
1
100
AcDbBlockReference
  2
84-359-__F_
 10
1600.330203401159
 20
151.5294432033884
 30
0.0
  0
INSERT
  5
4B
330
48
100
AcDbEntity
  8
1
100
AcDbBlockReference
  2
60-7A-______-M2
 10
1320.229158546525
 20
137.3076836281076
 30
0.0
  0
INSERT
  5
4C
330
48
100
AcDbEntity
  8
0
100
AcDbBlockReference
  2
32-1-16-M1
 10
1175.443189516321
 20
292.2710728927322
 30
0.0
  0
ENDBLK
  5
4E
330
48
100
AcDbEntity
  8
0
100
AcDbBlockEnd
  0
BLOCK
  5
50
330
4F
100
AcDbEntity
  8
0
100
AcDbBlockBegin
  2
_J__A4
 70
     0
 71
     0
 10
1026.12028248235
 20
-26.8876397886154
 30
0.0
  3
_J__A4
  1

  0
POINT
  5
300
330
4F
100
AcDbEntity
  8
1
 62
     4
100
AcDbPoint
 10
1048.12028248235
 20
21.11236021138461
 30
0.0
  0
POINT
  5
301
330
4F
100
AcDbEntity
  8
1
 62
     4
100
AcDbPoint
 10
1071.12028248235
 20
-0.6376397886154
 30
0.0
  0
POINT
  5
302
330
4F
100
AcDbEntity
  8
1
 62
     4
100
AcDbPoint
 10
1071.12028248235
 20
7.86236021138461
 30
0.0
  0
POINT
  5
303
330
4F
100
AcDbEntity
  8
1
 62
     4
100
AcDbPoint
 10
1071.12028248235
 20
11.86236021138461
 30
0.0
  0
POINT
  5
304
330
4F
100
AcDbEntity
  8
1
 62
     4
100
AcDbPoint
 10
1071.12028248235
 20
3.3623602113846
 30
0.0
  0
POINT
  5
305
330
4F
100
AcDbEntity
  8
1
 62
     4
100
AcDbPoint
 10
1171.62028248235
 20
6.11236021138461
 30
0.0
  0
POINT
  5
306
330
4F
100
AcDbEntity
  8
1
 62
     4
100
AcDbPoint
 10
1061.62028248235
 20
269.1123602113849
 30
0.0
  0
POINT
  5
307
330
4F
100
AcDbEntity
  8
1
 62
     4
100
AcDbPoint
 10
1071.12028248235
 20
9.86236021138461
 30
0.0
  0
POINT
  5
308
330
4F
100
AcDbEntity
  8
1
 62
     4
100
AcDbPoint
 10
1071.12028248235
 20
1.3623602113846
 30
0.0
  0
POINT
  5
309
330
4F
100
AcDbEntity
  8
1
 62
     4
100
AcDbPoint
 10
1171.62028248235
 20
-0.3876397886154
 30
0.0
  0
POINT
  5
30A
330
4F
100
AcDbEntity
  8
1
 62
     4
100
AcDbPoint
 10
1177.37028248235
 20
-0.3876397886154
 30
0.0
  0
POINT
  5
30B
330
4F
100
AcDbEntity
  8
1
 62
     4
100
AcDbPoint
 10
1165.87028248235
 20
-0.3876397886154
 30
0.0
  0
POINT
  5
30C
330
4F
100
AcDbEntity
  8
1
 62
     4
100
AcDbPoint
 10
1148.87028248235
 20
-0.3876397886154
 30
0.0
  0
POINT
  5
30D
330
4F
100
AcDbEntity
  8
1
 62
     4
100
AcDbPoint
 10
1160.37028248235
 20
-0.3876397886154
 30
0.0
  0
POINT
  5
30E
330
4F
100
AcDbEntity
  8
1
 62
     4
100
AcDbPoint
 10
1154.62028248235
 20
-0.3876397886154
 30
0.0
  0
POINT
  5
30F
330
4F
100
AcDbEntity
  8
1
 62
     4
100
AcDbPoint
 10
1154.62028248235
 20
6.11236021138461
 30
0.0
  0
POINT
  5
310
330
4F
100
AcDbEntity
  8
1
 62
     4
100
AcDbPoint
 10
1131.87028248235
 20
-0.3876397886154
 30
0.0
  0
POINT
  5
311
330
4F
100
AcDbEntity
  8
1
 62
     4
100
AcDbPoint
 10
1143.37028248235
 20
-0.3876397886154
 30
0.0
  0
POINT
  5
312
330
4F
100
AcDbEntity
  8
1
 62
     4
100
AcDbPoint
 10
1137.62028248235
 20
-0.3876397886154
 30
0.0
  0
POINT
  5
313
330
4F
100
AcDbEntity
  8
1
 62
     4
100
AcDbPoint
 10
1137.62028248235
 20
6.11236021138461
 30
0.0
  0
POINT
  5
314
330
4F
100
AcDbEntity
  8
1
 62
     4
100
AcDbPoint
 10
1114.87028248235
 20
-0.3876397886154
 30
0.0
  0
POINT
  5
315
330
4F
100
AcDbEntity
  8
1
 62
     4
100
AcDbPoint
 10
1126.37028248235
 20
-0.3876397886154
 30
0.0
  0
POINT
  5
316
330
4F
100
AcDbEntity
  8
1
 62
     4
100
AcDbPoint
 10
1120.62028248235
 20
-0.3876397886154
 30
0.0
  0
POINT
  5
317
330
4F
100
AcDbEntity
  8
1
 62
     4
100
AcDbPoint
 10
1120.62028248235
 20
6.11236021138461
 30
0.0
  0
POINT
  5
318
330
4F
100
AcDbEntity
  8
1
 62
     4
100
AcDbPoint
 10
1099.37028248235
 20
4.1123602113846
 30
0.0
  0
POINT
  5
319
330
4F
100
AcDbEntity
  8
1
 62
     4
100
AcDbPoint
 10
1107.87028248235
 20
4.1123602113846
 30
0.0
  0
LINE
  5
31A
330
4F
100
AcDbEntity
  8
1
  6
Continuous
 62
     2
100
AcDbLine
 10
1095.12028248235
 20
14.11236021138461
 30
0.0
 11
1095.12028248235
 21
-2.88763978861539
 31
0.0
  0
LINE
  5
31B
330
4F
100
AcDbEntity
  8
1
  6
DOT_CENTER
 62
     2
100
AcDbLine
 10
1201.12028248235
 20
13.61236021138461
 30
0.0
 11
1201.12028248235
 21
7.61236021138461
 31
0.0
  0
LINE
  5
31C
330
4F
100
AcDbEntity
  8
1
  6
DOT_CENTER
 62
     2
100
AcDbLine
 10
1198.12028248235
 20
10.61236021138461
 30
0.0
 11
1211.12028248235
 21
10.61236021138461
 31
0.0
  0
LINE
  5
31D
330
4F
100
AcDbEntity
  8
1
  6
Continuous
 62
     7
100
AcDbLine
 10
1210.12028248235
 20
8.61236021138461
 30
0.0
 11
1205.12028248235
 21
9.41236021138462
 31
0.0
  0
LINE
  5
31E
330
4F
100
AcDbEntity
  8
1
  6
Continuous
 62
     7
100
AcDbLine
 10
1210.12028248235
 20
12.61236021138461
 30
0.0
 11
1210.12028248235
 21
8.61236021138461
 31
0.0
  0
LINE
  5
31F
330
4F
100
AcDbEntity
  8
1
  6
Continuous
 62
     7
100
AcDbLine
 10
1205.12028248235
 20
11.81236021138462
 30
0.0
 11
1210.12028248235
 21
12.61236021138461
 31
0.0
  0
LINE
  5
320
330
4F
100
AcDbEntity
  8
1
  6
Continuous
 62
     7
100
AcDbLine
 10
1205.12028248235
 20
11.81236021138462
 30
0.0
 11
1205.12028248235
 21
9.41236021138462
 31
0.0
  0
LINE
  5
321
330
4F
100
AcDbEntity
  8
1
  6
Continuous
 62
     2
100
AcDbLine
 10
1047.12028248235
 20
14.11236021138461
 30
0.0
 11
1047.12028248235
 21
-2.88763978861539
 31
0.0
  0
LINE
  5
322
330
4F
100
AcDbEntity
  8
1
  6
Continuous
 62
     2
100
AcDbLine
 10
1039.12028248235
 20
5.61236021138461
 30
0.0
 11
1095.12028248235
 21
5.61236021138461
 31
0.0
  0
LINE
  5
323
330
4F
100
AcDbEntity
  8
1
  6
Continuous
 62
     7
100
AcDbLine
 10
1214.12028248235
 20
274.1123602113849
 30
0.0
 11
1119.12028248235
 21
274.1123602113849
 31
0.0
  0
LINE
  5
324
330
4F
100
AcDbEntity
  8
1
  6
Continuous
 62
     7
100
AcDbLine
 10
1214.12028248235
 20
-2.88763978861539
 30
0.0
 11
1214.12028248235
 21
135.6123602113846
 31
0.0
  0
LINE
  5
325
330
4F
100
AcDbEntity
  8
1
  6
Continuous
 62
     7
100
AcDbLine
 10
1039.12028248235
 20
-2.8876397886154
 30
0.0
 11
1119.12028248235
 21
-2.8876397886154
 31
0.0
  0
LINE
  5
326
330
4F
100
AcDbEntity
  8
1
  6
PHANTOM
 62
     4
100
AcDbLine
 10
1014.12028248235
 20
284.1123602113846
 30
0.0
 11
1014.12028248235
 21
-12.88763978861539
 31
0.0
  0
LINE
  5
327
330
4F
100
AcDbEntity
  8
1
  6
PHANTOM
 62
     4
100
AcDbLine
 10
1224.12028248235
 20
284.1123602113846
 30
0.0
 11
1014.12028248235
 21
284.1123602113846
 31
0.0
  0
LINE
  5
328
330
4F
100
AcDbEntity
  8
1
  6
PHANTOM
 62
     4
100
AcDbLine
 10
1224.12028248235
 20
-12.8876397886154
 30
0.0
 11
1224.12028248235
 21
284.1123602113846
 31
0.0
  0
LINE
  5
329
330
4F
100
AcDbEntity
  8
1
  6
PHANTOM
 62
     4
100
AcDbLine
 10
1014.12028248235
 20
-12.8876397886154
 30
0.0
 11
1224.12028248235
 21
-12.8876397886154
 31
0.0
  0
LINE
  5
32A
330
4F
100
AcDbEntity
  8
1
  6
Continuous
 62
     7
100
AcDbLine
 10
1039.12028248235
 20
28.1123602113846
 30
0.0
 11
1214.12028248235
 21
28.1123602113846
 31
0.0
  0
LINE
  5
32B
330
4F
100
AcDbEntity
  8
1
  6
Continuous
 62
     7
100
AcDbLine
 10
1214.12028248235
 20
14.11236021138461
 30
0.0
 11
1039.12028248235
 21
14.11236021138461
 31
0.0
  0
LINE
  5
32C
330
4F
100
AcDbEntity
  8
1
  6
Continuous
 62
     2
100
AcDbLine
 10
1047.12028248235
 20
28.11236021138461
 30
0.0
 11
1047.12028248235
 21
14.11236021138461
 31
0.0
  0
LINE
  5
32D
330
4F
100
AcDbEntity
  8
1
  6
Continuous
 62
     2
100
AcDbLine
 10
1069.12028248235
 20
274.1123602113849
 30
0.0
 11
1069.12028248235
 21
264.1123602113849
 31
0.0
  0
LINE
  5
32E
330
4F
100
AcDbEntity
  8
1
  6
Continuous
 62
     2
100
AcDbLine
 10
1054.12028248235
 20
274.1123602113849
 30
0.0
 11
1054.12028248235
 21
264.1123602113849
 31
0.0
  0
LINE
  5
32F
330
4F
100
AcDbEntity
  8
1
  6
Continuous
 62
     7
100
AcDbLine
 10
1039.12028248235
 20
-2.8876397886154
 30
0.0
 11
1039.12028248235
 21
135.6123602113846
 31
0.0
  0
LINE
  5
330
330
4F
100
AcDbEntity
  8
1
  6
Continuous
 62
     2
100
AcDbLine
 10
1069.12028248235
 20
264.1123602113849
 30
0.0
 11
1039.12028248235
 21
264.1123602113849
 31
0.0
  0
LINE
  5
331
330
4F
100
AcDbEntity
  8
1
  6
Continuous
 62
     2
100
AcDbLine
 10
1180.12028248235
 20
14.11236021138461
 30
0.0
 11
1180.12028248235
 21
-2.88763978861539
 31
0.0
  0
LINE
  5
332
330
4F
100
AcDbEntity
  8
1
  6
Continuous
 62
     2
100
AcDbLine
 10
1146.12028248235
 20
14.11236021138461
 30
0.0
 11
1146.12028248235
 21
-2.88763978861541
 31
0.0
  0
LINE
  5
333
330
4F
100
AcDbEntity
  8
1
  6
Continuous
 62
     2
100
AcDbLine
 10
1163.12028248235
 20
14.11236021138461
 30
0.0
 11
1163.12028248235
 21
-2.88763978861539
 31
0.0
  0
LINE
  5
334
330
4F
100
AcDbEntity
  8
1
  6
Continuous
 62
     2
100
AcDbLine
 10
1129.12028248235
 20
14.11236021138461
 30
0.0
 11
1129.12028248235
 21
-2.88763978861541
 31
0.0
  0
LINE
  5
335
330
4F
100
AcDbEntity
  8
1
  6
Continuous
 62
     2
100
AcDbLine
 10
1112.12028248235
 20
14.11236021138461
 30
0.0
 11
1112.12028248235
 21
-2.88763978861541
 31
0.0
  0
LINE
  5
336
330
4F
100
AcDbEntity
  8
1
  6
Continuous
 62
     2
100
AcDbLine
 10
1180.12028248235
 20
7.11236021138461
 30
0.0
 11
1214.12028248235
 21
7.11236021138461
 31
0.0
  0
LINE
  5
337
330
4F
100
AcDbEntity
  8
1
  6
Continuous
 62
     2
100
AcDbLine
 10
1119.12028248235
 20
274.1123602113849
 30
0.0
 11
1119.12028248235
 21
279.1123602113849
 31
0.0
  0
LINE
  5
338
330
4F
100
AcDbEntity
  8
1
  6
Continuous
 62
     7
100
AcDbLine
 10
1119.12028248235
 20
274.1123602113849
 30
0.0
 11
1039.12028248235
 21
274.1123602113849
 31
0.0
  0
LINE
  5
339
330
4F
100
AcDbEntity
  8
1
  6
Continuous
 62
     7
100
AcDbLine
 10
1039.12028248235
 20
135.6123602113846
 30
0.0
 11
1039.12028248235
 21
274.1123602113849
 31
0.0
  0
LINE
  5
33A
330
4F
100
AcDbEntity
  8
1
  6
Continuous
 62
     2
100
AcDbLine
 10
1214.12028248235
 20
135.6123602113846
 30
0.0
 11
1219.12028248235
 21
135.6123602113846
 31
0.0
  0
LINE
  5
33B
330
4F
100
AcDbEntity
  8
1
  6
Continuous
 62
     7
100
AcDbLine
 10
1214.12028248235
 20
135.6123602113846
 30
0.0
 11
1214.12028248235
 21
274.1123602113849
 31
0.0
  0
LINE
  5
33C
330
4F
100
AcDbEntity
  8
1
  6
Continuous
 62
     2
100
AcDbLine
 10
1119.12028248235
 20
-2.8876397886154
 30
0.0
 11
1119.12028248235
 21
-7.8876397886154
 31
0.0
  0
LINE
  5
33D
330
4F
100
AcDbEntity
  8
1
  6
Continuous
 62
     7
100
AcDbLine
 10
1119.12028248235
 20
-2.8876397886154
 30
0.0
 11
1214.12028248235
 21
-2.88763978861539
 31
0.0
  0
CIRCLE
  5
33E
330
4F
100
AcDbEntity
  8
1
  6
DOT_CENTER
 62
     7
100
AcDbCircle
 10
1103.62028248235
 20
5.1123602113846
 30
0.0
 40
0.1000000000001364
  0
CIRCLE
  5
33F
330
4F
100
AcDbEntity
  8
1
  6
DOT_CENTER
 62
     7
100
AcDbCircle
 10
1103.62028248235
 20
3.1123602113846
 30
0.0
 40
0.1000000000001364
  0
CIRCLE
  5
340
330
4F
100
AcDbEntity
  8
1
  6
Continuous
 62
     7
100
AcDbCircle
 10
1201.12028248235
 20
10.61236021138461
 30
0.0
 40
2.0
  0
CIRCLE
  5
341
330
4F
100
AcDbEntity
  8
1
  6
Continuous
 62
     7
100
AcDbCircle
 10
1201.12028248235
 20
10.61236021138461
 30
0.0
 40
1.200000000000046
  0
CIRCLE
  5
342
330
4F
100
AcDbEntity
  8
1
  6
Continuous
 62
     7
100
AcDbCircle
 10
1168.62028248235
 20
-0.3876397886154
 30
0.0
 40
0.3000000000001819
  0
CIRCLE
  5
343
330
4F
100
AcDbEntity
  8
1
  6
Continuous
 62
     7
100
AcDbCircle
 10
1174.62028248235
 20
-0.3876397886154
 30
0.0
 40
0.3000000000001819
  0
CIRCLE
  5
344
330
4F
100
AcDbEntity
  8
1
  6
Continuous
 62
     7
100
AcDbCircle
 10
1157.62028248235
 20
-0.3876397886154
 30
0.0
 40
0.3000000000001819
  0
CIRCLE
  5
345
330
4F
100
AcDbEntity
  8
1
  6
Continuous
 62
     7
100
AcDbCircle
 10
1151.62028248235
 20
-0.3876397886154
 30
0.0
 40
0.3000000000001819
  0
CIRCLE
  5
346
330
4F
100
AcDbEntity
  8
1
  6
Continuous
 62
     7
100
AcDbCircle
 10
1140.62028248235
 20
-0.3876397886154
 30
0.0
 40
0.3000000000001819
  0
CIRCLE
  5
347
330
4F
100
AcDbEntity
  8
1
  6
Continuous
 62
     7
100
AcDbCircle
 10
1134.62028248235
 20
-0.3876397886154
 30
0.0
 40
0.3000000000001819
  0
CIRCLE
  5
348
330
4F
100
AcDbEntity
  8
1
  6
Continuous
 62
     7
100
AcDbCircle
 10
1123.62028248235
 20
-0.3876397886154
 30
0.0
 40
0.3000000000001819
  0
CIRCLE
  5
349
330
4F
100
AcDbEntity
  8
1
  6
Continuous
 62
     7
100
AcDbCircle
 10
1117.62028248235
 20
-0.3876397886154
 30
0.0
 40
0.3000000000001819
  0
MTEXT
  5
34B
330
4F
100
AcDbEntity
  8
1
 62
   250
100
AcDbMText
 10
1039.12028248235
 20
-7.8876397886154
 30
0.0
 40
3.5
 41
0.0
 71
     4
 72
     1
  1
備考欄の文字列 原点位置=4
  7
CONVERTER_1
 73
     1
 44
0.7202881152461
  0
MTEXT
  5
34C
330
4F
100
AcDbEntity
  8
1
 62
     2
100
AcDbMText
 10
1103.62028248235
 20
11.11236021138461
 30
0.0
 40
3.5
 41
0.0
 71
     5
 72
     1
  1
尺度
  7
CONVERTER_1
 73
     1
 44
0.7202881152461
  0
MTEXT
  5
34D
330
4F
100
AcDbEntity
  8
1
 62
     2
100
AcDbMText
 10
1149.62028248235
 20
12.11236021138461
 30
0.0
 40
3.0
 41
0.0
 71
     5
 72
     1
  1
製図
  7
CONVERTER_1
 73
     1
 44
0.78031212484994
  0
MTEXT
  5
34E
330
4F
100
AcDbEntity
  8
1
 62
     2
100
AcDbMText
 10
1166.62028248235
 20
12.11236021138461
 30
0.0
 40
3.0
 41
0.0
 71
     5
 72
     1
  1
設計
  7
CONVERTER_1
 73
     1
 44
0.78031212484994
  0
MTEXT
  5
34F
330
4F
100
AcDbEntity
  8
1
 62
     2
100
AcDbMText
 10
1132.62028248235
 20
12.11236021138461
 30
0.0
 40
3.0
 41
0.0
 71
     5
 72
     1
  1
検図
  7
CONVERTER_1
 73
     1
 44
0.78031212484994
  0
MTEXT
  5
350
330
4F
100
AcDbEntity
  8
1
 62
     2
100
AcDbMText
 10
1189.12028248235
 20
10.61236021138461
 30
0.0
 40
3.5
 41
0.0
 71
     5
 72
     1
  1
第三角法
  7
CONVERTER_1
 73
     1
 44
0.7202881152461
  0
MTEXT
  5
351
330
4F
100
AcDbEntity
  8
1
 62
     2
100
AcDbMText
 10
1115.62028248235
 20
12.11236021138461
 30
0.0
 40
3.0
 41
0.0
 71
     5
 72
     1
  1
承認
  7
CONVERTER_1
 73
     1
 44
0.78031212484994
  0
MTEXT
  5
352
330
4F
100
AcDbEntity
  8
1
 62
     2
100
AcDbMText
 10
1043.12028248235
 20
1.3623602113846
 30
0.0
 40
3.5
 41
0.0
 71
     5
 72
     1
  1
品番
  7
CONVERTER_1
 73
     1
 44
0.96038415366146
  0
MTEXT
  5
353
330
4F
100
AcDbEntity
  8
1
 62
     2
100
AcDbMText
 10
1043.12028248235
 20
9.8623602113846
 30
0.0
 40
3.5
 41
0.0
 71
     5
 72
     1
  1
品名
  7
CONVERTER_1
 73
     1
 44
0.96038415366146
  0
MTEXT
  5
354
330
4F
100
AcDbEntity
  8
1
 62
     2
100
AcDbMText
 10
1043.12028248235
 20
21.11236021138461
 30
0.0
 40
3.5
 41
0.0
 71
     5
 72
     1
  1
備考
  7
CONVERTER_1
 73
     1
 44
0.60024009603842
  0
MTEXT
  5
355
330
4F
100
AcDbEntity
  8
1
 62
     2
100
AcDbMText
 10
1046.62028248235
 20
269.1123602113849
 30
0.0
 40
5.0
 41
0.0
 71
     5
 72
     1
  1
図番
  7
CONVERTER_1
 73
     1
 44
0.60024009603842
  0
MTEXT
  5
356
330
4F
100
AcDbEntity
  8
1
 62
     7
100
AcDbMText
 10
1185.62028248235
 20
2.1123602113846
 30
0.0
 40
2.5
 41
0.0
 71
     5
 72
     1
  1
株式会社
  7
CONVERTER_1
 73
     1
 44
1.32052821128451
  0
MTEXT
  5
357
330
4F
100
AcDbEntity
  8
1
 62
     7
100
AcDbMText
 10
1202.62028248235
 20
2.1123602113846
 30
0.0
 40
3.0
 41
0.0
 71
     5
 72
     1
  1
三栄水栓製作所
  7
CONVERTER_1
 73
     1
 44
1.32052821128451
  0
ENDBLK
  5
51
330
4F
100
AcDbEntity
  8
0
100
AcDbBlockEnd
  0
BLOCK
  5
53
330
52
100
AcDbEntity
  8
0
100
AcDbBlockBegin
  2
A1071-0-M1__1
 70
     0
 71
     0
 10
649.506462448826
 20
80.47389719391001
 30
0.0
  3
A1071-0-M1__1
  1

  0
LINE
  5
358
330
52
100
AcDbEntity
  8
1
  6
Continuous
 62
     7
100
AcDbLine
 10
1385.718662811943
 20
404.9695867975217
 30
0.0
 11
1385.718662811943
 21
383.9695867975222
 31
0.0
  0
LINE
  5
359
330
52
100
AcDbEntity
  8
1
  6
Continuous
 62
     7
100
AcDbLine
 10
1374.954776993508
 20
404.9695867975217
 30
0.0
 11
1385.718662811943
 21
404.9695867975217
 31
0.0
  0
LINE
  5
35A
330
52
100
AcDbEntity
  8
1
  6
Continuous
 62
     7
100
AcDbLine
 10
1374.954776993508
 20
383.9695867975222
 30
0.0
 11
1372.903162811942
 21
383.9695867975222
 31
0.0
  0
LINE
  5
35B
330
52
100
AcDbEntity
  8
1
  6
Continuous
 62
     7
100
AcDbLine
 10
1374.954776993508
 20
404.9695867975217
 30
0.0
 11
1374.954776993508
 21
383.9695867975222
 31
0.0
  0
LINE
  5
35C
330
52
100
AcDbEntity
  8
1
  6
Continuous
 62
     7
100
AcDbLine
 10
1385.718662811943
 20
383.9695867975222
 30
0.0
 11
1386.903162811942
 21
385.1540867975223
 31
0.0
  0
LINE
  5
35D
330
52
100
AcDbEntity
  8
1
  6
Continuous
 62
     2
100
AcDbLine
 10
1386.903162811942
 20
385.1540867975223
 30
0.0
 11
1374.954776993507
 21
385.1540867975223
 31
0.0
  0
LINE
  5
35E
330
52
100
AcDbEntity
  8
1
  6
Continuous
 62
     7
100
AcDbLine
 10
1385.718662811943
 20
383.9695867975222
 30
0.0
 11
1374.954776993508
 21
383.9695867975222
 31
0.0
  0
LINE
  5
35F
330
52
100
AcDbEntity
  8
1
  6
Continuous
 62
     2
100
AcDbLine
 10
1374.954776993507
 20
385.1540867975223
 30
0.0
 11
1372.903162811942
 21
383.9695867975222
 31
0.0
  0
LINE
  5
360
330
52
100
AcDbEntity
  8
1
  6
Continuous
 62
     2
100
AcDbLine
 10
1372.903162811942
 20
404.9695867975217
 30
0.0
 11
1374.954776993508
 21
403.7850867975217
 31
0.0
  0
LINE
  5
361
330
52
100
AcDbEntity
  8
1
  6
Continuous
 62
     7
100
AcDbLine
 10
1386.903162811942
 20
385.1540867975223
 30
0.0
 11
1386.903162811942
 21
403.7850867975217
 31
0.0
  0
LINE
  5
362
330
52
100
AcDbEntity
  8
1
  6
Continuous
 62
     7
100
AcDbLine
 10
1386.903162811942
 20
403.7850867975217
 30
0.0
 11
1385.718662811943
 21
404.9695867975217
 31
0.0
  0
LINE
  5
363
330
52
100
AcDbEntity
  8
1
  6
Continuous
 62
     2
100
AcDbLine
 10
1374.954776993508
 20
403.7850867975217
 30
0.0
 11
1386.903162811942
 21
403.7850867975217
 31
0.0
  0
LINE
  5
364
330
52
100
AcDbEntity
  8
1
  6
Continuous
 62
     2
100
AcDbLine
 10
1374.954776993508
 20
403.7850867975217
 30
0.0
 11
1386.903162811942
 21
403.7850867975217
 31
0.0
  0
LINE
  5
365
330
52
100
AcDbEntity
  8
1
  6
Continuous
 62
     7
100
AcDbLine
 10
1372.903162811942
 20
404.9695867975217
 30
0.0
 11
1374.954776993508
 21
404.9695867975217
 31
0.0
  0
LINE
  5
366
330
52
100
AcDbEntity
  8
1
  6
Continuous
 62
     7
100
AcDbLine
 10
1386.903162811942
 20
403.7850867975217
 30
0.0
 11
1385.718662811943
 21
404.9695867975217
 31
0.0
  0
LINE
  5
367
330
52
100
AcDbEntity
  8
LEVER_BODY
  6
Continuous
 62
     7
100
AcDbLine
 10
1372.903162811942
 20
371.4695867975217
 30
0.0
 11
1371.403162811942
 21
371.4695867975217
 31
0.0
  0
LINE
  5
368
330
52
100
AcDbEntity
  8
LEVER_BODY
  6
Continuous
 62
     7
100
AcDbLine
 10
1372.903162811942
 20
417.4695867975217
 30
0.0
 11
1371.403162811942
 21
417.4695867975217
 31
0.0
  0
LINE
  5
369
330
52
100
AcDbEntity
  8
LEVER_BODY
  6
Continuous
 62
     7
100
AcDbLine
 10
1349.886610636221
 20
407.2195867975217
 30
0.0
 11
1362.403162811942
 21
407.2195867975217
 31
0.0
  0
LINE
  5
36A
330
52
100
AcDbEntity
  8
LEVER_BODY
  6
Continuous
 62
     7
100
AcDbLine
 10
1349.886610636221
 20
381.7195867975217
 30
0.0
 11
1362.403162811942
 21
381.7195867975217
 31
0.0
  0
LINE
  5
36B
330
52
100
AcDbEntity
  8
LEVER_BODY
  6
Continuous
 62
     7
100
AcDbLine
 10
1370.403162811942
 20
372.4695867975217
 30
0.0
 11
1370.403162811942
 21
373.7195867975217
 31
0.0
  0
LINE
  5
36C
330
52
100
AcDbEntity
  8
LEVER_BODY
  6
Continuous
 62
     7
100
AcDbLine
 10
1372.903162811942
 20
417.4695867975217
 30
0.0
 11
1372.903162811942
 21
371.4695867975217
 31
0.0
  0
LINE
  5
36D
330
52
100
AcDbEntity
  8
LEVER_BODY
  6
Continuous
 62
     7
100
AcDbLine
 10
1316.403162811942
 20
410.4695867975217
 30
0.0
 11
1320.905339304394
 21
410.4695867975217
 31
0.0
  0
LINE
  5
36E
330
52
100
AcDbEntity
  8
LEVER_BODY
  6
Continuous
 62
     7
100
AcDbLine
 10
1316.403162811942
 20
378.4695867975217
 30
0.0
 11
1321.350913047912
 21
378.4695867975217
 31
0.0
  0
LINE
  5
36F
330
52
100
AcDbEntity
  8
1
  6
Continuous
 62
     7
100
AcDbLine
 10
1303.330203401159
 20
219.5294432033884
 30
0.0
 11
1303.330203401159
 21
221.2614940109588
 31
0.0
  0
LINE
  5
370
330
52
100
AcDbEntity
  8
1
  6
Continuous
 62
     7
100
AcDbLine
 10
1303.330203401159
 20
221.2614940109588
 30
0.0
 11
1303.330203401159
 21
224.5294432033874
 31
0.0
  0
LINE
  5
371
330
52
100
AcDbEntity
  8
1
  6
Continuous
 62
     2
100
AcDbLine
 10
1374.881817582724
 20
248.8449432033872
 30
0.0
 11
1386.830203401159
 21
248.8449432033872
 31
0.0
  0
LINE
  5
372
330
52
100
AcDbEntity
  8
1
  6
Continuous
 62
     7
100
AcDbLine
 10
1303.330203401159
 20
224.5294432033874
 30
0.0
 11
1301.637965676057
 21
224.5294432033878
 31
0.0
  0
LINE
  5
373
330
52
100
AcDbEntity
  8
1
  6
Continuous
 62
     2
100
AcDbLine
 10
1304.330203401159
 20
219.5294432033884
 30
0.0
 11
1304.330203401159
 21
218.0294432033884
 31
0.0
  0
LINE
  5
374
330
52
100
AcDbEntity
  8
1
  6
Continuous
 62
     7
100
AcDbLine
 10
1303.330203401159
 20
219.5294432033884
 30
0.0
 11
1304.330203401159
 21
219.5294432033884
 31
0.0
  0
LINE
  5
375
330
52
100
AcDbEntity
  8
1
  6
Continuous
 62
     2
100
AcDbLine
 10
1304.330203401159
 20
219.5294432033884
 30
0.0
 11
1303.330203401159
 21
221.2614940109588
 31
0.0
  0
LINE
  5
376
330
52
100
AcDbEntity
  8
1
  6
Continuous
 62
     7
100
AcDbLine
 10
1386.830203401159
 20
230.2139432033871
 30
0.0
 11
1386.830203401159
 21
233.0294432033871
 31
0.0
  0
LINE
  5
377
330
52
100
AcDbEntity
  8
1
  6
Continuous
 62
     7
100
AcDbLine
 10
1374.881817582723
 20
229.0294432033871
 30
0.0
 11
1372.830203401159
 21
229.0294432033871
 31
0.0
  0
LINE
  5
378
330
52
100
AcDbEntity
  8
1
  6
Continuous
 62
     2
100
AcDbLine
 10
1374.881817582723
 20
230.2139432033871
 30
0.0
 11
1372.830203401159
 21
229.0294432033871
 31
0.0
  0
LINE
  5
379
330
52
100
AcDbEntity
  8
1
  6
Continuous
 62
     7
100
AcDbLine
 10
1385.645703401159
 20
229.0294432033871
 30
0.0
 11
1386.830203401159
 21
230.2139432033871
 31
0.0
  0
LINE
  5
37A
330
52
100
AcDbEntity
  8
1
  6
Continuous
 62
     7
100
AcDbLine
 10
1374.881817582723
 20
229.0294432033871
 30
0.0
 11
1374.881817582723
 21
230.2139432033871
 31
0.0
  0
LINE
  5
37B
330
52
100
AcDbEntity
  8
1
  6
Continuous
 62
     7
100
AcDbLine
 10
1385.645703401159
 20
229.0294432033871
 30
0.0
 11
1374.881817582723
 21
229.0294432033871
 31
0.0
  0
LINE
  5
37C
330
52
100
AcDbEntity
  8
1
  6
Continuous
 62
     2
100
AcDbLine
 10
1386.830203401159
 20
230.2139432033871
 30
0.0
 11
1374.881817582723
 21
230.2139432033871
 31
0.0
  0
LINE
  5
37D
330
52
100
AcDbEntity
  8
1
  6
Continuous
 62
     7
100
AcDbLine
 10
1374.881817582724
 20
248.8449432033872
 30
0.0
 11
1374.881817582724
 21
250.0294432033871
 31
0.0
  0
LINE
  5
37E
330
52
100
AcDbEntity
  8
1
  6
Continuous
 62
     7
100
AcDbLine
 10
1386.830203401159
 20
248.8449432033872
 30
0.0
 11
1385.645703401159
 21
250.0294432033871
 31
0.0
  0
LINE
  5
37F
330
52
100
AcDbEntity
  8
1
  6
Continuous
 62
     2
100
AcDbLine
 10
1374.881817582724
 20
248.8449432033872
 30
0.0
 11
1374.881817582724
 21
248.8449432033872
 31
0.0
  0
LINE
  5
380
330
52
100
AcDbEntity
  8
1
  6
Continuous
 62
     2
100
AcDbLine
 10
1372.830203401159
 20
250.0294432033871
 30
0.0
 11
1374.881817582724
 21
248.8449432033872
 31
0.0
  0
LINE
  5
381
330
52
100
AcDbEntity
  8
1
  6
Continuous
 62
     7
100
AcDbLine
 10
1372.830203401159
 20
250.0294432033871
 30
0.0
 11
1385.645703401159
 21
250.0294432033871
 31
0.0
  0
LINE
  5
382
330
52
100
AcDbEntity
  8
1
  6
Continuous
 62
     7
100
AcDbLine
 10
1372.830203401159
 20
254.5294432033871
 30
0.0
 11
1372.830203401159
 21
250.0294432033871
 31
0.0
  0
LINE
  5
383
330
52
100
AcDbEntity
  8
1
  6
Continuous
 62
     7
100
AcDbLine
 10
1372.830203401159
 20
224.529443203388
 30
0.0
 11
1372.830203401159
 21
229.0294432033871
 31
0.0
  0
LINE
  5
384
330
52
100
AcDbEntity
  8
1
  6
Continuous
 62
     7
100
AcDbLine
 10
1372.830203401159
 20
254.5294432033871
 30
0.0
 11
1372.830203401159
 21
262.5294432033873
 31
0.0
  0
LINE
  5
385
330
52
100
AcDbEntity
  8
1
  6
Continuous
 62
     7
100
AcDbLine
 10
1372.830203401159
 20
262.5294432033873
 30
0.0
 11
1371.274475311158
 21
262.5294432033873
 31
0.0
  0
LINE
  5
386
330
52
100
AcDbEntity
  8
1
  6
Continuous
 62
     7
100
AcDbLine
 10
1372.830203401159
 20
224.529443203388
 30
0.0
 11
1372.830203401159
 21
216.5294432033871
 31
0.0
  0
LINE
  5
387
330
52
100
AcDbEntity
  8
1
  6
Continuous
 62
     7
100
AcDbLine
 10
1371.274475311158
 20
216.5294432033871
 30
0.0
 11
1372.830203401159
 21
216.5294432033871
 31
0.0
  0
LINE
  5
388
330
52
100
AcDbEntity
  8
1
  6
Continuous
 62
     7
100
AcDbLine
 10
1362.330203401159
 20
254.5294432033871
 30
0.0
 11
1345.580203401159
 21
254.5294432033873
 31
0.0
  0
LINE
  5
389
330
52
100
AcDbEntity
  8
1
  6
Continuous
 62
     7
100
AcDbLine
 10
1329.330203401159
 20
220.5294432033884
 30
0.0
 11
1329.330203401161
 21
221.2614940109571
 31
0.0
  0
LINE
  5
38A
330
52
100
AcDbEntity
  8
1
  6
Continuous
 62
     7
100
AcDbLine
 10
1328.330203401159
 20
219.5294432033884
 30
0.0
 11
1328.330203401161
 21
219.5294432033883
 31
0.0
  0
LINE
  5
38B
330
52
100
AcDbEntity
  8
1
  6
Continuous
 62
     7
100
AcDbLine
 10
1329.330203401159
 20
224.5294432033877
 30
0.0
 11
1362.330203401159
 21
224.5294432033871
 31
0.0
  0
LINE
  5
38C
330
52
100
AcDbEntity
  8
1
  6
Continuous
 62
     2
100
AcDbLine
 10
1344.830203401159
 20
257.6212828968343
 30
0.0
 11
1344.594553670348
 21
258.0294402033877
 31
0.0
  0
LINE
  5
38D
330
52
100
AcDbEntity
  8
1
  6
Continuous
 62
     7
100
AcDbLine
 10
1344.830203401159
 20
257.6212828968343
 30
0.0
 11
1344.830203401159
 21
257.6120188983879
 31
0.0
  0
LINE
  5
38E
330
52
100
AcDbEntity
  8
1
  6
Continuous
 62
     7
100
AcDbLine
 10
1344.830203401159
 20
257.6212828968343
 30
0.0
 11
1344.830203401159
 21
258.0294402033877
 31
0.0
  0
LINE
  5
38F
330
52
100
AcDbEntity
  8
1
  6
Continuous
 62
     7
100
AcDbLine
 10
1344.830203401159
 20
257.6212828968343
 30
0.0
 11
1344.830203401159
 21
257.6120188983879
 31
0.0
  0
LINE
  5
390
330
52
100
AcDbEntity
  8
1
  6
Continuous
 62
     7
100
AcDbLine
 10
1344.830203401159
 20
257.6212828968343
 30
0.0
 11
1344.830203401159
 21
257.6120188983879
 31
0.0
  0
LINE
  5
391
330
52
100
AcDbEntity
  8
1
  6
Continuous
 62
     7
100
AcDbLine
 10
1345.580203401159
 20
256.3222447911559
 30
0.0
 11
1344.830203401159
 21
257.6120188983879
 31
0.0
  0
LINE
  5
392
330
52
100
AcDbEntity
  8
1
  6
Continuous
 62
     7
100
AcDbLine
 10
1345.580203401159
 20
256.3222447911559
 30
0.0
 11
1345.580203401159
 21
254.5294432033873
 31
0.0
  0
LINE
  5
393
330
52
100
AcDbEntity
  8
1
  6
Continuous
 62
     7
100
AcDbLine
 10
1320.830203401159
 20
257.6120188983879
 30
0.0
 11
1320.080203401159
 21
256.3222447911559
 31
0.0
  0
LINE
  5
394
330
52
100
AcDbEntity
  8
1
  6
Continuous
 62
     7
100
AcDbLine
 10
1320.080203401159
 20
254.5291379524286
 30
0.0
 11
1320.080203401159
 21
256.3222447911559
 31
0.0
  0
LINE
  5
395
330
52
100
AcDbEntity
  8
1
  6
Continuous
 62
     7
100
AcDbLine
 10
1320.830203401159
 20
257.6120188983879
 30
0.0
 11
1320.830203401159
 21
258.0294402033877
 31
0.0
  0
LINE
  5
396
330
52
100
AcDbEntity
  8
1
  6
Continuous
 62
     7
100
AcDbLine
 10
1316.829943368103
 20
254.5291379524286
 30
0.0
 11
1320.080203401159
 21
254.5291379524286
 31
0.0
  0
LINE
  5
397
330
52
100
AcDbEntity
  8
1
  6
Continuous
 62
     2
100
AcDbLine
 10
1328.330203401161
 20
219.5294432033883
 30
0.0
 11
1329.330203401161
 21
221.2614940109571
 31
0.0
  0
LINE
  5
398
330
52
100
AcDbEntity
  8
1
  6
Continuous
 62
     7
100
AcDbLine
 10
1329.330203401161
 20
221.2614940109571
 30
0.0
 11
1329.330203401159
 21
224.5294432033877
 31
0.0
  0
LINE
  5
399
330
52
100
AcDbEntity
  8
1
  6
Continuous
 62
     7
100
AcDbLine
 10
1328.330203401161
 20
219.5294432033883
 30
0.0
 11
1329.330203401159
 21
219.5294432033884
 31
0.0
  0
LINE
  5
39A
330
52
100
AcDbEntity
  8
1
  6
Continuous
 62
     7
100
AcDbLine
 10
1386.830203401159
 20
246.0294432033871
 30
0.0
 11
1386.830203401159
 21
248.8449432033872
 31
0.0
  0
LINE
  5
39B
330
52
100
AcDbEntity
  8
1
  6
Continuous
 62
     7
100
AcDbLine
 10
1386.830203401159
 20
233.0294432033871
 30
0.0
 11
1386.830203401159
 21
246.0294432033871
 31
0.0
  0
LINE
  5
39C
330
52
100
AcDbEntity
  8
LEVER_BODY
  6
Continuous
 62
     7
100
AcDbLine
 10
1370.403162811942
 20
415.2195867975217
 30
0.0
 11
1370.403162811942
 21
416.4695867975217
 31
0.0
  0
LINE
  5
39D
330
52
100
AcDbEntity
  8
LEVER_BODY
  6
Continuous
 62
     7
100
AcDbLine
 10
1370.403162811942
 20
373.7195867975217
 30
0.0
 11
1370.403162811942
 21
415.2195867975217
 31
0.0
  0
LINE
  5
39E
330
52
100
AcDbEntity
  8
1
  6
Continuous
 62
     7
100
AcDbLine
 10
1320.080203401159
 20
254.5291379524286
 30
0.0
 11
1345.580203401159
 21
254.5291379524286
 31
0.0
  0
LINE
  5
39F
330
52
100
AcDbEntity
  8
1
  6
Continuous
 62
     7
100
AcDbLine
 10
1320.080203401159
 20
256.3222447911559
 30
0.0
 11
1345.580203401159
 21
256.3222447911559
 31
0.0
  0
LINE
  5
3A0
330
52
100
AcDbEntity
  8
1
  6
Continuous
 62
     2
100
AcDbLine
 10
1321.065853131969
 20
258.0294402033877
 30
0.0
 11
1320.830203401159
 21
257.6212828968343
 31
0.0
  0
LINE
  5
3A1
330
52
100
AcDbEntity
  8
1
  6
Continuous
 62
     7
100
AcDbLine
 10
1372.830203401159
 20
250.0294432033871
 30
0.0
 11
1372.830203401159
 21
229.0294432033871
 31
0.0
  0
LINE
  5
3A2
330
52
100
AcDbEntity
  8
1
  6
Continuous
 62
     7
100
AcDbLine
 10
1374.881817582724
 20
248.8449432033872
 30
0.0
 11
1374.881817582723
 21
230.2139432033871
 31
0.0
  0
LINE
  5
3A3
330
52
100
AcDbEntity
  8
1
  6
Continuous
 62
     7
100
AcDbLine
 10
1370.280667321158
 20
261.6405543144983
 30
0.0
 11
1370.280667321158
 21
217.4183320922761
 31
0.0
  0
LINE
  5
3A4
330
52
100
AcDbEntity
  8
1
  6
Continuous
 62
     7
100
AcDbLine
 10
1329.330203401159
 20
218.0294432033884
 30
0.0
 11
1329.330203401159
 21
220.5294432033884
 31
0.0
  0
LINE
  5
3A5
330
52
100
AcDbEntity
  8
1
  6
Continuous
 62
     2
100
AcDbLine
 10
1328.330203401159
 20
218.0294432033884
 30
0.0
 11
1328.330203401159
 21
219.5294432033884
 31
0.0
  0
LINE
  5
3A6
330
52
100
AcDbEntity
  8
1
  6
Continuous
 62
     7
100
AcDbLine
 10
1303.330203401159
 20
218.0294432033884
 30
0.0
 11
1303.330203401159
 21
219.5294432033884
 31
0.0
  0
LINE
  5
3A7
330
52
100
AcDbEntity
  8
1
  6
Continuous
 62
     7
100
AcDbLine
 10
1303.330203401159
 20
224.5294432033874
 30
0.0
 11
1329.330203401159
 21
224.5294432033877
 31
0.0
  0
LINE
  5
3A8
330
52
100
AcDbEntity
  8
1
  6
Continuous
 62
     7
100
AcDbLine
 10
1097.918341773468
 20
225.0294432033874
 30
0.0
 11
1097.918341773468
 21
254.0291379524286
 31
0.0
  0
LINE
  5
3A9
330
52
100
AcDbEntity
  8
1
  6
Continuous
 62
     7
100
AcDbLine
 10
1094.668341773468
 20
256.3222447911559
 30
0.0
 11
1094.668341773468
 21
254.5294432033872
 31
0.0
  0
LINE
  5
3AA
330
52
100
AcDbEntity
  8
1
  6
Continuous
 62
     7
100
AcDbLine
 10
1094.668341773468
 20
256.3222447911559
 30
0.0
 11
1093.918341773468
 21
257.6120188983879
 31
0.0
  0
LINE
  5
3AB
330
52
100
AcDbEntity
  8
1
  6
Continuous
 62
     2
100
AcDbLine
 10
1093.918341773468
 20
257.6212828968343
 30
0.0
 11
1093.682692042657
 21
258.0294402033877
 31
0.0
  0
LINE
  5
3AC
330
52
100
AcDbEntity
  8
1
  6
Continuous
 62
     7
100
AcDbLine
 10
1093.918341773468
 20
257.6212828968343
 30
0.0
 11
1093.918341773468
 21
258.0294402033877
 31
0.0
  0
LINE
  5
3AD
330
52
100
AcDbEntity
  8
1
  6
Continuous
 62
     7
100
AcDbLine
 10
1069.918341773468
 20
257.6120188983879
 30
0.0
 11
1069.918341773468
 21
257.6212828968343
 31
0.0
  0
LINE
  5
3AE
330
52
100
AcDbEntity
  8
1
  6
Continuous
 62
     2
100
AcDbLine
 10
1070.153991504278
 20
258.0294402033877
 30
0.0
 11
1069.918341773468
 21
257.6212828968343
 31
0.0
  0
LINE
  5
3AF
330
52
100
AcDbEntity
  8
1
  6
Continuous
 62
     7
100
AcDbLine
 10
1069.918341773468
 20
257.6120188983879
 30
0.0
 11
1069.168341773468
 21
256.3222447911559
 31
0.0
  0
LINE
  5
3B0
330
52
100
AcDbEntity
  8
1
  6
Continuous
 62
     7
100
AcDbLine
 10
1069.168341773468
 20
254.5291379524286
 30
0.0
 11
1069.168341773468
 21
256.3222447911559
 31
0.0
  0
LINE
  5
3B1
330
52
100
AcDbEntity
  8
1
  6
Continuous
 62
     7
100
AcDbLine
 10
1066.418341773468
 20
254.5291379524286
 30
0.0
 11
1097.418341773468
 21
254.5291379524286
 31
0.0
  0
LINE
  5
3B2
330
52
100
AcDbEntity
  8
1
  6
Continuous
 62
     7
100
AcDbLine
 10
1065.918341773468
 20
254.0291379524286
 30
0.0
 11
1065.918341773468
 21
225.0294432033874
 31
0.0
  0
LINE
  5
3B3
330
52
100
AcDbEntity
  8
1
  6
Continuous
 62
     7
100
AcDbLine
 10
1066.418341773468
 20
224.5294432033874
 30
0.0
 11
1097.418341773468
 21
224.5294432033874
 31
0.0
  0
LINE
  5
3B4
330
52
100
AcDbEntity
  8
1
  6
Continuous
 62
     7
100
AcDbLine
 10
1068.918341773468
 20
221.2614940109588
 30
0.0
 11
1068.918341773468
 21
224.5294432033874
 31
0.0
  0
LINE
  5
3B5
330
52
100
AcDbEntity
  8
1
  6
Continuous
 62
     2
100
AcDbLine
 10
1069.918341773468
 20
219.5294432033884
 30
0.0
 11
1068.918341773468
 21
221.2614940109588
 31
0.0
  0
LINE
  5
3B6
330
52
100
AcDbEntity
  8
1
  6
Continuous
 62
     7
100
AcDbLine
 10
1068.918341773468
 20
219.5294432033884
 30
0.0
 11
1068.918341773468
 21
221.2614940109588
 31
0.0
  0
LINE
  5
3B7
330
52
100
AcDbEntity
  8
1
  6
Continuous
 62
     7
100
AcDbLine
 10
1068.918341773468
 20
218.0294432033884
 30
0.0
 11
1068.918341773468
 21
219.5294432033884
 31
0.0
  0
LINE
  5
3B8
330
52
100
AcDbEntity
  8
1
  6
Continuous
 62
     7
100
AcDbLine
 10
1068.918341773468
 20
219.5294432033884
 30
0.0
 11
1069.918341773468
 21
219.5294432033884
 31
0.0
  0
LINE
  5
3B9
330
52
100
AcDbEntity
  8
1
  6
Continuous
 62
     2
100
AcDbLine
 10
1069.918341773468
 20
219.5294432033884
 30
0.0
 11
1069.918341773468
 21
218.0294432033884
 31
0.0
  0
LINE
  5
3BA
330
52
100
AcDbEntity
  8
1
  6
Continuous
 62
     7
100
AcDbLine
 10
1094.91834177347
 20
221.2614940109571
 30
0.0
 11
1094.918341773468
 21
224.5294432033877
 31
0.0
  0
LINE
  5
3BB
330
52
100
AcDbEntity
  8
1
  6
Continuous
 62
     2
100
AcDbLine
 10
1093.91834177347
 20
219.5294432033883
 30
0.0
 11
1094.91834177347
 21
221.2614940109571
 31
0.0
  0
LINE
  5
3BC
330
52
100
AcDbEntity
  8
1
  6
Continuous
 62
     7
100
AcDbLine
 10
1094.918341773468
 20
218.0294432033884
 30
0.0
 11
1094.918341773468
 21
220.5294432033884
 31
0.0
  0
LINE
  5
3BD
330
52
100
AcDbEntity
  8
1
  6
Continuous
 62
     2
100
AcDbLine
 10
1093.918341773468
 20
218.0294432033884
 30
0.0
 11
1093.918341773468
 21
219.5294432033884
 31
0.0
  0
LINE
  5
3BE
330
52
100
AcDbEntity
  8
1
  6
Continuous
 62
     7
100
AcDbLine
 10
1093.91834177347
 20
219.5294432033883
 30
0.0
 11
1094.918341773468
 21
219.5294432033884
 31
0.0
  0
LINE
  5
3BF
330
52
100
AcDbEntity
  8
1
  6
Continuous
 62
     7
100
AcDbLine
 10
1094.918341773468
 20
220.5294432033884
 30
0.0
 11
1094.91834177347
 21
221.2614940109571
 31
0.0
  0
LINE
  5
3C0
330
52
100
AcDbEntity
  8
1
  6
Continuous
 62
     7
100
AcDbLine
 10
1069.168341773468
 20
256.3222447911559
 30
0.0
 11
1094.668341773468
 21
256.3222447911559
 31
0.0
  0
LINE
  5
3C1
330
52
100
AcDbEntity
  8
1
  6
Continuous
 62
     7
100
AcDbLine
 10
1069.918341773468
 20
257.6212828968343
 30
0.0
 11
1069.918341773468
 21
258.0294402033877
 31
0.0
  0
ARC
  5
3C2
330
52
100
AcDbEntity
  8
LEVER_BODY
  6
Continuous
 62
     7
100
AcDbCircle
 10
1316.403162811942
 20
394.4695867975217
 30
0.0
 40
15.99999999999967
100
AcDbArc
 50
-108.4621633815326
 51
-90.0
  0
ARC
  5
3C3
330
52
100
AcDbEntity
  8
LEVER_BODY
  6
Continuous
 62
     7
100
AcDbCircle
 10
1349.886610636221
 20
437.2195867975217
 30
0.0
 40
30.00000000000011
100
AcDbArc
 50
-96.14198593718515
 51
-90.0
  0
ARC
  5
3C4
330
52
100
AcDbEntity
  8
1
  6
Continuous
 62
     7
100
AcDbCircle
 10
1368.052844453292
 20
206.8194491626791
 30
0.0
 40
69.99999999998438
100
AcDbArc
 50
137.0337857174313
 51
164.2667343823221
  0
ARC
  5
3C5
330
52
100
AcDbEntity
  8
1
  6
Continuous
 62
     7
100
AcDbCircle
 10
1362.403162811942
 20
415.2195867975217
 30
0.0
 40
8.0
100
AcDbArc
 50
-90.0
 51
0.0
  0
ARC
  5
3C6
330
52
100
AcDbEntity
  8
1
  6
Continuous
 62
     7
100
AcDbCircle
 10
1362.403162811942
 20
373.7195867975217
 30
0.0
 40
8.0
100
AcDbArc
 50
0.0
 51
90.0
  0
ARC
  5
3C7
330
52
100
AcDbEntity
  8
LEVER_BODY
  6
Continuous
 62
     7
100
AcDbCircle
 10
1349.886610636221
 20
351.7195867975217
 30
0.0
 40
30.0
100
AcDbArc
 50
90.0
 51
96.93662588225413
  0
ARC
  5
3C8
330
52
100
AcDbEntity
  8
LEVER_BODY
  6
Continuous
 62
     7
100
AcDbCircle
 10
1316.403162811942
 20
394.4695867975217
 30
0.0
 40
16.0
100
AcDbArc
 50
90.0
 51
108.462163381529
  0
ARC
  5
3C9
330
52
100
AcDbEntity
  8
1
  6
Continuous
 62
     7
100
AcDbCircle
 10
1081.918341773468
 20
239.5294432033871
 30
0.0
 40
23.0
100
AcDbArc
 50
0.0
 51
53.5949399458359
  0
ARC
  5
3CA
330
52
100
AcDbEntity
  8
1
  6
Continuous
 62
     7
100
AcDbCircle
 10
1081.918341773468
 20
239.5294432033871
 30
0.0
 40
22.99999999999992
100
AcDbArc
 50
126.4050600541643
 51
-124.4173887104417
  0
ARC
  5
3CB
330
52
100
AcDbEntity
  8
1
  6
Continuous
 62
     7
100
AcDbCircle
 10
1081.918341773468
 20
239.5294432033871
 30
0.0
 40
22.99999999999994
100
AcDbArc
 50
-55.58261128955832
 51
0.0
  0
CIRCLE
  5
3CC
330
52
100
AcDbEntity
  8
1
  6
PHANTOM
 62
     4
100
AcDbCircle
 10
1081.918341773468
 20
239.5294432033871
 30
0.0
 40
23.0
  0
ARC
  5
3CD
330
52
100
AcDbEntity
  8
1
  6
Continuous
 62
     7
100
AcDbCircle
 10
1371.403162811942
 20
416.4695867975217
 30
0.0
 40
1.0
100
AcDbArc
 50
90.0
 51
180.0
  0
ARC
  5
3CE
330
52
100
AcDbEntity
  8
1
  6
Continuous
 62
     7
100
AcDbCircle
 10
1371.403162811942
 20
372.4695867975217
 30
0.0
 40
1.0
100
AcDbArc
 50
180.0
 51
-90.0
  0
ARC
  5
3CF
330
52
100
AcDbEntity
  8
1
  6
Continuous
 62
     7
100
AcDbCircle
 10
1301.637965676057
 20
225.5294432033878
 30
0.0
 40
0.9999999999994912
100
AcDbArc
 50
164.2667343823133
 51
-90.0
  0
ARC
  5
3D0
330
52
100
AcDbEntity
  8
1
  6
Continuous
 62
     7
100
AcDbCircle
 10
1362.330203401159
 20
216.5294432033871
 30
0.0
 40
7.999999999999799
100
AcDbArc
 50
6.37937020844376
 51
90.0
  0
ARC
  5
3D1
330
52
100
AcDbEntity
  8
1
  6
Continuous
 62
     7
100
AcDbCircle
 10
1362.330203401159
 20
262.5294432033871
 30
0.0
 40
7.999999999999972
100
AcDbArc
 50
-90.0
 51
-6.37937020844235
  0
ARC
  5
3D2
330
52
100
AcDbEntity
  8
1
  6
Continuous
 62
     7
100
AcDbCircle
 10
1371.274475311158
 20
261.5294432033873
 30
0.0
 40
1.0
100
AcDbArc
 50
90.0
 51
173.620629791566
  0
ARC
  5
3D3
330
52
100
AcDbEntity
  8
1
  6
Continuous
 62
     7
100
AcDbCircle
 10
1371.274475311158
 20
217.5294432033871
 30
0.0
 40
1.000000000000131
100
AcDbArc
 50
-173.6206297915644
 51
-90.0
  0
ARC
  5
3D4
330
52
100
AcDbEntity
  8
1
  6
Continuous
 62
     7
100
AcDbCircle
 10
1066.418341773468
 20
254.0291379524286
 30
0.0
 40
0.5
100
AcDbArc
 50
90.0
 51
180.0
  0
ARC
  5
3D5
330
52
100
AcDbEntity
  8
1
  6
Continuous
 62
     7
100
AcDbCircle
 10
1097.418341773468
 20
254.0291379524286
 30
0.0
 40
0.5
100
AcDbArc
 50
0.0
 51
90.0
  0
ARC
  5
3D6
330
52
100
AcDbEntity
  8
1
  6
Continuous
 62
     7
100
AcDbCircle
 10
1066.418341773468
 20
225.0294432033874
 30
0.0
 40
0.5
100
AcDbArc
 50
180.0
 51
-90.0
  0
ARC
  5
3D7
330
52
100
AcDbEntity
  8
1
  6
Continuous
 62
     7
100
AcDbCircle
 10
1097.418341773468
 20
225.0294432033874
 30
0.0
 40
0.5
100
AcDbArc
 50
-90.0
 51
0.0
  0
ENDBLK
  5
54
330
52
100
AcDbEntity
  8
0
100
AcDbBlockEnd
  0
BLOCK
  5
56
330
55
100
AcDbEntity
  8
0
100
AcDbBlockBegin
  2
32-238-M1
 70
     0
 71
     0
 10
1298.53891899518
 20
-15.87337604749001
 30
0.0
  3
32-238-M1
  1

  0
LINE
  5
3D8
330
55
100
AcDbEntity
  8
1
  6
Continuous
 62
     7
100
AcDbLine
 10
1332.830203401159
 20
258.0294402033877
 30
0.0
 11
1319.330203401159
 21
258.0294402033877
 31
0.0
  0
LINE
  5
3D9
330
55
100
AcDbEntity
  8
1
  6
Continuous
 62
     7
100
AcDbLine
 10
1318.330203401159
 20
259.0294402033877
 30
0.0
 11
1318.330203401159
 21
277.2294372033877
 31
0.0
  0
LINE
  5
3DA
330
55
100
AcDbEntity
  8
1
  6
Continuous
 62
     7
100
AcDbLine
 10
1321.330203401159
 20
278.2294372033877
 30
0.0
 11
1326.066328771925
 21
278.2294372033877
 31
0.0
  0
LINE
  5
3DB
330
55
100
AcDbEntity
  8
1
  6
Continuous
 62
     7
100
AcDbLine
 10
1321.330203401159
 20
278.2294372033877
 30
0.0
 11
1321.330203401159
 21
278.5294402033877
 31
0.0
  0
LINE
  5
3DC
330
55
100
AcDbEntity
  8
1
  6
Continuous
 62
     7
100
AcDbLine
 10
1319.330203401159
 20
278.2294372033877
 30
0.0
 11
1321.330203401159
 21
278.2294372033877
 31
0.0
  0
LINE
  5
3DD
330
55
100
AcDbEntity
  8
1
  6
Continuous
 62
     7
100
AcDbLine
 10
1326.066328771925
 20
278.2294372033877
 30
0.0
 11
1326.066328771925
 21
271.9294372033877
 31
0.0
  0
LINE
  5
3DE
330
55
100
AcDbEntity
  8
1
  6
Continuous
 62
     7
100
AcDbLine
 10
1326.066328771925
 20
278.2294372033877
 30
0.0
 11
1332.830203401159
 21
278.2294372033877
 31
0.0
  0
LINE
  5
3DF
330
55
100
AcDbEntity
  8
1
  6
Continuous
 62
     7
100
AcDbLine
 10
1326.066328771925
 20
271.9294372033877
 30
0.0
 11
1332.830203401159
 21
271.9294372033877
 31
0.0
  0
LINE
  5
3E0
330
55
100
AcDbEntity
  8
1
  6
Continuous
 62
     7
100
AcDbLine
 10
1332.830203401159
 20
271.9294372033877
 30
0.0
 11
1339.594078030394
 21
271.9294372033877
 31
0.0
  0
LINE
  5
3E1
330
55
100
AcDbEntity
  8
1
  6
Continuous
 62
     7
100
AcDbLine
 10
1332.830203401159
 20
278.2294372033877
 30
0.0
 11
1339.594078030394
 21
278.2294372033877
 31
0.0
  0
LINE
  5
3E2
330
55
100
AcDbEntity
  8
1
  6
Continuous
 62
     7
100
AcDbLine
 10
1339.594078030394
 20
271.9294372033877
 30
0.0
 11
1339.594078030394
 21
278.2294372033877
 31
0.0
  0
LINE
  5
3E3
330
55
100
AcDbEntity
  8
1
  6
Continuous
 62
     7
100
AcDbLine
 10
1340.83020340116
 20
278.5294402033877
 30
0.0
 11
1344.33020340116
 21
278.5294402033877
 31
0.0
  0
LINE
  5
3E4
330
55
100
AcDbEntity
  8
1
  6
Continuous
 62
     7
100
AcDbLine
 10
1344.33020340116
 20
278.2294372033877
 30
0.0
 11
1346.33020340116
 21
278.2294372033877
 31
0.0
  0
LINE
  5
3E5
330
55
100
AcDbEntity
  8
1
  6
Continuous
 62
     7
100
AcDbLine
 10
1344.33020340116
 20
278.5294402033877
 30
0.0
 11
1344.33020340116
 21
278.2294372033877
 31
0.0
  0
LINE
  5
3E6
330
55
100
AcDbEntity
  8
1
  6
Continuous
 62
     7
100
AcDbLine
 10
1339.594078030394
 20
278.2294372033877
 30
0.0
 11
1344.33020340116
 21
278.2294372033877
 31
0.0
  0
LINE
  5
3E7
330
55
100
AcDbEntity
  8
1
  6
Continuous
 62
     7
100
AcDbLine
 10
1347.33020340116
 20
277.2294372033877
 30
0.0
 11
1347.33020340116
 21
259.0294402033877
 31
0.0
  0
LINE
  5
3E8
330
55
100
AcDbEntity
  8
1
  6
Continuous
 62
     7
100
AcDbLine
 10
1346.33020340116
 20
258.0294402033877
 30
0.0
 11
1332.830203401159
 21
258.0294402033877
 31
0.0
  0
LINE
  5
3E9
330
55
100
AcDbEntity
  8
1
  6
Continuous
 62
     7
100
AcDbLine
 10
1340.83020340116
 20
279.1677377926552
 30
0.0
 11
1340.83020340116
 21
278.5294402033877
 31
0.0
  0
LINE
  5
3EA
330
55
100
AcDbEntity
  8
1
  6
Continuous
 62
     7
100
AcDbLine
 10
1338.385714401159
 20
278.5294402033877
 30
0.0
 11
1340.83020340116
 21
278.5294402033877
 31
0.0
  0
LINE
  5
3EB
330
55
100
AcDbEntity
  8
1
  6
Continuous
 62
     7
100
AcDbLine
 10
1081.918341773468
 20
258.0294402033877
 30
0.0
 11
1068.418341773468
 21
258.0294402033877
 31
0.0
  0
LINE
  5
3EC
330
55
100
AcDbEntity
  8
1
  6
Continuous
 62
     7
100
AcDbLine
 10
1067.418341773468
 20
259.0294402033877
 30
0.0
 11
1067.418341773468
 21
270.4294372033877
 31
0.0
  0
LINE
  5
3ED
330
55
100
AcDbEntity
  8
1
  6
Continuous
 62
     7
100
AcDbLine
 10
1070.418341773468
 20
278.2294372033879
 30
0.0
 11
1070.418341773468
 21
278.5294402033877
 31
0.0
  0
LINE
  5
3EE
330
55
100
AcDbEntity
  8
1
  6
Continuous
 62
     7
100
AcDbLine
 10
1070.418341773468
 20
278.2294372033879
 30
0.0
 11
1081.918341773468
 21
278.2294372033879
 31
0.0
  0
LINE
  5
3EF
330
55
100
AcDbEntity
  8
1
  6
Continuous
 62
     7
100
AcDbLine
 10
1081.918341773468
 20
278.2294372033879
 30
0.0
 11
1093.418341773468
 21
278.2294372033879
 31
0.0
  0
LINE
  5
3F0
330
55
100
AcDbEntity
  8
1
  6
Continuous
 62
     7
100
AcDbLine
 10
1093.418341773468
 20
278.5294402033877
 30
0.0
 11
1093.418341773468
 21
278.2294372033879
 31
0.0
  0
LINE
  5
3F1
330
55
100
AcDbEntity
  8
1
  6
Continuous
 62
     7
100
AcDbLine
 10
1096.418341773468
 20
270.4294372033877
 30
0.0
 11
1096.418341773468
 21
259.0294402033877
 31
0.0
  0
LINE
  5
3F2
330
55
100
AcDbEntity
  8
1
  6
Continuous
 62
     7
100
AcDbLine
 10
1095.418341773468
 20
258.0294402033877
 30
0.0
 11
1081.918341773468
 21
258.0294402033877
 31
0.0
  0
LINE
  5
3F3
330
55
100
AcDbEntity
  8
1
  6
Continuous
 62
     7
100
AcDbLine
 10
1068.918341773468
 20
278.2294372033879
 30
0.0
 11
1068.918341773468
 21
271.9294372033877
 31
0.0
  0
LINE
  5
3F4
330
55
100
AcDbEntity
  8
1
  6
Continuous
 62
     7
100
AcDbLine
 10
1068.918341773468
 20
278.2294372033879
 30
0.0
 11
1070.418341773468
 21
278.2294372033879
 31
0.0
  0
LINE
  5
3F5
330
55
100
AcDbEntity
  8
1
  6
Continuous
 62
     7
100
AcDbLine
 10
1068.918341773468
 20
271.9294372033877
 30
0.0
 11
1067.418341773468
 21
270.4294372033877
 31
0.0
  0
LINE
  5
3F6
330
55
100
AcDbEntity
  8
1
  6
Continuous
 62
     7
100
AcDbLine
 10
1096.418341773468
 20
270.4294372033877
 30
0.0
 11
1094.918341773468
 21
271.9294372033877
 31
0.0
  0
LINE
  5
3F7
330
55
100
AcDbEntity
  8
1
  6
Continuous
 62
     7
100
AcDbLine
 10
1094.918341773468
 20
271.9294372033877
 30
0.0
 11
1094.918341773468
 21
278.2294372033879
 31
0.0
  0
LINE
  5
3F8
330
55
100
AcDbEntity
  8
1
  6
Continuous
 62
     7
100
AcDbLine
 10
1093.418341773468
 20
278.2294372033879
 30
0.0
 11
1094.918341773468
 21
278.2294372033879
 31
0.0
  0
LINE
  5
3F9
330
55
100
AcDbEntity
  8
1
  6
Continuous
 62
     2
100
AcDbLine
 10
1068.918341773468
 20
271.9294372033877
 30
0.0
 11
1068.465004105852
 21
271.9294372033877
 31
0.0
  0
SPLINE
  5
3FA
330
55
100
AcDbEntity
  8
1
  6
Continuous
 62
     7
100
AcDbSpline
210
0.0
220
0.0
230
1.0
 70
     8
 71
     3
 72
     9
 73
     5
 74
     3
 42
0.0000000001
 43
0.0000000001
 44
0.00000001
 40
0.0
 40
0.0
 40
0.0
 40
0.0
 40
3.562349235373982
 40
6.96317845094905
 40
6.96317845094905
 40
6.96317845094905
 40
6.96317845094905
 10
1326.066328771925
 20
271.9294372033877
 30
0.0
 10
1327.179349016235
 20
271.4921100515679
 30
0.0
 10
1329.354924196704
 20
270.6372845422304
 30
0.0
 10
1331.687349613066
 20
270.4976399030633
 30
0.0
 10
1332.826510494119
 20
270.4294372033877
 30
0.0
 11
1326.066328771925
 21
271.9294372033877
 31
0.0
 11
1329.446442335927
 21
270.8046419468107
 31
0.0
 11
1332.826510494119
 21
270.4294372033877
 31
0.0
  0
SPLINE
  5
3FB
330
55
100
AcDbEntity
  8
1
  6
Continuous
 62
     7
100
AcDbSpline
210
0.0
220
0.0
230
1.0
 70
     8
 71
     3
 72
     9
 73
     5
 74
     3
 42
0.0000000001
 43
0.0000000001
 44
0.00000001
 40
0.0
 40
0.0
 40
0.0
 40
0.0
 40
3.562349235374629
 40
6.963178450949019
 40
6.963178450949019
 40
6.963178450949019
 40
6.963178450949019
 10
1339.594078030394
 20
271.9294372033877
 30
0.0
 10
1338.481057786084
 20
271.4921100515679
 30
0.0
 10
1336.305482605614
 20
270.6372845422306
 30
0.0
 10
1333.973057189253
 20
270.4976399030633
 30
0.0
 10
1332.8338963082
 20
270.4294372033877
 30
0.0
 11
1339.594078030394
 21
271.9294372033877
 31
0.0
 11
1336.213964466391
 21
270.8046419468107
 31
0.0
 11
1332.8338963082
 21
270.4294372033877
 31
0.0
  0
ARC
  5
3FC
330
55
100
AcDbEntity
  8
1
  6
Continuous
 62
     7
100
AcDbCircle
 10
1319.330203401159
 20
259.0294402033877
 30
0.0
 40
1.0
100
AcDbArc
 50
180.0
 51
-90.0
  0
ARC
  5
3FD
330
55
100
AcDbEntity
  8
1
  6
Continuous
 62
     7
100
AcDbCircle
 10
1319.330203401159
 20
277.2294372033877
 30
0.0
 40
1.0
100
AcDbArc
 50
90.0
 51
180.0
  0
ARC
  5
3FE
330
55
100
AcDbEntity
  8
1
  6
Continuous
 62
     7
100
AcDbCircle
 10
1346.33020340116
 20
277.2294372033877
 30
0.0
 40
1.0
100
AcDbArc
 50
0.0
 51
90.0
  0
ARC
  5
3FF
330
55
100
AcDbEntity
  8
1
  6
Continuous
 62
     7
100
AcDbCircle
 10
1346.33020340116
 20
259.0294402033877
 30
0.0
 40
1.0
100
AcDbArc
 50
-90.0
 51
0.0
  0
ARC
  5
400
330
55
100
AcDbEntity
  8
1
  6
Continuous
 62
     7
100
AcDbCircle
 10
1068.418341773468
 20
259.0294402033877
 30
0.0
 40
1.0
100
AcDbArc
 50
180.0
 51
-90.0
  0
ARC
  5
401
330
55
100
AcDbEntity
  8
1
  6
Continuous
 62
     7
100
AcDbCircle
 10
1095.418341773468
 20
259.0294402033877
 30
0.0
 40
1.0
100
AcDbArc
 50
-90.0
 51
0.0
  0
ENDBLK
  5
57
330
55
100
AcDbEntity
  8
0
100
AcDbBlockEnd
  0
BLOCK
  5
59
330
58
100
AcDbEntity
  8
0
100
AcDbBlockBegin
  2
A1071-0-M1__2
 70
     0
 71
     0
 10
594.986655423162
 20
-184.923482083261
 30
0.0
  3
A1071-0-M1__2
  1

  0
LINE
  5
402
330
58
100
AcDbEntity
  8
1
  6
Continuous
 62
     7
100
AcDbLine
 10
1093.918341773468
 20
219.5294432033884
 30
0.0
 11
1093.91834177347
 21
219.5294432033883
 31
0.0
  0
LINE
  5
403
330
58
100
AcDbEntity
  8
1
  6
Continuous
 62
     7
100
AcDbLine
 10
1093.918341773468
 20
257.6212828968343
 30
0.0
 11
1093.918341773468
 21
257.6120188983879
 31
0.0
  0
LINE
  5
404
330
58
100
AcDbEntity
  8
1
  6
Continuous
 62
     7
100
AcDbLine
 10
1093.918341773468
 20
257.6212828968343
 30
0.0
 11
1093.918341773468
 21
257.6120188983879
 31
0.0
  0
LINE
  5
405
330
58
100
AcDbEntity
  8
1
  6
Continuous
 62
     7
100
AcDbLine
 10
1093.918341773468
 20
257.6212828968343
 30
0.0
 11
1093.918341773468
 21
257.6120188983879
 31
0.0
  0
ENDBLK
  5
5A
330
58
100
AcDbEntity
  8
0
100
AcDbBlockEnd
  0
BLOCK
  5
421
330
41A
100
AcDbEntity
  8
0
100
AcDbBlockBegin
  2
*D011
 70
     1
 71
     0
 10
0.0
 20
0.0
 30
0.0
  3
*D011
  1

  0
LINE
  5
41B
330
41A
100
AcDbEntity
  8
1
  6
Continuous
 62
     2
100
AcDbLine
 10
1192.1473415046
 20
360.964515731179
 30
0.0
 11
1192.1473415046
 21
322.9783485642327
 31
0.0
  0
LINE
  5
41C
330
41A
100
AcDbEntity
  8
1
  6
Continuous
 62
     2
100
AcDbLine
 10
1279.597309104728
 20
360.964515731179
 30
0.0
 11
1190.1473415046
 21
360.964515731179
 31
0.0
  0
LINE
  5
41D
330
41A
100
AcDbEntity
  8
1
  6
Continuous
 62
     2
100
AcDbLine
 10
1257.059126024988
 20
322.9783485642327
 30
0.0
 11
1190.1473415046
 21
322.9783485642327
 31
0.0
  0
SOLID
  5
41E
330
41A
100
AcDbEntity
  8
1
 62
     2
100
AcDbTrace
 10
1193.068908987712
 20
353.964515731179
 30
0.0
 11
1191.225774021488
 21
353.964515731179
 31
0.0
 12
1192.1473415046
 22
360.964515731179
 32
0.0
 13
1192.1473415046
 23
360.964515731179
 33
0.0
  0
SOLID
  5
41F
330
41A
100
AcDbEntity
  8
1
 62
     2
100
AcDbTrace
 10
1191.225774021488
 20
329.9783485642327
 30
0.0
 11
1193.068908987712
 21
329.9783485642327
 31
0.0
 12
1192.1473415046
 22
322.9783485642327
 32
0.0
 13
1192.1473415046
 23
322.9783485642327
 33
0.0
  0
MTEXT
  5
420
330
41A
100
AcDbEntity
  8
1
 62
     7
100
AcDbMText
 10
1190.1473415046
 20
335.869238646827
 30
0.0
 40
7.0
 41
0.0
 71
     7
 72
     1
  1
38
  7
CONVERTER_2
 11
0.0
 21
1.0
 31
0.0
 73
     1
 44
0.60024009603842
  0
ENDBLK
  5
422
330
41A
100
AcDbEntity
  8
0
100
AcDbBlockEnd
  0
BLOCK
  5
42C
330
425
100
AcDbEntity
  8
0
100
AcDbBlockBegin
  2
*D112
 70
     1
 71
     0
 10
0.0
 20
0.0
 30
0.0
  3
*D112
  1

  0
LINE
  5
426
330
425
100
AcDbEntity
  8
1
  6
Continuous
 62
     2
100
AcDbLine
 10
1192.330203401159
 20
239.5294432033871
 30
0.0
 11
1192.330203401159
 21
322.9783485642327
 31
0.0
  0
LINE
  5
427
330
425
100
AcDbEntity
  8
1
  6
Continuous
 62
     2
100
AcDbLine
 10
1304.165395888539
 20
239.5294432033871
 30
0.0
 11
1190.330203401159
 21
239.5294432033871
 31
0.0
  0
LINE
  5
428
330
425
100
AcDbEntity
  8
1
  6
Continuous
 62
     2
100
AcDbLine
 10
1257.059126024988
 20
322.9783485642327
 30
0.0
 11
1190.330203401159
 21
322.9783485642327
 31
0.0
  0
SOLID
  5
429
330
425
100
AcDbEntity
  8
1
 62
     2
100
AcDbTrace
 10
1191.408635918047
 20
246.5294432033871
 30
0.0
 11
1193.251770884271
 21
246.5294432033871
 31
0.0
 12
1192.330203401159
 22
239.5294432033871
 32
0.0
 13
1192.330203401159
 23
239.5294432033871
 33
0.0
  0
SOLID
  5
42A
330
425
100
AcDbEntity
  8
1
 62
     2
100
AcDbTrace
 10
1193.251770884271
 20
315.9783485642327
 30
0.0
 11
1191.408635918047
 21
315.9783485642327
 31
0.0
 12
1192.330203401159
 22
322.9783485642327
 32
0.0
 13
1192.330203401159
 23
322.9783485642327
 33
0.0
  0
MTEXT
  5
42B
330
425
100
AcDbEntity
  8
1
 62
     7
100
AcDbMText
 10
1190.330203401159
 20
278.689397566383
 30
0.0
 40
7.0
 41
0.0
 71
     7
 72
     1
  1
84
  7
CONVERTER_2
 11
0.0
 21
1.0
 31
0.0
 73
     1
 44
0.60024009603842
  0
ENDBLK
  5
42D
330
425
100
AcDbEntity
  8
0
100
AcDbBlockEnd
  0
BLOCK
  5
437
330
430
100
AcDbEntity
  8
0
100
AcDbBlockBegin
  2
*D213
 70
     1
 71
     0
 10
0.0
 20
0.0
 30
0.0
  3
*D213
  1

  0
LINE
  5
431
330
430
100
AcDbEntity
  8
1
  6
Continuous
 62
     2
100
AcDbLine
 10
1192.330203401159
 20
149.0294432033886
 30
0.0
 11
1192.330203401159
 21
239.5294432033871
 31
0.0
  0
LINE
  5
432
330
430
100
AcDbEntity
  8
1
  6
Continuous
 62
     2
100
AcDbLine
 10
1157.075901988405
 20
149.0294432033886
 30
0.0
 11
1194.330203401159
 21
149.0294432033886
 31
0.0
  0
LINE
  5
433
330
430
100
AcDbEntity
  8
1
  6
Continuous
 62
     2
100
AcDbLine
 10
1304.165395888539
 20
239.5294432033871
 30
0.0
 11
1190.330203401159
 21
239.5294432033871
 31
0.0
  0
SOLID
  5
434
330
430
100
AcDbEntity
  8
1
 62
     2
100
AcDbTrace
 10
1191.408635918047
 20
156.0294432033886
 30
0.0
 11
1193.251770884271
 21
156.0294432033886
 31
0.0
 12
1192.330203401159
 22
149.0294432033886
 32
0.0
 13
1192.330203401159
 23
149.0294432033886
 33
0.0
  0
SOLID
  5
435
330
430
100
AcDbEntity
  8
1
 62
     2
100
AcDbTrace
 10
1193.251770884271
 20
232.5294432033871
 30
0.0
 11
1191.408635918047
 21
232.5294432033871
 31
0.0
 12
1192.330203401159
 22
239.5294432033871
 32
0.0
 13
1192.330203401159
 23
239.5294432033871
 33
0.0
  0
MTEXT
  5
436
330
430
100
AcDbEntity
  8
1
 62
     7
100
AcDbMText
 10
1190.330203401159
 20
209.035223746701
 30
0.0
 40
7.0
 41
0.0
 71
     7
 72
     1
  1
91
  7
CONVERTER_2
 11
0.0
 21
1.0
 31
0.0
 73
     1
 44
0.60024009603842
  0
ENDBLK
  5
438
330
430
100
AcDbEntity
  8
0
100
AcDbBlockEnd
  0
BLOCK
  5
442
330
43B
100
AcDbEntity
  8
0
100
AcDbBlockBegin
  2
*D314
 70
     1
 71
     0
 10
0.0
 20
0.0
 30
0.0
  3
*D314
  1

  0
LINE
  5
43C
330
43B
100
AcDbEntity
  8
1
  6
Continuous
 62
     2
100
AcDbLine
 10
1146.330203401159
 20
129.0294432033897
 30
0.0
 11
1316.330203401159
 21
129.0294432033897
 31
0.0
  0
LINE
  5
43D
330
43B
100
AcDbEntity
  8
1
  6
Continuous
 62
     2
100
AcDbLine
 10
1146.330203401159
 20
145.0294432033884
 30
0.0
 11
1146.330203401159
 21
127.0294432033897
 31
0.0
  0
LINE
  5
43E
330
43B
100
AcDbEntity
  8
1
  6
Continuous
 62
     2
100
AcDbLine
 10
1316.330203401159
 20
244.5294432033871
 30
0.0
 11
1316.330203401159
 21
127.0294432033897
 31
0.0
  0
SOLID
  5
43F
330
43B
100
AcDbEntity
  8
1
 62
     2
100
AcDbTrace
 10
1153.330203401159
 20
129.9510106865015
 30
0.0
 11
1153.330203401159
 21
128.1078757202779
 31
0.0
 12
1146.330203401159
 22
129.0294432033897
 32
0.0
 13
1146.330203401159
 23
129.0294432033897
 33
0.0
  0
SOLID
  5
440
330
43B
100
AcDbEntity
  8
1
 62
     2
100
AcDbTrace
 10
1309.330203401159
 20
128.1078757202779
 30
0.0
 11
1309.330203401159
 21
129.9510106865015
 31
0.0
 12
1316.330203401159
 22
129.0294432033897
 32
0.0
 13
1316.330203401159
 23
129.0294432033897
 33
0.0
  0
MTEXT
  5
441
330
43B
100
AcDbEntity
  8
1
 62
     7
100
AcDbMText
 10
1223.980203401159
 20
131.0294432033897
 30
0.0
 40
7.0
 41
0.0
 71
     7
 72
     1
  1
170
  7
CONVERTER_2
 11
0.9999999999970621
 21
2.424068405545307E-6
 31
0.0
 73
     1
 44
0.60024009603842
  0
ENDBLK
  5
443
330
43B
100
AcDbEntity
  8
0
100
AcDbBlockEnd
  0
BLOCK
  5
44B
330
446
100
AcDbEntity
  8
0
100
AcDbBlockBegin
  2
*D415
 70
     1
 71
     0
 10
0.0
 20
0.0
 30
0.0
  3
*D415
  1

  0
LINE
  5
447
330
446
100
AcDbEntity
  8
1
  6
Continuous
 62
     2
100
AcDbLine
 10
1316.330203401159
 20
129.0294432033911
 30
0.0
 11
1332.830203401159
 21
129.0294432033911
 31
0.0
  0
LINE
  5
448
330
446
100
AcDbEntity
  8
1
  6
Continuous
 62
     2
100
AcDbLine
 10
1316.330203401159
 20
244.5294432033872
 30
0.0
 11
1316.330203401159
 21
127.0294432033911
 31
0.0
  0
LINE
  5
449
330
446
100
AcDbEntity
  8
1
  6
Continuous
 62
     2
100
AcDbLine
 10
1332.830203401159
 20
234.5294432033872
 30
0.0
 11
1332.830203401159
 21
127.0294432033911
 31
0.0
  0
MTEXT
  5
44A
330
446
100
AcDbEntity
  8
1
 62
     7
100
AcDbMText
 10
1320.380203401159
 20
131.0294432033911
 30
0.0
 40
7.0
 41
0.0
 71
     7
 72
     1
  1
17
  7
CONVERTER_2
 11
0.9999999999970621
 21
2.424068405545307E-6
 31
0.0
 73
     1
 44
0.60024009603842
  0
ENDBLK
  5
44C
330
446
100
AcDbEntity
  8
0
100
AcDbBlockEnd
  0
BLOCK
  5
456
330
44F
100
AcDbEntity
  8
0
100
AcDbBlockBegin
  2
*D516
 70
     1
 71
     0
 10
0.0
 20
0.0
 30
0.0
  3
*D516
  1

  0
LINE
  5
450
330
44F
100
AcDbEntity
  8
1
  6
Continuous
 62
     2
100
AcDbLine
 10
1332.830203401159
 20
129.0294432033915
 30
0.0
 11
1372.830203401159
 21
129.0294432033915
 31
0.0
  0
LINE
  5
451
330
44F
100
AcDbEntity
  8
1
  6
Continuous
 62
     2
100
AcDbLine
 10
1332.830203401159
 20
234.5294432033872
 30
0.0
 11
1332.830203401159
 21
127.0294432033915
 31
0.0
  0
LINE
  5
452
330
44F
100
AcDbEntity
  8
1
  6
Continuous
 62
     2
100
AcDbLine
 10
1372.830203401159
 20
216.5294432033872
 30
0.0
 11
1372.830203401159
 21
127.0294432033915
 31
0.0
  0
SOLID
  5
453
330
44F
100
AcDbEntity
  8
1
 62
     2
100
AcDbTrace
 10
1339.830203401159
 20
129.9510106865033
 30
0.0
 11
1339.830203401159
 21
128.1078757202797
 31
0.0
 12
1332.830203401159
 22
129.0294432033915
 32
0.0
 13
1332.830203401159
 23
129.0294432033915
 33
0.0
  0
SOLID
  5
454
330
44F
100
AcDbEntity
  8
1
 62
     2
100
AcDbTrace
 10
1365.830203401159
 20
128.1078757202797
 30
0.0
 11
1365.830203401159
 21
129.9510106865033
 31
0.0
 12
1372.830203401159
 22
129.0294432033915
 32
0.0
 13
1372.830203401159
 23
129.0294432033915
 33
0.0
  0
MTEXT
  5
455
330
44F
100
AcDbEntity
  8
1
 62
     7
100
AcDbMText
 10
1347.580203401159
 20
131.0294432033915
 30
0.0
 40
7.0
 41
0.0
 71
     7
 72
     1
  1
40
  7
CONVERTER_2
 11
0.9999999999970621
 21
2.424068405545307E-6
 31
0.0
 73
     1
 44
0.60024009603842
  0
ENDBLK
  5
457
330
44F
100
AcDbEntity
  8
0
100
AcDbBlockEnd
  0
BLOCK
  5
463
330
45A
100
AcDbEntity
  8
0
100
AcDbBlockBegin
  2
*D617
 70
     1
 71
     0
 10
0.0
 20
0.0
 30
0.0
  3
*D617
  1

  0
LINE
  5
45B
330
45A
100
AcDbEntity
  8
1
  6
Continuous
 62
     2
100
AcDbLine
 10
1386.830203401159
 20
129.0294432033919
 30
0.0
 11
1400.830203401159
 21
129.0294432033919
 31
0.0
  0
LINE
  5
45C
330
45A
100
AcDbEntity
  8
1
  6
Continuous
 62
     2
100
AcDbLine
 10
1372.830203401159
 20
129.0294432033919
 30
0.0
 11
1386.830203401159
 21
129.0294432033919
 31
0.0
  0
LINE
  5
45D
330
45A
100
AcDbEntity
  8
1
  6
Continuous
 62
     2
100
AcDbLine
 10
1358.830203401159
 20
129.0294432033919
 30
0.0
 11
1372.830203401159
 21
129.0294432033919
 31
0.0
  0
LINE
  5
45E
330
45A
100
AcDbEntity
  8
1
  6
Continuous
 62
     2
100
AcDbLine
 10
1372.830203401159
 20
224.5294432033881
 30
0.0
 11
1372.830203401159
 21
127.0294432033919
 31
0.0
  0
LINE
  5
45F
330
45A
100
AcDbEntity
  8
1
  6
Continuous
 62
     2
100
AcDbLine
 10
1386.830203401159
 20
233.0294432033872
 30
0.0
 11
1386.830203401159
 21
127.0294432033919
 31
0.0
  0
SOLID
  5
460
330
45A
100
AcDbEntity
  8
1
 62
     2
100
AcDbTrace
 10
1365.830203401159
 20
128.1078757202801
 30
0.0
 11
1365.830203401159
 21
129.9510106865037
 31
0.0
 12
1372.830203401159
 22
129.0294432033919
 32
0.0
 13
1372.830203401159
 23
129.0294432033919
 33
0.0
  0
SOLID
  5
461
330
45A
100
AcDbEntity
  8
1
 62
     2
100
AcDbTrace
 10
1393.830203401159
 20
129.9510106865037
 30
0.0
 11
1393.830203401159
 21
128.1078757202801
 31
0.0
 12
1386.830203401159
 22
129.0294432033919
 32
0.0
 13
1386.830203401159
 23
129.0294432033919
 33
0.0
  0
MTEXT
  5
462
330
45A
100
AcDbEntity
  8
1
 62
     7
100
AcDbMText
 10
1375.630203401159
 20
131.0294432033919
 30
0.0
 40
7.0
 41
0.0
 71
     7
 72
     1
  1
14
  7
CONVERTER_2
 11
0.9999999999970621
 21
2.424068405545307E-6
 31
0.0
 73
     1
 44
0.60024009603842
  0
ENDBLK
  5
464
330
45A
100
AcDbEntity
  8
0
100
AcDbBlockEnd
  0
BLOCK
  5
46C
330
467
100
AcDbEntity
  8
0
100
AcDbBlockBegin
  2
*D718
 70
     1
 71
     0
 10
0.0
 20
0.0
 30
0.0
  3
*D718
  1

  0
LINE
  5
468
330
467
100
AcDbEntity
  8
1
  6
Continuous
 62
     2
100
AcDbLine
 10
1054.493510681797
 20
220.2907156053023
 30
0.0
 11
1128.395358695665
 21
272.1334240683512
 31
0.0
  0
SOLID
  5
469
330
467
100
AcDbEntity
  8
1
 62
     2
100
AcDbTrace
 10
1105.948644668373
 20
257.512597248356
 30
0.0
 11
1107.007139341259
 21
256.003711722152
 31
0.0
 12
1100.747330284168
 22
252.7381218528186
 32
0.0
 13
1100.747330284168
 23
252.7381218528186
 33
0.0
  0
SOLID
  5
46A
330
467
100
AcDbEntity
  8
1
 62
     2
100
AcDbTrace
 10
1057.888038878564
 20
221.5462891584184
 30
0.0
 11
1056.829544205678
 21
223.0551746846224
 31
0.0
 12
1063.089353262769
 22
226.3207645539558
 32
0.0
 13
1063.089353262769
 23
226.3207645539558
 33
0.0
  0
MTEXT
  5
46B
330
467
100
AcDbEntity
  8
1
 62
     7
100
AcDbMText
 10
1109.252814140707
 20
261.1478249512598
 30
0.0
 40
7.0
 41
0.0
 71
     7
 72
     1
  1
\C7;{\Fgdt;n}\C7;46
  7
CONVERTER_2
 11
0.8186516743782415
 21
0.5742903760622337
 31
0.0
 73
     1
 44
0.60024009603842
  0
ENDBLK
  5
46D
330
467
100
AcDbEntity
  8
0
100
AcDbBlockEnd
  0
ENDSEC
  0
SECTION
  2
ENTITIES
  0
INSERT
  5
5B
330
1F
100
AcDbEntity
  8
1
100
AcDbBlockReference
  2
87-182-MW2
 10
804.088274844543
 20
76.94181542035699
 30
0.0
  0
INSERT
  5
5C
330
1F
100
AcDbEntity
  8
1
100
AcDbBlockReference
  2
60-7X3-______-__F_
 10
1049.913260086829
 20
-198.320656445986
 30
0.0
  0
INSERT
  5
5D
330
1F
100
AcDbEntity
  8
1
100
AcDbBlockReference
  2
_J__A4
 10
1026.12028248235
 20
-26.8876397886154
 30
0.0
 41
2.0
 42
2.0
 43
2.0
  0
INSERT
  5
5E
330
1F
100
AcDbEntity
  8
1
100
AcDbBlockReference
  2
A1071-0-M1__1
 10
649.506462448826
 20
80.47389719391001
 30
0.0
  0
INSERT
  5
5F
330
1F
100
AcDbEntity
  8
1
100
AcDbBlockReference
  2
32-238-M1
 10
1298.53891899518
 20
-15.87337604749001
 30
0.0
  0
INSERT
  5
60
330
1F
100
AcDbEntity
  8
1
100
AcDbBlockReference
  2
A1071-0-M1__2
 10
594.986655423162
 20
-184.923482083261
 30
0.0
  0
LINE
  5
406
330
1F
100
AcDbEntity
  8
0
  6
DASH_CENTER
 62
     2
100
AcDbLine
 10
1332.830203401159
 20
315.6287302977121
 30
0.0
 11
1332.830203401159
 21
234.5294432033871
 31
0.0
  0
LINE
  5
407
330
1F
100
AcDbEntity
  8
1
  6
DASH_CENTER
 62
     2
100
AcDbLine
 10
1388.830203401159
 20
239.5294432033871
 30
0.0
 11
1304.165395888539
 21
239.5294432033871
 31
0.0
  0
LINE
  5
408
330
1F
100
AcDbEntity
  8
1
  6
DASH_CENTER
 62
     2
100
AcDbLine
 10
1316.330203401159
 20
202.5294432033884
 30
0.0
 11
1316.330203401159
 21
244.5294432033871
 31
0.0
  0
LINE
  5
409
330
1F
100
AcDbEntity
  8
1
  6
DASH_CENTER
 62
     2
100
AcDbLine
 10
1125.330203401159
 20
175.5294432033884
 30
0.0
 11
1289.297044939009
 21
175.5294432033884
 31
0.0
  0
LINE
  5
40A
330
1F
100
AcDbEntity
  8
1
  6
DASH_CENTER
 62
     2
100
AcDbLine
 10
1146.330203401159
 20
190.5294432033884
 30
0.0
 11
1146.330203401159
 21
145.0294432033884
 31
0.0
  0
LINE
  5
40B
330
1F
100
AcDbEntity
  8
1
  6
DASH_CENTER
 62
     2
100
AcDbLine
 10
1081.918341773468
 20
324.9547182033877
 30
0.0
 11
1081.918341773468
 21
145.0294432033884
 31
0.0
  0
LINE
  5
40C
330
1F
100
AcDbEntity
  8
1
  6
DASH_CENTER
 62
     2
100
AcDbLine
 10
1097.998261780087
 20
175.5294432033884
 30
0.0
 11
1065.832847543071
 21
175.5294432033884
 31
0.0
  0
LINE
  5
40D
330
1F
100
AcDbEntity
  8
1
  6
DASH_CENTER
 62
     2
100
AcDbLine
 10
1388.830203401159
 20
394.4695867975217
 30
0.0
 11
1125.530924853059
 21
394.4695867975217
 31
0.0
  0
LINE
  5
40E
330
1F
100
AcDbEntity
  8
1
  6
DASH_CENTER
 62
     2
100
AcDbLine
 10
1056.918341773468
 20
239.5294432033871
 30
0.0
 11
1106.918341773468
 21
239.5294432033871
 31
0.0
  0
LINE
  5
40F
330
1F
100
AcDbEntity
  8
1
  6
Continuous
 62
     2
100
AcDbLine
 10
1280.597309104729
 20
360.964515731179
 30
0.0
 11
1279.597309104728
 21
360.964515731179
 31
0.0
  0
ARC
  5
410
330
1F
100
AcDbEntity
  8
1
  6
DASH_CENTER
 62
     2
100
AcDbCircle
 10
1289.330203401159
 20
202.5294432033884
 30
0.0
 40
27.0
100
AcDbArc
 50
-90.0
 51
0.0
  0
SOLID
  5
411
330
1F
100
AcDbEntity
  8
1
 62
     2
100
AcDbTrace
 10
1380.123145531154
 20
411.4925483655686
 30
0.0
 11
1381.719347234507
 21
410.5709808824568
 31
0.0
 12
1377.42124638283
 22
404.9695867975217
 32
0.0
 13
1377.42124638283
 23
404.9695867975217
 33
0.0
  0
LEADER
  5
412
330
1F
100
AcDbEntity
  8
1
  6
Continuous
 62
     2
100
AcDbLeader
  3
Standard
 71
     0
 76
     3
 10
1377.42124638283
 20
404.9695867975217
 30
0.0
 10
1388.13705316576
 20
423.5299085896473
 30
0.0
 10
1360.366186278313
 20
423.5299085896473
 30
0.0
  0
MTEXT
  5
414
330
1F
100
AcDbEntity
  8
1
 62
     7
100
AcDbMText
 10
1172.62028248235
 20
35.11236021138461
 30
0.0
 40
7.0
 41
0.0
 71
     5
 72
     1
  1
1
  7
CONVERTER_2
 73
     1
 44
0.7202881152461
  0
MTEXT
  5
415
330
1F
100
AcDbEntity
  8
1
 62
     7
100
AcDbMText
 10
1189.62028248235
 20
35.11236021138461
 30
0.0
 40
7.0
 41
0.0
 71
     5
 72
     1
  1
2
  7
CONVERTER_2
 73
     1
 44
0.7202881152461
  0
MTEXT
  5
416
330
1F
100
AcDbEntity
  8
1
 62
     7
100
AcDbMText
 10
1116.12028248235
 20
46.61236021138463
 30
0.0
 40
7.0
 41
0.0
 71
     5
 72
     1
  1
シングル自在水栓
  7
CONVERTER_1
 73
     1
 44
0.7202881152461
  0
MTEXT
  5
417
330
1F
100
AcDbEntity
  8
1
 62
     7
100
AcDbMText
 10
1116.12028248235
 20
29.6123602113846
 30
0.0
 40
7.0
 41
0.0
 71
     5
 72
     1
  1
A1071-13
  7
CONVERTER_2
 73
     1
 44
0.7202881152461
  0
MTEXT
  5
418
330
1F
100
AcDbEntity
  8
1
 62
     7
100
AcDbMText
 10
1374.830877804017
 20
429.5299085896473
 30
0.0
 40
7.0
 41
0.0
 71
     5
 72
     1
  1
PJ1/2
  7
CONVERTER_2
 73
     1
 44
1.32052821128451
  0
MTEXT
  5
419
330
1F
100
AcDbEntity
  8
1
 62
     7
100
AcDbMText
 10
1074.88188935973
 20
69.33343720004996
 30
0.0
 40
7.0
 41
0.0
 71
     4
 72
     1
  1
JIS
  7
CONVERTER_2
 73
     1
 44
0.7202881152461
  0
DIMENSION
  5
424
330
1F
100
AcDbEntity
  8
1
100
AcDbDimension
  2
*D011
 10
1192.1473415046
 20
360.964515731179
 30
0.0
 11
1186.6473415046
 21
341.119238646827
 31
0.0
  1
38
 71
     5
 42
0.0
 53
90.0
  3
ME10_DIM_0
100
AcDbAlignedDimension
 13
1257.059126024988
 23
322.9783485642327
 33
0.0
 14
1279.597309104728
 24
360.964515731179
 34
0.0
 50
90.0
100
AcDbRotatedDimension
  0
DIMENSION
  5
42F
330
1F
100
AcDbEntity
  8
1
100
AcDbDimension
  2
*D112
 10
1192.330203401159
 20
239.5294432033871
 30
0.0
 11
1186.830203401159
 21
283.939397566383
 31
0.0
  1
84
 71
     5
 42
0.0
 53
90.0
  3
ME10_DIM_1
100
AcDbAlignedDimension
 13
1257.059126024988
 23
322.9783485642327
 33
0.0
 14
1304.165395888539
 24
239.5294432033871
 34
0.0
 50
90.0
100
AcDbRotatedDimension
  0
DIMENSION
  5
43A
330
1F
100
AcDbEntity
  8
1
100
AcDbDimension
  2
*D213
 10
1192.330203401159
 20
149.0294432033886
 30
0.0
 11
1186.830203401159
 21
213.235223746701
 31
0.0
  1
91
 71
     5
 42
0.0
 53
90.0
  3
ME10_DIM_2
100
AcDbAlignedDimension
 13
1304.165395888539
 23
239.5294432033871
 33
0.0
 14
1157.075901988405
 24
149.0294432033886
 34
0.0
 50
90.0
100
AcDbRotatedDimension
  0
DIMENSION
  5
445
330
1F
100
AcDbEntity
  8
1
100
AcDbDimension
  2
*D314
 10
1146.330203401159
 20
129.0294432033897
 30
0.0
 11
1231.330203401159
 21
134.5294432033897
 31
0.0
  1
<>
 71
     5
 42
0.0
 53
0.00013888888889
  3
ME10_DIM_3
100
AcDbAlignedDimension
 13
1316.330203401159
 23
244.5294432033871
 33
0.0
 14
1146.330203401159
 24
145.0294432033884
 34
0.0
100
AcDbRotatedDimension
  0
DIMENSION
  5
44E
330
1F
100
AcDbEntity
  8
1
100
AcDbDimension
  2
*D415
 10
1316.330203401159
 20
129.0294432033911
 30
0.0
 11
1324.580203401159
 21
134.5294432033911
 31
0.0
  1
17
 71
     5
 42
0.0
 53
0.00013888888889
  3
ME10_DIM_4
100
AcDbAlignedDimension
 13
1332.830203401159
 23
234.5294432033871
 33
0.0
 14
1316.330203401159
 24
244.5294432033871
 34
0.0
100
AcDbRotatedDimension
  0
DIMENSION
  5
459
330
1F
100
AcDbEntity
  8
1
100
AcDbDimension
  2
*D516
 10
1332.830203401159
 20
129.0294432033915
 30
0.0
 11
1352.830203401159
 21
134.5294432033915
 31
0.0
  1
<>
 71
     5
 42
0.0
 53
0.00013888888889
  3
ME10_DIM_5
100
AcDbAlignedDimension
 13
1372.830203401159
 23
216.5294432033871
 33
0.0
 14
1332.830203401159
 24
234.5294432033871
 34
0.0
100
AcDbRotatedDimension
  0
DIMENSION
  5
466
330
1F
100
AcDbEntity
  8
1
100
AcDbDimension
  2
*D617
 10
1372.830203401159
 20
129.0294432033919
 30
0.0
 11
1379.830203401159
 21
134.5294432033919
 31
0.0
  1
<>
 71
     5
 42
0.0
 53
0.00013888888889
  3
ME10_DIM_6
100
AcDbAlignedDimension
 13
1386.830203401159
 23
233.0294432033871
 33
0.0
 14
1372.830203401159
 24
224.529443203388
 34
0.0
100
AcDbRotatedDimension
  0
INSERT
  5
46E
330
1F
100
AcDbEntity
  8
1
100
AcDbBlockReference
  2
*D718
 10
0.0
 20
0.0
 30
0.0
  0
ENDSEC
  0
SECTION
  2
OBJECTS
  0
DICTIONARY
  5
C
330
0
100
AcDbDictionary
281
     1
  3
ACAD_GROUP
350
D
  3
ACAD_LAYOUT
350
1A
  3
ACAD_MLINESTYLE
350
17
  3
ACAD_PLOTSETTINGS
350
19
  3
ACAD_PLOTSTYLENAME
350
E
  3
ACAD_TABLESTYLE
350
2A
  3
AcDbVariableDictionary
350
2C
  0
DICTIONARY
  5
D
102
{ACAD_REACTORS
330
C
102
}
330
C
100
AcDbDictionary
281
     1
  0
DICTIONARY
  5
1A
102
{ACAD_REACTORS
330
C
102
}
330
C
100
AcDbDictionary
281
     1
  3
Layout1
350
1E
  3
Layout2
350
26
  3
Model
350
22
  0
DICTIONARY
  5
17
102
{ACAD_REACTORS
330
C
102
}
330
C
100
AcDbDictionary
281
     1
  3
Standard
350
18
  0
DICTIONARY
  5
19
102
{ACAD_REACTORS
330
C
102
}
330
C
100
AcDbDictionary
281
     1
  0
ACDBDICTIONARYWDFLT
  5
E
102
{ACAD_REACTORS
330
C
102
}
330
C
100
AcDbDictionary
281
     1
  3
Normal
350
F
100
AcDbDictionaryWithDefault
340
F
  0
DICTIONARY
  5
2A
102
{ACAD_REACTORS
330
C
102
}
330
C
100
AcDbDictionary
281
     1
  3
Standard
350
2B
  0
DICTIONARY
  5
2C
102
{ACAD_REACTORS
330
C
102
}
330
C
100
AcDbDictionary
281
     1
  3
CTABLESTYLE
350
2D
  0
LAYOUT
  5
1E
102
{ACAD_REACTORS
330
1A
102
}
330
1A
100
AcDbPlotSettings
  1

  2

  4

  6

 40
0.0
 41
0.0
 42
0.0
 43
0.0
 44
0.0
 45
0.0
 46
0.0
 47
0.0
 48
0.0
 49
0.0
140
0.0
141
0.0
142
1.0
143
1.0
 70
   688
 72
     0
 73
     0
 74
     5
  7

 75
    16
147
1.0
148
0.0
149
0.0
100
AcDbLayout
  1
Layout1
 70
     1
 71
     1
 10
0.0
 20
0.0
 11
12.0
 21
9.0
 12
0.0
 22
0.0
 32
0.0
 14
1.00000000000000E+20
 24
1.00000000000000E+20
 34
1.00000000000000E+20
 15
-1.00000000000000E+20
 25
-1.00000000000000E+20
 35
-1.00000000000000E+20
146
0.0
 13
0.0
 23
0.0
 33
0.0
 16
1.0
 26
0.0
 36
0.0
 17
0.0
 27
1.0
 37
0.0
 76
     0
330
1B
  0
LAYOUT
  5
26
102
{ACAD_REACTORS
330
1A
102
}
330
1A
100
AcDbPlotSettings
  1

  2

  4

  6

 40
0.0
 41
0.0
 42
0.0
 43
0.0
 44
0.0
 45
0.0
 46
0.0
 47
0.0
 48
0.0
 49
0.0
140
0.0
141
0.0
142
1.0
143
1.0
 70
   688
 72
     0
 73
     0
 74
     5
  7

 75
    16
147
1.0
148
0.0
149
0.0
100
AcDbLayout
  1
Layout2
 70
     1
 71
     2
 10
0.0
 20
0.0
 11
0.0
 21
0.0
 12
0.0
 22
0.0
 32
0.0
 14
0.0
 24
0.0
 34
0.0
 15
0.0
 25
0.0
 35
0.0
146
0.0
 13
0.0
 23
0.0
 33
0.0
 16
1.0
 26
0.0
 36
0.0
 17
0.0
 27
1.0
 37
0.0
 76
     0
330
23
  0
LAYOUT
  5
22
102
{ACAD_REACTORS
330
1A
102
}
330
1A
100
AcDbPlotSettings
  1

  2

  4

  6

 40
0.0
 41
0.0
 42
0.0
 43
0.0
 44
0.0
 45
0.0
 46
0.0
 47
0.0
 48
0.0
 49
0.0
140
0.0
141
0.0
142
1.0
143
1.0
 70
  1712
 72
     0
 73
     0
 74
     0
  7

 75
     0
147
1.0
148
0.0
149
0.0
100
AcDbLayout
  1
Model
 70
     1
 71
     0
 10
0.0
 20
0.0
 11
0.0
 21
0.0
 12
0.0
 22
0.0
 32
0.0
 14
1002.12028248235
 24
1.1123602113846
 34
0.0
 15
1422.12028248235
 25
595.1123602113846
 35
0.0
146
0.0
 13
0.0
 23
0.0
 33
0.0
 16
1.0
 26
0.0
 36
0.0
 17
0.0
 27
1.0
 37
0.0
 76
     0
330
1F
  0
MLINESTYLE
  5
18
102
{ACAD_REACTORS
330
17
102
}
330
17
100
AcDbMlineStyle
  2
Standard
 70
     0
  3

 62
   256
 51
90.0
 52
90.0
 71
     2
 49
0.5
 62
   256
  6
BYLAYER
 49
-0.5
 62
   256
  6
BYLAYER
  0
ACDBPLACEHOLDER
  5
F
102
{ACAD_REACTORS
330
E
102
}
330
E
  0
TABLESTYLE
  5
2B
102
{ACAD_REACTORS
330
2A
102
}
330
2A
100
AcDbTableStyle
  3
Standard
 70
     0
 71
     0
 40
0.06
 41
0.06
280
     0
281
     0
  7
Standard
140
0.18
170
     2
 62
     0
 63
     7
283
     0
274
    -2
284
     1
 64
     0
275
    -2
285
     1
 65
     0
276
    -2
286
     1
 66
     0
277
    -2
287
     1
 67
     0
278
    -2
288
     1
 68
     0
279
    -2
289
     1
 69
     0
  7
Standard
140
0.25
170
     5
 62
     0
 63
     7
283
     0
274
    -2
284
     1
 64
     0
275
    -2
285
     1
 65
     0
276
    -2
286
     1
 66
     0
277
    -2
287
     1
 67
     0
278
    -2
288
     1
 68
     0
279
    -2
289
     1
 69
     0
  7
Standard
140
0.18
170
     5
 62
     0
 63
     7
283
     0
274
    -2
284
     1
 64
     0
275
    -2
285
     1
 65
     0
276
    -2
286
     1
 66
     0
277
    -2
287
     1
 67
     0
278
    -2
288
     1
 68
     0
279
    -2
289
     1
 69
     0
  0
DICTIONARYVAR
  5
2D
102
{ACAD_REACTORS
330
2C
102
}
330
2C
100
DictionaryVariables
280
     0
  1
Standard
  0
ENDSEC
  0
EOF
