  0
SECTION
  2
HEADER
  9
$ACADVER
  1
AC1015
  9
$ACADMAINTVER
 70
     6
  9
$DWGCODEPAGE
  3
DOS932
  9
$INSBASE
 10
0.0
 20
0.0
 30
0.0
  9
$EXTMIN
 10
0.0
 20
0.0
 30
0.0
  9
$EXTMAX
 10
630.0
 20
891.0
 30
0.0
  9
$LIMMIN
 10
0.0
 20
0.0
  9
$LIMMAX
 10
12.0
 20
9.0
  9
$ORTHOMODE
 70
     0
  9
$REGENMODE
 70
     1
  9
$FILLMODE
 70
     1
  9
$QTEXTMODE
 70
     0
  9
$MIRRTEXT
 70
     1
  9
$LTSCALE
 40
1.0
  9
$ATTMODE
 70
     1
  9
$TEXTSIZE
 40
0.2
  9
$TRACEWID
 40
0.05
  9
$TEXTSTYLE
  7
Standard
  9
$CLAYER
  8
0
  9
$CELTYPE
  6
ByLayer
  9
$CECOLOR
 62
   256
  9
$CELTSCALE
 40
1.0
  9
$DISPSILH
 70
     0
  9
$DIMSCALE
 40
1.0
  9
$DIMASZ
 40
0.18
  9
$DIMEXO
 40
0.0625
  9
$DIMDLI
 40
0.38
  9
$DIMRND
 40
0.0
  9
$DIMDLE
 40
0.0
  9
$DIMEXE
 40
0.18
  9
$DIMTP
 40
0.0
  9
$DIMTM
 40
0.0
  9
$DIMTXT
 40
0.18
  9
$DIMCEN
 40
0.09
  9
$DIMTSZ
 40
0.0
  9
$DIMTOL
 70
     0
  9
$DIMLIM
 70
     0
  9
$DIMTIH
 70
     1
  9
$DIMTOH
 70
     1
  9
$DIMSE1
 70
     0
  9
$DIMSE2
 70
     0
  9
$DIMTAD
 70
     0
  9
$DIMZIN
 70
     0
  9
$DIMBLK
  1

  9
$DIMASO
 70
     1
  9
$DIMSHO
 70
     1
  9
$DIMPOST
  1

  9
$DIMAPOST
  1

  9
$DIMALT
 70
     0
  9
$DIMALTD
 70
     2
  9
$DIMALTF
 40
25.4
  9
$DIMLFAC
 40
1.0
  9
$DIMTOFL
 70
     0
  9
$DIMTVP
 40
0.0
  9
$DIMTIX
 70
     0
  9
$DIMSOXD
 70
     0
  9
$DIMSAH
 70
     0
  9
$DIMBLK1
  1

  9
$DIMBLK2
  1

  9
$DIMSTYLE
  2
Standard
  9
$DIMCLRD
 70
     0
  9
$DIMCLRE
 70
     0
  9
$DIMCLRT
 70
     0
  9
$DIMTFAC
 40
1.0
  9
$DIMGAP
 40
0.09
  9
$DIMJUST
 70
     0
  9
$DIMSD1
 70
     0
  9
$DIMSD2
 70
     0
  9
$DIMTOLJ
 70
     1
  9
$DIMTZIN
 70
     0
  9
$DIMALTZ
 70
     0
  9
$DIMALTTZ
 70
     0
  9
$DIMUPT
 70
     0
  9
$DIMDEC
 70
     4
  9
$DIMTDEC
 70
     4
  9
$DIMALTU
 70
     2
  9
$DIMALTTD
 70
     2
  9
$DIMTXSTY
  7
Standard
  9
$DIMAUNIT
 70
     0
  9
$DIMADEC
 70
     0
  9
$DIMALTRND
 40
0.0
  9
$DIMAZIN
 70
     0
  9
$DIMDSEP
 70
    46
  9
$DIMATFIT
 70
     3
  9
$DIMFRAC
 70
     0
  9
$DIMLDRBLK
  1

  9
$DIMLUNIT
 70
     2
  9
$DIMLWD
 70
    -2
  9
$DIMLWE
 70
    -2
  9
$DIMTMOVE
 70
     0
  9
$LUNITS
 70
     2
  9
$LUPREC
 70
     4
  9
$SKETCHINC
 40
0.1
  9
$FILLETRAD
 40
0.5
  9
$AUNITS
 70
     0
  9
$AUPREC
 70
     0
  9
$MENU
  1
.
  9
$ELEVATION
 40
0.0
  9
$PELEVATION
 40
0.0
  9
$THICKNESS
 40
0.0
  9
$LIMCHECK
 70
     0
  9
$CHAMFERA
 40
0.5
  9
$CHAMFERB
 40
0.5
  9
$CHAMFERC
 40
1.0
  9
$CHAMFERD
 40
0.0
  9
$SKPOLY
 70
     0
  9
$TDCREATE
 40
2456141.485521366
  9
$TDUCREATE
 40
2456141.110521366
  9
$TDUPDATE
 40
2456141.485521378
  9
$TDUUPDATE
 40
2456141.110521378
  9
$TDINDWG
 40
0.0000000116
  9
$TDUSRTIMER
 40
0.0000000116
  9
$USRTIMER
 70
     1
  9
$ANGBASE
 50
0.0
  9
$ANGDIR
 70
     0
  9
$PDMODE
 70
     0
  9
$PDSIZE
 40
0.0
  9
$PLINEWID
 40
0.0
  9
$SPLFRAME
 70
     0
  9
$SPLINETYPE
 70
     6
  9
$SPLINESEGS
 70
     8
  9
$HANDSEED
  5
25B
  9
$SURFTAB1
 70
     6
  9
$SURFTAB2
 70
     6
  9
$SURFTYPE
 70
     6
  9
$SURFU
 70
     6
  9
$SURFV
 70
     6
  9
$UCSBASE
  2

  9
$UCSNAME
  2

  9
$UCSORG
 10
0.0
 20
0.0
 30
0.0
  9
$UCSXDIR
 10
1.0
 20
0.0
 30
0.0
  9
$UCSYDIR
 10
0.0
 20
1.0
 30
0.0
  9
$UCSORTHOREF
  2

  9
$UCSORTHOVIEW
 70
     0
  9
$UCSORGTOP
 10
0.0
 20
0.0
 30
0.0
  9
$UCSORGBOTTOM
 10
0.0
 20
0.0
 30
0.0
  9
$UCSORGLEFT
 10
0.0
 20
0.0
 30
0.0
  9
$UCSORGRIGHT
 10
0.0
 20
0.0
 30
0.0
  9
$UCSORGFRONT
 10
0.0
 20
0.0
 30
0.0
  9
$UCSORGBACK
 10
0.0
 20
0.0
 30
0.0
  9
$PUCSBASE
  2

  9
$PUCSNAME
  2

  9
$PUCSORG
 10
0.0
 20
0.0
 30
0.0
  9
$PUCSXDIR
 10
1.0
 20
0.0
 30
0.0
  9
$PUCSYDIR
 10
0.0
 20
1.0
 30
0.0
  9
$PUCSORTHOREF
  2

  9
$PUCSORTHOVIEW
 70
     0
  9
$PUCSORGTOP
 10
0.0
 20
0.0
 30
0.0
  9
$PUCSORGBOTTOM
 10
0.0
 20
0.0
 30
0.0
  9
$PUCSORGLEFT
 10
0.0
 20
0.0
 30
0.0
  9
$PUCSORGRIGHT
 10
0.0
 20
0.0
 30
0.0
  9
$PUCSORGFRONT
 10
0.0
 20
0.0
 30
0.0
  9
$PUCSORGBACK
 10
0.0
 20
0.0
 30
0.0
  9
$USERI1
 70
     0
  9
$USERI2
 70
     0
  9
$USERI3
 70
     0
  9
$USERI4
 70
     0
  9
$USERI5
 70
     0
  9
$USERR1
 40
13.2
  9
$USERR2
 40
0.0
  9
$USERR3
 40
0.0
  9
$USERR4
 40
0.0
  9
$USERR5
 40
0.0
  9
$WORLDVIEW
 70
     1
  9
$SHADEDGE
 70
     3
  9
$SHADEDIF
 70
    70
  9
$TILEMODE
 70
     1
  9
$MAXACTVP
 70
    64
  9
$PINSBASE
 10
0.0
 20
0.0
 30
0.0
  9
$PLIMCHECK
 70
     0
  9
$PEXTMIN
 10
1.00000000000000E+20
 20
1.00000000000000E+20
 30
1.00000000000000E+20
  9
$PEXTMAX
 10
-1.00000000000000E+20
 20
-1.00000000000000E+20
 30
-1.00000000000000E+20
  9
$PLIMMIN
 10
0.0
 20
0.0
  9
$PLIMMAX
 10
12.0
 20
9.0
  9
$UNITMODE
 70
     0
  9
$VISRETAIN
 70
     1
  9
$PLINEGEN
 70
     0
  9
$PSLTSCALE
 70
     1
  9
$TREEDEPTH
 70
  3020
  9
$CMLSTYLE
  2
Standard
  9
$CMLJUST
 70
     0
  9
$CMLSCALE
 40
1.0
  9
$PROXYGRAPHICS
 70
     1
  9
$MEASUREMENT
 70
     1
  9
$CELWEIGHT
370
    -1
  9
$ENDCAPS
280
     0
  9
$JOINSTYLE
280
     0
  9
$LWDISPLAY
290
     0
  9
$INSUNITS
 70
     1
  9
$HYPERLINKBASE
  1

  9
$STYLESHEET
  1

  9
$XEDIT
290
     1
  9
$CEPSNTYPE
380
     0
  9
$PSTYLEMODE
290
     0
  9
$FINGERPRINTGUID
  2
{FAEB1C30-E019-11D5-929B-00C0DF256EC4}
  9
$VERSIONGUID
  2
{FAEB1C32-E019-11D5-929B-00C0DF256EC4}
  9
$EXTNAMES
290
     1
  9
$PSVPSCALE
 40
0.0
  9
$OLESTARTUP
290
     0
  0
ENDSEC
  0
SECTION
  2
CLASSES
  0
CLASS
  1
ACDBDICTIONARYWDFLT
  2
AcDbDictionaryWithDefault
  3
ObjectDBX Classes
 90
        0
280
     0
281
     0
  0
CLASS
  1
TABLESTYLE
  2
AcDbTableStyle
  3
ObjectDBX Classes
 90
     2047
280
     0
281
     0
  0
CLASS
  1
DICTIONARYVAR
  2
AcDbDictionaryVar
  3
ObjectDBX Classes
 90
        0
280
     0
281
     0
  0
CLASS
  1

  2
exOdDbCircle
  3

 90
        0
280
     0
281
     1
  0
CLASS
  1

  2
exOdDbSpline
  3

 90
        0
280
     0
281
     1
  0
CLASS
  1
ACDBPLACEHOLDER
  2
AcDbPlaceHolder
  3
ObjectDBX Classes
 90
        0
280
     0
281
     0
  0
CLASS
  1
LAYOUT
  2
AcDbLayout
  3
ObjectDBX Classes
 90
        0
280
     0
281
     0
  0
ENDSEC
  0
SECTION
  2
TABLES
  0
TABLE
  2
VPORT
  5
8
330
0
100
AcDbSymbolTable
 70
     2
  0
VPORT
  5
29
330
8
100
AcDbSymbolTableRecord
100
AcDbViewportTableRecord
  2
*Active
 70
     0
 10
0.0
 20
0.0
 11
1.0
 21
1.0
 12
315.0
 22
445.5
 13
0.0
 23
0.0
 14
0.5
 24
0.5
 15
0.5
 25
0.5
 16
0.0
 26
0.0
 36
1.0
 17
0.0
 27
0.0
 37
0.0
 40
980.1
 41
1.60267857142857
 42
50.0
 43
0.0
 44
0.0
 50
0.0
 51
0.0
 71
     0
 72
   100
 73
     1
 74
     3
 75
     0
 76
     0
 77
     0
 78
     0
281
     0
 65
     1
110
0.0
120
0.0
130
0.0
111
1.0
121
0.0
131
0.0
112
0.0
122
1.0
132
0.0
 79
     0
146
0.0
  0
ENDTAB
  0
TABLE
  2
LTYPE
  5
5
330
0
100
AcDbSymbolTable
 70
     8
  0
LTYPE
  5
14
330
5
100
AcDbSymbolTableRecord
100
AcDbLinetypeTableRecord
  2
ByBlock
 70
     0
  3

 72
    65
 73
     0
 40
0.0
  0
LTYPE
  5
15
330
5
100
AcDbSymbolTableRecord
100
AcDbLinetypeTableRecord
  2
ByLayer
 70
     0
  3

 72
    65
 73
     0
 40
0.0
  0
LTYPE
  5
16
330
5
100
AcDbSymbolTableRecord
100
AcDbLinetypeTableRecord
  2
Continuous
 70
     0
  3
Solid line
 72
    65
 73
     0
 40
0.0
  0
LTYPE
  5
2E
330
5
100
AcDbSymbolTableRecord
100
AcDbLinetypeTableRecord
  2
DASHED
 70
     0
  3
Dashed
 72
    65
 73
     2
 40
15.0
 49
7.0
 74
     0
 49
-8.0
 74
     0
  0
LTYPE
  5
2F
330
5
100
AcDbSymbolTableRecord
100
AcDbLinetypeTableRecord
  2
DOTTED
 70
     0
  3
Dotted
 72
    65
 73
     2
 40
1.0
 49
0.0
 74
     0
 49
-1.0
 74
     0
  0
LTYPE
  5
30
330
5
100
AcDbSymbolTableRecord
100
AcDbLinetypeTableRecord
  2
DOT_CENTER
 70
     0
  3
Dot_Center
 72
    65
 73
     4
 40
14.0
 49
12.0
 74
     0
 49
-1.0
 74
     0
 49
0.0
 74
     0
 49
-1.0
 74
     0
  0
LTYPE
  5
31
330
5
100
AcDbSymbolTableRecord
100
AcDbLinetypeTableRecord
  2
LONG_DASHED
 70
     0
  3
Long_Dashed
 72
    65
 73
     2
 40
15.0
 49
10.0
 74
     0
 49
-5.0
 74
     0
  0
LTYPE
  5
32
330
5
100
AcDbSymbolTableRecord
100
AcDbLinetypeTableRecord
  2
DASH_CENTER
 70
     0
  3
Dash_Center
 72
    65
 73
     4
 40
14.0
 49
11.0
 74
     0
 49
-1.0
 74
     0
 49
1.0
 74
     0
 49
-1.0
 74
     0
  0
LTYPE
  5
33
330
5
100
AcDbSymbolTableRecord
100
AcDbLinetypeTableRecord
  2
PHANTOM
 70
     0
  3
Phantom
 72
    65
 73
     6
 40
13.0
 49
10.0
 74
     0
 49
-1.0
 74
     0
 49
0.0
 74
     0
 49
-1.0
 74
     0
 49
0.0
 74
     0
 49
-1.0
 74
     0
  0
LTYPE
  5
34
330
5
100
AcDbSymbolTableRecord
100
AcDbLinetypeTableRecord
  2
CENTER_DASH_DASH
 70
     0
  3
Center_Dash_Dash
 72
    65
 73
     6
 40
14.0
 49
9.0
 74
     0
 49
-1.0
 74
     0
 49
1.0
 74
     0
 49
-1.0
 74
     0
 49
1.0
 74
     0
 49
-1.0
 74
     0
  0
ENDTAB
  0
TABLE
  2
LAYER
  5
2
330
0
100
AcDbSymbolTable
 70
     2
  0
LAYER
  5
10
330
2
100
AcDbSymbolTableRecord
100
AcDbLayerTableRecord
  2
0
 70
     0
 62
     7
  6
Continuous
370
    -3
390
F
  0
LAYER
  5
35
330
2
100
AcDbSymbolTableRecord
100
AcDbLayerTableRecord
  2
1
 70
     0
 62
     7
  6
Continuous
370
    -3
390
F
  0
ENDTAB
  0
TABLE
  2
STYLE
  5
3
330
0
100
AcDbSymbolTable
 70
     3
  0
STYLE
  5
11
330
3
100
AcDbSymbolTableRecord
100
AcDbTextStyleTableRecord
  2
Standard
 70
     0
 40
0.0
 41
1.0
 50
0.0
 71
     0
 42
0.2
  3
txt
  4

  0
STYLE
  5
A1
330
3
100
AcDbSymbolTableRecord
100
AcDbTextStyleTableRecord
  2
CONVERTER_1
 70
     0
 40
0.0
 41
0.89
 50
0.0
 71
     0
 42
0.2
  3
msmincho.ttc
  4

1001
ACAD
1000
MS Mincho
1071
    32785
  0
STYLE
  5
204
330
3
100
AcDbSymbolTableRecord
100
AcDbTextStyleTableRecord
  2
CONVERTER_2
 70
     0
 40
0.0
 41
0.9
 50
0.0
 71
     0
 42
0.2
  3
txt.shx
  4

  0
ENDTAB
  0
TABLE
  2
VIEW
  5
6
330
0
100
AcDbSymbolTable
 70
     0
  0
ENDTAB
  0
TABLE
  2
UCS
  5
7
330
0
100
AcDbSymbolTable
 70
     0
  0
ENDTAB
  0
TABLE
  2
APPID
  5
9
330
0
100
AcDbSymbolTable
 70
     1
  0
APPID
  5
12
330
9
100
AcDbSymbolTableRecord
100
AcDbRegAppTableRecord
  2
ACAD
 70
     0
  0
ENDTAB
  0
TABLE
  2
DIMSTYLE
  5
A
330
0
100
AcDbSymbolTable
 70
     8
100
AcDbDimStyleTable
  0
DIMSTYLE
105
27
330
A
100
AcDbSymbolTableRecord
100
AcDbDimStyleTableRecord
  2
Standard
 70
     0
340
11
  0
DIMSTYLE
105
217
102
{ACAD_REACTORS
330
218
102
}
330
A
100
AcDbSymbolTableRecord
100
AcDbDimStyleTableRecord
  2
ME10_DIM_0
 70
     0
 41
10.5
 42
0.0
 44
3.0
 73
     0
 74
     0
 77
     1
 78
     8
140
10.5
147
0.625
172
     1
173
     1
176
     2
177
     2
178
     7
271
     2
340
204
344
214
  0
DIMSTYLE
105
222
102
{ACAD_REACTORS
330
223
102
}
330
A
100
AcDbSymbolTableRecord
100
AcDbDimStyleTableRecord
  2
ME10_DIM_1
 70
     0
 41
10.5
 42
0.0
 44
3.0
 73
     0
 74
     0
 77
     1
 78
     8
140
10.5
147
0.625
172
     1
173
     1
176
     2
177
     2
178
     7
271
     2
340
A1
  0
DIMSTYLE
105
22D
102
{ACAD_REACTORS
330
22E
102
}
330
A
100
AcDbSymbolTableRecord
100
AcDbDimStyleTableRecord
  2
ME10_DIM_2
 70
     0
 41
10.5
 42
0.0
 44
3.0
 73
     0
 74
     0
 77
     1
 78
     8
140
10.5
147
0.625
172
     1
173
     1
176
     2
177
     2
178
     7
271
     2
340
204
  0
DIMSTYLE
105
238
102
{ACAD_REACTORS
330
239
102
}
330
A
100
AcDbSymbolTableRecord
100
AcDbDimStyleTableRecord
  2
ME10_DIM_3
 70
     0
  3
{\Fgdt;n}<>
 41
10.5
 42
0.0
 44
3.0
 73
     0
 74
     0
 77
     1
 78
     8
140
10.5
147
0.625
172
     1
173
     1
176
     2
177
     2
178
     7
271
     2
340
204
  0
DIMSTYLE
105
243
102
{ACAD_REACTORS
330
244
102
}
330
A
100
AcDbSymbolTableRecord
100
AcDbDimStyleTableRecord
  2
ME10_DIM_4
 70
     0
 41
10.5
 42
0.0
 44
3.0
 73
     0
 74
     0
 77
     1
 78
     8
140
10.5
147
0.625
172
     1
173
     1
176
     2
177
     2
178
     7
271
     2
340
204
  0
DIMSTYLE
105
24E
102
{ACAD_REACTORS
330
24F
102
}
330
A
100
AcDbSymbolTableRecord
100
AcDbDimStyleTableRecord
  2
ME10_DIM_5
 70
     0
 41
10.5
 42
0.0
 44
3.0
 73
     0
 74
     0
 77
     1
 78
     8
140
10.5
147
0.625
172
     1
173
     1
176
     2
177
     2
178
     7
271
     2
340
204
  0
DIMSTYLE
105
259
102
{ACAD_REACTORS
330
25A
102
}
330
A
100
AcDbSymbolTableRecord
100
AcDbDimStyleTableRecord
  2
ME10_DIM_6
 70
     0
 41
10.5
 42
0.0
 44
3.0
 73
     0
 74
     0
 77
     1
 78
     8
140
10.5
147
0.625
172
     1
173
     1
176
     2
177
     2
178
     7
271
     2
340
204
  0
ENDTAB
  0
TABLE
  2
BLOCK_RECORD
  5
1
330
0
100
AcDbSymbolTable
 70
    17
  0
BLOCK_RECORD
  5
1F
330
1
100
AcDbSymbolTableRecord
100
AcDbBlockTableRecord
  2
*Model_Space
340
22
  0
BLOCK_RECORD
  5
1B
330
1
100
AcDbSymbolTableRecord
100
AcDbBlockTableRecord
  2
*Paper_Space
340
1E
  0
BLOCK_RECORD
  5
23
330
1
100
AcDbSymbolTableRecord
100
AcDbBlockTableRecord
  2
*Paper_Space0
340
26
  0
BLOCK_RECORD
  5
36
330
1
100
AcDbSymbolTableRecord
100
AcDbBlockTableRecord
  2
_J__A4
340
0
102
{BLKREFS
331
4E
102
}
  0
BLOCK_RECORD
  5
39
330
1
100
AcDbSymbolTableRecord
100
AcDbBlockTableRecord
  2
60-1-16-240
340
0
102
{BLKREFS
331
4F
102
}
  0
BLOCK_RECORD
  5
3C
330
1
100
AcDbSymbolTableRecord
100
AcDbBlockTableRecord
  2
32-1-16
340
0
102
{BLKREFS
331
50
102
}
  0
BLOCK_RECORD
  5
3F
330
1
100
AcDbSymbolTableRecord
100
AcDbBlockTableRecord
  2
A10-0A-13
340
0
102
{BLKREFS
331
51
102
}
  0
BLOCK_RECORD
  5
42
330
1
100
AcDbSymbolTableRecord
100
AcDbBlockTableRecord
  2
36-1A-13-M4
340
0
102
{BLKREFS
331
52
102
}
  0
BLOCK_RECORD
  5
45
330
1
100
AcDbSymbolTableRecord
100
AcDbBlockTableRecord
  2
21-1A
340
0
102
{BLKREFS
331
53
102
}
  0
BLOCK_RECORD
  5
48
330
1
100
AcDbSymbolTableRecord
100
AcDbBlockTableRecord
  2
37-1-13
340
0
102
{BLKREFS
331
54
102
}
  0
BLOCK_RECORD
  5
4B
330
1
100
AcDbSymbolTableRecord
100
AcDbBlockTableRecord
  2
42-1
340
0
102
{BLKREFS
331
55
102
}
  0
BLOCK_RECORD
  5
20B
330
1
100
AcDbSymbolTableRecord
100
AcDbBlockTableRecord
  2
*D09
340
0
  0
BLOCK_RECORD
  5
214
330
1
100
AcDbSymbolTableRecord
100
AcDbBlockTableRecord
  2
_None
340
0
  0
BLOCK_RECORD
  5
219
330
1
100
AcDbSymbolTableRecord
100
AcDbBlockTableRecord
  2
*D111
340
0
  0
BLOCK_RECORD
  5
224
330
1
100
AcDbSymbolTableRecord
100
AcDbBlockTableRecord
  2
*D212
340
0
  0
BLOCK_RECORD
  5
22F
330
1
100
AcDbSymbolTableRecord
100
AcDbBlockTableRecord
  2
*D313
340
0
  0
BLOCK_RECORD
  5
23A
330
1
100
AcDbSymbolTableRecord
100
AcDbBlockTableRecord
  2
*D414
340
0
  0
BLOCK_RECORD
  5
245
330
1
100
AcDbSymbolTableRecord
100
AcDbBlockTableRecord
  2
*D515
340
0
  0
BLOCK_RECORD
  5
250
330
1
100
AcDbSymbolTableRecord
100
AcDbBlockTableRecord
  2
*D616
340
0
  0
ENDTAB
  0
ENDSEC
  0
SECTION
  2
BLOCKS
  0
BLOCK
  5
20
330
1F
100
AcDbEntity
  8
0
100
AcDbBlockBegin
  2
*Model_Space
 70
     0
 71
     0
 10
0.0
 20
0.0
 30
0.0
  3
*Model_Space
  1

  0
ENDBLK
  5
21
330
1F
100
AcDbEntity
  8
0
100
AcDbBlockEnd
  0
BLOCK
  5
1C
330
1B
100
AcDbEntity
 67
     1
  8
0
100
AcDbBlockBegin
  2
*Paper_Space
 70
     0
 71
     0
 10
0.0
 20
0.0
 30
0.0
  3
*Paper_Space
  1

  0
ENDBLK
  5
1D
330
1B
100
AcDbEntity
 67
     1
  8
0
100
AcDbBlockEnd
  0
BLOCK
  5
24
330
23
100
AcDbEntity
  8
0
100
AcDbBlockBegin
  2
*Paper_Space0
 70
     0
 71
     0
 10
0.0
 20
0.0
 30
0.0
  3
*Paper_Space0
  1

  0
ENDBLK
  5
25
330
23
100
AcDbEntity
  8
0
100
AcDbBlockEnd
  0
BLOCK
  5
37
330
36
100
AcDbEntity
  8
0
100
AcDbBlockBegin
  2
_J__A4
 70
     0
 71
     0
 10
0.0
 20
0.0
 30
0.0
  3
_J__A4
  1

  0
POINT
  5
56
330
36
100
AcDbEntity
  8
1
 62
     4
100
AcDbPoint
 10
34.0
 20
34.00000000000001
 30
0.0
  0
POINT
  5
57
330
36
100
AcDbEntity
  8
1
 62
     4
100
AcDbPoint
 10
57.0
 20
12.25
 30
0.0
  0
POINT
  5
58
330
36
100
AcDbEntity
  8
1
 62
     4
100
AcDbPoint
 10
57.0
 20
20.75000000000001
 30
0.0
  0
POINT
  5
59
330
36
100
AcDbEntity
  8
1
 62
     4
100
AcDbPoint
 10
57.0
 20
24.75000000000001
 30
0.0
  0
POINT
  5
5A
330
36
100
AcDbEntity
  8
1
 62
     4
100
AcDbPoint
 10
57.0
 20
16.25
 30
0.0
  0
POINT
  5
5B
330
36
100
AcDbEntity
  8
1
 62
     4
100
AcDbPoint
 10
157.5
 20
19.00000000000001
 30
0.0
  0
POINT
  5
5C
330
36
100
AcDbEntity
  8
1
 62
     4
100
AcDbPoint
 10
47.5
 20
282.0000000000003
 30
0.0
  0
POINT
  5
5D
330
36
100
AcDbEntity
  8
1
 62
     4
100
AcDbPoint
 10
57.0
 20
22.75000000000001
 30
0.0
  0
POINT
  5
5E
330
36
100
AcDbEntity
  8
1
 62
     4
100
AcDbPoint
 10
57.0
 20
14.25
 30
0.0
  0
POINT
  5
5F
330
36
100
AcDbEntity
  8
1
 62
     4
100
AcDbPoint
 10
157.5
 20
12.5
 30
0.0
  0
POINT
  5
60
330
36
100
AcDbEntity
  8
1
 62
     4
100
AcDbPoint
 10
163.25
 20
12.5
 30
0.0
  0
POINT
  5
61
330
36
100
AcDbEntity
  8
1
 62
     4
100
AcDbPoint
 10
151.75
 20
12.5
 30
0.0
  0
POINT
  5
62
330
36
100
AcDbEntity
  8
1
 62
     4
100
AcDbPoint
 10
134.75
 20
12.5
 30
0.0
  0
POINT
  5
63
330
36
100
AcDbEntity
  8
1
 62
     4
100
AcDbPoint
 10
146.25
 20
12.5
 30
0.0
  0
POINT
  5
64
330
36
100
AcDbEntity
  8
1
 62
     4
100
AcDbPoint
 10
140.5
 20
12.5
 30
0.0
  0
POINT
  5
65
330
36
100
AcDbEntity
  8
1
 62
     4
100
AcDbPoint
 10
140.5
 20
19.00000000000001
 30
0.0
  0
POINT
  5
66
330
36
100
AcDbEntity
  8
1
 62
     4
100
AcDbPoint
 10
117.75
 20
12.5
 30
0.0
  0
POINT
  5
67
330
36
100
AcDbEntity
  8
1
 62
     4
100
AcDbPoint
 10
129.25
 20
12.5
 30
0.0
  0
POINT
  5
68
330
36
100
AcDbEntity
  8
1
 62
     4
100
AcDbPoint
 10
123.5
 20
12.5
 30
0.0
  0
POINT
  5
69
330
36
100
AcDbEntity
  8
1
 62
     4
100
AcDbPoint
 10
123.5
 20
19.00000000000001
 30
0.0
  0
POINT
  5
6A
330
36
100
AcDbEntity
  8
1
 62
     4
100
AcDbPoint
 10
100.75
 20
12.5
 30
0.0
  0
POINT
  5
6B
330
36
100
AcDbEntity
  8
1
 62
     4
100
AcDbPoint
 10
112.25
 20
12.5
 30
0.0
  0
POINT
  5
6C
330
36
100
AcDbEntity
  8
1
 62
     4
100
AcDbPoint
 10
106.5
 20
12.5
 30
0.0
  0
POINT
  5
6D
330
36
100
AcDbEntity
  8
1
 62
     4
100
AcDbPoint
 10
106.5
 20
19.00000000000001
 30
0.0
  0
POINT
  5
6E
330
36
100
AcDbEntity
  8
1
 62
     4
100
AcDbPoint
 10
85.25
 20
17.0
 30
0.0
  0
POINT
  5
6F
330
36
100
AcDbEntity
  8
1
 62
     4
100
AcDbPoint
 10
93.75
 20
17.0
 30
0.0
  0
LINE
  5
70
330
36
100
AcDbEntity
  8
1
  6
Continuous
 62
     2
100
AcDbLine
 10
81.0
 20
27.00000000000001
 30
0.0
 11
81.0
 21
10.0
 31
0.0
  0
LINE
  5
71
330
36
100
AcDbEntity
  8
1
  6
DOT_CENTER
 62
     2
100
AcDbLine
 10
187.0
 20
26.50000000000001
 30
0.0
 11
187.0
 21
20.50000000000001
 31
0.0
  0
LINE
  5
72
330
36
100
AcDbEntity
  8
1
  6
DOT_CENTER
 62
     2
100
AcDbLine
 10
184.0
 20
23.50000000000001
 30
0.0
 11
197.0
 21
23.50000000000001
 31
0.0
  0
LINE
  5
73
330
36
100
AcDbEntity
  8
1
  6
Continuous
 62
     7
100
AcDbLine
 10
196.0
 20
21.50000000000001
 30
0.0
 11
191.0
 21
22.30000000000001
 31
0.0
  0
LINE
  5
74
330
36
100
AcDbEntity
  8
1
  6
Continuous
 62
     7
100
AcDbLine
 10
196.0
 20
25.50000000000001
 30
0.0
 11
196.0
 21
21.50000000000001
 31
0.0
  0
LINE
  5
75
330
36
100
AcDbEntity
  8
1
  6
Continuous
 62
     7
100
AcDbLine
 10
191.0
 20
24.70000000000001
 30
0.0
 11
196.0
 21
25.50000000000001
 31
0.0
  0
LINE
  5
76
330
36
100
AcDbEntity
  8
1
  6
Continuous
 62
     7
100
AcDbLine
 10
191.0
 20
24.70000000000001
 30
0.0
 11
191.0
 21
22.30000000000001
 31
0.0
  0
LINE
  5
77
330
36
100
AcDbEntity
  8
1
  6
Continuous
 62
     2
100
AcDbLine
 10
33.0
 20
27.0
 30
0.0
 11
33.0
 21
10.0
 31
0.0
  0
LINE
  5
78
330
36
100
AcDbEntity
  8
1
  6
Continuous
 62
     2
100
AcDbLine
 10
25.0
 20
18.50000000000001
 30
0.0
 11
81.0
 21
18.50000000000001
 31
0.0
  0
LINE
  5
79
330
36
100
AcDbEntity
  8
1
  6
Continuous
 62
     7
100
AcDbLine
 10
200.0
 20
287.0000000000003
 30
0.0
 11
105.0
 21
287.0000000000003
 31
0.0
  0
LINE
  5
7A
330
36
100
AcDbEntity
  8
1
  6
Continuous
 62
     7
100
AcDbLine
 10
200.0
 20
10.0
 30
0.0
 11
200.0
 21
148.5
 31
0.0
  0
LINE
  5
7B
330
36
100
AcDbEntity
  8
1
  6
Continuous
 62
     7
100
AcDbLine
 10
25.0
 20
10.0
 30
0.0
 11
105.0
 21
10.0
 31
0.0
  0
LINE
  5
7C
330
36
100
AcDbEntity
  8
1
  6
PHANTOM
 62
     4
100
AcDbLine
 10
0.0
 20
297.0
 30
0.0
 11
0.0
 21
0.0
 31
0.0
  0
LINE
  5
7D
330
36
100
AcDbEntity
  8
1
  6
PHANTOM
 62
     4
100
AcDbLine
 10
210.0
 20
297.0
 30
0.0
 11
0.0
 21
297.0
 31
0.0
  0
LINE
  5
7E
330
36
100
AcDbEntity
  8
1
  6
PHANTOM
 62
     4
100
AcDbLine
 10
210.0
 20
0.0
 30
0.0
 11
210.0
 21
297.0
 31
0.0
  0
LINE
  5
7F
330
36
100
AcDbEntity
  8
1
  6
PHANTOM
 62
     4
100
AcDbLine
 10
0.0
 20
0.0
 30
0.0
 11
210.0
 21
0.0
 31
0.0
  0
LINE
  5
80
330
36
100
AcDbEntity
  8
1
  6
Continuous
 62
     7
100
AcDbLine
 10
25.0
 20
41.0
 30
0.0
 11
200.0
 21
41.0
 31
0.0
  0
LINE
  5
81
330
36
100
AcDbEntity
  8
1
  6
Continuous
 62
     7
100
AcDbLine
 10
200.0
 20
27.00000000000001
 30
0.0
 11
25.0
 21
27.00000000000001
 31
0.0
  0
LINE
  5
82
330
36
100
AcDbEntity
  8
1
  6
Continuous
 62
     2
100
AcDbLine
 10
33.0
 20
41.00000000000001
 30
0.0
 11
33.0
 21
27.0
 31
0.0
  0
LINE
  5
83
330
36
100
AcDbEntity
  8
1
  6
Continuous
 62
     2
100
AcDbLine
 10
55.0
 20
287.0000000000003
 30
0.0
 11
55.0
 21
277.0000000000003
 31
0.0
  0
LINE
  5
84
330
36
100
AcDbEntity
  8
1
  6
Continuous
 62
     2
100
AcDbLine
 10
40.0
 20
287.0000000000003
 30
0.0
 11
40.0
 21
277.0000000000003
 31
0.0
  0
LINE
  5
85
330
36
100
AcDbEntity
  8
1
  6
Continuous
 62
     7
100
AcDbLine
 10
25.0
 20
10.0
 30
0.0
 11
25.0
 21
148.5
 31
0.0
  0
LINE
  5
86
330
36
100
AcDbEntity
  8
1
  6
Continuous
 62
     2
100
AcDbLine
 10
55.0
 20
277.0000000000003
 30
0.0
 11
25.0
 21
277.0000000000003
 31
0.0
  0
LINE
  5
87
330
36
100
AcDbEntity
  8
1
  6
Continuous
 62
     2
100
AcDbLine
 10
166.0
 20
27.00000000000001
 30
0.0
 11
166.0
 21
10.0
 31
0.0
  0
LINE
  5
88
330
36
100
AcDbEntity
  8
1
  6
Continuous
 62
     2
100
AcDbLine
 10
132.0
 20
27.00000000000001
 30
0.0
 11
132.0
 21
9.99999999999999
 31
0.0
  0
LINE
  5
89
330
36
100
AcDbEntity
  8
1
  6
Continuous
 62
     2
100
AcDbLine
 10
149.0
 20
27.00000000000001
 30
0.0
 11
149.0
 21
10.0
 31
0.0
  0
LINE
  5
8A
330
36
100
AcDbEntity
  8
1
  6
Continuous
 62
     2
100
AcDbLine
 10
115.0
 20
27.00000000000001
 30
0.0
 11
115.0
 21
9.99999999999999
 31
0.0
  0
LINE
  5
8B
330
36
100
AcDbEntity
  8
1
  6
Continuous
 62
     2
100
AcDbLine
 10
98.0
 20
27.00000000000001
 30
0.0
 11
98.0
 21
9.99999999999999
 31
0.0
  0
LINE
  5
8C
330
36
100
AcDbEntity
  8
1
  6
Continuous
 62
     2
100
AcDbLine
 10
166.0
 20
20.00000000000001
 30
0.0
 11
200.0
 21
20.00000000000001
 31
0.0
  0
LINE
  5
8D
330
36
100
AcDbEntity
  8
1
  6
Continuous
 62
     2
100
AcDbLine
 10
105.0
 20
287.0000000000003
 30
0.0
 11
105.0
 21
292.0000000000003
 31
0.0
  0
LINE
  5
8E
330
36
100
AcDbEntity
  8
1
  6
Continuous
 62
     7
100
AcDbLine
 10
105.0
 20
287.0000000000003
 30
0.0
 11
25.0
 21
287.0000000000003
 31
0.0
  0
LINE
  5
8F
330
36
100
AcDbEntity
  8
1
  6
Continuous
 62
     2
100
AcDbLine
 10
25.0
 20
148.5
 30
0.0
 11
20.0
 21
148.5
 31
0.0
  0
LINE
  5
90
330
36
100
AcDbEntity
  8
1
  6
Continuous
 62
     7
100
AcDbLine
 10
25.0
 20
148.5
 30
0.0
 11
25.0
 21
287.0000000000003
 31
0.0
  0
LINE
  5
91
330
36
100
AcDbEntity
  8
1
  6
Continuous
 62
     2
100
AcDbLine
 10
200.0
 20
148.5
 30
0.0
 11
205.0
 21
148.5
 31
0.0
  0
LINE
  5
92
330
36
100
AcDbEntity
  8
1
  6
Continuous
 62
     7
100
AcDbLine
 10
200.0
 20
148.5
 30
0.0
 11
200.0
 21
287.0000000000003
 31
0.0
  0
LINE
  5
93
330
36
100
AcDbEntity
  8
1
  6
Continuous
 62
     2
100
AcDbLine
 10
105.0
 20
10.0
 30
0.0
 11
105.0
 21
5.0
 31
0.0
  0
LINE
  5
94
330
36
100
AcDbEntity
  8
1
  6
Continuous
 62
     7
100
AcDbLine
 10
105.0
 20
10.0
 30
0.0
 11
200.0
 21
10.0
 31
0.0
  0
CIRCLE
  5
95
330
36
100
AcDbEntity
  8
1
  6
DOT_CENTER
 62
     7
100
AcDbCircle
 10
89.5
 20
18.0
 30
0.0
 40
0.1000000000000227
  0
CIRCLE
  5
96
330
36
100
AcDbEntity
  8
1
  6
DOT_CENTER
 62
     7
100
AcDbCircle
 10
89.5
 20
16.0
 30
0.0
 40
0.1000000000000227
  0
CIRCLE
  5
97
330
36
100
AcDbEntity
  8
1
  6
Continuous
 62
     7
100
AcDbCircle
 10
187.0
 20
23.50000000000001
 30
0.0
 40
2.0
  0
CIRCLE
  5
98
330
36
100
AcDbEntity
  8
1
  6
Continuous
 62
     7
100
AcDbCircle
 10
187.0
 20
23.50000000000001
 30
0.0
 40
1.200000000000102
  0
CIRCLE
  5
99
330
36
100
AcDbEntity
  8
1
  6
Continuous
 62
     7
100
AcDbCircle
 10
154.5
 20
12.5
 30
0.0
 40
0.3000000000000114
  0
CIRCLE
  5
9A
330
36
100
AcDbEntity
  8
1
  6
Continuous
 62
     7
100
AcDbCircle
 10
160.5
 20
12.5
 30
0.0
 40
0.3000000000000114
  0
CIRCLE
  5
9B
330
36
100
AcDbEntity
  8
1
  6
Continuous
 62
     7
100
AcDbCircle
 10
143.5
 20
12.5
 30
0.0
 40
0.3000000000000114
  0
CIRCLE
  5
9C
330
36
100
AcDbEntity
  8
1
  6
Continuous
 62
     7
100
AcDbCircle
 10
137.5
 20
12.5
 30
0.0
 40
0.3000000000000114
  0
CIRCLE
  5
9D
330
36
100
AcDbEntity
  8
1
  6
Continuous
 62
     7
100
AcDbCircle
 10
126.5
 20
12.5
 30
0.0
 40
0.2999999999999972
  0
CIRCLE
  5
9E
330
36
100
AcDbEntity
  8
1
  6
Continuous
 62
     7
100
AcDbCircle
 10
120.5
 20
12.5
 30
0.0
 40
0.2999999999999972
  0
CIRCLE
  5
9F
330
36
100
AcDbEntity
  8
1
  6
Continuous
 62
     7
100
AcDbCircle
 10
109.5
 20
12.5
 30
0.0
 40
0.2999999999999972
  0
CIRCLE
  5
A0
330
36
100
AcDbEntity
  8
1
  6
Continuous
 62
     7
100
AcDbCircle
 10
103.5
 20
12.5
 30
0.0
 40
0.2999999999999972
  0
MTEXT
  5
A2
330
36
100
AcDbEntity
  8
1
 62
   250
100
AcDbMText
 10
25.0
 20
5.0
 30
0.0
 40
3.5
 41
0.0
 71
     4
 72
     1
  1
備考欄の文字列 原点位置=4
  7
CONVERTER_1
 73
     1
 44
0.7202881152461
  0
MTEXT
  5
A3
330
36
100
AcDbEntity
  8
1
 62
     2
100
AcDbMText
 10
89.5
 20
24.00000000000001
 30
0.0
 40
3.5
 41
0.0
 71
     5
 72
     1
  1
尺度
  7
CONVERTER_1
 73
     1
 44
0.7202881152461
  0
MTEXT
  5
A4
330
36
100
AcDbEntity
  8
1
 62
     2
100
AcDbMText
 10
135.5
 20
25.00000000000001
 30
0.0
 40
3.0
 41
0.0
 71
     5
 72
     1
  1
製図
  7
CONVERTER_1
 73
     1
 44
0.78031212484994
  0
MTEXT
  5
A5
330
36
100
AcDbEntity
  8
1
 62
     2
100
AcDbMText
 10
152.5
 20
25.00000000000001
 30
0.0
 40
3.0
 41
0.0
 71
     5
 72
     1
  1
設計
  7
CONVERTER_1
 73
     1
 44
0.78031212484994
  0
MTEXT
  5
A6
330
36
100
AcDbEntity
  8
1
 62
     2
100
AcDbMText
 10
118.5
 20
25.00000000000001
 30
0.0
 40
3.0
 41
0.0
 71
     5
 72
     1
  1
検図
  7
CONVERTER_1
 73
     1
 44
0.78031212484994
  0
MTEXT
  5
A7
330
36
100
AcDbEntity
  8
1
 62
     2
100
AcDbMText
 10
175.0
 20
23.50000000000001
 30
0.0
 40
3.5
 41
0.0
 71
     5
 72
     1
  1
第三角法
  7
CONVERTER_1
 73
     1
 44
0.7202881152461
  0
MTEXT
  5
A8
330
36
100
AcDbEntity
  8
1
 62
     2
100
AcDbMText
 10
101.5
 20
25.00000000000001
 30
0.0
 40
3.0
 41
0.0
 71
     5
 72
     1
  1
承認
  7
CONVERTER_1
 73
     1
 44
0.78031212484994
  0
MTEXT
  5
A9
330
36
100
AcDbEntity
  8
1
 62
     2
100
AcDbMText
 10
29.0
 20
14.25
 30
0.0
 40
3.5
 41
0.0
 71
     5
 72
     1
  1
品番
  7
CONVERTER_1
 73
     1
 44
0.96038415366146
  0
MTEXT
  5
AA
330
36
100
AcDbEntity
  8
1
 62
     2
100
AcDbMText
 10
29.0
 20
22.75
 30
0.0
 40
3.5
 41
0.0
 71
     5
 72
     1
  1
品名
  7
CONVERTER_1
 73
     1
 44
0.96038415366146
  0
MTEXT
  5
AB
330
36
100
AcDbEntity
  8
1
 62
     2
100
AcDbMText
 10
29.0
 20
34.00000000000001
 30
0.0
 40
3.5
 41
0.0
 71
     5
 72
     1
  1
備考
  7
CONVERTER_1
 73
     1
 44
0.60024009603842
  0
MTEXT
  5
AC
330
36
100
AcDbEntity
  8
1
 62
     2
100
AcDbMText
 10
32.5
 20
282.0000000000003
 30
0.0
 40
5.0
 41
0.0
 71
     5
 72
     1
  1
図番
  7
CONVERTER_1
 73
     1
 44
0.60024009603842
  0
MTEXT
  5
AD
330
36
100
AcDbEntity
  8
1
 62
     7
100
AcDbMText
 10
171.5
 20
15.0
 30
0.0
 40
2.5
 41
0.0
 71
     5
 72
     1
  1
株式会社
  7
CONVERTER_1
 73
     1
 44
1.32052821128451
  0
MTEXT
  5
AE
330
36
100
AcDbEntity
  8
1
 62
     7
100
AcDbMText
 10
188.5
 20
15.0
 30
0.0
 40
3.0
 41
0.0
 71
     5
 72
     1
  1
三栄水栓製作所
  7
CONVERTER_1
 73
     1
 44
1.32052821128451
  0
ENDBLK
  5
38
330
36
100
AcDbEntity
  8
0
100
AcDbBlockEnd
  0
BLOCK
  5
3A
330
39
100
AcDbEntity
  8
0
100
AcDbBlockBegin
  2
60-1-16-240
 70
     0
 71
     0
 10
325.7093344231131
 20
169.7476935151055
 30
0.0
  3
60-1-16-240
  1

  0
LINE
  5
AF
330
39
100
AcDbEntity
  8
1
  6
Continuous
 62
     7
100
AcDbLine
 10
156.8592134632322
 20
205.1137913450993
 30
0.0
 11
156.8592134632322
 21
265.6137913450993
 31
0.0
  0
LINE
  5
B0
330
39
100
AcDbEntity
  8
1
  6
Continuous
 62
     7
100
AcDbLine
 10
172.8592134632322
 20
205.1137913450993
 30
0.0
 11
172.8592134632322
 21
265.6137913450993
 31
0.0
  0
LINE
  5
B1
330
39
100
AcDbEntity
  8
1
  6
Continuous
 62
     7
100
AcDbLine
 10
157.4728064572462
 20
200.1137913450993
 30
0.0
 11
172.2456204692182
 21
200.1137913450993
 31
0.0
  0
LINE
  5
B2
330
39
100
AcDbEntity
  8
1
  6
Continuous
 62
     7
100
AcDbLine
 10
172.8592134632322
 20
205.1137913450993
 30
0.0
 11
156.8592134632322
 21
205.1137913450993
 31
0.0
  0
LINE
  5
B3
330
39
100
AcDbEntity
  8
1
  6
PHANTOM
 62
     4
100
AcDbLine
 10
176.2334356570943
 20
408.7962405077045
 30
0.0
 11
153.8812622510113
 21
408.7962405077045
 31
0.0
  0
LINE
  5
B4
330
39
100
AcDbEntity
  8
1
  6
Continuous
 62
     7
100
AcDbLine
 10
156.8592134632322
 20
637.2510345283226
 30
0.0
 11
156.8592134632322
 21
408.7962405077045
 31
0.0
  0
LINE
  5
B5
330
39
100
AcDbEntity
  8
1
  6
Continuous
 62
     7
100
AcDbLine
 10
172.8592134632322
 20
637.2510345283226
 30
0.0
 11
172.8592134632322
 21
408.7962405077045
 31
0.0
  0
LINE
  5
B6
330
39
100
AcDbEntity
  8
1
  6
Continuous
 62
     7
100
AcDbLine
 10
216.4873620181301
 20
200.1137913450993
 30
0.0
 11
231.2601760301022
 21
200.1137913450993
 31
0.0
  0
LINE
  5
B7
330
39
100
AcDbEntity
  8
1
  6
Continuous
 62
     7
100
AcDbLine
 10
231.8737690241162
 20
205.1137913450993
 30
0.0
 11
215.8737690241162
 21
205.1137913450993
 31
0.0
  0
LINE
  5
B8
330
39
100
AcDbEntity
  8
1
  6
Continuous
 62
     7
100
AcDbLine
 10
436.8755684285269
 20
241.1137913450994
 30
0.0
 11
250.8737690241162
 21
241.1137913450994
 31
0.0
  0
LINE
  5
B9
330
39
100
AcDbEntity
  8
1
  6
Continuous
 62
     7
100
AcDbLine
 10
455.8755684285269
 20
260.1137913450993
 30
0.0
 11
455.8755684285269
 21
265.6137913450993
 31
0.0
  0
LINE
  5
BA
330
39
100
AcDbEntity
  8
1
  6
Continuous
 62
     7
100
AcDbLine
 10
471.8755684285269
 20
265.6137913450993
 30
0.0
 11
471.8755684285269
 21
260.1137913450993
 31
0.0
  0
LINE
  5
BB
330
39
100
AcDbEntity
  8
1
  6
Continuous
 62
     7
100
AcDbLine
 10
215.8737690241162
 20
205.1137913450993
 30
0.0
 11
215.8737690241162
 21
206.1137913450993
 31
0.0
  0
LINE
  5
BC
330
39
100
AcDbEntity
  8
1
  6
Continuous
 62
     7
100
AcDbLine
 10
231.8737690241162
 20
205.1137913450993
 30
0.0
 11
231.8737690241162
 21
206.1137913450993
 31
0.0
  0
LINE
  5
BD
330
39
100
AcDbEntity
  8
1
  6
Continuous
 62
     7
100
AcDbLine
 10
436.8755684285269
 20
225.1137913450994
 30
0.0
 11
250.8737690241162
 21
225.1137913450994
 31
0.0
  0
ARC
  5
BE
330
39
100
AcDbEntity
  8
1
  6
Continuous
 62
     7
100
AcDbCircle
 10
164.8592134632322
 20
233.1137913450994
 30
0.0
 40
8.0
100
AcDbArc
 50
0.0
 51
180.0
  0
ARC
  5
BF
330
39
100
AcDbEntity
  8
1
  6
Continuous
 62
     7
100
AcDbCircle
 10
169.6491871685139
 20
202.9700716378771
 30
0.0
 40
3.86002629471838
100
AcDbArc
 50
-47.72834450358302
 51
0.0
  0
ARC
  5
C0
330
39
100
AcDbEntity
  8
1
  6
Continuous
 62
     7
100
AcDbCircle
 10
160.0692397579503
 20
202.9700716378771
 30
0.0
 40
3.860026294717989
100
AcDbArc
 50
146.2642089999723
 51
180.0
  0
ARC
  5
C1
330
39
100
AcDbEntity
  8
1
  6
Continuous
 62
     7
100
AcDbCircle
 10
160.0692397579503
 20
202.9700716378771
 30
0.0
 40
3.86002629471821
100
AcDbArc
 50
180.0
 51
-132.2716554964145
  0
ARC
  5
C2
330
39
100
AcDbEntity
  8
1
  6
Continuous
 62
     7
100
AcDbCircle
 10
169.6491871685139
 20
202.9700716378771
 30
0.0
 40
3.860026294718296
100
AcDbArc
 50
0.0
 51
33.73579100002586
  0
ARC
  5
C3
330
39
100
AcDbEntity
  8
1
  6
Continuous
 62
     7
100
AcDbCircle
 10
164.8592134632322
 20
408.7962405077045
 30
0.0
 40
8.650000000000071
100
AcDbArc
 50
157.6465744006677
 51
-90.0
  0
ARC
  5
C4
330
39
100
AcDbEntity
  8
1
  6
Continuous
 62
     7
100
AcDbCircle
 10
164.8592134632322
 20
408.7962405077045
 30
0.0
 40
8.650000000000091
100
AcDbArc
 50
-90.0
 51
22.35342559933236
  0
ARC
  5
C5
330
39
100
AcDbEntity
  8
1
  6
Continuous
 62
     7
100
AcDbCircle
 10
164.8592134632322
 20
408.7962405077045
 30
0.0
 40
8.0
100
AcDbArc
 50
180.0
 51
0.0
  0
ARC
  5
C6
330
39
100
AcDbEntity
  8
1
  6
Continuous
 62
     7
100
AcDbCircle
 10
436.8755684285269
 20
260.1137913450993
 30
0.0
 40
34.99999999999989
100
AcDbArc
 50
-90.0
 51
0.0
  0
ARC
  5
C7
330
39
100
AcDbEntity
  8
1
  6
Continuous
 62
     7
100
AcDbCircle
 10
436.8755684285269
 20
260.1137913450993
 30
0.0
 40
18.99999999999989
100
AcDbArc
 50
-90.0
 51
0.0
  0
ARC
  5
C8
330
39
100
AcDbEntity
  8
1
  6
Continuous
 62
     7
100
AcDbCircle
 10
250.8737690241162
 20
206.1137913450993
 30
0.0
 40
35.00000000000011
100
AcDbArc
 50
90.0
 51
180.0
  0
ARC
  5
C9
330
39
100
AcDbEntity
  8
1
  6
Continuous
 62
     7
100
AcDbCircle
 10
250.8737690241162
 20
206.1137913450993
 30
0.0
 40
19.00000000000011
100
AcDbArc
 50
90.0
 51
180.0
  0
ARC
  5
CA
330
39
100
AcDbEntity
  8
1
  6
Continuous
 62
     7
100
AcDbCircle
 10
228.6637427293979
 20
202.9700716378771
 30
0.0
 40
3.860026294718361
100
AcDbArc
 50
-47.72834450358334
 51
0.0
  0
ARC
  5
CB
330
39
100
AcDbEntity
  8
1
  6
Continuous
 62
     7
100
AcDbCircle
 10
219.0837953188343
 20
202.9700716378771
 30
0.0
 40
3.860026294717989
100
AcDbArc
 50
146.2642089999723
 51
180.0
  0
ARC
  5
CC
330
39
100
AcDbEntity
  8
1
  6
Continuous
 62
     7
100
AcDbCircle
 10
219.0837953188343
 20
202.9700716378771
 30
0.0
 40
3.860026294718182
100
AcDbArc
 50
180.0
 51
-132.2716554964154
  0
ARC
  5
CD
330
39
100
AcDbEntity
  8
1
  6
Continuous
 62
     7
100
AcDbCircle
 10
228.6637427293979
 20
202.9700716378771
 30
0.0
 40
3.860026294718182
100
AcDbArc
 50
0.0
 51
33.7357910000261
  0
ENDBLK
  5
3B
330
39
100
AcDbEntity
  8
0
100
AcDbBlockEnd
  0
BLOCK
  5
3D
330
3C
100
AcDbEntity
  8
0
100
AcDbBlockBegin
  2
32-1-16
 70
     0
 71
     0
 10
167.329828592858
 20
475.0996234752084
 30
0.0
  3
32-1-16
  1

  0
LINE
  5
CE
330
3C
100
AcDbEntity
  8
1
  6
Continuous
 62
     7
100
AcDbLine
 10
173.6095098123744
 20
659.9118614967586
 30
0.0
 11
177.6200727741338
 21
657.5963618911848
 31
0.0
  0
LINE
  5
CF
330
3C
100
AcDbEntity
  8
1
  6
Continuous
 62
     7
100
AcDbLine
 10
156.10891711409
 20
659.9118614967586
 30
0.0
 11
152.0983541523308
 21
657.5963618911848
 31
0.0
  0
LINE
  5
D0
330
3C
100
AcDbEntity
  8
1
  6
Continuous
 62
     7
100
AcDbLine
 10
178.8592134632322
 20
267.9006140953862
 30
0.0
 11
178.8592134632322
 21
275.0420425239292
 31
0.0
  0
LINE
  5
D1
330
3C
100
AcDbEntity
  8
1
  6
Continuous
 62
     7
100
AcDbLine
 10
178.1592134632323
 20
275.6137913450993
 30
0.0
 11
164.8592134632321
 21
275.6137913450993
 31
0.0
  0
LINE
  5
D2
330
3C
100
AcDbEntity
  8
1
  6
Continuous
 62
     7
100
AcDbLine
 10
176.4172345249629
 20
266.6137913450993
 30
0.0
 11
176.3592134632322
 21
266.6137913450993
 31
0.0
  0
LINE
  5
D3
330
3C
100
AcDbEntity
  8
1
  6
Continuous
 62
     7
100
AcDbLine
 10
164.8592134632321
 20
265.6137913450993
 30
0.0
 11
174.6271626556634
 21
265.6137913450993
 31
0.0
  0
LINE
  5
D4
330
3C
100
AcDbEntity
  8
1
  6
Continuous
 62
     7
100
AcDbLine
 10
173.6575354423019
 20
266.6137913450993
 30
0.0
 11
164.8592134632321
 21
266.6137913450993
 31
0.0
  0
LINE
  5
D5
330
3C
100
AcDbEntity
  8
1
  6
Continuous
 62
     7
100
AcDbLine
 10
150.8592134632322
 20
275.0420425239292
 30
0.0
 11
150.8592134632322
 21
267.9006140953862
 31
0.0
  0
LINE
  5
D6
330
3C
100
AcDbEntity
  8
1
  6
Continuous
 62
     7
100
AcDbLine
 10
164.8592134632321
 20
275.6137913450993
 30
0.0
 11
151.5592134632321
 21
275.6137913450993
 31
0.0
  0
LINE
  5
D7
330
3C
100
AcDbEntity
  8
1
  6
Continuous
 62
     7
100
AcDbLine
 10
153.3592134632321
 20
266.6137913450993
 30
0.0
 11
153.3011924015016
 21
266.6137913450993
 31
0.0
  0
LINE
  5
D8
330
3C
100
AcDbEntity
  8
1
  6
Continuous
 62
     7
100
AcDbLine
 10
155.0912642708009
 20
265.6137913450993
 30
0.0
 11
164.8592134632321
 21
265.6137913450993
 31
0.0
  0
LINE
  5
D9
330
3C
100
AcDbEntity
  8
1
  6
Continuous
 62
     7
100
AcDbLine
 10
164.8592134632321
 20
266.6137913450993
 30
0.0
 11
156.0608914841625
 21
266.6137913450993
 31
0.0
  0
LINE
  5
DA
330
3C
100
AcDbEntity
  8
1
  6
Continuous
 62
     7
100
AcDbLine
 10
477.1755684285268
 20
275.6137913450993
 30
0.0
 11
463.8755684285269
 21
275.6137913450993
 31
0.0
  0
LINE
  5
DB
330
3C
100
AcDbEntity
  8
1
  6
Continuous
 62
     7
100
AcDbLine
 10
477.0625684285268
 20
275.6137913450993
 30
0.0
 11
477.1755684285268
 21
275.6137913450993
 31
0.0
  0
LINE
  5
DC
330
3C
100
AcDbEntity
  8
1
  6
Continuous
 62
     7
100
AcDbLine
 10
475.4335894902574
 20
266.6137913450993
 30
0.0
 11
475.3755684285269
 21
266.6137913450993
 31
0.0
  0
LINE
  5
DD
330
3C
100
AcDbEntity
  8
1
  6
Continuous
 62
     7
100
AcDbLine
 10
463.8755684285269
 20
265.6137913450993
 30
0.0
 11
473.643517620958
 21
265.6137913450993
 31
0.0
  0
LINE
  5
DE
330
3C
100
AcDbEntity
  8
1
  6
Continuous
 62
     7
100
AcDbLine
 10
472.6738904075965
 20
266.6137913450993
 30
0.0
 11
463.8755684285269
 21
266.6137913450993
 31
0.0
  0
LINE
  5
DF
330
3C
100
AcDbEntity
  8
1
  6
Continuous
 62
     7
100
AcDbLine
 10
166.0983541523308
 20
633.3476505852204
 30
0.0
 11
177.6200727741338
 21
639.9997179330455
 31
0.0
  0
LINE
  5
E0
330
3C
100
AcDbEntity
  8
1
  6
Continuous
 62
     7
100
AcDbLine
 10
152.0983541523308
 20
639.9997179330455
 30
0.0
 11
163.6200727741338
 21
633.3476505852204
 31
0.0
  0
LINE
  5
E1
330
3C
100
AcDbEntity
  8
1
  6
Continuous
 62
     7
100
AcDbLine
 10
150.8592134632322
 20
655.4501072599402
 30
0.0
 11
150.8592134632322
 21
642.1459725642901
 31
0.0
  0
LINE
  5
E2
330
3C
100
AcDbEntity
  8
1
  6
Continuous
 62
     7
100
AcDbLine
 10
178.8592134632322
 20
655.4501072599402
 30
0.0
 11
178.8592134632322
 21
642.1459725642901
 31
0.0
  0
LINE
  5
E3
330
3C
100
AcDbEntity
  8
1
  6
Continuous
 62
     7
100
AcDbLine
 10
463.8755684285269
 20
275.6137913450993
 30
0.0
 11
450.5755684285268
 21
275.6137913450993
 31
0.0
  0
LINE
  5
E4
330
3C
100
AcDbEntity
  8
1
  6
Continuous
 62
     7
100
AcDbLine
 10
450.5755684285268
 20
275.6137913450993
 30
0.0
 11
450.6885684285268
 21
275.6137913450993
 31
0.0
  0
LINE
  5
E5
330
3C
100
AcDbEntity
  8
1
  6
Continuous
 62
     7
100
AcDbLine
 10
452.3755684285269
 20
266.6137913450993
 30
0.0
 11
452.3175473667963
 21
266.6137913450993
 31
0.0
  0
LINE
  5
E6
330
3C
100
AcDbEntity
  8
1
  6
Continuous
 62
     7
100
AcDbLine
 10
454.1076192360957
 20
265.6137913450993
 30
0.0
 11
463.8755684285269
 21
265.6137913450993
 31
0.0
  0
LINE
  5
E7
330
3C
100
AcDbEntity
  8
1
  6
Continuous
 62
     7
100
AcDbLine
 10
463.8755684285269
 20
266.6137913450993
 30
0.0
 11
455.0772464494572
 21
266.6137913450993
 31
0.0
  0
ARC
  5
E8
330
3C
100
AcDbEntity
  8
1
  6
Continuous
 62
     7
100
AcDbCircle
 10
175.3592134632322
 20
271.4713283096578
 30
0.0
 40
4.999999999999975
100
AcDbArc
 50
45.57299599919402
 51
55.94420225743053
  0
ARC
  5
E9
330
3C
100
AcDbEntity
  8
1
  6
Continuous
 62
     7
100
AcDbCircle
 10
175.3592134632322
 20
271.4713283096578
 30
0.0
 40
5.000000000000014
100
AcDbArc
 50
-74.66244233044463
 51
-45.57299599919585
  0
ARC
  5
EA
330
3C
100
AcDbEntity
  8
1
  6
Continuous
 62
     7
100
AcDbCircle
 10
154.3592134632321
 20
271.4713283096578
 30
0.0
 40
4.999999999999906
100
AcDbArc
 50
124.0557977425684
 51
134.4270040008051
  0
ARC
  5
EB
330
3C
100
AcDbEntity
  8
1
  6
Continuous
 62
     7
100
AcDbCircle
 10
154.3592134632321
 20
271.4713283096578
 30
0.0
 40
5.000000000000059
100
AcDbArc
 50
-134.4270040008032
 51
-105.3375576695541
  0
ARC
  5
EC
330
3C
100
AcDbEntity
  8
1
  6
Continuous
 62
     7
100
AcDbCircle
 10
474.3755684285269
 20
271.4713283096578
 30
0.0
 40
4.999999999999985
100
AcDbArc
 50
-74.66244233044588
 51
55.94420225743242
  0
ARC
  5
ED
330
3C
100
AcDbEntity
  8
1
  6
Continuous
 62
     7
100
AcDbCircle
 10
164.8592134632322
 20
648.7980399121152
 30
0.0
 40
15.5
100
AcDbArc
 50
-90.0
 51
-85.41462091516078
  0
ARC
  5
EE
330
3C
100
AcDbEntity
  8
1
  6
Continuous
 62
     7
100
AcDbCircle
 10
164.8592134632322
 20
648.7980399121152
 30
0.0
 40
15.50000000000014
100
AcDbArc
 50
-34.58537908483888
 51
-25.41462091516118
  0
ARC
  5
EF
330
3C
100
AcDbEntity
  8
1
  6
Continuous
 62
     7
100
AcDbCircle
 10
164.8592134632322
 20
648.7980399121152
 30
0.0
 40
15.50000000000009
100
AcDbArc
 50
-94.58537908483849
 51
-90.0
  0
ARC
  5
F0
330
3C
100
AcDbEntity
  8
1
  6
Continuous
 62
     7
100
AcDbCircle
 10
164.8592134632322
 20
648.7980399121152
 30
0.0
 40
15.50000000000003
100
AcDbArc
 50
-154.5853790848388
 51
-145.4146209151607
  0
ARC
  5
F1
330
3C
100
AcDbEntity
  8
1
  6
Continuous
 62
     7
100
AcDbCircle
 10
164.8592134632322
 20
648.7980399121152
 30
0.0
 40
15.49999999999991
100
AcDbArc
 50
145.4146209151611
 51
154.5853790848392
  0
ARC
  5
F2
330
3C
100
AcDbEntity
  8
1
  6
Continuous
 62
     7
100
AcDbCircle
 10
164.8592134632322
 20
648.7980399121152
 30
0.0
 40
15.49999999999998
100
AcDbArc
 50
25.4146209151608
 51
34.58537908483853
  0
ARC
  5
F3
330
3C
100
AcDbEntity
  8
1
  6
Continuous
 62
     7
100
AcDbCircle
 10
453.3755684285269
 20
271.4713283096578
 30
0.0
 40
4.999999999999954
100
AcDbArc
 50
124.0557977425692
 51
-105.3375576695554
  0
SPLINE
  5
F4
330
3C
100
AcDbEntity
  8
1
  6
Continuous
 62
     7
100
AcDbSpline
210
0.0
220
0.0
230
1.0
 70
    11
 71
     3
 72
    79
 73
    75
 74
    73
 42
0.0000000001
 43
0.0000000001
 44
0.00000001
 40
0.0
 40
0.0
 40
0.0
 40
0.0
 40
0.2910229153817649
 40
0.5820342278737837
 40
0.8749339334364725
 40
1.167812547519421
 40
1.463561188767399
 40
1.759282806464911
 40
2.058487811140839
 40
2.357663885605984
 40
2.660503341347633
 40
2.963315625194714
 40
3.269530826276653
 40
3.575723468843871
 40
3.884662744191449
 40
4.193586027919046
 40
4.504289085610713
 40
4.814983882015397
 40
5.126294430971218
 40
5.437604979927044
 40
5.748299776331728
 40
6.059002834023316
 40
6.367926117750891
 40
6.676865393098448
 40
6.983058035665717
 40
7.289273236747599
 40
7.592085520594758
 40
7.894924976336445
 40
8.19410105080155
 40
8.493306055477595
 40
8.789027673175154
 40
9.084776314423083
 40
9.377654928506003
 40
9.670554634068655
 40
9.961565946560604
 40
10.25258886194245
 40
10.54295309984943
 40
10.83331733775642
 40
11.12434025313826
 40
11.4153515656301
 40
11.70825127119277
 40
12.00112988527567
 40
12.29687852652375
 40
12.59260014422126
 40
12.89180514889717
 40
13.19098122336232
 40
13.49382067910405
 40
13.79663296295113
 40
14.10284816403304
 40
14.4090408066002
 40
14.71798008194781
 40
15.0269033656754
 40
15.33760642336706
 40
15.64830121977174
 40
15.95961176872756
 40
16.27092231768338
 40
16.58161711408813
 40
16.89232017177973
 40
17.20124345550729
 40
17.51018273085494
 40
17.81637537342213
 40
18.12259057450405
 40
18.42540285835113
 40
18.72824231409281
 40
19.02741838855796
 40
19.32662339323392
 40
19.6223450109314
 40
19.91809365217933
 40
20.21097226626234
 40
20.50387197182492
 40
20.79488328431694
 40
21.0859061996987
 40
21.37627043760568
 40
21.66663467551272
 40
21.66663467551272
 40
21.66663467551272
 40
21.66663467551272
 10
452.0412562302952
 20
275.0283975610589
 30
0.0
 10
452.1376312890121
 20
275.0167218932576
 30
0.0
 10
452.3303775640368
 20
274.9933710231561
 30
0.0
 10
452.6143140733013
 20
274.9240150297054
 30
0.0
 10
452.8915783391605
 20
274.8305722721299
 30
0.0
 10
453.1603307230105
 20
274.7106652861528
 30
0.0
 10
453.4179761065302
 20
274.5666197809657
 30
0.0
 10
453.663203053765
 20
274.3985531801201
 30
0.0
 10
453.8934664098222
 20
274.2087184470463
 30
0.0
 10
454.1076986183381
 20
273.9975823183789
 30
0.0
 10
454.3036530471009
 20
273.767802714745
 30
0.0
 10
454.4804103907215
 20
273.5200741825206
 30
0.0
 10
454.6361812246887
 20
273.2573419426868
 30
0.0
 10
454.7701496420579
 20
272.980590931045
 30
0.0
 10
454.8810726733432
 20
272.6928589532814
 30
0.0
 10
454.9682494657145
 20
272.3955055068586
 30
0.0
 10
455.0309974758074
 20
272.0914595107155
 30
0.0
 10
455.0687978550199
 20
271.7825179149614
 30
0.0
 10
455.081474928508
 20
271.4713283096587
 30
0.0
 10
455.0687978550199
 20
271.1601387043505
 30
0.0
 10
455.0309974758062
 20
270.8511971086132
 30
0.0
 10
454.9682494657192
 20
270.5471511124084
 30
0.0
 10
454.881072673326
 20
270.2497976662146
 30
0.0
 10
454.7701496421211
 20
269.9620656875999
 30
0.0
 10
454.6361812244554
 20
269.6853146791078
 30
0.0
 10
454.4804103915883
 20
269.4225824275835
 30
0.0
 10
454.3036530439067
 20
269.1748539385252
 30
0.0
 10
454.1076986302037
 20
268.9450741748045
 30
0.0
 10
453.8934663661325
 20
268.7339386366966
 30
0.0
 10
453.6632032160982
 20
268.544101713569
 30
0.0
 10
453.4179755085028
 20
268.3760431954741
 30
0.0
 10
453.1603329468233
 20
268.2319676936812
 30
0.0
 10
452.8915701289322
 20
268.1121716232015
 30
0.0
 10
452.6143446432397
 20
268.0183166263603
 30
0.0
 10
452.3302642897373
 20
267.9504897197705
 30
0.0
 10
452.0418968092241
 20
267.9097947581466
 30
0.0
 10
451.7512127755448
 20
267.8960289645819
 30
0.0
 10
451.4605287418652
 20
267.9097947581467
 30
0.0
 10
451.1721612613524
 20
267.9504897197705
 30
0.0
 10
450.8880809078498
 20
268.0183166263603
 30
0.0
 10
450.6108554221574
 20
268.1121716232016
 30
0.0
 10
450.3420926042662
 20
268.2319676936813
 30
0.0
 10
450.0844500425865
 20
268.3760431954739
 30
0.0
 10
449.8392223349916
 20
268.544101713569
 30
0.0
 10
449.608959184957
 20
268.7339386366966
 30
0.0
 10
449.394726920886
 20
268.9450741748044
 30
0.0
 10
449.198772507183
 20
269.1748539385253
 30
0.0
 10
449.0220151595015
 20
269.4225824275835
 30
0.0
 10
448.8662443266343
 20
269.6853146791078
 30
0.0
 10
448.7322759089686
 20
269.9620656875997
 30
0.0
 10
448.6213528777636
 20
270.2497976662147
 30
0.0
 10
448.5341760853702
 20
270.5471511124083
 30
0.0
 10
448.4714280752834
 20
270.8511971086131
 30
0.0
 10
448.4336276960694
 20
271.1601387043506
 30
0.0
 10
448.4209506225818
 20
271.471328309658
 30
0.0
 10
448.4336276960697
 20
271.7825179149647
 30
0.0
 10
448.4714280752834
 20
272.0914595107034
 30
0.0
 10
448.5341760853701
 20
272.3955055069037
 30
0.0
 10
448.6213528777647
 20
272.692858953114
 30
0.0
 10
448.7322759089641
 20
272.9805909316676
 30
0.0
 10
448.8662443266509
 20
273.2573419403857
 30
0.0
 10
449.0220151594393
 20
273.5200741910716
 30
0.0
 10
449.198772507412
 20
273.7678026832255
 30
0.0
 10
449.3947269200349
 20
273.9975824354656
 30
0.0
 10
449.6089591880903
 20
274.2087180159253
 30
0.0
 10
449.8392223233498
 20
274.3985547819937
 30
0.0
 10
450.084450085474
 20
274.566613879741
 30
0.0
 10
450.3420924447861
 20
274.7106872303349
 30
0.0
 10
450.6108560109518
 20
274.8304912550916
 30
0.0
 10
450.8880787155345
 20
274.9243166882972
 30
0.0
 10
451.1721693847902
 20
274.9922532529691
 30
0.0
 10
451.4604984458615
 20
275.0325398098856
 30
0.0
 10
451.7513255585271
 20
275.0478265555695
 30
0.0
 10
451.9446126730392
 20
275.0348738925624
 30
0.0
 10
452.0412562302952
 20
275.0283975610589
 30
0.0
 11
452.0412562302952
 21
275.0283975610589
 31
0.0
 11
452.3294157265701
 21
274.9876735879726
 31
0.0
 11
452.6124979329526
 21
274.9202047179072
 31
0.0
 11
452.8899219754965
 21
274.8262571892683
 31
0.0
 11
453.1574837276139
 21
274.7071413154689
 31
0.0
 11
453.4156160963291
 21
274.5627981860117
 31
0.0
 11
453.6596287489402
 21
274.395738015596
 31
0.0
 11
453.8905082544711
 21
274.2054269839953
 31
0.0
 11
454.1036835494223
 21
273.9955160096398
 31
0.0
 11
454.3002178734305
 21
273.7651120265134
 31
0.0
 11
454.4761914092301
 21
273.5186803038256
 31
0.0
 11
454.632388549703
 21
273.2552980669877
 31
0.0
 11
454.7658842376673
 21
272.9797389342099
 31
0.0
 11
454.8770341632244
 21
272.6914870133127
 31
0.0
 11
454.9640108172506
 21
272.3950605352723
 31
0.0
 11
455.0268158915721
 21
272.0907713427293
 31
0.0
 11
455.0645912532438
 21
271.7823815268088
 31
0.0
 11
455.0772464494574
 21
271.4713283096578
 31
0.0
 11
455.0645912532436
 21
271.1602750925068
 31
0.0
 11
455.026815891572
 21
270.8518852765862
 31
0.0
 11
454.9640108172506
 21
270.5475960840434
 31
0.0
 11
454.8770341632243
 21
270.251169606003
 31
0.0
 11
454.7658842376672
 21
269.9629176851058
 31
0.0
 11
454.632388549703
 21
269.687358552328
 31
0.0
 11
454.4761914092302
 21
269.4239763154901
 31
0.0
 11
454.3002178734305
 21
269.1775445928022
 31
0.0
 11
454.1036835494222
 21
268.9471406096758
 31
0.0
 11
453.8905082544711
 21
268.7372296353204
 31
0.0
 11
453.6596287489401
 21
268.5469186037195
 31
0.0
 11
453.415616096329
 21
268.3798584333038
 31
0.0
 11
453.1574837276138
 21
268.2355153038466
 31
0.0
 11
452.8899219754964
 21
268.1163994300472
 31
0.0
 11
452.6124979329526
 21
268.0224519014084
 31
0.0
 11
452.3294157265701
 21
267.9549830313431
 31
0.0
 11
452.0412562302952
 21
267.9142590582566
 31
0.0
 11
451.7512127755447
 21
267.9006140953864
 31
0.0
 11
451.4611693207943
 21
267.9142590582566
 31
0.0
 11
451.1730098245194
 21
267.9549830313431
 31
0.0
 11
450.889927618137
 21
268.0224519014084
 31
0.0
 11
450.6125035755932
 21
268.1163994300472
 31
0.0
 11
450.3449418234758
 21
268.2355153038466
 31
0.0
 11
450.0868094547604
 21
268.3798584333038
 31
0.0
 11
449.8427968021493
 21
268.5469186037195
 31
0.0
 11
449.6119172966186
 21
268.7372296353204
 31
0.0
 11
449.3987420016674
 21
268.9471406096758
 31
0.0
 11
449.2022076776591
 21
269.1775445928023
 31
0.0
 11
449.0262341418595
 21
269.4239763154901
 31
0.0
 11
448.8700370013866
 21
269.687358552328
 31
0.0
 11
448.7365413134224
 21
269.9629176851057
 31
0.0
 11
448.6253913878653
 21
270.251169606003
 31
0.0
 11
448.5384147338389
 21
270.5475960840433
 31
0.0
 11
448.4756096595174
 21
270.8518852765862
 31
0.0
 11
448.4378342978458
 21
271.1602750925068
 31
0.0
 11
448.4251791016322
 21
271.4713283096578
 31
0.0
 11
448.4378342978458
 21
271.7823815268088
 31
0.0
 11
448.4756096595175
 21
272.0907713427294
 31
0.0
 11
448.538414733839
 21
272.3950605352723
 31
0.0
 11
448.6253913878653
 21
272.6914870133126
 31
0.0
 11
448.7365413134224
 21
272.9797389342099
 31
0.0
 11
448.8700370013866
 21
273.2552980669877
 31
0.0
 11
449.0262341418595
 21
273.5186803038256
 31
0.0
 11
449.2022076776591
 21
273.7651120265134
 31
0.0
 11
449.3987420016674
 21
273.9955160096398
 31
0.0
 11
449.6119172966185
 21
274.2054269839953
 31
0.0
 11
449.8427968021494
 21
274.3957380155961
 31
0.0
 11
450.0868094547605
 21
274.5627981860117
 31
0.0
 11
450.3449418234757
 21
274.7071413154689
 31
0.0
 11
450.6125035755932
 21
274.8262571892683
 31
0.0
 11
450.8899276181369
 21
274.9202047179072
 31
0.0
 11
451.1730098245195
 21
274.9876735879726
 31
0.0
 11
451.4611693207943
 21
275.0283975610589
 31
0.0
 11
451.7512127755447
 21
275.0420425239291
 31
0.0
 11
452.0412562302952
 21
275.0283975610589
 31
0.0
  0
SPLINE
  5
F5
330
3C
100
AcDbEntity
  8
1
  6
Continuous
 62
     7
100
AcDbSpline
210
0.0
220
0.0
230
1.0
 70
    11
 71
     3
 72
    79
 73
    75
 74
    73
 42
0.0000000001
 43
0.0000000001
 44
0.00000001
 40
0.0
 40
0.0
 40
0.0
 40
0.0
 40
0.2910229153818212
 40
0.5820342278737294
 40
0.8749339334364721
 40
1.167812547519368
 40
1.463561188767297
 40
1.759282806464902
 40
2.058487811140787
 40
2.357663885605972
 40
2.660503341347622
 40
2.963315625194702
 40
3.269530826276613
 40
3.57572346884383
 40
3.884662744191409
 40
4.193586027919054
 40
4.504289085610686
 40
4.81498388201537
 40
5.126294430971188
 40
5.437604979927007
 40
5.748299776331691
 40
6.059002834023302
 40
6.36792611775086
 40
6.676865393098439
 40
6.983058035665708
 40
7.289273236747589
 40
7.592085520594716
 40
7.894924976336365
 40
8.194101050801592
 40
8.493306055477548
 40
8.789027673175108
 40
9.084776314423086
 40
9.377654928505955
 40
9.670554634068607
 40
9.961565946560501
 40
10.25258886194235
 40
10.54295309984933
 40
10.83331733775637
 40
11.12434025313822
 40
11.41535156563016
 40
11.70825127119278
 40
12.00112988527568
 40
12.29687852652356
 40
12.59260014422121
 40
12.89180514889721
 40
13.19098122336232
 40
13.49382067910405
 40
13.79663296295113
 40
14.10284816403307
 40
14.40904080660021
 40
14.71798008194786
 40
15.0269033656754
 40
15.33760642336706
 40
15.64830121977174
 40
15.95961176872756
 40
16.27092231768338
 40
16.58161711408811
 40
16.89232017177973
 40
17.20124345550729
 40
17.51018273085492
 40
17.81637537342209
 40
18.122590574504
 40
18.42540285835112
 40
18.72824231409277
 40
19.02741838855799
 40
19.32662339323396
 40
19.62234501093149
 40
19.91809365217952
 40
20.21097226626231
 40
20.50387197182505
 40
20.7948832843169
 40
21.08590619969878
 40
21.37627043760582
 40
21.6666346755128
 40
21.6666346755128
 40
21.6666346755128
 40
21.6666346755128
 10
475.7098806267586
 20
275.0283975610589
 30
0.0
 10
475.6135055680416
 20
275.0167218932576
 30
0.0
 10
475.4207592930171
 20
274.9933710231561
 30
0.0
 10
475.1368227837525
 20
274.9240150297056
 30
0.0
 10
474.8595585178935
 20
274.8305722721299
 30
0.0
 10
474.5908061340433
 20
274.7106652861528
 30
0.0
 10
474.3331607505236
 20
274.5666197809655
 30
0.0
 10
474.0879338032888
 20
274.3985531801202
 30
0.0
 10
473.8576704472317
 20
274.2087184470462
 30
0.0
 10
473.6434382387157
 20
273.9975823183789
 30
0.0
 10
473.4474838099528
 20
273.7678027147449
 30
0.0
 10
473.2707264663322
 20
273.5200741825207
 30
0.0
 10
473.1149556323652
 20
273.2573419426868
 30
0.0
 10
472.9809872149959
 20
272.980590931045
 30
0.0
 10
472.8700641837107
 20
272.6928589532815
 30
0.0
 10
472.7828873913391
 20
272.3955055068587
 30
0.0
 10
472.7201393812464
 20
272.0914595107155
 30
0.0
 10
472.682339002034
 20
271.7825179149614
 30
0.0
 10
472.669661928546
 20
271.4713283096588
 30
0.0
 10
472.6823390020338
 20
271.1601387043504
 30
0.0
 10
472.7201393812477
 20
270.8511971086132
 30
0.0
 10
472.7828873913347
 20
270.5471511124084
 30
0.0
 10
472.8700641837276
 20
270.2497976662147
 30
0.0
 10
472.9809872149331
 20
269.9620656875999
 30
0.0
 10
473.1149556325984
 20
269.6853146791078
 30
0.0
 10
473.2707264654657
 20
269.4225824275834
 30
0.0
 10
473.4474838131471
 20
269.1748539385253
 30
0.0
 10
473.6434382268501
 20
268.9450741748044
 30
0.0
 10
473.8576704909215
 20
268.7339386366967
 30
0.0
 10
474.0879336409558
 20
268.544101713569
 30
0.0
 10
474.333161348551
 20
268.3760431954741
 30
0.0
 10
474.5908039102305
 20
268.2319676936813
 30
0.0
 10
474.8595667281215
 20
268.1121716232014
 30
0.0
 10
475.136792213814
 20
268.0183166263603
 30
0.0
 10
475.4208725673165
 20
267.9504897197704
 30
0.0
 10
475.7092400478294
 20
267.9097947581466
 30
0.0
 10
475.9999240815091
 20
267.8960289645819
 30
0.0
 10
476.2906081151886
 20
267.9097947581467
 30
0.0
 10
476.5789755957015
 20
267.9504897197704
 30
0.0
 10
476.8630559492041
 20
268.0183166263602
 30
0.0
 10
477.1402814348965
 20
268.1121716232016
 30
0.0
 10
477.4090442527876
 20
268.2319676936812
 30
0.0
 10
477.6666868144671
 20
268.3760431954742
 30
0.0
 10
477.9119145220624
 20
268.544101713569
 30
0.0
 10
478.1421776720966
 20
268.7339386366966
 30
0.0
 10
478.356409936168
 20
268.9450741748045
 30
0.0
 10
478.5523643498709
 20
269.1748539385252
 30
0.0
 10
478.7291216975525
 20
269.4225824275835
 30
0.0
 10
478.8848925304197
 20
269.6853146791077
 30
0.0
 10
479.0188609480852
 20
269.9620656875999
 30
0.0
 10
479.1297839792907
 20
270.2497976662145
 30
0.0
 10
479.2169607716833
 20
270.5471511124084
 30
0.0
 10
479.2797087817704
 20
270.8511971086131
 30
0.0
 10
479.3175091609844
 20
271.1601387043507
 30
0.0
 10
479.330186234472
 20
271.4713283096577
 30
0.0
 10
479.3175091609842
 20
271.7825179149647
 30
0.0
 10
479.2797087817705
 20
272.0914595107035
 30
0.0
 10
479.2169607716835
 20
272.3955055069037
 30
0.0
 10
479.1297839792893
 20
272.692858953114
 30
0.0
 10
479.0188609480896
 20
272.9805909316676
 30
0.0
 10
478.8848925304031
 20
273.2573419403857
 30
0.0
 10
478.7291216976146
 20
273.5200741910716
 30
0.0
 10
478.5523643496421
 20
273.7678026832254
 30
0.0
 10
478.3564099370188
 20
273.9975824354657
 30
0.0
 10
478.1421776689637
 20
274.2087180159252
 30
0.0
 10
477.911914533704
 20
274.3985547819938
 30
0.0
 10
477.6666867715798
 20
274.566613879741
 30
0.0
 10
477.4090444122677
 20
274.7106872303347
 30
0.0
 10
477.140280846102
 20
274.8304912550917
 30
0.0
 10
476.8630581415197
 20
274.9243166882971
 30
0.0
 10
476.5789674722633
 20
274.9922532529691
 30
0.0
 10
476.2906384111923
 20
275.0325398098856
 30
0.0
 10
475.9998112985264
 20
275.0478265555696
 30
0.0
 10
475.8065241840146
 20
275.0348738925625
 30
0.0
 10
475.7098806267586
 20
275.0283975610589
 30
0.0
 11
475.7098806267586
 21
275.0283975610589
 31
0.0
 11
475.4217211304837
 21
274.9876735879726
 31
0.0
 11
475.1386389241012
 21
274.9202047179072
 31
0.0
 11
474.8612148815573
 21
274.8262571892683
 31
0.0
 11
474.5936531294399
 21
274.7071413154689
 31
0.0
 11
474.3355207607248
 21
274.5627981860117
 31
0.0
 11
474.0915081081135
 21
274.395738015596
 31
0.0
 11
473.8606286025827
 21
274.2054269839953
 31
0.0
 11
473.6474533076315
 21
273.9955160096398
 31
0.0
 11
473.4509189836233
 21
273.7651120265134
 31
0.0
 11
473.2749454478237
 21
273.5186803038256
 31
0.0
 11
473.1187483073508
 21
273.2552980669877
 31
0.0
 11
472.9852526193866
 21
272.9797389342099
 31
0.0
 11
472.8741026938295
 21
272.6914870133127
 31
0.0
 11
472.7871260398031
 21
272.3950605352723
 31
0.0
 11
472.7243209654817
 21
272.0907713427293
 31
0.0
 11
472.6865456038101
 21
271.7823815268088
 31
0.0
 11
472.6738904075965
 21
271.4713283096578
 31
0.0
 11
472.6865456038101
 21
271.1602750925068
 31
0.0
 11
472.7243209654817
 21
270.8518852765862
 31
0.0
 11
472.7871260398032
 21
270.5475960840434
 31
0.0
 11
472.8741026938295
 21
270.251169606003
 31
0.0
 11
472.9852526193866
 21
269.9629176851058
 31
0.0
 11
473.1187483073509
 21
269.687358552328
 31
0.0
 11
473.2749454478237
 21
269.4239763154901
 31
0.0
 11
473.4509189836233
 21
269.1775445928022
 31
0.0
 11
473.6474533076315
 21
268.9471406096758
 31
0.0
 11
473.8606286025828
 21
268.7372296353204
 31
0.0
 11
474.0915081081137
 21
268.5469186037195
 31
0.0
 11
474.3355207607248
 21
268.3798584333038
 31
0.0
 11
474.59365312944
 21
268.2355153038466
 31
0.0
 11
474.8612148815574
 21
268.1163994300472
 31
0.0
 11
475.1386389241012
 21
268.0224519014084
 31
0.0
 11
475.4217211304837
 21
267.9549830313431
 31
0.0
 11
475.7098806267586
 21
267.9142590582566
 31
0.0
 11
475.999924081509
 21
267.9006140953864
 31
0.0
 11
476.2899675362595
 21
267.9142590582566
 31
0.0
 11
476.5781270325344
 21
267.9549830313431
 31
0.0
 11
476.8612092389169
 21
268.0224519014084
 31
0.0
 11
477.1386332814607
 21
268.1163994300472
 31
0.0
 11
477.4061950335781
 21
268.2355153038466
 31
0.0
 11
477.6643274022932
 21
268.3798584333038
 31
0.0
 11
477.9083400549044
 21
268.5469186037195
 31
0.0
 11
478.1392195604353
 21
268.7372296353204
 31
0.0
 11
478.3523948553865
 21
268.9471406096758
 31
0.0
 11
478.5489291793948
 21
269.1775445928023
 31
0.0
 11
478.7249027151944
 21
269.4239763154901
 31
0.0
 11
478.8810998556673
 21
269.687358552328
 31
0.0
 11
479.0145955436315
 21
269.9629176851057
 31
0.0
 11
479.1257454691886
 21
270.251169606003
 31
0.0
 11
479.2127221232149
 21
270.5475960840433
 31
0.0
 11
479.2755271975364
 21
270.8518852765862
 31
0.0
 11
479.313302559208
 21
271.1602750925068
 31
0.0
 11
479.3259577554216
 21
271.4713283096578
 31
0.0
 11
479.313302559208
 21
271.7823815268088
 31
0.0
 11
479.2755271975365
 21
272.0907713427294
 31
0.0
 11
479.2127221232149
 21
272.3950605352723
 31
0.0
 11
479.1257454691886
 21
272.6914870133126
 31
0.0
 11
479.0145955436315
 21
272.9797389342099
 31
0.0
 11
478.8810998556673
 21
273.2552980669877
 31
0.0
 11
478.7249027151945
 21
273.5186803038256
 31
0.0
 11
478.5489291793948
 21
273.7651120265134
 31
0.0
 11
478.3523948553866
 21
273.9955160096398
 31
0.0
 11
478.1392195604353
 21
274.2054269839953
 31
0.0
 11
477.9083400549044
 21
274.3957380155961
 31
0.0
 11
477.6643274022933
 21
274.5627981860117
 31
0.0
 11
477.406195033578
 21
274.7071413154689
 31
0.0
 11
477.1386332814607
 21
274.8262571892683
 31
0.0
 11
476.8612092389168
 21
274.9202047179072
 31
0.0
 11
476.5781270325344
 21
274.9876735879726
 31
0.0
 11
476.2899675362595
 21
275.0283975610589
 31
0.0
 11
475.999924081509
 21
275.0420425239291
 31
0.0
 11
475.7098806267586
 21
275.0283975610589
 31
0.0
  0
SPLINE
  5
F6
330
3C
100
AcDbEntity
  8
1
  6
Continuous
 62
     7
100
AcDbSpline
210
0.0
220
0.0
230
1.0
 70
    11
 71
     3
 72
    79
 73
    75
 74
    73
 42
0.0000000001
 43
0.0000000001
 44
0.00000001
 40
0.0
 40
0.0
 40
0.0
 40
0.0
 40
0.3261285623000833
 40
0.6517434317456414
 40
1.007597961146664
 40
1.362821877734665
 40
1.759927766176542
 40
2.1565643351753
 40
2.599261974949951
 40
3.041659941790277
 40
3.528366327138878
 40
4.014888773111843
 40
4.539679837310208
 40
5.06436062829279
 40
5.618299489951121
 40
6.172176031948083
 40
6.744347787841525
 40
7.316491366549519
 40
7.894854140806181
 40
8.47321691506307
 40
9.045360493771121
 40
9.617532249664626
 40
10.17140879166159
 40
10.72534765331992
 40
11.25002844430245
 40
11.77481950850076
 40
12.26134195447357
 40
12.74804833982237
 40
13.1904463066628
 40
13.63314394643742
 40
14.02978051543611
 40
14.4268864038779
 40
14.78211032046586
 40
15.13796484986691
 40
15.46357971931254
 40
15.78970828161267
 40
16.10463414862414
 40
16.41956001563563
 40
16.74568857793564
 40
17.07130344738125
 40
17.42715797678232
 40
17.78238189337023
 40
18.17948778181211
 40
18.57612435081079
 40
19.01882199058547
 40
19.46121995742592
 40
19.94792634277463
 40
20.43444878874753
 40
20.9592398529458
 40
21.48392064392832
 40
22.0378595055866
 40
22.59173604758367
 40
23.16390780347717
 40
23.73605138218516
 40
24.31441415644194
 40
24.89277693069871
 40
25.46492050940676
 40
26.03709226530027
 40
26.59096880729733
 40
27.14490766895566
 40
27.66958845993824
 40
28.19437952413647
 40
28.68090197010931
 40
29.16760835545797
 40
29.61000632229842
 40
30.05270396207301
 40
30.44934053107177
 40
30.84644641951353
 40
31.20167033610151
 40
31.55752486550271
 40
31.88313973494828
 40
32.20926829724831
 40
32.52419416425973
 40
32.83912003127125
 40
32.83912003127125
 40
32.83912003127125
 40
32.83912003127125
 10
470.5013476689207
 20
271.1575015467445
 30
0.0
 10
470.4787904726292
 20
271.0509085185098
 30
0.0
 10
470.4337116104224
 20
270.8378903592543
 30
0.0
 10
470.2991842466551
 20
270.5280618469066
 30
0.0
 10
470.1224403387705
 20
270.2302679163597
 30
0.0
 10
469.8935592071759
 20
269.9391122146753
 30
0.0
 10
469.6243412561185
 20
269.6657104812026
 30
0.0
 10
469.3070712644558
 20
269.4017418883718
 30
0.0
 10
468.9550186451776
 20
269.1587272239128
 30
0.0
 10
468.5591453120351
 20
268.9290652345806
 30
0.0
 10
468.1344366589653
 20
268.7225071360023
 30
0.0
 10
467.6719192742305
 20
268.5334980096793
 30
0.0
 10
467.1866785525438
 20
268.369178578129
 30
0.0
 10
466.6714370250571
 20
268.2261582561967
 30
0.0
 10
466.1397715807348
 20
268.1090018233543
 30
0.0
 10
465.5873224686563
 20
268.016024799449
 30
0.0
 10
465.0249314822524
 20
267.9497034844104
 30
0.0
 10
464.4519147456762
 20
267.9093558686562
 30
0.0
 10
463.8755684285306
 20
267.8960650815632
 30
0.0
 10
463.2992221113626
 20
267.909355868654
 30
0.0
 10
462.7262053748528
 20
267.949703484419
 30
0.0
 10
462.163814388208
 20
268.0160247994172
 30
0.0
 10
461.6113652769992
 20
268.1090018234692
 30
0.0
 10
461.0796998295112
 20
268.2261582557775
 30
0.0
 10
460.5644583132428
 20
268.3691785796015
 30
0.0
 10
460.0792175511701
 20
268.5334980043427
 30
0.0
 10
459.616700306702
 20
268.722507154314
 30
0.0
 10
459.1919911541027
 20
268.9290651686739
 30
0.0
 10
458.7961195243385
 20
269.158727445188
 30
0.0
 10
458.4440608911474
 20
269.4017410957291
 30
0.0
 10
458.1268111382719
 20
269.6657131007258
 30
0.0
 10
457.8575219691598
 20
269.9391028271624
 30
0.0
 10
457.6288802553365
 20
270.2302988935816
 30
0.0
 10
457.4512877193907
 20
270.5279497493415
 30
0.0
 10
457.3196750503785
 20
270.8382696658157
 30
0.0
 10
457.2422502247079
 20
271.1524383466157
 30
0.0
 10
457.2142903332803
 20
271.4713283096577
 30
0.0
 10
457.2422502247082
 20
271.7902182726998
 30
0.0
 10
457.3196750503787
 20
272.1043869534996
 30
0.0
 10
457.4512877193909
 20
272.414706869974
 30
0.0
 10
457.6288802553363
 20
272.7123577257339
 30
0.0
 10
457.8575219691599
 20
273.003553792153
 30
0.0
 10
458.1268111382722
 20
273.2769435185894
 30
0.0
 10
458.4440608911472
 20
273.5409155235864
 30
0.0
 10
458.7961195243386
 20
273.7839291741276
 30
0.0
 10
459.1919911541024
 20
274.0135914506415
 30
0.0
 10
459.6167003067022
 20
274.2201494650016
 30
0.0
 10
460.07921755117
 20
274.4091586149729
 30
0.0
 10
460.5644583132427
 20
274.5734780397142
 30
0.0
 10
461.0796998295112
 20
274.7164983635379
 30
0.0
 10
461.611365276999
 20
274.8336547958466
 30
0.0
 10
462.1638143882082
 20
274.9266318198984
 30
0.0
 10
462.7262053748523
 20
274.9929531348965
 30
0.0
 10
463.2992221113635
 20
275.0333007506617
 30
0.0
 10
463.8755684285271
 20
275.0465915377518
 30
0.0
 10
464.451914745689
 20
275.0333007506617
 30
0.0
 10
465.0249314822046
 20
274.992953134896
 30
0.0
 10
465.5873224688323
 20
274.9266318199007
 30
0.0
 10
466.1397715801027
 20
274.8336547958385
 30
0.0
 10
466.6714370273672
 20
274.7164983635676
 30
0.0
 10
467.1866785444271
 20
274.5734780396105
 30
0.0
 10
467.6719193036508
 20
274.4091586153493
 30
0.0
 10
468.1344365580127
 20
274.2201494637098
 30
0.0
 10
468.5591456753774
 20
274.0135914552903
 30
0.0
 10
468.955017425291
 20
273.7839291585198
 30
0.0
 10
469.3070756342845
 20
273.5409155794962
 30
0.0
 10
469.6243268147241
 20
273.2769433338186
 30
0.0
 10
469.8936109603948
 20
273.0035544543113
 30
0.0
 10
470.1222695618068
 20
272.7123555407226
 30
0.0
 10
470.2998022388648
 20
272.4147147768956
 30
0.0
 10
470.4316204989874
 20
272.1043601987058
 30
0.0
 10
470.5083002084803
 20
271.7903171410655
 30
0.0
 10
470.5389518969026
 20
271.470973353434
 30
0.0
 10
470.5138824115814
 20
271.2619921489743
 30
0.0
 10
470.5013476689207
 20
271.1575015467445
 30
0.0
 11
470.5013476689207
 21
271.1575015467445
 31
0.0
 11
470.4231752169093
 21
270.8408804689647
 31
0.0
 11
470.2974689212231
 21
270.5405090814643
 31
0.0
 11
470.1159130519775
 21
270.2344536740007
 31
0.0
 11
469.8975506561949
 21
269.954271777683
 31
0.0
 11
469.6198036421609
 21
269.6704590175216
 31
0.0
 11
469.3155035949137
 21
269.4160537323712
 31
0.0
 11
468.9518564063222
 21
269.1635821052691
 31
0.0
 11
468.5695229045258
 21
268.9410128925093
 31
0.0
 11
468.1322546678458
 21
268.7272850404875
 31
0.0
 11
467.6820588230886
 21
268.5428188056399
 31
0.0
 11
467.1852193218859
 21
268.373833092909
 31
0.0
 11
466.6797323360972
 21
268.2332171634263
 31
0.0
 11
466.1388746563048
 21
268.1135458106932
 31
0.0
 11
465.5927041282781
 21
268.0214753046148
 31
0.0
 11
465.024504202151
 21
267.9541747682769
 31
0.0
 11
464.4537743954192
 21
267.9139782216022
 31
0.0
 11
463.875568428527
 21
267.9005112807425
 31
0.0
 11
463.2973624616345
 21
267.9139782216022
 31
0.0
 11
462.7266326549026
 21
267.9541747682769
 31
0.0
 11
462.1584327287754
 21
268.0214753046148
 31
0.0
 11
461.6122622007487
 21
268.1135458106932
 31
0.0
 11
461.0714045209564
 21
268.2332171634263
 31
0.0
 11
460.5659175351677
 21
268.373833092909
 31
0.0
 11
460.0690780339651
 21
268.5428188056399
 31
0.0
 11
459.618882189208
 21
268.7272850404875
 31
0.0
 11
459.1816139525278
 21
268.9410128925093
 31
0.0
 11
458.7992804507313
 21
269.1635821052693
 31
0.0
 11
458.4356332621399
 21
269.4160537323713
 31
0.0
 11
458.1313332148927
 21
269.6704590175216
 31
0.0
 11
457.8535862008588
 21
269.954271777683
 31
0.0
 11
457.6352238050761
 21
270.2344536740006
 31
0.0
 11
457.4536679358305
 21
270.5405090814642
 31
0.0
 11
457.3279616401442
 21
270.8408804689646
 31
0.0
 11
457.2497891881329
 21
271.1575015467445
 31
0.0
 11
457.2235010807018
 21
271.4713283096577
 31
0.0
 11
457.249789188133
 21
271.785155072571
 31
0.0
 11
457.3279616401443
 21
272.1017761503508
 31
0.0
 11
457.4536679358305
 21
272.4021475378512
 31
0.0
 11
457.6352238050761
 21
272.7082029453148
 31
0.0
 11
457.8535862008587
 21
272.9883848416324
 31
0.0
 11
458.1313332148927
 21
273.2721976017938
 31
0.0
 11
458.4356332621399
 21
273.5266028869442
 31
0.0
 11
458.7992804507313
 21
273.7790745140463
 31
0.0
 11
459.1816139525279
 21
274.0016437268062
 31
0.0
 11
459.618882189208
 21
274.215371578828
 31
0.0
 11
460.0690780339651
 21
274.3998378136757
 31
0.0
 11
460.5659175351676
 21
274.5688235264066
 31
0.0
 11
461.0714045209563
 21
274.7094394558893
 31
0.0
 11
461.6122622007486
 21
274.8291108086225
 31
0.0
 11
462.1584327287754
 21
274.9211813147008
 31
0.0
 11
462.7266326549026
 21
274.9884818510387
 31
0.0
 11
463.2973624616345
 21
275.0286783977134
 31
0.0
 11
463.8755684285268
 21
275.0421453385731
 31
0.0
 11
464.4537743954191
 21
275.0286783977134
 31
0.0
 11
465.024504202151
 21
274.9884818510387
 31
0.0
 11
465.5927041282782
 21
274.9211813147008
 31
0.0
 11
466.138874656305
 21
274.8291108086225
 31
0.0
 11
466.6797323360974
 21
274.7094394558894
 31
0.0
 11
467.1852193218861
 21
274.5688235264066
 31
0.0
 11
467.6820588230886
 21
274.3998378136757
 31
0.0
 11
468.1322546678456
 21
274.215371578828
 31
0.0
 11
468.5695229045257
 21
274.0016437268062
 31
0.0
 11
468.9518564063222
 21
273.7790745140463
 31
0.0
 11
469.3155035949136
 21
273.5266028869442
 31
0.0
 11
469.6198036421608
 21
273.2721976017938
 31
0.0
 11
469.8975506561948
 21
272.9883848416325
 31
0.0
 11
470.1159130519775
 21
272.708202945315
 31
0.0
 11
470.2974689212232
 21
272.4021475378512
 31
0.0
 11
470.4231752169093
 21
272.1017761503508
 31
0.0
 11
470.5013476689206
 21
271.785155072571
 31
0.0
 11
470.5276357763518
 21
271.4713283096578
 31
0.0
 11
470.5013476689207
 21
271.1575015467445
 31
0.0
  0
SPLINE
  5
F7
330
3C
100
AcDbEntity
  8
1
  6
Continuous
 62
     7
100
AcDbSpline
210
0.0
220
0.0
230
1.0
 70
    11
 71
     3
 72
    79
 73
    75
 74
    73
 42
0.0000000001
 43
0.0000000001
 44
0.00000001
 40
0.0
 40
0.0
 40
0.0
 40
0.0
 40
0.3210813131182829
 40
0.6418951451341115
 40
0.9828988941045619
 40
1.323531056221067
 40
1.692967059529104
 40
2.062075182676655
 40
2.463733858567455
 40
2.865152866614895
 40
3.298564783375559
 40
3.731815227792797
 40
4.193131264619082
 40
4.654344171660869
 40
5.137240970539877
 40
5.620077103492388
 40
6.11655952933646
 40
6.613013907632184
 40
7.114121234392361
 40
7.615228561152597
 40
8.111682939448453
 40
8.60816536529256
 40
9.091001498245026
 40
9.573898297123964
 40
10.0351112041657
 40
10.49642724099201
 40
10.9296776854093
 40
11.36308960216988
 40
11.76450861021727
 40
12.16616728610813
 40
12.53527540925578
 40
12.90471141256376
 40
13.24534357468026
 40
13.58634732365068
 40
13.90716115566651
 40
14.22824246878479
 40
14.54200445402346
 40
14.85576643926224
 40
15.17684775238049
 40
15.49766158439619
 40
15.83866533336649
 40
16.17929749548304
 40
16.5487334987912
 40
16.91784162193883
 40
17.31950029782954
 40
17.72091930587695
 40
18.15433122263757
 40
18.58758166705483
 40
19.04889770388112
 40
19.51011061092288
 40
19.99300740980184
 40
20.47584354275435
 40
20.97232596859846
 40
21.46878034689427
 40
21.9698876736545
 40
22.47099500041468
 40
22.96744937871042
 40
23.46393180455453
 40
23.94676793750697
 40
24.42966473638599
 40
24.8908776434278
 40
25.35219368025411
 40
25.7854441246714
 40
26.21885604143204
 40
26.62027504947944
 40
27.0219337253702
 40
27.39104184851775
 40
27.76047785182573
 40
28.10111001394224
 40
28.44211376291272
 40
28.76292759492853
 40
29.08400890804677
 40
29.39777089328544
 40
29.71153287852411
 40
29.71153287852411
 40
29.71153287852411
 40
29.71153287852411
 10
177.5975817923319
 20
271.1583734580921
 30
0.0
 10
177.5783019411351
 20
271.0529123725802
 30
0.0
 10
177.5397583000806
 20
270.8420780573308
 30
0.0
 10
177.4247049880043
 20
270.5337384330515
 30
0.0
 10
177.2723165216677
 20
270.2356503396043
 30
0.0
 10
177.0752398772708
 20
269.9449782557811
 30
0.0
 10
176.8420533673589
 20
269.6702126776861
 30
0.0
 10
176.5678849007885
 20
269.4061837326949
 30
0.0
 10
176.2623417006803
 20
269.1617997568032
 30
0.0
 10
175.9197241097748
 20
268.9319281825462
 30
0.0
 10
175.5510278929991
 20
268.7243609304137
 30
0.0
 10
175.1504731508569
 20
268.5351439708381
 30
0.0
 10
174.7293686537044
 20
268.3701793556847
 30
0.0
 10
174.2830103477431
 20
268.2269953340533
 30
0.0
 10
173.8218144899101
 20
268.1094681071161
 30
0.0
 10
173.3431193935541
 20
268.0163843006146
 30
0.0
 10
172.8554520845574
 20
267.9498815020537
 30
0.0
 10
172.3588342788065
 20
267.909495939596
 30
0.0
 10
171.8592134632349
 20
267.8961524593936
 30
0.0
 10
171.3595926476473
 20
267.9094959395947
 30
0.0
 10
170.8629748419439
 20
267.9498815020588
 30
0.0
 10
170.3753075327743
 20
268.0163843005951
 30
0.0
 10
169.8966124370455
 20
268.1094681071869
 30
0.0
 10
169.435416576921
 20
268.226995333794
 30
0.0
 10
168.9890582791444
 20
268.3701793566045
 30
0.0
 10
168.5679537523511
 20
268.5351439674878
 30
0.0
 10
168.1673991144232
 20
268.7243609420768
 30
0.0
 10
167.7987025232355
 20
268.9319281402707
 30
0.0
 10
167.456086231758
 20
269.1617999017253
 30
0.0
 10
167.1505383881189
 20
269.4061832086632
 30
0.0
 10
166.8763859224407
 20
269.6702144587664
 30
0.0
 10
166.6431422574588
 20
269.9449718030177
 30
0.0
 10
166.4462632239903
 20
270.2356723549627
 30
0.0
 10
166.2931636817752
 20
270.5336580097697
 30
0.0
 10
166.1806162112654
 20
270.8423586292824
 30
0.0
 10
166.1140647009042
 20
271.154929266519
 30
0.0
 10
166.0905894442171
 20
271.4713283096579
 30
0.0
 10
166.1140647009043
 20
271.7877273527967
 30
0.0
 10
166.1806162112655
 20
272.1002979900331
 30
0.0
 10
166.2931636817753
 20
272.4089986095458
 30
0.0
 10
166.4462632239905
 20
272.7069842643528
 30
0.0
 10
166.6431422574588
 20
272.9976848162977
 30
0.0
 10
166.8763859224407
 20
273.2724421605493
 30
0.0
 10
167.150538388119
 20
273.5364734106526
 30
0.0
 10
167.456086231758
 20
273.7808567175902
 30
0.0
 10
167.7987025232355
 20
274.0107284790449
 30
0.0
 10
168.1673991144232
 20
274.2182956772389
 30
0.0
 10
168.567953752351
 20
274.4075126518278
 30
0.0
 10
168.9890582791445
 20
274.5724772627111
 30
0.0
 10
169.4354165769209
 20
274.7156612855216
 30
0.0
 10
169.8966124370455
 20
274.8331885121287
 30
0.0
 10
170.3753075327744
 20
274.9262723187206
 30
0.0
 10
170.8629748419438
 20
274.9927751172567
 30
0.0
 10
171.359592647648
 20
275.0331606797213
 30
0.0
 10
171.8592134632324
 20
275.0465041599215
 30
0.0
 10
172.3588342788157
 20
275.0331606797213
 30
0.0
 10
172.8554520845232
 20
274.9927751172564
 30
0.0
 10
173.3431193936803
 20
274.926272318722
 30
0.0
 10
173.8218144894537
 20
274.8331885121237
 30
0.0
 10
174.2830103494157
 20
274.7156612855401
 30
0.0
 10
174.729368647773
 20
274.5724772626459
 30
0.0
 10
175.150473172463
 20
274.4075126520655
 30
0.0
 10
175.5510278177864
 20
274.2182956764113
 30
0.0
 10
175.9197243824042
 20
274.0107284820448
 30
0.0
 10
176.2623407660943
 20
273.7808567073059
 30
0.0
 10
176.5678882802096
 20
273.5364734478398
 30
0.0
 10
176.8420418813761
 20
273.2724420341565
 30
0.0
 10
177.0752814904022
 20
272.9976852742122
 30
0.0
 10
177.2721745471444
 20
272.7069827020536
 30
0.0
 10
177.4252236285282
 20
272.4090043167084
 30
0.0
 10
177.5379489237292
 20
272.1002780795084
 30
0.0
 10
177.6038498697161
 20
271.7878011635354
 30
0.0
 10
177.6297013788802
 20
271.4710597939587
 30
0.0
 10
177.6082883211813
 20
271.2626022367143
 30
0.0
 10
177.5975817923318
 20
271.1583734580921
 30
0.0
 11
177.5975817923319
 21
271.1583734580921
 31
0.0
 11
177.5305862506291
 21
270.844359434479
 31
0.0
 11
177.4216314184847
 21
270.5426139136091
 31
0.0
 11
177.2662065519073
 21
270.2390901622134
 31
0.0
 11
177.0759708278017
 21
269.9565293030305
 31
0.0
 11
176.8374775312463
 21
269.6743876576848
 31
0.0
 11
176.5721404021414
 21
269.4178004123045
 31
0.0
 11
176.2589790449197
 21
269.1662856885577
 31
0.0
 11
175.9259519257388
 21
268.9421648329644
 31
0.0
 11
175.5486235630205
 21
268.7289297601492
 31
0.0
 11
175.157055893827
 21
268.5435094051984
 31
0.0
 11
174.7277225420879
 21
268.3747333437514
 31
0.0
 11
174.2886334535874
 21
268.2336017810812
 31
0.0
 11
173.8207875631865
 21
268.1139792865301
 31
0.0
 11
173.3468555356877
 21
268.021679965864
 31
0.0
 11
172.8549588289941
 21
267.9543566480908
 31
0.0
 11
172.3601392770119
 21
267.9141004596837
 31
0.0
 11
171.8592134632322
 21
267.9006140953864
 31
0.0
 11
171.3582876494526
 21
267.9141004596837
 31
0.0
 11
170.8634680974702
 21
267.9543566480907
 31
0.0
 11
170.3715713907765
 21
268.021679965864
 31
0.0
 11
169.8976393632778
 21
268.1139792865301
 31
0.0
 11
169.429793472877
 21
268.2336017810812
 31
0.0
 11
168.9907043843766
 21
268.3747333437514
 31
0.0
 11
168.5613710326374
 21
268.5435094051984
 31
0.0
 11
168.1698033634439
 21
268.7289297601493
 31
0.0
 11
167.7924750007256
 21
268.9421648329644
 31
0.0
 11
167.4594478815448
 21
269.1662856885577
 31
0.0
 11
167.1462865243231
 21
269.4178004123045
 31
0.0
 11
166.880949395218
 21
269.6743876576849
 31
0.0
 11
166.6424560986627
 21
269.9565293030305
 31
0.0
 11
166.452220374557
 21
270.2390901622134
 31
0.0
 11
166.2967955079797
 21
270.5426139136091
 31
0.0
 11
166.1878406758353
 21
270.844359434479
 31
0.0
 11
166.1208451341326
 21
271.1583734580921
 31
0.0
 11
166.0983541523307
 21
271.4713283096578
 31
0.0
 11
166.1208451341327
 21
271.7842831612236
 31
0.0
 11
166.1878406758355
 21
272.0982971848367
 31
0.0
 11
166.2967955079799
 21
272.4000427057065
 31
0.0
 11
166.4522203745571
 21
272.7035664571021
 31
0.0
 11
166.6424560986628
 21
272.986127316285
 31
0.0
 11
166.8809493952181
 21
273.2682689616308
 31
0.0
 11
167.1462865243231
 21
273.5248562070112
 31
0.0
 11
167.4594478815448
 21
273.7763709307579
 31
0.0
 11
167.7924750007256
 21
274.0004917863512
 31
0.0
 11
168.1698033634439
 21
274.2137268591663
 31
0.0
 11
168.5613710326374
 21
274.3991472141173
 31
0.0
 11
168.9907043843765
 21
274.5679232755642
 31
0.0
 11
169.429793472877
 21
274.7090548382344
 31
0.0
 11
169.8976393632778
 21
274.8286773327855
 31
0.0
 11
170.3715713907766
 21
274.9209766534517
 31
0.0
 11
170.8634680974702
 21
274.9882999712249
 31
0.0
 11
171.3582876494526
 21
275.0285561596321
 31
0.0
 11
171.8592134632322
 21
275.0420425239293
 31
0.0
 11
172.3601392770119
 21
275.028556159632
 31
0.0
 11
172.8549588289941
 21
274.9882999712249
 31
0.0
 11
173.3468555356878
 21
274.9209766534517
 31
0.0
 11
173.8207875631865
 21
274.8286773327855
 31
0.0
 11
174.2886334535874
 21
274.7090548382344
 31
0.0
 11
174.7277225420879
 21
274.5679232755642
 31
0.0
 11
175.157055893827
 21
274.3991472141172
 31
0.0
 11
175.5486235630206
 21
274.2137268591663
 31
0.0
 11
175.9259519257388
 21
274.0004917863511
 31
0.0
 11
176.2589790449196
 21
273.7763709307578
 31
0.0
 11
176.5721404021413
 21
273.5248562070111
 31
0.0
 11
176.8374775312463
 21
273.2682689616308
 31
0.0
 11
177.0759708278016
 21
272.9861273162851
 31
0.0
 11
177.2662065519072
 21
272.7035664571022
 31
0.0
 11
177.4216314184845
 21
272.4000427057065
 31
0.0
 11
177.5305862506289
 21
272.0982971848366
 31
0.0
 11
177.5975817923317
 21
271.7842831612235
 31
0.0
 11
177.6200727741337
 21
271.4713283096578
 31
0.0
 11
177.5975817923318
 21
271.1583734580921
 31
0.0
  0
SPLINE
  5
F8
330
3C
100
AcDbEntity
  8
1
  6
Continuous
 62
     7
100
AcDbSpline
210
0.0
220
0.0
230
1.0
 70
    11
 71
     3
 72
    79
 73
    75
 74
    73
 42
0.0000000001
 43
0.0000000001
 44
0.00000001
 40
0.0
 40
0.0
 40
0.0
 40
0.0
 40
0.321081313118277
 40
0.6418951451341249
 40
0.9828988941045753
 40
1.323531056221064
 40
1.692967059529065
 40
2.062075182676616
 40
2.463733858567415
 40
2.865152866614855
 40
3.298564783375519
 40
3.731815227792809
 40
4.193131264619147
 40
4.654344171660907
 40
5.137240970539888
 40
5.620077103492399
 40
6.11655952933647
 40
6.613013907632195
 40
7.114121234392344
 40
7.615228561152607
 40
8.111682939448407
 40
8.608165365292514
 40
9.09100149824498
 40
9.573898297123973
 40
10.03511120416576
 40
10.49642724099207
 40
10.92967768540939
 40
11.36308960217
 40
11.76450861021736
 40
12.16616728610817
 40
12.53527540925578
 40
12.90471141256372
 40
13.24534357468023
 40
13.58634732365066
 40
13.90716115566649
 40
14.22824246878477
 40
14.54200445402343
 40
14.85576643926221
 40
15.17684775238044
 40
15.49766158439615
 40
15.83866533336646
 40
16.17929749548301
 40
16.54873349879118
 40
16.91784162193877
 40
17.3195002978295
 40
17.72091930587692
 40
18.15433122263756
 40
18.58758166705482
 40
19.04889770388116
 40
19.51011061092292
 40
19.99300740980188
 40
20.47584354275439
 40
20.9723259685985
 40
21.46878034689425
 40
21.96988767365446
 40
22.47099500041466
 40
22.96744937871047
 40
23.46393180455457
 40
23.94676793750709
 40
24.42966473638603
 40
24.89087764342777
 40
25.35219368025415
 40
25.78544412467142
 40
26.21885604143203
 40
26.62027504947942
 40
27.02193372537019
 40
27.39104184851776
 40
27.76047785182578
 40
28.10111001394227
 40
28.44211376291272
 40
28.76292759492853
 40
29.08400890804677
 40
29.39777089328544
 40
29.7115328785241
 40
29.7115328785241
 40
29.7115328785241
 40
29.7115328785241
 10
152.1208451341325
 20
271.1583734580921
 30
0.0
 10
152.1401249853293
 20
271.0529123725802
 30
0.0
 10
152.1786686263837
 20
270.8420780573306
 30
0.0
 10
152.2937219384602
 20
270.5337384330516
 30
0.0
 10
152.4461104047967
 20
270.2356503396043
 30
0.0
 10
152.6431870491936
 20
269.9449782557811
 30
0.0
 10
152.8763735591054
 20
269.6702126776861
 30
0.0
 10
153.1505420256759
 20
269.406183732695
 30
0.0
 10
153.456085225784
 20
269.1617997568033
 30
0.0
 10
153.7987028166895
 20
268.9319281825461
 30
0.0
 10
154.1673990334651
 20
268.7243609304137
 30
0.0
 10
154.5679537756075
 20
268.5351439708382
 30
0.0
 10
154.98905827276
 20
268.3701793556847
 30
0.0
 10
155.4354165787212
 20
268.2269953340533
 30
0.0
 10
155.8966124365544
 20
268.1094681071161
 30
0.0
 10
156.3753075329102
 20
268.0163843006147
 30
0.0
 10
156.862974841907
 20
267.9498815020536
 30
0.0
 10
157.3595926476579
 20
267.909495939596
 30
0.0
 10
157.8592134632295
 20
267.8961524593937
 30
0.0
 10
158.358834278817
 20
267.9094959395947
 30
0.0
 10
158.8554520845204
 20
267.9498815020589
 30
0.0
 10
159.34311939369
 20
268.016384300595
 30
0.0
 10
159.8218144894188
 20
268.109468107187
 30
0.0
 10
160.2830103495434
 20
268.226995333794
 30
0.0
 10
160.7293686473199
 20
268.3701793566045
 30
0.0
 10
161.1504731741133
 20
268.5351439674878
 30
0.0
 10
161.5510278120413
 20
268.7243609420767
 30
0.0
 10
161.919724403229
 20
268.9319281402707
 30
0.0
 10
162.2623406947064
 20
269.1617999017253
 30
0.0
 10
162.5678885383455
 20
269.4061832086632
 30
0.0
 10
162.8420410040236
 20
269.6702144587665
 30
0.0
 10
163.0752846690056
 20
269.9449718030177
 30
0.0
 10
163.2721637024739
 20
270.2356723549627
 30
0.0
 10
163.4252632446892
 20
270.5336580097699
 30
0.0
 10
163.537810715199
 20
270.8423586292823
 30
0.0
 10
163.60436222556
 20
271.1549292665191
 30
0.0
 10
163.6278374822472
 20
271.4713283096578
 30
0.0
 10
163.6043622255601
 20
271.7877273527967
 30
0.0
 10
163.5378107151989
 20
272.1002979900331
 30
0.0
 10
163.4252632446892
 20
272.4089986095459
 30
0.0
 10
163.2721637024739
 20
272.7069842643526
 30
0.0
 10
163.0752846690057
 20
272.9976848162979
 30
0.0
 10
162.8420410040236
 20
273.2724421605492
 30
0.0
 10
162.5678885383456
 20
273.5364734106526
 30
0.0
 10
162.2623406947064
 20
273.7808567175903
 30
0.0
 10
161.9197244032289
 20
274.0107284790448
 30
0.0
 10
161.5510278120413
 20
274.218295677239
 30
0.0
 10
161.1504731741134
 20
274.4075126518279
 30
0.0
 10
160.7293686473199
 20
274.572477262711
 30
0.0
 10
160.2830103495435
 20
274.7156612855216
 30
0.0
 10
159.8218144894188
 20
274.8331885121286
 30
0.0
 10
159.34311939369
 20
274.9262723187207
 30
0.0
 10
158.8554520845206
 20
274.9927751172567
 30
0.0
 10
158.3588342788164
 20
275.0331606797212
 30
0.0
 10
157.859213463232
 20
275.0465041599216
 30
0.0
 10
157.3595926476487
 20
275.0331606797212
 30
0.0
 10
156.8629748419412
 20
274.9927751172565
 30
0.0
 10
156.375307532784
 20
274.9262723187219
 30
0.0
 10
155.8966124370106
 20
274.8331885121237
 30
0.0
 10
155.4354165770487
 20
274.7156612855401
 30
0.0
 10
154.9890582786914
 20
274.5724772626458
 30
0.0
 10
154.5679537540015
 20
274.4075126520656
 30
0.0
 10
154.167399108678
 20
274.2182956764112
 30
0.0
 10
153.7987025440602
 20
274.0107284820448
 30
0.0
 10
153.4560861603701
 20
273.7808567073058
 30
0.0
 10
153.1505386462548
 20
273.5364734478397
 30
0.0
 10
152.8763850450883
 20
273.2724420341565
 30
0.0
 10
152.6431454360621
 20
272.9976852742123
 30
0.0
 10
152.44625237932
 20
272.7069827020536
 30
0.0
 10
152.2932032979362
 20
272.4090043167084
 30
0.0
 10
152.1804780027354
 20
272.1002780795084
 30
0.0
 10
152.1145770567483
 20
271.7878011635354
 30
0.0
 10
152.0887255475843
 20
271.4710597939586
 30
0.0
 10
152.1101386052831
 20
271.2626022367143
 30
0.0
 10
152.1208451341325
 20
271.1583734580921
 30
0.0
 11
152.1208451341325
 21
271.1583734580921
 31
0.0
 11
152.1878406758353
 21
270.844359434479
 31
0.0
 11
152.2967955079797
 21
270.5426139136091
 31
0.0
 11
152.4522203745571
 21
270.2390901622134
 31
0.0
 11
152.6424560986627
 21
269.9565293030305
 31
0.0
 11
152.880949395218
 21
269.6743876576848
 31
0.0
 11
153.1462865243229
 21
269.4178004123045
 31
0.0
 11
153.4594478815446
 21
269.1662856885577
 31
0.0
 11
153.7924750007255
 21
268.9421648329644
 31
0.0
 11
154.1698033634438
 21
268.7289297601492
 31
0.0
 11
154.5613710326374
 21
268.5435094051984
 31
0.0
 11
154.9907043843766
 21
268.3747333437514
 31
0.0
 11
155.429793472877
 21
268.2336017810812
 31
0.0
 11
155.8976393632779
 21
268.1139792865301
 31
0.0
 11
156.3715713907766
 21
268.021679965864
 31
0.0
 11
156.8634680974703
 21
267.9543566480908
 31
0.0
 11
157.3582876494525
 21
267.9141004596837
 31
0.0
 11
157.8592134632321
 21
267.9006140953864
 31
0.0
 11
158.3601392770118
 21
267.9141004596837
 31
0.0
 11
158.8549588289941
 21
267.9543566480907
 31
0.0
 11
159.3468555356878
 21
268.021679965864
 31
0.0
 11
159.8207875631865
 21
268.1139792865301
 31
0.0
 11
160.2886334535874
 21
268.2336017810812
 31
0.0
 11
160.7277225420879
 21
268.3747333437514
 31
0.0
 11
161.157055893827
 21
268.5435094051984
 31
0.0
 11
161.5486235630206
 21
268.7289297601493
 31
0.0
 11
161.9259519257388
 21
268.9421648329644
 31
0.0
 11
162.2589790449197
 21
269.1662856885577
 31
0.0
 11
162.5721404021413
 21
269.4178004123045
 31
0.0
 11
162.8374775312463
 21
269.6743876576849
 31
0.0
 11
163.0759708278016
 21
269.9565293030305
 31
0.0
 11
163.2662065519072
 21
270.2390901622134
 31
0.0
 11
163.4216314184846
 21
270.5426139136091
 31
0.0
 11
163.530586250629
 21
270.844359434479
 31
0.0
 11
163.5975817923317
 21
271.1583734580921
 31
0.0
 11
163.6200727741336
 21
271.4713283096578
 31
0.0
 11
163.5975817923317
 21
271.7842831612236
 31
0.0
 11
163.530586250629
 21
272.0982971848367
 31
0.0
 11
163.4216314184846
 21
272.4000427057065
 31
0.0
 11
163.2662065519073
 21
272.7035664571021
 31
0.0
 11
163.0759708278017
 21
272.986127316285
 31
0.0
 11
162.8374775312463
 21
273.2682689616308
 31
0.0
 11
162.5721404021414
 21
273.5248562070112
 31
0.0
 11
162.2589790449197
 21
273.7763709307579
 31
0.0
 11
161.9259519257388
 21
274.0004917863512
 31
0.0
 11
161.5486235630206
 21
274.2137268591663
 31
0.0
 11
161.1570558938271
 21
274.3991472141173
 31
0.0
 11
160.7277225420878
 21
274.5679232755642
 31
0.0
 11
160.2886334535874
 21
274.7090548382344
 31
0.0
 11
159.8207875631865
 21
274.8286773327855
 31
0.0
 11
159.3468555356878
 21
274.9209766534517
 31
0.0
 11
158.8549588289941
 21
274.9882999712249
 31
0.0
 11
158.3601392770119
 21
275.0285561596321
 31
0.0
 11
157.8592134632322
 21
275.0420425239293
 31
0.0
 11
157.3582876494526
 21
275.028556159632
 31
0.0
 11
156.8634680974702
 21
274.9882999712249
 31
0.0
 11
156.3715713907766
 21
274.9209766534517
 31
0.0
 11
155.8976393632778
 21
274.8286773327855
 31
0.0
 11
155.429793472877
 21
274.7090548382344
 31
0.0
 11
154.9907043843766
 21
274.5679232755642
 31
0.0
 11
154.5613710326373
 21
274.3991472141172
 31
0.0
 11
154.1698033634438
 21
274.2137268591663
 31
0.0
 11
153.7924750007256
 21
274.0004917863511
 31
0.0
 11
153.4594478815448
 21
273.7763709307578
 31
0.0
 11
153.1462865243231
 21
273.5248562070111
 31
0.0
 11
152.8809493952181
 21
273.2682689616308
 31
0.0
 11
152.6424560986628
 21
272.9861273162851
 31
0.0
 11
152.4522203745571
 21
272.7035664571022
 31
0.0
 11
152.2967955079799
 21
272.4000427057065
 31
0.0
 11
152.1878406758355
 21
272.0982971848366
 31
0.0
 11
152.1208451341327
 21
271.7842831612235
 31
0.0
 11
152.0983541523307
 21
271.4713283096578
 31
0.0
 11
152.1208451341325
 21
271.1583734580921
 31
0.0
  0
ARC
  5
F9
330
3C
100
AcDbEntity
  8
1
  6
Continuous
 62
     7
100
AcDbCircle
 10
176.4172345249629
 20
267.6137913450993
 30
0.0
 40
1.0
100
AcDbArc
 50
-90.0
 51
-74.66244233044623
  0
ARC
  5
FA
330
3C
100
AcDbEntity
  8
1
  6
Continuous
 62
     7
100
AcDbCircle
 10
174.6271626556634
 20
266.6137913450993
 30
0.0
 40
1.0
100
AcDbArc
 50
-90.0
 51
-30.00000000000136
  0
ARC
  5
FB
330
3C
100
AcDbEntity
  8
1
  6
Continuous
 62
     7
100
AcDbCircle
 10
176.3592134632322
 20
265.6137913450993
 30
0.0
 40
1.0
100
AcDbArc
 50
90.0
 51
149.9999999999995
  0
ARC
  5
FC
330
3C
100
AcDbEntity
  8
1
  6
Continuous
 62
     7
100
AcDbCircle
 10
153.3011924015016
 20
267.6137913450993
 30
0.0
 40
0.9999999999999117
100
AcDbArc
 50
-105.3375576695585
 51
-90.0
  0
ARC
  5
FD
330
3C
100
AcDbEntity
  8
1
  6
Continuous
 62
     7
100
AcDbCircle
 10
155.0912642708009
 20
266.6137913450993
 30
0.0
 40
0.9999999999999836
100
AcDbArc
 50
-149.9999999999995
 51
-90.0
  0
ARC
  5
FE
330
3C
100
AcDbEntity
  8
1
  6
Continuous
 62
     7
100
AcDbCircle
 10
153.3592134632321
 20
265.6137913450993
 30
0.0
 40
0.9999999999999589
100
AcDbArc
 50
30.00000000000136
 51
90.0
  0
ARC
  5
FF
330
3C
100
AcDbEntity
  8
1
  6
Continuous
 62
     7
100
AcDbCircle
 10
475.4335894902574
 20
267.6137913450993
 30
0.0
 40
1.0
100
AcDbArc
 50
-90.0
 51
-74.66244233044309
  0
ARC
  5
100
330
3C
100
AcDbEntity
  8
1
  6
Continuous
 62
     7
100
AcDbCircle
 10
473.643517620958
 20
266.6137913450993
 30
0.0
 40
1.0
100
AcDbArc
 50
-90.0
 51
-30.00000000000054
  0
ARC
  5
101
330
3C
100
AcDbEntity
  8
1
  6
Continuous
 62
     7
100
AcDbCircle
 10
475.3755684285269
 20
265.6137913450993
 30
0.0
 40
1.0
100
AcDbArc
 50
90.0
 51
150.0000000000011
  0
ARC
  5
102
330
3C
100
AcDbEntity
  8
1
  6
Continuous
 62
     7
100
AcDbCircle
 10
452.3175473667963
 20
267.6137913450993
 30
0.0
 40
0.9999999999999193
100
AcDbArc
 50
-105.3375576695601
 51
-90.0
  0
ARC
  5
103
330
3C
100
AcDbEntity
  8
1
  6
Continuous
 62
     7
100
AcDbCircle
 10
454.1076192360957
 20
266.6137913450993
 30
0.0
 40
0.9999999999999344
100
AcDbArc
 50
-149.9999999999978
 51
-90.0
  0
ARC
  5
104
330
3C
100
AcDbEntity
  8
1
  6
Continuous
 62
     7
100
AcDbCircle
 10
452.3755684285269
 20
265.6137913450993
 30
0.0
 40
0.9999999999999836
100
AcDbArc
 50
30.00000000000054
 51
90.0
  0
ENDBLK
  5
3E
330
3C
100
AcDbEntity
  8
0
100
AcDbBlockEnd
  0
BLOCK
  5
40
330
3F
100
AcDbEntity
  8
0
100
AcDbBlockBegin
  2
A10-0A-13
 70
     0
 71
     0
 10
498.8755684285269
 20
294.6137913450993
 30
0.0
  3
A10-0A-13
  1

  0
LINE
  5
105
330
3F
100
AcDbEntity
  8
1
  6
Continuous
 62
     7
100
AcDbLine
 10
177.8592134632323
 20
278.9737364004593
 30
0.0
 11
176.8804077460513
 21
282.3995564105921
 31
0.0
  0
LINE
  5
106
330
3F
100
AcDbEntity
  8
1
  6
Continuous
 62
     2
100
AcDbLine
 10
176.8592134632323
 20
277.1137913450993
 30
0.0
 11
177.8592134632323
 21
278.8458421526682
 31
0.0
  0
LINE
  5
107
330
3F
100
AcDbEntity
  8
1
  6
Continuous
 62
     7
100
AcDbLine
 10
177.8592134632323
 20
278.8458421526682
 30
0.0
 11
177.8592134632323
 21
275.6137913450995
 31
0.0
  0
LINE
  5
108
330
3F
100
AcDbEntity
  8
1
  6
Continuous
 62
     2
100
AcDbLine
 10
176.8592134632323
 20
277.1137913450993
 30
0.0
 11
176.8592134632322
 21
275.6137913450995
 31
0.0
  0
LINE
  5
109
330
3F
100
AcDbEntity
  8
1
  6
Continuous
 62
     7
100
AcDbLine
 10
177.8592134632323
 20
278.9737364004593
 30
0.0
 11
177.8592134632323
 21
278.8458421526682
 31
0.0
  0
LINE
  5
10A
330
3F
100
AcDbEntity
  8
1
  6
Continuous
 62
     7
100
AcDbLine
 10
151.8592227934013
 20
294.5982162268218
 30
0.0
 11
152.5666362635842
 21
316.8817405375307
 31
0.0
  0
LINE
  5
10B
330
3F
100
AcDbEntity
  8
1
  6
Continuous
 62
     7
100
AcDbLine
 10
176.8592134632321
 20
316.8817405375307
 30
0.0
 11
152.8592134632321
 21
316.8817405375307
 31
0.0
  0
LINE
  5
10C
330
3F
100
AcDbEntity
  8
1
  6
Continuous
 62
     7
100
AcDbLine
 10
176.8592134632321
 20
318.6137913450993
 30
0.0
 11
152.8592134632322
 21
318.6137913450993
 31
0.0
  0
LINE
  5
10D
330
3F
100
AcDbEntity
  8
1
  6
Continuous
 62
     7
100
AcDbLine
 10
177.8592134632322
 20
277.1137913450993
 30
0.0
 11
151.8592134632321
 21
277.1137913450993
 31
0.0
  0
LINE
  5
10E
330
3F
100
AcDbEntity
  8
1
  6
Continuous
 62
     7
100
AcDbLine
 10
152.8380191804131
 20
282.3995564105921
 30
0.0
 11
151.8592134632321
 21
278.9737364004593
 31
0.0
  0
LINE
  5
10F
330
3F
100
AcDbEntity
  8
1
  6
Continuous
 62
     7
100
AcDbLine
 10
177.1517906628812
 20
316.8817405375307
 30
0.0
 11
177.8592041330631
 21
294.5982162268218
 31
0.0
  0
LINE
  5
110
330
3F
100
AcDbEntity
  8
1
  6
Continuous
 62
     2
100
AcDbLine
 10
175.8592134632321
 20
320.1137913450993
 30
0.0
 11
175.8592134632321
 21
318.6137913450993
 31
0.0
  0
LINE
  5
111
330
3F
100
AcDbEntity
  8
1
  6
Continuous
 62
     2
100
AcDbLine
 10
151.8592134632321
 20
278.8458421526682
 30
0.0
 11
152.8592134632321
 21
277.1137913450993
 31
0.0
  0
LINE
  5
112
330
3F
100
AcDbEntity
  8
1
  6
Continuous
 62
     7
100
AcDbLine
 10
151.8592134632321
 20
275.6137913450995
 30
0.0
 11
151.8592134632321
 21
278.8458421526682
 31
0.0
  0
LINE
  5
113
330
3F
100
AcDbEntity
  8
1
  6
Continuous
 62
     2
100
AcDbLine
 10
152.859213463232
 20
275.6137913450995
 30
0.0
 11
152.8592134632321
 21
277.1137913450993
 31
0.0
  0
LINE
  5
114
330
3F
100
AcDbEntity
  8
1
  6
Continuous
 62
     7
100
AcDbLine
 10
152.5666362635842
 20
316.8817405375307
 30
0.0
 11
152.8592134632321
 21
316.8817405375307
 31
0.0
  0
LINE
  5
115
330
3F
100
AcDbEntity
  8
1
  6
Continuous
 62
     7
100
AcDbLine
 10
176.8592134632321
 20
316.8817405375307
 30
0.0
 11
177.1517906628812
 21
316.8817405375307
 31
0.0
  0
LINE
  5
116
330
3F
100
AcDbEntity
  8
1
  6
Continuous
 62
     2
100
AcDbLine
 10
175.8592134632321
 20
318.6137913450993
 30
0.0
 11
176.8592134632321
 21
316.8817405375307
 31
0.0
  0
LINE
  5
117
330
3F
100
AcDbEntity
  8
1
  6
Continuous
 62
     7
100
AcDbLine
 10
176.8592134632321
 20
316.8817405375307
 30
0.0
 11
176.8592134632321
 21
320.1137913450993
 31
0.0
  0
LINE
  5
118
330
3F
100
AcDbEntity
  8
1
  6
Continuous
 62
     2
100
AcDbLine
 10
152.8592134632321
 20
316.8817405375307
 30
0.0
 11
153.8592134632321
 21
318.6137913450993
 31
0.0
  0
LINE
  5
119
330
3F
100
AcDbEntity
  8
1
  6
Continuous
 62
     2
100
AcDbLine
 10
153.8592134632321
 20
318.6137913450993
 30
0.0
 11
153.8592134632322
 21
320.1137913450993
 31
0.0
  0
LINE
  5
11A
330
3F
100
AcDbEntity
  8
1
  6
Continuous
 62
     7
100
AcDbLine
 10
152.8592134632321
 20
320.1137913450993
 30
0.0
 11
152.8592134632321
 21
316.8817405375307
 31
0.0
  0
LINE
  5
11B
330
3F
100
AcDbEntity
  8
1
  6
Continuous
 62
     7
100
AcDbLine
 10
151.8592134632321
 20
278.8458421526682
 30
0.0
 11
151.8592134632321
 21
278.9737364004593
 31
0.0
  0
LINE
  5
11C
330
3F
100
AcDbEntity
  8
1
  6
PHANTOM
 62
     4
100
AcDbLine
 10
180.8592134632322
 20
648.7980399121152
 30
0.0
 11
148.8592134632322
 21
648.7980399121152
 31
0.0
  0
LINE
  5
11D
330
3F
100
AcDbEntity
  8
1
  6
Continuous
 62
     7
100
AcDbLine
 10
142.3199839153683
 20
726.2617764910776
 30
0.0
 11
187.3984430110961
 21
726.2617764910776
 31
0.0
  0
LINE
  5
11E
330
3F
100
AcDbEntity
  8
1
  6
Continuous
 62
     7
100
AcDbLine
 10
175.3592134632322
 20
741.7980399121152
 30
0.0
 11
154.3592134632322
 21
741.7980399121152
 31
0.0
  0
LINE
  5
11F
330
3F
100
AcDbEntity
  8
1
  6
Continuous
 62
     7
100
AcDbLine
 10
154.3592134632322
 20
730.530090719684
 30
0.0
 11
175.3592134632322
 21
730.530090719684
 31
0.0
  0
LINE
  5
120
330
3F
100
AcDbEntity
  8
1
  6
Continuous
 62
     7
100
AcDbLine
 10
173.6092134632322
 20
650.7980399121152
 30
0.0
 11
173.6092134632322
 21
659.7785166029402
 31
0.0
  0
LINE
  5
121
330
3F
100
AcDbEntity
  8
1
  6
Continuous
 62
     7
100
AcDbLine
 10
156.1092134632322
 20
650.7980399121152
 30
0.0
 11
156.1092134632322
 21
659.7785166029402
 31
0.0
  0
LINE
  5
122
330
3F
100
AcDbEntity
  8
1
  6
Continuous
 62
     7
100
AcDbLine
 10
155.3592134632322
 20
742.7980399121152
 30
0.0
 11
174.3592134632322
 21
742.7980399121152
 31
0.0
  0
LINE
  5
123
330
3F
100
AcDbEntity
  8
1
  6
Continuous
 62
     7
100
AcDbLine
 10
175.3592134632322
 20
741.7980399121152
 30
0.0
 11
174.3592134632322
 21
742.7980399121152
 31
0.0
  0
LINE
  5
124
330
3F
100
AcDbEntity
  8
1
  6
Continuous
 62
     7
100
AcDbLine
 10
175.3592134632322
 20
741.7980399121152
 30
0.0
 11
175.3592134632322
 21
728.7980399121152
 31
0.0
  0
LINE
  5
125
330
3F
100
AcDbEntity
  8
1
  6
Continuous
 62
     7
100
AcDbLine
 10
155.3592134632322
 20
742.7980399121152
 30
0.0
 11
154.3592134632322
 21
741.7980399121152
 31
0.0
  0
LINE
  5
126
330
3F
100
AcDbEntity
  8
1
  6
Continuous
 62
     7
100
AcDbLine
 10
154.3592134632322
 20
728.7980399121152
 30
0.0
 11
154.3592134632322
 21
741.7980399121152
 31
0.0
  0
LINE
  5
127
330
3F
100
AcDbEntity
  8
1
  6
Continuous
 62
     7
100
AcDbLine
 10
156.1092134632322
 20
722.2617764910776
 30
0.0
 11
156.1092134632322
 21
707.8175632212901
 31
0.0
  0
LINE
  5
128
330
3F
100
AcDbEntity
  8
1
  6
Continuous
 62
     2
100
AcDbLine
 10
155.3592134632322
 20
730.530090719684
 30
0.0
 11
155.3592134632322
 21
742.7980399121152
 31
0.0
  0
LINE
  5
129
330
3F
100
AcDbEntity
  8
1
  6
Continuous
 62
     2
100
AcDbLine
 10
154.3592134632322
 20
728.7980399121152
 30
0.0
 11
155.3592134632322
 21
730.530090719684
 31
0.0
  0
LINE
  5
12A
330
3F
100
AcDbEntity
  8
1
  6
Continuous
 62
     7
100
AcDbLine
 10
141.8592134632322
 20
728.7980399121152
 30
0.0
 11
141.8592134632322
 21
726.7602351579443
 31
0.0
  0
LINE
  5
12B
330
3F
100
AcDbEntity
  8
1
  6
Continuous
 62
     7
100
AcDbLine
 10
173.6092134632322
 20
722.2617764910776
 30
0.0
 11
173.6092134632322
 21
707.8175632212901
 31
0.0
  0
LINE
  5
12C
330
3F
100
AcDbEntity
  8
1
  6
Continuous
 62
     7
100
AcDbLine
 10
187.8592134632322
 20
726.7602351579443
 30
0.0
 11
187.8592134632322
 21
728.7980399121152
 31
0.0
  0
LINE
  5
12D
330
3F
100
AcDbEntity
  8
1
  6
Continuous
 62
     7
100
AcDbLine
 10
187.8592134632322
 20
728.7980399121152
 30
0.0
 11
141.8592134632322
 21
728.7980399121152
 31
0.0
  0
LINE
  5
12E
330
3F
100
AcDbEntity
  8
1
  6
Continuous
 62
     2
100
AcDbLine
 10
174.3592134632322
 20
730.530090719684
 30
0.0
 11
175.3592134632322
 21
728.7980399121152
 31
0.0
  0
LINE
  5
12F
330
3F
100
AcDbEntity
  8
1
  6
Continuous
 62
     2
100
AcDbLine
 10
174.3592134632322
 20
730.530090719684
 30
0.0
 11
174.3592134632322
 21
742.7980399121152
 31
0.0
  0
LINE
  5
130
330
3F
100
AcDbEntity
  8
1
  6
PHANTOM
 62
     4
100
AcDbLine
 10
181.8592134632322
 20
683.7980399121152
 30
0.0
 11
147.8592134632322
 21
683.7980399121152
 31
0.0
  0
LINE
  5
131
330
3F
100
AcDbEntity
  8
0
  6
PHANTOM
 62
     4
100
AcDbLine
 10
138.8592134632322
 20
294.6137913450993
 30
0.0
 11
187.8592134632322
 21
294.6137913450993
 31
0.0
  0
LINE
  5
132
330
3F
100
AcDbEntity
  8
1
  6
Continuous
 62
     7
100
AcDbLine
 10
556.8755684285268
 20
305.1137913450993
 30
0.0
 11
556.8755684285268
 21
284.1137913450993
 31
0.0
  0
LINE
  5
133
330
3F
100
AcDbEntity
  8
1
  6
Continuous
 62
     7
100
AcDbLine
 10
541.3755684285268
 20
307.3637913450993
 30
0.0
 11
541.3755684285268
 21
281.8637913450993
 31
0.0
  0
LINE
  5
134
330
3F
100
AcDbEntity
  8
1
  6
Continuous
 62
     7
100
AcDbLine
 10
543.8755684285268
 20
284.1137913450993
 30
0.0
 11
543.8755684285268
 21
305.1137913450993
 31
0.0
  0
LINE
  5
135
330
3F
100
AcDbEntity
  8
1
  6
Continuous
 62
     7
100
AcDbLine
 10
545.6076192360958
 20
305.1137913450993
 30
0.0
 11
545.6076192360958
 21
284.1137913450993
 31
0.0
  0
LINE
  5
136
330
3F
100
AcDbEntity
  8
1
  6
Continuous
 62
     7
100
AcDbLine
 10
510.8755684285268
 20
316.8817405375307
 30
0.0
 11
486.8755684285267
 21
316.8817405375307
 31
0.0
  0
LINE
  5
137
330
3F
100
AcDbEntity
  8
1
  6
Continuous
 62
     7
100
AcDbLine
 10
510.8755684285268
 20
318.6137913450993
 30
0.0
 11
486.8755684285269
 21
318.6137913450993
 31
0.0
  0
LINE
  5
138
330
3F
100
AcDbEntity
  8
1
  6
Continuous
 62
     7
100
AcDbLine
 10
476.8755684285269
 20
277.1137913450993
 30
0.0
 11
450.8755684285267
 21
277.1137913450993
 31
0.0
  0
LINE
  5
139
330
3F
100
AcDbEntity
  8
1
  6
Continuous
 62
     7
100
AcDbLine
 10
486.4212122012617
 20
311.785701167611
 30
0.0
 11
486.5829912288789
 21
316.8817405375307
 31
0.0
  0
LINE
  5
13A
330
3F
100
AcDbEntity
  8
1
  6
Continuous
 62
     7
100
AcDbLine
 10
451.8543741457077
 20
282.3995564105921
 30
0.0
 11
450.8755684285267
 21
278.9737364004593
 31
0.0
  0
LINE
  5
13B
330
3F
100
AcDbEntity
  8
1
  6
Continuous
 62
     7
100
AcDbLine
 10
537.3755684285268
 20
303.3637913450993
 30
0.0
 11
521.0552325377958
 21
303.3637913450996
 31
0.0
  0
LINE
  5
13C
330
3F
100
AcDbEntity
  8
1
  6
Continuous
 62
     7
100
AcDbLine
 10
511.1681456281759
 20
316.8817405375307
 30
0.0
 11
511.3202436207168
 21
312.0906537724926
 31
0.0
  0
LINE
  5
13D
330
3F
100
AcDbEntity
  8
1
  6
Continuous
 62
     7
100
AcDbLine
 10
521.0552325377948
 20
285.8637913450992
 30
0.0
 11
537.3755684285268
 21
285.8637913450993
 31
0.0
  0
LINE
  5
13E
330
3F
100
AcDbEntity
  8
1
  6
Continuous
 62
     7
100
AcDbLine
 10
480.4432598373599
 20
286.1137913450993
 30
0.0
 11
479.6170423185538
 21
286.1137913450993
 31
0.0
  0
LINE
  5
13F
330
3F
100
AcDbEntity
  8
1
  6
Continuous
 62
     7
100
AcDbLine
 10
475.8567152456478
 20
282.5397225405371
 30
0.0
 11
476.8755684285267
 21
278.9737364004593
 31
0.0
  0
LINE
  5
140
330
3F
100
AcDbEntity
  8
1
  6
Continuous
 62
     2
100
AcDbLine
 10
509.8755684285267
 20
320.1137913450993
 30
0.0
 11
509.8755684285267
 21
318.6137913450993
 31
0.0
  0
LINE
  5
141
330
3F
100
AcDbEntity
  8
1
  6
Continuous
 62
     7
100
AcDbLine
 10
556.8755684285268
 20
284.1137913450993
 30
0.0
 11
543.8755684285268
 21
284.1137913450993
 31
0.0
  0
LINE
  5
142
330
3F
100
AcDbEntity
  8
1
  6
Continuous
 62
     2
100
AcDbLine
 10
545.6076192360958
 20
285.1137913450993
 30
0.0
 11
543.8755684285268
 21
284.1137913450993
 31
0.0
  0
LINE
  5
143
330
3F
100
AcDbEntity
  8
1
  6
Continuous
 62
     2
100
AcDbLine
 10
557.8755684285269
 20
285.1137913450993
 30
0.0
 11
545.6076192360958
 21
285.1137913450993
 31
0.0
  0
LINE
  5
144
330
3F
100
AcDbEntity
  8
1
  6
Continuous
 62
     7
100
AcDbLine
 10
556.8755684285268
 20
284.1137913450993
 30
0.0
 11
557.8755684285269
 21
285.1137913450993
 31
0.0
  0
LINE
  5
145
330
3F
100
AcDbEntity
  8
1
  6
Continuous
 62
     7
100
AcDbLine
 10
541.3755684285268
 20
281.8637913450993
 30
0.0
 11
541.3755684285269
 21
272.1137913450993
 31
0.0
  0
LINE
  5
146
330
3F
100
AcDbEntity
  8
1
  6
Continuous
 62
     7
100
AcDbLine
 10
543.8755684285269
 20
271.6137913450993
 30
0.0
 11
541.8755684285268
 21
271.6137913450993
 31
0.0
  0
LINE
  5
147
330
3F
100
AcDbEntity
  8
1
  6
Continuous
 62
     7
100
AcDbLine
 10
543.8755684285268
 20
284.1137913450993
 30
0.0
 11
543.8755684285269
 21
271.6137913450993
 31
0.0
  0
LINE
  5
148
330
3F
100
AcDbEntity
  8
1
  6
Continuous
 62
     2
100
AcDbLine
 10
545.6076192360958
 20
304.1137913450993
 30
0.0
 11
557.8755684285268
 21
304.1137913450993
 31
0.0
  0
LINE
  5
149
330
3F
100
AcDbEntity
  8
1
  6
Continuous
 62
     7
100
AcDbLine
 10
543.8755684285268
 20
305.1137913450993
 30
0.0
 11
556.8755684285268
 21
305.1137913450993
 31
0.0
  0
LINE
  5
14A
330
3F
100
AcDbEntity
  8
1
  6
Continuous
 62
     7
100
AcDbLine
 10
557.8755684285268
 20
304.1137913450993
 30
0.0
 11
556.8755684285268
 21
305.1137913450993
 31
0.0
  0
LINE
  5
14B
330
3F
100
AcDbEntity
  8
1
  6
Continuous
 62
     2
100
AcDbLine
 10
543.8755684285268
 20
305.1137913450993
 30
0.0
 11
545.6076192360958
 21
304.1137913450993
 31
0.0
  0
LINE
  5
14C
330
3F
100
AcDbEntity
  8
1
  6
Continuous
 62
     7
100
AcDbLine
 10
543.8755684285269
 20
317.6137913450993
 30
0.0
 11
543.8755684285268
 21
305.1137913450993
 31
0.0
  0
LINE
  5
14D
330
3F
100
AcDbEntity
  8
1
  6
Continuous
 62
     7
100
AcDbLine
 10
543.8755684285269
 20
317.6137913450993
 30
0.0
 11
541.8755684285268
 21
317.6137913450993
 31
0.0
  0
LINE
  5
14E
330
3F
100
AcDbEntity
  8
1
  6
Continuous
 62
     7
100
AcDbLine
 10
541.3755684285268
 20
307.3637913450993
 30
0.0
 11
541.3755684285268
 21
317.1137913450993
 31
0.0
  0
LINE
  5
14F
330
3F
100
AcDbEntity
  8
1
  6
Continuous
 62
     7
100
AcDbLine
 10
476.8755684285267
 20
278.9737364004593
 30
0.0
 11
476.8755684285267
 21
275.6137913450995
 31
0.0
  0
LINE
  5
150
330
3F
100
AcDbEntity
  8
1
  6
Continuous
 62
     2
100
AcDbLine
 10
450.8755684285267
 20
278.8458421526682
 30
0.0
 11
451.8755684285267
 21
277.1137913450993
 31
0.0
  0
LINE
  5
151
330
3F
100
AcDbEntity
  8
1
  6
Continuous
 62
     7
100
AcDbLine
 10
450.8755684285267
 20
275.6137913450995
 30
0.0
 11
450.8755684285267
 21
278.8458421526682
 31
0.0
  0
LINE
  5
152
330
3F
100
AcDbEntity
  8
1
  6
Continuous
 62
     2
100
AcDbLine
 10
475.8755684285267
 20
277.1137913450993
 30
0.0
 11
476.8755684285267
 21
278.8458421526683
 31
0.0
  0
LINE
  5
153
330
3F
100
AcDbEntity
  8
1
  6
Continuous
 62
     2
100
AcDbLine
 10
475.8755684285267
 20
277.1137913450993
 30
0.0
 11
475.8755684285267
 21
275.6137913450995
 31
0.0
  0
LINE
  5
154
330
3F
100
AcDbEntity
  8
1
  6
Continuous
 62
     2
100
AcDbLine
 10
451.8755684285267
 20
275.6137913450995
 30
0.0
 11
451.8755684285267
 21
277.1137913450993
 31
0.0
  0
LINE
  5
155
330
3F
100
AcDbEntity
  8
1
  6
Continuous
 62
     7
100
AcDbLine
 10
486.5829912288789
 20
316.8817405375307
 30
0.0
 11
486.8755684285267
 21
316.8817405375307
 31
0.0
  0
LINE
  5
156
330
3F
100
AcDbEntity
  8
1
  6
Continuous
 62
     7
100
AcDbLine
 10
510.8755684285268
 20
316.8817405375307
 30
0.0
 11
511.1681456281759
 21
316.8817405375307
 31
0.0
  0
LINE
  5
157
330
3F
100
AcDbEntity
  8
1
  6
Continuous
 62
     2
100
AcDbLine
 10
509.8755684285267
 20
318.6137913450993
 30
0.0
 11
510.8755684285268
 21
316.8817405375307
 31
0.0
  0
LINE
  5
158
330
3F
100
AcDbEntity
  8
1
  6
Continuous
 62
     7
100
AcDbLine
 10
510.8755684285268
 20
316.8817405375307
 30
0.0
 11
510.8755684285268
 21
320.1137913450993
 31
0.0
  0
LINE
  5
159
330
3F
100
AcDbEntity
  8
1
  6
Continuous
 62
     2
100
AcDbLine
 10
486.8755684285267
 20
316.8817405375307
 30
0.0
 11
487.8755684285267
 21
318.6137913450993
 31
0.0
  0
LINE
  5
15A
330
3F
100
AcDbEntity
  8
1
  6
Continuous
 62
     2
100
AcDbLine
 10
487.8755684285267
 20
318.6137913450993
 30
0.0
 11
487.8755684285269
 21
320.1137913450993
 31
0.0
  0
LINE
  5
15B
330
3F
100
AcDbEntity
  8
1
  6
Continuous
 62
     7
100
AcDbLine
 10
486.8755684285267
 20
320.1137913450993
 30
0.0
 11
486.8755684285267
 21
316.8817405375307
 31
0.0
  0
LINE
  5
15C
330
3F
100
AcDbEntity
  8
1
  6
Continuous
 62
     7
100
AcDbLine
 10
450.8755684285267
 20
278.8458421526682
 30
0.0
 11
450.8755684285267
 21
278.9737364004593
 31
0.0
  0
LINE
  5
15D
330
3F
100
AcDbEntity
  8
1
  6
Continuous
 62
     7
100
AcDbLine
 10
557.8755684285269
 20
285.1137913450993
 30
0.0
 11
557.8755684285268
 21
304.1137913450993
 31
0.0
  0
LINE
  5
15E
330
3F
100
AcDbEntity
  8
0
  6
PHANTOM
 62
     4
100
AcDbLine
 10
187.8592134632322
 20
294.6137913450993
 30
0.0
 11
190.8592134632322
 21
294.6137913450993
 31
0.0
  0
ARC
  5
15F
330
3F
100
AcDbEntity
  8
1
  6
Continuous
 62
     7
100
AcDbCircle
 10
164.8592134632322
 20
294.6137913450993
 30
0.0
 40
8.351995935906039
100
AcDbArc
 50
0.19057502307832
 51
90.0
  0
ARC
  5
160
330
3F
100
AcDbEntity
  8
1
  6
Continuous
 62
     7
100
AcDbCircle
 10
164.8592134632322
 20
294.6137913450993
 30
0.0
 40
8.351995935906132
100
AcDbArc
 50
90.0
 51
179.8094249769217
  0
ARC
  5
161
330
3F
100
AcDbEntity
  8
1
  6
Continuous
 62
     7
100
AcDbCircle
 10
137.8592134632322
 20
683.7980399121152
 30
0.0
 40
40.00000000000014
100
AcDbArc
 50
-20.0680546208192
 51
-8.44840117492208
  0
ARC
  5
162
330
3F
100
AcDbEntity
  8
1
  6
Continuous
 62
     7
100
AcDbCircle
 10
164.8592134632322
 20
294.6137913450993
 30
0.0
 40
13.0
100
AcDbArc
 50
-179.931354711061
 51
-145.6899072066111
  0
ARC
  5
163
330
3F
100
AcDbEntity
  8
1
  6
Continuous
 62
     7
100
AcDbCircle
 10
153.15478288924
 20
278.7808929620344
 30
0.0
 40
24.00000000000145
100
AcDbArc
 50
8.67199482596319
 51
27.87011739414499
  0
ARC
  5
164
330
3F
100
AcDbEntity
  8
1
  6
Continuous
 62
     7
100
AcDbCircle
 10
164.8592134632322
 20
294.6137913450993
 30
0.0
 40
13.0
100
AcDbArc
 50
180.0
 51
-179.931354711061
  0
ARC
  5
165
330
3F
100
AcDbEntity
  8
1
  6
Continuous
 62
     7
100
AcDbCircle
 10
164.8592134632322
 20
294.6137913450993
 30
0.0
 40
12.99999999999997
100
AcDbArc
 50
-34.31009279338869
 51
-0.06864528893898
  0
ARC
  5
166
330
3F
100
AcDbEntity
  8
1
  6
Continuous
 62
     7
100
AcDbCircle
 10
176.5636440372244
 20
278.7808929620344
 30
0.0
 40
24.00000000000145
100
AcDbArc
 50
152.1298826058549
 51
171.3280051740368
  0
ARC
  5
167
330
3F
100
AcDbEntity
  8
1
  6
Continuous
 62
     7
100
AcDbCircle
 10
177.6092134632322
 20
722.2617764910776
 30
0.0
 40
4.0
100
AcDbArc
 50
90.0
 51
180.0
  0
ARC
  5
168
330
3F
100
AcDbEntity
  8
1
  6
Continuous
 62
     7
100
AcDbCircle
 10
152.1092134632322
 20
722.2617764910776
 30
0.0
 40
4.0
100
AcDbArc
 50
0.0
 51
90.0
  0
ARC
  5
169
330
3F
100
AcDbEntity
  8
1
  6
Continuous
 62
     7
100
AcDbCircle
 10
191.8592134632322
 20
683.7980399121152
 30
0.0
 40
39.99999999999989
100
AcDbArc
 50
-171.5515988250778
 51
-159.9319453791807
  0
ARC
  5
16A
330
3F
100
AcDbEntity
  8
1
  6
Continuous
 62
     7
100
AcDbCircle
 10
164.8592134632322
 20
648.7980399121152
 30
0.0
 40
12.9999999999999
100
AcDbArc
 50
132.3049897071832
 51
47.69501029281675
  0
ARC
  5
16B
330
3F
100
AcDbEntity
  8
1
  6
Continuous
 62
     7
100
AcDbCircle
 10
498.8755684285267
 20
310.6137913450992
 30
0.0
 40
28.99999999999982
100
AcDbArc
 50
-117.4392401506814
 51
-68.3052839776141
  0
ARC
  5
16C
330
3F
100
AcDbEntity
  8
1
  6
Continuous
 62
     7
100
AcDbCircle
 10
479.8346030529479
 20
282.1197123114756
 30
0.0
 40
3.999999999997794
100
AcDbArc
 50
93.11786651757348
 51
173.9726861048974
  0
ARC
  5
16D
330
3F
100
AcDbEntity
  8
1
  6
Continuous
 62
     7
100
AcDbCircle
 10
537.3755684285268
 20
281.8637913450993
 30
0.0
 40
4.0
100
AcDbArc
 50
0.0
 51
90.0
  0
ARC
  5
16E
330
3F
100
AcDbEntity
  8
1
  6
Continuous
 62
     7
100
AcDbCircle
 10
537.3755684285268
 20
307.3637913450993
 30
0.0
 40
4.0
100
AcDbArc
 50
-90.0
 51
0.0
  0
ARC
  5
16F
330
3F
100
AcDbEntity
  8
1
  6
Continuous
 62
     7
100
AcDbCircle
 10
475.5799990025191
 20
278.7808929620344
 30
0.0
 40
24.00000000000217
100
AcDbArc
 50
99.36066212030302
 51
171.3280051740369
  0
ARC
  5
170
330
3F
100
AcDbEntity
  8
1
  6
Continuous
 62
     7
100
AcDbCircle
 10
479.6462131901881
 20
254.11379134464
 30
0.0
 40
49.00000000045976
100
AcDbArc
 50
92.19404509977881
 51
99.3606621203044
  0
ARC
  5
171
330
3F
100
AcDbEntity
  8
1
  6
Continuous
 62
     7
100
AcDbCircle
 10
477.4257439236001
 20
312.0712715891253
 30
0.0
 40
9.000000000003725
100
AcDbArc
 50
-87.80595490022537
 51
-1.81830296445937
  0
ARC
  5
172
330
3F
100
AcDbEntity
  8
1
  6
Continuous
 62
     7
100
AcDbCircle
 10
164.8592134632322
 20
294.6137913450993
 30
0.0
 40
22.99999999999992
100
AcDbArc
 50
-55.58261128955802
 51
0.0
  0
ARC
  5
173
330
3F
100
AcDbEntity
  8
1
  6
Continuous
 62
     7
100
AcDbCircle
 10
164.8592134632322
 20
294.6137913450993
 30
0.0
 40
23.0
100
AcDbArc
 50
0.0
 51
57.42219882713945
  0
ARC
  5
174
330
3F
100
AcDbEntity
  8
1
  6
Continuous
 62
     7
100
AcDbCircle
 10
164.8592134632322
 20
294.6137913450993
 30
0.0
 40
23.00000000000008
100
AcDbArc
 50
122.5778011728606
 51
-124.4173887104421
  0
ARC
  5
175
330
3F
100
AcDbEntity
  8
1
  6
Continuous
 62
     7
100
AcDbCircle
 10
183.2111078819441
 20
294.674832937165
 30
0.0
 40
9.999999999999954
100
AcDbArc
 50
-179.8094249769229
 51
-152.1298826058542
  0
ARC
  5
176
330
3F
100
AcDbEntity
  8
1
  6
Continuous
 62
     7
100
AcDbCircle
 10
146.5073190445203
 20
294.674832937165
 30
0.0
 40
10.00000000000008
100
AcDbArc
 50
-27.87011739414551
 51
-0.1905750230771
  0
ARC
  5
177
330
3F
100
AcDbEntity
  8
1
  6
Continuous
 62
     7
100
AcDbCircle
 10
203.6092134632322
 20
707.8175632212901
 30
0.0
 40
30.0
100
AcDbArc
 50
180.0
 51
-163.6603718092953
  0
ARC
  5
178
330
3F
100
AcDbEntity
  8
1
  6
Continuous
 62
     7
100
AcDbCircle
 10
175.6092134632322
 20
650.7980399121152
 30
0.0
 40
2.0
100
AcDbArc
 50
180.0
 51
-90.0
  0
ARC
  5
179
330
3F
100
AcDbEntity
  8
1
  6
Continuous
 62
     7
100
AcDbCircle
 10
154.1092134632322
 20
650.7980399121152
 30
0.0
 40
2.0
100
AcDbArc
 50
-90.0
 51
0.0
  0
ARC
  5
17A
330
3F
100
AcDbEntity
  8
1
  6
Continuous
 62
     7
100
AcDbCircle
 10
126.1092134632322
 20
707.8175632212901
 30
0.0
 40
30.00000000000011
100
AcDbArc
 50
-16.33962819070463
 51
0.0
  0
ARC
  5
17B
330
3F
100
AcDbEntity
  8
1
  6
Continuous
 62
     7
100
AcDbCircle
 10
126.1092134632322
 20
659.7785166029402
 30
0.0
 40
30.00000000000001
100
AcDbArc
 50
0.0
 51
20.06805462081911
  0
ARC
  5
17C
330
3F
100
AcDbEntity
  8
1
  6
Continuous
 62
     7
100
AcDbCircle
 10
203.6092134632322
 20
659.7785166029402
 30
0.0
 40
29.99999999999988
100
AcDbArc
 50
159.9319453791808
 51
180.0
  0
ARC
  5
17D
330
3F
100
AcDbEntity
  8
1
  6
Continuous
 62
     7
100
AcDbCircle
 10
142.3592134632322
 20
726.7602351579443
 30
0.0
 40
0.5
100
AcDbArc
 50
180.0
 51
-94.49999999999618
  0
ARC
  5
17E
330
3F
100
AcDbEntity
  8
1
  6
Continuous
 62
     7
100
AcDbCircle
 10
187.3592134632322
 20
726.7602351579443
 30
0.0
 40
0.5000000000001016
100
AcDbArc
 50
-85.50000000000384
 51
0.0
  0
ARC
  5
17F
330
3F
100
AcDbEntity
  8
1
  6
Continuous
 62
     7
100
AcDbCircle
 10
521.0552325377958
 20
334.3637913450996
 30
0.0
 40
31.00000000000004
100
AcDbArc
 50
-91.92633614020622
 51
-90.0
  0
ARC
  5
180
330
3F
100
AcDbEntity
  8
1
  6
Continuous
 62
     7
100
AcDbCircle
 10
520.3157118983738
 20
312.3762241940055
 30
0.0
 40
8.99999999999873
100
AcDbArc
 50
-178.1816970355484
 51
-91.92633614020329
  0
ARC
  5
181
330
3F
100
AcDbEntity
  8
1
  6
Continuous
 62
     7
100
AcDbCircle
 10
521.0552325377958
 20
254.8637913450992
 30
0.0
 40
30.99999999999997
100
AcDbArc
 50
90.00000000000168
 51
111.6947160223877
  0
ARC
  5
182
330
3F
100
AcDbEntity
  8
1
  6
Continuous
 62
     7
100
AcDbCircle
 10
480.4432598373599
 20
275.1137913450993
 30
0.0
 40
11.0000000000001
100
AcDbArc
 50
62.56075984931904
 51
90.0
  0
ARC
  5
183
330
3F
100
AcDbEntity
  8
1
  6
Continuous
 62
     7
100
AcDbCircle
 10
541.8755684285268
 20
272.1137913450993
 30
0.0
 40
0.4999999999998863
100
AcDbArc
 50
180.0
 51
-90.0
  0
ARC
  5
184
330
3F
100
AcDbEntity
  8
1
  6
Continuous
 62
     7
100
AcDbCircle
 10
541.8755684285268
 20
317.1137913450993
 30
0.0
 40
0.5
100
AcDbArc
 50
90.0
 51
180.0
  0
ENDBLK
  5
41
330
3F
100
AcDbEntity
  8
0
100
AcDbBlockEnd
  0
BLOCK
  5
43
330
42
100
AcDbEntity
  8
0
100
AcDbBlockBegin
  2
36-1A-13-M4
 70
     0
 71
     0
 10
253.0617100065786
 20
196.0446653356632
 30
0.0
  3
36-1A-13-M4
  1

  0
LINE
  5
185
330
42
100
AcDbEntity
  8
1
  6
Continuous
 62
     7
100
AcDbLine
 10
169.6092134632322
 20
337.1137913450993
 30
0.0
 11
169.6092134632322
 21
334.1137913450993
 31
0.0
  0
LINE
  5
186
330
42
100
AcDbEntity
  8
1
  6
Continuous
 62
     7
100
AcDbLine
 10
160.1092134632322
 20
334.1137913450993
 30
0.0
 11
160.1092134632322
 21
337.1137913450993
 31
0.0
  0
LINE
  5
187
330
42
100
AcDbEntity
  8
1
  6
Continuous
 62
     7
100
AcDbLine
 10
503.6255684285269
 20
337.1137913450993
 30
0.0
 11
503.6255684285269
 21
334.1137913450993
 31
0.0
  0
LINE
  5
188
330
42
100
AcDbEntity
  8
1
  6
Continuous
 62
     7
100
AcDbLine
 10
494.1255684285268
 20
334.1137913450993
 30
0.0
 11
494.1255684285268
 21
337.1137913450993
 31
0.0
  0
ENDBLK
  5
44
330
42
100
AcDbEntity
  8
0
100
AcDbBlockEnd
  0
BLOCK
  5
46
330
45
100
AcDbEntity
  8
0
100
AcDbBlockBegin
  2
21-1A
 70
     0
 71
     0
 10
543.8755684285269
 20
294.6137913450993
 30
0.0
  3
21-1A
  1

  0
LINE
  5
189
330
45
100
AcDbEntity
  8
1
  6
PHANTOM
 62
     4
100
AcDbLine
 10
173.5194675010766
 20
678.7980399121152
 30
0.0
 11
135.4143497345614
 21
700.7980399121152
 31
0.0
  0
LINE
  5
18A
330
45
100
AcDbEntity
  8
1
  6
PHANTOM
 62
     4
100
AcDbLine
 10
156.1989594253878
 20
678.7980399121152
 30
0.0
 11
194.3040771919032
 21
700.7980399121154
 31
0.0
  0
LINE
  5
18B
330
45
100
AcDbEntity
  8
1
  6
Continuous
 62
     7
100
AcDbLine
 10
171.3296895907954
 20
340.89887110045
 30
0.0
 11
171.3296895907954
 21
338.9686827163928
 31
0.0
  0
LINE
  5
18C
330
45
100
AcDbEntity
  8
1
  6
Continuous
 62
     7
100
AcDbLine
 10
158.3887373356695
 20
339.1215218777383
 30
0.0
 11
158.3887373356695
 21
340.89887110045
 31
0.0
  0
LINE
  5
18D
330
45
100
AcDbEntity
  8
1
  6
Continuous
 62
     7
100
AcDbLine
 10
137.665352433243
 20
340.89887110045
 30
0.0
 11
137.2134443342507
 21
337.6833778955795
 31
0.0
  0
LINE
  5
18E
330
45
100
AcDbEntity
  8
1
  6
Continuous
 62
     7
100
AcDbLine
 10
192.5049825922142
 20
337.6833778955795
 30
0.0
 11
192.0530744932217
 21
340.89887110045
 31
0.0
  0
LINE
  5
18F
330
45
100
AcDbEntity
  8
1
  6
Continuous
 62
     7
100
AcDbLine
 10
137.7085783686214
 20
337.1137913450993
 30
0.0
 11
192.0098485578433
 21
337.1137913450993
 31
0.0
  0
LINE
  5
190
330
45
100
AcDbEntity
  8
1
  6
Continuous
 62
     7
100
AcDbLine
 10
159.0636585054978
 20
657.2451256415
 30
0.0
 11
155.4122492940273
 21
670.8723703379328
 31
0.0
  0
LINE
  5
191
330
45
100
AcDbEntity
  8
1
  6
Continuous
 62
     7
100
AcDbLine
 10
138.9659376815019
 20
692.0553992249959
 30
0.0
 11
148.9417731664644
 21
682.0795637400336
 31
0.0
  0
LINE
  5
192
330
45
100
AcDbEntity
  8
1
  6
Continuous
 62
     7
100
AcDbLine
 10
144.7614926392364
 20
702.0935948698495
 30
0.0
 11
158.3887373356691
 21
698.4421856583792
 31
0.0
  0
LINE
  5
193
330
45
100
AcDbEntity
  8
1
  6
Continuous
 62
     7
100
AcDbLine
 10
185.7174391898485
 20
702.2973715443466
 30
0.0
 11
171.3296895907953
 21
698.4421856583792
 31
0.0
  0
LINE
  5
194
330
45
100
AcDbEntity
  8
1
  6
Continuous
 62
     7
100
AcDbLine
 10
190.7524892449625
 20
692.0553992249959
 30
0.0
 11
180.77665376
 21
682.0795637400336
 31
0.0
  0
LINE
  5
195
330
45
100
AcDbEntity
  8
1
  6
Continuous
 62
     7
100
AcDbLine
 10
170.6547684209667
 20
657.2451256415
 30
0.0
 11
174.3061776324371
 21
670.8723703379328
 31
0.0
  0
LINE
  5
196
330
45
100
AcDbEntity
  8
1
  6
Continuous
 62
     7
100
AcDbLine
 10
468.4507526321374
 20
337.1137913450993
 30
0.0
 11
498.8755684285269
 21
337.1137913450993
 31
0.0
  0
LINE
  5
197
330
45
100
AcDbEntity
  8
1
  6
Continuous
 62
     7
100
AcDbLine
 10
516.678254282878
 20
342.0728679508429
 30
0.0
 11
517.2954717768855
 21
337.683413277812
 31
0.0
  0
LINE
  5
198
330
45
100
AcDbEntity
  8
1
  6
Continuous
 62
     7
100
AcDbLine
 10
468.407526696759
 20
340.89887110045
 30
0.0
 11
467.9556185977666
 21
337.6833778955795
 31
0.0
  0
LINE
  5
199
330
45
100
AcDbEntity
  8
1
  6
Continuous
 62
     7
100
AcDbLine
 10
516.8003427164524
 20
337.1137913450993
 30
0.0
 11
498.8755684285269
 21
337.1137913450993
 31
0.0
  0
ARC
  5
19A
330
45
100
AcDbEntity
  8
1
  6
Continuous
 62
     7
100
AcDbCircle
 10
166.4963038141216
 20
220.7436388047751
 30
0.0
 40
127.4948334081407
100
AcDbArc
 50
92.53411689479745
 51
100.8094932463523
  0
ARC
  5
19B
330
45
100
AcDbEntity
  8
1
  6
Continuous
 62
     7
100
AcDbCircle
 10
163.2221231123431
 20
220.7436388047751
 30
0.0
 40
127.4948334081408
100
AcDbArc
 50
79.19050675364778
 51
87.46588310520269
  0
ARC
  5
19C
330
45
100
AcDbEntity
  8
1
  6
Continuous
 62
     7
100
AcDbCircle
 10
164.8592134632322
 20
658.7980399121152
 30
0.0
 40
6.000000000000019
100
AcDbArc
 50
-164.9999999999988
 51
-90.0
  0
ARC
  5
19D
330
45
100
AcDbEntity
  8
1
  6
Continuous
 62
     7
100
AcDbCircle
 10
143.2085783686213
 20
696.2980399121152
 30
0.0
 40
5.999999999999926
100
AcDbArc
 50
75.0
 51
-135.0000000000004
  0
ARC
  5
19E
330
45
100
AcDbEntity
  8
1
  6
Continuous
 62
     7
100
AcDbCircle
 10
186.5098485578432
 20
696.2980399121152
 30
0.0
 40
6.000000000000028
100
AcDbArc
 50
-45.00000000000019
 51
97.52424107894248
  0
ARC
  5
19F
330
45
100
AcDbEntity
  8
1
  6
Continuous
 62
     7
100
AcDbCircle
 10
164.8592134632322
 20
658.7980399121152
 30
0.0
 40
6.0
100
AcDbArc
 50
-90.0
 51
-15.00000000000095
  0
ARC
  5
1A0
330
45
100
AcDbEntity
  8
1
  6
Continuous
 62
     7
100
AcDbCircle
 10
499.2397640937735
 20
273.2019703364002
 30
0.0
 40
74.99999999999989
100
AcDbArc
 50
80.40850751733488
 51
87.2213610340373
  0
ARC
  5
1A1
330
45
100
AcDbEntity
  8
1
  6
Continuous
 62
     7
100
AcDbCircle
 10
498.8755684285269
 20
198.1137913450993
 30
0.0
 40
150.0533238552216
100
AcDbArc
 50
91.52752544221293
 51
99.80290179376779
  0
SPLINE
  5
1A2
330
45
100
AcDbEntity
  8
1
  6
Continuous
 62
     7
100
AcDbSpline
210
0.0
220
0.0
230
1.0
 70
     8
 71
     3
 72
    31
 73
    27
 74
    25
 42
0.0000000001
 43
0.0000000001
 44
0.00000001
 40
0.0
 40
0.0
 40
0.0
 40
0.0
 40
1.209297236936032
 40
2.418560460299885
 40
3.010646452243365
 40
3.602737257668249
 40
4.185572709902045
 40
4.768388509555567
 40
5.342952280088646
 40
5.91750426134351
 40
6.485853212171271
 40
7.054192630149668
 40
7.61920505691904
 40
8.184213176767178
 40
8.74921956456569
 40
9.314234016565548
 40
9.88258348338162
 40
10.45092171074446
 40
11.02543062566392
 40
11.60003917127246
 40
12.26098010292577
 40
12.92189009803063
 40
13.43590365956356
 40
13.94981906284214
 40
15.15908344823212
 40
16.36837960388709
 40
16.36837960388709
 40
16.36837960388709
 40
16.36837960388709
 10
158.7789547931898
 20
343.3236201589756
 30
0.0
 10
158.9238558350204
 20
343.7006936565489
 30
0.0
 10
159.2136538430896
 20
344.4548300458522
 30
0.0
 10
159.7648995027052
 20
345.3027218696252
 30
0.0
 10
160.2757747261418
 20
345.9159661639338
 30
0.0
 10
160.6919836148004
 20
346.3340164018854
 30
0.0
 10
161.1408125501091
 20
346.7117641886483
 30
0.0
 10
161.6169374085174
 20
347.0445284602298
 30
0.0
 10
162.1190052019813
 20
347.33112382056
 30
0.0
 10
162.6409442159994
 20
347.5683533253016
 30
0.0
 10
163.1808448784444
 20
347.7549813994767
 30
0.0
 10
163.7328237502454
 20
347.8893114340629
 30
0.0
 10
164.293993314758
 20
347.9702447866422
 30
0.0
 10
164.859212830939
 20
347.9974210836451
 30
0.0
 10
165.4244333508181
 20
347.9702490827866
 30
0.0
 10
165.9856062384418
 20
347.8893125288495
 30
0.0
 10
166.5375829336368
 20
347.7549705322421
 30
0.0
 10
167.0774697320891
 20
347.56835345209
 30
0.0
 10
167.5994229843633
 20
347.3311527046691
 30
0.0
 10
168.1241196219273
 20
347.0316221961813
 30
0.0
 10
168.6409174489829
 20
346.6655807776934
 30
0.0
 10
169.1027984948441
 20
346.2626152248458
 30
0.0
 10
169.4934759134581
 20
345.8564170779462
 30
0.0
 10
169.9676936075564
 20
345.2806837744744
 30
0.0
 10
170.5048222794792
 20
344.4548374757613
 30
0.0
 10
170.7945875798885
 20
343.7006959000443
 30
0.0
 10
170.9394721332748
 20
343.3236201589756
 30
0.0
 11
158.7789547931898
 21
343.3236201589756
 31
0.0
 11
159.251918353619
 21
344.4365915322675
 31
0.0
 11
159.9025411813784
 21
345.455908695558
 31
0.0
 11
160.2823149677481
 21
345.9101527852743
 31
0.0
 11
160.7000715796619
 21
346.3297370260067
 31
0.0
 11
161.146138111781
 21
346.7048660882024
 31
0.0
 11
161.6239753994506
 21
347.0385512434585
 31
0.0
 11
162.1230340353247
 21
347.3232686548838
 31
0.0
 11
162.6461802906977
 21
347.5608143865927
 31
0.0
 11
163.183367512285
 21
347.7464226269009
 31
0.0
 11
163.7356270750435
 21
347.8806577540835
 31
0.0
 11
164.2948532874446
 21
347.96131186599
 31
0.0
 11
164.8592134632322
 21
347.9883630670583
 31
0.0
 11
165.423572060346
 21
347.9613151074876
 31
0.0
 11
165.9827998514209
 21
347.8806577540835
 31
0.0
 11
166.5350673731573
 21
347.7464128254447
 31
0.0
 11
167.0722466357667
 21
347.5608143865925
 31
0.0
 11
167.5953621682691
 21
347.3233051594525
 31
0.0
 11
168.094451527014
 21
347.0385512434584
 31
0.0
 11
168.6340126427335
 21
346.6568226519981
 31
0.0
 11
169.1322242249665
 21
346.2225563270794
 31
0.0
 11
169.4885227316047
 21
345.8520683844859
 31
0.0
 11
169.815885745086
 21
345.455908695558
 31
0.0
 11
170.466509527677
 21
344.4365907631643
 31
0.0
 11
170.9394721332748
 21
343.3236201589756
 31
0.0
  0
ARC
  5
1A3
330
45
100
AcDbEntity
  8
1
  6
Continuous
 62
     7
100
AcDbCircle
 10
143.6069608456924
 20
340.0638324946898
 30
0.0
 40
5.999999999999925
100
AcDbArc
 50
99.80290179376905
 51
172.0000000000019
  0
ARC
  5
1A4
330
45
100
AcDbEntity
  8
1
  6
Continuous
 62
     7
100
AcDbCircle
 10
137.7085783686214
 20
337.6137913450993
 30
0.0
 40
0.4999999999999336
100
AcDbArc
 50
171.9999999999784
 51
-90.0
  0
ARC
  5
1A5
330
45
100
AcDbEntity
  8
1
  6
Continuous
 62
     7
100
AcDbCircle
 10
192.0098485578433
 20
337.6137913450993
 30
0.0
 40
0.5
100
AcDbArc
 50
-90.0
 51
8.00000000001841
  0
ARC
  5
1A6
330
45
100
AcDbEntity
  8
1
  6
Continuous
 62
     7
100
AcDbCircle
 10
186.1114660807723
 20
340.0638324946898
 30
0.0
 40
5.999999999999948
100
AcDbArc
 50
7.99999999999811
 51
80.19709820623176
  0
ARC
  5
1A7
330
45
100
AcDbEntity
  8
1
  6
Continuous
 62
     7
100
AcDbCircle
 10
131.2641036368007
 20
664.4018942103699
 30
0.0
 40
24.99999999999988
100
AcDbArc
 50
14.99999999999994
 51
45.00000000000005
  0
ARC
  5
1A8
330
45
100
AcDbEntity
  8
1
  6
Continuous
 62
     7
100
AcDbCircle
 10
164.8592134632322
 20
722.5903313156058
 30
0.0
 40
24.99999999999988
100
AcDbArc
 50
-105.0000000000003
 51
-74.99999999999973
  0
ARC
  5
1A9
330
45
100
AcDbEntity
  8
1
  6
Continuous
 62
     7
100
AcDbCircle
 10
198.4543232896638
 20
664.4018942103699
 30
0.0
 40
25.0000000000001
100
AcDbArc
 50
135.0000000000001
 51
165.0000000000001
  0
ARC
  5
1AA
330
45
100
AcDbEntity
  8
1
  6
Continuous
 62
     7
100
AcDbCircle
 10
516.8003427164524
 20
337.6137913450993
 30
0.0
 40
0.5
100
AcDbArc
 50
-90.0
 51
8.00409437171274
  0
ARC
  5
1AB
330
45
100
AcDbEntity
  8
1
  6
Continuous
 62
     7
100
AcDbCircle
 10
468.4507526321374
 20
337.6137913450993
 30
0.0
 40
0.500000000000018
100
AcDbArc
 50
171.9999999999798
 51
-90.0
  0
ARC
  5
1AC
330
45
100
AcDbEntity
  8
1
  6
Continuous
 62
     7
100
AcDbCircle
 10
510.7367055576809
 20
341.2374047582915
 30
0.0
 40
5.99999999999995
100
AcDbArc
 50
8.00409437170106
 51
80.40850751733595
  0
ARC
  5
1AD
330
45
100
AcDbEntity
  8
1
  6
Continuous
 62
     7
100
AcDbCircle
 10
474.3491351092084
 20
340.0638324946897
 30
0.0
 40
5.999999999999967
100
AcDbArc
 50
99.80290179376816
 51
172.0000000000008
  0
ENDBLK
  5
47
330
45
100
AcDbEntity
  8
0
100
AcDbBlockEnd
  0
BLOCK
  5
49
330
48
100
AcDbEntity
  8
0
100
AcDbBlockBegin
  2
37-1-13
 70
     0
 71
     0
 10
407.0743382117558
 20
178.1180854549548
 30
0.0
  3
37-1-13
  1

  0
LINE
  5
1AE
330
48
100
AcDbEntity
  8
1
  6
Continuous
 62
     7
100
AcDbLine
 10
151.8592134632322
 20
320.1137913450993
 30
0.0
 11
151.8592134632322
 21
327.1845055593709
 31
0.0
  0
LINE
  5
1AF
330
48
100
AcDbEntity
  8
1
  6
Continuous
 62
     7
100
AcDbLine
 10
177.8592134632322
 20
327.1845055593709
 30
0.0
 11
177.8592134632322
 21
320.1137913450993
 31
0.0
  0
LINE
  5
1B0
330
48
100
AcDbEntity
  8
1
  6
Continuous
 62
     7
100
AcDbLine
 10
164.8592134632322
 20
320.1137913450993
 30
0.0
 11
151.8592134632322
 21
320.1137913450993
 31
0.0
  0
LINE
  5
1B1
330
48
100
AcDbEntity
  8
1
  6
Continuous
 62
     7
100
AcDbLine
 10
164.8592134632322
 20
320.1137913450993
 30
0.0
 11
177.8592134632322
 21
320.1137913450993
 31
0.0
  0
LINE
  5
1B2
330
48
100
AcDbEntity
  8
1
  6
Continuous
 62
     7
100
AcDbLine
 10
159.8592134632322
 20
334.1137913450993
 30
0.0
 11
158.8592134632322
 21
334.1137913450993
 31
0.0
  0
LINE
  5
1B3
330
48
100
AcDbEntity
  8
1
  6
Continuous
 62
     7
100
AcDbLine
 10
164.8592134632322
 20
334.1137913450993
 30
0.0
 11
170.8592134632322
 21
334.1137913450993
 31
0.0
  0
LINE
  5
1B4
330
48
100
AcDbEntity
  8
1
  6
Continuous
 62
     7
100
AcDbLine
 10
164.8592134632322
 20
334.1137913450993
 30
0.0
 11
159.8592134632322
 21
334.1137913450993
 31
0.0
  0
LINE
  5
1B5
330
48
100
AcDbEntity
  8
1
  6
Continuous
 62
     7
100
AcDbLine
 10
498.8755684285269
 20
327.6137913450993
 30
0.0
 11
511.3755684285267
 21
327.6137913450995
 31
0.0
  0
LINE
  5
1B6
330
48
100
AcDbEntity
  8
1
  6
Continuous
 62
     7
100
AcDbLine
 10
486.375568428527
 20
327.6137913450995
 30
0.0
 11
498.8755684285269
 21
327.6137913450993
 31
0.0
  0
LINE
  5
1B7
330
48
100
AcDbEntity
  8
1
  6
Continuous
 62
     7
100
AcDbLine
 10
511.9462826427983
 20
320.1137913450993
 30
0.0
 11
485.8048542142554
 21
320.1137913450993
 31
0.0
  0
LINE
  5
1B8
330
48
100
AcDbEntity
  8
1
  6
Continuous
 62
     7
100
AcDbLine
 10
504.8755684285269
 20
334.1137913450993
 30
0.0
 11
492.8755684285269
 21
334.1137913450993
 31
0.0
  0
ARC
  5
1B9
330
48
100
AcDbEntity
  8
1
  6
Continuous
 62
     7
100
AcDbCircle
 10
155.3592134632322
 20
323.6137913450993
 30
0.0
 40
5.000000000000062
100
AcDbArc
 50
126.8698976458406
 51
134.4270040008042
  0
ARC
  5
1BA
330
48
100
AcDbEntity
  8
1
  6
Continuous
 62
     7
100
AcDbCircle
 10
138.9527582581175
 20
347.5202465502143
 30
0.0
 40
23.99999999999989
100
AcDbArc
 50
-56.04080749990241
 51
-33.95919250009803
  0
ARC
  5
1BB
330
48
100
AcDbEntity
  8
1
  6
Continuous
 62
     7
100
AcDbCircle
 10
174.3592134632322
 20
323.6137913450993
 30
0.0
 40
5.000000000000138
100
AcDbArc
 50
45.57299599919585
 51
53.13010235415754
  0
ARC
  5
1BC
330
48
100
AcDbEntity
  8
1
  6
Continuous
 62
     7
100
AcDbCircle
 10
190.7656686683472
 20
347.5202465502143
 30
0.0
 40
24.00000000000011
100
AcDbArc
 50
-146.0408074999024
 51
-123.9591925000978
  0
ARC
  5
1BD
330
48
100
AcDbEntity
  8
1
  6
Continuous
 62
     7
100
AcDbCircle
 10
524.7820236336418
 20
347.5202465502143
 30
0.0
 40
24.00000000000002
100
AcDbArc
 50
-146.0408074999022
 51
-123.9591925000979
  0
ARC
  5
1BE
330
48
100
AcDbEntity
  8
1
  6
Continuous
 62
     7
100
AcDbCircle
 10
508.3755684285269
 20
323.6137913450993
 30
0.0
 40
4.999999999999975
100
AcDbArc
 50
-44.42700400080598
 51
53.13010235415911
  0
ARC
  5
1BF
330
48
100
AcDbEntity
  8
1
  6
Continuous
 62
     7
100
AcDbCircle
 10
472.9691132234119
 20
347.5202465502143
 30
0.0
 40
24.0
100
AcDbArc
 50
-56.04080749990202
 51
-33.95919250009765
  0
ARC
  5
1C0
330
48
100
AcDbEntity
  8
1
  6
Continuous
 62
     7
100
AcDbCircle
 10
489.3755684285269
 20
323.6137913450993
 30
0.0
 40
5.000000000000114
100
AcDbArc
 50
126.8698976458414
 51
-135.5729959991949
  0
SPLINE
  5
1C1
330
48
100
AcDbEntity
  8
1
  6
Continuous
 62
     7
100
AcDbSpline
210
0.0
220
0.0
230
1.0
 70
    11
 71
     3
 72
    79
 73
    75
 74
    73
 42
0.0000000001
 43
0.0000000001
 44
0.00000001
 40
0.0
 40
0.0
 40
0.0
 40
0.0
 40
0.3160436465961982
 40
0.6318966345053785
 40
0.9639391318841004
 40
1.295702698074494
 40
1.650847227467605
 40
2.005727789197637
 40
2.387357022599096
 40
2.768780714705176
 40
3.176769171734033
 40
3.584612394008018
 40
4.015944751163363
 40
4.447181172428078
 40
4.896666773394836
 40
5.346094681847077
 40
5.807047420514739
 40
6.267973152329988
 40
6.732835060374442
 40
7.197696968418782
 40
7.658622700233975
 40
8.119575438901594
 40
8.569003347353851
 40
9.018488948320568
 40
9.44972536958524
 40
9.881057726740663
 40
10.28890094901467
 40
10.69688940604355
 40
11.07831309814955
 40
11.45994233155101
 40
11.81482289328109
 40
12.16996742267414
 40
12.50173098886463
 40
12.83377348624334
 40
13.14962647415248
 40
13.46567012074868
 40
13.77589255555605
 40
14.08611499036343
 40
14.40215863695974
 40
14.71801162486878
 40
15.05005412224745
 40
15.38181768843798
 40
15.73696221783101
 40
16.0918427795611
 40
16.47347201296263
 40
16.85489570506872
 40
17.26288416209758
 40
17.67072738437161
 40
18.10205974152697
 40
18.53329616279163
 40
18.98278176375837
 40
19.43220967221067
 40
19.89316241087834
 40
20.35408814269362
 40
20.81895005073802
 40
21.28381195878233
 40
21.7447376905975
 40
22.20569042926514
 40
22.65511833771742
 40
23.10460393868418
 40
23.53584035994879
 40
23.96717271710412
 40
24.37501593937816
 40
24.78300439640705
 40
25.16442808851319
 40
25.54605732191464
 40
25.90093788364468
 40
26.25608241303774
 40
26.58784597922826
 40
26.91988847660699
 40
27.23574146451606
 40
27.55178511111237
 40
27.86200754591974
 40
28.17222998072705
 40
28.17222998072705
 40
28.17222998072705
 40
28.17222998072705
 10
163.900599438463
 20
323.9586752870215
 30
0.0
 10
163.8828075291107
 20
324.0626693140062
 30
0.0
 10
163.8472344436771
 20
324.2705946318159
 30
0.0
 10
163.7410937207867
 20
324.5752403561859
 30
0.0
 10
163.6000403821817
 20
324.87039864621
 30
0.0
 10
163.417790463508
 20
325.157910095108
 30
0.0
 10
163.2015752147041
 20
325.4304333202502
 30
0.0
 10
162.9476363181469
 20
325.691821388833
 30
0.0
 10
162.6640474985459
 20
325.9343548347829
 30
0.0
 10
162.3464500159617
 20
326.1620274961286
 30
0.0
 10
162.0041453322416
 20
326.3680083030407
 30
0.0
 10
161.6326896393522
 20
326.555450397546
 30
0.0
 10
161.2417460646196
 20
326.719105658353
 30
0.0
 10
160.8277220552876
 20
326.8609582300571
 30
0.0
 10
160.3996249058997
 20
326.9775183277619
 30
0.0
 10
159.9555405976254
 20
327.0697397008725
 30
0.0
 10
159.5029473479968
 20
327.1356836405722
 30
0.0
 10
159.0421774770041
 20
327.1756909231802
 30
0.0
 10
158.5785599989164
 20
327.1889316160836
 30
0.0
 10
158.1149425208152
 20
327.1756909231814
 30
0.0
 10
157.6541726498631
 20
327.1356836405679
 30
0.0
 10
157.2015794000876
 20
327.0697397008881
 30
0.0
 10
156.7574950923476
 20
326.9775183277057
 30
0.0
 10
156.3293979410028
 20
326.860958230264
 30
0.0
 10
155.9153739386913
 20
326.7191056576165
 30
0.0
 10
155.524430338454
 20
326.5554504002354
 30
0.0
 10
155.1529747358126
 20
326.3680082936077
 30
0.0
 10
154.810669726411
 20
326.1620275304417
 30
0.0
 10
154.4930733841257
 20
325.9343547159305
 30
0.0
 10
154.2094804660248
 20
325.6918218204928
 30
0.0
 10
153.9555558497508
 20
325.4304318337765
 30
0.0
 10
153.7392892505807
 20
325.1579155060361
 30
0.0
 10
153.5572190508994
 20
324.8703799172115
 30
0.0
 10
153.4155149736583
 20
324.5753090346592
 30
0.0
 10
153.3116911858858
 20
324.2703520986447
 30
0.0
 10
153.2501462781914
 20
323.9614909683086
 30
0.0
 10
153.228630236663
 20
323.6491484522351
 30
0.0
 10
153.2501462781914
 20
323.3368059361616
 30
0.0
 10
153.3116911858858
 20
323.0279448058254
 30
0.0
 10
153.4155149736582
 20
322.7229878698109
 30
0.0
 10
153.5572190508992
 20
322.4279169872589
 30
0.0
 10
153.7392892505804
 20
322.140381398434
 30
0.0
 10
153.9555558497507
 20
321.8678650706936
 30
0.0
 10
154.2094804660247
 20
321.6064750839776
 30
0.0
 10
154.4930733841256
 20
321.3639421885396
 30
0.0
 10
154.8106697264108
 20
321.1362693740283
 30
0.0
 10
155.1529747358125
 20
320.9302886108623
 30
0.0
 10
155.5244303384538
 20
320.7428465042347
 30
0.0
 10
155.9153739386912
 20
320.5791912468537
 30
0.0
 10
156.3293979410026
 20
320.4373386742063
 30
0.0
 10
156.7574950923475
 20
320.3207785767644
 30
0.0
 10
157.2015794000876
 20
320.2285572035822
 30
0.0
 10
157.6541726498629
 20
320.1626132639022
 30
0.0
 10
158.1149425208159
 20
320.1226059812888
 30
0.0
 10
158.5785599989144
 20
320.1093652883869
 30
0.0
 10
159.042177477012
 20
320.1226059812886
 30
0.0
 10
159.5029473479676
 20
320.1626132639027
 30
0.0
 10
159.9555405977325
 20
320.2285572035809
 30
0.0
 10
160.3996249055106
 20
320.3207785767686
 30
0.0
 10
160.8277220567163
 20
320.4373386741916
 30
0.0
 10
161.241746059527
 20
320.5791912469061
 30
0.0
 10
161.6326896579503
 20
320.7428465040433
 30
0.0
 10
162.0041452670104
 20
320.9302886115335
 30
0.0
 10
162.3464502532481
 20
321.136269371588
 30
0.0
 10
162.6640466766374
 20
321.3639421969929
 30
0.0
 10
162.947639303232
 20
321.6064750532756
 30
0.0
 10
163.2015649351926
 20
321.8678651764193
 30
0.0
 10
163.4178278820623
 20
322.1403810135812
 30
0.0
 10
163.5999108642772
 20
322.4279183193607
 30
0.0
 10
163.7415686576595
 20
322.7229829850469
 30
0.0
 10
163.8455572377027
 20
323.0279620560245
 30
0.0
 10
163.9064970398044
 20
323.3367419083372
 30
0.0
 10
163.9302324883828
 20
323.6493825360466
 30
0.0
 10
163.9104771217696
 20
323.8555777033632
 30
0.0
 10
163.900599438463
 20
323.9586752870214
 30
0.0
 11
163.900599438463
 21
323.9586752870215
 31
0.0
 11
163.8387170891766
 21
324.2686013449783
 31
0.0
 11
163.7376609622472
 21
324.56785169031
 31
0.0
 11
163.5942072427787
 21
324.8673066125206
 31
0.0
 11
163.4173765293835
 21
325.1480163605728
 31
0.0
 11
163.1970659585469
 21
325.4265677725878
 31
0.0
 11
162.9502584124234
 21
325.6815702201648
 31
0.0
 11
162.6606481238979
 21
325.9300993986666
 31
0.0
 11
162.3509458049692
 21
326.1527392570703
 31
0.0
 11
162.0016692228202
 21
326.3635957253873
 31
0.0
 11
161.6377254215603
 21
326.5476636570845
 31
0.0
 11
161.2400289294868
 21
326.71465198758
 31
0.0
 11
160.8321530963318
 21
326.854659686487
 31
0.0
 11
160.398544714971
 21
326.9730703156137
 31
0.0
 11
159.9585319575185
 21
327.0645810700351
 31
0.0
 11
159.5024260741559
 21
327.1312507816534
 31
0.0
 11
159.0432297770163
 21
327.1711417698922
 31
0.0
 11
158.5785599989141
 21
327.1845055593709
 31
0.0
 11
158.1138902208121
 21
327.1711417698922
 31
0.0
 11
157.6546939236725
 21
327.1312507816534
 31
0.0
 11
157.19858804031
 21
327.0645810700352
 31
0.0
 11
156.7585752828574
 21
326.9730703156139
 31
0.0
 11
156.3249669014967
 21
326.8546596864871
 31
0.0
 11
155.9170910683417
 21
326.71465198758
 31
0.0
 11
155.5193945762682
 21
326.5476636570845
 31
0.0
 11
155.1554507750082
 21
326.3635957253873
 31
0.0
 11
154.8061741928593
 21
326.1527392570703
 31
0.0
 11
154.4964718739306
 21
325.9300993986666
 31
0.0
 11
154.2068615854051
 21
325.6815702201649
 31
0.0
 11
153.9600540392815
 21
325.4265677725878
 31
0.0
 11
153.7397434684451
 21
325.1480163605728
 31
0.0
 11
153.5629127550499
 21
324.8673066125205
 31
0.0
 11
153.4194590355813
 21
324.56785169031
 31
0.0
 11
153.3184029086519
 21
324.2686013449783
 31
0.0
 11
153.2565205593655
 21
323.9586752870215
 31
0.0
 11
153.2357576692741
 21
323.6491484522351
 31
0.0
 11
153.2565205593655
 21
323.3396216174488
 31
0.0
 11
153.3184029086518
 21
323.0296955594919
 31
0.0
 11
153.4194590355812
 21
322.7304452141602
 31
0.0
 11
153.5629127550497
 21
322.4309902919497
 31
0.0
 11
153.7397434684448
 21
322.1502805438973
 31
0.0
 11
153.9600540392813
 21
321.8717291318824
 31
0.0
 11
154.206861585405
 21
321.6167266843054
 31
0.0
 11
154.4964718739305
 21
321.3681975058035
 31
0.0
 11
154.8061741928592
 21
321.1455576473998
 31
0.0
 11
155.1554507750081
 21
320.9347011790827
 31
0.0
 11
155.5193945762681
 21
320.7506332473855
 31
0.0
 11
155.9170910683416
 21
320.5836449168902
 31
0.0
 11
156.3249669014966
 21
320.4436372179831
 31
0.0
 11
156.7585752828573
 21
320.3252265888564
 31
0.0
 11
157.1985880403099
 21
320.233715834435
 31
0.0
 11
157.6546939236725
 21
320.1670461228168
 31
0.0
 11
158.1138902208122
 21
320.1271551345781
 31
0.0
 11
158.5785599989143
 21
320.1137913450993
 31
0.0
 11
159.0432297770163
 21
320.127155134578
 31
0.0
 11
159.5024260741558
 21
320.1670461228168
 31
0.0
 11
159.9585319575184
 21
320.233715834435
 31
0.0
 11
160.398544714971
 21
320.3252265888564
 31
0.0
 11
160.8321530963317
 21
320.4436372179831
 31
0.0
 11
161.2400289294866
 21
320.5836449168903
 31
0.0
 11
161.6377254215601
 21
320.7506332473856
 31
0.0
 11
162.0016692228201
 21
320.9347011790829
 31
0.0
 11
162.3509458049691
 21
321.1455576473999
 31
0.0
 11
162.6606481238979
 21
321.3681975058035
 31
0.0
 11
162.9502584124234
 21
321.6167266843053
 31
0.0
 11
163.1970659585469
 21
321.8717291318824
 31
0.0
 11
163.4173765293834
 21
322.1502805438973
 31
0.0
 11
163.5942072427787
 21
322.4309902919496
 31
0.0
 11
163.7376609622472
 21
322.7304452141602
 31
0.0
 11
163.8387170891766
 21
323.0296955594919
 31
0.0
 11
163.900599438463
 21
323.3396216174488
 31
0.0
 11
163.9213623285543
 21
323.6491484522351
 31
0.0
 11
163.900599438463
 21
323.9586752870214
 31
0.0
  0
SPLINE
  5
1C2
330
48
100
AcDbEntity
  8
1
  6
Continuous
 62
     7
100
AcDbSpline
210
0.0
220
0.0
230
1.0
 70
    11
 71
     3
 72
    79
 73
    75
 74
    73
 42
0.0000000001
 43
0.0000000001
 44
0.00000001
 40
0.0
 40
0.0
 40
0.0
 40
0.0
 40
0.3160436465962093
 40
0.6318966345053714
 40
0.963939131884118
 40
1.295702698074466
 40
1.650847227467541
 40
2.005727789197594
 40
2.38735702259903
 40
2.768780714705111
 40
3.176769171733968
 40
3.584612394008003
 40
4.015944751163374
 40
4.447181172428063
 40
4.896666773394821
 40
5.346094681847035
 40
5.807047420514641
 40
6.267973152329918
 40
6.732835060374372
 40
7.19769696841874
 40
7.658622700233933
 40
8.119575438901579
 40
8.569003347353892
 40
9.018488948320609
 40
9.449725369585281
 40
9.881057726740652
 40
10.28890094901464
 40
10.69688940604352
 40
11.0783130981495
 40
11.45994233155095
 40
11.81482289328105
 40
12.16996742267414
 40
12.50173098886463
 40
12.83377348624335
 40
13.14962647415248
 40
13.46567012074869
 40
13.77589255555607
 40
14.08611499036344
 40
14.40215863695975
 40
14.71801162486881
 40
15.0500541222475
 40
15.38181768843801
 40
15.73696221783106
 40
16.09184277956113
 40
16.47347201296271
 40
16.8548957050688
 40
17.26288416209765
 40
17.67072738437164
 40
18.10205974152697
 40
18.53329616279159
 40
18.98278176375837
 40
19.43220967221069
 40
19.89316241087845
 40
20.35408814269367
 40
20.8189500507381
 40
21.28381195878241
 40
21.74473769059755
 40
22.20569042926519
 40
22.65511833771747
 40
23.10460393868414
 40
23.53584035994879
 40
23.96717271710409
 40
24.37501593937812
 40
24.78300439640709
 40
25.16442808851323
 40
25.54605732191468
 40
25.90093788364472
 40
26.25608241303776
 40
26.58784597922825
 40
26.91988847660699
 40
27.23574146451605
 40
27.55178511111237
 40
27.86200754591974
 40
28.17222998072706
 40
28.17222998072706
 40
28.17222998072706
 40
28.17222998072706
 10
165.8178274880017
 20
323.9586752870215
 30
0.0
 10
165.835619397354
 20
324.0626693140062
 30
0.0
 10
165.8711924827876
 20
324.270594631816
 30
0.0
 10
165.977333205678
 20
324.5752403561859
 30
0.0
 10
166.118386544283
 20
324.8703986462099
 30
0.0
 10
166.3006364629567
 20
325.1579100951083
 30
0.0
 10
166.5168517117605
 20
325.4304333202503
 30
0.0
 10
166.7707906083178
 20
325.6918213888329
 30
0.0
 10
167.0543794279187
 20
325.9343548347831
 30
0.0
 10
167.3719769105028
 20
326.1620274961286
 30
0.0
 10
167.7142815942231
 20
326.3680083030407
 30
0.0
 10
168.0857372871125
 20
326.555450397546
 30
0.0
 10
168.476680861845
 20
326.719105658353
 30
0.0
 10
168.8907048711771
 20
326.8609582300571
 30
0.0
 10
169.3188020205649
 20
326.977518327762
 30
0.0
 10
169.7628863288392
 20
327.0697397008723
 30
0.0
 10
170.2154795784678
 20
327.1356836405722
 30
0.0
 10
170.6762494494605
 20
327.1756909231804
 30
0.0
 10
171.1398669275482
 20
327.1889316160836
 30
0.0
 10
171.6034844056494
 20
327.1756909231815
 30
0.0
 10
172.0642542766016
 20
327.135683640568
 30
0.0
 10
172.516847526377
 20
327.069739700888
 30
0.0
 10
172.9609318341171
 20
326.9775183277058
 30
0.0
 10
173.3890289854619
 20
326.8609582302639
 30
0.0
 10
173.8030529877734
 20
326.7191056576165
 30
0.0
 10
174.1939965880107
 20
326.5554504002354
 30
0.0
 10
174.565452190652
 20
326.3680082936078
 30
0.0
 10
174.9077572000536
 20
326.1620275304417
 30
0.0
 10
175.2253535423389
 20
325.9343547159305
 30
0.0
 10
175.5089464604398
 20
325.6918218204928
 30
0.0
 10
175.7628710767137
 20
325.4304318337766
 30
0.0
 10
175.979137675884
 20
325.1579155060362
 30
0.0
 10
176.1612078755653
 20
324.8703799172114
 30
0.0
 10
176.3029119528064
 20
324.5753090346593
 30
0.0
 10
176.4067357405789
 20
324.2703520986447
 30
0.0
 10
176.4682806482733
 20
323.9614909683088
 30
0.0
 10
176.4897966898018
 20
323.649148452235
 30
0.0
 10
176.4682806482732
 20
323.3368059361616
 30
0.0
 10
176.4067357405789
 20
323.0279448058255
 30
0.0
 10
176.3029119528064
 20
322.7229878698109
 30
0.0
 10
176.1612078755655
 20
322.4279169872588
 30
0.0
 10
175.9791376758843
 20
322.1403813984341
 30
0.0
 10
175.762871076714
 20
321.8678650706936
 30
0.0
 10
175.5089464604399
 20
321.6064750839774
 30
0.0
 10
175.225353542339
 20
321.3639421885398
 30
0.0
 10
174.9077572000537
 20
321.1362693740282
 30
0.0
 10
174.5654521906521
 20
320.9302886108622
 30
0.0
 10
174.1939965880108
 20
320.7428465042346
 30
0.0
 10
173.8030529877735
 20
320.5791912468537
 30
0.0
 10
173.389028985462
 20
320.4373386742063
 30
0.0
 10
172.9609318341171
 20
320.3207785767644
 30
0.0
 10
172.516847526377
 20
320.2285572035821
 30
0.0
 10
172.0642542766017
 20
320.1626132639024
 30
0.0
 10
171.6034844056487
 20
320.1226059812888
 30
0.0
 10
171.1398669275502
 20
320.1093652883868
 30
0.0
 10
170.6762494494526
 20
320.1226059812886
 30
0.0
 10
170.215479578497
 20
320.1626132639027
 30
0.0
 10
169.7628863287321
 20
320.2285572035809
 30
0.0
 10
169.3188020209541
 20
320.3207785767687
 30
0.0
 10
168.8907048697484
 20
320.4373386741916
 30
0.0
 10
168.4766808669377
 20
320.5791912469061
 30
0.0
 10
168.0857372685144
 20
320.7428465040434
 30
0.0
 10
167.7142816594543
 20
320.9302886115336
 30
0.0
 10
167.3719766732165
 20
321.1362693715879
 30
0.0
 10
167.0543802498272
 20
321.3639421969929
 30
0.0
 10
166.7707876232327
 20
321.6064750532757
 30
0.0
 10
166.5168619912721
 20
321.8678651764193
 30
0.0
 10
166.3005990444023
 20
322.1403810135812
 30
0.0
 10
166.1185160621875
 20
322.4279183193609
 30
0.0
 10
165.9768582688052
 20
322.7229829850468
 30
0.0
 10
165.8728696887619
 20
323.0279620560244
 30
0.0
 10
165.8119298866602
 20
323.3367419083372
 30
0.0
 10
165.7881944380818
 20
323.6493825360466
 30
0.0
 10
165.8079498046951
 20
323.8555777033632
 30
0.0
 10
165.8178274880017
 20
323.9586752870214
 30
0.0
 11
165.8178274880017
 21
323.9586752870215
 31
0.0
 11
165.8797098372881
 21
324.2686013449783
 31
0.0
 11
165.9807659642175
 21
324.56785169031
 31
0.0
 11
166.1242196836861
 21
324.8673066125206
 31
0.0
 11
166.3010503970812
 21
325.1480163605728
 31
0.0
 11
166.5213609679176
 21
325.4265677725878
 31
0.0
 11
166.7681685140412
 21
325.6815702201648
 31
0.0
 11
167.0577788025667
 21
325.9300993986666
 31
0.0
 11
167.3674811214954
 21
326.1527392570703
 31
0.0
 11
167.7167577036444
 21
326.3635957253873
 31
0.0
 11
168.0807015049044
 21
326.5476636570845
 31
0.0
 11
168.4783979969778
 21
326.71465198758
 31
0.0
 11
168.8862738301329
 21
326.854659686487
 31
0.0
 11
169.3198822114936
 21
326.9730703156137
 31
0.0
 11
169.7598949689461
 21
327.0645810700351
 31
0.0
 11
170.2160008523086
 21
327.1312507816534
 31
0.0
 11
170.6751971494483
 21
327.1711417698922
 31
0.0
 11
171.1398669275505
 21
327.1845055593709
 31
0.0
 11
171.6045367056525
 21
327.1711417698922
 31
0.0
 11
172.0637330027921
 21
327.1312507816534
 31
0.0
 11
172.5198388861547
 21
327.0645810700352
 31
0.0
 11
172.9598516436073
 21
326.9730703156139
 31
0.0
 11
173.393460024968
 21
326.8546596864871
 31
0.0
 11
173.801335858123
 21
326.71465198758
 31
0.0
 11
174.1990323501964
 21
326.5476636570845
 31
0.0
 11
174.5629761514564
 21
326.3635957253873
 31
0.0
 11
174.9122527336054
 21
326.1527392570703
 31
0.0
 11
175.221955052534
 21
325.9300993986666
 31
0.0
 11
175.5115653410595
 21
325.6815702201649
 31
0.0
 11
175.7583728871831
 21
325.4265677725878
 31
0.0
 11
175.9786834580196
 21
325.1480163605728
 31
0.0
 11
176.1555141714148
 21
324.8673066125205
 31
0.0
 11
176.2989678908834
 21
324.56785169031
 31
0.0
 11
176.4000240178129
 21
324.2686013449783
 31
0.0
 11
176.4619063670993
 21
323.9586752870215
 31
0.0
 11
176.4826692571907
 21
323.6491484522351
 31
0.0
 11
176.4619063670992
 21
323.3396216174488
 31
0.0
 11
176.4000240178129
 21
323.0296955594919
 31
0.0
 11
176.2989678908835
 21
322.7304452141602
 31
0.0
 11
176.155514171415
 21
322.4309902919497
 31
0.0
 11
175.9786834580198
 21
322.1502805438973
 31
0.0
 11
175.7583728871833
 21
321.8717291318824
 31
0.0
 11
175.5115653410597
 21
321.6167266843054
 31
0.0
 11
175.2219550525341
 21
321.3681975058035
 31
0.0
 11
174.9122527336054
 21
321.1455576473998
 31
0.0
 11
174.5629761514565
 21
320.9347011790827
 31
0.0
 11
174.1990323501966
 21
320.7506332473855
 31
0.0
 11
173.8013358581231
 21
320.5836449168902
 31
0.0
 11
173.3934600249681
 21
320.4436372179831
 31
0.0
 11
172.9598516436074
 21
320.3252265888564
 31
0.0
 11
172.5198388861547
 21
320.233715834435
 31
0.0
 11
172.0637330027921
 21
320.1670461228168
 31
0.0
 11
171.6045367056524
 21
320.1271551345781
 31
0.0
 11
171.1398669275503
 21
320.1137913450993
 31
0.0
 11
170.6751971494483
 21
320.127155134578
 31
0.0
 11
170.2160008523088
 21
320.1670461228168
 31
0.0
 11
169.7598949689462
 21
320.233715834435
 31
0.0
 11
169.3198822114937
 21
320.3252265888564
 31
0.0
 11
168.886273830133
 21
320.4436372179831
 31
0.0
 11
168.478397996978
 21
320.5836449168903
 31
0.0
 11
168.0807015049046
 21
320.7506332473856
 31
0.0
 11
167.7167577036447
 21
320.9347011790829
 31
0.0
 11
167.3674811214955
 21
321.1455576473999
 31
0.0
 11
167.0577788025667
 21
321.3681975058035
 31
0.0
 11
166.7681685140412
 21
321.6167266843053
 31
0.0
 11
166.5213609679177
 21
321.8717291318824
 31
0.0
 11
166.3010503970812
 21
322.1502805438973
 31
0.0
 11
166.124219683686
 21
322.4309902919496
 31
0.0
 11
165.9807659642175
 21
322.7304452141602
 31
0.0
 11
165.8797098372881
 21
323.0296955594919
 31
0.0
 11
165.8178274880017
 21
323.3396216174488
 31
0.0
 11
165.7970645979103
 21
323.6491484522351
 31
0.0
 11
165.8178274880017
 21
323.9586752870214
 31
0.0
  0
SPLINE
  5
1C3
330
48
100
AcDbEntity
  8
1
  6
Continuous
 62
     7
100
AcDbSpline
210
0.0
220
0.0
230
1.0
 70
    11
 71
     3
 72
    79
 73
    75
 74
    73
 42
0.0000000001
 43
0.0000000001
 44
0.00000001
 40
0.0
 40
0.0
 40
0.0
 40
0.0
 40
0.2811775426109933
 40
0.562340893199308
 40
0.8457466631368309
 40
1.129126830422968
 40
1.41590890303249
 40
1.702658539054721
 40
1.993527432940355
 40
2.284362055943444
 40
2.57951780056439
 40
2.874641782101901
 40
3.173769982296795
 40
3.472872122788226
 40
3.775199692337504
 40
4.077508957859747
 40
4.38190522513947
 40
4.686292091405472
 40
4.991400459519099
 40
5.296508827632726
 40
5.600895693898664
 40
5.905291961178444
 40
6.207601226700725
 40
6.50992879624999
 40
6.809030936741396
 40
7.108159136936221
 40
7.403283118473765
 40
7.698438863094834
 40
7.989273486097923
 40
8.280142379983492
 40
8.566892016005705
 40
8.853674088615332
 40
9.137054255901393
 40
9.420460025838862
 40
9.701623376427275
 40
9.982800919038155
 40
10.26319552186835
 40
10.54359012469855
 40
10.82476766730943
 40
11.10593101789784
 40
11.38933678783537
 40
11.67271695512153
 40
11.95949902773103
 40
12.24624866375331
 40
12.53711755763887
 40
12.827952180642
 40
13.12310792526295
 40
13.41823190680041
 40
13.71736010699534
 40
14.01646224748679
 40
14.31878981703599
 40
14.62109908255828
 40
14.92549534983806
 40
15.22988221610394
 40
15.53499058421746
 40
15.8400989523312
 40
16.14448581859725
 40
16.44888208587704
 40
16.7511913513993
 40
17.05351892094854
 40
17.35262106144002
 40
17.65174926163492
 40
17.94687324317243
 40
18.24202898779333
 40
18.53286361079634
 40
18.82373250468202
 40
19.11048214070427
 40
19.39726421331389
 40
19.68064438059998
 40
19.96405015053749
 40
20.24521350112578
 40
20.52639104373661
 40
20.80678564656686
 40
21.08718024939712
 40
21.08718024939712
 40
21.08718024939712
 40
21.08718024939712
 10
487.897313273927
 20
327.1004094662179
 30
0.0
 10
487.9904093490176
 20
327.0889583441281
 30
0.0
 10
488.1765968003112
 20
327.0660566779269
 30
0.0
 10
488.4508342536172
 20
326.9980193868778
 30
0.0
 10
488.7185609209241
 20
326.9063972579044
 30
0.0
 10
488.9781214090926
 20
326.7887862701196
 30
0.0
 10
489.2268557014596
 20
326.6475679469005
 30
0.0
 10
489.4636698062501
 20
326.4827459761557
 30
0.0
 10
489.6859281703169
 20
326.2966686789908
 30
0.0
 10
489.8927835574524
 20
326.0896438293798
 30
0.0
 10
490.0818973609656
 20
325.8644450316658
 30
0.0
 10
490.2525457451162
 20
325.6215801261362
 30
0.0
 10
490.4028630623662
 20
325.3641114951261
 30
0.0
 10
490.5321863977268
 20
325.0928335978546
 30
0.0
 10
490.6392193251651
 20
324.8108804439472
 30
0.0
 10
490.723366462827
 20
324.5194432905776
 30
0.0
 10
490.7839109715349
 20
324.2215053471199
 30
0.0
 10
490.8203981682741
 20
323.9187396823195
 30
0.0
 10
490.8326252246253
 20
323.6137913451003
 30
0.0
 10
490.8203981682744
 20
323.3088430078753
 30
0.0
 10
490.7839109715337
 20
323.006077343092
 30
0.0
 10
490.7233664628317
 20
322.7081393995725
 30
0.0
 10
490.639219325148
 20
322.4167022464317
 30
0.0
 10
490.532186397791
 20
322.1347490916743
 30
0.0
 10
490.4028630621301
 20
321.8634711975431
 30
0.0
 10
490.2525457459924
 20
321.606002554891
 30
0.0
 10
490.0818973577438
 20
321.3631376922543
 30
0.0
 10
489.892783569408
 20
321.1379387356772
 30
0.0
 10
489.6859281264201
 20
320.9309144706738
 30
0.0
 10
489.4636699691973
 20
320.7448350084896
 30
0.0
 10
489.2268551028644
 20
320.580021008736
 30
0.0
 10
488.9781236332224
 20
320.438773140322
 30
0.0
 10
488.7185527293362
 20
320.3212711728681
 30
0.0
 10
488.4508647380657
 20
320.2292442254982
 30
0.0
 10
488.1764840271827
 20
320.162706397878
 30
0.0
 10
487.8979930157192
 20
320.1228036142656
 30
0.0
 10
487.6172381793293
 20
320.1092914929362
 30
0.0
 10
487.3364833429394
 20
320.1228036142654
 30
0.0
 10
487.0579923314759
 20
320.162706397878
 30
0.0
 10
486.7836116205929
 20
320.2292442254982
 30
0.0
 10
486.5159236293224
 20
320.3212711728679
 30
0.0
 10
486.2563527254363
 20
320.4387731403223
 30
0.0
 10
486.007621255794
 20
320.5800210087359
 30
0.0
 10
485.7708063894612
 20
320.7448350084898
 30
0.0
 10
485.5485482322387
 20
320.9309144706738
 30
0.0
 10
485.3416927892505
 20
321.1379387356773
 30
0.0
 10
485.1525790009147
 20
321.3631376922541
 30
0.0
 10
484.9819306126661
 20
321.606002554891
 30
0.0
 10
484.8316132965285
 20
321.863471197543
 30
0.0
 10
484.7022899608679
 20
322.1347490916743
 30
0.0
 10
484.5952570335105
 20
322.4167022464318
 30
0.0
 10
484.511109895827
 20
322.7081393995725
 30
0.0
 10
484.4505653871249
 20
323.0060773430918
 30
0.0
 10
484.414078190384
 20
323.3088430078756
 30
0.0
 10
484.4018511340336
 20
323.6137913450993
 30
0.0
 10
484.414078190384
 20
323.9187396823227
 30
0.0
 10
484.450565387125
 20
324.2215053471078
 30
0.0
 10
484.5111098958266
 20
324.5194432906228
 30
0.0
 10
484.5952570335119
 20
324.8108804437798
 30
0.0
 10
484.7022899608634
 20
325.0928335984764
 30
0.0
 10
484.8316132965454
 20
325.3641114928327
 30
0.0
 10
484.9819306126034
 20
325.6215801346502
 30
0.0
 10
485.1525790011459
 20
325.8644450003625
 30
0.0
 10
485.3416927883933
 20
326.0896439455493
 30
0.0
 10
485.5485482353861
 20
326.2966682524667
 30
0.0
 10
485.7708063777785
 20
326.4827475594279
 30
0.0
 10
486.007621298711
 20
326.6475621306686
 30
0.0
 10
486.2563525659753
 20
326.7888078808149
 30
0.0
 10
486.5159242166254
 20
326.9063176645734
 30
0.0
 10
486.7836094349847
 20
326.9983155881471
 30
0.0
 10
487.0580004168405
 20
327.064960921062
 30
0.0
 10
487.3364531937282
 20
327.1044635070089
 30
0.0
 10
487.6173503509388
 20
327.1194652868263
 30
0.0
 10
487.8039922995976
 20
327.1067614064208
 30
0.0
 10
487.897313273927
 20
327.1004094662179
 30
0.0
 11
487.897313273927
 21
327.1004094662179
 31
0.0
 11
488.1756400276608
 21
327.060471656754
 31
0.0
 11
488.4489140622096
 21
326.9943344376149
 31
0.0
 11
488.7169187330388
 21
326.9021806159491
 31
0.0
 11
488.9751403710565
 21
326.7854505646744
 31
0.0
 11
489.2245270144069
 21
326.6438516265124
 31
0.0
 11
489.459973392263
 21
326.4801740259883
 31
0.0
 11
489.6830252410871
 21
326.2934855524116
 31
0.0
 11
489.8886932976825
 21
326.0878513421409
 31
0.0
 11
490.0785447024269
 21
325.8618571880145
 31
0.0
 11
490.2483176337984
 21
325.6204543788923
 31
0.0
 11
490.3991793162317
 21
325.3621552636689
 31
0.0
 11
490.5279791831633
 21
325.0922058522508
 31
0.0
 11
490.6353114151769
 21
324.8095722532564
 31
0.0
 11
490.7192394367393
 21
324.519146739196
 31
0.0
 11
490.7798740874349
 21
324.2208507005551
 31
0.0
 11
490.8163324383511
 21
323.918655146313
 31
0.0
 11
490.8285463239956
 21
323.6137913450993
 31
0.0
 11
490.8163324383511
 21
323.3089275438857
 31
0.0
 11
490.779874087435
 21
323.0067319896436
 31
0.0
 11
490.7192394367394
 21
322.7084359510027
 31
0.0
 11
490.6353114151771
 21
322.4180104369423
 31
0.0
 11
490.5279791831633
 21
322.1353768379479
 31
0.0
 11
490.3991793162318
 21
321.8654274265298
 31
0.0
 11
490.2483176337984
 21
321.6071283113065
 31
0.0
 11
490.0785447024269
 21
321.3657255021843
 31
0.0
 11
489.8886932976824
 21
321.1397313480578
 31
0.0
 11
489.6830252410872
 21
320.9340971377869
 31
0.0
 11
489.459973392263
 21
320.7474086642104
 31
0.0
 11
489.2245270144069
 21
320.5837310636864
 31
0.0
 11
488.9751403710563
 21
320.4421321255243
 31
0.0
 11
488.7169187330388
 21
320.3254020742496
 31
0.0
 11
488.4489140622096
 21
320.2332482525839
 31
0.0
 11
488.1756400276607
 21
320.1671110334448
 31
0.0
 11
487.897313273927
 21
320.1271732239809
 31
0.0
 11
487.6172381793293
 21
320.1137913450994
 31
0.0
 11
487.3371630847316
 21
320.1271732239808
 31
0.0
 11
487.058836330998
 21
320.1671110334447
 31
0.0
 11
486.785562296449
 21
320.2332482525838
 31
0.0
 11
486.5175576256198
 21
320.3254020742496
 31
0.0
 11
486.2593359876022
 21
320.4421321255244
 31
0.0
 11
486.0099493442518
 21
320.5837310636864
 31
0.0
 11
485.7745029663956
 21
320.7474086642105
 31
0.0
 11
485.5514511175715
 21
320.934097137787
 31
0.0
 11
485.3457830609762
 21
321.1397313480578
 31
0.0
 11
485.1559316562317
 21
321.3657255021842
 31
0.0
 11
484.9861587248603
 21
321.6071283113064
 31
0.0
 11
484.8352970424269
 21
321.8654274265298
 31
0.0
 11
484.7064971754953
 21
322.1353768379479
 31
0.0
 11
484.5991649434816
 21
322.4180104369423
 31
0.0
 11
484.5152369219193
 21
322.7084359510027
 31
0.0
 11
484.4546022712237
 21
323.0067319896436
 31
0.0
 11
484.4181439203076
 21
323.3089275438857
 31
0.0
 11
484.405930034663
 21
323.6137913450992
 31
0.0
 11
484.4181439203076
 21
323.9186551463129
 31
0.0
 11
484.4546022712236
 21
324.2208507005551
 31
0.0
 11
484.5152369219193
 21
324.5191467391961
 31
0.0
 11
484.5991649434817
 21
324.8095722532564
 31
0.0
 11
484.7064971754954
 21
325.0922058522508
 31
0.0
 11
484.835297042427
 21
325.3621552636689
 31
0.0
 11
484.9861587248603
 21
325.6204543788924
 31
0.0
 11
485.1559316562318
 21
325.8618571880146
 31
0.0
 11
485.3457830609762
 21
326.0878513421409
 31
0.0
 11
485.5514511175714
 21
326.2934855524117
 31
0.0
 11
485.7745029663956
 21
326.4801740259883
 31
0.0
 11
486.0099493442518
 21
326.6438516265123
 31
0.0
 11
486.2593359876023
 21
326.7854505646744
 31
0.0
 11
486.5175576256199
 21
326.9021806159491
 31
0.0
 11
486.7855622964491
 21
326.994334437615
 31
0.0
 11
487.0588363309979
 21
327.060471656754
 31
0.0
 11
487.3371630847315
 21
327.1004094662179
 31
0.0
 11
487.6172381793293
 21
327.1137913450993
 31
0.0
 11
487.897313273927
 21
327.1004094662179
 31
0.0
  0
SPLINE
  5
1C4
330
48
100
AcDbEntity
  8
1
  6
Continuous
 62
     7
100
AcDbSpline
210
0.0
220
0.0
230
1.0
 70
    11
 71
     3
 72
    79
 73
    75
 74
    73
 42
0.0000000001
 43
0.0000000001
 44
0.00000001
 40
0.0
 40
0.0
 40
0.0
 40
0.0
 40
0.3064252399305306
 40
0.6126997295783602
 40
0.93271638070287
 40
1.252505950546045
 40
1.592278744069401
 40
1.931827979827518
 40
2.294403622083976
 40
2.656798547726792
 40
3.042205862991201
 40
3.42748165244529
 40
3.833206192908566
 40
4.238841967633245
 40
4.660421102442442
 40
5.081946086409682
 40
5.513562423792729
 40
5.945153204326159
 40
6.380194333749652
 40
6.815235463173147
 40
7.246826243706572
 40
7.678442581089563
 40
8.099967565056748
 40
8.521546699866054
 40
8.927182474590875
 40
9.332907015054019
 40
9.718182804508107
 40
10.10359011977255
 40
10.46598504541533
 40
10.82856068767179
 40
11.16810992342998
 40
11.50788271695326
 40
11.82767228679641
 40
12.14768893792089
 40
12.45396342756879
 40
12.76038866749931
 40
13.06189449721444
 40
13.36340032692958
 40
13.66982556686017
 40
13.976100056508
 40
14.29611670763256
 40
14.61590627747565
 40
14.95567907099898
 40
15.29522830675713
 40
15.65780394901362
 40
16.02019887465635
 40
16.40560618992069
 40
16.79088197937488
 40
17.19660651983822
 40
17.6022422945629
 40
18.02382142937211
 40
18.44534641333939
 40
18.87696275072242
 40
19.30855353125579
 40
19.74359466067928
 40
20.17863579010288
 40
20.61022657063625
 40
21.04184290801928
 40
21.46336789198646
 40
21.88494702679565
 40
22.29058280152046
 40
22.69630734198363
 40
23.08158313143785
 40
23.46699044670222
 40
23.82938537234501
 40
24.1919610146015
 40
24.5315102503597
 40
24.87128304388305
 40
25.19107261372611
 40
25.51108926485066
 40
25.81736375449842
 40
26.12378899442904
 40
26.42529482414424
 40
26.72680065385936
 40
26.72680065385936
 40
26.72680065385936
 40
26.72680065385936
 10
503.8554110142566
 20
323.9760655952663
 30
0.0
 10
503.8388079306871
 20
324.0769917602427
 30
0.0
 10
503.8056099316727
 20
324.2787944381241
 30
0.0
 10
503.706591888973
 20
324.5747457104554
 30
0.0
 10
503.5747581882471
 20
324.8618155231887
 30
0.0
 10
503.4045269776108
 20
325.1412805414539
 30
0.0
 10
503.2022584499518
 20
325.4065837500343
 30
0.0
 10
502.964856746186
 20
325.6607861214012
 30
0.0
 10
502.6994017481145
 20
325.8969918477627
 30
0.0
 10
502.4023357465148
 20
326.1184706074127
 30
0.0
 10
502.081848252274
 20
326.3190848177785
 30
0.0
 10
501.7343093376956
 20
326.5014539409602
 30
0.0
 10
501.3682793875984
 20
326.6608255491532
 30
0.0
 10
500.9808511573605
 20
326.7988489800426
 30
0.0
 10
500.5800649445861
 20
326.912341143073
 30
0.0
 10
500.1644627783834
 20
327.0020761583602
 30
0.0
 10
499.7407833981778
 20
327.0662784497589
 30
0.0
 10
499.3095274758343
 20
327.1052046874665
 30
0.0
 10
498.8755684285289
 20
327.1181017670807
 30
0.0
 10
498.4416093812114
 20
327.1052046874673
 30
0.0
 10
498.0103534589038
 20
327.0662784497554
 30
0.0
 10
497.5866740785677
 20
327.0020761583734
 30
0.0
 10
497.1710719128409
 20
326.9123411430248
 30
0.0
 10
496.7702856983224
 20
326.7988489802194
 30
0.0
 10
496.382857474357
 20
326.6608255485215
 30
0.0
 10
496.0168275014264
 20
326.5014539432718
 30
0.0
 10
495.6692886679736
 20
326.3190848096321
 30
0.0
 10
495.3488008801597
 20
326.1184706371112
 30
0.0
 10
495.0517359120364
 20
325.8969917442338
 30
0.0
 10
494.7862771864434
 20
325.6607864983948
 30
0.0
 10
494.5488885566069
 20
325.4065824416401
 30
0.0
 10
494.3465728337233
 20
325.1412853170959
 30
0.0
 10
494.1765079605178
 20
324.8617988559216
 30
0.0
 10
494.0440698601377
 20
324.5748069576226
 30
0.0
 10
493.9472160549938
 20
324.2785766888619
 30
0.0
 10
493.8897185730373
 20
323.9784946547169
 30
0.0
 10
493.8697144099369
 20
323.6751832223206
 30
0.0
 10
493.8897185730372
 20
323.3718717899245
 30
0.0
 10
493.947216054994
 20
323.0717897557795
 30
0.0
 10
494.0440698601378
 20
322.7755594870187
 30
0.0
 10
494.1765079605176
 20
322.4885675887198
 30
0.0
 10
494.3465728337231
 20
322.2090811275454
 30
0.0
 10
494.5488885566068
 20
321.9437840030012
 30
0.0
 10
494.7862771864436
 20
321.6895799462465
 30
0.0
 10
495.0517359120362
 20
321.4533747004074
 30
0.0
 10
495.3488008801597
 20
321.2318958075301
 30
0.0
 10
495.6692886679735
 20
321.0312816350092
 30
0.0
 10
496.0168275014262
 20
320.8489125013695
 30
0.0
 10
496.3828574743571
 20
320.6895408961196
 30
0.0
 10
496.7702856983223
 20
320.5515174644218
 30
0.0
 10
497.1710719128406
 20
320.4380253016161
 30
0.0
 10
497.5866740785677
 20
320.3482902862679
 30
0.0
 10
498.0103534589036
 20
320.2840879948857
 30
0.0
 10
498.4416093812118
 20
320.2451617571741
 30
0.0
 10
498.875568428527
 20
320.2322646775608
 30
0.0
 10
499.3095274758413
 20
320.245161757174
 30
0.0
 10
499.7407833981521
 20
320.2840879948861
 30
0.0
 10
500.1644627784785
 20
320.3482902862667
 30
0.0
 10
500.5800649442396
 20
320.4380253016198
 30
0.0
 10
500.9808511586338
 20
320.5515174644092
 30
0.0
 10
501.3682793830455
 20
320.6895408961647
 30
0.0
 10
501.7343093543505
 20
320.8489125012048
 30
0.0
 10
502.0818481935802
 20
321.0312816355892
 30
0.0
 10
502.4023359604881
 20
321.2318958054152
 30
0.0
 10
502.6994010022073
 20
321.4533747077799
 30
0.0
 10
502.9648594623563
 20
321.6895799194
 30
0.0
 10
503.2022490232124
 20
321.9437840961743
 30
0.0
 10
503.4045613852348
 20
322.2090807874629
 30
0.0
 10
503.5746381036432
 20
322.4885687756276
 30
0.0
 10
503.7070331635806
 20
322.7755551254919
 30
0.0
 10
503.8040410881747
 20
323.0718052621163
 30
0.0
 10
503.8609715135062
 20
323.3718141957951
 30
0.0
 10
503.8830601903408
 20
323.6753943472552
 30
0.0
 10
503.8646274062847
 20
323.8758418459292
 30
0.0
 10
503.8554110142567
 20
323.9760655952663
 30
0.0
 11
503.8554110142566
 21
323.9760655952663
 31
0.0
 11
503.7976361510051
 21
324.2769949770866
 31
0.0
 11
503.7030802270708
 21
324.5683079363898
 31
0.0
 11
503.569215060424
 21
324.8589809040967
 31
0.0
 11
503.403554614231
 21
325.132516981329
 31
0.0
 11
503.1978955140832
 21
325.4029793368335
 31
0.0
 11
502.9665712024678
 21
325.6515406901441
 31
0.0
 11
502.6960618637731
 21
325.8929652001605
 31
0.0
 11
502.405803475088
 21
326.1099448073349
 31
0.0
 11
502.0793869869564
 21
326.3148620465686
 31
0.0
 11
501.7383877599946
 21
326.494185667854
 31
0.0
 11
501.3665583675684
 21
326.6565288403686
 31
0.0
 11
500.9845241614779
 21
326.7928748968328
 31
0.0
 11
500.5789763795967
 21
326.9080268117874
 31
0.0
 11
500.1669726484826
 21
326.9971123754697
 31
0.0
 11
499.7402564519874
 21
327.0619656741112
 31
0.0
 11
499.3104151280992
 21
327.1007862629714
 31
0.0
 11
498.8755684285269
 21
327.1137913450994
 31
0.0
 11
498.4407217289546
 21
327.1007862629714
 31
0.0
 11
498.0108804050664
 21
327.0619656741112
 31
0.0
 11
497.5841642085713
 21
326.9971123754697
 31
0.0
 11
497.1721604774572
 21
326.9080268117874
 31
0.0
 11
496.7666126955759
 21
326.7928748968328
 31
0.0
 11
496.3845784894853
 21
326.6565288403687
 31
0.0
 11
496.0127490970592
 21
326.494185667854
 31
0.0
 11
495.6717498700974
 21
326.3148620465686
 31
0.0
 11
495.3453333819658
 21
326.1099448073348
 31
0.0
 11
495.0550749932806
 21
325.8929652001605
 31
0.0
 11
494.784565654586
 21
325.6515406901441
 31
0.0
 11
494.5532413429705
 21
325.4029793368335
 31
0.0
 11
494.3475822428228
 21
325.132516981329
 31
0.0
 11
494.1819217966299
 21
324.8589809040967
 31
0.0
 11
494.048056629983
 21
324.5683079363898
 31
0.0
 11
493.9535007060487
 21
324.2769949770866
 31
0.0
 11
493.8957258427972
 21
323.9760655952663
 31
0.0
 11
493.8763463948471
 21
323.6751832223207
 31
0.0
 11
493.8957258427972
 21
323.3743008493751
 31
0.0
 11
493.9535007060487
 21
323.0733714675548
 31
0.0
 11
494.048056629983
 21
322.7820585082516
 31
0.0
 11
494.1819217966298
 21
322.4913855405446
 31
0.0
 11
494.3475822428227
 21
322.2178494633124
 31
0.0
 11
494.5532413429705
 21
321.9473871078078
 31
0.0
 11
494.784565654586
 21
321.6988257544973
 31
0.0
 11
495.0550749932806
 21
321.4574012444808
 31
0.0
 11
495.3453333819657
 21
321.2404216373064
 31
0.0
 11
495.6717498700972
 21
321.0355043980727
 31
0.0
 11
496.0127490970591
 21
320.8561807767873
 31
0.0
 11
496.3845784894853
 21
320.6938376042725
 31
0.0
 11
496.7666126955758
 21
320.5574915478084
 31
0.0
 11
497.1721604774569
 21
320.4423396328537
 31
0.0
 11
497.5841642085712
 21
320.3532540691715
 31
0.0
 11
498.0108804050663
 21
320.2884007705301
 31
0.0
 11
498.4407217289545
 21
320.2495801816699
 31
0.0
 11
498.8755684285268
 21
320.2365750995419
 31
0.0
 11
499.3104151280992
 21
320.2495801816699
 31
0.0
 11
499.7402564519874
 21
320.2884007705301
 31
0.0
 11
500.1669726484825
 21
320.3532540691715
 31
0.0
 11
500.5789763795966
 21
320.4423396328537
 31
0.0
 11
500.9845241614778
 21
320.5574915478084
 31
0.0
 11
501.3665583675684
 21
320.6938376042726
 31
0.0
 11
501.7383877599945
 21
320.8561807767871
 31
0.0
 11
502.0793869869564
 21
321.0355043980727
 31
0.0
 11
502.4058034750879
 21
321.2404216373064
 31
0.0
 11
502.696061863773
 21
321.4574012444808
 31
0.0
 11
502.9665712024677
 21
321.6988257544973
 31
0.0
 11
503.1978955140832
 21
321.9473871078078
 31
0.0
 11
503.403554614231
 21
322.2178494633124
 31
0.0
 11
503.5692150604237
 21
322.4913855405446
 31
0.0
 11
503.7030802270707
 21
322.7820585082516
 31
0.0
 11
503.7976361510049
 21
323.0733714675547
 31
0.0
 11
503.8554110142566
 21
323.3743008493751
 31
0.0
 11
503.8747904622067
 21
323.6751832223207
 31
0.0
 11
503.8554110142567
 21
323.9760655952663
 31
0.0
  0
SPLINE
  5
1C5
330
48
100
AcDbEntity
  8
1
  6
Continuous
 62
     7
100
AcDbSpline
210
0.0
220
0.0
230
1.0
 70
    11
 71
     3
 72
    79
 73
    75
 74
    73
 42
0.0000000001
 43
0.0000000001
 44
0.00000001
 40
0.0
 40
0.0
 40
0.0
 40
0.0
 40
0.2811775426107682
 40
0.5623408931991935
 40
0.8457466631367163
 40
1.129126830422957
 40
1.415908903032429
 40
1.702658539054801
 40
1.993527432940478
 40
2.284362055943446
 40
2.579517800564355
 40
2.874641782101899
 40
3.173769982296822
 40
3.472872122788204
 40
3.775199692337502
 40
4.077508957859729
 40
4.381905225139476
 40
4.686292091405456
 40
4.991400459519088
 40
5.29650882763272
 40
5.600895693898665
 40
5.905291961178433
 40
6.207601226700731
 40
6.509928796249935
 40
6.809030936741365
 40
7.108159136936219
 40
7.40328311847373
 40
7.69843886309469
 40
7.989273486097779
 40
8.280142379983435
 40
8.566892016005742
 40
8.85367408861527
 40
9.137054255901383
 40
9.420460025838851
 40
9.701623376427207
 40
9.982800919038088
 40
10.2631955218684
 40
10.5435901246986
 40
10.82476766730953
 40
11.10593101789789
 40
11.38933678783536
 40
11.67271695512146
 40
11.95949902773101
 40
12.24624866375329
 40
12.5371175576389
 40
12.82795218064187
 40
13.12310792526289
 40
13.41823190680036
 40
13.71736010699522
 40
14.01646224748673
 40
14.31878981703594
 40
14.62109908255825
 40
14.92549534983802
 40
15.22988221610388
 40
15.5349905842174
 40
15.84009895233114
 40
16.14448581859718
 40
16.44888208587695
 40
16.75119135139918
 40
17.05351892094844
 40
17.3526210614399
 40
17.65174926163482
 40
17.94687324317233
 40
18.24202898779324
 40
18.53286361079625
 40
18.82373250468193
 40
19.11048214070418
 40
19.39726421331375
 40
19.68064438059984
 40
19.96405015053735
 40
20.24521350112564
 40
20.52639104373658
 40
20.80678564656689
 40
21.08718024939709
 40
21.08718024939709
 40
21.08718024939709
 40
21.08718024939709
 10
509.8538235831269
 20
327.1004094662179
 30
0.0
 10
509.7607275080363
 20
327.088958344128
 30
0.0
 10
509.5745400567427
 20
327.0660566779267
 30
0.0
 10
509.3003026034369
 20
326.9980193868781
 30
0.0
 10
509.0325759361295
 20
326.9063972579042
 30
0.0
 10
508.7730154479615
 20
326.7887862701197
 30
0.0
 10
508.5242811555942
 20
326.6475679469004
 30
0.0
 10
508.2874670508036
 20
326.4827459761559
 30
0.0
 10
508.0652086867369
 20
326.2966686789908
 30
0.0
 10
507.8583532996017
 20
326.0896438293798
 30
0.0
 10
507.6692394960884
 20
325.8644450316656
 30
0.0
 10
507.4985911119376
 20
325.6215801261363
 30
0.0
 10
507.3482737946877
 20
325.3641114951259
 30
0.0
 10
507.2189504593271
 20
325.0928335978546
 30
0.0
 10
507.1119175318886
 20
324.8108804439471
 30
0.0
 10
507.027770394227
 20
324.5194432905776
 30
0.0
 10
506.9672258855189
 20
324.2215053471199
 30
0.0
 10
506.93073868878
 20
323.9187396823196
 30
0.0
 10
506.9185116324286
 20
323.6137913451004
 30
0.0
 10
506.9307386887794
 20
323.3088430078753
 30
0.0
 10
506.9672258855205
 20
323.0060773430921
 30
0.0
 10
507.0277703942221
 20
322.7081393995724
 30
0.0
 10
507.111917531906
 20
322.4167022464318
 30
0.0
 10
507.2189504592631
 20
322.1347490916742
 30
0.0
 10
507.3482737949237
 20
321.8634711975429
 30
0.0
 10
507.4985911110617
 20
321.6060025548912
 30
0.0
 10
507.6692394993103
 20
321.3631376922542
 30
0.0
 10
507.8583532876459
 20
321.1379387356773
 30
0.0
 10
508.0652087306338
 20
320.9309144706738
 30
0.0
 10
508.2874668878565
 20
320.7448350084896
 30
0.0
 10
508.5242817541896
 20
320.5800210087361
 30
0.0
 10
508.7730132238312
 20
320.4387731403219
 30
0.0
 10
509.0325841277181
 20
320.3212711728681
 30
0.0
 10
509.3002721189881
 20
320.2292442254982
 30
0.0
 10
509.5746528298714
 20
320.1627063978781
 30
0.0
 10
509.8531438413346
 20
320.1228036142655
 30
0.0
 10
510.1338986777247
 20
320.1092914929363
 30
0.0
 10
510.4146535141147
 20
320.1228036142655
 30
0.0
 10
510.693144525578
 20
320.162706397878
 30
0.0
 10
510.9675252364613
 20
320.2292442254982
 30
0.0
 10
511.2352132277315
 20
320.3212711728679
 30
0.0
 10
511.4947841316179
 20
320.4387731403223
 30
0.0
 10
511.7435156012599
 20
320.5800210087359
 30
0.0
 10
511.9803304675926
 20
320.7448350084898
 30
0.0
 10
512.2025886248155
 20
320.9309144706738
 30
0.0
 10
512.4094440678033
 20
321.1379387356774
 30
0.0
 10
512.5985578561391
 20
321.3631376922541
 30
0.0
 10
512.7692062443878
 20
321.6060025548909
 30
0.0
 10
512.9195235605253
 20
321.8634711975431
 30
0.0
 10
513.0488468961861
 20
322.1347490916743
 30
0.0
 10
513.1558798235433
 20
322.4167022464317
 30
0.0
 10
513.2400269612273
 20
322.7081393995726
 30
0.0
 10
513.300571469929
 20
323.0060773430919
 30
0.0
 10
513.3370586666697
 20
323.3088430078756
 30
0.0
 10
513.3492857230203
 20
323.6137913450993
 30
0.0
 10
513.3370586666696
 20
323.9187396823227
 30
0.0
 10
513.300571469929
 20
324.2215053471078
 30
0.0
 10
513.2400269612274
 20
324.5194432906228
 30
0.0
 10
513.155879823542
 20
324.8108804437799
 30
0.0
 10
513.0488468961909
 20
325.0928335984766
 30
0.0
 10
512.9195235605082
 20
325.3641114928327
 30
0.0
 10
512.7692062444507
 20
325.6215801346503
 30
0.0
 10
512.5985578559081
 20
325.8644450003623
 30
0.0
 10
512.4094440686607
 20
326.0896439455494
 30
0.0
 10
512.2025886216682
 20
326.2966682524667
 30
0.0
 10
511.9803304792754
 20
326.482747559428
 30
0.0
 10
511.7435155583429
 20
326.6475621306685
 30
0.0
 10
511.4947842910787
 20
326.7888078808149
 30
0.0
 10
511.2352126404285
 20
326.9063176645734
 30
0.0
 10
510.9675274220694
 20
326.9983155881472
 30
0.0
 10
510.6931364402135
 20
327.064960921062
 30
0.0
 10
510.4146836633256
 20
327.1044635070088
 30
0.0
 10
510.1337865061152
 20
327.1194652868263
 30
0.0
 10
509.9471445574563
 20
327.1067614064207
 30
0.0
 10
509.8538235831269
 20
327.1004094662179
 30
0.0
 11
509.8538235831269
 21
327.1004094662179
 31
0.0
 11
509.5754968293933
 21
327.060471656754
 31
0.0
 11
509.3022227948444
 21
326.9943344376149
 31
0.0
 11
509.0342181240152
 21
326.9021806159491
 31
0.0
 11
508.7759964859974
 21
326.7854505646744
 31
0.0
 11
508.526609842647
 21
326.6438516265124
 31
0.0
 11
508.2911634647908
 21
326.4801740259883
 31
0.0
 11
508.0681116159666
 21
326.2934855524116
 31
0.0
 11
507.8624435593714
 21
326.0878513421409
 31
0.0
 11
507.672592154627
 21
325.8618571880145
 31
0.0
 11
507.5028192232555
 21
325.6204543788923
 31
0.0
 11
507.3519575408221
 21
325.3621552636689
 31
0.0
 11
507.2231576738906
 21
325.0922058522508
 31
0.0
 11
507.115825441877
 21
324.8095722532564
 31
0.0
 11
507.0318974203146
 21
324.519146739196
 31
0.0
 11
506.9712627696189
 21
324.2208507005551
 31
0.0
 11
506.9348044187029
 21
323.918655146313
 31
0.0
 11
506.9225905330583
 21
323.6137913450993
 31
0.0
 11
506.9348044187029
 21
323.3089275438857
 31
0.0
 11
506.9712627696191
 21
323.0067319896436
 31
0.0
 11
507.0318974203146
 21
322.7084359510027
 31
0.0
 11
507.115825441877
 21
322.4180104369423
 31
0.0
 11
507.2231576738906
 21
322.1353768379479
 31
0.0
 11
507.3519575408222
 21
321.8654274265298
 31
0.0
 11
507.5028192232556
 21
321.6071283113065
 31
0.0
 11
507.6725921546271
 21
321.3657255021843
 31
0.0
 11
507.8624435593714
 21
321.1397313480578
 31
0.0
 11
508.0681116159666
 21
320.9340971377869
 31
0.0
 11
508.2911634647909
 21
320.7474086642104
 31
0.0
 11
508.5266098426471
 21
320.5837310636864
 31
0.0
 11
508.7759964859976
 21
320.4421321255243
 31
0.0
 11
509.0342181240152
 21
320.3254020742496
 31
0.0
 11
509.3022227948443
 21
320.2332482525839
 31
0.0
 11
509.5754968293932
 21
320.1671110334448
 31
0.0
 11
509.8538235831269
 21
320.1271732239809
 31
0.0
 11
510.1338986777247
 21
320.1137913450994
 31
0.0
 11
510.4139737723224
 21
320.1271732239808
 31
0.0
 11
510.6923005260561
 21
320.1671110334447
 31
0.0
 11
510.965574560605
 21
320.2332482525838
 31
0.0
 11
511.2335792314341
 21
320.3254020742496
 31
0.0
 11
511.4918008694517
 21
320.4421321255244
 31
0.0
 11
511.7411875128022
 21
320.5837310636864
 31
0.0
 11
511.9766338906583
 21
320.7474086642105
 31
0.0
 11
512.1996857394826
 21
320.934097137787
 31
0.0
 11
512.4053537960776
 21
321.1397313480578
 31
0.0
 11
512.5952052008222
 21
321.3657255021842
 31
0.0
 11
512.7649781321936
 21
321.6071283113064
 31
0.0
 11
512.9158398146269
 21
321.8654274265298
 31
0.0
 11
513.0446396815586
 21
322.1353768379479
 31
0.0
 11
513.1519719135723
 21
322.4180104369423
 31
0.0
 11
513.2358999351347
 21
322.7084359510027
 31
0.0
 11
513.2965345858303
 21
323.0067319896436
 31
0.0
 11
513.3329929367462
 21
323.3089275438857
 31
0.0
 11
513.3452068223908
 21
323.6137913450992
 31
0.0
 11
513.3329929367462
 21
323.9186551463129
 31
0.0
 11
513.2965345858302
 21
324.2208507005551
 31
0.0
 11
513.2358999351346
 21
324.5191467391961
 31
0.0
 11
513.1519719135723
 21
324.8095722532564
 31
0.0
 11
513.0446396815586
 21
325.0922058522508
 31
0.0
 11
512.915839814627
 21
325.3621552636689
 31
0.0
 11
512.7649781321936
 21
325.6204543788924
 31
0.0
 11
512.5952052008222
 21
325.8618571880146
 31
0.0
 11
512.4053537960778
 21
326.0878513421409
 31
0.0
 11
512.1996857394826
 21
326.2934855524117
 31
0.0
 11
511.9766338906583
 21
326.4801740259883
 31
0.0
 11
511.7411875128022
 21
326.6438516265123
 31
0.0
 11
511.4918008694517
 21
326.7854505646744
 31
0.0
 11
511.2335792314341
 21
326.9021806159491
 31
0.0
 11
510.9655745606049
 21
326.994334437615
 31
0.0
 11
510.6923005260561
 21
327.060471656754
 31
0.0
 11
510.4139737723224
 21
327.1004094662179
 31
0.0
 11
510.1338986777246
 21
327.1137913450993
 31
0.0
 11
509.8538235831269
 21
327.1004094662179
 31
0.0
  0
ENDBLK
  5
4A
330
48
100
AcDbEntity
  8
0
100
AcDbBlockEnd
  0
BLOCK
  5
4C
330
4B
100
AcDbEntity
  8
0
100
AcDbBlockBegin
  2
42-1
 70
     0
 71
     0
 10
410.7713083419234
 20
142.3241423355146
 30
0.0
  3
42-1
  1

  0
LINE
  5
1C6
330
4B
100
AcDbEntity
  8
1
  6
Continuous
 62
     2
100
AcDbLine
 10
165.8592134632321
 20
349.0908903566602
 30
0.0
 11
165.8592134632321
 21
350.3561294472706
 31
0.0
  0
LINE
  5
1C7
330
4B
100
AcDbEntity
  8
1
  6
Continuous
 62
     2
100
AcDbLine
 10
166.8592134632321
 20
348.8313541329452
 30
0.0
 11
166.8592134632321
 21
350.5994446570034
 31
0.0
  0
LINE
  5
1C8
330
4B
100
AcDbEntity
  8
1
  6
Continuous
 62
     2
100
AcDbLine
 10
167.8592134632321
 20
348.4744918253372
 30
0.0
 11
167.8592134632321
 21
350.8103178387718
 31
0.0
  0
LINE
  5
1C9
330
4B
100
AcDbEntity
  8
1
  6
Continuous
 62
     2
100
AcDbLine
 10
168.8592134632321
 20
348.279839657551
 30
0.0
 11
168.8592134632321
 21
350.9238649366471
 31
0.0
  0
LINE
  5
1CA
330
4B
100
AcDbEntity
  8
1
  6
Continuous
 62
     2
100
AcDbLine
 10
169.8592134632321
 20
348.1137913450993
 30
0.0
 11
169.8592134632321
 21
351.1137913450993
 31
0.0
  0
LINE
  5
1CB
330
4B
100
AcDbEntity
  8
1
  6
Continuous
 62
     2
100
AcDbLine
 10
170.8592134632322
 20
348.1137913450993
 30
0.0
 11
170.8592134632322
 21
351.1137913450993
 31
0.0
  0
LINE
  5
1CC
330
4B
100
AcDbEntity
  8
1
  6
Continuous
 62
     7
100
AcDbLine
 10
170.8592134632322
 20
351.3831135441226
 30
0.0
 11
171.8592134632322
 21
351.1137913450993
 31
0.0
  0
LINE
  5
1CD
330
4B
100
AcDbEntity
  8
1
  6
Continuous
 62
     7
100
AcDbLine
 10
171.8592134632322
 20
351.1137913450993
 30
0.0
 11
171.8592134632322
 21
348.1137913450993
 31
0.0
  0
LINE
  5
1CE
330
4B
100
AcDbEntity
  8
1
  6
Continuous
 62
     7
100
AcDbLine
 10
157.8592134632322
 20
348.1137913450993
 30
0.0
 11
157.8592134632322
 21
351.1137913450993
 31
0.0
  0
LINE
  5
1CF
330
4B
100
AcDbEntity
  8
1
  6
Continuous
 62
     7
100
AcDbLine
 10
157.8592134632322
 20
351.1137913450993
 30
0.0
 11
158.8592134632321
 21
351.3831135441226
 31
0.0
  0
LINE
  5
1D0
330
4B
100
AcDbEntity
  8
1
  6
Continuous
 62
     2
100
AcDbLine
 10
158.8592134632322
 20
351.1137913450993
 30
0.0
 11
158.8592134632322
 21
348.1137913450993
 31
0.0
  0
LINE
  5
1D1
330
4B
100
AcDbEntity
  8
1
  6
Continuous
 62
     7
100
AcDbLine
 10
157.8592134632322
 20
348.1137913450993
 30
0.0
 11
171.8592134632322
 21
348.1137913450993
 31
0.0
  0
LINE
  5
1D2
330
4B
100
AcDbEntity
  8
1
  6
Continuous
 62
     2
100
AcDbLine
 10
159.8592134632322
 20
351.1137913450993
 30
0.0
 11
159.8592134632322
 21
348.1137913450993
 31
0.0
  0
LINE
  5
1D3
330
4B
100
AcDbEntity
  8
1
  6
Continuous
 62
     2
100
AcDbLine
 10
160.8592134632322
 20
350.9238649366471
 30
0.0
 11
160.8592134632322
 21
348.279839657551
 31
0.0
  0
LINE
  5
1D4
330
4B
100
AcDbEntity
  8
1
  6
Continuous
 62
     2
100
AcDbLine
 10
161.8592134632322
 20
350.8103178387718
 30
0.0
 11
161.8592134632322
 21
348.4744918253372
 31
0.0
  0
LINE
  5
1D5
330
4B
100
AcDbEntity
  8
1
  6
Continuous
 62
     2
100
AcDbLine
 10
162.8592134632322
 20
350.5994446570034
 30
0.0
 11
162.8592134632322
 21
348.8313541329452
 31
0.0
  0
LINE
  5
1D6
330
4B
100
AcDbEntity
  8
1
  6
Continuous
 62
     2
100
AcDbLine
 10
163.8592134632322
 20
350.3561294472706
 30
0.0
 11
163.8592134632322
 21
349.0908903566602
 31
0.0
  0
LINE
  5
1D7
330
4B
100
AcDbEntity
  8
1
  6
Continuous
 62
     7
100
AcDbLine
 10
159.1092134632322
 20
351.4435570653031
 30
0.0
 11
170.6092134632321
 21
351.4435570653031
 31
0.0
  0
LINE
  5
1D8
330
4B
100
AcDbEntity
  8
1
  6
Continuous
 62
     7
100
AcDbLine
 10
157.8592134632322
 20
351.1137913450993
 30
0.0
 11
171.8592134632322
 21
351.1137913450993
 31
0.0
  0
LINE
  5
1D9
330
4B
100
AcDbEntity
  8
1
  6
Continuous
 62
     2
100
AcDbLine
 10
499.8755684285268
 20
349.0908903566602
 30
0.0
 11
499.8755684285268
 21
350.3561294472706
 31
0.0
  0
LINE
  5
1DA
330
4B
100
AcDbEntity
  8
1
  6
Continuous
 62
     2
100
AcDbLine
 10
500.8755684285268
 20
348.8313541329452
 30
0.0
 11
500.8755684285268
 21
350.5994446570034
 31
0.0
  0
LINE
  5
1DB
330
4B
100
AcDbEntity
  8
1
  6
Continuous
 62
     2
100
AcDbLine
 10
501.8755684285268
 20
348.4744918253372
 30
0.0
 11
501.8755684285268
 21
350.8103178387718
 31
0.0
  0
LINE
  5
1DC
330
4B
100
AcDbEntity
  8
1
  6
Continuous
 62
     2
100
AcDbLine
 10
502.8755684285268
 20
348.279839657551
 30
0.0
 11
502.8755684285268
 21
350.9238649366471
 31
0.0
  0
LINE
  5
1DD
330
4B
100
AcDbEntity
  8
1
  6
Continuous
 62
     2
100
AcDbLine
 10
503.8755684285268
 20
348.1137913450993
 30
0.0
 11
503.8755684285268
 21
351.1137913450993
 31
0.0
  0
LINE
  5
1DE
330
4B
100
AcDbEntity
  8
1
  6
Continuous
 62
     2
100
AcDbLine
 10
504.8755684285269
 20
348.1137913450993
 30
0.0
 11
504.8755684285269
 21
351.1137913450993
 31
0.0
  0
LINE
  5
1DF
330
4B
100
AcDbEntity
  8
1
  6
Continuous
 62
     7
100
AcDbLine
 10
504.8755684285269
 20
351.3831135441226
 30
0.0
 11
505.8755684285269
 21
351.1137913450993
 31
0.0
  0
LINE
  5
1E0
330
4B
100
AcDbEntity
  8
1
  6
Continuous
 62
     7
100
AcDbLine
 10
505.8755684285269
 20
351.1137913450993
 30
0.0
 11
505.8755684285269
 21
348.1137913450993
 31
0.0
  0
LINE
  5
1E1
330
4B
100
AcDbEntity
  8
1
  6
Continuous
 62
     7
100
AcDbLine
 10
491.8755684285269
 20
348.1137913450993
 30
0.0
 11
491.8755684285269
 21
351.1137913450993
 31
0.0
  0
LINE
  5
1E2
330
4B
100
AcDbEntity
  8
1
  6
Continuous
 62
     7
100
AcDbLine
 10
491.8755684285269
 20
351.1137913450993
 30
0.0
 11
492.8755684285268
 21
351.3831135441226
 31
0.0
  0
LINE
  5
1E3
330
4B
100
AcDbEntity
  8
1
  6
Continuous
 62
     2
100
AcDbLine
 10
492.8755684285269
 20
351.1137913450993
 30
0.0
 11
492.8755684285269
 21
348.1137913450993
 31
0.0
  0
LINE
  5
1E4
330
4B
100
AcDbEntity
  8
1
  6
Continuous
 62
     7
100
AcDbLine
 10
491.8755684285269
 20
348.1137913450993
 30
0.0
 11
505.8755684285269
 21
348.1137913450993
 31
0.0
  0
LINE
  5
1E5
330
4B
100
AcDbEntity
  8
1
  6
Continuous
 62
     2
100
AcDbLine
 10
493.8755684285269
 20
351.1137913450993
 30
0.0
 11
493.8755684285269
 21
348.1137913450993
 31
0.0
  0
LINE
  5
1E6
330
4B
100
AcDbEntity
  8
1
  6
Continuous
 62
     2
100
AcDbLine
 10
494.8755684285269
 20
350.9238649366471
 30
0.0
 11
494.8755684285269
 21
348.279839657551
 31
0.0
  0
LINE
  5
1E7
330
4B
100
AcDbEntity
  8
1
  6
Continuous
 62
     2
100
AcDbLine
 10
495.8755684285269
 20
350.8103178387718
 30
0.0
 11
495.8755684285269
 21
348.4744918253372
 31
0.0
  0
LINE
  5
1E8
330
4B
100
AcDbEntity
  8
1
  6
Continuous
 62
     2
100
AcDbLine
 10
496.8755684285269
 20
350.5994446570034
 30
0.0
 11
496.8755684285269
 21
348.8313541329452
 31
0.0
  0
LINE
  5
1E9
330
4B
100
AcDbEntity
  8
1
  6
Continuous
 62
     2
100
AcDbLine
 10
497.8755684285269
 20
350.3561294472706
 30
0.0
 11
497.8755684285269
 21
349.0908903566602
 31
0.0
  0
LINE
  5
1EA
330
4B
100
AcDbEntity
  8
1
  6
Continuous
 62
     7
100
AcDbLine
 10
493.1255684285269
 20
351.4435570653031
 30
0.0
 11
504.6255684285268
 21
351.4435570653031
 31
0.0
  0
LINE
  5
1EB
330
4B
100
AcDbEntity
  8
1
  6
Continuous
 62
     7
100
AcDbLine
 10
491.8755684285269
 20
351.1137913450993
 30
0.0
 11
505.8755684285269
 21
351.1137913450993
 31
0.0
  0
ARC
  5
1EC
330
4B
100
AcDbEntity
  8
1
  6
Continuous
 62
     7
100
AcDbCircle
 10
164.8592134632322
 20
327.1137913450993
 30
0.0
 40
25.0000000000001
100
AcDbArc
 50
76.11345963737107
 51
90.0
  0
ARC
  5
1ED
330
4B
100
AcDbEntity
  8
1
  6
Continuous
 62
     7
100
AcDbCircle
 10
164.8592134632322
 20
327.1137913450993
 30
0.0
 40
25.0
100
AcDbArc
 50
90.0
 51
103.8865403626292
  0
ARC
  5
1EE
330
4B
100
AcDbEntity
  8
1
  6
Continuous
 62
     7
100
AcDbCircle
 10
498.8755684285269
 20
327.1137913450993
 30
0.0
 40
25.0000000000001
100
AcDbArc
 50
76.11345963737107
 51
90.0
  0
ARC
  5
1EF
330
4B
100
AcDbEntity
  8
1
  6
Continuous
 62
     7
100
AcDbCircle
 10
498.8755684285269
 20
327.1137913450993
 30
0.0
 40
25.0
100
AcDbArc
 50
90.0
 51
103.8865403626292
  0
CIRCLE
  5
1F0
330
4B
100
AcDbEntity
  8
1
  6
Continuous
 62
     7
100
AcDbCircle
 10
164.8592134632322
 20
683.7980399121154
 30
0.0
 40
6.999999999999886
  0
CIRCLE
  5
1F1
330
4B
100
AcDbEntity
  8
1
  6
Continuous
 62
     7
100
AcDbCircle
 10
164.8592134632322
 20
683.7980399121154
 30
0.0
 40
5.749999999999886
  0
ENDBLK
  5
4D
330
4B
100
AcDbEntity
  8
0
100
AcDbBlockEnd
  0
BLOCK
  5
212
330
20B
100
AcDbEntity
  8
0
100
AcDbBlockBegin
  2
*D09
 70
     1
 71
     0
 10
0.0
 20
0.0
 30
0.0
  3
*D09
  1

  0
LINE
  5
20C
330
20B
100
AcDbEntity
  8
1
  6
Continuous
 62
     2
100
AcDbLine
 10
557.8755684285269
 20
170.1137913450993
 30
0.0
 11
580.43184562846
 21
170.1137913450993
 31
0.0
  0
LINE
  5
20D
330
20B
100
AcDbEntity
  8
1
  6
Continuous
 62
     2
100
AcDbLine
 10
543.8755684285269
 20
170.1137913450993
 30
0.0
 11
557.8755684285269
 21
170.1137913450993
 31
0.0
  0
LINE
  5
20E
330
20B
100
AcDbEntity
  8
1
  6
Continuous
 62
     2
100
AcDbLine
 10
543.8755684285269
 20
268.1344548803722
 30
0.0
 11
543.8755684285269
 21
167.1137913450993
 31
0.0
  0
LINE
  5
20F
330
20B
100
AcDbEntity
  8
1
  6
Continuous
 62
     2
100
AcDbLine
 10
557.8755684285269
 20
285.1137913450993
 30
0.0
 11
557.8755684285269
 21
167.1137913450993
 31
0.0
  0
SOLID
  5
210
330
20B
100
AcDbEntity
  8
1
 62
     2
100
AcDbTrace
 10
568.3755684285269
 20
171.4961425697669
 30
0.0
 11
568.3755684285269
 21
168.7314401204316
 31
0.0
 12
557.8755684285269
 22
170.1137913450993
 32
0.0
 13
557.8755684285269
 23
170.1137913450993
 33
0.0
  0
MTEXT
  5
211
330
20B
100
AcDbEntity
  8
1
 62
     7
100
AcDbMText
 10
567.8318456284601
 20
173.1137913450993
 30
0.0
 40
10.5
 41
0.0
 71
     7
 72
     1
  1
14
  7
CONVERTER_2
 11
0.9999999999970621
 21
2.424068405545307E-6
 31
0.0
 73
     1
 44
0.60024009603842
  0
ENDBLK
  5
213
330
20B
100
AcDbEntity
  8
0
100
AcDbBlockEnd
  0
BLOCK
  5
215
330
214
100
AcDbEntity
  8
0
100
AcDbBlockBegin
  2
_None
 70
     0
 71
     0
 10
0.0
 20
0.0
 30
0.0
  3
_None
  1

  0
ENDBLK
  5
216
330
214
100
AcDbEntity
  8
0
100
AcDbBlockEnd
  0
BLOCK
  5
220
330
219
100
AcDbEntity
  8
0
100
AcDbBlockBegin
  2
*D111
 70
     1
 71
     0
 10
0.0
 20
0.0
 30
0.0
  3
*D111
  1

  0
LINE
  5
21A
330
219
100
AcDbEntity
  8
0
  6
Continuous
 62
     2
100
AcDbLine
 10
419.399390780035
 20
294.6137913450993
 30
0.0
 11
419.399390780035
 21
352.1137913450993
 31
0.0
  0
LINE
  5
21B
330
219
100
AcDbEntity
  8
0
  6
Continuous
 62
     2
100
AcDbLine
 10
449.0803021563375
 20
294.6137913450993
 30
0.0
 11
416.399390780035
 21
294.6137913450993
 31
0.0
  0
LINE
  5
21C
330
219
100
AcDbEntity
  8
0
  6
Continuous
 62
     2
100
AcDbLine
 10
498.8755684285269
 20
352.1137913450993
 30
0.0
 11
416.399390780035
 21
352.1137913450993
 31
0.0
  0
SOLID
  5
21D
330
219
100
AcDbEntity
  8
0
 62
     2
100
AcDbTrace
 10
418.0170395553673
 20
305.1137913450993
 30
0.0
 11
420.7817420047027
 21
305.1137913450993
 31
0.0
 12
419.399390780035
 22
294.6137913450993
 32
0.0
 13
419.399390780035
 23
294.6137913450993
 33
0.0
  0
SOLID
  5
21E
330
219
100
AcDbEntity
  8
0
 62
     2
100
AcDbTrace
 10
420.7817420047027
 20
341.6137913450993
 30
0.0
 11
418.0170395553673
 21
341.6137913450993
 31
0.0
 12
419.399390780035
 22
352.1137913450993
 32
0.0
 13
419.399390780035
 23
352.1137913450993
 33
0.0
  0
MTEXT
  5
21F
330
219
100
AcDbEntity
  8
0
 62
     7
100
AcDbMText
 10
416.399390780035
 20
296.301776222452
 30
0.0
 40
10.5
 41
0.0
 71
     7
 72
     1
  1
58リフト5
  7
CONVERTER_1
 11
0.0
 21
1.0
 31
0.0
 73
     1
 44
0.60024009603842
  0
ENDBLK
  5
221
330
219
100
AcDbEntity
  8
0
100
AcDbBlockEnd
  0
BLOCK
  5
22B
330
224
100
AcDbEntity
  8
0
100
AcDbBlockBegin
  2
*D212
 70
     1
 71
     0
 10
0.0
 20
0.0
 30
0.0
  3
*D212
  1

  0
LINE
  5
225
330
224
100
AcDbEntity
  8
0
  6
Continuous
 62
     2
100
AcDbLine
 10
419.3993907800351
 20
294.6137913450993
 30
0.0
 11
419.3993907800351
 21
200.1137913450994
 31
0.0
  0
LINE
  5
226
330
224
100
AcDbEntity
  8
0
  6
Continuous
 62
     2
100
AcDbLine
 10
449.0803021563375
 20
294.6137913450993
 30
0.0
 11
416.3993907800351
 21
294.6137913450993
 31
0.0
  0
LINE
  5
227
330
224
100
AcDbEntity
  8
0
  6
Continuous
 62
     2
100
AcDbLine
 10
231.2601760301023
 20
200.1137913450994
 30
0.0
 11
422.3993907800351
 21
200.1137913450994
 31
0.0
  0
SOLID
  5
228
330
224
100
AcDbEntity
  8
0
 62
     2
100
AcDbTrace
 10
420.7817420047028
 20
284.1137913450993
 30
0.0
 11
418.0170395553674
 21
284.1137913450993
 31
0.0
 12
419.3993907800351
 22
294.6137913450993
 32
0.0
 13
419.3993907800351
 23
294.6137913450993
 33
0.0
  0
SOLID
  5
229
330
224
100
AcDbEntity
  8
0
 62
     2
100
AcDbTrace
 10
418.0170395553674
 20
210.6137913450994
 30
0.0
 11
420.7817420047028
 21
210.6137913450994
 31
0.0
 12
419.3993907800351
 22
200.1137913450994
 32
0.0
 13
419.3993907800351
 23
200.1137913450994
 33
0.0
  0
MTEXT
  5
22A
330
224
100
AcDbEntity
  8
0
 62
     7
100
AcDbMText
 10
416.3993907800351
 20
251.2808285503096
 30
0.0
 40
10.5
 41
0.0
 71
     7
 72
     1
  1
95
  7
CONVERTER_2
 11
0.0
 21
1.0
 31
0.0
 73
     1
 44
0.60024009603842
  0
ENDBLK
  5
22C
330
224
100
AcDbEntity
  8
0
100
AcDbBlockEnd
  0
BLOCK
  5
236
330
22F
100
AcDbEntity
  8
0
100
AcDbBlockBegin
  2
*D313
 70
     1
 71
     0
 10
0.0
 20
0.0
 30
0.0
  3
*D313
  1

  0
LINE
  5
230
330
22F
100
AcDbEntity
  8
1
  6
Continuous
 62
     2
100
AcDbLine
 10
587.8755684285269
 20
271.6137913450993
 30
0.0
 11
587.8755684285269
 21
317.6137913450993
 31
0.0
  0
LINE
  5
231
330
22F
100
AcDbEntity
  8
1
  6
Continuous
 62
     2
100
AcDbLine
 10
543.8755684285269
 20
271.6137913450993
 30
0.0
 11
590.8755684285269
 21
271.6137913450993
 31
0.0
  0
LINE
  5
232
330
22F
100
AcDbEntity
  8
1
  6
Continuous
 62
     2
100
AcDbLine
 10
543.8755684285269
 20
317.6137913450993
 30
0.0
 11
590.8755684285269
 21
317.6137913450993
 31
0.0
  0
SOLID
  5
233
330
22F
100
AcDbEntity
  8
1
 62
     2
100
AcDbTrace
 10
586.4932172038592
 20
282.1137913450993
 30
0.0
 11
589.2579196531946
 21
282.1137913450993
 31
0.0
 12
587.8755684285269
 22
271.6137913450993
 32
0.0
 13
587.8755684285269
 23
271.6137913450993
 33
0.0
  0
SOLID
  5
234
330
22F
100
AcDbEntity
  8
1
 62
     2
100
AcDbTrace
 10
589.2579196531946
 20
307.1137913450993
 30
0.0
 11
586.4932172038592
 21
307.1137913450993
 31
0.0
 12
587.8755684285269
 22
317.6137913450993
 32
0.0
 13
587.8755684285269
 23
317.6137913450993
 33
0.0
  0
MTEXT
  5
235
330
22F
100
AcDbEntity
  8
1
 62
     7
100
AcDbMText
 10
584.8755684285269
 20
275.8187913450993
 30
0.0
 40
10.5
 41
0.0
 71
     7
 72
     1
  1
\C7;{\Fgdt;n}\C7;46
  7
CONVERTER_2
 11
0.0
 21
1.0
 31
0.0
 73
     1
 44
0.60024009603842
  0
ENDBLK
  5
237
330
22F
100
AcDbEntity
  8
0
100
AcDbBlockEnd
  0
BLOCK
  5
241
330
23A
100
AcDbEntity
  8
0
100
AcDbBlockBegin
  2
*D414
 70
     1
 71
     0
 10
0.0
 20
0.0
 30
0.0
  3
*D414
  1

  0
LINE
  5
23B
330
23A
100
AcDbEntity
  8
0
  6
Continuous
 62
     2
100
AcDbLine
 10
223.8737690241162
 20
170.1137913450993
 30
0.0
 11
463.8755684285269
 21
170.1137913450993
 31
0.0
  0
LINE
  5
23C
330
23A
100
AcDbEntity
  8
0
  6
Continuous
 62
     2
100
AcDbLine
 10
223.8737690241162
 20
196.9657464254773
 30
0.0
 11
223.8737690241162
 21
167.1137913450993
 31
0.0
  0
LINE
  5
23D
330
23A
100
AcDbEntity
  8
0
  6
Continuous
 62
     2
100
AcDbLine
 10
463.8755684285269
 20
261.1137913450993
 30
0.0
 11
463.8755684285269
 21
167.1137913450993
 31
0.0
  0
SOLID
  5
23E
330
23A
100
AcDbEntity
  8
0
 62
     2
100
AcDbTrace
 10
234.3737690241162
 20
171.4961425697669
 30
0.0
 11
234.3737690241162
 21
168.7314401204316
 31
0.0
 12
223.8737690241162
 22
170.1137913450993
 32
0.0
 13
223.8737690241162
 23
170.1137913450993
 33
0.0
  0
SOLID
  5
23F
330
23A
100
AcDbEntity
  8
0
 62
     2
100
AcDbTrace
 10
453.3755684285269
 20
168.7314401204316
 30
0.0
 11
453.3755684285269
 21
171.4961425697669
 31
0.0
 12
463.8755684285269
 22
170.1137913450993
 32
0.0
 13
463.8755684285269
 23
170.1137913450993
 33
0.0
  0
MTEXT
  5
240
330
23A
100
AcDbEntity
  8
0
 62
     7
100
AcDbMText
 10
331.2746687263215
 20
173.1137913450993
 30
0.0
 40
10.5
 41
0.0
 71
     7
 72
     1
  1
240
  7
CONVERTER_2
 11
0.9999999999970621
 21
2.424068405545307E-6
 31
0.0
 73
     1
 44
0.60024009603842
  0
ENDBLK
  5
242
330
23A
100
AcDbEntity
  8
0
100
AcDbBlockEnd
  0
BLOCK
  5
24C
330
245
100
AcDbEntity
  8
0
100
AcDbBlockBegin
  2
*D515
 70
     1
 71
     0
 10
0.0
 20
0.0
 30
0.0
  3
*D515
  1

  0
LINE
  5
246
330
245
100
AcDbEntity
  8
0
  6
Continuous
 62
     2
100
AcDbLine
 10
463.8755684285269
 20
170.1137913450993
 30
0.0
 11
498.8755684285269
 21
170.1137913450993
 31
0.0
  0
LINE
  5
247
330
245
100
AcDbEntity
  8
0
  6
Continuous
 62
     2
100
AcDbLine
 10
463.8755684285269
 20
261.1137913450993
 30
0.0
 11
463.8755684285269
 21
167.1137913450993
 31
0.0
  0
LINE
  5
248
330
245
100
AcDbEntity
  8
0
  6
Continuous
 62
     2
100
AcDbLine
 10
498.8755684285269
 20
278.9625063951354
 30
0.0
 11
498.8755684285269
 21
167.1137913450993
 31
0.0
  0
SOLID
  5
249
330
245
100
AcDbEntity
  8
0
 62
     2
100
AcDbTrace
 10
474.3755684285269
 20
171.4961425697669
 30
0.0
 11
474.3755684285269
 21
168.7314401204316
 31
0.0
 12
463.8755684285269
 22
170.1137913450993
 32
0.0
 13
463.8755684285269
 23
170.1137913450993
 33
0.0
  0
SOLID
  5
24A
330
245
100
AcDbEntity
  8
0
 62
     2
100
AcDbTrace
 10
488.3755684285269
 20
168.7314401204316
 30
0.0
 11
488.3755684285269
 21
171.4961425697669
 31
0.0
 12
498.8755684285269
 22
170.1137913450993
 32
0.0
 13
498.8755684285269
 23
170.1137913450993
 33
0.0
  0
MTEXT
  5
24B
330
245
100
AcDbEntity
  8
0
 62
     7
100
AcDbMText
 10
473.5005684285269
 20
173.1137913450993
 30
0.0
 40
10.5
 41
0.0
 71
     7
 72
     1
  1
35
  7
CONVERTER_2
 11
0.9999999999970621
 21
2.424068405545307E-6
 31
0.0
 73
     1
 44
0.60024009603842
  0
ENDBLK
  5
24D
330
245
100
AcDbEntity
  8
0
100
AcDbBlockEnd
  0
BLOCK
  5
257
330
250
100
AcDbEntity
  8
0
100
AcDbBlockBegin
  2
*D616
 70
     1
 71
     0
 10
0.0
 20
0.0
 30
0.0
  3
*D616
  1

  0
LINE
  5
251
330
250
100
AcDbEntity
  8
0
  6
Continuous
 62
     2
100
AcDbLine
 10
498.8755684285269
 20
170.1137913450993
 30
0.0
 11
543.8755684285269
 21
170.1137913450993
 31
0.0
  0
LINE
  5
252
330
250
100
AcDbEntity
  8
0
  6
Continuous
 62
     2
100
AcDbLine
 10
498.8755684285269
 20
278.9625063951354
 30
0.0
 11
498.8755684285269
 21
167.1137913450993
 31
0.0
  0
LINE
  5
253
330
250
100
AcDbEntity
  8
0
  6
Continuous
 62
     2
100
AcDbLine
 10
543.8755684285269
 20
268.1344548803722
 30
0.0
 11
543.8755684285269
 21
167.1137913450993
 31
0.0
  0
SOLID
  5
254
330
250
100
AcDbEntity
  8
0
 62
     2
100
AcDbTrace
 10
509.3755684285269
 20
171.4961425697669
 30
0.0
 11
509.3755684285269
 21
168.7314401204316
 31
0.0
 12
498.8755684285269
 22
170.1137913450993
 32
0.0
 13
498.8755684285269
 23
170.1137913450993
 33
0.0
  0
SOLID
  5
255
330
250
100
AcDbEntity
  8
0
 62
     2
100
AcDbTrace
 10
533.3755684285269
 20
168.7314401204316
 30
0.0
 11
533.3755684285269
 21
171.4961425697669
 31
0.0
 12
543.8755684285269
 22
170.1137913450993
 32
0.0
 13
543.8755684285269
 23
170.1137913450993
 33
0.0
  0
MTEXT
  5
256
330
250
100
AcDbEntity
  8
0
 62
     7
100
AcDbMText
 10
513.5005684285268
 20
173.1137913450993
 30
0.0
 40
10.5
 41
0.0
 71
     7
 72
     1
  1
45
  7
CONVERTER_2
 11
0.9999999999970621
 21
2.424068405545307E-6
 31
0.0
 73
     1
 44
0.60024009603842
  0
ENDBLK
  5
258
330
250
100
AcDbEntity
  8
0
100
AcDbBlockEnd
  0
ENDSEC
  0
SECTION
  2
ENTITIES
  0
INSERT
  5
4E
330
1F
100
AcDbEntity
  8
1
100
AcDbBlockReference
  2
_J__A4
 10
0.0
 20
0.0
 30
0.0
 41
3.0
 42
3.0
 43
3.0
  0
INSERT
  5
4F
330
1F
100
AcDbEntity
  8
0
100
AcDbBlockReference
  2
60-1-16-240
 10
325.7093344231131
 20
169.7476935151055
 30
0.0
  0
INSERT
  5
50
330
1F
100
AcDbEntity
  8
1
100
AcDbBlockReference
  2
32-1-16
 10
167.329828592858
 20
475.0996234752084
 30
0.0
  0
INSERT
  5
51
330
1F
100
AcDbEntity
  8
1
100
AcDbBlockReference
  2
A10-0A-13
 10
498.8755684285269
 20
294.6137913450993
 30
0.0
  0
INSERT
  5
52
330
1F
100
AcDbEntity
  8
0
100
AcDbBlockReference
  2
36-1A-13-M4
 10
253.0617100065786
 20
196.0446653356632
 30
0.0
  0
INSERT
  5
53
330
1F
100
AcDbEntity
  8
0
100
AcDbBlockReference
  2
21-1A
 10
543.8755684285269
 20
294.6137913450993
 30
0.0
  0
INSERT
  5
54
330
1F
100
AcDbEntity
  8
0
100
AcDbBlockReference
  2
37-1-13
 10
407.0743382117558
 20
178.1180854549548
 30
0.0
  0
INSERT
  5
55
330
1F
100
AcDbEntity
  8
0
100
AcDbBlockReference
  2
42-1
 10
410.7713083419234
 20
142.3241423355146
 30
0.0
  0
LINE
  5
1F2
330
1F
100
AcDbEntity
  8
1
  6
DASH_CENTER
 62
     2
100
AcDbLine
 10
164.8592134632322
 20
745.5198581062589
 30
0.0
 11
164.8592134632322
 21
396.8200432421501
 31
0.0
  0
LINE
  5
1F3
330
1F
100
AcDbEntity
  8
0
  6
Continuous
 62
     2
100
AcDbLine
 10
543.8755684285269
 20
271.6137913450993
 30
0.0
 11
543.8755684285269
 21
268.1344548803722
 31
0.0
  0
LINE
  5
1F4
330
1F
100
AcDbEntity
  8
1
  6
DASH_CENTER
 62
     2
100
AcDbLine
 10
463.8755684285269
 20
261.1137913450993
 30
0.0
 11
463.8755684285269
 21
303.2395300733872
 31
0.0
  0
LINE
  5
1F5
330
1F
100
AcDbEntity
  8
1
  6
DASH_CENTER
 62
     2
100
AcDbLine
 10
250.8737690241162
 20
233.1137913450994
 30
0.0
 11
436.8755684285269
 21
233.1137913450994
 31
0.0
  0
LINE
  5
1F6
330
1F
100
AcDbEntity
  8
1
  6
DASH_CENTER
 62
     2
100
AcDbLine
 10
223.8737690241162
 20
196.9657464254773
 30
0.0
 11
223.8737690241162
 21
206.1137913450993
 31
0.0
  0
LINE
  5
1F7
330
1F
100
AcDbEntity
  8
0
  6
DASH_CENTER
 62
     2
100
AcDbLine
 10
164.8592134632322
 20
356.2816044027582
 30
0.0
 11
164.8592134632322
 21
197.6708188435155
 31
0.0
  0
LINE
  5
1F8
330
1F
100
AcDbEntity
  8
1
  6
DASH_CENTER
 62
     2
100
AcDbLine
 10
498.8755684285269
 20
278.9625063951354
 30
0.0
 11
498.8755684285269
 21
356.2816044027582
 31
0.0
  0
LINE
  5
1F9
330
1F
100
AcDbEntity
  8
1
  6
DASH_CENTER
 62
     2
100
AcDbLine
 10
560.9133749602798
 20
294.6137913450993
 30
0.0
 11
449.0803021563375
 21
294.6137913450993
 31
0.0
  0
LINE
  5
1FA
330
1F
100
AcDbEntity
  8
0
  6
DASH_CENTER
 62
     2
100
AcDbLine
 10
138.8592134632322
 20
294.6137913450993
 30
0.0
 11
190.8592134632322
 21
294.6137913450993
 31
0.0
  0
LINE
  5
1FB
330
1F
100
AcDbEntity
  8
1
  6
DASH_CENTER
 62
     2
100
AcDbLine
 10
181.8592134632322
 20
683.7980399121152
 30
0.0
 11
147.8592134632322
 21
683.7980399121152
 31
0.0
  0
LINE
  5
1FC
330
1F
100
AcDbEntity
  8
1
  6
DASH_CENTER
 62
     2
100
AcDbLine
 10
180.8592134632322
 20
648.7980399121152
 30
0.0
 11
148.8592134632322
 21
648.7980399121152
 31
0.0
  0
LINE
  5
1FD
330
1F
100
AcDbEntity
  8
1
  6
DASH_CENTER
 62
     2
100
AcDbLine
 10
173.5194675010766
 20
678.7980399121152
 30
0.0
 11
135.4143497345614
 21
700.7980399121152
 31
0.0
  0
LINE
  5
1FE
330
1F
100
AcDbEntity
  8
1
  6
DASH_CENTER
 62
     2
100
AcDbLine
 10
156.1989594253878
 20
678.7980399121152
 30
0.0
 11
194.3040771919032
 21
700.7980399121154
 31
0.0
  0
LINE
  5
1FF
330
1F
100
AcDbEntity
  8
1
  6
DASH_CENTER
 62
     2
100
AcDbLine
 10
176.2334356570943
 20
408.7962405077045
 30
0.0
 11
153.8812622510113
 21
408.7962405077045
 31
0.0
  0
ARC
  5
200
330
1F
100
AcDbEntity
  8
1
  6
DASH_CENTER
 62
     2
100
AcDbCircle
 10
436.8755684285269
 20
260.1137913450993
 30
0.0
 40
26.99999999999989
100
AcDbArc
 50
-90.0
 51
0.0
  0
ARC
  5
201
330
1F
100
AcDbEntity
  8
1
  6
DASH_CENTER
 62
     2
100
AcDbCircle
 10
250.8737690241162
 20
206.1137913450993
 30
0.0
 40
27.00000000000011
100
AcDbArc
 50
90.0
 51
180.0
  0
SOLID
  5
202
330
1F
100
AcDbEntity
  8
1
 62
     2
100
AcDbTrace
 10
179.4120621857176
 20
745.0824822641856
 30
0.0
 11
181.806364740747
 21
743.7001310395179
 31
0.0
 12
175.3592134632322
 22
735.2980399121152
 32
0.0
 13
175.3592134632322
 23
735.2980399121152
 33
0.0
  0
LEADER
  5
203
330
1F
100
AcDbEntity
  8
1
  6
Continuous
 62
     2
100
AcDbLeader
  3
Standard
 71
     0
 76
     3
 10
175.3592134632322
 20
735.2980399121152
 30
0.0
 10
192.3020251651038
 20
764.6438506028294
 30
0.0
 10
240.916118965201
 20
764.6438506028294
 30
0.0
  0
MTEXT
  5
205
330
1F
100
AcDbEntity
  8
0
 62
     7
100
AcDbMText
 10
102.0
 20
102.0
 30
0.0
 40
10.5
 41
0.0
 71
     4
 72
     1
  1
JIS
  7
CONVERTER_2
 73
     1
 44
1.32052821128451
  0
MTEXT
  5
206
330
1F
100
AcDbEntity
  8
0
 62
     7
100
AcDbMText
 10
171.0
 20
68.25
 30
0.0
 40
10.5
 41
0.0
 71
     5
 72
     1
  1
自在水栓
  7
CONVERTER_1
 73
     1
 44
1.32052821128451
  0
MTEXT
  5
207
330
1F
100
AcDbEntity
  8
1
 62
     7
100
AcDbMText
 10
216.6090720651524
 20
773.6438506028294
 30
0.0
 40
10.5
 41
0.0
 71
     5
 72
     1
  1
PJ1/2
  7
CONVERTER_2
 73
     1
 44
1.32052821128451
  0
MTEXT
  5
208
330
1F
100
AcDbEntity
  8
0
 62
     7
100
AcDbMText
 10
171.0
 20
42.75
 30
0.0
 40
10.5
 41
0.0
 71
     5
 72
     1
  1
A10J-L2-13
  7
CONVERTER_2
 73
     1
 44
0.90036014405762
  0
MTEXT
  5
209
330
1F
100
AcDbEntity
  8
1
 62
     7
100
AcDbMText
 10
255.75
 20
51.0
 30
0.0
 40
10.5
 41
0.0
 71
     5
 72
     1
  1
1
  7
CONVERTER_2
 73
     1
 44
0.7202881152461
  0
MTEXT
  5
20A
330
1F
100
AcDbEntity
  8
1
 62
     7
100
AcDbMText
 10
281.25
 20
51.0
 30
0.0
 40
10.5
 41
0.0
 71
     5
 72
     1
  1
3
  7
CONVERTER_2
 73
     1
 44
0.7202881152461
  0
DIMENSION
  5
218
330
1F
100
AcDbEntity
  8
1
100
AcDbDimension
  2
*D09
 10
543.8755684285269
 20
170.1137913450993
 30
0.0
 11
574.13184562846
 21
178.3637913450993
 31
0.0
  1
<>
 71
     5
 42
0.0
 53
0.00013888888889
  3
ME10_DIM_0
100
AcDbAlignedDimension
 13
557.8755684285269
 23
285.1137913450993
 33
0.0
 14
543.8755684285269
 24
268.1344548803722
 34
0.0
100
AcDbRotatedDimension
  0
DIMENSION
  5
223
330
1F
100
AcDbEntity
  8
0
100
AcDbDimension
  2
*D111
 10
419.399390780035
 20
294.6137913450993
 30
0.0
 11
411.149390780035
 21
324.651776222452
 31
0.0
  1
58リフト5
 71
     5
 42
0.0
 53
90.0
  3
ME10_DIM_1
100
AcDbAlignedDimension
 13
498.8755684285268
 23
352.1137913450992
 33
0.0
 14
449.0803021563375
 24
294.6137913450993
 34
0.0
 50
90.0
100
AcDbRotatedDimension
  0
DIMENSION
  5
22E
330
1F
100
AcDbEntity
  8
0
100
AcDbDimension
  2
*D212
 10
419.3993907800351
 20
294.6137913450993
 30
0.0
 11
411.1493907800351
 21
259.1558285503096
 31
0.0
  1
95
 71
     5
 42
0.0
 53
90.0
  3
ME10_DIM_2
100
AcDbAlignedDimension
 13
231.2601760301022
 23
200.1137913450993
 33
0.0
 14
449.0803021563375
 24
294.6137913450993
 34
0.0
 50
90.0
100
AcDbRotatedDimension
  0
DIMENSION
  5
239
330
1F
100
AcDbEntity
  8
1
100
AcDbDimension
  2
*D313
 10
587.8755684285269
 20
271.6137913450993
 30
0.0
 11
579.6255684285269
 21
294.6137913450993
 31
0.0
  1
<>
 71
     5
 42
0.0
 53
90.0
  3
ME10_DIM_3
100
AcDbAlignedDimension
 13
543.8755684285268
 23
317.6137913450992
 33
0.0
 14
543.8755684285269
 24
271.6137913450993
 34
0.0
 50
90.0
100
AcDbRotatedDimension
  0
DIMENSION
  5
244
330
1F
100
AcDbEntity
  8
0
100
AcDbDimension
  2
*D414
 10
223.8737690241162
 20
170.1137913450993
 30
0.0
 11
343.8746687263215
 21
178.3637913450993
 31
0.0
  1
<>
 71
     5
 42
0.0
 53
0.00013888888889
  3
ME10_DIM_4
100
AcDbAlignedDimension
 13
463.8755684285269
 23
261.1137913450993
 33
0.0
 14
223.8737690241162
 24
196.9657464254773
 34
0.0
100
AcDbRotatedDimension
  0
DIMENSION
  5
24F
330
1F
100
AcDbEntity
  8
0
100
AcDbDimension
  2
*D515
 10
463.8755684285269
 20
170.1137913450993
 30
0.0
 11
481.3755684285269
 21
178.3637913450993
 31
0.0
  1
<>
 71
     5
 42
0.0
 53
0.00013888888889
  3
ME10_DIM_5
100
AcDbAlignedDimension
 13
498.8755684285269
 23
278.9625063951354
 33
0.0
 14
463.8755684285269
 24
261.1137913450993
 34
0.0
100
AcDbRotatedDimension
  0
DIMENSION
  5
25A
330
1F
100
AcDbEntity
  8
0
100
AcDbDimension
  2
*D616
 10
498.8755684285269
 20
170.1137913450993
 30
0.0
 11
521.3755684285268
 21
178.3637913450993
 31
0.0
  1
<>
 71
     5
 42
0.0
 53
0.00013888888889
  3
ME10_DIM_6
100
AcDbAlignedDimension
 13
543.8755684285269
 23
268.1344548803722
 33
0.0
 14
498.8755684285269
 24
278.9625063951354
 34
0.0
100
AcDbRotatedDimension
  0
ENDSEC
  0
SECTION
  2
OBJECTS
  0
DICTIONARY
  5
C
330
0
100
AcDbDictionary
281
     1
  3
ACAD_GROUP
350
D
  3
ACAD_LAYOUT
350
1A
  3
ACAD_MLINESTYLE
350
17
  3
ACAD_PLOTSETTINGS
350
19
  3
ACAD_PLOTSTYLENAME
350
E
  3
ACAD_TABLESTYLE
350
2A
  3
AcDbVariableDictionary
350
2C
  0
DICTIONARY
  5
D
102
{ACAD_REACTORS
330
C
102
}
330
C
100
AcDbDictionary
281
     1
  0
DICTIONARY
  5
1A
102
{ACAD_REACTORS
330
C
102
}
330
C
100
AcDbDictionary
281
     1
  3
Layout1
350
1E
  3
Layout2
350
26
  3
Model
350
22
  0
DICTIONARY
  5
17
102
{ACAD_REACTORS
330
C
102
}
330
C
100
AcDbDictionary
281
     1
  3
Standard
350
18
  0
DICTIONARY
  5
19
102
{ACAD_REACTORS
330
C
102
}
330
C
100
AcDbDictionary
281
     1
  0
ACDBDICTIONARYWDFLT
  5
E
102
{ACAD_REACTORS
330
C
102
}
330
C
100
AcDbDictionary
281
     1
  3
Normal
350
F
100
AcDbDictionaryWithDefault
340
F
  0
DICTIONARY
  5
2A
102
{ACAD_REACTORS
330
C
102
}
330
C
100
AcDbDictionary
281
     1
  3
Standard
350
2B
  0
DICTIONARY
  5
2C
102
{ACAD_REACTORS
330
C
102
}
330
C
100
AcDbDictionary
281
     1
  3
CTABLESTYLE
350
2D
  0
LAYOUT
  5
1E
102
{ACAD_REACTORS
330
1A
102
}
330
1A
100
AcDbPlotSettings
  1

  2

  4

  6

 40
0.0
 41
0.0
 42
0.0
 43
0.0
 44
0.0
 45
0.0
 46
0.0
 47
0.0
 48
0.0
 49
0.0
140
0.0
141
0.0
142
1.0
143
1.0
 70
   688
 72
     0
 73
     0
 74
     5
  7

 75
    16
147
1.0
148
0.0
149
0.0
100
AcDbLayout
  1
Layout1
 70
     1
 71
     1
 10
0.0
 20
0.0
 11
12.0
 21
9.0
 12
0.0
 22
0.0
 32
0.0
 14
1.00000000000000E+20
 24
1.00000000000000E+20
 34
1.00000000000000E+20
 15
-1.00000000000000E+20
 25
-1.00000000000000E+20
 35
-1.00000000000000E+20
146
0.0
 13
0.0
 23
0.0
 33
0.0
 16
1.0
 26
0.0
 36
0.0
 17
0.0
 27
1.0
 37
0.0
 76
     0
330
1B
  0
LAYOUT
  5
26
102
{ACAD_REACTORS
330
1A
102
}
330
1A
100
AcDbPlotSettings
  1

  2

  4

  6

 40
0.0
 41
0.0
 42
0.0
 43
0.0
 44
0.0
 45
0.0
 46
0.0
 47
0.0
 48
0.0
 49
0.0
140
0.0
141
0.0
142
1.0
143
1.0
 70
   688
 72
     0
 73
     0
 74
     5
  7

 75
    16
147
1.0
148
0.0
149
0.0
100
AcDbLayout
  1
Layout2
 70
     1
 71
     2
 10
0.0
 20
0.0
 11
0.0
 21
0.0
 12
0.0
 22
0.0
 32
0.0
 14
0.0
 24
0.0
 34
0.0
 15
0.0
 25
0.0
 35
0.0
146
0.0
 13
0.0
 23
0.0
 33
0.0
 16
1.0
 26
0.0
 36
0.0
 17
0.0
 27
1.0
 37
0.0
 76
     0
330
23
  0
LAYOUT
  5
22
102
{ACAD_REACTORS
330
1A
102
}
330
1A
100
AcDbPlotSettings
  1

  2

  4

  6

 40
0.0
 41
0.0
 42
0.0
 43
0.0
 44
0.0
 45
0.0
 46
0.0
 47
0.0
 48
0.0
 49
0.0
140
0.0
141
0.0
142
1.0
143
1.0
 70
  1712
 72
     0
 73
     0
 74
     0
  7

 75
     0
147
1.0
148
0.0
149
0.0
100
AcDbLayout
  1
Model
 70
     1
 71
     0
 10
0.0
 20
0.0
 11
0.0
 21
0.0
 12
0.0
 22
0.0
 32
0.0
 14
0.0
 24
0.0
 34
0.0
 15
630.0
 25
891.0
 35
0.0
146
0.0
 13
0.0
 23
0.0
 33
0.0
 16
1.0
 26
0.0
 36
0.0
 17
0.0
 27
1.0
 37
0.0
 76
     0
330
1F
  0
MLINESTYLE
  5
18
102
{ACAD_REACTORS
330
17
102
}
330
17
100
AcDbMlineStyle
  2
Standard
 70
     0
  3

 62
   256
 51
90.0
 52
90.0
 71
     2
 49
0.5
 62
   256
  6
BYLAYER
 49
-0.5
 62
   256
  6
BYLAYER
  0
ACDBPLACEHOLDER
  5
F
102
{ACAD_REACTORS
330
E
102
}
330
E
  0
TABLESTYLE
  5
2B
102
{ACAD_REACTORS
330
2A
102
}
330
2A
100
AcDbTableStyle
  3
Standard
 70
     0
 71
     0
 40
0.06
 41
0.06
280
     0
281
     0
  7
Standard
140
0.18
170
     2
 62
     0
 63
     7
283
     0
274
    -2
284
     1
 64
     0
275
    -2
285
     1
 65
     0
276
    -2
286
     1
 66
     0
277
    -2
287
     1
 67
     0
278
    -2
288
     1
 68
     0
279
    -2
289
     1
 69
     0
  7
Standard
140
0.25
170
     5
 62
     0
 63
     7
283
     0
274
    -2
284
     1
 64
     0
275
    -2
285
     1
 65
     0
276
    -2
286
     1
 66
     0
277
    -2
287
     1
 67
     0
278
    -2
288
     1
 68
     0
279
    -2
289
     1
 69
     0
  7
Standard
140
0.18
170
     5
 62
     0
 63
     7
283
     0
274
    -2
284
     1
 64
     0
275
    -2
285
     1
 65
     0
276
    -2
286
     1
 66
     0
277
    -2
287
     1
 67
     0
278
    -2
288
     1
 68
     0
279
    -2
289
     1
 69
     0
  0
DICTIONARYVAR
  5
2D
102
{ACAD_REACTORS
330
2C
102
}
330
2C
100
DictionaryVariables
280
     0
  1
Standard
  0
ENDSEC
  0
EOF
