  0
SECTION
  2
HEADER
  9
$ACADVER
  1
AC1015
  9
$ACADMAINTVER
 70
     6
  9
$DWGCODEPAGE
  3
DOS932
  9
$INSBASE
 10
0.0
 20
0.0
 30
0.0
  9
$EXTMIN
 10
0.0
 20
0.0
 30
0.0
  9
$EXTMAX
 10
735.0
 20
1039.5
 30
0.0
  9
$LIMMIN
 10
0.0
 20
0.0
  9
$LIMMAX
 10
12.0
 20
9.0
  9
$ORTHOMODE
 70
     0
  9
$REGENMODE
 70
     1
  9
$FILLMODE
 70
     1
  9
$QTEXTMODE
 70
     0
  9
$MIRRTEXT
 70
     1
  9
$LTSCALE
 40
1.0
  9
$ATTMODE
 70
     1
  9
$TEXTSIZE
 40
0.2
  9
$TRACEWID
 40
0.05
  9
$TEXTSTYLE
  7
Standard
  9
$CLAYER
  8
0
  9
$CELTYPE
  6
ByLayer
  9
$CECOLOR
 62
   256
  9
$CELTSCALE
 40
1.0
  9
$DISPSILH
 70
     0
  9
$DIMSCALE
 40
1.0
  9
$DIMASZ
 40
0.18
  9
$DIMEXO
 40
0.0625
  9
$DIMDLI
 40
0.38
  9
$DIMRND
 40
0.0
  9
$DIMDLE
 40
0.0
  9
$DIMEXE
 40
0.18
  9
$DIMTP
 40
0.0
  9
$DIMTM
 40
0.0
  9
$DIMTXT
 40
0.18
  9
$DIMCEN
 40
0.09
  9
$DIMTSZ
 40
0.0
  9
$DIMTOL
 70
     0
  9
$DIMLIM
 70
     0
  9
$DIMTIH
 70
     1
  9
$DIMTOH
 70
     1
  9
$DIMSE1
 70
     0
  9
$DIMSE2
 70
     0
  9
$DIMTAD
 70
     0
  9
$DIMZIN
 70
     0
  9
$DIMBLK
  1

  9
$DIMASO
 70
     1
  9
$DIMSHO
 70
     1
  9
$DIMPOST
  1

  9
$DIMAPOST
  1

  9
$DIMALT
 70
     0
  9
$DIMALTD
 70
     2
  9
$DIMALTF
 40
25.4
  9
$DIMLFAC
 40
1.0
  9
$DIMTOFL
 70
     0
  9
$DIMTVP
 40
0.0
  9
$DIMTIX
 70
     0
  9
$DIMSOXD
 70
     0
  9
$DIMSAH
 70
     0
  9
$DIMBLK1
  1

  9
$DIMBLK2
  1

  9
$DIMSTYLE
  2
Standard
  9
$DIMCLRD
 70
     0
  9
$DIMCLRE
 70
     0
  9
$DIMCLRT
 70
     0
  9
$DIMTFAC
 40
1.0
  9
$DIMGAP
 40
0.09
  9
$DIMJUST
 70
     0
  9
$DIMSD1
 70
     0
  9
$DIMSD2
 70
     0
  9
$DIMTOLJ
 70
     1
  9
$DIMTZIN
 70
     0
  9
$DIMALTZ
 70
     0
  9
$DIMALTTZ
 70
     0
  9
$DIMUPT
 70
     0
  9
$DIMDEC
 70
     4
  9
$DIMTDEC
 70
     4
  9
$DIMALTU
 70
     2
  9
$DIMALTTD
 70
     2
  9
$DIMTXSTY
  7
Standard
  9
$DIMAUNIT
 70
     0
  9
$DIMADEC
 70
     0
  9
$DIMALTRND
 40
0.0
  9
$DIMAZIN
 70
     0
  9
$DIMDSEP
 70
    46
  9
$DIMATFIT
 70
     3
  9
$DIMFRAC
 70
     0
  9
$DIMLDRBLK
  1

  9
$DIMLUNIT
 70
     2
  9
$DIMLWD
 70
    -2
  9
$DIMLWE
 70
    -2
  9
$DIMTMOVE
 70
     0
  9
$LUNITS
 70
     2
  9
$LUPREC
 70
     4
  9
$SKETCHINC
 40
0.1
  9
$FILLETRAD
 40
0.5
  9
$AUNITS
 70
     0
  9
$AUPREC
 70
     0
  9
$MENU
  1
.
  9
$ELEVATION
 40
0.0
  9
$PELEVATION
 40
0.0
  9
$THICKNESS
 40
0.0
  9
$LIMCHECK
 70
     0
  9
$CHAMFERA
 40
0.5
  9
$CHAMFERB
 40
0.5
  9
$CHAMFERC
 40
1.0
  9
$CHAMFERD
 40
0.0
  9
$SKPOLY
 70
     0
  9
$TDCREATE
 40
2456141.488348333
  9
$TDUCREATE
 40
2456141.113348333
  9
$TDUPDATE
 40
2456141.488348345
  9
$TDUUPDATE
 40
2456141.113348345
  9
$TDINDWG
 40
0.0000000116
  9
$TDUSRTIMER
 40
0.0000000116
  9
$USRTIMER
 70
     1
  9
$ANGBASE
 50
0.0
  9
$ANGDIR
 70
     0
  9
$PDMODE
 70
     0
  9
$PDSIZE
 40
0.0
  9
$PLINEWID
 40
0.0
  9
$SPLFRAME
 70
     0
  9
$SPLINETYPE
 70
     6
  9
$SPLINESEGS
 70
     8
  9
$HANDSEED
  5
25C
  9
$SURFTAB1
 70
     6
  9
$SURFTAB2
 70
     6
  9
$SURFTYPE
 70
     6
  9
$SURFU
 70
     6
  9
$SURFV
 70
     6
  9
$UCSBASE
  2

  9
$UCSNAME
  2

  9
$UCSORG
 10
0.0
 20
0.0
 30
0.0
  9
$UCSXDIR
 10
1.0
 20
0.0
 30
0.0
  9
$UCSYDIR
 10
0.0
 20
1.0
 30
0.0
  9
$UCSORTHOREF
  2

  9
$UCSORTHOVIEW
 70
     0
  9
$UCSORGTOP
 10
0.0
 20
0.0
 30
0.0
  9
$UCSORGBOTTOM
 10
0.0
 20
0.0
 30
0.0
  9
$UCSORGLEFT
 10
0.0
 20
0.0
 30
0.0
  9
$UCSORGRIGHT
 10
0.0
 20
0.0
 30
0.0
  9
$UCSORGFRONT
 10
0.0
 20
0.0
 30
0.0
  9
$UCSORGBACK
 10
0.0
 20
0.0
 30
0.0
  9
$PUCSBASE
  2

  9
$PUCSNAME
  2

  9
$PUCSORG
 10
0.0
 20
0.0
 30
0.0
  9
$PUCSXDIR
 10
1.0
 20
0.0
 30
0.0
  9
$PUCSYDIR
 10
0.0
 20
1.0
 30
0.0
  9
$PUCSORTHOREF
  2

  9
$PUCSORTHOVIEW
 70
     0
  9
$PUCSORGTOP
 10
0.0
 20
0.0
 30
0.0
  9
$PUCSORGBOTTOM
 10
0.0
 20
0.0
 30
0.0
  9
$PUCSORGLEFT
 10
0.0
 20
0.0
 30
0.0
  9
$PUCSORGRIGHT
 10
0.0
 20
0.0
 30
0.0
  9
$PUCSORGFRONT
 10
0.0
 20
0.0
 30
0.0
  9
$PUCSORGBACK
 10
0.0
 20
0.0
 30
0.0
  9
$USERI1
 70
     0
  9
$USERI2
 70
     0
  9
$USERI3
 70
     0
  9
$USERI4
 70
     0
  9
$USERI5
 70
     0
  9
$USERR1
 40
13.2
  9
$USERR2
 40
0.0
  9
$USERR3
 40
0.0
  9
$USERR4
 40
0.0
  9
$USERR5
 40
0.0
  9
$WORLDVIEW
 70
     1
  9
$SHADEDGE
 70
     3
  9
$SHADEDIF
 70
    70
  9
$TILEMODE
 70
     1
  9
$MAXACTVP
 70
    64
  9
$PINSBASE
 10
0.0
 20
0.0
 30
0.0
  9
$PLIMCHECK
 70
     0
  9
$PEXTMIN
 10
1.00000000000000E+20
 20
1.00000000000000E+20
 30
1.00000000000000E+20
  9
$PEXTMAX
 10
-1.00000000000000E+20
 20
-1.00000000000000E+20
 30
-1.00000000000000E+20
  9
$PLIMMIN
 10
0.0
 20
0.0
  9
$PLIMMAX
 10
12.0
 20
9.0
  9
$UNITMODE
 70
     0
  9
$VISRETAIN
 70
     1
  9
$PLINEGEN
 70
     0
  9
$PSLTSCALE
 70
     1
  9
$TREEDEPTH
 70
  3020
  9
$CMLSTYLE
  2
Standard
  9
$CMLJUST
 70
     0
  9
$CMLSCALE
 40
1.0
  9
$PROXYGRAPHICS
 70
     1
  9
$MEASUREMENT
 70
     1
  9
$CELWEIGHT
370
    -1
  9
$ENDCAPS
280
     0
  9
$JOINSTYLE
280
     0
  9
$LWDISPLAY
290
     0
  9
$INSUNITS
 70
     1
  9
$HYPERLINKBASE
  1

  9
$STYLESHEET
  1

  9
$XEDIT
290
     1
  9
$CEPSNTYPE
380
     0
  9
$PSTYLEMODE
290
     0
  9
$FINGERPRINTGUID
  2
{FAEB1C30-E019-11D5-929B-00C0DF256EC4}
  9
$VERSIONGUID
  2
{FAEB1C32-E019-11D5-929B-00C0DF256EC4}
  9
$EXTNAMES
290
     1
  9
$PSVPSCALE
 40
0.0
  9
$OLESTARTUP
290
     0
  0
ENDSEC
  0
SECTION
  2
CLASSES
  0
CLASS
  1
ACDBDICTIONARYWDFLT
  2
AcDbDictionaryWithDefault
  3
ObjectDBX Classes
 90
        0
280
     0
281
     0
  0
CLASS
  1
TABLESTYLE
  2
AcDbTableStyle
  3
ObjectDBX Classes
 90
     2047
280
     0
281
     0
  0
CLASS
  1
DICTIONARYVAR
  2
AcDbDictionaryVar
  3
ObjectDBX Classes
 90
        0
280
     0
281
     0
  0
CLASS
  1

  2
exOdDbSpline
  3

 90
        0
280
     0
281
     1
  0
CLASS
  1

  2
exOdDbCircle
  3

 90
        0
280
     0
281
     1
  0
CLASS
  1
ACDBPLACEHOLDER
  2
AcDbPlaceHolder
  3
ObjectDBX Classes
 90
        0
280
     0
281
     0
  0
CLASS
  1
LAYOUT
  2
AcDbLayout
  3
ObjectDBX Classes
 90
        0
280
     0
281
     0
  0
ENDSEC
  0
SECTION
  2
TABLES
  0
TABLE
  2
VPORT
  5
8
330
0
100
AcDbSymbolTable
 70
     2
  0
VPORT
  5
29
330
8
100
AcDbSymbolTableRecord
100
AcDbViewportTableRecord
  2
*Active
 70
     0
 10
0.0
 20
0.0
 11
1.0
 21
1.0
 12
367.5
 22
519.75
 13
0.0
 23
0.0
 14
0.5
 24
0.5
 15
0.5
 25
0.5
 16
0.0
 26
0.0
 36
1.0
 17
0.0
 27
0.0
 37
0.0
 40
1143.45
 41
1.60267857142857
 42
50.0
 43
0.0
 44
0.0
 50
0.0
 51
0.0
 71
     0
 72
   100
 73
     1
 74
     3
 75
     0
 76
     0
 77
     0
 78
     0
281
     0
 65
     1
110
0.0
120
0.0
130
0.0
111
1.0
121
0.0
131
0.0
112
0.0
122
1.0
132
0.0
 79
     0
146
0.0
  0
ENDTAB
  0
TABLE
  2
LTYPE
  5
5
330
0
100
AcDbSymbolTable
 70
     8
  0
LTYPE
  5
14
330
5
100
AcDbSymbolTableRecord
100
AcDbLinetypeTableRecord
  2
ByBlock
 70
     0
  3

 72
    65
 73
     0
 40
0.0
  0
LTYPE
  5
15
330
5
100
AcDbSymbolTableRecord
100
AcDbLinetypeTableRecord
  2
ByLayer
 70
     0
  3

 72
    65
 73
     0
 40
0.0
  0
LTYPE
  5
16
330
5
100
AcDbSymbolTableRecord
100
AcDbLinetypeTableRecord
  2
Continuous
 70
     0
  3
Solid line
 72
    65
 73
     0
 40
0.0
  0
LTYPE
  5
2E
330
5
100
AcDbSymbolTableRecord
100
AcDbLinetypeTableRecord
  2
DASHED
 70
     0
  3
Dashed
 72
    65
 73
     2
 40
15.0
 49
7.0
 74
     0
 49
-8.0
 74
     0
  0
LTYPE
  5
2F
330
5
100
AcDbSymbolTableRecord
100
AcDbLinetypeTableRecord
  2
DOTTED
 70
     0
  3
Dotted
 72
    65
 73
     2
 40
1.0
 49
0.0
 74
     0
 49
-1.0
 74
     0
  0
LTYPE
  5
30
330
5
100
AcDbSymbolTableRecord
100
AcDbLinetypeTableRecord
  2
DOT_CENTER
 70
     0
  3
Dot_Center
 72
    65
 73
     4
 40
14.0
 49
12.0
 74
     0
 49
-1.0
 74
     0
 49
0.0
 74
     0
 49
-1.0
 74
     0
  0
LTYPE
  5
31
330
5
100
AcDbSymbolTableRecord
100
AcDbLinetypeTableRecord
  2
LONG_DASHED
 70
     0
  3
Long_Dashed
 72
    65
 73
     2
 40
15.0
 49
10.0
 74
     0
 49
-5.0
 74
     0
  0
LTYPE
  5
32
330
5
100
AcDbSymbolTableRecord
100
AcDbLinetypeTableRecord
  2
DASH_CENTER
 70
     0
  3
Dash_Center
 72
    65
 73
     4
 40
14.0
 49
11.0
 74
     0
 49
-1.0
 74
     0
 49
1.0
 74
     0
 49
-1.0
 74
     0
  0
LTYPE
  5
33
330
5
100
AcDbSymbolTableRecord
100
AcDbLinetypeTableRecord
  2
PHANTOM
 70
     0
  3
Phantom
 72
    65
 73
     6
 40
13.0
 49
10.0
 74
     0
 49
-1.0
 74
     0
 49
0.0
 74
     0
 49
-1.0
 74
     0
 49
0.0
 74
     0
 49
-1.0
 74
     0
  0
LTYPE
  5
34
330
5
100
AcDbSymbolTableRecord
100
AcDbLinetypeTableRecord
  2
CENTER_DASH_DASH
 70
     0
  3
Center_Dash_Dash
 72
    65
 73
     6
 40
14.0
 49
9.0
 74
     0
 49
-1.0
 74
     0
 49
1.0
 74
     0
 49
-1.0
 74
     0
 49
1.0
 74
     0
 49
-1.0
 74
     0
  0
ENDTAB
  0
TABLE
  2
LAYER
  5
2
330
0
100
AcDbSymbolTable
 70
     2
  0
LAYER
  5
10
330
2
100
AcDbSymbolTableRecord
100
AcDbLayerTableRecord
  2
0
 70
     0
 62
     7
  6
Continuous
370
    -3
390
F
  0
LAYER
  5
35
330
2
100
AcDbSymbolTableRecord
100
AcDbLayerTableRecord
  2
1
 70
     0
 62
     7
  6
Continuous
370
    -3
390
F
  0
ENDTAB
  0
TABLE
  2
STYLE
  5
3
330
0
100
AcDbSymbolTable
 70
     3
  0
STYLE
  5
11
330
3
100
AcDbSymbolTableRecord
100
AcDbTextStyleTableRecord
  2
Standard
 70
     0
 40
0.0
 41
1.0
 50
0.0
 71
     0
 42
0.2
  3
txt
  4

  0
STYLE
  5
1E4
330
3
100
AcDbSymbolTableRecord
100
AcDbTextStyleTableRecord
  2
CONVERTER_1
 70
     0
 40
0.0
 41
0.89
 50
0.0
 71
     0
 42
0.2
  3
msmincho.ttc
  4

1001
ACAD
1000
MS Mincho
1071
    32785
  0
STYLE
  5
205
330
3
100
AcDbSymbolTableRecord
100
AcDbTextStyleTableRecord
  2
CONVERTER_2
 70
     0
 40
0.0
 41
0.9
 50
0.0
 71
     0
 42
0.2
  3
txt.shx
  4

  0
ENDTAB
  0
TABLE
  2
VIEW
  5
6
330
0
100
AcDbSymbolTable
 70
     0
  0
ENDTAB
  0
TABLE
  2
UCS
  5
7
330
0
100
AcDbSymbolTable
 70
     0
  0
ENDTAB
  0
TABLE
  2
APPID
  5
9
330
0
100
AcDbSymbolTable
 70
     1
  0
APPID
  5
12
330
9
100
AcDbSymbolTableRecord
100
AcDbRegAppTableRecord
  2
ACAD
 70
     0
  0
ENDTAB
  0
TABLE
  2
DIMSTYLE
  5
A
330
0
100
AcDbSymbolTable
 70
     8
100
AcDbDimStyleTable
  0
DIMSTYLE
105
27
330
A
100
AcDbSymbolTableRecord
100
AcDbDimStyleTableRecord
  2
Standard
 70
     0
340
11
  0
DIMSTYLE
105
218
102
{ACAD_REACTORS
330
219
102
}
330
A
100
AcDbSymbolTableRecord
100
AcDbDimStyleTableRecord
  2
ME10_DIM_0
 70
     0
 41
12.25
 42
0.0
 44
3.5
 73
     0
 74
     0
 77
     1
 78
     8
140
12.25
147
0.625
172
     1
173
     1
176
     2
177
     2
178
     7
271
     2
340
205
344
215
  0
DIMSTYLE
105
223
102
{ACAD_REACTORS
330
224
102
}
330
A
100
AcDbSymbolTableRecord
100
AcDbDimStyleTableRecord
  2
ME10_DIM_1
 70
     0
 41
12.25
 42
0.0
 44
3.5
 73
     0
 74
     0
 77
     1
 78
     8
140
12.25
147
0.625
172
     1
173
     1
176
     2
177
     2
178
     7
271
     2
340
1E4
  0
DIMSTYLE
105
22E
102
{ACAD_REACTORS
330
22F
102
}
330
A
100
AcDbSymbolTableRecord
100
AcDbDimStyleTableRecord
  2
ME10_DIM_2
 70
     0
 41
12.25
 42
0.0
 44
3.5
 73
     0
 74
     0
 77
     1
 78
     8
140
12.25
147
0.625
172
     1
173
     1
176
     2
177
     2
178
     7
271
     2
340
205
  0
DIMSTYLE
105
239
102
{ACAD_REACTORS
330
23A
102
}
330
A
100
AcDbSymbolTableRecord
100
AcDbDimStyleTableRecord
  2
ME10_DIM_3
 70
     0
  3
{\Fgdt;n}<>
 41
12.25
 42
0.0
 44
3.5
 73
     0
 74
     0
 77
     1
 78
     8
140
12.25
147
0.625
172
     1
173
     1
176
     2
177
     2
178
     7
271
     2
340
205
  0
DIMSTYLE
105
244
102
{ACAD_REACTORS
330
245
102
}
330
A
100
AcDbSymbolTableRecord
100
AcDbDimStyleTableRecord
  2
ME10_DIM_4
 70
     0
 41
12.25
 42
0.0
 44
3.5
 73
     0
 74
     0
 77
     1
 78
     8
140
12.25
147
0.625
172
     1
173
     1
176
     2
177
     2
178
     7
271
     2
340
205
  0
DIMSTYLE
105
24F
102
{ACAD_REACTORS
330
250
102
}
330
A
100
AcDbSymbolTableRecord
100
AcDbDimStyleTableRecord
  2
ME10_DIM_5
 70
     0
 41
12.25
 42
0.0
 44
3.5
 73
     0
 74
     0
 77
     1
 78
     8
140
12.25
147
0.625
172
     1
173
     1
176
     2
177
     2
178
     7
271
     2
340
205
  0
DIMSTYLE
105
25A
102
{ACAD_REACTORS
330
25B
102
}
330
A
100
AcDbSymbolTableRecord
100
AcDbDimStyleTableRecord
  2
ME10_DIM_6
 70
     0
 41
12.25
 42
0.0
 44
3.5
 73
     0
 74
     0
 77
     1
 78
     8
140
12.25
147
0.625
172
     1
173
     1
176
     2
177
     2
178
     7
271
     2
340
205
  0
ENDTAB
  0
TABLE
  2
BLOCK_RECORD
  5
1
330
0
100
AcDbSymbolTable
 70
    17
  0
BLOCK_RECORD
  5
1F
330
1
100
AcDbSymbolTableRecord
100
AcDbBlockTableRecord
  2
*Model_Space
340
22
  0
BLOCK_RECORD
  5
1B
330
1
100
AcDbSymbolTableRecord
100
AcDbBlockTableRecord
  2
*Paper_Space
340
1E
  0
BLOCK_RECORD
  5
23
330
1
100
AcDbSymbolTableRecord
100
AcDbBlockTableRecord
  2
*Paper_Space0
340
26
  0
BLOCK_RECORD
  5
36
330
1
100
AcDbSymbolTableRecord
100
AcDbBlockTableRecord
  2
60-1-16-240
340
0
102
{BLKREFS
331
4E
102
}
  0
BLOCK_RECORD
  5
39
330
1
100
AcDbSymbolTableRecord
100
AcDbBlockTableRecord
  2
32-1-16
340
0
102
{BLKREFS
331
4F
102
}
  0
BLOCK_RECORD
  5
3C
330
1
100
AcDbSymbolTableRecord
100
AcDbBlockTableRecord
  2
A10-0A-13
340
0
102
{BLKREFS
331
50
102
}
  0
BLOCK_RECORD
  5
3F
330
1
100
AcDbSymbolTableRecord
100
AcDbBlockTableRecord
  2
36-1A-13-M4
340
0
102
{BLKREFS
331
51
102
}
  0
BLOCK_RECORD
  5
42
330
1
100
AcDbSymbolTableRecord
100
AcDbBlockTableRecord
  2
21-1A
340
0
102
{BLKREFS
331
52
102
}
  0
BLOCK_RECORD
  5
45
330
1
100
AcDbSymbolTableRecord
100
AcDbBlockTableRecord
  2
37-1-13
340
0
102
{BLKREFS
331
53
102
}
  0
BLOCK_RECORD
  5
48
330
1
100
AcDbSymbolTableRecord
100
AcDbBlockTableRecord
  2
42-1
340
0
102
{BLKREFS
331
54
102
}
  0
BLOCK_RECORD
  5
4B
330
1
100
AcDbSymbolTableRecord
100
AcDbBlockTableRecord
  2
_J__A4
340
0
102
{BLKREFS
331
55
102
}
  0
BLOCK_RECORD
  5
20C
330
1
100
AcDbSymbolTableRecord
100
AcDbBlockTableRecord
  2
*D09
340
0
  0
BLOCK_RECORD
  5
215
330
1
100
AcDbSymbolTableRecord
100
AcDbBlockTableRecord
  2
_None
340
0
  0
BLOCK_RECORD
  5
21A
330
1
100
AcDbSymbolTableRecord
100
AcDbBlockTableRecord
  2
*D111
340
0
  0
BLOCK_RECORD
  5
225
330
1
100
AcDbSymbolTableRecord
100
AcDbBlockTableRecord
  2
*D212
340
0
  0
BLOCK_RECORD
  5
230
330
1
100
AcDbSymbolTableRecord
100
AcDbBlockTableRecord
  2
*D313
340
0
  0
BLOCK_RECORD
  5
23B
330
1
100
AcDbSymbolTableRecord
100
AcDbBlockTableRecord
  2
*D414
340
0
  0
BLOCK_RECORD
  5
246
330
1
100
AcDbSymbolTableRecord
100
AcDbBlockTableRecord
  2
*D515
340
0
  0
BLOCK_RECORD
  5
251
330
1
100
AcDbSymbolTableRecord
100
AcDbBlockTableRecord
  2
*D616
340
0
  0
ENDTAB
  0
ENDSEC
  0
SECTION
  2
BLOCKS
  0
BLOCK
  5
20
330
1F
100
AcDbEntity
  8
0
100
AcDbBlockBegin
  2
*Model_Space
 70
     0
 71
     0
 10
0.0
 20
0.0
 30
0.0
  3
*Model_Space
  1

  0
ENDBLK
  5
21
330
1F
100
AcDbEntity
  8
0
100
AcDbBlockEnd
  0
BLOCK
  5
1C
330
1B
100
AcDbEntity
 67
     1
  8
0
100
AcDbBlockBegin
  2
*Paper_Space
 70
     0
 71
     0
 10
0.0
 20
0.0
 30
0.0
  3
*Paper_Space
  1

  0
ENDBLK
  5
1D
330
1B
100
AcDbEntity
 67
     1
  8
0
100
AcDbBlockEnd
  0
BLOCK
  5
24
330
23
100
AcDbEntity
  8
0
100
AcDbBlockBegin
  2
*Paper_Space0
 70
     0
 71
     0
 10
0.0
 20
0.0
 30
0.0
  3
*Paper_Space0
  1

  0
ENDBLK
  5
25
330
23
100
AcDbEntity
  8
0
100
AcDbBlockEnd
  0
BLOCK
  5
37
330
36
100
AcDbEntity
  8
0
100
AcDbBlockBegin
  2
60-1-16-240
 70
     0
 71
     0
 10
403.7093344231127
 20
209.7476935151055
 30
0.0
  3
60-1-16-240
  1

  0
LINE
  5
56
330
36
100
AcDbEntity
  8
1
  6
Continuous
 62
     7
100
AcDbLine
 10
174.8592134632319
 20
245.1137913450993
 30
0.0
 11
174.8592134632319
 21
305.6137913450993
 31
0.0
  0
LINE
  5
57
330
36
100
AcDbEntity
  8
1
  6
Continuous
 62
     7
100
AcDbLine
 10
190.8592134632319
 20
245.1137913450993
 30
0.0
 11
190.8592134632319
 21
305.6137913450993
 31
0.0
  0
LINE
  5
58
330
36
100
AcDbEntity
  8
1
  6
Continuous
 62
     7
100
AcDbLine
 10
175.4728064572458
 20
240.1137913450993
 30
0.0
 11
190.2456204692179
 21
240.1137913450993
 31
0.0
  0
LINE
  5
59
330
36
100
AcDbEntity
  8
1
  6
Continuous
 62
     7
100
AcDbLine
 10
190.8592134632319
 20
245.1137913450993
 30
0.0
 11
174.8592134632319
 21
245.1137913450993
 31
0.0
  0
LINE
  5
5A
330
36
100
AcDbEntity
  8
1
  6
PHANTOM
 62
     4
100
AcDbLine
 10
194.233435657094
 20
448.7962405077045
 30
0.0
 11
171.881262251011
 21
448.7962405077045
 31
0.0
  0
LINE
  5
5B
330
36
100
AcDbEntity
  8
1
  6
Continuous
 62
     7
100
AcDbLine
 10
234.4873620181297
 20
240.1137913450993
 30
0.0
 11
249.2601760301019
 21
240.1137913450993
 31
0.0
  0
LINE
  5
5C
330
36
100
AcDbEntity
  8
1
  6
Continuous
 62
     7
100
AcDbLine
 10
249.8737690241159
 20
245.1137913450993
 30
0.0
 11
233.8737690241159
 21
245.1137913450993
 31
0.0
  0
LINE
  5
5D
330
36
100
AcDbEntity
  8
1
  6
Continuous
 62
     7
100
AcDbLine
 10
514.8755684285266
 20
281.1137913450993
 30
0.0
 11
269.8737690241159
 21
281.1137913450993
 31
0.0
  0
LINE
  5
5E
330
36
100
AcDbEntity
  8
1
  6
Continuous
 62
     7
100
AcDbLine
 10
533.8755684285266
 20
300.1137913450993
 30
0.0
 11
533.8755684285266
 21
305.6137913450993
 31
0.0
  0
LINE
  5
5F
330
36
100
AcDbEntity
  8
1
  6
Continuous
 62
     7
100
AcDbLine
 10
549.8755684285266
 20
305.6137913450993
 30
0.0
 11
549.8755684285266
 21
300.1137913450993
 31
0.0
  0
LINE
  5
60
330
36
100
AcDbEntity
  8
1
  6
Continuous
 62
     7
100
AcDbLine
 10
233.8737690241159
 20
245.1137913450993
 30
0.0
 11
233.8737690241159
 21
246.1137913450993
 31
0.0
  0
LINE
  5
61
330
36
100
AcDbEntity
  8
1
  6
Continuous
 62
     7
100
AcDbLine
 10
249.8737690241159
 20
245.1137913450993
 30
0.0
 11
249.8737690241159
 21
246.1137913450993
 31
0.0
  0
LINE
  5
62
330
36
100
AcDbEntity
  8
1
  6
Continuous
 62
     7
100
AcDbLine
 10
514.8755684285266
 20
265.1137913450993
 30
0.0
 11
269.8737690241159
 21
265.1137913450993
 31
0.0
  0
LINE
  5
63
330
36
100
AcDbEntity
  8
1
  6
Continuous
 62
     7
100
AcDbLine
 10
190.8592134632319
 20
737.2510345283225
 30
0.0
 11
190.8592134632319
 21
448.7962405077045
 31
0.0
  0
LINE
  5
64
330
36
100
AcDbEntity
  8
1
  6
Continuous
 62
     7
100
AcDbLine
 10
174.8592134632319
 20
737.2510345283226
 30
0.0
 11
174.8592134632319
 21
448.7962405077045
 31
0.0
  0
ARC
  5
65
330
36
100
AcDbEntity
  8
1
  6
Continuous
 62
     7
100
AcDbCircle
 10
182.8592134632319
 20
273.1137913450993
 30
0.0
 40
8.0
100
AcDbArc
 50
0.0
 51
180.0
  0
ARC
  5
66
330
36
100
AcDbEntity
  8
1
  6
Continuous
 62
     7
100
AcDbCircle
 10
187.6491871685136
 20
242.970071637877
 30
0.0
 40
3.860026294718276
100
AcDbArc
 50
-47.7283445035822
 51
0.0
  0
ARC
  5
67
330
36
100
AcDbEntity
  8
1
  6
Continuous
 62
     7
100
AcDbCircle
 10
178.06923975795
 20
242.970071637877
 30
0.0
 40
3.860026294718052
100
AcDbArc
 50
146.2642089999709
 51
180.0
  0
ARC
  5
68
330
36
100
AcDbEntity
  8
1
  6
Continuous
 62
     7
100
AcDbCircle
 10
178.06923975795
 20
242.970071637877
 30
0.0
 40
3.860026294718182
100
AcDbArc
 50
180.0
 51
-132.2716554964166
  0
ARC
  5
69
330
36
100
AcDbEntity
  8
1
  6
Continuous
 62
     7
100
AcDbCircle
 10
187.6491871685136
 20
242.970071637877
 30
0.0
 40
3.860026294718182
100
AcDbArc
 50
0.0
 51
33.7357910000275
  0
ARC
  5
6A
330
36
100
AcDbEntity
  8
1
  6
Continuous
 62
     7
100
AcDbCircle
 10
182.8592134632319
 20
448.7962405077045
 30
0.0
 40
8.650000000000029
100
AcDbArc
 50
157.6465744006684
 51
-90.0
  0
ARC
  5
6B
330
36
100
AcDbEntity
  8
1
  6
Continuous
 62
     7
100
AcDbCircle
 10
182.8592134632319
 20
448.7962405077045
 30
0.0
 40
8.650000000000091
100
AcDbArc
 50
-90.0
 51
22.35342559933167
  0
ARC
  5
6C
330
36
100
AcDbEntity
  8
1
  6
Continuous
 62
     7
100
AcDbCircle
 10
182.8592134632319
 20
448.7962405077045
 30
0.0
 40
8.0
100
AcDbArc
 50
180.0
 51
0.0
  0
ARC
  5
6D
330
36
100
AcDbEntity
  8
1
  6
Continuous
 62
     7
100
AcDbCircle
 10
514.8755684285266
 20
300.1137913450993
 30
0.0
 40
35.0
100
AcDbArc
 50
-90.0
 51
0.0
  0
ARC
  5
6E
330
36
100
AcDbEntity
  8
1
  6
Continuous
 62
     7
100
AcDbCircle
 10
514.8755684285266
 20
300.1137913450993
 30
0.0
 40
19.0
100
AcDbArc
 50
-90.0
 51
0.0
  0
ARC
  5
6F
330
36
100
AcDbEntity
  8
1
  6
Continuous
 62
     7
100
AcDbCircle
 10
268.8737690241159
 20
246.1137913450993
 30
0.0
 40
35.0
100
AcDbArc
 50
90.0
 51
180.0
  0
ARC
  5
70
330
36
100
AcDbEntity
  8
1
  6
Continuous
 62
     7
100
AcDbCircle
 10
268.8737690241159
 20
246.1137913450993
 30
0.0
 40
19.0
100
AcDbArc
 50
90.0
 51
180.0
  0
ARC
  5
71
330
36
100
AcDbEntity
  8
1
  6
Continuous
 62
     7
100
AcDbCircle
 10
246.6637427293975
 20
242.970071637877
 30
0.0
 40
3.860026294718334
100
AcDbArc
 50
-47.72834450358126
 51
0.0
  0
ARC
  5
72
330
36
100
AcDbEntity
  8
1
  6
Continuous
 62
     7
100
AcDbCircle
 10
237.083795318834
 20
242.970071637877
 30
0.0
 40
3.860026294718075
100
AcDbArc
 50
146.2642089999711
 51
180.0
  0
ARC
  5
73
330
36
100
AcDbEntity
  8
1
  6
Continuous
 62
     7
100
AcDbCircle
 10
237.083795318834
 20
242.970071637877
 30
0.0
 40
3.86002629471821
100
AcDbArc
 50
180.0
 51
-132.2716554964181
  0
ARC
  5
74
330
36
100
AcDbEntity
  8
1
  6
Continuous
 62
     7
100
AcDbCircle
 10
246.6637427293975
 20
242.970071637877
 30
0.0
 40
3.860026294718182
100
AcDbArc
 50
0.0
 51
33.7357910000268
  0
ENDBLK
  5
38
330
36
100
AcDbEntity
  8
0
100
AcDbBlockEnd
  0
BLOCK
  5
3A
330
39
100
AcDbEntity
  8
0
100
AcDbBlockBegin
  2
32-1-16
 70
     0
 71
     0
 10
245.3298285928577
 20
515.0996234752083
 30
0.0
  3
32-1-16
  1

  0
LINE
  5
75
330
39
100
AcDbEntity
  8
1
  6
Continuous
 62
     7
100
AcDbLine
 10
191.6095098123741
 20
759.9118614967586
 30
0.0
 11
195.6200727741334
 21
757.5963618911846
 31
0.0
  0
LINE
  5
76
330
39
100
AcDbEntity
  8
1
  6
Continuous
 62
     7
100
AcDbLine
 10
174.1089171140897
 20
759.9118614967586
 30
0.0
 11
170.0983541523304
 21
757.5963618911846
 31
0.0
  0
LINE
  5
77
330
39
100
AcDbEntity
  8
1
  6
Continuous
 62
     7
100
AcDbLine
 10
196.8592134632319
 20
307.9006140953862
 30
0.0
 11
196.8592134632319
 21
315.0420425239292
 31
0.0
  0
LINE
  5
78
330
39
100
AcDbEntity
  8
1
  6
Continuous
 62
     7
100
AcDbLine
 10
196.1592134632319
 20
315.6137913450993
 30
0.0
 11
182.8592134632318
 21
315.6137913450993
 31
0.0
  0
LINE
  5
79
330
39
100
AcDbEntity
  8
1
  6
Continuous
 62
     7
100
AcDbLine
 10
194.4172345249625
 20
306.6137913450993
 30
0.0
 11
194.3592134632319
 21
306.6137913450993
 31
0.0
  0
LINE
  5
7A
330
39
100
AcDbEntity
  8
1
  6
Continuous
 62
     7
100
AcDbLine
 10
182.8592134632318
 20
305.6137913450993
 30
0.0
 11
192.627162655663
 21
305.6137913450993
 31
0.0
  0
LINE
  5
7B
330
39
100
AcDbEntity
  8
1
  6
Continuous
 62
     7
100
AcDbLine
 10
191.6575354423015
 20
306.6137913450993
 30
0.0
 11
182.8592134632318
 21
306.6137913450993
 31
0.0
  0
LINE
  5
7C
330
39
100
AcDbEntity
  8
1
  6
Continuous
 62
     7
100
AcDbLine
 10
168.8592134632319
 20
315.0420425239292
 30
0.0
 11
168.8592134632319
 21
307.9006140953862
 31
0.0
  0
LINE
  5
7D
330
39
100
AcDbEntity
  8
1
  6
Continuous
 62
     7
100
AcDbLine
 10
182.8592134632318
 20
315.6137913450993
 30
0.0
 11
169.5592134632318
 21
315.6137913450993
 31
0.0
  0
LINE
  5
7E
330
39
100
AcDbEntity
  8
1
  6
Continuous
 62
     7
100
AcDbLine
 10
171.3592134632318
 20
306.6137913450993
 30
0.0
 11
171.3011924015012
 21
306.6137913450993
 31
0.0
  0
LINE
  5
7F
330
39
100
AcDbEntity
  8
1
  6
Continuous
 62
     7
100
AcDbLine
 10
173.0912642708006
 20
305.6137913450993
 30
0.0
 11
182.8592134632318
 21
305.6137913450993
 31
0.0
  0
LINE
  5
80
330
39
100
AcDbEntity
  8
1
  6
Continuous
 62
     7
100
AcDbLine
 10
182.8592134632318
 20
306.6137913450993
 30
0.0
 11
174.0608914841622
 21
306.6137913450993
 31
0.0
  0
LINE
  5
81
330
39
100
AcDbEntity
  8
1
  6
Continuous
 62
     7
100
AcDbLine
 10
555.1755684285265
 20
315.6137913450993
 30
0.0
 11
541.8755684285266
 21
315.6137913450993
 31
0.0
  0
LINE
  5
82
330
39
100
AcDbEntity
  8
1
  6
Continuous
 62
     7
100
AcDbLine
 10
555.0625684285265
 20
315.6137913450993
 30
0.0
 11
555.1755684285265
 21
315.6137913450993
 31
0.0
  0
LINE
  5
83
330
39
100
AcDbEntity
  8
1
  6
Continuous
 62
     7
100
AcDbLine
 10
553.433589490257
 20
306.6137913450993
 30
0.0
 11
553.3755684285266
 21
306.6137913450993
 31
0.0
  0
LINE
  5
84
330
39
100
AcDbEntity
  8
1
  6
Continuous
 62
     7
100
AcDbLine
 10
541.8755684285266
 20
305.6137913450993
 30
0.0
 11
551.6435176209576
 21
305.6137913450993
 31
0.0
  0
LINE
  5
85
330
39
100
AcDbEntity
  8
1
  6
Continuous
 62
     7
100
AcDbLine
 10
550.6738904075961
 20
306.6137913450993
 30
0.0
 11
541.8755684285266
 21
306.6137913450993
 31
0.0
  0
LINE
  5
86
330
39
100
AcDbEntity
  8
1
  6
Continuous
 62
     7
100
AcDbLine
 10
184.0983541523304
 20
733.3476505852204
 30
0.0
 11
195.6200727741334
 21
739.9997179330455
 31
0.0
  0
LINE
  5
87
330
39
100
AcDbEntity
  8
1
  6
Continuous
 62
     7
100
AcDbLine
 10
170.0983541523304
 20
739.9997179330455
 30
0.0
 11
181.6200727741334
 21
733.3476505852204
 31
0.0
  0
LINE
  5
88
330
39
100
AcDbEntity
  8
1
  6
Continuous
 62
     7
100
AcDbLine
 10
168.8592134632319
 20
755.4501072599401
 30
0.0
 11
168.8592134632319
 21
742.14597256429
 31
0.0
  0
LINE
  5
89
330
39
100
AcDbEntity
  8
1
  6
Continuous
 62
     7
100
AcDbLine
 10
196.8592134632319
 20
755.4501072599401
 30
0.0
 11
196.8592134632319
 21
742.14597256429
 31
0.0
  0
LINE
  5
8A
330
39
100
AcDbEntity
  8
1
  6
Continuous
 62
     7
100
AcDbLine
 10
541.8755684285266
 20
315.6137913450993
 30
0.0
 11
528.5755684285264
 21
315.6137913450993
 31
0.0
  0
LINE
  5
8B
330
39
100
AcDbEntity
  8
1
  6
Continuous
 62
     7
100
AcDbLine
 10
528.5755684285264
 20
315.6137913450993
 30
0.0
 11
528.6885684285264
 21
315.6137913450993
 31
0.0
  0
LINE
  5
8C
330
39
100
AcDbEntity
  8
1
  6
Continuous
 62
     7
100
AcDbLine
 10
530.3755684285266
 20
306.6137913450993
 30
0.0
 11
530.3175473667959
 21
306.6137913450993
 31
0.0
  0
LINE
  5
8D
330
39
100
AcDbEntity
  8
1
  6
Continuous
 62
     7
100
AcDbLine
 10
532.1076192360954
 20
305.6137913450993
 30
0.0
 11
541.8755684285266
 21
305.6137913450993
 31
0.0
  0
LINE
  5
8E
330
39
100
AcDbEntity
  8
1
  6
Continuous
 62
     7
100
AcDbLine
 10
541.8755684285266
 20
306.6137913450993
 30
0.0
 11
533.0772464494569
 21
306.6137913450993
 31
0.0
  0
ARC
  5
8F
330
39
100
AcDbEntity
  8
1
  6
Continuous
 62
     7
100
AcDbCircle
 10
193.3592134632319
 20
311.4713283096577
 30
0.0
 40
5.000000000000057
100
AcDbArc
 50
45.57299599919494
 51
55.94420225743207
  0
ARC
  5
90
330
39
100
AcDbEntity
  8
1
  6
Continuous
 62
     7
100
AcDbCircle
 10
193.3592134632319
 20
311.4713283096577
 30
0.0
 40
4.999999999999992
100
AcDbArc
 50
-74.66244233044557
 51
-45.57299599919494
  0
ARC
  5
91
330
39
100
AcDbEntity
  8
1
  6
Continuous
 62
     7
100
AcDbCircle
 10
172.3592134632318
 20
311.4713283096577
 30
0.0
 40
5.000000000000017
100
AcDbArc
 50
124.0557977425679
 51
134.4270040008044
  0
ARC
  5
92
330
39
100
AcDbEntity
  8
1
  6
Continuous
 62
     7
100
AcDbCircle
 10
172.3592134632318
 20
311.4713283096577
 30
0.0
 40
4.999999999999997
100
AcDbArc
 50
-134.4270040008044
 51
-105.3375576695554
  0
ARC
  5
93
330
39
100
AcDbEntity
  8
1
  6
Continuous
 62
     7
100
AcDbCircle
 10
552.3755684285266
 20
311.4713283096577
 30
0.0
 40
4.99999999999997
100
AcDbArc
 50
-74.66244233044651
 51
55.94420225743261
  0
ARC
  5
94
330
39
100
AcDbEntity
  8
1
  6
Continuous
 62
     7
100
AcDbCircle
 10
182.8592134632319
 20
748.7980399121151
 30
0.0
 40
15.5
100
AcDbArc
 50
-90.0
 51
-85.41462091516117
  0
ARC
  5
95
330
39
100
AcDbEntity
  8
1
  6
Continuous
 62
     7
100
AcDbCircle
 10
182.8592134632319
 20
748.7980399121151
 30
0.0
 40
15.50000000000001
100
AcDbArc
 50
-34.58537908483871
 51
-25.41462091516118
  0
ARC
  5
96
330
39
100
AcDbEntity
  8
1
  6
Continuous
 62
     7
100
AcDbCircle
 10
182.8592134632319
 20
748.7980399121151
 30
0.0
 40
15.49999999999999
100
AcDbArc
 50
-94.58537908483883
 51
-90.0
  0
ARC
  5
97
330
39
100
AcDbEntity
  8
1
  6
Continuous
 62
     7
100
AcDbCircle
 10
182.8592134632319
 20
748.7980399121151
 30
0.0
 40
15.50000000000003
100
AcDbArc
 50
-154.5853790848388
 51
-145.4146209151613
  0
ARC
  5
98
330
39
100
AcDbEntity
  8
1
  6
Continuous
 62
     7
100
AcDbCircle
 10
182.8592134632319
 20
748.7980399121151
 30
0.0
 40
15.50000000000001
100
AcDbArc
 50
145.4146209151613
 51
154.5853790848392
  0
ARC
  5
99
330
39
100
AcDbEntity
  8
1
  6
Continuous
 62
     7
100
AcDbCircle
 10
182.8592134632319
 20
748.7980399121151
 30
0.0
 40
15.49999999999998
100
AcDbArc
 50
25.4146209151608
 51
34.58537908483871
  0
ARC
  5
9A
330
39
100
AcDbEntity
  8
1
  6
Continuous
 62
     7
100
AcDbCircle
 10
531.3755684285266
 20
311.4713283096577
 30
0.0
 40
5.000000000000112
100
AcDbArc
 50
124.0557977425696
 51
-105.337557669556
  0
SPLINE
  5
9B
330
39
100
AcDbEntity
  8
1
  6
Continuous
 62
     7
100
AcDbSpline
210
0.0
220
0.0
230
1.0
 70
    11
 71
     3
 72
    79
 73
    75
 74
    73
 42
0.0000000001
 43
0.0000000001
 44
0.00000001
 40
0.0
 40
0.0
 40
0.0
 40
0.0
 40
0.2910229153817728
 40
0.5820342278737916
 40
0.8749339334364084
 40
1.16781254751938
 40
1.463561188767358
 40
1.759282806464964
 40
2.058487811140804
 40
2.35766388560603
 40
2.660503341347679
 40
2.963315625194792
 40
3.269530826276654
 40
3.575723468843873
 40
3.884662744191545
 40
4.193586027919087
 40
4.504289085610754
 40
4.814983882015438
 40
5.126294430971257
 40
5.437604979927132
 40
5.748299776331773
 40
6.059002834023361
 40
6.367926117750936
 40
6.676865393098514
 40
6.983058035665783
 40
7.289273236747587
 40
7.592085520594746
 40
7.894924976336513
 40
8.194101050801578
 40
8.49330605547763
 40
8.789027673175141
 40
9.084776314423049
 40
9.37765492850602
 40
9.670554634068637
 40
9.961565946560629
 40
10.25258886194252
 40
10.54295309984934
 40
10.83331733775638
 40
11.12434025313828
 40
11.41535156563005
 40
11.70825127119277
 40
12.00112988527564
 40
12.29687852652375
 40
12.59260014422126
 40
12.89180514889713
 40
13.19098122336236
 40
13.49382067910401
 40
13.79663296295112
 40
14.10284816403288
 40
14.40904080660019
 40
14.71798008194783
 40
15.02690336567535
 40
15.33760642336701
 40
15.64830121977168
 40
15.95961176872756
 40
16.27092231768339
 40
16.58161711408813
 40
16.89232017177963
 40
17.20124345550726
 40
17.51018273085488
 40
17.8163753734222
 40
18.12259057450405
 40
18.42540285835112
 40
18.72824231409277
 40
19.027418388558
 40
19.32662339323387
 40
19.62234501093136
 40
19.91809365217933
 40
20.2109722662623
 40
20.50387197182481
 40
20.79488328431694
 40
21.08590619969872
 40
21.37627043760565
 40
21.66663467551269
 40
21.66663467551269
 40
21.66663467551269
 40
21.66663467551269
 10
530.0412562302948
 20
315.0283975610589
 30
0.0
 10
530.1376312890117
 20
315.0167218932575
 30
0.0
 10
530.3303775640362
 20
314.993371023156
 30
0.0
 10
530.6143140733011
 20
314.9240150297054
 30
0.0
 10
530.89157833916
 20
314.8305722721298
 30
0.0
 10
531.16033072301
 20
314.7106652861527
 30
0.0
 10
531.4179761065298
 20
314.5666197809654
 30
0.0
 10
531.6632030537646
 20
314.39855318012
 30
0.0
 10
531.8934664098217
 20
314.2087184470461
 30
0.0
 10
532.1076986183376
 20
313.9975823183787
 30
0.0
 10
532.3036530471005
 20
313.7678027147449
 30
0.0
 10
532.4804103907214
 20
313.5200741825207
 30
0.0
 10
532.6361812246882
 20
313.2573419426867
 30
0.0
 10
532.7701496420574
 20
312.9805909310449
 30
0.0
 10
532.8810726733429
 20
312.6928589532813
 30
0.0
 10
532.9682494657141
 20
312.3955055068585
 30
0.0
 10
533.0309974758071
 20
312.0914595107154
 30
0.0
 10
533.0687978550193
 20
311.7825179149612
 30
0.0
 10
533.0814749285077
 20
311.4713283096586
 30
0.0
 10
533.0687978550195
 20
311.1601387043502
 30
0.0
 10
533.0309974758059
 20
310.8511971086131
 30
0.0
 10
532.9682494657187
 20
310.5471511124082
 30
0.0
 10
532.8810726733259
 20
310.2497976662146
 30
0.0
 10
532.7701496421205
 20
309.9620656875997
 30
0.0
 10
532.6361812244552
 20
309.6853146791077
 30
0.0
 10
532.4804103915877
 20
309.4225824275833
 30
0.0
 10
532.3036530439065
 20
309.1748539385252
 30
0.0
 10
532.1076986302031
 20
308.9450741748042
 30
0.0
 10
531.893466366132
 20
308.7339386366966
 30
0.0
 10
531.6632032160977
 20
308.544101713569
 30
0.0
 10
531.4179755085022
 20
308.376043195474
 30
0.0
 10
531.1603329468233
 20
308.2319676936812
 30
0.0
 10
530.8915701289317
 20
308.1121716232015
 30
0.0
 10
530.6143446432394
 20
308.0183166263601
 30
0.0
 10
530.3302642897368
 20
307.9504897197704
 30
0.0
 10
530.0418968092238
 20
307.9097947581467
 30
0.0
 10
529.7512127755445
 20
307.8960289645817
 30
0.0
 10
529.4605287418649
 20
307.9097947581467
 30
0.0
 10
529.1721612613519
 20
307.9504897197703
 30
0.0
 10
528.8880809078494
 20
308.0183166263602
 30
0.0
 10
528.610855422157
 20
308.1121716232013
 30
0.0
 10
528.3420926042658
 20
308.2319676936812
 30
0.0
 10
528.0844500425864
 20
308.3760431954741
 30
0.0
 10
527.8392223349912
 20
308.544101713569
 30
0.0
 10
527.6089591849567
 20
308.7339386366966
 30
0.0
 10
527.3947269208857
 20
308.9450741748045
 30
0.0
 10
527.1987725071825
 20
309.1748539385253
 30
0.0
 10
527.0220151595011
 20
309.4225824275834
 30
0.0
 10
526.8662443266339
 20
309.6853146791077
 30
0.0
 10
526.7322759089682
 20
309.9620656875997
 30
0.0
 10
526.621352877763
 20
310.2497976662145
 30
0.0
 10
526.5341760853701
 20
310.5471511124083
 30
0.0
 10
526.4714280752829
 20
310.851197108613
 30
0.0
 10
526.4336276960693
 20
311.1601387043505
 30
0.0
 10
526.4209506225811
 20
311.4713283096579
 30
0.0
 10
526.4336276960692
 20
311.7825179149646
 30
0.0
 10
526.4714280752833
 20
312.0914595107034
 30
0.0
 10
526.5341760853695
 20
312.3955055069037
 30
0.0
 10
526.621352877764
 20
312.6928589531138
 30
0.0
 10
526.7322759089639
 20
312.9805909316677
 30
0.0
 10
526.8662443266504
 20
313.2573419403855
 30
0.0
 10
527.0220151594389
 20
313.5200741910716
 30
0.0
 10
527.1987725074116
 20
313.7678026832252
 30
0.0
 10
527.3947269200345
 20
313.9975824354655
 30
0.0
 10
527.60895918809
 20
314.2087180159252
 30
0.0
 10
527.8392223233493
 20
314.3985547819935
 30
0.0
 10
528.0844500854737
 20
314.5666138797409
 30
0.0
 10
528.3420924447855
 20
314.7106872303346
 30
0.0
 10
528.6108560109516
 20
314.8304912550917
 30
0.0
 10
528.8880787155338
 20
314.9243166882969
 30
0.0
 10
529.17216938479
 20
314.992253252969
 30
0.0
 10
529.4604984458612
 20
315.0325398098857
 30
0.0
 10
529.7513255585268
 20
315.0478265555695
 30
0.0
 10
529.9446126730388
 20
315.0348738925625
 30
0.0
 10
530.0412562302948
 20
315.0283975610589
 30
0.0
 11
530.0412562302948
 21
315.0283975610589
 31
0.0
 11
530.3294157265697
 21
314.9876735879724
 31
0.0
 11
530.6124979329522
 21
314.920204717907
 31
0.0
 11
530.889921975496
 21
314.8262571892682
 31
0.0
 11
531.1574837276135
 21
314.7071413154688
 31
0.0
 11
531.4156160963287
 21
314.5627981860116
 31
0.0
 11
531.6596287489399
 21
314.3957380155959
 31
0.0
 11
531.8905082544707
 21
314.2054269839952
 31
0.0
 11
532.1036835494219
 21
313.9955160096397
 31
0.0
 11
532.3002178734301
 21
313.7651120265132
 31
0.0
 11
532.4761914092298
 21
313.5186803038255
 31
0.0
 11
532.6323885497027
 21
313.2552980669876
 31
0.0
 11
532.7658842376668
 21
312.9797389342098
 31
0.0
 11
532.877034163224
 21
312.6914870133125
 31
0.0
 11
532.9640108172503
 21
312.3950605352721
 31
0.0
 11
533.0268158915718
 21
312.0907713427292
 31
0.0
 11
533.0645912532434
 21
311.7823815268087
 31
0.0
 11
533.077246449457
 21
311.4713283096577
 31
0.0
 11
533.0645912532434
 21
311.1602750925067
 31
0.0
 11
533.0268158915717
 21
310.8518852765861
 31
0.0
 11
532.9640108172503
 21
310.5475960840433
 31
0.0
 11
532.8770341632239
 21
310.2511696060029
 31
0.0
 11
532.7658842376668
 21
309.9629176851057
 31
0.0
 11
532.6323885497026
 21
309.6873585523279
 31
0.0
 11
532.4761914092298
 21
309.42397631549
 31
0.0
 11
532.3002178734301
 21
309.1775445928022
 31
0.0
 11
532.1036835494218
 21
308.9471406096757
 31
0.0
 11
531.8905082544707
 21
308.7372296353203
 31
0.0
 11
531.6596287489397
 21
308.5469186037195
 31
0.0
 11
531.4156160963286
 21
308.3798584333038
 31
0.0
 11
531.1574837276135
 21
308.2355153038466
 31
0.0
 11
530.889921975496
 21
308.1163994300471
 31
0.0
 11
530.6124979329522
 21
308.0224519014083
 31
0.0
 11
530.3294157265697
 21
307.954983031343
 31
0.0
 11
530.0412562302947
 21
307.9142590582566
 31
0.0
 11
529.7512127755445
 21
307.9006140953863
 31
0.0
 11
529.4611693207939
 21
307.9142590582566
 31
0.0
 11
529.173009824519
 21
307.954983031343
 31
0.0
 11
528.8899276181367
 21
308.0224519014083
 31
0.0
 11
528.6125035755928
 21
308.1163994300471
 31
0.0
 11
528.3449418234754
 21
308.2355153038466
 31
0.0
 11
528.0868094547601
 21
308.3798584333038
 31
0.0
 11
527.842796802149
 21
308.5469186037195
 31
0.0
 11
527.6119172966182
 21
308.7372296353203
 31
0.0
 11
527.398742001667
 21
308.9471406096758
 31
0.0
 11
527.2022076776588
 21
309.1775445928022
 31
0.0
 11
527.0262341418591
 21
309.42397631549
 31
0.0
 11
526.8700370013863
 21
309.6873585523278
 31
0.0
 11
526.736541313422
 21
309.9629176851057
 31
0.0
 11
526.6253913878649
 21
310.2511696060029
 31
0.0
 11
526.5384147338385
 21
310.5475960840432
 31
0.0
 11
526.475609659517
 21
310.8518852765861
 31
0.0
 11
526.4378342978455
 21
311.1602750925067
 31
0.0
 11
526.4251791016318
 21
311.4713283096577
 31
0.0
 11
526.4378342978455
 21
311.7823815268087
 31
0.0
 11
526.4756096595171
 21
312.0907713427293
 31
0.0
 11
526.5384147338384
 21
312.3950605352721
 31
0.0
 11
526.6253913878647
 21
312.6914870133126
 31
0.0
 11
526.736541313422
 21
312.9797389342098
 31
0.0
 11
526.8700370013863
 21
313.2552980669876
 31
0.0
 11
527.0262341418591
 21
313.5186803038255
 31
0.0
 11
527.2022076776588
 21
313.7651120265132
 31
0.0
 11
527.398742001667
 21
313.9955160096397
 31
0.0
 11
527.6119172966182
 21
314.2054269839952
 31
0.0
 11
527.842796802149
 21
314.395738015596
 31
0.0
 11
528.0868094547601
 21
314.5627981860116
 31
0.0
 11
528.3449418234753
 21
314.7071413154688
 31
0.0
 11
528.6125035755928
 21
314.8262571892682
 31
0.0
 11
528.8899276181364
 21
314.920204717907
 31
0.0
 11
529.1730098245191
 21
314.9876735879724
 31
0.0
 11
529.4611693207939
 21
315.0283975610589
 31
0.0
 11
529.7512127755443
 21
315.0420425239291
 31
0.0
 11
530.0412562302948
 21
315.0283975610589
 31
0.0
  0
SPLINE
  5
9C
330
39
100
AcDbEntity
  8
1
  6
Continuous
 62
     7
100
AcDbSpline
210
0.0
220
0.0
230
1.0
 70
    11
 71
     3
 72
    79
 73
    75
 74
    73
 42
0.0000000001
 43
0.0000000001
 44
0.00000001
 40
0.0
 40
0.0
 40
0.0
 40
0.0
 40
0.2910229153817728
 40
0.5820342278737916
 40
0.874933933436516
 40
1.167812547519383
 40
1.463561188767362
 40
1.759282806464873
 40
2.058487811140714
 40
2.357663885605939
 40
2.660503341347589
 40
2.963315625194702
 40
3.269530826276564
 40
3.575723468843833
 40
3.884662744191505
 40
4.193586027919079
 40
4.5042890856107
 40
4.814983882015384
 40
5.126294430971198
 40
5.437604979927069
 40
5.74829977633171
 40
6.059002834023298
 40
6.367926117750873
 40
6.676865393098451
 40
6.98305803566567
 40
7.289273236747532
 40
7.592085520594625
 40
7.894924976336392
 40
8.194101050801537
 40
8.493306055477413
 40
8.789027673175019
 40
9.084776314423024
 40
9.377654928505892
 40
9.670554634068617
 40
9.9615659465605
 40
10.25258886194228
 40
10.54295309984932
 40
10.83331733775637
 40
11.12434025313826
 40
11.41535156563003
 40
11.70825127119265
 40
12.00112988527562
 40
12.29687852652363
 40
12.59260014422123
 40
12.8918051488972
 40
13.19098122336234
 40
13.49382067910399
 40
13.7966329629511
 40
14.10284816403292
 40
14.40904080660014
 40
14.71798008194777
 40
15.02690336567529
 40
15.33760642336693
 40
15.64830121977163
 40
15.95961176872751
 40
16.27092231768333
 40
16.58161711408807
 40
16.89232017177962
 40
17.20124345550722
 40
17.51018273085479
 40
17.81637537342206
 40
18.12259057450397
 40
18.42540285835097
 40
18.7282423140927
 40
19.02741838855784
 40
19.32662339323381
 40
19.62234501093129
 40
19.91809365217937
 40
20.21097226626223
 40
20.50387197182496
 40
20.79488328431686
 40
21.08590619969865
 40
21.37627043760568
 40
21.66663467551272
 40
21.66663467551272
 40
21.66663467551272
 40
21.66663467551272
 10
553.7098806267582
 20
315.0283975610589
 30
0.0
 10
553.6135055680412
 20
315.0167218932575
 30
0.0
 10
553.4207592930168
 20
314.993371023156
 30
0.0
 10
553.1368227837517
 20
314.9240150297053
 30
0.0
 10
552.8595585178932
 20
314.83057227213
 30
0.0
 10
552.5908061340429
 20
314.7106652861526
 30
0.0
 10
552.3331607505231
 20
314.5666197809655
 30
0.0
 10
552.0879338032884
 20
314.39855318012
 30
0.0
 10
551.8576704472314
 20
314.2087184470461
 30
0.0
 10
551.6434382387153
 20
313.9975823183788
 30
0.0
 10
551.4474838099525
 20
313.7678027147449
 30
0.0
 10
551.2707264663319
 20
313.5200741825206
 30
0.0
 10
551.1149556323647
 20
313.2573419426867
 30
0.0
 10
550.9809872149956
 20
312.9805909310448
 30
0.0
 10
550.8700641837102
 20
312.6928589532814
 30
0.0
 10
550.7828873913387
 20
312.3955055068585
 30
0.0
 10
550.720139381246
 20
312.0914595107155
 30
0.0
 10
550.6823390020338
 20
311.7825179149613
 30
0.0
 10
550.6696619285457
 20
311.4713283096587
 30
0.0
 10
550.6823390020334
 20
311.1601387043502
 30
0.0
 10
550.7201393812472
 20
310.8511971086131
 30
0.0
 10
550.7828873913343
 20
310.5471511124082
 30
0.0
 10
550.8700641837272
 20
310.2497976662145
 30
0.0
 10
550.9809872149326
 20
309.9620656875998
 30
0.0
 10
551.1149556325979
 20
309.6853146791075
 30
0.0
 10
551.2707264654653
 20
309.4225824275835
 30
0.0
 10
551.4474838131466
 20
309.1748539385251
 30
0.0
 10
551.6434382268498
 20
308.9450741748043
 30
0.0
 10
551.857670490921
 20
308.7339386366966
 30
0.0
 10
552.0879336409554
 20
308.544101713569
 30
0.0
 10
552.3331613485505
 20
308.376043195474
 30
0.0
 10
552.5908039102301
 20
308.2319676936812
 30
0.0
 10
552.8595667281213
 20
308.1121716232015
 30
0.0
 10
553.1367922138137
 20
308.0183166263602
 30
0.0
 10
553.420872567316
 20
307.9504897197703
 30
0.0
 10
553.7092400478292
 20
307.9097947581468
 30
0.0
 10
553.9999240815085
 20
307.8960289645817
 30
0.0
 10
554.2906081151883
 20
307.9097947581468
 30
0.0
 10
554.5789755957011
 20
307.9504897197703
 30
0.0
 10
554.8630559492036
 20
308.0183166263602
 30
0.0
 10
555.140281434896
 20
308.1121716232015
 30
0.0
 10
555.4090442527872
 20
308.2319676936811
 30
0.0
 10
555.6666868144666
 20
308.376043195474
 30
0.0
 10
555.9119145220619
 20
308.544101713569
 30
0.0
 10
556.1421776720964
 20
308.7339386366965
 30
0.0
 10
556.3564099361677
 20
308.9450741748045
 30
0.0
 10
556.5523643498706
 20
309.1748539385252
 30
0.0
 10
556.7291216975521
 20
309.4225824275834
 30
0.0
 10
556.8848925304195
 20
309.6853146791076
 30
0.0
 10
557.0188609480846
 20
309.9620656875997
 30
0.0
 10
557.12978397929
 20
310.2497976662145
 30
0.0
 10
557.2169607716829
 20
310.5471511124082
 30
0.0
 10
557.2797087817698
 20
310.851197108613
 30
0.0
 10
557.317509160984
 20
311.1601387043505
 30
0.0
 10
557.3301862344717
 20
311.4713283096578
 30
0.0
 10
557.317509160984
 20
311.7825179149647
 30
0.0
 10
557.2797087817698
 20
312.0914595107033
 30
0.0
 10
557.2169607716833
 20
312.3955055069037
 30
0.0
 10
557.129783979289
 20
312.6928589531138
 30
0.0
 10
557.0188609480894
 20
312.9805909316676
 30
0.0
 10
556.8848925304027
 20
313.2573419403856
 30
0.0
 10
556.7291216976141
 20
313.5200741910714
 30
0.0
 10
556.5523643496417
 20
313.7678026832254
 30
0.0
 10
556.3564099370185
 20
313.9975824354655
 30
0.0
 10
556.1421776689632
 20
314.2087180159252
 30
0.0
 10
555.9119145337038
 20
314.3985547819937
 30
0.0
 10
555.6666867715794
 20
314.5666138797409
 30
0.0
 10
555.4090444122676
 20
314.7106872303347
 30
0.0
 10
555.1402808461015
 20
314.8304912550917
 30
0.0
 10
554.8630581415191
 20
314.9243166882969
 30
0.0
 10
554.578967472263
 20
314.992253252969
 30
0.0
 10
554.2906384111918
 20
315.0325398098856
 30
0.0
 10
553.9998112985261
 20
315.0478265555696
 30
0.0
 10
553.8065241840141
 20
315.0348738925624
 30
0.0
 10
553.7098806267582
 20
315.0283975610589
 30
0.0
 11
553.7098806267582
 21
315.0283975610589
 31
0.0
 11
553.4217211304833
 21
314.9876735879724
 31
0.0
 11
553.1386389241008
 21
314.920204717907
 31
0.0
 11
552.8612148815569
 21
314.8262571892682
 31
0.0
 11
552.5936531294395
 21
314.7071413154688
 31
0.0
 11
552.3355207607243
 21
314.5627981860116
 31
0.0
 11
552.0915081081132
 21
314.3957380155959
 31
0.0
 11
551.8606286025824
 21
314.2054269839952
 31
0.0
 11
551.6474533076312
 21
313.9955160096397
 31
0.0
 11
551.450918983623
 21
313.7651120265132
 31
0.0
 11
551.2749454478233
 21
313.5186803038255
 31
0.0
 11
551.1187483073504
 21
313.2552980669876
 31
0.0
 11
550.9852526193862
 21
312.9797389342098
 31
0.0
 11
550.874102693829
 21
312.6914870133125
 31
0.0
 11
550.7871260398026
 21
312.3950605352721
 31
0.0
 11
550.7243209654813
 21
312.0907713427292
 31
0.0
 11
550.6865456038097
 21
311.7823815268087
 31
0.0
 11
550.6738904075962
 21
311.4713283096577
 31
0.0
 11
550.6865456038097
 21
311.1602750925067
 31
0.0
 11
550.7243209654814
 21
310.8518852765861
 31
0.0
 11
550.7871260398028
 21
310.5475960840433
 31
0.0
 11
550.8741026938292
 21
310.2511696060029
 31
0.0
 11
550.9852526193863
 21
309.9629176851057
 31
0.0
 11
551.1187483073504
 21
309.6873585523279
 31
0.0
 11
551.2749454478233
 21
309.42397631549
 31
0.0
 11
551.4509189836228
 21
309.1775445928022
 31
0.0
 11
551.6474533076312
 21
308.9471406096757
 31
0.0
 11
551.8606286025824
 21
308.7372296353203
 31
0.0
 11
552.0915081081132
 21
308.5469186037195
 31
0.0
 11
552.3355207607244
 21
308.3798584333038
 31
0.0
 11
552.5936531294396
 21
308.2355153038466
 31
0.0
 11
552.861214881557
 21
308.1163994300471
 31
0.0
 11
553.1386389241009
 21
308.0224519014083
 31
0.0
 11
553.4217211304833
 21
307.954983031343
 31
0.0
 11
553.7098806267582
 21
307.9142590582566
 31
0.0
 11
553.9999240815087
 21
307.9006140953863
 31
0.0
 11
554.2899675362592
 21
307.9142590582566
 31
0.0
 11
554.5781270325341
 21
307.954983031343
 31
0.0
 11
554.8612092389164
 21
308.0224519014083
 31
0.0
 11
555.1386332814602
 21
308.1163994300471
 31
0.0
 11
555.4061950335777
 21
308.2355153038466
 31
0.0
 11
555.6643274022929
 21
308.3798584333038
 31
0.0
 11
555.9083400549041
 21
308.5469186037195
 31
0.0
 11
556.139219560435
 21
308.7372296353203
 31
0.0
 11
556.3523948553861
 21
308.9471406096758
 31
0.0
 11
556.5489291793944
 21
309.1775445928022
 31
0.0
 11
556.7249027151941
 21
309.42397631549
 31
0.0
 11
556.8810998556669
 21
309.6873585523278
 31
0.0
 11
557.014595543631
 21
309.9629176851057
 31
0.0
 11
557.1257454691881
 21
310.2511696060029
 31
0.0
 11
557.2127221232145
 21
310.5475960840432
 31
0.0
 11
557.2755271975359
 21
310.8518852765861
 31
0.0
 11
557.3133025592076
 21
311.1602750925067
 31
0.0
 11
557.3259577554212
 21
311.4713283096577
 31
0.0
 11
557.3133025592076
 21
311.7823815268087
 31
0.0
 11
557.275527197536
 21
312.0907713427293
 31
0.0
 11
557.2127221232145
 21
312.3950605352721
 31
0.0
 11
557.1257454691883
 21
312.6914870133126
 31
0.0
 11
557.0145955436311
 21
312.9797389342098
 31
0.0
 11
556.8810998556669
 21
313.2552980669876
 31
0.0
 11
556.7249027151941
 21
313.5186803038255
 31
0.0
 11
556.5489291793945
 21
313.7651120265132
 31
0.0
 11
556.3523948553861
 21
313.9955160096397
 31
0.0
 11
556.139219560435
 21
314.2054269839952
 31
0.0
 11
555.9083400549041
 21
314.395738015596
 31
0.0
 11
555.664327402293
 21
314.5627981860116
 31
0.0
 11
555.4061950335777
 21
314.7071413154688
 31
0.0
 11
555.1386332814603
 21
314.8262571892682
 31
0.0
 11
554.8612092389164
 21
314.920204717907
 31
0.0
 11
554.578127032534
 21
314.9876735879724
 31
0.0
 11
554.2899675362592
 21
315.0283975610589
 31
0.0
 11
553.9999240815087
 21
315.0420425239291
 31
0.0
 11
553.7098806267582
 21
315.0283975610589
 31
0.0
  0
SPLINE
  5
9D
330
39
100
AcDbEntity
  8
1
  6
Continuous
 62
     7
100
AcDbSpline
210
0.0
220
0.0
230
1.0
 70
    11
 71
     3
 72
    79
 73
    75
 74
    73
 42
0.0000000001
 43
0.0000000001
 44
0.00000001
 40
0.0
 40
0.0
 40
0.0
 40
0.0
 40
0.3261285623000833
 40
0.6517434317455976
 40
1.007597961146678
 40
1.362821877734713
 40
1.75992776617655
 40
2.156564335175316
 40
2.599261974949906
 40
3.041659941790261
 40
3.528366327138964
 40
4.014888773111824
 40
4.539679837310207
 40
5.064360628292828
 40
5.618299489951048
 40
6.172176031948066
 40
6.744347787841564
 40
7.316491366549498
 40
7.894854140806217
 40
8.473216915063048
 40
9.045360493771096
 40
9.617532249664594
 40
10.17140879166162
 40
10.72534765331995
 40
11.25002844430246
 40
11.77481950850085
 40
12.26134195447371
 40
12.74804833982241
 40
13.19044630666292
 40
13.63314394643754
 40
14.02978051543618
 40
14.4268864038779
 40
14.78211032046589
 40
15.13796484986706
 40
15.46357971931272
 40
15.78970828161275
 40
16.10463414862423
 40
16.4195600156357
 40
16.74568857793578
 40
17.0713034473813
 40
17.42715797678248
 40
17.78238189337035
 40
18.17948778181215
 40
18.57612435081088
 40
19.01882199058556
 40
19.46121995742601
 40
19.94792634277474
 40
20.43444878874752
 40
20.95923985294588
 40
21.48392064392852
 40
22.03785950558676
 40
22.59173604758377
 40
23.16390780347728
 40
23.73605138218521
 40
24.31441415644204
 40
24.89277693069876
 40
25.46492050940681
 40
26.03709226530032
 40
26.59096880729732
 40
27.14490766895566
 40
27.66958845993828
 40
28.19437952413657
 40
28.68090197010935
 40
29.16760835545798
 40
29.6100063222985
 40
30.05270396207312
 40
30.4493405310719
 40
30.84644641951366
 40
31.2016703361016
 40
31.55752486550273
 40
31.88313973494835
 40
32.20926829724844
 40
32.52419416425985
 40
32.83912003127133
 40
32.83912003127133
 40
32.83912003127133
 40
32.83912003127133
 10
548.5013476689203
 20
311.1575015467444
 30
0.0
 10
548.4787904726287
 20
311.0509085185097
 30
0.0
 10
548.4337116104219
 20
310.8378903592543
 30
0.0
 10
548.2991842466547
 20
310.5280618469064
 30
0.0
 10
548.1224403387701
 20
310.2302679163597
 30
0.0
 10
547.8935592071755
 20
309.9391122146753
 30
0.0
 10
547.6243412561181
 20
309.6657104812024
 30
0.0
 10
547.3070712644554
 20
309.401741888372
 30
0.0
 10
546.9550186451772
 20
309.1587272239127
 30
0.0
 10
546.5591453120348
 20
308.9290652345804
 30
0.0
 10
546.1344366589647
 20
308.7225071360021
 30
0.0
 10
545.6719192742301
 20
308.5334980096793
 30
0.0
 10
545.1866785525435
 20
308.3691785781288
 30
0.0
 10
544.6714370250567
 20
308.2261582561966
 30
0.0
 10
544.1397715807347
 20
308.1090018233543
 30
0.0
 10
543.5873224686559
 20
308.0160247994489
 30
0.0
 10
543.0249314822521
 20
307.9497034844103
 30
0.0
 10
542.4519147456758
 20
307.9093558686562
 30
0.0
 10
541.8755684285302
 20
307.8960650815632
 30
0.0
 10
541.2992221113623
 20
307.909355868654
 30
0.0
 10
540.7262053748525
 20
307.9497034844189
 30
0.0
 10
540.1638143882077
 20
308.016024799417
 30
0.0
 10
539.6113652769986
 20
308.109001823469
 30
0.0
 10
539.0796998295109
 20
308.2261582557775
 30
0.0
 10
538.5644583132423
 20
308.3691785796012
 30
0.0
 10
538.0792175511698
 20
308.5334980043427
 30
0.0
 10
537.6167003067013
 20
308.7225071543137
 30
0.0
 10
537.1919911541022
 20
308.9290651686738
 30
0.0
 10
536.7961195243382
 20
309.158727445188
 30
0.0
 10
536.4440608911468
 20
309.4017410957291
 30
0.0
 10
536.1268111382717
 20
309.6657131007258
 30
0.0
 10
535.8575219691593
 20
309.9391028271623
 30
0.0
 10
535.6288802553361
 20
310.2302988935815
 30
0.0
 10
535.4512877193904
 20
310.5279497493415
 30
0.0
 10
535.319675050378
 20
310.8382696658157
 30
0.0
 10
535.2422502247076
 20
311.1524383466157
 30
0.0
 10
535.2142903332799
 20
311.4713283096577
 30
0.0
 10
535.2422502247075
 20
311.7902182726997
 30
0.0
 10
535.3196750503785
 20
312.1043869534996
 30
0.0
 10
535.4512877193902
 20
312.414706869974
 30
0.0
 10
535.628880255336
 20
312.7123577257337
 30
0.0
 10
535.8575219691594
 20
313.0035537921531
 30
0.0
 10
536.1268111382716
 20
313.2769435185894
 30
0.0
 10
536.4440608911468
 20
313.5409155235862
 30
0.0
 10
536.7961195243381
 20
313.7839291741274
 30
0.0
 10
537.1919911541023
 20
314.0135914506415
 30
0.0
 10
537.6167003067017
 20
314.2201494650014
 30
0.0
 10
538.0792175511697
 20
314.4091586149729
 30
0.0
 10
538.5644583132425
 20
314.5734780397141
 30
0.0
 10
539.0796998295109
 20
314.7164983635378
 30
0.0
 10
539.6113652769989
 20
314.8336547958466
 30
0.0
 10
540.1638143882077
 20
314.9266318198983
 30
0.0
 10
540.7262053748523
 20
314.9929531348965
 30
0.0
 10
541.299222111363
 20
315.0333007506616
 30
0.0
 10
541.8755684285267
 20
315.0465915377516
 30
0.0
 10
542.4519147456886
 20
315.0333007506617
 30
0.0
 10
543.0249314822045
 20
314.992953134896
 30
0.0
 10
543.5873224688316
 20
314.9266318199005
 30
0.0
 10
544.1397715801022
 20
314.8336547958384
 30
0.0
 10
544.6714370273668
 20
314.7164983635673
 30
0.0
 10
545.1866785444265
 20
314.5734780396105
 30
0.0
 10
545.6719193036506
 20
314.4091586153492
 30
0.0
 10
546.1344365580123
 20
314.2201494637098
 30
0.0
 10
546.5591456753768
 20
314.0135914552901
 30
0.0
 10
546.9550174252908
 20
313.7839291585199
 30
0.0
 10
547.3070756342841
 20
313.540915579496
 30
0.0
 10
547.6243268147239
 20
313.2769433338187
 30
0.0
 10
547.8936109603944
 20
313.0035544543111
 30
0.0
 10
548.1222695618064
 20
312.7123555407224
 30
0.0
 10
548.2998022388646
 20
312.4147147768956
 30
0.0
 10
548.4316204989871
 20
312.1043601987057
 30
0.0
 10
548.5083002084799
 20
311.7903171410655
 30
0.0
 10
548.5389518969023
 20
311.4709733534339
 30
0.0
 10
548.513882411581
 20
311.2619921489743
 30
0.0
 10
548.5013476689203
 20
311.1575015467444
 30
0.0
 11
548.5013476689203
 21
311.1575015467444
 31
0.0
 11
548.4231752169089
 21
310.8408804689646
 31
0.0
 11
548.2974689212228
 21
310.5405090814642
 31
0.0
 11
548.1159130519772
 21
310.2344536740006
 31
0.0
 11
547.8975506561944
 21
309.954271777683
 31
0.0
 11
547.6198036421605
 21
309.6704590175216
 31
0.0
 11
547.3155035949133
 21
309.4160537323712
 31
0.0
 11
546.9518564063219
 21
309.1635821052691
 31
0.0
 11
546.5695229045255
 21
308.9410128925092
 31
0.0
 11
546.1322546678454
 21
308.7272850404874
 31
0.0
 11
545.6820588230883
 21
308.5428188056397
 31
0.0
 11
545.1852193218856
 21
308.3738330929089
 31
0.0
 11
544.6797323360968
 21
308.2332171634262
 31
0.0
 11
544.1388746563046
 21
308.113545810693
 31
0.0
 11
543.5927041282778
 21
308.0214753046147
 31
0.0
 11
543.0245042021506
 21
307.9541747682768
 31
0.0
 11
542.4537743954188
 21
307.9139782216022
 31
0.0
 11
541.8755684285266
 21
307.9005112807424
 31
0.0
 11
541.2973624616342
 21
307.9139782216021
 31
0.0
 11
540.7266326549022
 21
307.9541747682767
 31
0.0
 11
540.1584327287751
 21
308.0214753046146
 31
0.0
 11
539.6122622007483
 21
308.113545810693
 31
0.0
 11
539.071404520956
 21
308.2332171634262
 31
0.0
 11
538.5659175351673
 21
308.3738330929089
 31
0.0
 11
538.0690780339646
 21
308.5428188056397
 31
0.0
 11
537.6188821892075
 21
308.7272850404874
 31
0.0
 11
537.1816139525274
 21
308.9410128925092
 31
0.0
 11
536.7992804507309
 21
309.1635821052692
 31
0.0
 11
536.4356332621394
 21
309.4160537323712
 31
0.0
 11
536.1313332148923
 21
309.6704590175215
 31
0.0
 11
535.8535862008584
 21
309.9542717776828
 31
0.0
 11
535.6352238050757
 21
310.2344536740005
 31
0.0
 11
535.45366793583
 21
310.5405090814642
 31
0.0
 11
535.3279616401437
 21
310.8408804689646
 31
0.0
 11
535.2497891881326
 21
311.1575015467444
 31
0.0
 11
535.2235010807015
 21
311.4713283096577
 31
0.0
 11
535.2497891881326
 21
311.7851550725709
 31
0.0
 11
535.3279616401439
 21
312.1017761503508
 31
0.0
 11
535.45366793583
 21
312.4021475378511
 31
0.0
 11
535.6352238050757
 21
312.7082029453148
 31
0.0
 11
535.8535862008583
 21
312.9883848416324
 31
0.0
 11
536.1313332148923
 21
313.2721976017937
 31
0.0
 11
536.4356332621395
 21
313.526602886944
 31
0.0
 11
536.799280450731
 21
313.7790745140462
 31
0.0
 11
537.1816139525275
 21
314.001643726806
 31
0.0
 11
537.6188821892076
 21
314.215371578828
 31
0.0
 11
538.0690780339646
 21
314.3998378136756
 31
0.0
 11
538.5659175351673
 21
314.5688235264065
 31
0.0
 11
539.0714045209561
 21
314.7094394558892
 31
0.0
 11
539.6122622007483
 21
314.8291108086224
 31
0.0
 11
540.1584327287751
 21
314.9211813147007
 31
0.0
 11
540.7266326549022
 21
314.9884818510387
 31
0.0
 11
541.2973624616341
 21
315.0286783977133
 31
0.0
 11
541.8755684285264
 21
315.042145338573
 31
0.0
 11
542.4537743954187
 21
315.0286783977132
 31
0.0
 11
543.0245042021506
 21
314.9884818510386
 31
0.0
 11
543.5927041282778
 21
314.9211813147007
 31
0.0
 11
544.1388746563046
 21
314.8291108086224
 31
0.0
 11
544.6797323360969
 21
314.7094394558893
 31
0.0
 11
545.1852193218857
 21
314.5688235264066
 31
0.0
 11
545.6820588230883
 21
314.3998378136756
 31
0.0
 11
546.1322546678453
 21
314.215371578828
 31
0.0
 11
546.5695229045252
 21
314.001643726806
 31
0.0
 11
546.9518564063219
 21
313.7790745140462
 31
0.0
 11
547.3155035949133
 21
313.526602886944
 31
0.0
 11
547.6198036421606
 21
313.2721976017938
 31
0.0
 11
547.8975506561944
 21
312.9883848416324
 31
0.0
 11
548.1159130519772
 21
312.7082029453148
 31
0.0
 11
548.2974689212228
 21
312.4021475378512
 31
0.0
 11
548.4231752169089
 21
312.1017761503507
 31
0.0
 11
548.5013476689203
 21
311.7851550725709
 31
0.0
 11
548.5276357763514
 21
311.4713283096577
 31
0.0
 11
548.5013476689203
 21
311.1575015467444
 31
0.0
  0
SPLINE
  5
9E
330
39
100
AcDbEntity
  8
1
  6
Continuous
 62
     7
100
AcDbSpline
210
0.0
220
0.0
230
1.0
 70
    11
 71
     3
 72
    79
 73
    75
 74
    73
 42
0.0000000001
 43
0.0000000001
 44
0.00000001
 40
0.0
 40
0.0
 40
0.0
 40
0.0
 40
0.3210813131182889
 40
0.641895145134064
 40
0.9828988941045014
 40
1.323531056220959
 40
1.692967059529065
 40
2.062075182676636
 40
2.4637338585674
 40
2.865152866614832
 40
3.298564783375524
 40
3.731815227792736
 40
4.193131264618974
 40
4.654344171660741
 40
5.137240970539804
 40
5.620077103492315
 40
6.116559529336407
 40
6.613013907632103
 40
7.114121234392226
 40
7.615228561152489
 40
8.111682939448379
 40
8.608165365292479
 40
9.091001498245001
 40
9.57389829712394
 40
10.03511120416571
 40
10.49642724099197
 40
10.92967768540921
 40
11.36308960216987
 40
11.76450861021731
 40
12.16616728610815
 40
12.5352754092557
 40
12.90471141256372
 40
13.24534357468017
 40
13.5863473236506
 40
13.90716115566644
 40
14.22824246878466
 40
14.54200445402338
 40
14.85576643926205
 40
15.17684775238033
 40
15.4976615843961
 40
15.83866533336641
 40
16.17929749548304
 40
16.54873349879113
 40
16.9178416219387
 40
17.31950029782936
 40
17.72091930587681
 40
18.15433122263747
 40
18.58758166705471
 40
19.04889770388097
 40
19.51011061092277
 40
19.99300740980171
 40
20.47584354275428
 40
20.97232596859843
 40
21.46878034689423
 40
21.96988767365446
 40
22.47099500041467
 40
22.96744937871042
 40
23.46393180455452
 40
23.94676793750698
 40
24.42966473638598
 40
24.89087764342774
 40
25.35219368025406
 40
25.7854441246713
 40
26.21885604143189
 40
26.62027504947934
 40
27.02193372537012
 40
27.3910418485177
 40
27.76047785182568
 40
28.10111001394221
 40
28.44211376291258
 40
28.76292759492846
 40
29.0840089080467
 40
29.39777089328532
 40
29.71153287852405
 40
29.71153287852405
 40
29.71153287852405
 40
29.71153287852405
 10
195.5975817923315
 20
311.158373458092
 30
0.0
 10
195.5783019411347
 20
311.05291237258
 30
0.0
 10
195.5397583000802
 20
310.8420780573306
 30
0.0
 10
195.4247049880038
 20
310.5337384330514
 30
0.0
 10
195.2723165216674
 20
310.2356503396042
 30
0.0
 10
195.0752398772703
 20
309.9449782557811
 30
0.0
 10
194.8420533673586
 20
309.6702126776859
 30
0.0
 10
194.5678849007881
 20
309.4061837326948
 30
0.0
 10
194.2623417006799
 20
309.1617997568031
 30
0.0
 10
193.9197241097743
 20
308.9319281825461
 30
0.0
 10
193.5510278929988
 20
308.7243609304137
 30
0.0
 10
193.1504731508565
 20
308.535143970838
 30
0.0
 10
192.7293686537041
 20
308.3701793556849
 30
0.0
 10
192.2830103477429
 20
308.2269953340531
 30
0.0
 10
191.8218144899097
 20
308.109468107116
 30
0.0
 10
191.3431193935538
 20
308.0163843006143
 30
0.0
 10
190.855452084557
 20
307.9498815020536
 30
0.0
 10
190.3588342788061
 20
307.9094959395959
 30
0.0
 10
189.8592134632346
 20
307.8961524593934
 30
0.0
 10
189.359592647647
 20
307.9094959395946
 30
0.0
 10
188.8629748419436
 20
307.9498815020588
 30
0.0
 10
188.375307532774
 20
308.0163843005949
 30
0.0
 10
187.8966124370451
 20
308.1094681071868
 30
0.0
 10
187.4354165769205
 20
308.2269953337938
 30
0.0
 10
186.9890582791442
 20
308.3701793566047
 30
0.0
 10
186.5679537523507
 20
308.5351439674877
 30
0.0
 10
186.1673991144229
 20
308.7243609420767
 30
0.0
 10
185.7987025232351
 20
308.9319281402707
 30
0.0
 10
185.4560862317576
 20
309.1617999017253
 30
0.0
 10
185.1505383881185
 20
309.406183208663
 30
0.0
 10
184.8763859224404
 20
309.6702144587664
 30
0.0
 10
184.6431422574585
 20
309.9449718030177
 30
0.0
 10
184.44626322399
 20
310.2356723549627
 30
0.0
 10
184.2931636817749
 20
310.5336580097697
 30
0.0
 10
184.180616211265
 20
310.8423586292823
 30
0.0
 10
184.1140647009039
 20
311.1549292665189
 30
0.0
 10
184.0905894442168
 20
311.4713283096577
 30
0.0
 10
184.114064700904
 20
311.7877273527965
 30
0.0
 10
184.1806162112651
 20
312.1002979900331
 30
0.0
 10
184.2931636817749
 20
312.4089986095457
 30
0.0
 10
184.4462632239901
 20
312.7069842643526
 30
0.0
 10
184.6431422574586
 20
312.9976848162978
 30
0.0
 10
184.8763859224404
 20
313.2724421605492
 30
0.0
 10
185.1505383881186
 20
313.5364734106523
 30
0.0
 10
185.4560862317576
 20
313.7808567175902
 30
0.0
 10
185.7987025232351
 20
314.0107284790448
 30
0.0
 10
186.1673991144228
 20
314.2182956772388
 30
0.0
 10
186.5679537523506
 20
314.4075126518277
 30
0.0
 10
186.9890582791442
 20
314.5724772627109
 30
0.0
 10
187.4354165769205
 20
314.7156612855216
 30
0.0
 10
187.8966124370451
 20
314.8331885121286
 30
0.0
 10
188.3753075327741
 20
314.9262723187206
 30
0.0
 10
188.8629748419435
 20
314.9927751172568
 30
0.0
 10
189.3595926476477
 20
315.0331606797212
 30
0.0
 10
189.8592134632321
 20
315.0465041599215
 30
0.0
 10
190.3588342788154
 20
315.0331606797211
 30
0.0
 10
190.8554520845229
 20
314.9927751172563
 30
0.0
 10
191.34311939368
 20
314.9262723187219
 30
0.0
 10
191.8218144894535
 20
314.8331885121238
 30
0.0
 10
192.2830103494154
 20
314.71566128554
 30
0.0
 10
192.7293686477727
 20
314.5724772626458
 30
0.0
 10
193.1504731724626
 20
314.4075126520654
 30
0.0
 10
193.551027817786
 20
314.2182956764111
 30
0.0
 10
193.9197243824038
 20
314.0107284820448
 30
0.0
 10
194.2623407660939
 20
313.7808567073058
 30
0.0
 10
194.5678882802093
 20
313.5364734478399
 30
0.0
 10
194.8420418813758
 20
313.2724420341564
 30
0.0
 10
195.0752814904018
 20
312.997685274212
 30
0.0
 10
195.2721745471439
 20
312.7069827020535
 30
0.0
 10
195.4252236285279
 20
312.4090043167083
 30
0.0
 10
195.5379489237287
 20
312.1002780795081
 30
0.0
 10
195.6038498697157
 20
311.7878011635354
 30
0.0
 10
195.6297013788799
 20
311.4710597939586
 30
0.0
 10
195.608288321181
 20
311.2626022367143
 30
0.0
 10
195.5975817923315
 20
311.158373458092
 30
0.0
 11
195.5975817923315
 21
311.158373458092
 31
0.0
 11
195.5305862506287
 21
310.8443594344789
 31
0.0
 11
195.4216314184843
 21
310.542613913609
 31
0.0
 11
195.266206551907
 21
310.2390901622133
 31
0.0
 11
195.0759708278013
 21
309.9565293030305
 31
0.0
 11
194.837477531246
 21
309.6743876576847
 31
0.0
 11
194.572140402141
 21
309.4178004123044
 31
0.0
 11
194.2589790449193
 21
309.1662856885577
 31
0.0
 11
193.9259519257384
 21
308.9421648329644
 31
0.0
 11
193.5486235630201
 21
308.7289297601492
 31
0.0
 11
193.1570558938266
 21
308.5435094051983
 31
0.0
 11
192.7277225420875
 21
308.3747333437514
 31
0.0
 11
192.2886334535871
 21
308.2336017810811
 31
0.0
 11
191.8207875631862
 21
308.11397928653
 31
0.0
 11
191.3468555356874
 21
308.0216799658639
 31
0.0
 11
190.8549588289937
 21
307.9543566480907
 31
0.0
 11
190.3601392770115
 21
307.9141004596836
 31
0.0
 11
189.859213463232
 21
307.9006140953862
 31
0.0
 11
189.3582876494523
 21
307.9141004596836
 31
0.0
 11
188.8634680974698
 21
307.9543566480907
 31
0.0
 11
188.3715713907762
 21
308.0216799658639
 31
0.0
 11
187.8976393632774
 21
308.11397928653
 31
0.0
 11
187.4297934728766
 21
308.2336017810811
 31
0.0
 11
186.9907043843762
 21
308.3747333437514
 31
0.0
 11
186.561371032637
 21
308.5435094051983
 31
0.0
 11
186.1698033634436
 21
308.7289297601492
 31
0.0
 11
185.7924750007252
 21
308.9421648329644
 31
0.0
 11
185.4594478815444
 21
309.1662856885577
 31
0.0
 11
185.1462865243227
 21
309.4178004123045
 31
0.0
 11
184.8809493952177
 21
309.6743876576848
 31
0.0
 11
184.6424560986624
 21
309.9565293030305
 31
0.0
 11
184.4522203745567
 21
310.2390901622133
 31
0.0
 11
184.2967955079794
 21
310.542613913609
 31
0.0
 11
184.187840675835
 21
310.8443594344789
 31
0.0
 11
184.1208451341323
 21
311.158373458092
 31
0.0
 11
184.0983541523304
 21
311.4713283096577
 31
0.0
 11
184.1208451341323
 21
311.7842831612234
 31
0.0
 11
184.1878406758351
 21
312.0982971848366
 31
0.0
 11
184.2967955079795
 21
312.4000427057064
 31
0.0
 11
184.4522203745568
 21
312.703566457102
 31
0.0
 11
184.6424560986625
 21
312.986127316285
 31
0.0
 11
184.8809493952178
 21
313.2682689616308
 31
0.0
 11
185.1462865243227
 21
313.5248562070111
 31
0.0
 11
185.4594478815444
 21
313.7763709307578
 31
0.0
 11
185.7924750007252
 21
314.0004917863511
 31
0.0
 11
186.1698033634435
 21
314.2137268591662
 31
0.0
 11
186.561371032637
 21
314.3991472141171
 31
0.0
 11
186.9907043843761
 21
314.5679232755641
 31
0.0
 11
187.4297934728766
 21
314.7090548382344
 31
0.0
 11
187.8976393632774
 21
314.8286773327855
 31
0.0
 11
188.3715713907762
 21
314.9209766534516
 31
0.0
 11
188.8634680974699
 21
314.9882999712249
 31
0.0
 11
189.3582876494523
 21
315.028556159632
 31
0.0
 11
189.8592134632319
 21
315.0420425239292
 31
0.0
 11
190.3601392770116
 21
315.0285561596319
 31
0.0
 11
190.8549588289939
 21
314.9882999712248
 31
0.0
 11
191.3468555356875
 21
314.9209766534516
 31
0.0
 11
191.8207875631862
 21
314.8286773327855
 31
0.0
 11
192.2886334535871
 21
314.7090548382344
 31
0.0
 11
192.7277225420876
 21
314.5679232755642
 31
0.0
 11
193.1570558938267
 21
314.3991472141171
 31
0.0
 11
193.5486235630202
 21
314.2137268591662
 31
0.0
 11
193.9259519257384
 21
314.0004917863511
 31
0.0
 11
194.2589790449192
 21
313.7763709307577
 31
0.0
 11
194.572140402141
 21
313.524856207011
 31
0.0
 11
194.8374775312459
 21
313.2682689616307
 31
0.0
 11
195.0759708278012
 21
312.986127316285
 31
0.0
 11
195.2662065519068
 21
312.7035664571021
 31
0.0
 11
195.4216314184841
 21
312.4000427057064
 31
0.0
 11
195.5305862506285
 21
312.0982971848364
 31
0.0
 11
195.5975817923314
 21
311.7842831612234
 31
0.0
 11
195.6200727741334
 21
311.4713283096577
 31
0.0
 11
195.5975817923315
 21
311.158373458092
 31
0.0
  0
SPLINE
  5
9F
330
39
100
AcDbEntity
  8
1
  6
Continuous
 62
     7
100
AcDbSpline
210
0.0
220
0.0
230
1.0
 70
    11
 71
     3
 72
    79
 73
    75
 74
    73
 42
0.0000000001
 43
0.0000000001
 44
0.00000001
 40
0.0
 40
0.0
 40
0.0
 40
0.0
 40
0.321081313118277
 40
0.6418951451340618
 40
0.9828988941045121
 40
1.323531056220985
 40
1.692967059529055
 40
2.062075182676626
 40
2.46373385856739
 40
2.865152866614798
 40
3.298564783375465
 40
3.731815227792703
 40
4.193131264619047
 40
4.654344171660814
 40
5.137240970539877
 40
5.620077103492361
 40
6.116559529336424
 40
6.613013907632149
 40
7.114121234392355
 40
7.61522856115259
 40
8.111682939448423
 40
8.608165365292495
 40
9.09100149824496
 40
9.573898297123954
 40
10.03511120416572
 40
10.49642724099201
 40
10.9296776854093
 40
11.36308960216989
 40
11.7645086102173
 40
12.16616728610812
 40
12.53527540925571
 40
12.90471141256367
 40
13.2453435746801
 40
13.58634732365054
 40
13.90716115566639
 40
14.22824246878462
 40
14.54200445402334
 40
14.85576643926201
 40
15.1768477523803
 40
15.49766158439606
 40
15.83866533336639
 40
16.17929749548297
 40
16.54873349879108
 40
16.91784162193865
 40
17.31950029782938
 40
17.72091930587682
 40
18.15433122263744
 40
18.5875816670547
 40
19.04889770388099
 40
19.51011061092275
 40
19.99300740980175
 40
20.47584354275421
 40
20.97232596859833
 40
21.46878034689408
 40
21.96988767365431
 40
22.47099500041448
 40
22.96744937871032
 40
23.46393180455445
 40
23.94676793750702
 40
24.42966473638596
 40
24.89087764342767
 40
25.35219368025405
 40
25.78544412467128
 40
26.21885604143192
 40
26.62027504947934
 40
27.02193372537008
 40
27.39104184851766
 40
27.76047785182566
 40
28.10111001394221
 40
28.44211376291257
 40
28.76292759492844
 40
29.08400890804668
 40
29.39777089328529
 40
29.71153287852401
 40
29.71153287852401
 40
29.71153287852401
 40
29.71153287852401
 10
170.1208451341322
 20
311.158373458092
 30
0.0
 10
170.140124985329
 20
311.05291237258
 30
0.0
 10
170.1786686263834
 20
310.8420780573305
 30
0.0
 10
170.2937219384599
 20
310.5337384330514
 30
0.0
 10
170.4461104047963
 20
310.2356503396041
 30
0.0
 10
170.6431870491934
 20
309.9449782557811
 30
0.0
 10
170.8763735591051
 20
309.670212677686
 30
0.0
 10
171.1505420256755
 20
309.4061837326948
 30
0.0
 10
171.4560852257836
 20
309.1617997568031
 30
0.0
 10
171.7987028166893
 20
308.9319281825462
 30
0.0
 10
172.1673990334648
 20
308.7243609304137
 30
0.0
 10
172.5679537756071
 20
308.5351439708381
 30
0.0
 10
172.9890582727597
 20
308.3701793556849
 30
0.0
 10
173.4354165787208
 20
308.2269953340531
 30
0.0
 10
173.896612436554
 20
308.1094681071159
 30
0.0
 10
174.3753075329099
 20
308.0163843006145
 30
0.0
 10
174.8629748419067
 20
307.9498815020536
 30
0.0
 10
175.3595926476576
 20
307.9094959395958
 30
0.0
 10
175.8592134632291
 20
307.8961524593934
 30
0.0
 10
176.3588342788168
 20
307.9094959395947
 30
0.0
 10
176.85545208452
 20
307.9498815020587
 30
0.0
 10
177.3431193936897
 20
308.0163843005949
 30
0.0
 10
177.8218144894186
 20
308.1094681071868
 30
0.0
 10
178.2830103495431
 20
308.2269953337938
 30
0.0
 10
178.7293686473196
 20
308.3701793566046
 30
0.0
 10
179.150473174113
 20
308.5351439674877
 30
0.0
 10
179.5510278120409
 20
308.7243609420768
 30
0.0
 10
179.9197244032286
 20
308.9319281402706
 30
0.0
 10
180.262340694706
 20
309.1617999017252
 30
0.0
 10
180.5678885383451
 20
309.4061832086632
 30
0.0
 10
180.8420410040233
 20
309.6702144587663
 30
0.0
 10
181.0752846690051
 20
309.9449718030177
 30
0.0
 10
181.2721637024735
 20
310.2356723549627
 30
0.0
 10
181.4252632446888
 20
310.5336580097697
 30
0.0
 10
181.5378107151985
 20
310.8423586292822
 30
0.0
 10
181.6043622255598
 20
311.1549292665191
 30
0.0
 10
181.6278374822469
 20
311.4713283096576
 30
0.0
 10
181.6043622255598
 20
311.7877273527967
 30
0.0
 10
181.5378107151985
 20
312.1002979900331
 30
0.0
 10
181.4252632446888
 20
312.4089986095457
 30
0.0
 10
181.2721637024735
 20
312.7069842643526
 30
0.0
 10
181.0752846690053
 20
312.9976848162979
 30
0.0
 10
180.8420410040233
 20
313.2724421605491
 30
0.0
 10
180.5678885383452
 20
313.5364734106525
 30
0.0
 10
180.262340694706
 20
313.7808567175902
 30
0.0
 10
179.9197244032285
 20
314.0107284790448
 30
0.0
 10
179.5510278120408
 20
314.2182956772388
 30
0.0
 10
179.150473174113
 20
314.4075126518279
 30
0.0
 10
178.7293686473195
 20
314.5724772627108
 30
0.0
 10
178.2830103495431
 20
314.7156612855217
 30
0.0
 10
177.8218144894186
 20
314.8331885121286
 30
0.0
 10
177.3431193936897
 20
314.9262723187205
 30
0.0
 10
176.8554520845203
 20
314.9927751172568
 30
0.0
 10
176.3588342788161
 20
315.0331606797211
 30
0.0
 10
175.8592134632317
 20
315.0465041599215
 30
0.0
 10
175.3595926476485
 20
315.0331606797212
 30
0.0
 10
174.8629748419409
 20
314.9927751172563
 30
0.0
 10
174.3753075327837
 20
314.9262723187219
 30
0.0
 10
173.8966124370102
 20
314.8331885121236
 30
0.0
 10
173.4354165770483
 20
314.71566128554
 30
0.0
 10
172.989058278691
 20
314.5724772626458
 30
0.0
 10
172.5679537540011
 20
314.4075126520654
 30
0.0
 10
172.1673991086777
 20
314.2182956764111
 30
0.0
 10
171.7987025440598
 20
314.0107284820448
 30
0.0
 10
171.4560861603697
 20
313.7808567073058
 30
0.0
 10
171.1505386462544
 20
313.5364734478397
 30
0.0
 10
170.876385045088
 20
313.2724420341563
 30
0.0
 10
170.6431454360619
 20
312.9976852742121
 30
0.0
 10
170.4462523793197
 20
312.7069827020534
 30
0.0
 10
170.2932032979358
 20
312.4090043167084
 30
0.0
 10
170.180478002735
 20
312.1002780795081
 30
0.0
 10
170.114577056748
 20
311.7878011635354
 30
0.0
 10
170.088725547584
 20
311.4710597939585
 30
0.0
 10
170.1101386052828
 20
311.2626022367141
 30
0.0
 10
170.1208451341322
 20
311.158373458092
 30
0.0
 11
170.1208451341322
 21
311.158373458092
 31
0.0
 11
170.1878406758349
 21
310.8443594344789
 31
0.0
 11
170.2967955079794
 21
310.542613913609
 31
0.0
 11
170.4522203745567
 21
310.2390901622133
 31
0.0
 11
170.6424560986624
 21
309.9565293030305
 31
0.0
 11
170.8809493952177
 21
309.6743876576847
 31
0.0
 11
171.1462865243227
 21
309.4178004123044
 31
0.0
 11
171.4594478815444
 21
309.1662856885577
 31
0.0
 11
171.7924750007252
 21
308.9421648329644
 31
0.0
 11
172.1698033634435
 21
308.7289297601492
 31
0.0
 11
172.561371032637
 21
308.5435094051983
 31
0.0
 11
172.9907043843762
 21
308.3747333437514
 31
0.0
 11
173.4297934728767
 21
308.2336017810811
 31
0.0
 11
173.8976393632776
 21
308.11397928653
 31
0.0
 11
174.3715713907763
 21
308.0216799658639
 31
0.0
 11
174.8634680974699
 21
307.9543566480907
 31
0.0
 11
175.3582876494522
 21
307.9141004596836
 31
0.0
 11
175.8592134632318
 21
307.9006140953862
 31
0.0
 11
176.3601392770115
 21
307.9141004596836
 31
0.0
 11
176.8549588289939
 21
307.9543566480907
 31
0.0
 11
177.3468555356875
 21
308.0216799658639
 31
0.0
 11
177.8207875631862
 21
308.11397928653
 31
0.0
 11
178.2886334535871
 21
308.2336017810811
 31
0.0
 11
178.7277225420875
 21
308.3747333437514
 31
0.0
 11
179.1570558938267
 21
308.5435094051983
 31
0.0
 11
179.5486235630202
 21
308.7289297601492
 31
0.0
 11
179.9259519257385
 21
308.9421648329644
 31
0.0
 11
180.2589790449193
 21
309.1662856885577
 31
0.0
 11
180.572140402141
 21
309.4178004123045
 31
0.0
 11
180.837477531246
 21
309.6743876576848
 31
0.0
 11
181.0759708278012
 21
309.9565293030305
 31
0.0
 11
181.2662065519068
 21
310.2390901622133
 31
0.0
 11
181.4216314184841
 21
310.542613913609
 31
0.0
 11
181.5305862506286
 21
310.8443594344789
 31
0.0
 11
181.5975817923314
 21
311.158373458092
 31
0.0
 11
181.6200727741333
 21
311.4713283096577
 31
0.0
 11
181.5975817923314
 21
311.7842831612234
 31
0.0
 11
181.5305862506286
 21
312.0982971848366
 31
0.0
 11
181.4216314184842
 21
312.4000427057064
 31
0.0
 11
181.2662065519069
 21
312.703566457102
 31
0.0
 11
181.0759708278013
 21
312.986127316285
 31
0.0
 11
180.837477531246
 21
313.2682689616308
 31
0.0
 11
180.572140402141
 21
313.5248562070111
 31
0.0
 11
180.2589790449193
 21
313.7763709307578
 31
0.0
 11
179.9259519257384
 21
314.0004917863511
 31
0.0
 11
179.5486235630202
 21
314.2137268591662
 31
0.0
 11
179.1570558938267
 21
314.3991472141171
 31
0.0
 11
178.7277225420875
 21
314.5679232755641
 31
0.0
 11
178.2886334535871
 21
314.7090548382344
 31
0.0
 11
177.8207875631862
 21
314.8286773327855
 31
0.0
 11
177.3468555356875
 21
314.9209766534516
 31
0.0
 11
176.8549588289939
 21
314.9882999712249
 31
0.0
 11
176.3601392770116
 21
315.028556159632
 31
0.0
 11
175.8592134632319
 21
315.0420425239292
 31
0.0
 11
175.3582876494523
 21
315.0285561596319
 31
0.0
 11
174.8634680974699
 21
314.9882999712248
 31
0.0
 11
174.3715713907762
 21
314.9209766534516
 31
0.0
 11
173.8976393632774
 21
314.8286773327855
 31
0.0
 11
173.4297934728766
 21
314.7090548382344
 31
0.0
 11
172.9907043843762
 21
314.5679232755642
 31
0.0
 11
172.561371032637
 21
314.3991472141171
 31
0.0
 11
172.1698033634435
 21
314.2137268591662
 31
0.0
 11
171.7924750007252
 21
314.0004917863511
 31
0.0
 11
171.4594478815444
 21
313.7763709307577
 31
0.0
 11
171.1462865243227
 21
313.524856207011
 31
0.0
 11
170.8809493952178
 21
313.2682689616307
 31
0.0
 11
170.6424560986625
 21
312.986127316285
 31
0.0
 11
170.4522203745568
 21
312.7035664571021
 31
0.0
 11
170.2967955079795
 21
312.4000427057064
 31
0.0
 11
170.1878406758352
 21
312.0982971848364
 31
0.0
 11
170.1208451341323
 21
311.7842831612234
 31
0.0
 11
170.0983541523304
 21
311.4713283096577
 31
0.0
 11
170.1208451341322
 21
311.158373458092
 31
0.0
  0
ARC
  5
A0
330
39
100
AcDbEntity
  8
1
  6
Continuous
 62
     7
100
AcDbCircle
 10
194.4172345249625
 20
307.6137913450993
 30
0.0
 40
1.0
100
AcDbArc
 50
-90.0
 51
-74.66244233044795
  0
ARC
  5
A1
330
39
100
AcDbEntity
  8
1
  6
Continuous
 62
     7
100
AcDbCircle
 10
192.627162655663
 20
306.6137913450993
 30
0.0
 40
1.0
100
AcDbArc
 50
-90.0
 51
-29.9999999999981
  0
ARC
  5
A2
330
39
100
AcDbEntity
  8
1
  6
Continuous
 62
     7
100
AcDbCircle
 10
194.3592134632319
 20
305.6137913450993
 30
0.0
 40
1.0
100
AcDbArc
 50
90.0
 51
149.9999999999987
  0
ARC
  5
A3
330
39
100
AcDbEntity
  8
1
  6
Continuous
 62
     7
100
AcDbCircle
 10
171.3011924015012
 20
307.6137913450993
 30
0.0
 40
1.000000000000021
100
AcDbArc
 50
-105.3375576695568
 51
-90.0
  0
ARC
  5
A4
330
39
100
AcDbEntity
  8
1
  6
Continuous
 62
     7
100
AcDbCircle
 10
173.0912642708006
 20
306.6137913450993
 30
0.0
 40
0.9999999999999589
100
AcDbArc
 50
-149.9999999999987
 51
-90.0
  0
ARC
  5
A5
330
39
100
AcDbEntity
  8
1
  6
Continuous
 62
     7
100
AcDbCircle
 10
171.3592134632318
 20
305.6137913450993
 30
0.0
 40
0.9999999999999589
100
AcDbArc
 50
30.00000000000136
 51
90.0
  0
ARC
  5
A6
330
39
100
AcDbEntity
  8
1
  6
Continuous
 62
     7
100
AcDbCircle
 10
553.433589490257
 20
307.6137913450993
 30
0.0
 40
1.0
100
AcDbArc
 50
-90.0
 51
-74.66244233044166
  0
ARC
  5
A7
330
39
100
AcDbEntity
  8
1
  6
Continuous
 62
     7
100
AcDbCircle
 10
551.6435176209576
 20
306.6137913450993
 30
0.0
 40
1.0
100
AcDbArc
 50
-90.0
 51
-30.00000000000054
  0
ARC
  5
A8
330
39
100
AcDbEntity
  8
1
  6
Continuous
 62
     7
100
AcDbCircle
 10
553.3755684285266
 20
305.6137913450993
 30
0.0
 40
1.0
100
AcDbArc
 50
90.0
 51
150.0000000000027
  0
ARC
  5
A9
330
39
100
AcDbEntity
  8
1
  6
Continuous
 62
     7
100
AcDbCircle
 10
530.3175473667959
 20
307.6137913450993
 30
0.0
 40
1.000000000000029
100
AcDbArc
 50
-105.3375576695584
 51
-90.0
  0
ARC
  5
AA
330
39
100
AcDbEntity
  8
1
  6
Continuous
 62
     7
100
AcDbCircle
 10
532.1076192360954
 20
306.6137913450993
 30
0.0
 40
1.000000000000082
100
AcDbArc
 50
-150.0000000000027
 51
-90.0
  0
ARC
  5
AB
330
39
100
AcDbEntity
  8
1
  6
Continuous
 62
     7
100
AcDbCircle
 10
530.3755684285266
 20
305.6137913450993
 30
0.0
 40
0.9999999999998851
100
AcDbArc
 50
30.0000000000038
 51
90.0
  0
ENDBLK
  5
3B
330
39
100
AcDbEntity
  8
0
100
AcDbBlockEnd
  0
BLOCK
  5
3D
330
3C
100
AcDbEntity
  8
0
100
AcDbBlockBegin
  2
A10-0A-13
 70
     0
 71
     0
 10
576.8755684285266
 20
334.6137913450993
 30
0.0
  3
A10-0A-13
  1

  0
LINE
  5
AC
330
3C
100
AcDbEntity
  8
0
  6
PHANTOM
 62
     4
100
AcDbLine
 10
205.8592134632319
 20
334.6137913450993
 30
0.0
 11
208.8592134632319
 21
334.6137913450993
 31
0.0
  0
LINE
  5
AD
330
3C
100
AcDbEntity
  8
1
  6
Continuous
 62
     7
100
AcDbLine
 10
195.859213463232
 20
318.9737364004592
 30
0.0
 11
194.880407746051
 21
322.3995564105921
 31
0.0
  0
LINE
  5
AE
330
3C
100
AcDbEntity
  8
1
  6
Continuous
 62
     2
100
AcDbLine
 10
194.859213463232
 20
317.1137913450993
 30
0.0
 11
195.859213463232
 21
318.8458421526681
 31
0.0
  0
LINE
  5
AF
330
3C
100
AcDbEntity
  8
1
  6
Continuous
 62
     7
100
AcDbLine
 10
195.859213463232
 20
318.8458421526681
 30
0.0
 11
195.859213463232
 21
315.6137913450993
 31
0.0
  0
LINE
  5
B0
330
3C
100
AcDbEntity
  8
1
  6
Continuous
 62
     2
100
AcDbLine
 10
194.859213463232
 20
317.1137913450993
 30
0.0
 11
194.859213463232
 21
315.6137913450993
 31
0.0
  0
LINE
  5
B1
330
3C
100
AcDbEntity
  8
1
  6
Continuous
 62
     7
100
AcDbLine
 10
195.859213463232
 20
318.9737364004592
 30
0.0
 11
195.859213463232
 21
318.8458421526681
 31
0.0
  0
LINE
  5
B2
330
3C
100
AcDbEntity
  8
1
  6
Continuous
 62
     7
100
AcDbLine
 10
169.8592227934009
 20
334.5982162268218
 30
0.0
 11
170.5666362635828
 21
356.8817405375306
 31
0.0
  0
LINE
  5
B3
330
3C
100
AcDbEntity
  8
1
  6
Continuous
 62
     7
100
AcDbLine
 10
194.8592134632318
 20
356.8817405375306
 30
0.0
 11
170.8592134632318
 21
356.8817405375306
 31
0.0
  0
LINE
  5
B4
330
3C
100
AcDbEntity
  8
1
  6
Continuous
 62
     7
100
AcDbLine
 10
194.8592134632318
 20
358.6137913450993
 30
0.0
 11
170.8592134632319
 21
358.6137913450993
 31
0.0
  0
LINE
  5
B5
330
3C
100
AcDbEntity
  8
1
  6
Continuous
 62
     7
100
AcDbLine
 10
195.8592134632319
 20
317.1137913450993
 30
0.0
 11
169.8592134632318
 21
317.1137913450993
 31
0.0
  0
LINE
  5
B6
330
3C
100
AcDbEntity
  8
1
  6
Continuous
 62
     7
100
AcDbLine
 10
170.8380191804127
 20
322.3995564105921
 30
0.0
 11
169.8592134632318
 21
318.9737364004592
 31
0.0
  0
LINE
  5
B7
330
3C
100
AcDbEntity
  8
1
  6
Continuous
 62
     7
100
AcDbLine
 10
195.1517906628809
 20
356.8817405375306
 30
0.0
 11
195.8592041330628
 21
334.5982162268218
 31
0.0
  0
LINE
  5
B8
330
3C
100
AcDbEntity
  8
1
  6
Continuous
 62
     2
100
AcDbLine
 10
193.8592134632318
 20
360.1137913450993
 30
0.0
 11
193.8592134632318
 21
358.6137913450993
 31
0.0
  0
LINE
  5
B9
330
3C
100
AcDbEntity
  8
1
  6
Continuous
 62
     2
100
AcDbLine
 10
169.8592134632318
 20
318.8458421526681
 30
0.0
 11
170.8592134632318
 21
317.1137913450993
 31
0.0
  0
LINE
  5
BA
330
3C
100
AcDbEntity
  8
1
  6
Continuous
 62
     7
100
AcDbLine
 10
169.8592134632318
 20
315.6137913450993
 30
0.0
 11
169.8592134632318
 21
318.8458421526681
 31
0.0
  0
LINE
  5
BB
330
3C
100
AcDbEntity
  8
1
  6
Continuous
 62
     2
100
AcDbLine
 10
170.8592134632318
 20
315.6137913450993
 30
0.0
 11
170.8592134632318
 21
317.1137913450993
 31
0.0
  0
LINE
  5
BC
330
3C
100
AcDbEntity
  8
1
  6
Continuous
 62
     7
100
AcDbLine
 10
170.5666362635839
 20
356.8817405375306
 30
0.0
 11
170.8592134632318
 21
356.8817405375306
 31
0.0
  0
LINE
  5
BD
330
3C
100
AcDbEntity
  8
1
  6
Continuous
 62
     7
100
AcDbLine
 10
194.8592134632318
 20
356.8817405375306
 30
0.0
 11
195.1517906628809
 21
356.8817405375306
 31
0.0
  0
LINE
  5
BE
330
3C
100
AcDbEntity
  8
1
  6
Continuous
 62
     2
100
AcDbLine
 10
193.8592134632318
 20
358.6137913450993
 30
0.0
 11
194.8592134632318
 21
356.8817405375306
 31
0.0
  0
LINE
  5
BF
330
3C
100
AcDbEntity
  8
1
  6
Continuous
 62
     7
100
AcDbLine
 10
194.8592134632318
 20
356.8817405375306
 30
0.0
 11
194.8592134632318
 21
360.1137913450993
 31
0.0
  0
LINE
  5
C0
330
3C
100
AcDbEntity
  8
1
  6
Continuous
 62
     2
100
AcDbLine
 10
170.8592134632318
 20
356.8817405375306
 30
0.0
 11
171.8592134632318
 21
358.6137913450993
 31
0.0
  0
LINE
  5
C1
330
3C
100
AcDbEntity
  8
1
  6
Continuous
 62
     2
100
AcDbLine
 10
171.8592134632318
 20
358.6137913450993
 30
0.0
 11
171.8592134632319
 21
360.1137913450993
 31
0.0
  0
LINE
  5
C2
330
3C
100
AcDbEntity
  8
1
  6
Continuous
 62
     7
100
AcDbLine
 10
170.8592134632318
 20
360.1137913450993
 30
0.0
 11
170.8592134632318
 21
356.8817405375306
 31
0.0
  0
LINE
  5
C3
330
3C
100
AcDbEntity
  8
1
  6
Continuous
 62
     7
100
AcDbLine
 10
169.8592134632318
 20
318.8458421526681
 30
0.0
 11
169.8592134632318
 21
318.9737364004592
 31
0.0
  0
LINE
  5
C4
330
3C
100
AcDbEntity
  8
1
  6
PHANTOM
 62
     4
100
AcDbLine
 10
198.8592134632319
 20
748.7980399121151
 30
0.0
 11
166.8592134632319
 21
748.7980399121151
 31
0.0
  0
LINE
  5
C5
330
3C
100
AcDbEntity
  8
1
  6
Continuous
 62
     7
100
AcDbLine
 10
160.319983915368
 20
826.2617764910776
 30
0.0
 11
205.3984430110958
 21
826.2617764910776
 31
0.0
  0
LINE
  5
C6
330
3C
100
AcDbEntity
  8
1
  6
Continuous
 62
     7
100
AcDbLine
 10
193.3592134632319
 20
841.7980399121151
 30
0.0
 11
172.3592134632319
 21
841.7980399121151
 31
0.0
  0
LINE
  5
C7
330
3C
100
AcDbEntity
  8
1
  6
Continuous
 62
     7
100
AcDbLine
 10
172.3592134632319
 20
830.530090719684
 30
0.0
 11
193.3592134632319
 21
830.530090719684
 31
0.0
  0
LINE
  5
C8
330
3C
100
AcDbEntity
  8
1
  6
Continuous
 62
     7
100
AcDbLine
 10
191.6092134632319
 20
750.7980399121151
 30
0.0
 11
191.6092134632319
 21
759.77851660294
 31
0.0
  0
LINE
  5
C9
330
3C
100
AcDbEntity
  8
1
  6
Continuous
 62
     7
100
AcDbLine
 10
174.1092134632319
 20
750.7980399121151
 30
0.0
 11
174.1092134632319
 21
759.77851660294
 31
0.0
  0
LINE
  5
CA
330
3C
100
AcDbEntity
  8
1
  6
Continuous
 62
     7
100
AcDbLine
 10
173.3592134632319
 20
842.7980399121151
 30
0.0
 11
192.3592134632319
 21
842.7980399121151
 31
0.0
  0
LINE
  5
CB
330
3C
100
AcDbEntity
  8
1
  6
Continuous
 62
     7
100
AcDbLine
 10
193.3592134632319
 20
841.7980399121151
 30
0.0
 11
192.3592134632319
 21
842.7980399121151
 31
0.0
  0
LINE
  5
CC
330
3C
100
AcDbEntity
  8
1
  6
Continuous
 62
     7
100
AcDbLine
 10
193.3592134632319
 20
841.7980399121151
 30
0.0
 11
193.3592134632319
 21
828.7980399121151
 31
0.0
  0
LINE
  5
CD
330
3C
100
AcDbEntity
  8
1
  6
Continuous
 62
     7
100
AcDbLine
 10
173.3592134632319
 20
842.7980399121151
 30
0.0
 11
172.3592134632319
 21
841.7980399121151
 31
0.0
  0
LINE
  5
CE
330
3C
100
AcDbEntity
  8
1
  6
Continuous
 62
     7
100
AcDbLine
 10
172.3592134632319
 20
828.7980399121151
 30
0.0
 11
172.3592134632319
 21
841.7980399121151
 31
0.0
  0
LINE
  5
CF
330
3C
100
AcDbEntity
  8
1
  6
Continuous
 62
     7
100
AcDbLine
 10
174.1092134632319
 20
822.2617764910776
 30
0.0
 11
174.1092134632319
 21
807.8175632212901
 31
0.0
  0
LINE
  5
D0
330
3C
100
AcDbEntity
  8
1
  6
Continuous
 62
     2
100
AcDbLine
 10
173.3592134632319
 20
830.530090719684
 30
0.0
 11
173.3592134632319
 21
842.7980399121151
 31
0.0
  0
LINE
  5
D1
330
3C
100
AcDbEntity
  8
1
  6
Continuous
 62
     2
100
AcDbLine
 10
172.3592134632319
 20
828.7980399121151
 30
0.0
 11
173.3592134632319
 21
830.530090719684
 31
0.0
  0
LINE
  5
D2
330
3C
100
AcDbEntity
  8
1
  6
Continuous
 62
     7
100
AcDbLine
 10
159.8592134632319
 20
828.7980399121151
 30
0.0
 11
159.8592134632319
 21
826.7602351579442
 31
0.0
  0
LINE
  5
D3
330
3C
100
AcDbEntity
  8
1
  6
Continuous
 62
     7
100
AcDbLine
 10
191.6092134632319
 20
822.2617764910776
 30
0.0
 11
191.6092134632319
 21
807.8175632212901
 31
0.0
  0
LINE
  5
D4
330
3C
100
AcDbEntity
  8
1
  6
Continuous
 62
     7
100
AcDbLine
 10
205.8592134632319
 20
826.7602351579442
 30
0.0
 11
205.8592134632319
 21
828.7980399121151
 31
0.0
  0
LINE
  5
D5
330
3C
100
AcDbEntity
  8
1
  6
Continuous
 62
     7
100
AcDbLine
 10
205.8592134632319
 20
828.7980399121151
 30
0.0
 11
159.8592134632319
 21
828.7980399121151
 31
0.0
  0
LINE
  5
D6
330
3C
100
AcDbEntity
  8
1
  6
Continuous
 62
     2
100
AcDbLine
 10
192.3592134632319
 20
830.530090719684
 30
0.0
 11
193.3592134632319
 21
828.7980399121151
 31
0.0
  0
LINE
  5
D7
330
3C
100
AcDbEntity
  8
1
  6
Continuous
 62
     2
100
AcDbLine
 10
192.3592134632319
 20
830.530090719684
 30
0.0
 11
192.3592134632319
 21
842.7980399121151
 31
0.0
  0
LINE
  5
D8
330
3C
100
AcDbEntity
  8
1
  6
PHANTOM
 62
     4
100
AcDbLine
 10
199.8592134632319
 20
783.7980399121151
 30
0.0
 11
165.8592134632319
 21
783.7980399121151
 31
0.0
  0
LINE
  5
D9
330
3C
100
AcDbEntity
  8
0
  6
PHANTOM
 62
     4
100
AcDbLine
 10
156.8592134632319
 20
334.6137913450993
 30
0.0
 11
205.8592134632319
 21
334.6137913450993
 31
0.0
  0
LINE
  5
DA
330
3C
100
AcDbEntity
  8
1
  6
Continuous
 62
     7
100
AcDbLine
 10
634.8755684285264
 20
345.1137913450993
 30
0.0
 11
634.8755684285264
 21
324.1137913450993
 31
0.0
  0
LINE
  5
DB
330
3C
100
AcDbEntity
  8
1
  6
Continuous
 62
     7
100
AcDbLine
 10
619.3755684285264
 20
347.3637913450993
 30
0.0
 11
619.3755684285264
 21
321.8637913450993
 31
0.0
  0
LINE
  5
DC
330
3C
100
AcDbEntity
  8
1
  6
Continuous
 62
     7
100
AcDbLine
 10
621.8755684285264
 20
324.1137913450993
 30
0.0
 11
621.8755684285264
 21
345.1137913450993
 31
0.0
  0
LINE
  5
DD
330
3C
100
AcDbEntity
  8
1
  6
Continuous
 62
     7
100
AcDbLine
 10
623.6076192360955
 20
345.1137913450993
 30
0.0
 11
623.6076192360955
 21
324.1137913450993
 31
0.0
  0
LINE
  5
DE
330
3C
100
AcDbEntity
  8
1
  6
Continuous
 62
     7
100
AcDbLine
 10
588.8755684285264
 20
356.8817405375306
 30
0.0
 11
564.8755684285263
 21
356.8817405375306
 31
0.0
  0
LINE
  5
DF
330
3C
100
AcDbEntity
  8
1
  6
Continuous
 62
     7
100
AcDbLine
 10
588.8755684285264
 20
358.6137913450993
 30
0.0
 11
564.8755684285266
 21
358.6137913450993
 31
0.0
  0
LINE
  5
E0
330
3C
100
AcDbEntity
  8
1
  6
Continuous
 62
     7
100
AcDbLine
 10
554.8755684285266
 20
317.1137913450993
 30
0.0
 11
528.8755684285263
 21
317.1137913450993
 31
0.0
  0
LINE
  5
E1
330
3C
100
AcDbEntity
  8
1
  6
Continuous
 62
     7
100
AcDbLine
 10
564.4212122012614
 20
351.785701167611
 30
0.0
 11
564.5829912288785
 21
356.8817405375306
 31
0.0
  0
LINE
  5
E2
330
3C
100
AcDbEntity
  8
1
  6
Continuous
 62
     7
100
AcDbLine
 10
529.8543741457073
 20
322.3995564105921
 30
0.0
 11
528.8755684285263
 21
318.9737364004592
 31
0.0
  0
LINE
  5
E3
330
3C
100
AcDbEntity
  8
1
  6
Continuous
 62
     7
100
AcDbLine
 10
615.3755684285264
 20
343.3637913450993
 30
0.0
 11
599.0552325377954
 21
343.3637913450995
 31
0.0
  0
LINE
  5
E4
330
3C
100
AcDbEntity
  8
1
  6
Continuous
 62
     7
100
AcDbLine
 10
589.1681456281756
 20
356.8817405375306
 30
0.0
 11
589.3202436207165
 21
352.0906537724925
 31
0.0
  0
LINE
  5
E5
330
3C
100
AcDbEntity
  8
1
  6
Continuous
 62
     7
100
AcDbLine
 10
599.0552325377945
 20
325.8637913450991
 30
0.0
 11
615.3755684285264
 21
325.8637913450993
 31
0.0
  0
LINE
  5
E6
330
3C
100
AcDbEntity
  8
1
  6
Continuous
 62
     7
100
AcDbLine
 10
558.4432598373595
 20
326.1137913450993
 30
0.0
 11
557.6170423185534
 21
326.1137913450993
 31
0.0
  0
LINE
  5
E7
330
3C
100
AcDbEntity
  8
1
  6
Continuous
 62
     7
100
AcDbLine
 10
553.8567152456474
 20
322.5397225405371
 30
0.0
 11
554.8755684285263
 21
318.9737364004592
 31
0.0
  0
LINE
  5
E8
330
3C
100
AcDbEntity
  8
1
  6
Continuous
 62
     2
100
AcDbLine
 10
587.8755684285263
 20
360.1137913450993
 30
0.0
 11
587.8755684285263
 21
358.6137913450993
 31
0.0
  0
LINE
  5
E9
330
3C
100
AcDbEntity
  8
1
  6
Continuous
 62
     7
100
AcDbLine
 10
634.8755684285264
 20
324.1137913450993
 30
0.0
 11
621.8755684285264
 21
324.1137913450993
 31
0.0
  0
LINE
  5
EA
330
3C
100
AcDbEntity
  8
1
  6
Continuous
 62
     2
100
AcDbLine
 10
623.6076192360955
 20
325.1137913450993
 30
0.0
 11
621.8755684285264
 21
324.1137913450993
 31
0.0
  0
LINE
  5
EB
330
3C
100
AcDbEntity
  8
1
  6
Continuous
 62
     2
100
AcDbLine
 10
635.8755684285266
 20
325.1137913450993
 30
0.0
 11
623.6076192360955
 21
325.1137913450993
 31
0.0
  0
LINE
  5
EC
330
3C
100
AcDbEntity
  8
1
  6
Continuous
 62
     7
100
AcDbLine
 10
634.8755684285264
 20
324.1137913450993
 30
0.0
 11
635.8755684285266
 21
325.1137913450993
 31
0.0
  0
LINE
  5
ED
330
3C
100
AcDbEntity
  8
1
  6
Continuous
 62
     7
100
AcDbLine
 10
619.3755684285264
 20
321.8637913450993
 30
0.0
 11
619.3755684285266
 21
312.1137913450993
 31
0.0
  0
LINE
  5
EE
330
3C
100
AcDbEntity
  8
1
  6
Continuous
 62
     7
100
AcDbLine
 10
621.8755684285266
 20
311.6137913450993
 30
0.0
 11
619.8755684285264
 21
311.6137913450993
 31
0.0
  0
LINE
  5
EF
330
3C
100
AcDbEntity
  8
1
  6
Continuous
 62
     7
100
AcDbLine
 10
621.8755684285264
 20
324.1137913450993
 30
0.0
 11
621.8755684285266
 21
311.6137913450993
 31
0.0
  0
LINE
  5
F0
330
3C
100
AcDbEntity
  8
1
  6
Continuous
 62
     2
100
AcDbLine
 10
623.6076192360955
 20
344.1137913450993
 30
0.0
 11
635.8755684285264
 21
344.1137913450993
 31
0.0
  0
LINE
  5
F1
330
3C
100
AcDbEntity
  8
1
  6
Continuous
 62
     7
100
AcDbLine
 10
621.8755684285264
 20
345.1137913450993
 30
0.0
 11
634.8755684285264
 21
345.1137913450993
 31
0.0
  0
LINE
  5
F2
330
3C
100
AcDbEntity
  8
1
  6
Continuous
 62
     7
100
AcDbLine
 10
635.8755684285264
 20
344.1137913450993
 30
0.0
 11
634.8755684285264
 21
345.1137913450993
 31
0.0
  0
LINE
  5
F3
330
3C
100
AcDbEntity
  8
1
  6
Continuous
 62
     2
100
AcDbLine
 10
621.8755684285264
 20
345.1137913450993
 30
0.0
 11
623.6076192360955
 21
344.1137913450993
 31
0.0
  0
LINE
  5
F4
330
3C
100
AcDbEntity
  8
1
  6
Continuous
 62
     7
100
AcDbLine
 10
621.8755684285266
 20
357.6137913450993
 30
0.0
 11
621.8755684285264
 21
345.1137913450993
 31
0.0
  0
LINE
  5
F5
330
3C
100
AcDbEntity
  8
1
  6
Continuous
 62
     7
100
AcDbLine
 10
621.8755684285266
 20
357.6137913450993
 30
0.0
 11
619.8755684285264
 21
357.6137913450993
 31
0.0
  0
LINE
  5
F6
330
3C
100
AcDbEntity
  8
1
  6
Continuous
 62
     7
100
AcDbLine
 10
619.3755684285264
 20
347.3637913450993
 30
0.0
 11
619.3755684285264
 21
357.1137913450993
 31
0.0
  0
LINE
  5
F7
330
3C
100
AcDbEntity
  8
1
  6
Continuous
 62
     7
100
AcDbLine
 10
554.8755684285263
 20
318.9737364004592
 30
0.0
 11
554.8755684285263
 21
315.6137913450993
 31
0.0
  0
LINE
  5
F8
330
3C
100
AcDbEntity
  8
1
  6
Continuous
 62
     2
100
AcDbLine
 10
528.8755684285263
 20
318.8458421526681
 30
0.0
 11
529.8755684285263
 21
317.1137913450993
 31
0.0
  0
LINE
  5
F9
330
3C
100
AcDbEntity
  8
1
  6
Continuous
 62
     7
100
AcDbLine
 10
528.8755684285263
 20
315.6137913450993
 30
0.0
 11
528.8755684285263
 21
318.8458421526681
 31
0.0
  0
LINE
  5
FA
330
3C
100
AcDbEntity
  8
1
  6
Continuous
 62
     2
100
AcDbLine
 10
553.8755684285263
 20
317.1137913450993
 30
0.0
 11
554.8755684285263
 21
318.8458421526682
 31
0.0
  0
LINE
  5
FB
330
3C
100
AcDbEntity
  8
1
  6
Continuous
 62
     2
100
AcDbLine
 10
553.8755684285263
 20
317.1137913450993
 30
0.0
 11
553.8755684285263
 21
315.6137913450993
 31
0.0
  0
LINE
  5
FC
330
3C
100
AcDbEntity
  8
1
  6
Continuous
 62
     2
100
AcDbLine
 10
529.8755684285263
 20
315.6137913450993
 30
0.0
 11
529.8755684285263
 21
317.1137913450993
 31
0.0
  0
LINE
  5
FD
330
3C
100
AcDbEntity
  8
1
  6
Continuous
 62
     7
100
AcDbLine
 10
564.5829912288785
 20
356.8817405375306
 30
0.0
 11
564.8755684285263
 21
356.8817405375306
 31
0.0
  0
LINE
  5
FE
330
3C
100
AcDbEntity
  8
1
  6
Continuous
 62
     7
100
AcDbLine
 10
588.8755684285264
 20
356.8817405375306
 30
0.0
 11
589.1681456281756
 21
356.8817405375306
 31
0.0
  0
LINE
  5
FF
330
3C
100
AcDbEntity
  8
1
  6
Continuous
 62
     2
100
AcDbLine
 10
587.8755684285263
 20
358.6137913450993
 30
0.0
 11
588.8755684285264
 21
356.8817405375306
 31
0.0
  0
LINE
  5
100
330
3C
100
AcDbEntity
  8
1
  6
Continuous
 62
     7
100
AcDbLine
 10
588.8755684285264
 20
356.8817405375306
 30
0.0
 11
588.8755684285264
 21
360.1137913450993
 31
0.0
  0
LINE
  5
101
330
3C
100
AcDbEntity
  8
1
  6
Continuous
 62
     2
100
AcDbLine
 10
564.8755684285263
 20
356.8817405375306
 30
0.0
 11
565.8755684285263
 21
358.6137913450993
 31
0.0
  0
LINE
  5
102
330
3C
100
AcDbEntity
  8
1
  6
Continuous
 62
     2
100
AcDbLine
 10
565.8755684285263
 20
358.6137913450993
 30
0.0
 11
565.8755684285266
 21
360.1137913450993
 31
0.0
  0
LINE
  5
103
330
3C
100
AcDbEntity
  8
1
  6
Continuous
 62
     7
100
AcDbLine
 10
564.8755684285263
 20
360.1137913450993
 30
0.0
 11
564.8755684285263
 21
356.8817405375306
 31
0.0
  0
LINE
  5
104
330
3C
100
AcDbEntity
  8
1
  6
Continuous
 62
     7
100
AcDbLine
 10
528.8755684285263
 20
318.8458421526681
 30
0.0
 11
528.8755684285263
 21
318.9737364004592
 31
0.0
  0
LINE
  5
105
330
3C
100
AcDbEntity
  8
1
  6
Continuous
 62
     7
100
AcDbLine
 10
635.8755684285266
 20
325.1137913450993
 30
0.0
 11
635.8755684285264
 21
344.1137913450993
 31
0.0
  0
ARC
  5
106
330
3C
100
AcDbEntity
  8
1
  6
Continuous
 62
     7
100
AcDbCircle
 10
182.8592134632319
 20
334.6137913450993
 30
0.0
 40
23.00000000000008
100
AcDbArc
 50
122.5778011728608
 51
-124.4173887104417
  0
ARC
  5
107
330
3C
100
AcDbEntity
  8
1
  6
Continuous
 62
     7
100
AcDbCircle
 10
182.8592134632319
 20
334.6137913450993
 30
0.0
 40
23.0
100
AcDbArc
 50
0.0
 51
57.42219882713937
  0
ARC
  5
108
330
3C
100
AcDbEntity
  8
1
  6
Continuous
 62
     7
100
AcDbCircle
 10
182.8592134632319
 20
334.6137913450993
 30
0.0
 40
22.99999999999998
100
AcDbArc
 50
-55.58261128955805
 51
0.0
  0
ARC
  5
109
330
3C
100
AcDbEntity
  8
1
  6
Continuous
 62
     7
100
AcDbCircle
 10
182.8592134632319
 20
334.6137913450993
 30
0.0
 40
8.351995935906039
100
AcDbArc
 50
0.19057502307793
 51
90.0
  0
ARC
  5
10A
330
3C
100
AcDbEntity
  8
1
  6
Continuous
 62
     7
100
AcDbCircle
 10
182.8592134632319
 20
334.6137913450993
 30
0.0
 40
8.351995935906132
100
AcDbArc
 50
90.0
 51
179.8094249769221
  0
ARC
  5
10B
330
3C
100
AcDbEntity
  8
1
  6
Continuous
 62
     7
100
AcDbCircle
 10
155.8592134632319
 20
783.7980399121151
 30
0.0
 40
40.00000000000006
100
AcDbArc
 50
-20.06805462081924
 51
-8.44840117492192
  0
ARC
  5
10C
330
3C
100
AcDbEntity
  8
1
  6
Continuous
 62
     7
100
AcDbCircle
 10
182.8592134632319
 20
334.6137913450993
 30
0.0
 40
13.00000000000009
100
AcDbArc
 50
-179.931354711061
 51
-145.6899072066109
  0
ARC
  5
10D
330
3C
100
AcDbEntity
  8
1
  6
Continuous
 62
     7
100
AcDbCircle
 10
171.1547828892396
 20
318.7808929620343
 30
0.0
 40
24.00000000000155
100
AcDbArc
 50
8.67199482596343
 51
27.87011739414523
  0
ARC
  5
10E
330
3C
100
AcDbEntity
  8
1
  6
Continuous
 62
     7
100
AcDbCircle
 10
182.8592134632319
 20
334.6137913450993
 30
0.0
 40
13.0
100
AcDbArc
 50
180.0
 51
-179.931354711061
  0
ARC
  5
10F
330
3C
100
AcDbEntity
  8
1
  6
Continuous
 62
     7
100
AcDbCircle
 10
182.8592134632319
 20
334.6137913450993
 30
0.0
 40
12.99999999999995
100
AcDbArc
 50
-34.31009279338939
 51
-0.06864528893898
  0
ARC
  5
110
330
3C
100
AcDbEntity
  8
1
  6
Continuous
 62
     7
100
AcDbCircle
 10
194.5636440372241
 20
318.7808929620343
 30
0.0
 40
24.00000000000157
100
AcDbArc
 50
152.1298826058548
 51
171.3280051740366
  0
ARC
  5
111
330
3C
100
AcDbEntity
  8
1
  6
Continuous
 62
     7
100
AcDbCircle
 10
195.6092134632319
 20
822.2617764910776
 30
0.0
 40
4.0
100
AcDbArc
 50
90.0
 51
180.0
  0
ARC
  5
112
330
3C
100
AcDbEntity
  8
1
  6
Continuous
 62
     7
100
AcDbCircle
 10
170.1092134632319
 20
822.2617764910776
 30
0.0
 40
4.0
100
AcDbArc
 50
0.0
 51
90.0
  0
ARC
  5
113
330
3C
100
AcDbEntity
  8
1
  6
Continuous
 62
     7
100
AcDbCircle
 10
209.8592134632319
 20
783.7980399121151
 30
0.0
 40
39.99999999999987
100
AcDbArc
 50
-171.5515988250778
 51
-159.9319453791808
  0
ARC
  5
114
330
3C
100
AcDbEntity
  8
1
  6
Continuous
 62
     7
100
AcDbCircle
 10
182.8592134632319
 20
748.7980399121151
 30
0.0
 40
12.99999999999998
100
AcDbArc
 50
132.3049897071829
 51
47.69501029281709
  0
ARC
  5
115
330
3C
100
AcDbEntity
  8
1
  6
Continuous
 62
     7
100
AcDbCircle
 10
576.8755684285263
 20
350.6137913450992
 30
0.0
 40
28.9999999999999
100
AcDbArc
 50
-117.4392401506812
 51
-68.30528397761417
  0
ARC
  5
116
330
3C
100
AcDbEntity
  8
1
  6
Continuous
 62
     7
100
AcDbCircle
 10
557.8346030529475
 20
322.1197123114755
 30
0.0
 40
3.999999999997904
100
AcDbArc
 50
93.11786651757258
 51
173.9726861048959
  0
ARC
  5
117
330
3C
100
AcDbEntity
  8
1
  6
Continuous
 62
     7
100
AcDbCircle
 10
615.3755684285264
 20
321.8637913450993
 30
0.0
 40
4.0
100
AcDbArc
 50
0.0
 51
90.0
  0
ARC
  5
118
330
3C
100
AcDbEntity
  8
1
  6
Continuous
 62
     7
100
AcDbCircle
 10
615.3755684285264
 20
347.3637913450993
 30
0.0
 40
4.0
100
AcDbArc
 50
-90.0
 51
0.0
  0
ARC
  5
119
330
3C
100
AcDbEntity
  8
1
  6
Continuous
 62
     7
100
AcDbCircle
 10
553.5799990025187
 20
318.7808929620343
 30
0.0
 40
24.00000000000227
100
AcDbArc
 50
99.36066212030283
 51
171.3280051740366
  0
ARC
  5
11A
330
3C
100
AcDbEntity
  8
1
  6
Continuous
 62
     7
100
AcDbCircle
 10
557.6462131901877
 20
294.1137913446399
 30
0.0
 40
49.00000000045976
100
AcDbArc
 50
92.19404509977881
 51
99.36066212030437
  0
ARC
  5
11B
330
3C
100
AcDbEntity
  8
1
  6
Continuous
 62
     7
100
AcDbCircle
 10
555.4257439235997
 20
352.0712715891252
 30
0.0
 40
9.00000000000378
100
AcDbArc
 50
-87.80595490022539
 51
-1.818302964459
  0
ARC
  5
11C
330
3C
100
AcDbEntity
  8
1
  6
Continuous
 62
     7
100
AcDbCircle
 10
201.2111078819438
 20
334.6748329371649
 30
0.0
 40
9.999999999999982
100
AcDbArc
 50
-179.8094249769229
 51
-152.1298826058548
  0
ARC
  5
11D
330
3C
100
AcDbEntity
  8
1
  6
Continuous
 62
     7
100
AcDbCircle
 10
164.5073190445199
 20
334.6748329371649
 30
0.0
 40
10.00000000000005
100
AcDbArc
 50
-27.87011739414522
 51
-0.1905750230771
  0
ARC
  5
11E
330
3C
100
AcDbEntity
  8
1
  6
Continuous
 62
     7
100
AcDbCircle
 10
221.6092134632319
 20
807.8175632212901
 30
0.0
 40
30.0
100
AcDbArc
 50
180.0
 51
-163.6603718092951
  0
ARC
  5
11F
330
3C
100
AcDbEntity
  8
1
  6
Continuous
 62
     7
100
AcDbCircle
 10
193.6092134632319
 20
750.7980399121151
 30
0.0
 40
2.0
100
AcDbArc
 50
180.0
 51
-90.0
  0
ARC
  5
120
330
3C
100
AcDbEntity
  8
1
  6
Continuous
 62
     7
100
AcDbCircle
 10
172.1092134632319
 20
750.7980399121151
 30
0.0
 40
2.0
100
AcDbArc
 50
-90.0
 51
0.0
  0
ARC
  5
121
330
3C
100
AcDbEntity
  8
1
  6
Continuous
 62
     7
100
AcDbCircle
 10
144.1092134632319
 20
807.8175632212901
 30
0.0
 40
30.00000000000005
100
AcDbArc
 50
-16.33962819070489
 51
0.0
  0
ARC
  5
122
330
3C
100
AcDbEntity
  8
1
  6
Continuous
 62
     7
100
AcDbCircle
 10
144.1092134632319
 20
759.77851660294
 30
0.0
 40
30.0
100
AcDbArc
 50
0.0
 51
20.06805462081917
  0
ARC
  5
123
330
3C
100
AcDbEntity
  8
1
  6
Continuous
 62
     7
100
AcDbCircle
 10
221.6092134632319
 20
759.77851660294
 30
0.0
 40
29.99999999999996
100
AcDbArc
 50
159.9319453791808
 51
180.0
  0
ARC
  5
124
330
3C
100
AcDbEntity
  8
1
  6
Continuous
 62
     7
100
AcDbCircle
 10
160.3592134632319
 20
826.7602351579442
 30
0.0
 40
0.5
100
AcDbArc
 50
180.0
 51
-94.49999999999719
  0
ARC
  5
125
330
3C
100
AcDbEntity
  8
1
  6
Continuous
 62
     7
100
AcDbCircle
 10
205.3592134632319
 20
826.7602351579442
 30
0.0
 40
0.4999999999999883
100
AcDbArc
 50
-85.50000000000281
 51
0.0
  0
ARC
  5
126
330
3C
100
AcDbEntity
  8
1
  6
Continuous
 62
     7
100
AcDbCircle
 10
599.0552325377954
 20
374.3637913450995
 30
0.0
 40
30.99999999999998
100
AcDbArc
 50
-91.92633614020622
 51
-90.0
  0
ARC
  5
127
330
3C
100
AcDbEntity
  8
1
  6
Continuous
 62
     7
100
AcDbCircle
 10
598.3157118983736
 20
352.3762241940055
 30
0.0
 40
8.999999999998792
100
AcDbArc
 50
-178.1816970355477
 51
-91.926336140204
  0
ARC
  5
128
330
3C
100
AcDbEntity
  8
1
  6
Continuous
 62
     7
100
AcDbCircle
 10
599.0552325377954
 20
294.8637913450991
 30
0.0
 40
31.0
100
AcDbArc
 50
90.00000000000168
 51
111.6947160223878
  0
ARC
  5
129
330
3C
100
AcDbEntity
  8
1
  6
Continuous
 62
     7
100
AcDbCircle
 10
558.4432598373595
 20
315.1137913450993
 30
0.0
 40
11.00000000000003
100
AcDbArc
 50
62.5607598493185
 51
90.0
  0
ARC
  5
12A
330
3C
100
AcDbEntity
  8
1
  6
Continuous
 62
     7
100
AcDbCircle
 10
619.8755684285264
 20
312.1137913450993
 30
0.0
 40
0.4999999999998863
100
AcDbArc
 50
180.0
 51
-90.0
  0
ARC
  5
12B
330
3C
100
AcDbEntity
  8
1
  6
Continuous
 62
     7
100
AcDbCircle
 10
619.8755684285264
 20
357.1137913450993
 30
0.0
 40
0.5
100
AcDbArc
 50
90.0
 51
180.0
  0
ENDBLK
  5
3E
330
3C
100
AcDbEntity
  8
0
100
AcDbBlockEnd
  0
BLOCK
  5
40
330
3F
100
AcDbEntity
  8
0
100
AcDbBlockBegin
  2
36-1A-13-M4
 70
     0
 71
     0
 10
331.0617100065782
 20
236.0446653356632
 30
0.0
  3
36-1A-13-M4
  1

  0
LINE
  5
12C
330
3F
100
AcDbEntity
  8
1
  6
Continuous
 62
     7
100
AcDbLine
 10
187.6092134632319
 20
377.1137913450993
 30
0.0
 11
187.6092134632319
 21
374.1137913450993
 31
0.0
  0
LINE
  5
12D
330
3F
100
AcDbEntity
  8
1
  6
Continuous
 62
     7
100
AcDbLine
 10
178.1092134632319
 20
374.1137913450993
 30
0.0
 11
178.1092134632319
 21
377.1137913450993
 31
0.0
  0
LINE
  5
12E
330
3F
100
AcDbEntity
  8
1
  6
Continuous
 62
     7
100
AcDbLine
 10
581.6255684285266
 20
377.1137913450993
 30
0.0
 11
581.6255684285266
 21
374.1137913450993
 31
0.0
  0
LINE
  5
12F
330
3F
100
AcDbEntity
  8
1
  6
Continuous
 62
     7
100
AcDbLine
 10
572.1255684285264
 20
374.1137913450993
 30
0.0
 11
572.1255684285264
 21
377.1137913450993
 31
0.0
  0
ENDBLK
  5
41
330
3F
100
AcDbEntity
  8
0
100
AcDbBlockEnd
  0
BLOCK
  5
43
330
42
100
AcDbEntity
  8
0
100
AcDbBlockBegin
  2
21-1A
 70
     0
 71
     0
 10
621.8755684285266
 20
334.6137913450993
 30
0.0
  3
21-1A
  1

  0
LINE
  5
130
330
42
100
AcDbEntity
  8
1
  6
PHANTOM
 62
     4
100
AcDbLine
 10
191.5194675010763
 20
778.7980399121151
 30
0.0
 11
153.414349734561
 21
800.7980399121151
 31
0.0
  0
LINE
  5
131
330
42
100
AcDbEntity
  8
1
  6
PHANTOM
 62
     4
100
AcDbLine
 10
174.1989594253874
 20
778.7980399121151
 30
0.0
 11
212.3040771919028
 21
800.7980399121153
 31
0.0
  0
LINE
  5
132
330
42
100
AcDbEntity
  8
1
  6
Continuous
 62
     7
100
AcDbLine
 10
189.3296895907951
 20
380.89887110045
 30
0.0
 11
189.3296895907951
 21
378.9686827163927
 31
0.0
  0
LINE
  5
133
330
42
100
AcDbEntity
  8
1
  6
Continuous
 62
     7
100
AcDbLine
 10
176.3887373356691
 20
379.1215218777382
 30
0.0
 11
176.3887373356691
 21
380.89887110045
 31
0.0
  0
LINE
  5
134
330
42
100
AcDbEntity
  8
1
  6
Continuous
 62
     7
100
AcDbLine
 10
155.6653524332427
 20
380.89887110045
 30
0.0
 11
155.2134443342503
 21
377.6833778955794
 31
0.0
  0
LINE
  5
135
330
42
100
AcDbEntity
  8
1
  6
Continuous
 62
     7
100
AcDbLine
 10
210.5049825922139
 20
377.6833778955794
 30
0.0
 11
210.0530744932214
 21
380.89887110045
 31
0.0
  0
LINE
  5
136
330
42
100
AcDbEntity
  8
1
  6
Continuous
 62
     7
100
AcDbLine
 10
155.708578368621
 20
377.1137913450993
 30
0.0
 11
210.0098485578429
 21
377.1137913450993
 31
0.0
  0
LINE
  5
137
330
42
100
AcDbEntity
  8
1
  6
Continuous
 62
     7
100
AcDbLine
 10
177.0636585054974
 20
757.2451256415
 30
0.0
 11
173.412249294027
 21
770.8723703379328
 31
0.0
  0
LINE
  5
138
330
42
100
AcDbEntity
  8
1
  6
Continuous
 62
     7
100
AcDbLine
 10
156.9659376815016
 20
792.0553992249959
 30
0.0
 11
166.941773166464
 21
782.0795637400336
 31
0.0
  0
LINE
  5
139
330
42
100
AcDbEntity
  8
1
  6
Continuous
 62
     7
100
AcDbLine
 10
162.7614926392361
 20
802.0935948698495
 30
0.0
 11
176.3887373356688
 21
798.4421856583791
 31
0.0
  0
LINE
  5
13A
330
42
100
AcDbEntity
  8
1
  6
Continuous
 62
     7
100
AcDbLine
 10
203.7174391898482
 20
802.2973715443466
 30
0.0
 11
189.3296895907949
 21
798.4421856583791
 31
0.0
  0
LINE
  5
13B
330
42
100
AcDbEntity
  8
1
  6
Continuous
 62
     7
100
AcDbLine
 10
208.7524892449621
 20
792.0553992249959
 30
0.0
 11
198.7766537599997
 21
782.0795637400336
 31
0.0
  0
LINE
  5
13C
330
42
100
AcDbEntity
  8
1
  6
Continuous
 62
     7
100
AcDbLine
 10
188.6547684209663
 20
757.2451256415
 30
0.0
 11
192.3061776324367
 21
770.8723703379328
 31
0.0
  0
LINE
  5
13D
330
42
100
AcDbEntity
  8
1
  6
Continuous
 62
     7
100
AcDbLine
 10
546.450752632137
 20
377.1137913450993
 30
0.0
 11
576.8755684285266
 21
377.1137913450993
 31
0.0
  0
LINE
  5
13E
330
42
100
AcDbEntity
  8
1
  6
Continuous
 62
     7
100
AcDbLine
 10
594.6782542828778
 20
382.0728679508429
 30
0.0
 11
595.2954717768853
 21
377.6834132778119
 31
0.0
  0
LINE
  5
13F
330
42
100
AcDbEntity
  8
1
  6
Continuous
 62
     7
100
AcDbLine
 10
546.4075266967586
 20
380.89887110045
 30
0.0
 11
545.9556185977663
 21
377.6833778955794
 31
0.0
  0
LINE
  5
140
330
42
100
AcDbEntity
  8
1
  6
Continuous
 62
     7
100
AcDbLine
 10
594.8003427164522
 20
377.1137913450993
 30
0.0
 11
576.8755684285266
 21
377.1137913450993
 31
0.0
  0
ARC
  5
141
330
42
100
AcDbEntity
  8
1
  6
Continuous
 62
     7
100
AcDbCircle
 10
184.4963038141212
 20
260.743638804775
 30
0.0
 40
127.4948334081408
100
AcDbArc
 50
92.53411689479741
 51
100.8094932463522
  0
ARC
  5
142
330
42
100
AcDbEntity
  8
1
  6
Continuous
 62
     7
100
AcDbCircle
 10
181.2221231123427
 20
260.743638804775
 30
0.0
 40
127.4948334081409
100
AcDbArc
 50
79.19050675364777
 51
87.46588310520266
  0
ARC
  5
143
330
42
100
AcDbEntity
  8
1
  6
Continuous
 62
     7
100
AcDbCircle
 10
182.8592134632319
 20
758.7980399121151
 30
0.0
 40
6.000000000000099
100
AcDbArc
 50
-165.0000000000002
 51
-90.0
  0
ARC
  5
144
330
42
100
AcDbEntity
  8
1
  6
Continuous
 62
     7
100
AcDbCircle
 10
161.2085783686209
 20
796.2980399121151
 30
0.0
 40
6.000000000000066
100
AcDbArc
 50
74.99999999999925
 51
-135.0000000000006
  0
ARC
  5
145
330
42
100
AcDbEntity
  8
1
  6
Continuous
 62
     7
100
AcDbCircle
 10
204.5098485578428
 20
796.2980399121151
 30
0.0
 40
5.999999999999968
100
AcDbArc
 50
-44.99999999999924
 51
97.52424107894099
  0
ARC
  5
146
330
42
100
AcDbEntity
  8
1
  6
Continuous
 62
     7
100
AcDbCircle
 10
182.8592134632319
 20
758.7980399121151
 30
0.0
 40
6.0
100
AcDbArc
 50
-90.0
 51
-15.00000000000012
  0
ARC
  5
147
330
42
100
AcDbEntity
  8
1
  6
Continuous
 62
     7
100
AcDbCircle
 10
577.2397640937732
 20
313.2019703364001
 30
0.0
 40
75.00000000000001
100
AcDbArc
 50
80.40850751733487
 51
87.2213610340373
  0
ARC
  5
148
330
42
100
AcDbEntity
  8
1
  6
Continuous
 62
     7
100
AcDbCircle
 10
576.8755684285266
 20
238.1137913450993
 30
0.0
 40
150.0533238552216
100
AcDbArc
 50
91.52752544221293
 51
99.80290179376779
  0
SPLINE
  5
149
330
42
100
AcDbEntity
  8
1
  6
Continuous
 62
     7
100
AcDbSpline
210
0.0
220
0.0
230
1.0
 70
     8
 71
     3
 72
    31
 73
    27
 74
    25
 42
0.0000000001
 43
0.0000000001
 44
0.00000001
 40
0.0
 40
0.0
 40
0.0
 40
0.0
 40
1.209297236936077
 40
2.418560460299914
 40
3.010646452243438
 40
3.602737257668362
 40
4.185572709902159
 40
4.768388509555639
 40
5.342952280088641
 40
5.917504261343504
 40
6.485853212171293
 40
7.054192630149648
 40
7.619205056919028
 40
8.184213176767221
 40
8.749219564565756
 40
9.314234016565566
 40
9.882583483381582
 40
10.45092171074446
 40
11.02543062566387
 40
11.60003917127238
 40
12.2609801029257
 40
12.92189009803058
 40
13.43590365956359
 40
13.94981906284214
 40
15.15908344823215
 40
16.36837960388714
 40
16.36837960388714
 40
16.36837960388714
 40
16.36837960388714
 10
176.7789547931894
 20
383.3236201589755
 30
0.0
 10
176.92385583502
 20
383.7006936565487
 30
0.0
 10
177.2136538430893
 20
384.454830045852
 30
0.0
 10
177.7648995027049
 20
385.3027218696251
 30
0.0
 10
178.2757747261414
 20
385.9159661639338
 30
0.0
 10
178.6919836148001
 20
386.3340164018853
 30
0.0
 10
179.1408125501087
 20
386.7117641886484
 30
0.0
 10
179.6169374085172
 20
387.0445284602297
 30
0.0
 10
180.119005201981
 20
387.3311238205599
 30
0.0
 10
180.640944215999
 20
387.5683533253013
 30
0.0
 10
181.1808448784441
 20
387.7549813994765
 30
0.0
 10
181.732823750245
 20
387.8893114340626
 30
0.0
 10
182.2939933147576
 20
387.9702447866422
 30
0.0
 10
182.8592128309387
 20
387.997421083645
 30
0.0
 10
183.4244333508178
 20
387.9702490827867
 30
0.0
 10
183.9856062384415
 20
387.8893125288495
 30
0.0
 10
184.5375829336365
 20
387.7549705322421
 30
0.0
 10
185.0774697320887
 20
387.56835345209
 30
0.0
 10
185.599422984363
 20
387.3311527046692
 30
0.0
 10
186.1241196219268
 20
387.0316221961813
 30
0.0
 10
186.6409174489825
 20
386.6655807776934
 30
0.0
 10
187.1027984948437
 20
386.2626152248458
 30
0.0
 10
187.4934759134576
 20
385.8564170779461
 30
0.0
 10
187.967693607556
 20
385.2806837744743
 30
0.0
 10
188.5048222794789
 20
384.4548374757611
 30
0.0
 10
188.7945875798881
 20
383.7006959000441
 30
0.0
 10
188.9394721332744
 20
383.3236201589755
 30
0.0
 11
176.7789547931894
 21
383.3236201589755
 31
0.0
 11
177.2519183536188
 21
384.4365915322674
 31
0.0
 11
177.9025411813781
 21
385.4559086955579
 31
0.0
 11
178.2823149677477
 21
385.9101527852743
 31
0.0
 11
178.7000715796616
 21
386.3297370260067
 31
0.0
 11
179.1461381117807
 21
386.7048660882024
 31
0.0
 11
179.6239753994503
 21
387.0385512434584
 31
0.0
 11
180.1230340353243
 21
387.3232686548836
 31
0.0
 11
180.6461802906973
 21
387.5608143865925
 31
0.0
 11
181.1833675122847
 21
387.7464226269007
 31
0.0
 11
181.7356270750432
 21
387.8806577540834
 31
0.0
 11
182.2948532874442
 21
387.9613118659899
 31
0.0
 11
182.8592134632319
 21
387.9883630670582
 31
0.0
 11
183.4235720603457
 21
387.9613151074876
 31
0.0
 11
183.9827998514206
 21
387.8806577540835
 31
0.0
 11
184.535067373157
 21
387.7464128254448
 31
0.0
 11
185.0722466357663
 21
387.5608143865925
 31
0.0
 11
185.5953621682687
 21
387.3233051594525
 31
0.0
 11
186.0944515270136
 21
387.0385512434584
 31
0.0
 11
186.6340126427331
 21
386.6568226519981
 31
0.0
 11
187.1322242249661
 21
386.2225563270794
 31
0.0
 11
187.4885227316044
 21
385.8520683844859
 31
0.0
 11
187.8158857450856
 21
385.455908695558
 31
0.0
 11
188.4665095276767
 21
384.4365907631642
 31
0.0
 11
188.9394721332744
 21
383.3236201589755
 31
0.0
  0
ARC
  5
14A
330
42
100
AcDbEntity
  8
1
  6
Continuous
 62
     7
100
AcDbCircle
 10
161.606960845692
 20
380.0638324946897
 30
0.0
 40
6.000000000000019
100
AcDbArc
 50
99.8029017937678
 51
172.0000000000007
  0
ARC
  5
14B
330
42
100
AcDbEntity
  8
1
  6
Continuous
 62
     7
100
AcDbCircle
 10
155.708578368621
 20
377.6137913450993
 30
0.0
 40
0.4999999999999177
100
AcDbArc
 50
171.9999999999913
 51
-90.0
  0
ARC
  5
14C
330
42
100
AcDbEntity
  8
1
  6
Continuous
 62
     7
100
AcDbCircle
 10
210.0098485578429
 20
377.6137913450993
 30
0.0
 40
0.5
100
AcDbArc
 50
-90.0
 51
8.0000000000037
  0
ARC
  5
14D
330
42
100
AcDbEntity
  8
1
  6
Continuous
 62
     7
100
AcDbCircle
 10
204.111466080772
 20
380.0638324946897
 30
0.0
 40
5.999999999999964
100
AcDbArc
 50
7.99999999999919
 51
80.19709820623221
  0
ARC
  5
14E
330
42
100
AcDbEntity
  8
1
  6
Continuous
 62
     7
100
AcDbCircle
 10
149.2641036368003
 20
764.4018942103699
 30
0.0
 40
24.99999999999999
100
AcDbArc
 50
14.99999999999987
 51
45.0
  0
ARC
  5
14F
330
42
100
AcDbEntity
  8
1
  6
Continuous
 62
     7
100
AcDbCircle
 10
182.8592134632319
 20
822.5903313156057
 30
0.0
 40
24.99999999999988
100
AcDbArc
 50
-105.0000000000003
 51
-74.99999999999992
  0
ARC
  5
150
330
42
100
AcDbEntity
  8
1
  6
Continuous
 62
     7
100
AcDbCircle
 10
216.4543232896634
 20
764.4018942103699
 30
0.0
 40
25.00000000000002
100
AcDbArc
 50
134.9999999999999
 51
165.0000000000001
  0
ARC
  5
151
330
42
100
AcDbEntity
  8
1
  6
Continuous
 62
     7
100
AcDbCircle
 10
594.8003427164522
 20
377.6137913450993
 30
0.0
 40
0.5
100
AcDbArc
 50
-90.0
 51
8.00409437169984
  0
ARC
  5
152
330
42
100
AcDbEntity
  8
1
  6
Continuous
 62
     7
100
AcDbCircle
 10
546.450752632137
 20
377.6137913450993
 30
0.0
 40
0.4999999999999459
100
AcDbArc
 50
171.9999999999918
 51
-90.0
  0
ARC
  5
153
330
42
100
AcDbEntity
  8
1
  6
Continuous
 62
     7
100
AcDbCircle
 10
588.7367055576806
 20
381.2374047582915
 30
0.0
 40
6.000000000000063
100
AcDbArc
 50
8.00409437170091
 51
80.40850751733541
  0
ARC
  5
154
330
42
100
AcDbEntity
  8
1
  6
Continuous
 62
     7
100
AcDbCircle
 10
552.349135109208
 20
380.0638324946896
 30
0.0
 40
6.000000000000004
100
AcDbArc
 50
99.80290179376699
 51
172.0000000000002
  0
ENDBLK
  5
44
330
42
100
AcDbEntity
  8
0
100
AcDbBlockEnd
  0
BLOCK
  5
46
330
45
100
AcDbEntity
  8
0
100
AcDbBlockBegin
  2
37-1-13
 70
     0
 71
     0
 10
485.0743382117555
 20
218.1180854549547
 30
0.0
  3
37-1-13
  1

  0
LINE
  5
155
330
45
100
AcDbEntity
  8
1
  6
Continuous
 62
     7
100
AcDbLine
 10
169.8592134632319
 20
360.1137913450993
 30
0.0
 11
169.8592134632319
 21
367.1845055593708
 31
0.0
  0
LINE
  5
156
330
45
100
AcDbEntity
  8
1
  6
Continuous
 62
     7
100
AcDbLine
 10
195.8592134632319
 20
367.1845055593708
 30
0.0
 11
195.8592134632319
 21
360.1137913450993
 31
0.0
  0
LINE
  5
157
330
45
100
AcDbEntity
  8
1
  6
Continuous
 62
     7
100
AcDbLine
 10
182.8592134632319
 20
360.1137913450993
 30
0.0
 11
169.8592134632319
 21
360.1137913450993
 31
0.0
  0
LINE
  5
158
330
45
100
AcDbEntity
  8
1
  6
Continuous
 62
     7
100
AcDbLine
 10
182.8592134632319
 20
360.1137913450993
 30
0.0
 11
195.8592134632319
 21
360.1137913450993
 31
0.0
  0
LINE
  5
159
330
45
100
AcDbEntity
  8
1
  6
Continuous
 62
     7
100
AcDbLine
 10
177.8592134632319
 20
374.1137913450993
 30
0.0
 11
176.8592134632319
 21
374.1137913450993
 31
0.0
  0
LINE
  5
15A
330
45
100
AcDbEntity
  8
1
  6
Continuous
 62
     7
100
AcDbLine
 10
182.8592134632319
 20
374.1137913450993
 30
0.0
 11
188.8592134632319
 21
374.1137913450993
 31
0.0
  0
LINE
  5
15B
330
45
100
AcDbEntity
  8
1
  6
Continuous
 62
     7
100
AcDbLine
 10
182.8592134632319
 20
374.1137913450993
 30
0.0
 11
177.8592134632319
 21
374.1137913450993
 31
0.0
  0
LINE
  5
15C
330
45
100
AcDbEntity
  8
1
  6
Continuous
 62
     7
100
AcDbLine
 10
576.8755684285266
 20
367.6137913450993
 30
0.0
 11
589.3755684285263
 21
367.6137913450994
 31
0.0
  0
LINE
  5
15D
330
45
100
AcDbEntity
  8
1
  6
Continuous
 62
     7
100
AcDbLine
 10
564.3755684285266
 20
367.6137913450994
 30
0.0
 11
576.8755684285266
 21
367.6137913450993
 31
0.0
  0
LINE
  5
15E
330
45
100
AcDbEntity
  8
1
  6
Continuous
 62
     7
100
AcDbLine
 10
589.946282642798
 20
360.1137913450993
 30
0.0
 11
563.8048542142551
 21
360.1137913450993
 31
0.0
  0
LINE
  5
15F
330
45
100
AcDbEntity
  8
1
  6
Continuous
 62
     7
100
AcDbLine
 10
582.8755684285266
 20
374.1137913450993
 30
0.0
 11
570.8755684285266
 21
374.1137913450993
 31
0.0
  0
ARC
  5
160
330
45
100
AcDbEntity
  8
1
  6
Continuous
 62
     7
100
AcDbCircle
 10
173.3592134632319
 20
363.6137913450993
 30
0.0
 40
4.999999999999972
100
AcDbArc
 50
126.8698976458414
 51
134.4270040008051
  0
ARC
  5
161
330
45
100
AcDbEntity
  8
1
  6
Continuous
 62
     7
100
AcDbCircle
 10
156.9527582581171
 20
387.5202465502142
 30
0.0
 40
23.99999999999995
100
AcDbArc
 50
-56.04080749990219
 51
-33.95919250009765
  0
ARC
  5
162
330
45
100
AcDbEntity
  8
1
  6
Continuous
 62
     7
100
AcDbCircle
 10
192.3592134632319
 20
363.6137913450993
 30
0.0
 40
5.000000000000057
100
AcDbArc
 50
45.57299599919494
 51
53.13010235415676
  0
ARC
  5
163
330
45
100
AcDbEntity
  8
1
  6
Continuous
 62
     7
100
AcDbCircle
 10
208.7656686683469
 20
387.5202465502142
 30
0.0
 40
24.00000000000007
100
AcDbArc
 50
-146.0408074999026
 51
-123.9591925000978
  0
ARC
  5
164
330
45
100
AcDbEntity
  8
1
  6
Continuous
 62
     7
100
AcDbCircle
 10
602.7820236336414
 20
387.5202465502143
 30
0.0
 40
24.00000000000002
100
AcDbArc
 50
-146.0408074999022
 51
-123.9591925000978
  0
ARC
  5
165
330
45
100
AcDbEntity
  8
1
  6
Continuous
 62
     7
100
AcDbCircle
 10
586.3755684285266
 20
363.6137913450993
 30
0.0
 40
5.000000000000016
100
AcDbArc
 50
-44.42700400080553
 51
53.13010235415884
  0
ARC
  5
166
330
45
100
AcDbEntity
  8
1
  6
Continuous
 62
     7
100
AcDbCircle
 10
550.9691132234116
 20
387.5202465502143
 30
0.0
 40
24.00000000000003
100
AcDbArc
 50
-56.04080749990239
 51
-33.95919250009765
  0
ARC
  5
167
330
45
100
AcDbEntity
  8
1
  6
Continuous
 62
     7
100
AcDbCircle
 10
567.3755684285266
 20
363.6137913450993
 30
0.0
 40
5.000000000000091
100
AcDbArc
 50
126.8698976458433
 51
-135.5729959991945
  0
SPLINE
  5
168
330
45
100
AcDbEntity
  8
1
  6
Continuous
 62
     7
100
AcDbSpline
210
0.0
220
0.0
230
1.0
 70
    11
 71
     3
 72
    79
 73
    75
 74
    73
 42
0.0000000001
 43
0.0000000001
 44
0.00000001
 40
0.0
 40
0.0
 40
0.0
 40
0.0
 40
0.3160436465962651
 40
0.6318966345054362
 40
0.9639391318841459
 40
1.295702698074587
 40
1.650847227467601
 40
2.005727789197694
 40
2.387357022599094
 40
2.768780714705208
 40
3.176769171734059
 40
3.584612394008095
 40
4.01594475116347
 40
4.447181172428131
 40
4.896666773394903
 40
5.346094681847117
 40
5.807047420514771
 40
6.26797315233002
 40
6.732835060374474
 40
7.197696968418814
 40
7.658622700233979
 40
8.119575438901597
 40
8.569003347353855
 40
9.018488948320627
 40
9.449725369585325
 40
9.881057726740727
 40
10.28890094901471
 40
10.69688940604351
 40
11.07831309814958
 40
11.45994233155104
 40
11.81482289328109
 40
12.16996742267417
 40
12.50173098886477
 40
12.83377348624344
 40
13.14962647415252
 40
13.46567012074877
 40
13.77589255555614
 40
14.08611499036351
 40
14.4021586369598
 40
14.71801162486887
 40
15.05005412224756
 40
15.3818176884381
 40
15.7369622178311
 40
16.09184277956122
 40
16.47347201296268
 40
16.85489570506877
 40
17.26288416209762
 40
17.67072738437161
 40
18.10205974152697
 40
18.53329616279159
 40
18.98278176375838
 40
19.4322096722107
 40
19.89316241087839
 40
20.35408814269367
 40
20.81895005073804
 40
21.28381195878235
 40
21.74473769059754
 40
22.20569042926515
 40
22.65511833771746
 40
23.10460393868415
 40
23.53584035994876
 40
23.96717271710407
 40
24.37501593937813
 40
24.78300439640711
 40
25.16442808851325
 40
25.54605732191468
 40
25.90093788364474
 40
26.25608241303771
 40
26.5878459792282
 40
26.91988847660688
 40
27.23574146451606
 40
27.55178511111231
 40
27.86200754591969
 40
28.172229980727
 40
28.172229980727
 40
28.172229980727
 40
28.172229980727
 10
181.9005994384626
 20
363.9586752870213
 30
0.0
 10
181.8828075291103
 20
364.062669314006
 30
0.0
 10
181.8472344436767
 20
364.2705946318159
 30
0.0
 10
181.7410937207863
 20
364.5752403561857
 30
0.0
 10
181.6000403821814
 20
364.87039864621
 30
0.0
 10
181.4177904635077
 20
365.1579100951079
 30
0.0
 10
181.2015752147037
 20
365.4304333202501
 30
0.0
 10
180.9476363181466
 20
365.691821388833
 30
0.0
 10
180.6640474985457
 20
365.9343548347829
 30
0.0
 10
180.3464500159615
 20
366.1620274961288
 30
0.0
 10
180.0041453322412
 20
366.3680083030403
 30
0.0
 10
179.6326896393518
 20
366.5554503975458
 30
0.0
 10
179.2417460646193
 20
366.7191056583529
 30
0.0
 10
178.8277220552872
 20
366.860958230057
 30
0.0
 10
178.3996249058995
 20
366.9775183277619
 30
0.0
 10
177.955540597625
 20
367.0697397008723
 30
0.0
 10
177.5029473479965
 20
367.1356836405721
 30
0.0
 10
177.0421774770038
 20
367.1756909231801
 30
0.0
 10
176.5785599989161
 20
367.1889316160834
 30
0.0
 10
176.1149425208149
 20
367.1756909231813
 30
0.0
 10
175.6541726498628
 20
367.1356836405678
 30
0.0
 10
175.2015794000873
 20
367.069739700888
 30
0.0
 10
174.7574950923473
 20
366.9775183277056
 30
0.0
 10
174.3293979410024
 20
366.8609582302639
 30
0.0
 10
173.9153739386909
 20
366.7191056576164
 30
0.0
 10
173.5244303384536
 20
366.5554504002355
 30
0.0
 10
173.1529747358123
 20
366.3680082936077
 30
0.0
 10
172.8106697264107
 20
366.1620275304417
 30
0.0
 10
172.4930733841255
 20
365.9343547159303
 30
0.0
 10
172.2094804660246
 20
365.6918218204926
 30
0.0
 10
171.9555558497505
 20
365.4304318337765
 30
0.0
 10
171.7392892505803
 20
365.157915506036
 30
0.0
 10
171.5572190508991
 20
364.8703799172113
 30
0.0
 10
171.4155149736579
 20
364.575309034659
 30
0.0
 10
171.3116911858854
 20
364.2703520986448
 30
0.0
 10
171.2501462781911
 20
363.9614909683085
 30
0.0
 10
171.2286302366626
 20
363.6491484522351
 30
0.0
 10
171.2501462781911
 20
363.3368059361613
 30
0.0
 10
171.3116911858853
 20
363.0279448058253
 30
0.0
 10
171.4155149736578
 20
362.7229878698109
 30
0.0
 10
171.5572190508989
 20
362.4279169872586
 30
0.0
 10
171.7392892505801
 20
362.140381398434
 30
0.0
 10
171.9555558497504
 20
361.8678650706936
 30
0.0
 10
172.2094804660243
 20
361.6064750839773
 30
0.0
 10
172.4930733841254
 20
361.3639421885397
 30
0.0
 10
172.8106697264105
 20
361.1362693740283
 30
0.0
 10
173.1529747358122
 20
360.9302886108623
 30
0.0
 10
173.5244303384535
 20
360.7428465042345
 30
0.0
 10
173.9153739386908
 20
360.5791912468537
 30
0.0
 10
174.3293979410022
 20
360.4373386742062
 30
0.0
 10
174.7574950923471
 20
360.3207785767644
 30
0.0
 10
175.2015794000872
 20
360.2285572035819
 30
0.0
 10
175.6541726498627
 20
360.1626132639024
 30
0.0
 10
176.1149425208156
 20
360.1226059812887
 30
0.0
 10
176.578559998914
 20
360.1093652883868
 30
0.0
 10
177.0421774770117
 20
360.1226059812885
 30
0.0
 10
177.5029473479673
 20
360.1626132639026
 30
0.0
 10
177.9555405977322
 20
360.2285572035809
 30
0.0
 10
178.3996249055103
 20
360.3207785767685
 30
0.0
 10
178.8277220567159
 20
360.4373386741916
 30
0.0
 10
179.2417460595266
 20
360.5791912469062
 30
0.0
 10
179.6326896579499
 20
360.7428465040432
 30
0.0
 10
180.0041452670101
 20
360.9302886115333
 30
0.0
 10
180.3464502532477
 20
361.1362693715878
 30
0.0
 10
180.664046676637
 20
361.3639421969931
 30
0.0
 10
180.9476393032317
 20
361.6064750532756
 30
0.0
 10
181.2015649351923
 20
361.8678651764192
 30
0.0
 10
181.4178278820619
 20
362.1403810135811
 30
0.0
 10
181.5999108642768
 20
362.4279183193608
 30
0.0
 10
181.7415686576592
 20
362.7229829850467
 30
0.0
 10
181.8455572377023
 20
363.0279620560244
 30
0.0
 10
181.906497039804
 20
363.3367419083371
 30
0.0
 10
181.9302324883825
 20
363.6493825360465
 30
0.0
 10
181.9104771217692
 20
363.855577703363
 30
0.0
 10
181.9005994384626
 20
363.9586752870213
 30
0.0
 11
181.9005994384626
 21
363.9586752870213
 31
0.0
 11
181.8387170891762
 21
364.2686013449782
 31
0.0
 11
181.7376609622468
 21
364.5678516903099
 31
0.0
 11
181.5942072427783
 21
364.8673066125205
 31
0.0
 11
181.4173765293831
 21
365.1480163605727
 31
0.0
 11
181.1970659585467
 21
365.4265677725877
 31
0.0
 11
180.9502584124231
 21
365.6815702201648
 31
0.0
 11
180.6606481238976
 21
365.9300993986665
 31
0.0
 11
180.3509458049689
 21
366.1527392570702
 31
0.0
 11
180.0016692228199
 21
366.3635957253872
 31
0.0
 11
179.6377254215599
 21
366.5476636570845
 31
0.0
 11
179.2400289294864
 21
366.7146519875799
 31
0.0
 11
178.8321530963314
 21
366.8546596864869
 31
0.0
 11
178.3985447149707
 21
366.9730703156137
 31
0.0
 11
177.9585319575182
 21
367.0645810700351
 31
0.0
 11
177.5024260741556
 21
367.1312507816533
 31
0.0
 11
177.043229777016
 21
367.1711417698921
 31
0.0
 11
176.5785599989138
 21
367.1845055593707
 31
0.0
 11
176.1138902208118
 21
367.1711417698921
 31
0.0
 11
175.6546939236722
 21
367.1312507816533
 31
0.0
 11
175.1985880403097
 21
367.0645810700351
 31
0.0
 11
174.7585752828571
 21
366.9730703156138
 31
0.0
 11
174.3249669014964
 21
366.854659686487
 31
0.0
 11
173.9170910683414
 21
366.7146519875799
 31
0.0
 11
173.5193945762678
 21
366.5476636570845
 31
0.0
 11
173.1554507750079
 21
366.3635957253873
 31
0.0
 11
172.806174192859
 21
366.1527392570703
 31
0.0
 11
172.4964718739303
 21
365.9300993986665
 31
0.0
 11
172.2068615854048
 21
365.6815702201648
 31
0.0
 11
171.9600540392812
 21
365.4265677725877
 31
0.0
 11
171.7397434684447
 21
365.1480163605727
 31
0.0
 11
171.5629127550495
 21
364.8673066125203
 31
0.0
 11
171.4194590355809
 21
364.5678516903099
 31
0.0
 11
171.3184029086515
 21
364.2686013449782
 31
0.0
 11
171.2565205593651
 21
363.9586752870214
 31
0.0
 11
171.2357576692738
 21
363.649148452235
 31
0.0
 11
171.2565205593651
 21
363.3396216174486
 31
0.0
 11
171.3184029086514
 21
363.0296955594918
 31
0.0
 11
171.4194590355808
 21
362.7304452141601
 31
0.0
 11
171.5629127550494
 21
362.4309902919496
 31
0.0
 11
171.7397434684445
 21
362.1502805438972
 31
0.0
 11
171.9600540392811
 21
361.8717291318824
 31
0.0
 11
172.2068615854047
 21
361.6167266843053
 31
0.0
 11
172.4964718739302
 21
361.3681975058035
 31
0.0
 11
172.8061741928589
 21
361.1455576473998
 31
0.0
 11
173.1554507750078
 21
360.9347011790827
 31
0.0
 11
173.5193945762678
 21
360.7506332473855
 31
0.0
 11
173.9170910683413
 21
360.5836449168902
 31
0.0
 11
174.3249669014962
 21
360.4436372179831
 31
0.0
 11
174.758575282857
 21
360.3252265888563
 31
0.0
 11
175.1985880403096
 21
360.2337158344349
 31
0.0
 11
175.6546939236722
 21
360.1670461228167
 31
0.0
 11
176.1138902208119
 21
360.127155134578
 31
0.0
 11
176.5785599989139
 21
360.1137913450992
 31
0.0
 11
177.0432297770159
 21
360.127155134578
 31
0.0
 11
177.5024260741555
 21
360.1670461228167
 31
0.0
 11
177.9585319575181
 21
360.2337158344349
 31
0.0
 11
178.3985447149707
 21
360.3252265888563
 31
0.0
 11
178.8321530963313
 21
360.4436372179831
 31
0.0
 11
179.2400289294862
 21
360.5836449168902
 31
0.0
 11
179.6377254215597
 21
360.7506332473855
 31
0.0
 11
180.0016692228197
 21
360.9347011790828
 31
0.0
 11
180.3509458049688
 21
361.1455576473999
 31
0.0
 11
180.6606481238976
 21
361.3681975058035
 31
0.0
 11
180.9502584124231
 21
361.6167266843053
 31
0.0
 11
181.1970659585466
 21
361.8717291318824
 31
0.0
 11
181.4173765293831
 21
362.1502805438972
 31
0.0
 11
181.5942072427783
 21
362.4309902919495
 31
0.0
 11
181.7376609622468
 21
362.7304452141601
 31
0.0
 11
181.8387170891762
 21
363.0296955594918
 31
0.0
 11
181.9005994384626
 21
363.3396216174486
 31
0.0
 11
181.921362328554
 21
363.649148452235
 31
0.0
 11
181.9005994384626
 21
363.9586752870213
 31
0.0
  0
SPLINE
  5
169
330
45
100
AcDbEntity
  8
1
  6
Continuous
 62
     7
100
AcDbSpline
210
0.0
220
0.0
230
1.0
 70
    11
 71
     3
 72
    79
 73
    75
 74
    73
 42
0.0000000001
 43
0.0000000001
 44
0.00000001
 40
0.0
 40
0.0
 40
0.0
 40
0.0
 40
0.3160436465962651
 40
0.631896634505418
 40
0.9639391318841523
 40
1.295702698074563
 40
1.650847227467612
 40
2.005727789197705
 40
2.387357022599083
 40
2.768780714705244
 40
3.176769171734071
 40
3.584612394008081
 40
4.01594475116343
 40
4.447181172428119
 40
4.896666773394891
 40
5.346094681847132
 40
5.807047420514758
 40
6.267973152330035
 40
6.732835060374461
 40
7.197696968418858
 40
7.658622700233994
 40
8.119575438901611
 40
8.569003347353842
 40
9.018488948320615
 40
9.449725369585286
 40
9.881057726740687
 40
10.28890094901472
 40
10.69688940604355
 40
11.0783130981496
 40
11.45994233155107
 40
11.81482289328111
 40
12.16996742267417
 40
12.50173098886475
 40
12.83377348624341
 40
13.14962647415249
 40
13.46567012074875
 40
13.77589255555612
 40
14.08611499036349
 40
14.4021586369598
 40
14.71801162486885
 40
15.0500541222475
 40
15.38181768843804
 40
15.73696221783105
 40
16.09184277956116
 40
16.47347201296262
 40
16.85489570506871
 40
17.26288416209759
 40
17.67072738437155
 40
18.10205974152688
 40
18.53329616279158
 40
18.98278176375839
 40
19.43220967221069
 40
19.89316241087838
 40
20.35408814269366
 40
20.818950050738
 40
21.28381195878234
 40
21.74473769059745
 40
22.20569042926514
 40
22.6551183377174
 40
23.10460393868411
 40
23.53584035994873
 40
23.96717271710406
 40
24.37501593937815
 40
24.78300439640713
 40
25.16442808851324
 40
25.54605732191466
 40
25.90093788364471
 40
26.25608241303772
 40
26.58784597922821
 40
26.91988847660688
 40
27.23574146451603
 40
27.5517851111123
 40
27.86200754591967
 40
28.17222998072699
 40
28.17222998072699
 40
28.17222998072699
 40
28.17222998072699
 10
183.8178274880014
 20
363.9586752870213
 30
0.0
 10
183.8356193973536
 20
364.062669314006
 30
0.0
 10
183.8711924827873
 20
364.2705946318159
 30
0.0
 10
183.9773332056777
 20
364.5752403561858
 30
0.0
 10
184.1183865442826
 20
364.8703986462098
 30
0.0
 10
184.3006364629562
 20
365.157910095108
 30
0.0
 10
184.5168517117602
 20
365.4304333202502
 30
0.0
 10
184.7707906083174
 20
365.6918213888329
 30
0.0
 10
185.0543794279183
 20
365.9343548347829
 30
0.0
 10
185.3719769105026
 20
366.1620274961286
 30
0.0
 10
185.7142815942227
 20
366.3680083030404
 30
0.0
 10
186.0857372871121
 20
366.5554503975459
 30
0.0
 10
186.4766808618448
 20
366.7191056583528
 30
0.0
 10
186.8907048711767
 20
366.8609582300571
 30
0.0
 10
187.3188020205646
 20
366.9775183277618
 30
0.0
 10
187.7628863288389
 20
367.0697397008723
 30
0.0
 10
188.2154795784676
 20
367.1356836405721
 30
0.0
 10
188.6762494494602
 20
367.1756909231802
 30
0.0
 10
189.1398669275478
 20
367.1889316160834
 30
0.0
 10
189.6034844056491
 20
367.1756909231813
 30
0.0
 10
190.0642542766012
 20
367.1356836405678
 30
0.0
 10
190.5168475263766
 20
367.0697397008878
 30
0.0
 10
190.9609318341167
 20
366.9775183277058
 30
0.0
 10
191.3890289854616
 20
366.8609582302638
 30
0.0
 10
191.803052987773
 20
366.7191056576164
 30
0.0
 10
192.1939965880103
 20
366.5554504002354
 30
0.0
 10
192.5654521906517
 20
366.3680082936077
 30
0.0
 10
192.9077572000533
 20
366.1620275304418
 30
0.0
 10
193.2253535423386
 20
365.9343547159305
 30
0.0
 10
193.5089464604395
 20
365.6918218204926
 30
0.0
 10
193.7628710767135
 20
365.4304318337765
 30
0.0
 10
193.9791376758836
 20
365.157915506036
 30
0.0
 10
194.161207875565
 20
364.8703799172113
 30
0.0
 10
194.3029119528059
 20
364.5753090346591
 30
0.0
 10
194.4067357405785
 20
364.2703520986447
 30
0.0
 10
194.4682806482729
 20
363.9614909683086
 30
0.0
 10
194.4897966898013
 20
363.649148452235
 30
0.0
 10
194.4682806482729
 20
363.3368059361615
 30
0.0
 10
194.4067357405785
 20
363.0279448058253
 30
0.0
 10
194.3029119528061
 20
362.7229878698109
 30
0.0
 10
194.1612078755651
 20
362.4279169872586
 30
0.0
 10
193.9791376758839
 20
362.1403813984339
 30
0.0
 10
193.7628710767137
 20
361.8678650706936
 30
0.0
 10
193.5089464604396
 20
361.6064750839773
 30
0.0
 10
193.2253535423388
 20
361.3639421885398
 30
0.0
 10
192.9077572000534
 20
361.1362693740282
 30
0.0
 10
192.5654521906518
 20
360.9302886108623
 30
0.0
 10
192.1939965880105
 20
360.7428465042347
 30
0.0
 10
191.8030529877732
 20
360.5791912468536
 30
0.0
 10
191.3890289854617
 20
360.4373386742063
 30
0.0
 10
190.9609318341168
 20
360.3207785767644
 30
0.0
 10
190.5168475263767
 20
360.228557203582
 30
0.0
 10
190.0642542766013
 20
360.1626132639022
 30
0.0
 10
189.6034844056484
 20
360.1226059812886
 30
0.0
 10
189.1398669275499
 20
360.1093652883868
 30
0.0
 10
188.6762494494524
 20
360.1226059812885
 30
0.0
 10
188.2154795784967
 20
360.1626132639026
 30
0.0
 10
187.7628863287318
 20
360.2285572035809
 30
0.0
 10
187.3188020209538
 20
360.3207785767685
 30
0.0
 10
186.8907048697481
 20
360.4373386741915
 30
0.0
 10
186.4766808669374
 20
360.5791912469062
 30
0.0
 10
186.085737268514
 20
360.7428465040434
 30
0.0
 10
185.7142816594539
 20
360.9302886115332
 30
0.0
 10
185.3719766732162
 20
361.136269371588
 30
0.0
 10
185.054380249827
 20
361.3639421969931
 30
0.0
 10
184.7707876232323
 20
361.6064750532755
 30
0.0
 10
184.5168619912718
 20
361.8678651764192
 30
0.0
 10
184.3005990444019
 20
362.1403810135811
 30
0.0
 10
184.1185160621872
 20
362.4279183193607
 30
0.0
 10
183.9768582688048
 20
362.7229829850467
 30
0.0
 10
183.8728696887618
 20
363.0279620560243
 30
0.0
 10
183.8119298866599
 20
363.3367419083372
 30
0.0
 10
183.7881944380815
 20
363.6493825360465
 30
0.0
 10
183.8079498046948
 20
363.8555777033631
 30
0.0
 10
183.8178274880014
 20
363.9586752870213
 30
0.0
 11
183.8178274880014
 21
363.9586752870213
 31
0.0
 11
183.8797098372878
 21
364.2686013449782
 31
0.0
 11
183.9807659642172
 21
364.5678516903099
 31
0.0
 11
184.1242196836857
 21
364.8673066125205
 31
0.0
 11
184.3010503970808
 21
365.1480163605727
 31
0.0
 11
184.5213609679173
 21
365.4265677725877
 31
0.0
 11
184.7681685140409
 21
365.6815702201648
 31
0.0
 11
185.0577788025664
 21
365.9300993986665
 31
0.0
 11
185.3674811214951
 21
366.1527392570702
 31
0.0
 11
185.7167577036441
 21
366.3635957253872
 31
0.0
 11
186.080701504904
 21
366.5476636570845
 31
0.0
 11
186.4783979969775
 21
366.7146519875799
 31
0.0
 11
186.8862738301326
 21
366.8546596864869
 31
0.0
 11
187.3198822114933
 21
366.9730703156137
 31
0.0
 11
187.7598949689458
 21
367.0645810700351
 31
0.0
 11
188.2160008523084
 21
367.1312507816533
 31
0.0
 11
188.675197149448
 21
367.1711417698921
 31
0.0
 11
189.1398669275501
 21
367.1845055593707
 31
0.0
 11
189.6045367056522
 21
367.1711417698921
 31
0.0
 11
190.0637330027918
 21
367.1312507816533
 31
0.0
 11
190.5198388861543
 21
367.0645810700351
 31
0.0
 11
190.9598516436068
 21
366.9730703156138
 31
0.0
 11
191.3934600249676
 21
366.854659686487
 31
0.0
 11
191.8013358581226
 21
366.7146519875799
 31
0.0
 11
192.1990323501961
 21
366.5476636570845
 31
0.0
 11
192.5629761514561
 21
366.3635957253873
 31
0.0
 11
192.912252733605
 21
366.1527392570703
 31
0.0
 11
193.2219550525337
 21
365.9300993986665
 31
0.0
 11
193.5115653410592
 21
365.6815702201648
 31
0.0
 11
193.7583728871828
 21
365.4265677725877
 31
0.0
 11
193.9786834580192
 21
365.1480163605727
 31
0.0
 11
194.1555141714144
 21
364.8673066125203
 31
0.0
 11
194.298967890883
 21
364.5678516903099
 31
0.0
 11
194.4000240178125
 21
364.2686013449782
 31
0.0
 11
194.4619063670988
 21
363.9586752870214
 31
0.0
 11
194.4826692571902
 21
363.649148452235
 31
0.0
 11
194.4619063670988
 21
363.3396216174486
 31
0.0
 11
194.4000240178125
 21
363.0296955594918
 31
0.0
 11
194.2989678908831
 21
362.7304452141601
 31
0.0
 11
194.1555141714147
 21
362.4309902919496
 31
0.0
 11
193.9786834580195
 21
362.1502805438972
 31
0.0
 11
193.758372887183
 21
361.8717291318824
 31
0.0
 11
193.5115653410593
 21
361.6167266843053
 31
0.0
 11
193.2219550525338
 21
361.3681975058035
 31
0.0
 11
192.9122527336052
 21
361.1455576473998
 31
0.0
 11
192.5629761514562
 21
360.9347011790827
 31
0.0
 11
192.1990323501963
 21
360.7506332473855
 31
0.0
 11
191.8013358581228
 21
360.5836449168902
 31
0.0
 11
191.3934600249677
 21
360.4436372179831
 31
0.0
 11
190.959851643607
 21
360.3252265888563
 31
0.0
 11
190.5198388861544
 21
360.2337158344349
 31
0.0
 11
190.0637330027918
 21
360.1670461228167
 31
0.0
 11
189.6045367056521
 21
360.127155134578
 31
0.0
 11
189.1398669275501
 21
360.1137913450992
 31
0.0
 11
188.675197149448
 21
360.127155134578
 31
0.0
 11
188.2160008523085
 21
360.1670461228167
 31
0.0
 11
187.7598949689459
 21
360.2337158344349
 31
0.0
 11
187.3198822114934
 21
360.3252265888563
 31
0.0
 11
186.8862738301327
 21
360.4436372179831
 31
0.0
 11
186.4783979969778
 21
360.5836449168902
 31
0.0
 11
186.0807015049043
 21
360.7506332473855
 31
0.0
 11
185.7167577036443
 21
360.9347011790828
 31
0.0
 11
185.3674811214952
 21
361.1455576473999
 31
0.0
 11
185.0577788025664
 21
361.3681975058035
 31
0.0
 11
184.7681685140409
 21
361.6167266843053
 31
0.0
 11
184.5213609679174
 21
361.8717291318824
 31
0.0
 11
184.3010503970809
 21
362.1502805438972
 31
0.0
 11
184.1242196836857
 21
362.4309902919495
 31
0.0
 11
183.9807659642172
 21
362.7304452141601
 31
0.0
 11
183.8797098372878
 21
363.0296955594918
 31
0.0
 11
183.8178274880014
 21
363.3396216174486
 31
0.0
 11
183.79706459791
 21
363.649148452235
 31
0.0
 11
183.8178274880014
 21
363.9586752870213
 31
0.0
  0
SPLINE
  5
16A
330
45
100
AcDbEntity
  8
1
  6
Continuous
 62
     7
100
AcDbSpline
210
0.0
220
0.0
230
1.0
 70
    11
 71
     3
 72
    79
 73
    75
 74
    73
 42
0.0000000001
 43
0.0000000001
 44
0.00000001
 40
0.0
 40
0.0
 40
0.0
 40
0.0
 40
0.2811775426108163
 40
0.5623408931991865
 40
0.8457466631367093
 40
1.129126830422743
 40
1.415908903032392
 40
1.702658539054623
 40
1.99352743294014
 40
2.284362055943229
 40
2.579517800564175
 40
2.874641782101798
 40
3.173769982296713
 40
3.472872122788016
 40
3.775199692337281
 40
4.077508957859508
 40
4.381905225139276
 40
4.686292091405221
 40
4.99140045951891
 40
5.296508827632485
 40
5.600895693898472
 40
5.905291961178263
 40
6.207601226700545
 40
6.509928796249863
 40
6.80903093674122
 40
7.108159136936045
 40
7.403283118473575
 40
7.698438863094608
 40
7.989273486097777
 40
8.280142379983381
 40
8.566892016005641
 40
8.853674088615119
 40
9.137054255901232
 40
9.420460025838647
 40
9.701623376427101
 40
9.982800919037933
 40
10.26319552186813
 40
10.54359012469833
 40
10.82476766730926
 40
11.10593101789761
 40
11.38933678783524
 40
11.6727169551213
 40
11.95949902773088
 40
12.24624866375314
 40
12.53711755763874
 40
12.82795218064187
 40
13.12310792526282
 40
13.41823190680033
 40
13.7173601069952
 40
14.01646224748666
 40
14.31878981703587
 40
14.62109908255815
 40
14.92549534983792
 40
15.22988221610385
 40
15.53499058421748
 40
15.84009895233111
 40
16.14448581859714
 40
16.44888208587695
 40
16.75119135139921
 40
17.05351892094847
 40
17.35262106143988
 40
17.65174926163475
 40
17.94687324317226
 40
18.24202898779313
 40
18.53286361079618
 40
18.82373250468183
 40
19.11048214070416
 40
19.39726421331371
 40
19.68064438059993
 40
19.96405015053736
 40
20.24521350112561
 40
20.52639104373655
 40
20.80678564656675
 40
21.08718024939706
 40
21.08718024939706
 40
21.08718024939706
 40
21.08718024939706
 10
565.8973132739268
 20
367.1004094662178
 30
0.0
 10
565.9904093490172
 20
367.088958344128
 30
0.0
 10
566.176596800311
 20
367.0660566779267
 30
0.0
 10
566.4508342536167
 20
366.9980193868778
 30
0.0
 10
566.7185609209241
 20
366.9063972579045
 30
0.0
 10
566.978121409092
 20
366.7887862701194
 30
0.0
 10
567.2268557014595
 20
366.6475679469006
 30
0.0
 10
567.4636698062496
 20
366.4827459761557
 30
0.0
 10
567.6859281703166
 20
366.2966686789907
 30
0.0
 10
567.8927835574518
 20
366.0896438293797
 30
0.0
 10
568.0818973609649
 20
365.8644450316655
 30
0.0
 10
568.252545745116
 20
365.6215801261361
 30
0.0
 10
568.4028630623657
 20
365.3641114951259
 30
0.0
 10
568.5321863977265
 20
365.0928335978545
 30
0.0
 10
568.639219325165
 20
364.8108804439473
 30
0.0
 10
568.7233664628267
 20
364.5194432905774
 30
0.0
 10
568.7839109715344
 20
364.2215053471198
 30
0.0
 10
568.8203981682738
 20
363.9187396823196
 30
0.0
 10
568.8326252246251
 20
363.6137913451003
 30
0.0
 10
568.8203981682739
 20
363.3088430078753
 30
0.0
 10
568.7839109715335
 20
363.006077343092
 30
0.0
 10
568.7233664628312
 20
362.7081393995724
 30
0.0
 10
568.6392193251477
 20
362.4167022464317
 30
0.0
 10
568.5321863977904
 20
362.1347490916742
 30
0.0
 10
568.4028630621297
 20
361.8634711975428
 30
0.0
 10
568.2525457459922
 20
361.6060025548908
 30
0.0
 10
568.0818973577434
 20
361.3631376922543
 30
0.0
 10
567.8927835694077
 20
361.137938735677
 30
0.0
 10
567.6859281264194
 20
360.9309144706737
 30
0.0
 10
567.4636699691971
 20
360.7448350084896
 30
0.0
 10
567.226855102864
 20
360.580021008736
 30
0.0
 10
566.9781236332224
 20
360.4387731403219
 30
0.0
 10
566.7185527293356
 20
360.3212711728679
 30
0.0
 10
566.4508647380656
 20
360.2292442254981
 30
0.0
 10
566.1764840271821
 20
360.162706397878
 30
0.0
 10
565.8979930157191
 20
360.1228036142655
 30
0.0
 10
565.617238179329
 20
360.1092914929361
 30
0.0
 10
565.3364833429391
 20
360.1228036142655
 30
0.0
 10
565.0579923314756
 20
360.1627063978777
 30
0.0
 10
564.7836116205924
 20
360.229244225498
 30
0.0
 10
564.5159236293221
 20
360.3212711728678
 30
0.0
 10
564.2563527254357
 20
360.438773140322
 30
0.0
 10
564.0076212557938
 20
360.5800210087359
 30
0.0
 10
563.7708063894607
 20
360.7448350084896
 30
0.0
 10
563.5485482322382
 20
360.9309144706738
 30
0.0
 10
563.3416927892499
 20
361.1379387356772
 30
0.0
 10
563.1525790009144
 20
361.3631376922541
 30
0.0
 10
562.9819306126656
 20
361.6060025548908
 30
0.0
 10
562.8316132965281
 20
361.863471197543
 30
0.0
 10
562.7022899608674
 20
362.1347490916741
 30
0.0
 10
562.5952570335102
 20
362.4167022464317
 30
0.0
 10
562.5111098958264
 20
362.7081393995724
 30
0.0
 10
562.4505653871246
 20
363.0060773430918
 30
0.0
 10
562.4140781903839
 20
363.3088430078756
 30
0.0
 10
562.4018511340331
 20
363.6137913450992
 30
0.0
 10
562.4140781903839
 20
363.9187396823227
 30
0.0
 10
562.4505653871245
 20
364.2215053471077
 30
0.0
 10
562.5111098958262
 20
364.5194432906227
 30
0.0
 10
562.5952570335118
 20
364.8108804437799
 30
0.0
 10
562.7022899608628
 20
365.0928335984763
 30
0.0
 10
562.8316132965455
 20
365.3641114928328
 30
0.0
 10
562.9819306126027
 20
365.6215801346501
 30
0.0
 10
563.1525790011456
 20
365.8644450003621
 30
0.0
 10
563.3416927883928
 20
366.0896439455494
 30
0.0
 10
563.5485482353853
 20
366.2966682524666
 30
0.0
 10
563.7708063777782
 20
366.4827475594278
 30
0.0
 10
564.0076212987106
 20
366.6475621306685
 30
0.0
 10
564.2563525659749
 20
366.7888078808148
 30
0.0
 10
564.5159242166251
 20
366.9063176645733
 30
0.0
 10
564.7836094349841
 20
366.9983155881469
 30
0.0
 10
565.0580004168402
 20
367.0649609210621
 30
0.0
 10
565.3364531937277
 20
367.1044635070087
 30
0.0
 10
565.6173503509384
 20
367.1194652868262
 30
0.0
 10
565.8039922995972
 20
367.1067614064206
 30
0.0
 10
565.8973132739267
 20
367.1004094662178
 30
0.0
 11
565.8973132739268
 21
367.1004094662178
 31
0.0
 11
566.1756400276604
 21
367.060471656754
 31
0.0
 11
566.4489140622093
 21
366.9943344376148
 31
0.0
 11
566.7169187330385
 21
366.9021806159491
 31
0.0
 11
566.975140371056
 21
366.7854505646743
 31
0.0
 11
567.2245270144066
 21
366.6438516265123
 31
0.0
 11
567.4599733922627
 21
366.4801740259882
 31
0.0
 11
567.6830252410867
 21
366.2934855524116
 31
0.0
 11
567.888693297682
 21
366.0878513421409
 31
0.0
 11
568.0785447024265
 21
365.8618571880145
 31
0.0
 11
568.248317633798
 21
365.6204543788922
 31
0.0
 11
568.3991793162313
 21
365.3621552636687
 31
0.0
 11
568.5279791831629
 21
365.0922058522507
 31
0.0
 11
568.6353114151766
 21
364.8095722532564
 31
0.0
 11
568.7192394367389
 21
364.519146739196
 31
0.0
 11
568.7798740874345
 21
364.2208507005551
 31
0.0
 11
568.8163324383506
 21
363.918655146313
 31
0.0
 11
568.8285463239953
 21
363.6137913450993
 31
0.0
 11
568.8163324383506
 21
363.3089275438857
 31
0.0
 11
568.7798740874346
 21
363.0067319896436
 31
0.0
 11
568.7192394367389
 21
362.7084359510026
 31
0.0
 11
568.6353114151766
 21
362.4180104369422
 31
0.0
 11
568.5279791831629
 21
362.1353768379478
 31
0.0
 11
568.3991793162314
 21
361.8654274265297
 31
0.0
 11
568.248317633798
 21
361.6071283113064
 31
0.0
 11
568.0785447024265
 21
361.3657255021842
 31
0.0
 11
567.888693297682
 21
361.1397313480577
 31
0.0
 11
567.6830252410867
 21
360.9340971377869
 31
0.0
 11
567.4599733922626
 21
360.7474086642103
 31
0.0
 11
567.2245270144064
 21
360.5837310636863
 31
0.0
 11
566.975140371056
 21
360.4421321255242
 31
0.0
 11
566.7169187330384
 21
360.3254020742495
 31
0.0
 11
566.4489140622093
 21
360.2332482525837
 31
0.0
 11
566.1756400276603
 21
360.1671110334447
 31
0.0
 11
565.8973132739267
 21
360.1271732239808
 31
0.0
 11
565.617238179329
 21
360.1137913450993
 31
0.0
 11
565.3371630847313
 21
360.1271732239808
 31
0.0
 11
565.0588363309976
 21
360.1671110334446
 31
0.0
 11
564.7855622964487
 21
360.2332482525837
 31
0.0
 11
564.5175576256194
 21
360.3254020742494
 31
0.0
 11
564.2593359876018
 21
360.4421321255243
 31
0.0
 11
564.0099493442514
 21
360.5837310636863
 31
0.0
 11
563.7745029663952
 21
360.7474086642104
 31
0.0
 11
563.551451117571
 21
360.9340971377869
 31
0.0
 11
563.3457830609757
 21
361.1397313480577
 31
0.0
 11
563.1559316562313
 21
361.3657255021841
 31
0.0
 11
562.9861587248598
 21
361.6071283113063
 31
0.0
 11
562.8352970424264
 21
361.8654274265297
 31
0.0
 11
562.7064971754949
 21
362.1353768379478
 31
0.0
 11
562.5991649434811
 21
362.4180104369422
 31
0.0
 11
562.5152369219188
 21
362.7084359510026
 31
0.0
 11
562.4546022712233
 21
363.0067319896435
 31
0.0
 11
562.4181439203072
 21
363.3089275438856
 31
0.0
 11
562.4059300346627
 21
363.6137913450992
 31
0.0
 11
562.4181439203072
 21
363.9186551463129
 31
0.0
 11
562.4546022712232
 21
364.2208507005551
 31
0.0
 11
562.5152369219189
 21
364.519146739196
 31
0.0
 11
562.5991649434814
 21
364.8095722532564
 31
0.0
 11
562.7064971754951
 21
365.0922058522507
 31
0.0
 11
562.8352970424267
 21
365.3621552636688
 31
0.0
 11
562.9861587248599
 21
365.6204543788923
 31
0.0
 11
563.1559316562314
 21
365.8618571880145
 31
0.0
 11
563.3457830609757
 21
366.0878513421409
 31
0.0
 11
563.5514511175709
 21
366.2934855524117
 31
0.0
 11
563.7745029663952
 21
366.4801740259882
 31
0.0
 11
564.0099493442514
 21
366.6438516265123
 31
0.0
 11
564.2593359876018
 21
366.7854505646743
 31
0.0
 11
564.5175576256196
 21
366.902180615949
 31
0.0
 11
564.7855622964487
 21
366.9943344376148
 31
0.0
 11
565.0588363309975
 21
367.0604716567539
 31
0.0
 11
565.3371630847312
 21
367.1004094662178
 31
0.0
 11
565.6172381793289
 21
367.1137913450993
 31
0.0
 11
565.8973132739267
 21
367.1004094662178
 31
0.0
  0
SPLINE
  5
16B
330
45
100
AcDbEntity
  8
1
  6
Continuous
 62
     7
100
AcDbSpline
210
0.0
220
0.0
230
1.0
 70
    11
 71
     3
 72
    79
 73
    75
 74
    73
 42
0.0000000001
 43
0.0000000001
 44
0.00000001
 40
0.0
 40
0.0
 40
0.0
 40
0.0
 40
0.3064252399305198
 40
0.6126997295784211
 40
0.9327163807028793
 40
1.252505950545996
 40
1.592278744069386
 40
1.931827979827506
 40
2.294403622084087
 40
2.656798547726869
 40
3.042205862991309
 40
3.427481652445397
 40
3.833206192908651
 40
4.238841967633243
 40
4.660421102442439
 40
5.08194608640968
 40
5.513562423792727
 40
5.945153204326151
 40
6.380194333749641
 40
6.81523546317313
 40
7.246826243706559
 40
7.678442581089598
 40
8.099967565056828
 40
8.521546699866148
 40
8.927182474590916
 40
9.332907015054111
 40
9.7181828045081
 40
10.10359011977254
 40
10.46598504541541
 40
10.82856068767195
 40
11.1681099234301
 40
11.50788271695335
 40
11.82767228679647
 40
12.14768893792098
 40
12.45396342756888
 40
12.76038866749942
 40
13.06189449721455
 40
13.36340032692968
 40
13.66982556686028
 40
13.97610005650809
 40
14.29611670763265
 40
14.61590627747576
 40
14.95567907099908
 40
15.2952283067572
 40
15.65780394901382
 40
16.0201988746566
 40
16.40560618992094
 40
16.79088197937513
 40
17.19660651983832
 40
17.60224229456311
 40
18.02382142937221
 40
18.44534641333943
 40
18.87696275072248
 40
19.3085535312559
 40
19.7435946606794
 40
20.178635790103
 40
20.61022657063642
 40
21.04184290801936
 40
21.46336789198659
 40
21.88494702679589
 40
22.29058280152057
 40
22.69630734198377
 40
23.08158313143783
 40
23.4669904467022
 40
23.82938537234508
 40
24.19196101460161
 40
24.5315102503598
 40
24.87128304388313
 40
25.19107261372623
 40
25.51108926485069
 40
25.81736375449848
 40
26.12378899442908
 40
26.42529482414427
 40
26.7268006538594
 40
26.7268006538594
 40
26.7268006538594
 40
26.7268006538594
 10
581.8554110142561
 20
363.9760655952662
 30
0.0
 10
581.8388079306867
 20
364.0769917602426
 30
0.0
 10
581.8056099316726
 20
364.2787944381242
 30
0.0
 10
581.7065918889725
 20
364.5747457104552
 30
0.0
 10
581.5747581882465
 20
364.8618155231886
 30
0.0
 10
581.4045269776104
 20
365.141280541454
 30
0.0
 10
581.2022584499514
 20
365.4065837500341
 30
0.0
 10
580.9648567461859
 20
365.6607861214013
 30
0.0
 10
580.6994017481142
 20
365.8969918477628
 30
0.0
 10
580.402335746514
 20
366.1184706074125
 30
0.0
 10
580.0818482522739
 20
366.3190848177786
 30
0.0
 10
579.734309337695
 20
366.5014539409602
 30
0.0
 10
579.368279387598
 20
366.6608255491533
 30
0.0
 10
578.9808511573602
 20
366.7988489800426
 30
0.0
 10
578.5800649445856
 20
366.9123411430729
 30
0.0
 10
578.1644627783833
 20
367.0020761583604
 30
0.0
 10
577.7407833981772
 20
367.0662784497588
 30
0.0
 10
577.309527475834
 20
367.1052046874665
 30
0.0
 10
576.8755684285286
 20
367.1181017670805
 30
0.0
 10
576.441609381211
 20
367.1052046874674
 30
0.0
 10
576.0103534589035
 20
367.0662784497553
 30
0.0
 10
575.5866740785675
 20
367.0020761583735
 30
0.0
 10
575.1710719128404
 20
366.912341143025
 30
0.0
 10
574.7702856983219
 20
366.7988489802193
 30
0.0
 10
574.3828574743568
 20
366.6608255485215
 30
0.0
 10
574.0168275014257
 20
366.5014539432718
 30
0.0
 10
573.6692886679731
 20
366.3190848096321
 30
0.0
 10
573.3488008801594
 20
366.1184706371112
 30
0.0
 10
573.0517359120358
 20
365.8969917442339
 30
0.0
 10
572.786277186443
 20
365.6607864983947
 30
0.0
 10
572.5488885566061
 20
365.4065824416401
 30
0.0
 10
572.3465728337233
 20
365.1412853170958
 30
0.0
 10
572.1765079605174
 20
364.8617988559212
 30
0.0
 10
572.0440698601374
 20
364.5748069576226
 30
0.0
 10
571.9472160549935
 20
364.2785766888619
 30
0.0
 10
571.8897185730366
 20
363.9784946547167
 30
0.0
 10
571.8697144099367
 20
363.6751832223207
 30
0.0
 10
571.8897185730368
 20
363.3718717899243
 30
0.0
 10
571.9472160549935
 20
363.0717897557794
 30
0.0
 10
572.0440698601371
 20
362.7755594870185
 30
0.0
 10
572.1765079605175
 20
362.4885675887197
 30
0.0
 10
572.3465728337228
 20
362.2090811275454
 30
0.0
 10
572.5488885566064
 20
361.943784003001
 30
0.0
 10
572.786277186443
 20
361.6895799462463
 30
0.0
 10
573.0517359120358
 20
361.4533747004073
 30
0.0
 10
573.3488008801594
 20
361.23189580753
 30
0.0
 10
573.6692886679732
 20
361.031281635009
 30
0.0
 10
574.0168275014258
 20
360.8489125013693
 30
0.0
 10
574.3828574743569
 20
360.6895408961198
 30
0.0
 10
574.7702856983219
 20
360.5515174644218
 30
0.0
 10
575.1710719128403
 20
360.4380253016162
 30
0.0
 10
575.5866740785672
 20
360.3482902862677
 30
0.0
 10
576.0103534589035
 20
360.2840879948858
 30
0.0
 10
576.4416093812114
 20
360.2451617571738
 30
0.0
 10
576.8755684285268
 20
360.2322646775609
 30
0.0
 10
577.3095274758407
 20
360.2451617571737
 30
0.0
 10
577.7407833981517
 20
360.284087994886
 30
0.0
 10
578.1644627784783
 20
360.3482902862669
 30
0.0
 10
578.5800649442391
 20
360.4380253016196
 30
0.0
 10
578.9808511586335
 20
360.5515174644091
 30
0.0
 10
579.3682793830451
 20
360.6895408961647
 30
0.0
 10
579.7343093543501
 20
360.8489125012048
 30
0.0
 10
580.08184819358
 20
361.0312816355889
 30
0.0
 10
580.4023359604877
 20
361.2318958054152
 30
0.0
 10
580.6994010022072
 20
361.4533747077797
 30
0.0
 10
580.964859462356
 20
361.6895799194
 30
0.0
 10
581.2022490232122
 20
361.9437840961742
 30
0.0
 10
581.4045613852345
 20
362.2090807874628
 30
0.0
 10
581.5746381036427
 20
362.4885687756274
 30
0.0
 10
581.7070331635803
 20
362.7755551254919
 30
0.0
 10
581.8040410881742
 20
363.0718052621162
 30
0.0
 10
581.8609715135059
 20
363.3718141957952
 30
0.0
 10
581.8830601903402
 20
363.6753943472551
 30
0.0
 10
581.8646274062842
 20
363.8758418459292
 30
0.0
 10
581.8554110142562
 20
363.9760655952662
 30
0.0
 11
581.8554110142561
 21
363.9760655952662
 31
0.0
 11
581.7976361510047
 21
364.2769949770865
 31
0.0
 11
581.7030802270704
 21
364.5683079363897
 31
0.0
 11
581.5692150604235
 21
364.8589809040966
 31
0.0
 11
581.4035546142306
 21
365.1325169813289
 31
0.0
 11
581.1978955140828
 21
365.4029793368334
 31
0.0
 11
580.9665712024674
 21
365.651540690144
 31
0.0
 11
580.6960618637727
 21
365.8929652001605
 31
0.0
 11
580.4058034750875
 21
366.1099448073348
 31
0.0
 11
580.0793869869559
 21
366.3148620465686
 31
0.0
 11
579.7383877599941
 21
366.494185667854
 31
0.0
 11
579.3665583675679
 21
366.6565288403685
 31
0.0
 11
578.9845241614776
 21
366.7928748968328
 31
0.0
 11
578.5789763795964
 21
366.9080268117874
 31
0.0
 11
578.1669726484822
 21
366.9971123754697
 31
0.0
 11
577.7402564519871
 21
367.0619656741112
 31
0.0
 11
577.3104151280988
 21
367.1007862629714
 31
0.0
 11
576.8755684285266
 21
367.1137913450992
 31
0.0
 11
576.4407217289543
 21
367.1007862629714
 31
0.0
 11
576.010880405066
 21
367.0619656741111
 31
0.0
 11
575.5841642085709
 21
366.9971123754697
 31
0.0
 11
575.1721604774567
 21
366.9080268117875
 31
0.0
 11
574.7666126955754
 21
366.7928748968328
 31
0.0
 11
574.3845784894849
 21
366.6565288403687
 31
0.0
 11
574.0127490970588
 21
366.494185667854
 31
0.0
 11
573.6717498700971
 21
366.3148620465686
 31
0.0
 11
573.3453333819655
 21
366.1099448073348
 31
0.0
 11
573.0550749932802
 21
365.8929652001605
 31
0.0
 11
572.7845656545856
 21
365.651540690144
 31
0.0
 11
572.5532413429701
 21
365.4029793368334
 31
0.0
 11
572.3475822428225
 21
365.1325169813289
 31
0.0
 11
572.1819217966296
 21
364.8589809040966
 31
0.0
 11
572.0480566299826
 21
364.5683079363897
 31
0.0
 11
571.9535007060483
 21
364.2769949770865
 31
0.0
 11
571.8957258427968
 21
363.9760655952662
 31
0.0
 11
571.8763463948468
 21
363.6751832223206
 31
0.0
 11
571.8957258427968
 21
363.374300849375
 31
0.0
 11
571.9535007060483
 21
363.0733714675546
 31
0.0
 11
572.0480566299825
 21
362.7820585082515
 31
0.0
 11
572.1819217966295
 21
362.4913855405445
 31
0.0
 11
572.3475822428223
 21
362.2178494633122
 31
0.0
 11
572.5532413429701
 21
361.9473871078077
 31
0.0
 11
572.7845656545856
 21
361.6988257544972
 31
0.0
 11
573.0550749932803
 21
361.4574012444807
 31
0.0
 11
573.3453333819655
 21
361.2404216373063
 31
0.0
 11
573.671749870097
 21
361.0355043980726
 31
0.0
 11
574.0127490970589
 21
360.8561807767871
 31
0.0
 11
574.384578489485
 21
360.6938376042725
 31
0.0
 11
574.7666126955755
 21
360.5574915478084
 31
0.0
 11
575.1721604774566
 21
360.4423396328537
 31
0.0
 11
575.5841642085708
 21
360.3532540691715
 31
0.0
 11
576.0108804050659
 21
360.28840077053
 31
0.0
 11
576.4407217289541
 21
360.2495801816698
 31
0.0
 11
576.8755684285264
 21
360.2365750995418
 31
0.0
 11
577.3104151280988
 21
360.2495801816698
 31
0.0
 11
577.7402564519871
 21
360.28840077053
 31
0.0
 11
578.1669726484821
 21
360.3532540691715
 31
0.0
 11
578.5789763795963
 21
360.4423396328537
 31
0.0
 11
578.9845241614776
 21
360.5574915478084
 31
0.0
 11
579.366558367568
 21
360.6938376042725
 31
0.0
 11
579.7383877599941
 21
360.8561807767871
 31
0.0
 11
580.0793869869559
 21
361.0355043980725
 31
0.0
 11
580.4058034750874
 21
361.2404216373063
 31
0.0
 11
580.6960618637727
 21
361.4574012444807
 31
0.0
 11
580.9665712024673
 21
361.6988257544972
 31
0.0
 11
581.1978955140829
 21
361.9473871078077
 31
0.0
 11
581.4035546142306
 21
362.2178494633122
 31
0.0
 11
581.5692150604234
 21
362.4913855405446
 31
0.0
 11
581.7030802270703
 21
362.7820585082515
 31
0.0
 11
581.7976361510046
 21
363.0733714675546
 31
0.0
 11
581.8554110142561
 21
363.374300849375
 31
0.0
 11
581.8747904622062
 21
363.6751832223206
 31
0.0
 11
581.8554110142562
 21
363.9760655952662
 31
0.0
  0
SPLINE
  5
16C
330
45
100
AcDbEntity
  8
1
  6
Continuous
 62
     7
100
AcDbSpline
210
0.0
220
0.0
230
1.0
 70
    11
 71
     3
 72
    79
 73
    75
 74
    73
 42
0.0000000001
 43
0.0000000001
 44
0.00000001
 40
0.0
 40
0.0
 40
0.0
 40
0.0
 40
0.2811775426108163
 40
0.5623408931992968
 40
0.8457466631368197
 40
1.12912683042306
 40
1.41590890303261
 40
1.702658539054842
 40
1.993527432940534
 40
2.284362055943461
 40
2.57951780056448
 40
2.874641782102037
 40
3.173769982296952
 40
3.472872122788256
 40
3.77519969233748
 40
4.077508957859739
 40
4.38190522513953
 40
4.686292091405462
 40
4.991400459519145
 40
5.296508827632716
 40
5.600895693898717
 40
5.905291961178484
 40
6.207601226700798
 40
6.509928796250076
 40
6.809030936741483
 40
7.108159136936308
 40
7.403283118473773
 40
7.698438863094806
 40
7.989273486097894
 40
8.280142379983586
 40
8.566892016005845
 40
8.853674088615422
 40
9.137054255901433
 40
9.420460025838848
 40
9.701623376427301
 40
9.982800919038246
 40
10.26319552186856
 40
10.54359012469864
 40
10.82476766730957
 40
11.10593101789804
 40
11.38933678783545
 40
11.67271695512151
 40
11.95949902773109
 40
12.24624866375335
 40
12.53711755763904
 40
12.82795218064209
 40
13.12310792526303
 40
13.41823190680054
 40
13.71736010699536
 40
14.01646224748687
 40
14.31878981703604
 40
14.62109908255835
 40
14.92549534983812
 40
15.22988221610407
 40
15.53499058421769
 40
15.84009895233131
 40
16.14448581859735
 40
16.44888208587715
 40
16.7511913513994
 40
17.05351892094863
 40
17.35262106144003
 40
17.6517492616349
 40
17.94687324317241
 40
18.24202898779343
 40
18.53286361079648
 40
18.82373250468205
 40
19.11048214070437
 40
19.39726421331392
 40
19.68064438060004
 40
19.96405015053747
 40
20.24521350112583
 40
20.52639104373688
 40
20.80678564656708
 40
21.08718024939728
 40
21.08718024939728
 40
21.08718024939728
 40
21.08718024939728
 10
587.8538235831265
 20
367.1004094662178
 30
0.0
 10
587.7607275080361
 20
367.088958344128
 30
0.0
 10
587.5745400567425
 20
367.0660566779268
 30
0.0
 10
587.3003026034363
 20
366.9980193868778
 30
0.0
 10
587.0325759361294
 20
366.9063972579044
 30
0.0
 10
586.7730154479608
 20
366.7887862701195
 30
0.0
 10
586.5242811555938
 20
366.6475679469004
 30
0.0
 10
586.2874670508031
 20
366.4827459761555
 30
0.0
 10
586.0652086867365
 20
366.2966686789911
 30
0.0
 10
585.8583532996013
 20
366.0896438293795
 30
0.0
 10
585.669239496088
 20
365.8644450316658
 30
0.0
 10
585.498591111937
 20
365.6215801261361
 30
0.0
 10
585.3482737946877
 20
365.3641114951259
 30
0.0
 10
585.2189504593265
 20
365.0928335978545
 30
0.0
 10
585.1119175318886
 20
364.8108804439471
 30
0.0
 10
585.0277703942264
 20
364.5194432905774
 30
0.0
 10
584.9672258855185
 20
364.2215053471199
 30
0.0
 10
584.9307386887795
 20
363.9187396823195
 30
0.0
 10
584.9185116324284
 20
363.6137913451004
 30
0.0
 10
584.930738688779
 20
363.3088430078753
 30
0.0
 10
584.9672258855201
 20
363.0060773430919
 30
0.0
 10
585.0277703942218
 20
362.7081393995724
 30
0.0
 10
585.1119175319057
 20
362.4167022464318
 30
0.0
 10
585.2189504592627
 20
362.134749091674
 30
0.0
 10
585.3482737949234
 20
361.863471197543
 30
0.0
 10
585.4985911110611
 20
361.6060025548909
 30
0.0
 10
585.6692394993098
 20
361.3631376922542
 30
0.0
 10
585.8583532876453
 20
361.1379387356772
 30
0.0
 10
586.0652087306336
 20
360.9309144706737
 30
0.0
 10
586.2874668878561
 20
360.7448350084896
 30
0.0
 10
586.5242817541891
 20
360.5800210087359
 30
0.0
 10
586.7730132238311
 20
360.4387731403219
 30
0.0
 10
587.0325841277174
 20
360.321271172868
 30
0.0
 10
587.3002721189878
 20
360.229244225498
 30
0.0
 10
587.5746528298707
 20
360.1627063978781
 30
0.0
 10
587.8531438413344
 20
360.1228036142654
 30
0.0
 10
588.1338986777244
 20
360.1092914929362
 30
0.0
 10
588.4146535141142
 20
360.1228036142654
 30
0.0
 10
588.6931445255775
 20
360.1627063978779
 30
0.0
 10
588.9675252364607
 20
360.229244225498
 30
0.0
 10
589.235213227731
 20
360.3212711728678
 30
0.0
 10
589.4947841316176
 20
360.4387731403222
 30
0.0
 10
589.7435156012591
 20
360.5800210087359
 30
0.0
 10
589.9803304675925
 20
360.7448350084896
 30
0.0
 10
590.2025886248148
 20
360.9309144706737
 30
0.0
 10
590.4094440678032
 20
361.1379387356772
 30
0.0
 10
590.5985578561387
 20
361.363137692254
 30
0.0
 10
590.7692062443875
 20
361.606002554891
 30
0.0
 10
590.919523560525
 20
361.8634711975429
 30
0.0
 10
591.0488468961859
 20
362.1347490916742
 30
0.0
 10
591.1558798235427
 20
362.4167022464317
 30
0.0
 10
591.2400269612269
 20
362.7081393995724
 30
0.0
 10
591.3005714699285
 20
363.0060773430918
 30
0.0
 10
591.3370586666695
 20
363.3088430078755
 30
0.0
 10
591.34928572302
 20
363.6137913450994
 30
0.0
 10
591.3370586666695
 20
363.9187396823227
 30
0.0
 10
591.3005714699286
 20
364.2215053471077
 30
0.0
 10
591.2400269612272
 20
364.5194432906228
 30
0.0
 10
591.1558798235416
 20
364.8108804437798
 30
0.0
 10
591.0488468961904
 20
365.0928335984763
 30
0.0
 10
590.9195235605081
 20
365.3641114928328
 30
0.0
 10
590.7692062444504
 20
365.6215801346501
 30
0.0
 10
590.5985578559078
 20
365.8644450003623
 30
0.0
 10
590.4094440686605
 20
366.0896439455493
 30
0.0
 10
590.2025886216677
 20
366.2966682524667
 30
0.0
 10
589.9803304792752
 20
366.4827475594279
 30
0.0
 10
589.7435155583426
 20
366.6475621306685
 30
0.0
 10
589.4947842910785
 20
366.7888078808149
 30
0.0
 10
589.2352126404282
 20
366.9063176645733
 30
0.0
 10
588.9675274220689
 20
366.9983155881469
 30
0.0
 10
588.6931364402132
 20
367.064960921062
 30
0.0
 10
588.4146836633252
 20
367.1044635070086
 30
0.0
 10
588.1337865061148
 20
367.1194652868263
 30
0.0
 10
587.9471445574559
 20
367.1067614064206
 30
0.0
 10
587.8538235831265
 20
367.1004094662178
 30
0.0
 11
587.8538235831265
 21
367.1004094662178
 31
0.0
 11
587.5754968293929
 21
367.060471656754
 31
0.0
 11
587.3022227948439
 21
366.9943344376148
 31
0.0
 11
587.0342181240147
 21
366.9021806159491
 31
0.0
 11
586.775996485997
 21
366.7854505646743
 31
0.0
 11
586.5266098426465
 21
366.6438516265123
 31
0.0
 11
586.2911634647904
 21
366.4801740259882
 31
0.0
 11
586.0681116159661
 21
366.2934855524116
 31
0.0
 11
585.8624435593711
 21
366.0878513421409
 31
0.0
 11
585.6725921546265
 21
365.8618571880145
 31
0.0
 11
585.5028192232551
 21
365.6204543788922
 31
0.0
 11
585.3519575408218
 21
365.3621552636687
 31
0.0
 11
585.2231576738902
 21
365.0922058522507
 31
0.0
 11
585.1158254418766
 21
364.8095722532564
 31
0.0
 11
585.0318974203142
 21
364.519146739196
 31
0.0
 11
584.9712627696185
 21
364.2208507005551
 31
0.0
 11
584.9348044187025
 21
363.918655146313
 31
0.0
 11
584.9225905330579
 21
363.6137913450993
 31
0.0
 11
584.9348044187025
 21
363.3089275438857
 31
0.0
 11
584.9712627696187
 21
363.0067319896436
 31
0.0
 11
585.0318974203142
 21
362.7084359510026
 31
0.0
 11
585.1158254418766
 21
362.4180104369422
 31
0.0
 11
585.2231576738902
 21
362.1353768379478
 31
0.0
 11
585.3519575408218
 21
361.8654274265297
 31
0.0
 11
585.5028192232552
 21
361.6071283113064
 31
0.0
 11
585.6725921546266
 21
361.3657255021842
 31
0.0
 11
585.8624435593711
 21
361.1397313480577
 31
0.0
 11
586.0681116159663
 21
360.9340971377869
 31
0.0
 11
586.2911634647905
 21
360.7474086642103
 31
0.0
 11
586.5266098426467
 21
360.5837310636863
 31
0.0
 11
586.7759964859972
 21
360.4421321255242
 31
0.0
 11
587.0342181240147
 21
360.3254020742495
 31
0.0
 11
587.3022227948438
 21
360.2332482525837
 31
0.0
 11
587.5754968293928
 21
360.1671110334447
 31
0.0
 11
587.8538235831265
 21
360.1271732239808
 31
0.0
 11
588.1338986777244
 21
360.1137913450993
 31
0.0
 11
588.4139737723219
 21
360.1271732239808
 31
0.0
 11
588.6923005260557
 21
360.1671110334446
 31
0.0
 11
588.9655745606046
 21
360.2332482525837
 31
0.0
 11
589.2335792314337
 21
360.3254020742494
 31
0.0
 11
589.4918008694513
 21
360.4421321255243
 31
0.0
 11
589.7411875128017
 21
360.5837310636863
 31
0.0
 11
589.9766338906579
 21
360.7474086642104
 31
0.0
 11
590.1996857394822
 21
360.9340971377869
 31
0.0
 11
590.4053537960774
 21
361.1397313480577
 31
0.0
 11
590.5952052008219
 21
361.3657255021841
 31
0.0
 11
590.7649781321933
 21
361.6071283113063
 31
0.0
 11
590.9158398146266
 21
361.8654274265297
 31
0.0
 11
591.0446396815582
 21
362.1353768379478
 31
0.0
 11
591.1519719135719
 21
362.4180104369422
 31
0.0
 11
591.2358999351343
 21
362.7084359510026
 31
0.0
 11
591.2965345858298
 21
363.0067319896435
 31
0.0
 11
591.332992936746
 21
363.3089275438856
 31
0.0
 11
591.3452068223904
 21
363.6137913450992
 31
0.0
 11
591.332992936746
 21
363.9186551463129
 31
0.0
 11
591.2965345858299
 21
364.2208507005551
 31
0.0
 11
591.2358999351343
 21
364.519146739196
 31
0.0
 11
591.1519719135719
 21
364.8095722532564
 31
0.0
 11
591.0446396815582
 21
365.0922058522507
 31
0.0
 11
590.9158398146267
 21
365.3621552636688
 31
0.0
 11
590.7649781321934
 21
365.6204543788923
 31
0.0
 11
590.595205200822
 21
365.8618571880145
 31
0.0
 11
590.4053537960774
 21
366.0878513421409
 31
0.0
 11
590.1996857394822
 21
366.2934855524117
 31
0.0
 11
589.976633890658
 21
366.4801740259882
 31
0.0
 11
589.7411875128018
 21
366.6438516265123
 31
0.0
 11
589.4918008694514
 21
366.7854505646743
 31
0.0
 11
589.2335792314337
 21
366.902180615949
 31
0.0
 11
588.9655745606046
 21
366.9943344376148
 31
0.0
 11
588.6923005260558
 21
367.0604716567539
 31
0.0
 11
588.4139737723219
 21
367.1004094662178
 31
0.0
 11
588.1338986777242
 21
367.1137913450993
 31
0.0
 11
587.8538235831265
 21
367.1004094662178
 31
0.0
  0
ENDBLK
  5
47
330
45
100
AcDbEntity
  8
0
100
AcDbBlockEnd
  0
BLOCK
  5
49
330
48
100
AcDbEntity
  8
0
100
AcDbBlockBegin
  2
42-1
 70
     0
 71
     0
 10
488.771308341923
 20
182.3241423355145
 30
0.0
  3
42-1
  1

  0
LINE
  5
16D
330
48
100
AcDbEntity
  8
1
  6
Continuous
 62
     2
100
AcDbLine
 10
183.8592134632318
 20
389.0908903566601
 30
0.0
 11
183.8592134632318
 21
390.3561294472706
 31
0.0
  0
LINE
  5
16E
330
48
100
AcDbEntity
  8
1
  6
Continuous
 62
     2
100
AcDbLine
 10
184.8592134632318
 20
388.8313541329451
 30
0.0
 11
184.8592134632318
 21
390.5994446570033
 31
0.0
  0
LINE
  5
16F
330
48
100
AcDbEntity
  8
1
  6
Continuous
 62
     2
100
AcDbLine
 10
185.8592134632318
 20
388.4744918253371
 30
0.0
 11
185.8592134632318
 21
390.8103178387717
 31
0.0
  0
LINE
  5
170
330
48
100
AcDbEntity
  8
1
  6
Continuous
 62
     2
100
AcDbLine
 10
186.8592134632318
 20
388.2798396575509
 30
0.0
 11
186.8592134632318
 21
390.923864936647
 31
0.0
  0
LINE
  5
171
330
48
100
AcDbEntity
  8
1
  6
Continuous
 62
     2
100
AcDbLine
 10
187.8592134632318
 20
388.1137913450993
 30
0.0
 11
187.8592134632318
 21
391.1137913450993
 31
0.0
  0
LINE
  5
172
330
48
100
AcDbEntity
  8
1
  6
Continuous
 62
     2
100
AcDbLine
 10
188.8592134632319
 20
388.1137913450993
 30
0.0
 11
188.8592134632319
 21
391.1137913450993
 31
0.0
  0
LINE
  5
173
330
48
100
AcDbEntity
  8
1
  6
Continuous
 62
     7
100
AcDbLine
 10
188.8592134632319
 20
391.3831135441225
 30
0.0
 11
189.8592134632319
 21
391.1137913450993
 31
0.0
  0
LINE
  5
174
330
48
100
AcDbEntity
  8
1
  6
Continuous
 62
     7
100
AcDbLine
 10
189.8592134632319
 20
391.1137913450993
 30
0.0
 11
189.8592134632319
 21
388.1137913450993
 31
0.0
  0
LINE
  5
175
330
48
100
AcDbEntity
  8
1
  6
Continuous
 62
     7
100
AcDbLine
 10
175.8592134632319
 20
388.1137913450993
 30
0.0
 11
175.8592134632319
 21
391.1137913450993
 31
0.0
  0
LINE
  5
176
330
48
100
AcDbEntity
  8
1
  6
Continuous
 62
     7
100
AcDbLine
 10
175.8592134632319
 20
391.1137913450993
 30
0.0
 11
176.8592134632318
 21
391.3831135441225
 31
0.0
  0
LINE
  5
177
330
48
100
AcDbEntity
  8
1
  6
Continuous
 62
     2
100
AcDbLine
 10
176.8592134632319
 20
391.1137913450993
 30
0.0
 11
176.8592134632319
 21
388.1137913450993
 31
0.0
  0
LINE
  5
178
330
48
100
AcDbEntity
  8
1
  6
Continuous
 62
     7
100
AcDbLine
 10
175.8592134632319
 20
388.1137913450993
 30
0.0
 11
189.8592134632319
 21
388.1137913450993
 31
0.0
  0
LINE
  5
179
330
48
100
AcDbEntity
  8
1
  6
Continuous
 62
     2
100
AcDbLine
 10
177.8592134632319
 20
391.1137913450993
 30
0.0
 11
177.8592134632319
 21
388.1137913450993
 31
0.0
  0
LINE
  5
17A
330
48
100
AcDbEntity
  8
1
  6
Continuous
 62
     2
100
AcDbLine
 10
178.8592134632319
 20
390.923864936647
 30
0.0
 11
178.8592134632319
 21
388.2798396575509
 31
0.0
  0
LINE
  5
17B
330
48
100
AcDbEntity
  8
1
  6
Continuous
 62
     2
100
AcDbLine
 10
179.8592134632319
 20
390.8103178387717
 30
0.0
 11
179.8592134632319
 21
388.4744918253371
 31
0.0
  0
LINE
  5
17C
330
48
100
AcDbEntity
  8
1
  6
Continuous
 62
     2
100
AcDbLine
 10
180.8592134632319
 20
390.5994446570033
 30
0.0
 11
180.8592134632319
 21
388.8313541329451
 31
0.0
  0
LINE
  5
17D
330
48
100
AcDbEntity
  8
1
  6
Continuous
 62
     2
100
AcDbLine
 10
181.8592134632319
 20
390.3561294472706
 30
0.0
 11
181.8592134632319
 21
389.0908903566601
 31
0.0
  0
LINE
  5
17E
330
48
100
AcDbEntity
  8
1
  6
Continuous
 62
     7
100
AcDbLine
 10
177.1092134632319
 20
391.4435570653031
 30
0.0
 11
188.6092134632318
 21
391.4435570653031
 31
0.0
  0
LINE
  5
17F
330
48
100
AcDbEntity
  8
1
  6
Continuous
 62
     7
100
AcDbLine
 10
175.8592134632319
 20
391.1137913450993
 30
0.0
 11
189.8592134632319
 21
391.1137913450993
 31
0.0
  0
LINE
  5
180
330
48
100
AcDbEntity
  8
1
  6
Continuous
 62
     2
100
AcDbLine
 10
577.8755684285264
 20
389.0908903566601
 30
0.0
 11
577.8755684285264
 21
390.3561294472706
 31
0.0
  0
LINE
  5
181
330
48
100
AcDbEntity
  8
1
  6
Continuous
 62
     2
100
AcDbLine
 10
578.8755684285264
 20
388.8313541329451
 30
0.0
 11
578.8755684285264
 21
390.5994446570033
 31
0.0
  0
LINE
  5
182
330
48
100
AcDbEntity
  8
1
  6
Continuous
 62
     2
100
AcDbLine
 10
579.8755684285264
 20
388.4744918253371
 30
0.0
 11
579.8755684285264
 21
390.8103178387717
 31
0.0
  0
LINE
  5
183
330
48
100
AcDbEntity
  8
1
  6
Continuous
 62
     2
100
AcDbLine
 10
580.8755684285264
 20
388.2798396575509
 30
0.0
 11
580.8755684285264
 21
390.923864936647
 31
0.0
  0
LINE
  5
184
330
48
100
AcDbEntity
  8
1
  6
Continuous
 62
     2
100
AcDbLine
 10
581.8755684285264
 20
388.1137913450993
 30
0.0
 11
581.8755684285264
 21
391.1137913450993
 31
0.0
  0
LINE
  5
185
330
48
100
AcDbEntity
  8
1
  6
Continuous
 62
     2
100
AcDbLine
 10
582.8755684285266
 20
388.1137913450993
 30
0.0
 11
582.8755684285266
 21
391.1137913450993
 31
0.0
  0
LINE
  5
186
330
48
100
AcDbEntity
  8
1
  6
Continuous
 62
     7
100
AcDbLine
 10
582.8755684285266
 20
391.3831135441225
 30
0.0
 11
583.8755684285266
 21
391.1137913450993
 31
0.0
  0
LINE
  5
187
330
48
100
AcDbEntity
  8
1
  6
Continuous
 62
     7
100
AcDbLine
 10
583.8755684285266
 20
391.1137913450993
 30
0.0
 11
583.8755684285266
 21
388.1137913450993
 31
0.0
  0
LINE
  5
188
330
48
100
AcDbEntity
  8
1
  6
Continuous
 62
     7
100
AcDbLine
 10
569.8755684285266
 20
388.1137913450993
 30
0.0
 11
569.8755684285266
 21
391.1137913450993
 31
0.0
  0
LINE
  5
189
330
48
100
AcDbEntity
  8
1
  6
Continuous
 62
     7
100
AcDbLine
 10
569.8755684285266
 20
391.1137913450993
 30
0.0
 11
570.8755684285264
 21
391.3831135441225
 31
0.0
  0
LINE
  5
18A
330
48
100
AcDbEntity
  8
1
  6
Continuous
 62
     2
100
AcDbLine
 10
570.8755684285266
 20
391.1137913450993
 30
0.0
 11
570.8755684285266
 21
388.1137913450993
 31
0.0
  0
LINE
  5
18B
330
48
100
AcDbEntity
  8
1
  6
Continuous
 62
     7
100
AcDbLine
 10
569.8755684285266
 20
388.1137913450993
 30
0.0
 11
583.8755684285266
 21
388.1137913450993
 31
0.0
  0
LINE
  5
18C
330
48
100
AcDbEntity
  8
1
  6
Continuous
 62
     2
100
AcDbLine
 10
571.8755684285266
 20
391.1137913450993
 30
0.0
 11
571.8755684285266
 21
388.1137913450993
 31
0.0
  0
LINE
  5
18D
330
48
100
AcDbEntity
  8
1
  6
Continuous
 62
     2
100
AcDbLine
 10
572.8755684285266
 20
390.923864936647
 30
0.0
 11
572.8755684285266
 21
388.2798396575509
 31
0.0
  0
LINE
  5
18E
330
48
100
AcDbEntity
  8
1
  6
Continuous
 62
     2
100
AcDbLine
 10
573.8755684285266
 20
390.8103178387717
 30
0.0
 11
573.8755684285266
 21
388.4744918253371
 31
0.0
  0
LINE
  5
18F
330
48
100
AcDbEntity
  8
1
  6
Continuous
 62
     2
100
AcDbLine
 10
574.8755684285266
 20
390.5994446570033
 30
0.0
 11
574.8755684285266
 21
388.8313541329451
 31
0.0
  0
LINE
  5
190
330
48
100
AcDbEntity
  8
1
  6
Continuous
 62
     2
100
AcDbLine
 10
575.8755684285266
 20
390.3561294472706
 30
0.0
 11
575.8755684285266
 21
389.0908903566601
 31
0.0
  0
LINE
  5
191
330
48
100
AcDbEntity
  8
1
  6
Continuous
 62
     7
100
AcDbLine
 10
571.1255684285266
 20
391.4435570653031
 30
0.0
 11
582.6255684285264
 21
391.4435570653031
 31
0.0
  0
LINE
  5
192
330
48
100
AcDbEntity
  8
1
  6
Continuous
 62
     7
100
AcDbLine
 10
569.8755684285266
 20
391.1137913450993
 30
0.0
 11
583.8755684285266
 21
391.1137913450993
 31
0.0
  0
ARC
  5
193
330
48
100
AcDbEntity
  8
1
  6
Continuous
 62
     7
100
AcDbCircle
 10
182.8592134632319
 20
367.1137913450993
 30
0.0
 40
25.00000000000004
100
AcDbArc
 50
76.11345963737104
 51
90.0
  0
ARC
  5
194
330
48
100
AcDbEntity
  8
1
  6
Continuous
 62
     7
100
AcDbCircle
 10
182.8592134632319
 20
367.1137913450993
 30
0.0
 40
25.0
100
AcDbArc
 50
90.0
 51
103.8865403626292
  0
ARC
  5
195
330
48
100
AcDbEntity
  8
1
  6
Continuous
 62
     7
100
AcDbCircle
 10
576.8755684285266
 20
367.1137913450993
 30
0.0
 40
25.00000000000004
100
AcDbArc
 50
76.11345963737104
 51
90.0
  0
ARC
  5
196
330
48
100
AcDbEntity
  8
1
  6
Continuous
 62
     7
100
AcDbCircle
 10
576.8755684285266
 20
367.1137913450993
 30
0.0
 40
25.0
100
AcDbArc
 50
90.0
 51
103.8865403626292
  0
CIRCLE
  5
197
330
48
100
AcDbEntity
  8
1
  6
Continuous
 62
     7
100
AcDbCircle
 10
182.8592134632319
 20
783.7980399121153
 30
0.0
 40
6.999999999999915
  0
CIRCLE
  5
198
330
48
100
AcDbEntity
  8
1
  6
Continuous
 62
     7
100
AcDbCircle
 10
182.8592134632319
 20
783.7980399121153
 30
0.0
 40
5.749999999999915
  0
ENDBLK
  5
4A
330
48
100
AcDbEntity
  8
0
100
AcDbBlockEnd
  0
BLOCK
  5
4C
330
4B
100
AcDbEntity
  8
0
100
AcDbBlockBegin
  2
_J__A4
 70
     0
 71
     0
 10
0.0
 20
0.0
 30
0.0
  3
_J__A4
  1

  0
POINT
  5
199
330
4B
100
AcDbEntity
  8
1
 62
     4
100
AcDbPoint
 10
93.75
 20
17.0
 30
0.0
  0
POINT
  5
19A
330
4B
100
AcDbEntity
  8
1
 62
     4
100
AcDbPoint
 10
85.25
 20
17.0
 30
0.0
  0
POINT
  5
19B
330
4B
100
AcDbEntity
  8
1
 62
     4
100
AcDbPoint
 10
106.5
 20
19.00000000000001
 30
0.0
  0
POINT
  5
19C
330
4B
100
AcDbEntity
  8
1
 62
     4
100
AcDbPoint
 10
106.5
 20
12.5
 30
0.0
  0
POINT
  5
19D
330
4B
100
AcDbEntity
  8
1
 62
     4
100
AcDbPoint
 10
112.25
 20
12.5
 30
0.0
  0
POINT
  5
19E
330
4B
100
AcDbEntity
  8
1
 62
     4
100
AcDbPoint
 10
100.75
 20
12.5
 30
0.0
  0
POINT
  5
19F
330
4B
100
AcDbEntity
  8
1
 62
     4
100
AcDbPoint
 10
123.5
 20
19.00000000000001
 30
0.0
  0
POINT
  5
1A0
330
4B
100
AcDbEntity
  8
1
 62
     4
100
AcDbPoint
 10
123.5
 20
12.5
 30
0.0
  0
POINT
  5
1A1
330
4B
100
AcDbEntity
  8
1
 62
     4
100
AcDbPoint
 10
129.25
 20
12.5
 30
0.0
  0
POINT
  5
1A2
330
4B
100
AcDbEntity
  8
1
 62
     4
100
AcDbPoint
 10
117.75
 20
12.5
 30
0.0
  0
POINT
  5
1A3
330
4B
100
AcDbEntity
  8
1
 62
     4
100
AcDbPoint
 10
140.5
 20
19.00000000000001
 30
0.0
  0
POINT
  5
1A4
330
4B
100
AcDbEntity
  8
1
 62
     4
100
AcDbPoint
 10
140.5
 20
12.5
 30
0.0
  0
POINT
  5
1A5
330
4B
100
AcDbEntity
  8
1
 62
     4
100
AcDbPoint
 10
146.25
 20
12.5
 30
0.0
  0
POINT
  5
1A6
330
4B
100
AcDbEntity
  8
1
 62
     4
100
AcDbPoint
 10
134.75
 20
12.5
 30
0.0
  0
POINT
  5
1A7
330
4B
100
AcDbEntity
  8
1
 62
     4
100
AcDbPoint
 10
151.75
 20
12.5
 30
0.0
  0
POINT
  5
1A8
330
4B
100
AcDbEntity
  8
1
 62
     4
100
AcDbPoint
 10
163.25
 20
12.5
 30
0.0
  0
POINT
  5
1A9
330
4B
100
AcDbEntity
  8
1
 62
     4
100
AcDbPoint
 10
157.5
 20
12.5
 30
0.0
  0
POINT
  5
1AA
330
4B
100
AcDbEntity
  8
1
 62
     4
100
AcDbPoint
 10
57.0
 20
14.25
 30
0.0
  0
POINT
  5
1AB
330
4B
100
AcDbEntity
  8
1
 62
     4
100
AcDbPoint
 10
57.0
 20
22.75000000000001
 30
0.0
  0
POINT
  5
1AC
330
4B
100
AcDbEntity
  8
1
 62
     4
100
AcDbPoint
 10
47.5
 20
282.0000000000003
 30
0.0
  0
POINT
  5
1AD
330
4B
100
AcDbEntity
  8
1
 62
     4
100
AcDbPoint
 10
157.5
 20
19.00000000000001
 30
0.0
  0
POINT
  5
1AE
330
4B
100
AcDbEntity
  8
1
 62
     4
100
AcDbPoint
 10
57.0
 20
16.25
 30
0.0
  0
POINT
  5
1AF
330
4B
100
AcDbEntity
  8
1
 62
     4
100
AcDbPoint
 10
57.0
 20
24.75000000000001
 30
0.0
  0
POINT
  5
1B0
330
4B
100
AcDbEntity
  8
1
 62
     4
100
AcDbPoint
 10
57.0
 20
20.75000000000001
 30
0.0
  0
POINT
  5
1B1
330
4B
100
AcDbEntity
  8
1
 62
     4
100
AcDbPoint
 10
57.0
 20
12.25
 30
0.0
  0
POINT
  5
1B2
330
4B
100
AcDbEntity
  8
1
 62
     4
100
AcDbPoint
 10
34.0
 20
34.00000000000001
 30
0.0
  0
LINE
  5
1B3
330
4B
100
AcDbEntity
  8
1
  6
Continuous
 62
     7
100
AcDbLine
 10
105.0
 20
10.0
 30
0.0
 11
200.0
 21
10.0
 31
0.0
  0
LINE
  5
1B4
330
4B
100
AcDbEntity
  8
1
  6
Continuous
 62
     2
100
AcDbLine
 10
105.0
 20
10.0
 30
0.0
 11
105.0
 21
5.0
 31
0.0
  0
LINE
  5
1B5
330
4B
100
AcDbEntity
  8
1
  6
Continuous
 62
     7
100
AcDbLine
 10
200.0
 20
148.5
 30
0.0
 11
200.0
 21
287.0000000000003
 31
0.0
  0
LINE
  5
1B6
330
4B
100
AcDbEntity
  8
1
  6
Continuous
 62
     2
100
AcDbLine
 10
200.0
 20
148.5
 30
0.0
 11
205.0
 21
148.5
 31
0.0
  0
LINE
  5
1B7
330
4B
100
AcDbEntity
  8
1
  6
Continuous
 62
     7
100
AcDbLine
 10
25.0
 20
148.5
 30
0.0
 11
25.0
 21
287.0000000000003
 31
0.0
  0
LINE
  5
1B8
330
4B
100
AcDbEntity
  8
1
  6
Continuous
 62
     2
100
AcDbLine
 10
25.0
 20
148.5
 30
0.0
 11
20.0
 21
148.5
 31
0.0
  0
LINE
  5
1B9
330
4B
100
AcDbEntity
  8
1
  6
Continuous
 62
     7
100
AcDbLine
 10
105.0
 20
287.0000000000003
 30
0.0
 11
25.0
 21
287.0000000000003
 31
0.0
  0
LINE
  5
1BA
330
4B
100
AcDbEntity
  8
1
  6
Continuous
 62
     2
100
AcDbLine
 10
105.0
 20
287.0000000000003
 30
0.0
 11
105.0
 21
292.0000000000003
 31
0.0
  0
LINE
  5
1BB
330
4B
100
AcDbEntity
  8
1
  6
Continuous
 62
     2
100
AcDbLine
 10
166.0
 20
20.00000000000001
 30
0.0
 11
200.0
 21
20.00000000000001
 31
0.0
  0
LINE
  5
1BC
330
4B
100
AcDbEntity
  8
1
  6
Continuous
 62
     2
100
AcDbLine
 10
98.0
 20
27.00000000000001
 30
0.0
 11
98.0
 21
9.99999999999999
 31
0.0
  0
LINE
  5
1BD
330
4B
100
AcDbEntity
  8
1
  6
Continuous
 62
     2
100
AcDbLine
 10
115.0
 20
27.00000000000001
 30
0.0
 11
115.0
 21
9.99999999999999
 31
0.0
  0
LINE
  5
1BE
330
4B
100
AcDbEntity
  8
1
  6
Continuous
 62
     2
100
AcDbLine
 10
149.0
 20
27.00000000000001
 30
0.0
 11
149.0
 21
10.0
 31
0.0
  0
LINE
  5
1BF
330
4B
100
AcDbEntity
  8
1
  6
Continuous
 62
     2
100
AcDbLine
 10
132.0
 20
27.00000000000001
 30
0.0
 11
132.0
 21
9.99999999999999
 31
0.0
  0
LINE
  5
1C0
330
4B
100
AcDbEntity
  8
1
  6
Continuous
 62
     2
100
AcDbLine
 10
166.0
 20
27.00000000000001
 30
0.0
 11
166.0
 21
10.0
 31
0.0
  0
LINE
  5
1C1
330
4B
100
AcDbEntity
  8
1
  6
Continuous
 62
     2
100
AcDbLine
 10
55.0
 20
277.0000000000003
 30
0.0
 11
25.0
 21
277.0000000000003
 31
0.0
  0
LINE
  5
1C2
330
4B
100
AcDbEntity
  8
1
  6
Continuous
 62
     7
100
AcDbLine
 10
25.0
 20
10.0
 30
0.0
 11
25.0
 21
148.5
 31
0.0
  0
LINE
  5
1C3
330
4B
100
AcDbEntity
  8
1
  6
Continuous
 62
     2
100
AcDbLine
 10
40.0
 20
287.0000000000003
 30
0.0
 11
40.0
 21
277.0000000000003
 31
0.0
  0
LINE
  5
1C4
330
4B
100
AcDbEntity
  8
1
  6
Continuous
 62
     2
100
AcDbLine
 10
55.0
 20
287.0000000000003
 30
0.0
 11
55.0
 21
277.0000000000003
 31
0.0
  0
LINE
  5
1C5
330
4B
100
AcDbEntity
  8
1
  6
Continuous
 62
     2
100
AcDbLine
 10
33.0
 20
41.00000000000001
 30
0.0
 11
33.0
 21
27.0
 31
0.0
  0
LINE
  5
1C6
330
4B
100
AcDbEntity
  8
1
  6
Continuous
 62
     7
100
AcDbLine
 10
200.0
 20
27.00000000000001
 30
0.0
 11
25.0
 21
27.00000000000001
 31
0.0
  0
LINE
  5
1C7
330
4B
100
AcDbEntity
  8
1
  6
Continuous
 62
     7
100
AcDbLine
 10
25.0
 20
41.0
 30
0.0
 11
200.0
 21
41.0
 31
0.0
  0
LINE
  5
1C8
330
4B
100
AcDbEntity
  8
1
  6
PHANTOM
 62
     4
100
AcDbLine
 10
0.0
 20
0.0
 30
0.0
 11
210.0
 21
0.0
 31
0.0
  0
LINE
  5
1C9
330
4B
100
AcDbEntity
  8
1
  6
PHANTOM
 62
     4
100
AcDbLine
 10
210.0
 20
0.0
 30
0.0
 11
210.0
 21
297.0
 31
0.0
  0
LINE
  5
1CA
330
4B
100
AcDbEntity
  8
1
  6
PHANTOM
 62
     4
100
AcDbLine
 10
210.0
 20
297.0
 30
0.0
 11
0.0
 21
297.0
 31
0.0
  0
LINE
  5
1CB
330
4B
100
AcDbEntity
  8
1
  6
PHANTOM
 62
     4
100
AcDbLine
 10
0.0
 20
297.0
 30
0.0
 11
0.0
 21
0.0
 31
0.0
  0
LINE
  5
1CC
330
4B
100
AcDbEntity
  8
1
  6
Continuous
 62
     7
100
AcDbLine
 10
25.0
 20
10.0
 30
0.0
 11
105.0
 21
10.0
 31
0.0
  0
LINE
  5
1CD
330
4B
100
AcDbEntity
  8
1
  6
Continuous
 62
     7
100
AcDbLine
 10
200.0
 20
10.0
 30
0.0
 11
200.0
 21
148.5
 31
0.0
  0
LINE
  5
1CE
330
4B
100
AcDbEntity
  8
1
  6
Continuous
 62
     7
100
AcDbLine
 10
200.0
 20
287.0000000000003
 30
0.0
 11
105.0
 21
287.0000000000003
 31
0.0
  0
LINE
  5
1CF
330
4B
100
AcDbEntity
  8
1
  6
Continuous
 62
     2
100
AcDbLine
 10
25.0
 20
18.50000000000001
 30
0.0
 11
81.0
 21
18.50000000000001
 31
0.0
  0
LINE
  5
1D0
330
4B
100
AcDbEntity
  8
1
  6
Continuous
 62
     2
100
AcDbLine
 10
33.0
 20
27.0
 30
0.0
 11
33.0
 21
10.0
 31
0.0
  0
LINE
  5
1D1
330
4B
100
AcDbEntity
  8
1
  6
Continuous
 62
     7
100
AcDbLine
 10
191.0
 20
24.70000000000001
 30
0.0
 11
191.0
 21
22.30000000000001
 31
0.0
  0
LINE
  5
1D2
330
4B
100
AcDbEntity
  8
1
  6
Continuous
 62
     7
100
AcDbLine
 10
191.0
 20
24.70000000000001
 30
0.0
 11
196.0
 21
25.50000000000001
 31
0.0
  0
LINE
  5
1D3
330
4B
100
AcDbEntity
  8
1
  6
Continuous
 62
     7
100
AcDbLine
 10
196.0
 20
25.50000000000001
 30
0.0
 11
196.0
 21
21.50000000000001
 31
0.0
  0
LINE
  5
1D4
330
4B
100
AcDbEntity
  8
1
  6
Continuous
 62
     7
100
AcDbLine
 10
196.0
 20
21.50000000000001
 30
0.0
 11
191.0
 21
22.30000000000001
 31
0.0
  0
LINE
  5
1D5
330
4B
100
AcDbEntity
  8
1
  6
DOT_CENTER
 62
     2
100
AcDbLine
 10
184.0
 20
23.50000000000001
 30
0.0
 11
197.0
 21
23.50000000000001
 31
0.0
  0
LINE
  5
1D6
330
4B
100
AcDbEntity
  8
1
  6
DOT_CENTER
 62
     2
100
AcDbLine
 10
187.0
 20
26.50000000000001
 30
0.0
 11
187.0
 21
20.50000000000001
 31
0.0
  0
LINE
  5
1D7
330
4B
100
AcDbEntity
  8
1
  6
Continuous
 62
     2
100
AcDbLine
 10
81.0
 20
27.00000000000001
 30
0.0
 11
81.0
 21
10.0
 31
0.0
  0
CIRCLE
  5
1D8
330
4B
100
AcDbEntity
  8
1
  6
Continuous
 62
     7
100
AcDbCircle
 10
103.5
 20
12.5
 30
0.0
 40
0.2999999999999972
  0
CIRCLE
  5
1D9
330
4B
100
AcDbEntity
  8
1
  6
Continuous
 62
     7
100
AcDbCircle
 10
109.5
 20
12.5
 30
0.0
 40
0.2999999999999972
  0
CIRCLE
  5
1DA
330
4B
100
AcDbEntity
  8
1
  6
Continuous
 62
     7
100
AcDbCircle
 10
120.5
 20
12.5
 30
0.0
 40
0.2999999999999972
  0
CIRCLE
  5
1DB
330
4B
100
AcDbEntity
  8
1
  6
Continuous
 62
     7
100
AcDbCircle
 10
126.5
 20
12.5
 30
0.0
 40
0.2999999999999972
  0
CIRCLE
  5
1DC
330
4B
100
AcDbEntity
  8
1
  6
Continuous
 62
     7
100
AcDbCircle
 10
137.5
 20
12.5
 30
0.0
 40
0.3000000000000114
  0
CIRCLE
  5
1DD
330
4B
100
AcDbEntity
  8
1
  6
Continuous
 62
     7
100
AcDbCircle
 10
143.5
 20
12.5
 30
0.0
 40
0.3000000000000114
  0
CIRCLE
  5
1DE
330
4B
100
AcDbEntity
  8
1
  6
Continuous
 62
     7
100
AcDbCircle
 10
160.5
 20
12.5
 30
0.0
 40
0.3000000000000114
  0
CIRCLE
  5
1DF
330
4B
100
AcDbEntity
  8
1
  6
Continuous
 62
     7
100
AcDbCircle
 10
154.5
 20
12.5
 30
0.0
 40
0.3000000000000114
  0
CIRCLE
  5
1E0
330
4B
100
AcDbEntity
  8
1
  6
Continuous
 62
     7
100
AcDbCircle
 10
187.0
 20
23.50000000000001
 30
0.0
 40
1.200000000000102
  0
CIRCLE
  5
1E1
330
4B
100
AcDbEntity
  8
1
  6
Continuous
 62
     7
100
AcDbCircle
 10
187.0
 20
23.50000000000001
 30
0.0
 40
2.0
  0
CIRCLE
  5
1E2
330
4B
100
AcDbEntity
  8
1
  6
DOT_CENTER
 62
     7
100
AcDbCircle
 10
89.5
 20
16.0
 30
0.0
 40
0.1000000000000227
  0
CIRCLE
  5
1E3
330
4B
100
AcDbEntity
  8
1
  6
DOT_CENTER
 62
     7
100
AcDbCircle
 10
89.5
 20
18.0
 30
0.0
 40
0.1000000000000227
  0
MTEXT
  5
1E5
330
4B
100
AcDbEntity
  8
1
 62
     7
100
AcDbMText
 10
188.5
 20
15.0
 30
0.0
 40
3.0
 41
0.0
 71
     5
 72
     1
  1
三栄水栓製作所
  7
CONVERTER_1
 73
     1
 44
1.32052821128451
  0
MTEXT
  5
1E6
330
4B
100
AcDbEntity
  8
1
 62
     7
100
AcDbMText
 10
171.5
 20
15.0
 30
0.0
 40
2.5
 41
0.0
 71
     5
 72
     1
  1
株式会社
  7
CONVERTER_1
 73
     1
 44
1.32052821128451
  0
MTEXT
  5
1E7
330
4B
100
AcDbEntity
  8
1
 62
     2
100
AcDbMText
 10
32.5
 20
282.0000000000003
 30
0.0
 40
5.0
 41
0.0
 71
     5
 72
     1
  1
図番
  7
CONVERTER_1
 73
     1
 44
0.60024009603842
  0
MTEXT
  5
1E8
330
4B
100
AcDbEntity
  8
1
 62
     2
100
AcDbMText
 10
29.0
 20
34.00000000000001
 30
0.0
 40
3.5
 41
0.0
 71
     5
 72
     1
  1
備考
  7
CONVERTER_1
 73
     1
 44
0.60024009603842
  0
MTEXT
  5
1E9
330
4B
100
AcDbEntity
  8
1
 62
     2
100
AcDbMText
 10
29.0
 20
22.75
 30
0.0
 40
3.5
 41
0.0
 71
     5
 72
     1
  1
品名
  7
CONVERTER_1
 73
     1
 44
0.96038415366146
  0
MTEXT
  5
1EA
330
4B
100
AcDbEntity
  8
1
 62
     2
100
AcDbMText
 10
29.0
 20
14.25
 30
0.0
 40
3.5
 41
0.0
 71
     5
 72
     1
  1
品番
  7
CONVERTER_1
 73
     1
 44
0.96038415366146
  0
MTEXT
  5
1EB
330
4B
100
AcDbEntity
  8
1
 62
     2
100
AcDbMText
 10
101.5
 20
25.00000000000001
 30
0.0
 40
3.0
 41
0.0
 71
     5
 72
     1
  1
承認
  7
CONVERTER_1
 73
     1
 44
0.78031212484994
  0
MTEXT
  5
1EC
330
4B
100
AcDbEntity
  8
1
 62
     2
100
AcDbMText
 10
175.0
 20
23.50000000000001
 30
0.0
 40
3.5
 41
0.0
 71
     5
 72
     1
  1
第三角法
  7
CONVERTER_1
 73
     1
 44
0.7202881152461
  0
MTEXT
  5
1ED
330
4B
100
AcDbEntity
  8
1
 62
     2
100
AcDbMText
 10
118.5
 20
25.00000000000001
 30
0.0
 40
3.0
 41
0.0
 71
     5
 72
     1
  1
検図
  7
CONVERTER_1
 73
     1
 44
0.78031212484994
  0
MTEXT
  5
1EE
330
4B
100
AcDbEntity
  8
1
 62
     2
100
AcDbMText
 10
152.5
 20
25.00000000000001
 30
0.0
 40
3.0
 41
0.0
 71
     5
 72
     1
  1
設計
  7
CONVERTER_1
 73
     1
 44
0.78031212484994
  0
MTEXT
  5
1EF
330
4B
100
AcDbEntity
  8
1
 62
     2
100
AcDbMText
 10
135.5
 20
25.00000000000001
 30
0.0
 40
3.0
 41
0.0
 71
     5
 72
     1
  1
製図
  7
CONVERTER_1
 73
     1
 44
0.78031212484994
  0
MTEXT
  5
1F0
330
4B
100
AcDbEntity
  8
1
 62
     2
100
AcDbMText
 10
89.5
 20
24.00000000000001
 30
0.0
 40
3.5
 41
0.0
 71
     5
 72
     1
  1
尺度
  7
CONVERTER_1
 73
     1
 44
0.7202881152461
  0
MTEXT
  5
1F1
330
4B
100
AcDbEntity
  8
1
 62
   250
100
AcDbMText
 10
25.0
 20
5.0
 30
0.0
 40
3.5
 41
0.0
 71
     4
 72
     1
  1
備考欄の文字列 原点位置=4
  7
CONVERTER_1
 73
     1
 44
0.7202881152461
  0
ENDBLK
  5
4D
330
4B
100
AcDbEntity
  8
0
100
AcDbBlockEnd
  0
BLOCK
  5
213
330
20C
100
AcDbEntity
  8
0
100
AcDbBlockBegin
  2
*D09
 70
     1
 71
     0
 10
0.0
 20
0.0
 30
0.0
  3
*D09
  1

  0
LINE
  5
20D
330
20C
100
AcDbEntity
  8
1
  6
Continuous
 62
     2
100
AcDbLine
 10
621.8755684285267
 20
205.1137913450993
 30
0.0
 11
635.8755684285266
 21
205.1137913450993
 31
0.0
  0
LINE
  5
20E
330
20C
100
AcDbEntity
  8
1
  6
Continuous
 62
     2
100
AcDbLine
 10
635.8755684285266
 20
205.1137913450993
 30
0.0
 11
667.7066703739121
 21
205.1137913450993
 31
0.0
  0
LINE
  5
20F
330
20C
100
AcDbEntity
  8
1
  6
Continuous
 62
     2
100
AcDbLine
 10
635.8755684285266
 20
325.1137913450993
 30
0.0
 11
635.8755684285266
 21
201.6137913450993
 31
0.0
  0
LINE
  5
210
330
20C
100
AcDbEntity
  8
1
  6
Continuous
 62
     2
100
AcDbLine
 10
621.8755684285267
 20
308.1344548803722
 30
0.0
 11
621.8755684285267
 21
201.6137913450993
 31
0.0
  0
SOLID
  5
211
330
20C
100
AcDbEntity
  8
1
 62
     2
100
AcDbTrace
 10
648.1255684285266
 20
206.7265344405449
 30
0.0
 11
648.1255684285266
 21
203.5010482496537
 31
0.0
 12
635.8755684285266
 22
205.1137913450993
 32
0.0
 13
635.8755684285266
 23
205.1137913450993
 33
0.0
  0
MTEXT
  5
212
330
20C
100
AcDbEntity
  8
1
 62
     7
100
AcDbMText
 10
653.006670373912
 20
208.6137913450993
 30
0.0
 40
12.25
 41
0.0
 71
     7
 72
     1
  1
14
  7
CONVERTER_2
 11
0.9999999999970621
 21
2.424068405545307E-6
 31
0.0
 73
     1
 44
0.60024009603842
  0
ENDBLK
  5
214
330
20C
100
AcDbEntity
  8
0
100
AcDbBlockEnd
  0
BLOCK
  5
216
330
215
100
AcDbEntity
  8
0
100
AcDbBlockBegin
  2
_None
 70
     0
 71
     0
 10
0.0
 20
0.0
 30
0.0
  3
_None
  1

  0
ENDBLK
  5
217
330
215
100
AcDbEntity
  8
0
100
AcDbBlockEnd
  0
BLOCK
  5
221
330
21A
100
AcDbEntity
  8
0
100
AcDbBlockBegin
  2
*D111
 70
     1
 71
     0
 10
0.0
 20
0.0
 30
0.0
  3
*D111
  1

  0
LINE
  5
21B
330
21A
100
AcDbEntity
  8
0
  6
Continuous
 62
     2
100
AcDbLine
 10
469.1940803840548
 20
334.6137913450993
 30
0.0
 11
469.1940803840548
 21
392.1137913450993
 31
0.0
  0
LINE
  5
21C
330
21A
100
AcDbEntity
  8
0
  6
Continuous
 62
     2
100
AcDbLine
 10
527.0803021563372
 20
334.6137913450993
 30
0.0
 11
465.6940803840548
 21
334.6137913450993
 31
0.0
  0
LINE
  5
21D
330
21A
100
AcDbEntity
  8
0
  6
Continuous
 62
     2
100
AcDbLine
 10
576.8755684285266
 20
392.1137913450993
 30
0.0
 11
465.6940803840548
 21
392.1137913450993
 31
0.0
  0
SOLID
  5
21E
330
21A
100
AcDbEntity
  8
0
 62
     2
100
AcDbTrace
 10
467.5813372886092
 20
346.8637913450993
 30
0.0
 11
470.8068234795004
 21
346.8637913450993
 31
0.0
 12
469.1940803840548
 22
334.6137913450993
 32
0.0
 13
469.1940803840548
 23
334.6137913450993
 33
0.0
  0
SOLID
  5
21F
330
21A
100
AcDbEntity
  8
0
 62
     2
100
AcDbTrace
 10
470.8068234795004
 20
379.8637913450993
 30
0.0
 11
467.5813372886092
 21
379.8637913450993
 31
0.0
 12
469.1940803840548
 22
392.1137913450993
 32
0.0
 13
469.1940803840548
 23
392.1137913450993
 33
0.0
  0
MTEXT
  5
220
330
21A
100
AcDbEntity
  8
0
 62
     7
100
AcDbMText
 10
465.6940803840548
 20
330.719380258332
 30
0.0
 40
12.25
 41
0.0
 71
     7
 72
     1
  1
58リフト5
  7
CONVERTER_1
 11
0.0
 21
1.0
 31
0.0
 73
     1
 44
0.60024009603842
  0
ENDBLK
  5
222
330
21A
100
AcDbEntity
  8
0
100
AcDbBlockEnd
  0
BLOCK
  5
22C
330
225
100
AcDbEntity
  8
0
100
AcDbBlockBegin
  2
*D212
 70
     1
 71
     0
 10
0.0
 20
0.0
 30
0.0
  3
*D212
  1

  0
LINE
  5
226
330
225
100
AcDbEntity
  8
0
  6
Continuous
 62
     2
100
AcDbLine
 10
469.1940803840548
 20
334.6137913450993
 30
0.0
 11
469.1940803840548
 21
240.1137913450994
 31
0.0
  0
LINE
  5
227
330
225
100
AcDbEntity
  8
0
  6
Continuous
 62
     2
100
AcDbLine
 10
249.260176030102
 20
240.1137913450994
 30
0.0
 11
472.6940803840548
 21
240.1137913450994
 31
0.0
  0
LINE
  5
228
330
225
100
AcDbEntity
  8
0
  6
Continuous
 62
     2
100
AcDbLine
 10
527.0803021563372
 20
334.6137913450993
 30
0.0
 11
465.6940803840548
 21
334.6137913450993
 31
0.0
  0
SOLID
  5
229
330
225
100
AcDbEntity
  8
0
 62
     2
100
AcDbTrace
 10
470.8068234795004
 20
322.3637913450993
 30
0.0
 11
467.5813372886092
 21
322.3637913450993
 31
0.0
 12
469.1940803840548
 22
334.6137913450993
 32
0.0
 13
469.1940803840548
 23
334.6137913450993
 33
0.0
  0
SOLID
  5
22A
330
225
100
AcDbEntity
  8
0
 62
     2
100
AcDbTrace
 10
467.5813372886092
 20
252.3637913450994
 30
0.0
 11
470.8068234795004
 21
252.3637913450994
 31
0.0
 12
469.1940803840548
 22
240.1137913450994
 32
0.0
 13
469.1940803840548
 23
240.1137913450994
 33
0.0
  0
MTEXT
  5
22B
330
225
100
AcDbEntity
  8
0
 62
     7
100
AcDbMText
 10
465.6940803840548
 20
290.2473833724138
 30
0.0
 40
12.25
 41
0.0
 71
     7
 72
     1
  1
95
  7
CONVERTER_2
 11
0.0
 21
1.0
 31
0.0
 73
     1
 44
0.60024009603842
  0
ENDBLK
  5
22D
330
225
100
AcDbEntity
  8
0
100
AcDbBlockEnd
  0
BLOCK
  5
237
330
230
100
AcDbEntity
  8
0
100
AcDbBlockBegin
  2
*D313
 70
     1
 71
     0
 10
0.0
 20
0.0
 30
0.0
  3
*D313
  1

  0
LINE
  5
231
330
230
100
AcDbEntity
  8
1
  6
Continuous
 62
     2
100
AcDbLine
 10
670.8755684285264
 20
311.6137913450993
 30
0.0
 11
670.8755684285264
 21
357.6137913450993
 31
0.0
  0
LINE
  5
232
330
230
100
AcDbEntity
  8
1
  6
Continuous
 62
     2
100
AcDbLine
 10
621.8755684285266
 20
357.6137913450992
 30
0.0
 11
674.3755684285264
 21
357.6137913450992
 31
0.0
  0
LINE
  5
233
330
230
100
AcDbEntity
  8
1
  6
Continuous
 62
     2
100
AcDbLine
 10
621.8755684285267
 20
311.6137913450992
 30
0.0
 11
674.3755684285264
 21
311.6137913450992
 31
0.0
  0
SOLID
  5
234
330
230
100
AcDbEntity
  8
1
 62
     2
100
AcDbTrace
 10
669.2628253330809
 20
323.8637913450993
 30
0.0
 11
672.488311523972
 21
323.8637913450993
 31
0.0
 12
670.8755684285264
 22
311.6137913450993
 32
0.0
 13
670.8755684285264
 23
311.6137913450993
 33
0.0
  0
SOLID
  5
235
330
230
100
AcDbEntity
  8
1
 62
     2
100
AcDbTrace
 10
672.488311523972
 20
345.3637913450993
 30
0.0
 11
669.2628253330809
 21
345.3637913450993
 31
0.0
 12
670.8755684285264
 22
357.6137913450993
 32
0.0
 13
670.8755684285264
 23
357.6137913450993
 33
0.0
  0
MTEXT
  5
236
330
230
100
AcDbEntity
  8
1
 62
     7
100
AcDbMText
 10
667.3755684285264
 20
312.6862913450992
 30
0.0
 40
12.25
 41
0.0
 71
     7
 72
     1
  1
\C7;{\Fgdt;n}\C7;46
  7
CONVERTER_2
 11
0.0
 21
1.0
 31
0.0
 73
     1
 44
0.60024009603842
  0
ENDBLK
  5
238
330
230
100
AcDbEntity
  8
0
100
AcDbBlockEnd
  0
BLOCK
  5
242
330
23B
100
AcDbEntity
  8
0
100
AcDbBlockBegin
  2
*D414
 70
     1
 71
     0
 10
0.0
 20
0.0
 30
0.0
  3
*D414
  1

  0
LINE
  5
23C
330
23B
100
AcDbEntity
  8
0
  6
Continuous
 62
     2
100
AcDbLine
 10
241.8737690241161
 20
205.1137913450993
 30
0.0
 11
541.8755684285268
 21
205.1137913450993
 31
0.0
  0
LINE
  5
23D
330
23B
100
AcDbEntity
  8
0
  6
Continuous
 62
     2
100
AcDbLine
 10
541.8755684285266
 20
301.1137913450993
 30
0.0
 11
541.8755684285266
 21
201.6137913450993
 31
0.0
  0
LINE
  5
23E
330
23B
100
AcDbEntity
  8
0
  6
Continuous
 62
     2
100
AcDbLine
 10
241.873769024116
 20
236.9657464254772
 30
0.0
 11
241.873769024116
 21
201.6137913450993
 31
0.0
  0
SOLID
  5
23F
330
23B
100
AcDbEntity
  8
0
 62
     2
100
AcDbTrace
 10
254.1237690241161
 20
206.7265344405449
 30
0.0
 11
254.1237690241161
 21
203.5010482496537
 31
0.0
 12
241.8737690241161
 22
205.1137913450993
 32
0.0
 13
241.8737690241161
 23
205.1137913450993
 33
0.0
  0
SOLID
  5
240
330
23B
100
AcDbEntity
  8
0
 62
     2
100
AcDbTrace
 10
529.6255684285268
 20
203.5010482496537
 30
0.0
 11
529.6255684285268
 21
206.7265344405449
 31
0.0
 12
541.8755684285268
 22
205.1137913450993
 32
0.0
 13
541.8755684285268
 23
205.1137913450993
 33
0.0
  0
MTEXT
  5
241
330
23B
100
AcDbEntity
  8
0
 62
     7
100
AcDbMText
 10
377.1746687263213
 20
208.6137913450993
 30
0.0
 40
12.25
 41
0.0
 71
     7
 72
     1
  1
300
  7
CONVERTER_2
 11
0.9999999999970621
 21
2.424068405545307E-6
 31
0.0
 73
     1
 44
0.60024009603842
  0
ENDBLK
  5
243
330
23B
100
AcDbEntity
  8
0
100
AcDbBlockEnd
  0
BLOCK
  5
24D
330
246
100
AcDbEntity
  8
0
100
AcDbBlockBegin
  2
*D515
 70
     1
 71
     0
 10
0.0
 20
0.0
 30
0.0
  3
*D515
  1

  0
LINE
  5
247
330
246
100
AcDbEntity
  8
0
  6
Continuous
 62
     2
100
AcDbLine
 10
541.8755684285266
 20
205.1137913450993
 30
0.0
 11
576.8755684285266
 21
205.1137913450993
 31
0.0
  0
LINE
  5
248
330
246
100
AcDbEntity
  8
0
  6
Continuous
 62
     2
100
AcDbLine
 10
576.8755684285266
 20
318.9625063951353
 30
0.0
 11
576.8755684285266
 21
201.6137913450993
 31
0.0
  0
LINE
  5
249
330
246
100
AcDbEntity
  8
0
  6
Continuous
 62
     2
100
AcDbLine
 10
541.8755684285266
 20
301.1137913450993
 30
0.0
 11
541.8755684285266
 21
201.6137913450993
 31
0.0
  0
SOLID
  5
24A
330
246
100
AcDbEntity
  8
0
 62
     2
100
AcDbTrace
 10
554.1255684285266
 20
206.7265344405449
 30
0.0
 11
554.1255684285266
 21
203.5010482496537
 31
0.0
 12
541.8755684285266
 22
205.1137913450993
 32
0.0
 13
541.8755684285266
 23
205.1137913450993
 33
0.0
  0
SOLID
  5
24B
330
246
100
AcDbEntity
  8
0
 62
     2
100
AcDbTrace
 10
564.6255684285266
 20
203.5010482496537
 30
0.0
 11
564.6255684285266
 21
206.7265344405449
 31
0.0
 12
576.8755684285266
 22
205.1137913450993
 32
0.0
 13
576.8755684285266
 23
205.1137913450993
 33
0.0
  0
MTEXT
  5
24C
330
246
100
AcDbEntity
  8
0
 62
     7
100
AcDbMText
 10
550.1880684285262
 20
208.6137913450993
 30
0.0
 40
12.25
 41
0.0
 71
     7
 72
     1
  1
35
  7
CONVERTER_2
 11
0.9999999999970621
 21
2.424068405545307E-6
 31
0.0
 73
     1
 44
0.60024009603842
  0
ENDBLK
  5
24E
330
246
100
AcDbEntity
  8
0
100
AcDbBlockEnd
  0
BLOCK
  5
258
330
251
100
AcDbEntity
  8
0
100
AcDbBlockBegin
  2
*D616
 70
     1
 71
     0
 10
0.0
 20
0.0
 30
0.0
  3
*D616
  1

  0
LINE
  5
252
330
251
100
AcDbEntity
  8
0
  6
Continuous
 62
     2
100
AcDbLine
 10
576.8755684285267
 20
205.1137913450993
 30
0.0
 11
621.8755684285267
 21
205.1137913450993
 31
0.0
  0
LINE
  5
253
330
251
100
AcDbEntity
  8
0
  6
Continuous
 62
     2
100
AcDbLine
 10
621.8755684285267
 20
308.1344548803722
 30
0.0
 11
621.8755684285267
 21
201.6137913450993
 31
0.0
  0
LINE
  5
254
330
251
100
AcDbEntity
  8
0
  6
Continuous
 62
     2
100
AcDbLine
 10
576.8755684285266
 20
318.9625063951353
 30
0.0
 11
576.8755684285266
 21
201.6137913450993
 31
0.0
  0
SOLID
  5
255
330
251
100
AcDbEntity
  8
0
 62
     2
100
AcDbTrace
 10
589.1255684285267
 20
206.7265344405449
 30
0.0
 11
589.1255684285267
 21
203.5010482496537
 31
0.0
 12
576.8755684285267
 22
205.1137913450993
 32
0.0
 13
576.8755684285267
 23
205.1137913450993
 33
0.0
  0
SOLID
  5
256
330
251
100
AcDbEntity
  8
0
 62
     2
100
AcDbTrace
 10
609.6255684285267
 20
203.5010482496537
 30
0.0
 11
609.6255684285267
 21
206.7265344405449
 31
0.0
 12
621.8755684285267
 22
205.1137913450993
 32
0.0
 13
621.8755684285267
 23
205.1137913450993
 33
0.0
  0
MTEXT
  5
257
330
251
100
AcDbEntity
  8
0
 62
     7
100
AcDbMText
 10
590.1880684285263
 20
208.6137913450993
 30
0.0
 40
12.25
 41
0.0
 71
     7
 72
     1
  1
45
  7
CONVERTER_2
 11
0.9999999999970621
 21
2.424068405545307E-6
 31
0.0
 73
     1
 44
0.60024009603842
  0
ENDBLK
  5
259
330
251
100
AcDbEntity
  8
0
100
AcDbBlockEnd
  0
ENDSEC
  0
SECTION
  2
ENTITIES
  0
INSERT
  5
4E
330
1F
100
AcDbEntity
  8
0
100
AcDbBlockReference
  2
60-1-16-240
 10
403.7093344231127
 20
209.7476935151055
 30
0.0
  0
INSERT
  5
4F
330
1F
100
AcDbEntity
  8
1
100
AcDbBlockReference
  2
32-1-16
 10
245.3298285928577
 20
515.0996234752083
 30
0.0
  0
INSERT
  5
50
330
1F
100
AcDbEntity
  8
1
100
AcDbBlockReference
  2
A10-0A-13
 10
576.8755684285266
 20
334.6137913450993
 30
0.0
  0
INSERT
  5
51
330
1F
100
AcDbEntity
  8
0
100
AcDbBlockReference
  2
36-1A-13-M4
 10
331.0617100065782
 20
236.0446653356632
 30
0.0
  0
INSERT
  5
52
330
1F
100
AcDbEntity
  8
0
100
AcDbBlockReference
  2
21-1A
 10
621.8755684285266
 20
334.6137913450993
 30
0.0
  0
INSERT
  5
53
330
1F
100
AcDbEntity
  8
0
100
AcDbBlockReference
  2
37-1-13
 10
485.0743382117555
 20
218.1180854549547
 30
0.0
  0
INSERT
  5
54
330
1F
100
AcDbEntity
  8
0
100
AcDbBlockReference
  2
42-1
 10
488.771308341923
 20
182.3241423355145
 30
0.0
  0
INSERT
  5
55
330
1F
100
AcDbEntity
  8
1
100
AcDbBlockReference
  2
_J__A4
 10
0.0
 20
0.0
 30
0.0
 41
3.5
 42
3.5
 43
3.5
  0
LINE
  5
1F2
330
1F
100
AcDbEntity
  8
1
  6
DASH_CENTER
 62
     2
100
AcDbLine
 10
194.233435657094
 20
448.7962405077045
 30
0.0
 11
171.881262251011
 21
448.7962405077045
 31
0.0
  0
LINE
  5
1F3
330
1F
100
AcDbEntity
  8
1
  6
DASH_CENTER
 62
     2
100
AcDbLine
 10
174.1989594253873
 20
778.7980399121151
 30
0.0
 11
212.3040771919028
 21
800.7980399121153
 31
0.0
  0
LINE
  5
1F4
330
1F
100
AcDbEntity
  8
1
  6
DASH_CENTER
 62
     2
100
AcDbLine
 10
191.5194675010763
 20
778.7980399121151
 30
0.0
 11
153.414349734561
 21
800.7980399121151
 31
0.0
  0
LINE
  5
1F5
330
1F
100
AcDbEntity
  8
1
  6
DASH_CENTER
 62
     2
100
AcDbLine
 10
198.8592134632319
 20
748.7980399121151
 30
0.0
 11
166.8592134632319
 21
748.7980399121151
 31
0.0
  0
LINE
  5
1F6
330
1F
100
AcDbEntity
  8
1
  6
DASH_CENTER
 62
     2
100
AcDbLine
 10
199.8592134632319
 20
783.7980399121151
 30
0.0
 11
165.8592134632319
 21
783.7980399121151
 31
0.0
  0
LINE
  5
1F7
330
1F
100
AcDbEntity
  8
0
  6
DASH_CENTER
 62
     2
100
AcDbLine
 10
205.8592134632319
 20
334.6137913450993
 30
0.0
 11
208.8592134632319
 21
334.6137913450993
 31
0.0
  0
LINE
  5
1F8
330
1F
100
AcDbEntity
  8
0
  6
DASH_CENTER
 62
     2
100
AcDbLine
 10
156.8592134632319
 20
334.6137913450993
 30
0.0
 11
205.8592134632319
 21
334.6137913450993
 31
0.0
  0
LINE
  5
1F9
330
1F
100
AcDbEntity
  8
1
  6
DASH_CENTER
 62
     2
100
AcDbLine
 10
182.859213463232
 20
847.5198581062589
 30
0.0
 11
182.859213463232
 21
436.82004324215
 31
0.0
  0
LINE
  5
1FA
330
1F
100
AcDbEntity
  8
0
  6
Continuous
 62
     2
100
AcDbLine
 10
621.8755684285267
 20
311.6137913450993
 30
0.0
 11
621.8755684285267
 21
308.1344548803722
 31
0.0
  0
LINE
  5
1FB
330
1F
100
AcDbEntity
  8
1
  6
DASH_CENTER
 62
     2
100
AcDbLine
 10
541.8755684285266
 20
301.1137913450993
 30
0.0
 11
541.8755684285266
 21
343.2395300733871
 31
0.0
  0
LINE
  5
1FC
330
1F
100
AcDbEntity
  8
1
  6
DASH_CENTER
 62
     2
100
AcDbLine
 10
268.873769024116
 20
273.1137913450993
 30
0.0
 11
514.8755684285266
 21
273.1137913450993
 31
0.0
  0
LINE
  5
1FD
330
1F
100
AcDbEntity
  8
1
  6
DASH_CENTER
 62
     2
100
AcDbLine
 10
241.873769024116
 20
236.9657464254772
 30
0.0
 11
241.873769024116
 21
246.1137913450993
 31
0.0
  0
LINE
  5
1FE
330
1F
100
AcDbEntity
  8
0
  6
DASH_CENTER
 62
     2
100
AcDbLine
 10
182.859213463232
 20
396.2816044027581
 30
0.0
 11
182.859213463232
 21
237.6708188435154
 31
0.0
  0
LINE
  5
1FF
330
1F
100
AcDbEntity
  8
1
  6
DASH_CENTER
 62
     2
100
AcDbLine
 10
576.8755684285266
 20
318.9625063951353
 30
0.0
 11
576.8755684285266
 21
396.2816044027581
 31
0.0
  0
LINE
  5
200
330
1F
100
AcDbEntity
  8
1
  6
DASH_CENTER
 62
     2
100
AcDbLine
 10
638.9133749602796
 20
334.6137913450993
 30
0.0
 11
527.0803021563372
 21
334.6137913450993
 31
0.0
  0
ARC
  5
201
330
1F
100
AcDbEntity
  8
1
  6
DASH_CENTER
 62
     2
100
AcDbCircle
 10
514.8755684285266
 20
300.1137913450993
 30
0.0
 40
27.0
100
AcDbArc
 50
-90.0
 51
0.0
  0
ARC
  5
202
330
1F
100
AcDbEntity
  8
1
  6
DASH_CENTER
 62
     2
100
AcDbCircle
 10
268.873769024116
 20
246.1137913450993
 30
0.0
 40
27.0
100
AcDbArc
 50
90.0
 51
180.0
  0
SOLID
  5
203
330
1F
100
AcDbEntity
  8
1
 62
     2
100
AcDbTrace
 10
198.0875369727982
 20
846.7132226561971
 30
0.0
 11
200.8808899536658
 21
845.1004795607515
 31
0.0
 12
193.3592134632319
 22
835.298039912115
 32
0.0
 13
193.3592134632319
 23
835.298039912115
 33
0.0
  0
LEADER
  5
204
330
1F
100
AcDbEntity
  8
1
  6
Continuous
 62
     2
100
AcDbLeader
  3
Standard
 71
     0
 76
     3
 10
193.3592134632319
 20
835.298039912115
 30
0.0
 10
210.3020251651037
 20
864.6438506028294
 30
0.0
 10
264.435448080522
 20
864.6438506028294
 30
0.0
  0
MTEXT
  5
206
330
1F
100
AcDbEntity
  8
1
 62
     7
100
AcDbMText
 10
328.125
 20
59.5
 30
0.0
 40
12.25
 41
0.0
 71
     5
 72
     1
  1
3,5
  7
CONVERTER_2
 73
     1
 44
0.7202881152461
  0
MTEXT
  5
207
330
1F
100
AcDbEntity
  8
1
 62
     7
100
AcDbMText
 10
298.375
 20
59.5
 30
0.0
 40
12.25
 41
0.0
 71
     5
 72
     1
  1
1
  7
CONVERTER_2
 73
     1
 44
0.7202881152461
  0
MTEXT
  5
208
330
1F
100
AcDbEntity
  8
0
 62
     7
100
AcDbMText
 10
199.5
 20
79.62500000000006
 30
0.0
 40
12.25
 41
0.0
 71
     5
 72
     1
  1
自在水栓
  7
CONVERTER_1
 73
     1
 44
1.32052821128451
  0
MTEXT
  5
209
330
1F
100
AcDbEntity
  8
1
 62
     7
100
AcDbMText
 10
237.3687366228129
 20
875.1438506028294
 30
0.0
 40
12.25
 41
0.0
 71
     5
 72
     1
  1
PJ1/2
  7
CONVERTER_2
 73
     1
 44
1.32052821128451
  0
MTEXT
  5
20A
330
1F
100
AcDbEntity
  8
0
 62
     7
100
AcDbMText
 10
199.5
 20
49.875
 30
0.0
 40
12.25
 41
0.0
 71
     5
 72
     1
  1
A10J-L3-13
  7
CONVERTER_2
 73
     1
 44
0.90036014405762
  0
MTEXT
  5
20B
330
1F
100
AcDbEntity
  8
0
 62
     7
100
AcDbMText
 10
119.0
 20
119.0
 30
0.0
 40
12.25
 41
0.0
 71
     4
 72
     1
  1
JIS
  7
CONVERTER_2
 73
     1
 44
1.32052821128451
  0
DIMENSION
  5
219
330
1F
100
AcDbEntity
  8
1
100
AcDbDimension
  2
*D09
 10
621.8755684285267
 20
205.1137913450993
 30
0.0
 11
660.356670373912
 21
214.7387913450993
 31
0.0
  1
<>
 71
     5
 42
0.0
 53
0.00013888888889
  3
ME10_DIM_0
100
AcDbAlignedDimension
 13
635.8755684285267
 23
325.1137913450993
 33
0.0
 14
621.8755684285267
 24
308.1344548803722
 34
0.0
100
AcDbRotatedDimension
  0
DIMENSION
  5
224
330
1F
100
AcDbEntity
  8
0
100
AcDbDimension
  2
*D111
 10
469.1940803840548
 20
334.6137913450993
 30
0.0
 11
459.5690803840548
 21
363.794380258332
 31
0.0
  1
58リフト5
 71
     5
 42
0.0
 53
90.0
  3
ME10_DIM_1
100
AcDbAlignedDimension
 13
576.8755684285267
 23
392.1137913450993
 33
0.0
 14
527.0803021563372
 24
334.6137913450993
 34
0.0
 50
90.0
100
AcDbRotatedDimension
  0
DIMENSION
  5
22F
330
1F
100
AcDbEntity
  8
0
100
AcDbDimension
  2
*D212
 10
469.1940803840548
 20
334.6137913450993
 30
0.0
 11
459.5690803840548
 21
299.4348833724138
 31
0.0
  1
95
 71
     5
 42
0.0
 53
90.0
  3
ME10_DIM_2
100
AcDbAlignedDimension
 13
249.2601760301019
 23
240.1137913450993
 33
0.0
 14
527.0803021563372
 24
334.6137913450993
 34
0.0
 50
90.0
100
AcDbRotatedDimension
  0
DIMENSION
  5
23A
330
1F
100
AcDbEntity
  8
1
100
AcDbDimension
  2
*D313
 10
670.8755684285264
 20
311.6137913450993
 30
0.0
 11
661.2505684285264
 21
334.6137913450992
 31
0.0
  1
<>
 71
     5
 42
0.0
 53
90.0
  3
ME10_DIM_3
100
AcDbAlignedDimension
 13
621.8755684285267
 23
357.6137913450993
 33
0.0
 14
621.8755684285267
 24
311.6137913450993
 34
0.0
 50
90.0
100
AcDbRotatedDimension
  0
DIMENSION
  5
245
330
1F
100
AcDbEntity
  8
0
100
AcDbDimension
  2
*D414
 10
241.8737690241161
 20
205.1137913450993
 30
0.0
 11
391.8746687263213
 21
214.7387913450993
 31
0.0
  1
<>
 71
     5
 42
0.0
 53
0.00013888888889
  3
ME10_DIM_4
100
AcDbAlignedDimension
 13
541.8755684285266
 23
301.1137913450993
 33
0.0
 14
241.873769024116
 24
236.9657464254772
 34
0.0
100
AcDbRotatedDimension
  0
DIMENSION
  5
250
330
1F
100
AcDbEntity
  8
0
100
AcDbDimension
  2
*D515
 10
541.8755684285266
 20
205.1137913450993
 30
0.0
 11
559.3755684285262
 21
214.7387913450993
 31
0.0
  1
<>
 71
     5
 42
0.0
 53
0.00013888888889
  3
ME10_DIM_5
100
AcDbAlignedDimension
 13
576.8755684285266
 23
318.9625063951353
 33
0.0
 14
541.8755684285266
 24
301.1137913450993
 34
0.0
100
AcDbRotatedDimension
  0
DIMENSION
  5
25B
330
1F
100
AcDbEntity
  8
0
100
AcDbDimension
  2
*D616
 10
576.8755684285267
 20
205.1137913450993
 30
0.0
 11
599.3755684285263
 21
214.7387913450993
 31
0.0
  1
<>
 71
     5
 42
0.0
 53
0.00013888888889
  3
ME10_DIM_6
100
AcDbAlignedDimension
 13
621.8755684285267
 23
308.1344548803722
 33
0.0
 14
576.8755684285266
 24
318.9625063951353
 34
0.0
100
AcDbRotatedDimension
  0
ENDSEC
  0
SECTION
  2
OBJECTS
  0
DICTIONARY
  5
C
330
0
100
AcDbDictionary
281
     1
  3
ACAD_GROUP
350
D
  3
ACAD_LAYOUT
350
1A
  3
ACAD_MLINESTYLE
350
17
  3
ACAD_PLOTSETTINGS
350
19
  3
ACAD_PLOTSTYLENAME
350
E
  3
ACAD_TABLESTYLE
350
2A
  3
AcDbVariableDictionary
350
2C
  0
DICTIONARY
  5
D
102
{ACAD_REACTORS
330
C
102
}
330
C
100
AcDbDictionary
281
     1
  0
DICTIONARY
  5
1A
102
{ACAD_REACTORS
330
C
102
}
330
C
100
AcDbDictionary
281
     1
  3
Layout1
350
1E
  3
Layout2
350
26
  3
Model
350
22
  0
DICTIONARY
  5
17
102
{ACAD_REACTORS
330
C
102
}
330
C
100
AcDbDictionary
281
     1
  3
Standard
350
18
  0
DICTIONARY
  5
19
102
{ACAD_REACTORS
330
C
102
}
330
C
100
AcDbDictionary
281
     1
  0
ACDBDICTIONARYWDFLT
  5
E
102
{ACAD_REACTORS
330
C
102
}
330
C
100
AcDbDictionary
281
     1
  3
Normal
350
F
100
AcDbDictionaryWithDefault
340
F
  0
DICTIONARY
  5
2A
102
{ACAD_REACTORS
330
C
102
}
330
C
100
AcDbDictionary
281
     1
  3
Standard
350
2B
  0
DICTIONARY
  5
2C
102
{ACAD_REACTORS
330
C
102
}
330
C
100
AcDbDictionary
281
     1
  3
CTABLESTYLE
350
2D
  0
LAYOUT
  5
1E
102
{ACAD_REACTORS
330
1A
102
}
330
1A
100
AcDbPlotSettings
  1

  2

  4

  6

 40
0.0
 41
0.0
 42
0.0
 43
0.0
 44
0.0
 45
0.0
 46
0.0
 47
0.0
 48
0.0
 49
0.0
140
0.0
141
0.0
142
1.0
143
1.0
 70
   688
 72
     0
 73
     0
 74
     5
  7

 75
    16
147
1.0
148
0.0
149
0.0
100
AcDbLayout
  1
Layout1
 70
     1
 71
     1
 10
0.0
 20
0.0
 11
12.0
 21
9.0
 12
0.0
 22
0.0
 32
0.0
 14
1.00000000000000E+20
 24
1.00000000000000E+20
 34
1.00000000000000E+20
 15
-1.00000000000000E+20
 25
-1.00000000000000E+20
 35
-1.00000000000000E+20
146
0.0
 13
0.0
 23
0.0
 33
0.0
 16
1.0
 26
0.0
 36
0.0
 17
0.0
 27
1.0
 37
0.0
 76
     0
330
1B
  0
LAYOUT
  5
26
102
{ACAD_REACTORS
330
1A
102
}
330
1A
100
AcDbPlotSettings
  1

  2

  4

  6

 40
0.0
 41
0.0
 42
0.0
 43
0.0
 44
0.0
 45
0.0
 46
0.0
 47
0.0
 48
0.0
 49
0.0
140
0.0
141
0.0
142
1.0
143
1.0
 70
   688
 72
     0
 73
     0
 74
     5
  7

 75
    16
147
1.0
148
0.0
149
0.0
100
AcDbLayout
  1
Layout2
 70
     1
 71
     2
 10
0.0
 20
0.0
 11
0.0
 21
0.0
 12
0.0
 22
0.0
 32
0.0
 14
0.0
 24
0.0
 34
0.0
 15
0.0
 25
0.0
 35
0.0
146
0.0
 13
0.0
 23
0.0
 33
0.0
 16
1.0
 26
0.0
 36
0.0
 17
0.0
 27
1.0
 37
0.0
 76
     0
330
23
  0
LAYOUT
  5
22
102
{ACAD_REACTORS
330
1A
102
}
330
1A
100
AcDbPlotSettings
  1

  2

  4

  6

 40
0.0
 41
0.0
 42
0.0
 43
0.0
 44
0.0
 45
0.0
 46
0.0
 47
0.0
 48
0.0
 49
0.0
140
0.0
141
0.0
142
1.0
143
1.0
 70
  1712
 72
     0
 73
     0
 74
     0
  7

 75
     0
147
1.0
148
0.0
149
0.0
100
AcDbLayout
  1
Model
 70
     1
 71
     0
 10
0.0
 20
0.0
 11
0.0
 21
0.0
 12
0.0
 22
0.0
 32
0.0
 14
0.0
 24
0.0
 34
0.0
 15
735.0
 25
1039.5
 35
0.0
146
0.0
 13
0.0
 23
0.0
 33
0.0
 16
1.0
 26
0.0
 36
0.0
 17
0.0
 27
1.0
 37
0.0
 76
     0
330
1F
  0
MLINESTYLE
  5
18
102
{ACAD_REACTORS
330
17
102
}
330
17
100
AcDbMlineStyle
  2
Standard
 70
     0
  3

 62
   256
 51
90.0
 52
90.0
 71
     2
 49
0.5
 62
   256
  6
BYLAYER
 49
-0.5
 62
   256
  6
BYLAYER
  0
ACDBPLACEHOLDER
  5
F
102
{ACAD_REACTORS
330
E
102
}
330
E
  0
TABLESTYLE
  5
2B
102
{ACAD_REACTORS
330
2A
102
}
330
2A
100
AcDbTableStyle
  3
Standard
 70
     0
 71
     0
 40
0.06
 41
0.06
280
     0
281
     0
  7
Standard
140
0.18
170
     2
 62
     0
 63
     7
283
     0
274
    -2
284
     1
 64
     0
275
    -2
285
     1
 65
     0
276
    -2
286
     1
 66
     0
277
    -2
287
     1
 67
     0
278
    -2
288
     1
 68
     0
279
    -2
289
     1
 69
     0
  7
Standard
140
0.25
170
     5
 62
     0
 63
     7
283
     0
274
    -2
284
     1
 64
     0
275
    -2
285
     1
 65
     0
276
    -2
286
     1
 66
     0
277
    -2
287
     1
 67
     0
278
    -2
288
     1
 68
     0
279
    -2
289
     1
 69
     0
  7
Standard
140
0.18
170
     5
 62
     0
 63
     7
283
     0
274
    -2
284
     1
 64
     0
275
    -2
285
     1
 65
     0
276
    -2
286
     1
 66
     0
277
    -2
287
     1
 67
     0
278
    -2
288
     1
 68
     0
279
    -2
289
     1
 69
     0
  0
DICTIONARYVAR
  5
2D
102
{ACAD_REACTORS
330
2C
102
}
330
2C
100
DictionaryVariables
280
     0
  1
Standard
  0
ENDSEC
  0
EOF
