  0
SECTION
  2
HEADER
  9
$ACADVER
  1
AC1015
  9
$ACADMAINTVER
 70
     6
  9
$DWGCODEPAGE
  3
DOS932
  9
$INSBASE
 10
0.0
 20
0.0
 30
0.0
  9
$EXTMIN
 10
0.0
 20
0.0
 30
0.0
  9
$EXTMAX
 10
630.0000000000007
 20
891.0000000000009
 30
0.0
  9
$LIMMIN
 10
0.0
 20
0.0
  9
$LIMMAX
 10
12.0
 20
9.0
  9
$ORTHOMODE
 70
     0
  9
$REGENMODE
 70
     1
  9
$FILLMODE
 70
     1
  9
$QTEXTMODE
 70
     0
  9
$MIRRTEXT
 70
     1
  9
$LTSCALE
 40
1.0
  9
$ATTMODE
 70
     1
  9
$TEXTSIZE
 40
0.2
  9
$TRACEWID
 40
0.05
  9
$TEXTSTYLE
  7
Standard
  9
$CLAYER
  8
0
  9
$CELTYPE
  6
ByLayer
  9
$CECOLOR
 62
   256
  9
$CELTSCALE
 40
1.0
  9
$DISPSILH
 70
     0
  9
$DIMSCALE
 40
1.0
  9
$DIMASZ
 40
0.18
  9
$DIMEXO
 40
0.0625
  9
$DIMDLI
 40
0.38
  9
$DIMRND
 40
0.0
  9
$DIMDLE
 40
0.0
  9
$DIMEXE
 40
0.18
  9
$DIMTP
 40
0.0
  9
$DIMTM
 40
0.0
  9
$DIMTXT
 40
0.18
  9
$DIMCEN
 40
0.09
  9
$DIMTSZ
 40
0.0
  9
$DIMTOL
 70
     0
  9
$DIMLIM
 70
     0
  9
$DIMTIH
 70
     1
  9
$DIMTOH
 70
     1
  9
$DIMSE1
 70
     0
  9
$DIMSE2
 70
     0
  9
$DIMTAD
 70
     0
  9
$DIMZIN
 70
     0
  9
$DIMBLK
  1

  9
$DIMASO
 70
     1
  9
$DIMSHO
 70
     1
  9
$DIMPOST
  1

  9
$DIMAPOST
  1

  9
$DIMALT
 70
     0
  9
$DIMALTD
 70
     2
  9
$DIMALTF
 40
25.4
  9
$DIMLFAC
 40
1.0
  9
$DIMTOFL
 70
     0
  9
$DIMTVP
 40
0.0
  9
$DIMTIX
 70
     0
  9
$DIMSOXD
 70
     0
  9
$DIMSAH
 70
     0
  9
$DIMBLK1
  1

  9
$DIMBLK2
  1

  9
$DIMSTYLE
  2
Standard
  9
$DIMCLRD
 70
     0
  9
$DIMCLRE
 70
     0
  9
$DIMCLRT
 70
     0
  9
$DIMTFAC
 40
1.0
  9
$DIMGAP
 40
0.09
  9
$DIMJUST
 70
     0
  9
$DIMSD1
 70
     0
  9
$DIMSD2
 70
     0
  9
$DIMTOLJ
 70
     1
  9
$DIMTZIN
 70
     0
  9
$DIMALTZ
 70
     0
  9
$DIMALTTZ
 70
     0
  9
$DIMUPT
 70
     0
  9
$DIMDEC
 70
     4
  9
$DIMTDEC
 70
     4
  9
$DIMALTU
 70
     2
  9
$DIMALTTD
 70
     2
  9
$DIMTXSTY
  7
Standard
  9
$DIMAUNIT
 70
     0
  9
$DIMADEC
 70
     0
  9
$DIMALTRND
 40
0.0
  9
$DIMAZIN
 70
     0
  9
$DIMDSEP
 70
    46
  9
$DIMATFIT
 70
     3
  9
$DIMFRAC
 70
     0
  9
$DIMLDRBLK
  1

  9
$DIMLUNIT
 70
     2
  9
$DIMLWD
 70
    -2
  9
$DIMLWE
 70
    -2
  9
$DIMTMOVE
 70
     0
  9
$LUNITS
 70
     2
  9
$LUPREC
 70
     4
  9
$SKETCHINC
 40
0.1
  9
$FILLETRAD
 40
0.5
  9
$AUNITS
 70
     0
  9
$AUPREC
 70
     0
  9
$MENU
  1
.
  9
$ELEVATION
 40
0.0
  9
$PELEVATION
 40
0.0
  9
$THICKNESS
 40
0.0
  9
$LIMCHECK
 70
     0
  9
$CHAMFERA
 40
0.5
  9
$CHAMFERB
 40
0.5
  9
$CHAMFERC
 40
1.0
  9
$CHAMFERD
 40
0.0
  9
$SKPOLY
 70
     0
  9
$TDCREATE
 40
2456142.468290833
  9
$TDUCREATE
 40
2456142.093290833
  9
$TDUPDATE
 40
2456142.468290845
  9
$TDUUPDATE
 40
2456142.093290845
  9
$TDINDWG
 40
0.0000000116
  9
$TDUSRTIMER
 40
0.0000000116
  9
$USRTIMER
 70
     1
  9
$ANGBASE
 50
0.0
  9
$ANGDIR
 70
     0
  9
$PDMODE
 70
     0
  9
$PDSIZE
 40
0.0
  9
$PLINEWID
 40
0.0
  9
$SPLFRAME
 70
     0
  9
$SPLINETYPE
 70
     6
  9
$SPLINESEGS
 70
     8
  9
$HANDSEED
  5
2D8
  9
$SURFTAB1
 70
     6
  9
$SURFTAB2
 70
     6
  9
$SURFTYPE
 70
     6
  9
$SURFU
 70
     6
  9
$SURFV
 70
     6
  9
$UCSBASE
  2

  9
$UCSNAME
  2

  9
$UCSORG
 10
0.0
 20
0.0
 30
0.0
  9
$UCSXDIR
 10
1.0
 20
0.0
 30
0.0
  9
$UCSYDIR
 10
0.0
 20
1.0
 30
0.0
  9
$UCSORTHOREF
  2

  9
$UCSORTHOVIEW
 70
     0
  9
$UCSORGTOP
 10
0.0
 20
0.0
 30
0.0
  9
$UCSORGBOTTOM
 10
0.0
 20
0.0
 30
0.0
  9
$UCSORGLEFT
 10
0.0
 20
0.0
 30
0.0
  9
$UCSORGRIGHT
 10
0.0
 20
0.0
 30
0.0
  9
$UCSORGFRONT
 10
0.0
 20
0.0
 30
0.0
  9
$UCSORGBACK
 10
0.0
 20
0.0
 30
0.0
  9
$PUCSBASE
  2

  9
$PUCSNAME
  2

  9
$PUCSORG
 10
0.0
 20
0.0
 30
0.0
  9
$PUCSXDIR
 10
1.0
 20
0.0
 30
0.0
  9
$PUCSYDIR
 10
0.0
 20
1.0
 30
0.0
  9
$PUCSORTHOREF
  2

  9
$PUCSORTHOVIEW
 70
     0
  9
$PUCSORGTOP
 10
0.0
 20
0.0
 30
0.0
  9
$PUCSORGBOTTOM
 10
0.0
 20
0.0
 30
0.0
  9
$PUCSORGLEFT
 10
0.0
 20
0.0
 30
0.0
  9
$PUCSORGRIGHT
 10
0.0
 20
0.0
 30
0.0
  9
$PUCSORGFRONT
 10
0.0
 20
0.0
 30
0.0
  9
$PUCSORGBACK
 10
0.0
 20
0.0
 30
0.0
  9
$USERI1
 70
     0
  9
$USERI2
 70
     0
  9
$USERI3
 70
     0
  9
$USERI4
 70
     0
  9
$USERI5
 70
     0
  9
$USERR1
 40
13.2
  9
$USERR2
 40
0.0
  9
$USERR3
 40
0.0
  9
$USERR4
 40
0.0
  9
$USERR5
 40
0.0
  9
$WORLDVIEW
 70
     1
  9
$SHADEDGE
 70
     3
  9
$SHADEDIF
 70
    70
  9
$TILEMODE
 70
     1
  9
$MAXACTVP
 70
    64
  9
$PINSBASE
 10
0.0
 20
0.0
 30
0.0
  9
$PLIMCHECK
 70
     0
  9
$PEXTMIN
 10
1.00000000000000E+20
 20
1.00000000000000E+20
 30
1.00000000000000E+20
  9
$PEXTMAX
 10
-1.00000000000000E+20
 20
-1.00000000000000E+20
 30
-1.00000000000000E+20
  9
$PLIMMIN
 10
0.0
 20
0.0
  9
$PLIMMAX
 10
12.0
 20
9.0
  9
$UNITMODE
 70
     0
  9
$VISRETAIN
 70
     1
  9
$PLINEGEN
 70
     0
  9
$PSLTSCALE
 70
     1
  9
$TREEDEPTH
 70
  3020
  9
$CMLSTYLE
  2
Standard
  9
$CMLJUST
 70
     0
  9
$CMLSCALE
 40
1.0
  9
$PROXYGRAPHICS
 70
     1
  9
$MEASUREMENT
 70
     1
  9
$CELWEIGHT
370
    -1
  9
$ENDCAPS
280
     0
  9
$JOINSTYLE
280
     0
  9
$LWDISPLAY
290
     0
  9
$INSUNITS
 70
     1
  9
$HYPERLINKBASE
  1

  9
$STYLESHEET
  1

  9
$XEDIT
290
     1
  9
$CEPSNTYPE
380
     0
  9
$PSTYLEMODE
290
     0
  9
$FINGERPRINTGUID
  2
{FAEB1C30-E019-11D5-929B-00C0DF256EC4}
  9
$VERSIONGUID
  2
{FAEB1C32-E019-11D5-929B-00C0DF256EC4}
  9
$EXTNAMES
290
     1
  9
$PSVPSCALE
 40
0.0
  9
$OLESTARTUP
290
     0
  0
ENDSEC
  0
SECTION
  2
CLASSES
  0
CLASS
  1
ACDBDICTIONARYWDFLT
  2
AcDbDictionaryWithDefault
  3
ObjectDBX Classes
 90
        0
280
     0
281
     0
  0
CLASS
  1
TABLESTYLE
  2
AcDbTableStyle
  3
ObjectDBX Classes
 90
     2047
280
     0
281
     0
  0
CLASS
  1
DICTIONARYVAR
  2
AcDbDictionaryVar
  3
ObjectDBX Classes
 90
        0
280
     0
281
     0
  0
CLASS
  1

  2
exOdDbCircle
  3

 90
        0
280
     0
281
     1
  0
CLASS
  1

  2
exOdDbSpline
  3

 90
        0
280
     0
281
     1
  0
CLASS
  1
ACDBPLACEHOLDER
  2
AcDbPlaceHolder
  3
ObjectDBX Classes
 90
        0
280
     0
281
     0
  0
CLASS
  1
LAYOUT
  2
AcDbLayout
  3
ObjectDBX Classes
 90
        0
280
     0
281
     0
  0
ENDSEC
  0
SECTION
  2
TABLES
  0
TABLE
  2
VPORT
  5
8
330
0
100
AcDbSymbolTable
 70
     2
  0
VPORT
  5
29
330
8
100
AcDbSymbolTableRecord
100
AcDbViewportTableRecord
  2
*Active
 70
     0
 10
0.0
 20
0.0
 11
1.0
 21
1.0
 12
315.0000000000003
 22
445.5000000000005
 13
0.0
 23
0.0
 14
0.5
 24
0.5
 15
0.5
 25
0.5
 16
0.0
 26
0.0
 36
1.0
 17
0.0
 27
0.0
 37
0.0
 40
980.1000000000011
 41
1.60267857142857
 42
50.0
 43
0.0
 44
0.0
 50
0.0
 51
0.0
 71
     0
 72
   100
 73
     1
 74
     3
 75
     0
 76
     0
 77
     0
 78
     0
281
     0
 65
     1
110
0.0
120
0.0
130
0.0
111
1.0
121
0.0
131
0.0
112
0.0
122
1.0
132
0.0
 79
     0
146
0.0
  0
ENDTAB
  0
TABLE
  2
LTYPE
  5
5
330
0
100
AcDbSymbolTable
 70
     8
  0
LTYPE
  5
14
330
5
100
AcDbSymbolTableRecord
100
AcDbLinetypeTableRecord
  2
ByBlock
 70
     0
  3

 72
    65
 73
     0
 40
0.0
  0
LTYPE
  5
15
330
5
100
AcDbSymbolTableRecord
100
AcDbLinetypeTableRecord
  2
ByLayer
 70
     0
  3

 72
    65
 73
     0
 40
0.0
  0
LTYPE
  5
16
330
5
100
AcDbSymbolTableRecord
100
AcDbLinetypeTableRecord
  2
Continuous
 70
     0
  3
Solid line
 72
    65
 73
     0
 40
0.0
  0
LTYPE
  5
2E
330
5
100
AcDbSymbolTableRecord
100
AcDbLinetypeTableRecord
  2
DASHED
 70
     0
  3
Dashed
 72
    65
 73
     2
 40
15.0
 49
7.0
 74
     0
 49
-8.0
 74
     0
  0
LTYPE
  5
2F
330
5
100
AcDbSymbolTableRecord
100
AcDbLinetypeTableRecord
  2
DOTTED
 70
     0
  3
Dotted
 72
    65
 73
     2
 40
1.0
 49
0.0
 74
     0
 49
-1.0
 74
     0
  0
LTYPE
  5
30
330
5
100
AcDbSymbolTableRecord
100
AcDbLinetypeTableRecord
  2
DOT_CENTER
 70
     0
  3
Dot_Center
 72
    65
 73
     4
 40
14.0
 49
12.0
 74
     0
 49
-1.0
 74
     0
 49
0.0
 74
     0
 49
-1.0
 74
     0
  0
LTYPE
  5
31
330
5
100
AcDbSymbolTableRecord
100
AcDbLinetypeTableRecord
  2
LONG_DASHED
 70
     0
  3
Long_Dashed
 72
    65
 73
     2
 40
15.0
 49
10.0
 74
     0
 49
-5.0
 74
     0
  0
LTYPE
  5
32
330
5
100
AcDbSymbolTableRecord
100
AcDbLinetypeTableRecord
  2
DASH_CENTER
 70
     0
  3
Dash_Center
 72
    65
 73
     4
 40
14.0
 49
11.0
 74
     0
 49
-1.0
 74
     0
 49
1.0
 74
     0
 49
-1.0
 74
     0
  0
LTYPE
  5
33
330
5
100
AcDbSymbolTableRecord
100
AcDbLinetypeTableRecord
  2
PHANTOM
 70
     0
  3
Phantom
 72
    65
 73
     6
 40
13.0
 49
10.0
 74
     0
 49
-1.0
 74
     0
 49
0.0
 74
     0
 49
-1.0
 74
     0
 49
0.0
 74
     0
 49
-1.0
 74
     0
  0
LTYPE
  5
34
330
5
100
AcDbSymbolTableRecord
100
AcDbLinetypeTableRecord
  2
CENTER_DASH_DASH
 70
     0
  3
Center_Dash_Dash
 72
    65
 73
     6
 40
14.0
 49
9.0
 74
     0
 49
-1.0
 74
     0
 49
1.0
 74
     0
 49
-1.0
 74
     0
 49
1.0
 74
     0
 49
-1.0
 74
     0
  0
ENDTAB
  0
TABLE
  2
LAYER
  5
2
330
0
100
AcDbSymbolTable
 70
     4
  0
LAYER
  5
10
330
2
100
AcDbSymbolTableRecord
100
AcDbLayerTableRecord
  2
0
 70
     0
 62
     7
  6
Continuous
370
    -3
390
F
  0
LAYER
  5
35
330
2
100
AcDbSymbolTableRecord
100
AcDbLayerTableRecord
  2
1
 70
     0
 62
     7
  6
Continuous
370
    -3
390
F
  0
LAYER
  5
36
330
2
100
AcDbSymbolTableRecord
100
AcDbLayerTableRecord
  2
____
 70
     0
 62
     7
  6
Continuous
370
    -3
390
F
  0
LAYER
  5
37
330
2
100
AcDbSymbolTableRecord
100
AcDbLayerTableRecord
  2
_______C____
 70
     0
 62
     7
  6
Continuous
370
    -3
390
F
  0
ENDTAB
  0
TABLE
  2
STYLE
  5
3
330
0
100
AcDbSymbolTable
 70
     3
  0
STYLE
  5
11
330
3
100
AcDbSymbolTableRecord
100
AcDbTextStyleTableRecord
  2
Standard
 70
     0
 40
0.0
 41
1.0
 50
0.0
 71
     0
 42
0.2
  3
txt
  4

  0
STYLE
  5
AF
330
3
100
AcDbSymbolTableRecord
100
AcDbTextStyleTableRecord
  2
CONVERTER_1
 70
     0
 40
0.0
 41
0.89
 50
0.0
 71
     0
 42
0.2
  3
msmincho.ttc
  4

1001
ACAD
1000
MS Mincho
1071
    32785
  0
STYLE
  5
281
330
3
100
AcDbSymbolTableRecord
100
AcDbTextStyleTableRecord
  2
CONVERTER_2
 70
     0
 40
0.0
 41
0.9
 50
0.0
 71
     0
 42
0.2
  3
txt.shx
  4

  0
ENDTAB
  0
TABLE
  2
VIEW
  5
6
330
0
100
AcDbSymbolTable
 70
     0
  0
ENDTAB
  0
TABLE
  2
UCS
  5
7
330
0
100
AcDbSymbolTable
 70
     0
  0
ENDTAB
  0
TABLE
  2
APPID
  5
9
330
0
100
AcDbSymbolTable
 70
     1
  0
APPID
  5
12
330
9
100
AcDbSymbolTableRecord
100
AcDbRegAppTableRecord
  2
ACAD
 70
     0
  0
ENDTAB
  0
TABLE
  2
DIMSTYLE
  5
A
330
0
100
AcDbSymbolTable
 70
     8
100
AcDbDimStyleTable
  0
DIMSTYLE
105
27
330
A
100
AcDbSymbolTableRecord
100
AcDbDimStyleTableRecord
  2
Standard
 70
     0
340
11
  0
DIMSTYLE
105
291
102
{ACAD_REACTORS
330
292
102
}
330
A
100
AcDbSymbolTableRecord
100
AcDbDimStyleTableRecord
  2
ME10_DIM_0
 70
     0
 41
10.50000000000001
 42
0.0
 44
3.0
 73
     0
 74
     0
 77
     1
 78
     8
140
10.50000000000001
147
0.625
172
     1
173
     1
176
     2
177
     2
178
     7
271
     2
340
281
  0
DIMSTYLE
105
29F
102
{ACAD_REACTORS
330
2A0
102
}
330
A
100
AcDbSymbolTableRecord
100
AcDbDimStyleTableRecord
  2
ME10_DIM_1
 70
     0
 41
10.50000000000001
 42
0.0
 44
3.0
 73
     0
 74
     0
 77
     1
 78
     8
140
10.50000000000001
147
0.625
172
     1
173
     1
176
     2
177
     2
178
     7
271
     2
340
281
344
29C
  0
DIMSTYLE
105
2AA
102
{ACAD_REACTORS
330
2AB
102
}
330
A
100
AcDbSymbolTableRecord
100
AcDbDimStyleTableRecord
  2
ME10_DIM_2
 70
     0
  3
{\Fgdt;n}<>
 41
10.50000000000001
 42
0.0
 44
3.0
 73
     0
 74
     0
 77
     1
 78
     8
140
10.50000000000001
147
0.625
172
     1
173
     1
176
     2
177
     2
178
     7
271
     2
340
281
  0
DIMSTYLE
105
2B5
102
{ACAD_REACTORS
330
2B6
102
}
330
A
100
AcDbSymbolTableRecord
100
AcDbDimStyleTableRecord
  2
ME10_DIM_3
 70
     0
 41
10.50000000000001
 42
0.0
 44
3.0
 73
     0
 74
     0
 77
     1
 78
     8
140
10.50000000000001
147
0.625
172
     1
173
     1
176
     2
177
     2
178
     7
271
     2
340
AF
  0
DIMSTYLE
105
2C0
102
{ACAD_REACTORS
330
2C1
102
}
330
A
100
AcDbSymbolTableRecord
100
AcDbDimStyleTableRecord
  2
ME10_DIM_4
 70
     0
 41
10.50000000000001
 42
0.0
 44
3.0
 73
     0
 74
     0
 77
     1
 78
     8
140
10.50000000000001
147
0.625
172
     1
173
     1
176
     2
177
     2
178
     7
271
     2
340
281
  0
DIMSTYLE
105
2CB
102
{ACAD_REACTORS
330
2CC
102
}
330
A
100
AcDbSymbolTableRecord
100
AcDbDimStyleTableRecord
  2
ME10_DIM_5
 70
     0
 41
10.50000000000001
 42
0.0
 44
3.0
 73
     0
 74
     0
 77
     1
 78
     8
140
10.50000000000001
147
0.625
172
     1
173
     1
176
     2
177
     2
178
     7
271
     2
340
281
  0
DIMSTYLE
105
2D6
102
{ACAD_REACTORS
330
2D7
102
}
330
A
100
AcDbSymbolTableRecord
100
AcDbDimStyleTableRecord
  2
ME10_DIM_6
 70
     0
 41
10.50000000000001
 42
0.0
 44
3.0
 73
     0
 74
     0
 77
     1
 78
     8
140
10.50000000000001
147
0.625
172
     1
173
     1
176
     2
177
     2
178
     7
271
     2
340
281
  0
ENDTAB
  0
TABLE
  2
BLOCK_RECORD
  5
1
330
0
100
AcDbSymbolTable
 70
    20
  0
BLOCK_RECORD
  5
1F
330
1
100
AcDbSymbolTableRecord
100
AcDbBlockTableRecord
  2
*Model_Space
340
22
  0
BLOCK_RECORD
  5
1B
330
1
100
AcDbSymbolTableRecord
100
AcDbBlockTableRecord
  2
*Paper_Space
340
1E
  0
BLOCK_RECORD
  5
23
330
1
100
AcDbSymbolTableRecord
100
AcDbBlockTableRecord
  2
*Paper_Space0
340
26
  0
BLOCK_RECORD
  5
38
330
1
100
AcDbSymbolTableRecord
100
AcDbBlockTableRecord
  2
_J__A4
340
0
102
{BLKREFS
331
5C
102
}
  0
BLOCK_RECORD
  5
3B
330
1
100
AcDbSymbolTableRecord
100
AcDbBlockTableRecord
  2
60-1-16-170
340
0
102
{BLKREFS
331
3F
102
}
  0
BLOCK_RECORD
  5
3E
330
1
100
AcDbSymbolTableRecord
100
AcDbBlockTableRecord
  2
A10J-60X-16
340
0
102
{BLKREFS
331
5D
102
}
  0
BLOCK_RECORD
  5
42
330
1
100
AcDbSymbolTableRecord
100
AcDbBlockTableRecord
  2
36-1A-13-M4
340
0
102
{BLKREFS
331
5E
102
}
  0
BLOCK_RECORD
  5
45
330
1
100
AcDbSymbolTableRecord
100
AcDbBlockTableRecord
  2
37-1-13
340
0
102
{BLKREFS
331
49
102
}
  0
BLOCK_RECORD
  5
48
330
1
100
AcDbSymbolTableRecord
100
AcDbBlockTableRecord
  2
R10A-13
340
0
102
{BLKREFS
331
5F
102
}
  0
BLOCK_RECORD
  5
4C
330
1
100
AcDbSymbolTableRecord
100
AcDbBlockTableRecord
  2
A10-0B-13
340
0
102
{BLKREFS
331
60
102
}
  0
BLOCK_RECORD
  5
4F
330
1
100
AcDbSymbolTableRecord
100
AcDbBlockTableRecord
  2
32-1-16
340
0
102
{BLKREFS
331
61
102
}
  0
BLOCK_RECORD
  5
52
330
1
100
AcDbSymbolTableRecord
100
AcDbBlockTableRecord
  2
84-338
340
0
102
{BLKREFS
331
56
102
}
  0
BLOCK_RECORD
  5
55
330
1
100
AcDbSymbolTableRecord
100
AcDbBlockTableRecord
  2
84-338X
340
0
102
{BLKREFS
331
62
102
}
  0
BLOCK_RECORD
  5
59
330
1
100
AcDbSymbolTableRecord
100
AcDbBlockTableRecord
  2
21-9-M1
340
0
102
{BLKREFS
331
63
102
}
  0
BLOCK_RECORD
  5
288
330
1
100
AcDbSymbolTableRecord
100
AcDbBlockTableRecord
  2
*D012
340
0
  0
BLOCK_RECORD
  5
293
330
1
100
AcDbSymbolTableRecord
100
AcDbBlockTableRecord
  2
*D113
340
0
  0
BLOCK_RECORD
  5
29C
330
1
100
AcDbSymbolTableRecord
100
AcDbBlockTableRecord
  2
_None
340
0
  0
BLOCK_RECORD
  5
2A1
330
1
100
AcDbSymbolTableRecord
100
AcDbBlockTableRecord
  2
*D215
340
0
  0
BLOCK_RECORD
  5
2AC
330
1
100
AcDbSymbolTableRecord
100
AcDbBlockTableRecord
  2
*D316
340
0
  0
BLOCK_RECORD
  5
2B7
330
1
100
AcDbSymbolTableRecord
100
AcDbBlockTableRecord
  2
*D417
340
0
  0
BLOCK_RECORD
  5
2C2
330
1
100
AcDbSymbolTableRecord
100
AcDbBlockTableRecord
  2
*D518
340
0
  0
BLOCK_RECORD
  5
2CD
330
1
100
AcDbSymbolTableRecord
100
AcDbBlockTableRecord
  2
*D619
340
0
  0
ENDTAB
  0
ENDSEC
  0
SECTION
  2
BLOCKS
  0
BLOCK
  5
20
330
1F
100
AcDbEntity
  8
0
100
AcDbBlockBegin
  2
*Model_Space
 70
     0
 71
     0
 10
0.0
 20
0.0
 30
0.0
  3
*Model_Space
  1

  0
ENDBLK
  5
21
330
1F
100
AcDbEntity
  8
0
100
AcDbBlockEnd
  0
BLOCK
  5
1C
330
1B
100
AcDbEntity
 67
     1
  8
0
100
AcDbBlockBegin
  2
*Paper_Space
 70
     0
 71
     0
 10
0.0
 20
0.0
 30
0.0
  3
*Paper_Space
  1

  0
ENDBLK
  5
1D
330
1B
100
AcDbEntity
 67
     1
  8
0
100
AcDbBlockEnd
  0
BLOCK
  5
24
330
23
100
AcDbEntity
  8
0
100
AcDbBlockBegin
  2
*Paper_Space0
 70
     0
 71
     0
 10
0.0
 20
0.0
 30
0.0
  3
*Paper_Space0
  1

  0
ENDBLK
  5
25
330
23
100
AcDbEntity
  8
0
100
AcDbBlockEnd
  0
BLOCK
  5
39
330
38
100
AcDbEntity
  8
0
100
AcDbBlockBegin
  2
_J__A4
 70
     0
 71
     0
 10
0.0
 20
0.0
 30
0.0
  3
_J__A4
  1

  0
POINT
  5
64
330
38
100
AcDbEntity
  8
1
 62
     4
100
AcDbPoint
 10
34.0
 20
34.00000000000001
 30
0.0
  0
POINT
  5
65
330
38
100
AcDbEntity
  8
1
 62
     4
100
AcDbPoint
 10
57.0
 20
12.25
 30
0.0
  0
POINT
  5
66
330
38
100
AcDbEntity
  8
1
 62
     4
100
AcDbPoint
 10
57.0
 20
20.75000000000001
 30
0.0
  0
POINT
  5
67
330
38
100
AcDbEntity
  8
1
 62
     4
100
AcDbPoint
 10
57.0
 20
24.75000000000001
 30
0.0
  0
POINT
  5
68
330
38
100
AcDbEntity
  8
1
 62
     4
100
AcDbPoint
 10
57.0
 20
16.25
 30
0.0
  0
POINT
  5
69
330
38
100
AcDbEntity
  8
1
 62
     4
100
AcDbPoint
 10
157.5
 20
19.00000000000001
 30
0.0
  0
POINT
  5
6A
330
38
100
AcDbEntity
  8
1
 62
     4
100
AcDbPoint
 10
47.5
 20
282.0000000000003
 30
0.0
  0
POINT
  5
6B
330
38
100
AcDbEntity
  8
1
 62
     4
100
AcDbPoint
 10
57.0
 20
22.75000000000001
 30
0.0
  0
POINT
  5
6C
330
38
100
AcDbEntity
  8
1
 62
     4
100
AcDbPoint
 10
57.0
 20
14.25
 30
0.0
  0
POINT
  5
6D
330
38
100
AcDbEntity
  8
1
 62
     4
100
AcDbPoint
 10
157.5
 20
12.5
 30
0.0
  0
POINT
  5
6E
330
38
100
AcDbEntity
  8
1
 62
     4
100
AcDbPoint
 10
163.25
 20
12.5
 30
0.0
  0
POINT
  5
6F
330
38
100
AcDbEntity
  8
1
 62
     4
100
AcDbPoint
 10
151.75
 20
12.5
 30
0.0
  0
POINT
  5
70
330
38
100
AcDbEntity
  8
1
 62
     4
100
AcDbPoint
 10
134.75
 20
12.5
 30
0.0
  0
POINT
  5
71
330
38
100
AcDbEntity
  8
1
 62
     4
100
AcDbPoint
 10
146.25
 20
12.5
 30
0.0
  0
POINT
  5
72
330
38
100
AcDbEntity
  8
1
 62
     4
100
AcDbPoint
 10
140.5
 20
12.5
 30
0.0
  0
POINT
  5
73
330
38
100
AcDbEntity
  8
1
 62
     4
100
AcDbPoint
 10
140.5
 20
19.00000000000001
 30
0.0
  0
POINT
  5
74
330
38
100
AcDbEntity
  8
1
 62
     4
100
AcDbPoint
 10
117.75
 20
12.5
 30
0.0
  0
POINT
  5
75
330
38
100
AcDbEntity
  8
1
 62
     4
100
AcDbPoint
 10
129.25
 20
12.5
 30
0.0
  0
POINT
  5
76
330
38
100
AcDbEntity
  8
1
 62
     4
100
AcDbPoint
 10
123.5
 20
12.5
 30
0.0
  0
POINT
  5
77
330
38
100
AcDbEntity
  8
1
 62
     4
100
AcDbPoint
 10
123.5
 20
19.00000000000001
 30
0.0
  0
POINT
  5
78
330
38
100
AcDbEntity
  8
1
 62
     4
100
AcDbPoint
 10
100.75
 20
12.5
 30
0.0
  0
POINT
  5
79
330
38
100
AcDbEntity
  8
1
 62
     4
100
AcDbPoint
 10
112.25
 20
12.5
 30
0.0
  0
POINT
  5
7A
330
38
100
AcDbEntity
  8
1
 62
     4
100
AcDbPoint
 10
106.5
 20
12.5
 30
0.0
  0
POINT
  5
7B
330
38
100
AcDbEntity
  8
1
 62
     4
100
AcDbPoint
 10
106.5
 20
19.00000000000001
 30
0.0
  0
POINT
  5
7C
330
38
100
AcDbEntity
  8
1
 62
     4
100
AcDbPoint
 10
85.25
 20
17.0
 30
0.0
  0
POINT
  5
7D
330
38
100
AcDbEntity
  8
1
 62
     4
100
AcDbPoint
 10
93.75
 20
17.0
 30
0.0
  0
LINE
  5
7E
330
38
100
AcDbEntity
  8
1
  6
Continuous
 62
     2
100
AcDbLine
 10
81.0
 20
27.00000000000001
 30
0.0
 11
81.0
 21
10.0
 31
0.0
  0
LINE
  5
7F
330
38
100
AcDbEntity
  8
1
  6
DOT_CENTER
 62
     2
100
AcDbLine
 10
187.0
 20
26.50000000000001
 30
0.0
 11
187.0
 21
20.50000000000001
 31
0.0
  0
LINE
  5
80
330
38
100
AcDbEntity
  8
1
  6
DOT_CENTER
 62
     2
100
AcDbLine
 10
184.0
 20
23.50000000000001
 30
0.0
 11
197.0
 21
23.50000000000001
 31
0.0
  0
LINE
  5
81
330
38
100
AcDbEntity
  8
1
  6
Continuous
 62
     7
100
AcDbLine
 10
196.0
 20
21.50000000000001
 30
0.0
 11
191.0
 21
22.30000000000001
 31
0.0
  0
LINE
  5
82
330
38
100
AcDbEntity
  8
1
  6
Continuous
 62
     7
100
AcDbLine
 10
196.0
 20
25.50000000000001
 30
0.0
 11
196.0
 21
21.50000000000001
 31
0.0
  0
LINE
  5
83
330
38
100
AcDbEntity
  8
1
  6
Continuous
 62
     7
100
AcDbLine
 10
191.0
 20
24.70000000000001
 30
0.0
 11
196.0
 21
25.50000000000001
 31
0.0
  0
LINE
  5
84
330
38
100
AcDbEntity
  8
1
  6
Continuous
 62
     7
100
AcDbLine
 10
191.0
 20
24.70000000000001
 30
0.0
 11
191.0
 21
22.30000000000001
 31
0.0
  0
LINE
  5
85
330
38
100
AcDbEntity
  8
1
  6
Continuous
 62
     2
100
AcDbLine
 10
33.0
 20
27.0
 30
0.0
 11
33.0
 21
10.0
 31
0.0
  0
LINE
  5
86
330
38
100
AcDbEntity
  8
1
  6
Continuous
 62
     2
100
AcDbLine
 10
25.0
 20
18.50000000000001
 30
0.0
 11
81.0
 21
18.50000000000001
 31
0.0
  0
LINE
  5
87
330
38
100
AcDbEntity
  8
1
  6
Continuous
 62
     7
100
AcDbLine
 10
200.0
 20
287.0000000000003
 30
0.0
 11
105.0
 21
287.0000000000003
 31
0.0
  0
LINE
  5
88
330
38
100
AcDbEntity
  8
1
  6
Continuous
 62
     7
100
AcDbLine
 10
200.0
 20
10.0
 30
0.0
 11
200.0
 21
148.5
 31
0.0
  0
LINE
  5
89
330
38
100
AcDbEntity
  8
1
  6
Continuous
 62
     7
100
AcDbLine
 10
25.0
 20
10.0
 30
0.0
 11
105.0
 21
10.0
 31
0.0
  0
LINE
  5
8A
330
38
100
AcDbEntity
  8
1
  6
PHANTOM
 62
     4
100
AcDbLine
 10
0.0
 20
297.0
 30
0.0
 11
0.0
 21
0.0
 31
0.0
  0
LINE
  5
8B
330
38
100
AcDbEntity
  8
1
  6
PHANTOM
 62
     4
100
AcDbLine
 10
210.0
 20
297.0
 30
0.0
 11
0.0
 21
297.0
 31
0.0
  0
LINE
  5
8C
330
38
100
AcDbEntity
  8
1
  6
PHANTOM
 62
     4
100
AcDbLine
 10
210.0
 20
0.0
 30
0.0
 11
210.0
 21
297.0
 31
0.0
  0
LINE
  5
8D
330
38
100
AcDbEntity
  8
1
  6
PHANTOM
 62
     4
100
AcDbLine
 10
0.0
 20
0.0
 30
0.0
 11
210.0
 21
0.0
 31
0.0
  0
LINE
  5
8E
330
38
100
AcDbEntity
  8
1
  6
Continuous
 62
     7
100
AcDbLine
 10
25.0
 20
41.0
 30
0.0
 11
200.0
 21
41.0
 31
0.0
  0
LINE
  5
8F
330
38
100
AcDbEntity
  8
1
  6
Continuous
 62
     7
100
AcDbLine
 10
200.0
 20
27.00000000000001
 30
0.0
 11
25.0
 21
27.00000000000001
 31
0.0
  0
LINE
  5
90
330
38
100
AcDbEntity
  8
1
  6
Continuous
 62
     2
100
AcDbLine
 10
33.0
 20
41.00000000000001
 30
0.0
 11
33.0
 21
27.0
 31
0.0
  0
LINE
  5
91
330
38
100
AcDbEntity
  8
1
  6
Continuous
 62
     2
100
AcDbLine
 10
55.0
 20
287.0000000000003
 30
0.0
 11
55.0
 21
277.0000000000003
 31
0.0
  0
LINE
  5
92
330
38
100
AcDbEntity
  8
1
  6
Continuous
 62
     2
100
AcDbLine
 10
40.0
 20
287.0000000000003
 30
0.0
 11
40.0
 21
277.0000000000003
 31
0.0
  0
LINE
  5
93
330
38
100
AcDbEntity
  8
1
  6
Continuous
 62
     7
100
AcDbLine
 10
25.0
 20
10.0
 30
0.0
 11
25.0
 21
148.5
 31
0.0
  0
LINE
  5
94
330
38
100
AcDbEntity
  8
1
  6
Continuous
 62
     2
100
AcDbLine
 10
55.0
 20
277.0000000000003
 30
0.0
 11
25.0
 21
277.0000000000003
 31
0.0
  0
LINE
  5
95
330
38
100
AcDbEntity
  8
1
  6
Continuous
 62
     2
100
AcDbLine
 10
166.0
 20
27.00000000000001
 30
0.0
 11
166.0
 21
10.0
 31
0.0
  0
LINE
  5
96
330
38
100
AcDbEntity
  8
1
  6
Continuous
 62
     2
100
AcDbLine
 10
132.0
 20
27.00000000000001
 30
0.0
 11
132.0
 21
9.99999999999999
 31
0.0
  0
LINE
  5
97
330
38
100
AcDbEntity
  8
1
  6
Continuous
 62
     2
100
AcDbLine
 10
149.0
 20
27.00000000000001
 30
0.0
 11
149.0
 21
10.0
 31
0.0
  0
LINE
  5
98
330
38
100
AcDbEntity
  8
1
  6
Continuous
 62
     2
100
AcDbLine
 10
115.0
 20
27.00000000000001
 30
0.0
 11
115.0
 21
9.99999999999999
 31
0.0
  0
LINE
  5
99
330
38
100
AcDbEntity
  8
1
  6
Continuous
 62
     2
100
AcDbLine
 10
98.0
 20
27.00000000000001
 30
0.0
 11
98.0
 21
9.99999999999999
 31
0.0
  0
LINE
  5
9A
330
38
100
AcDbEntity
  8
1
  6
Continuous
 62
     2
100
AcDbLine
 10
166.0
 20
20.00000000000001
 30
0.0
 11
200.0
 21
20.00000000000001
 31
0.0
  0
LINE
  5
9B
330
38
100
AcDbEntity
  8
1
  6
Continuous
 62
     2
100
AcDbLine
 10
105.0
 20
287.0000000000003
 30
0.0
 11
105.0
 21
292.0000000000003
 31
0.0
  0
LINE
  5
9C
330
38
100
AcDbEntity
  8
1
  6
Continuous
 62
     7
100
AcDbLine
 10
105.0
 20
287.0000000000003
 30
0.0
 11
25.0
 21
287.0000000000003
 31
0.0
  0
LINE
  5
9D
330
38
100
AcDbEntity
  8
1
  6
Continuous
 62
     2
100
AcDbLine
 10
25.0
 20
148.5
 30
0.0
 11
20.0
 21
148.5
 31
0.0
  0
LINE
  5
9E
330
38
100
AcDbEntity
  8
1
  6
Continuous
 62
     7
100
AcDbLine
 10
25.0
 20
148.5
 30
0.0
 11
25.0
 21
287.0000000000003
 31
0.0
  0
LINE
  5
9F
330
38
100
AcDbEntity
  8
1
  6
Continuous
 62
     2
100
AcDbLine
 10
200.0
 20
148.5
 30
0.0
 11
205.0
 21
148.5
 31
0.0
  0
LINE
  5
A0
330
38
100
AcDbEntity
  8
1
  6
Continuous
 62
     7
100
AcDbLine
 10
200.0
 20
148.5
 30
0.0
 11
200.0
 21
287.0000000000003
 31
0.0
  0
LINE
  5
A1
330
38
100
AcDbEntity
  8
1
  6
Continuous
 62
     2
100
AcDbLine
 10
105.0
 20
10.0
 30
0.0
 11
105.0
 21
5.0
 31
0.0
  0
LINE
  5
A2
330
38
100
AcDbEntity
  8
1
  6
Continuous
 62
     7
100
AcDbLine
 10
105.0
 20
10.0
 30
0.0
 11
200.0
 21
10.0
 31
0.0
  0
CIRCLE
  5
A3
330
38
100
AcDbEntity
  8
1
  6
DOT_CENTER
 62
     7
100
AcDbCircle
 10
89.5
 20
18.0
 30
0.0
 40
0.1000000000000227
  0
CIRCLE
  5
A4
330
38
100
AcDbEntity
  8
1
  6
DOT_CENTER
 62
     7
100
AcDbCircle
 10
89.5
 20
16.0
 30
0.0
 40
0.1000000000000227
  0
CIRCLE
  5
A5
330
38
100
AcDbEntity
  8
1
  6
Continuous
 62
     7
100
AcDbCircle
 10
187.0
 20
23.50000000000001
 30
0.0
 40
2.0
  0
CIRCLE
  5
A6
330
38
100
AcDbEntity
  8
1
  6
Continuous
 62
     7
100
AcDbCircle
 10
187.0
 20
23.50000000000001
 30
0.0
 40
1.200000000000102
  0
CIRCLE
  5
A7
330
38
100
AcDbEntity
  8
1
  6
Continuous
 62
     7
100
AcDbCircle
 10
154.5
 20
12.5
 30
0.0
 40
0.3000000000000114
  0
CIRCLE
  5
A8
330
38
100
AcDbEntity
  8
1
  6
Continuous
 62
     7
100
AcDbCircle
 10
160.5
 20
12.5
 30
0.0
 40
0.3000000000000114
  0
CIRCLE
  5
A9
330
38
100
AcDbEntity
  8
1
  6
Continuous
 62
     7
100
AcDbCircle
 10
143.5
 20
12.5
 30
0.0
 40
0.3000000000000114
  0
CIRCLE
  5
AA
330
38
100
AcDbEntity
  8
1
  6
Continuous
 62
     7
100
AcDbCircle
 10
137.5
 20
12.5
 30
0.0
 40
0.3000000000000114
  0
CIRCLE
  5
AB
330
38
100
AcDbEntity
  8
1
  6
Continuous
 62
     7
100
AcDbCircle
 10
126.5
 20
12.5
 30
0.0
 40
0.2999999999999972
  0
CIRCLE
  5
AC
330
38
100
AcDbEntity
  8
1
  6
Continuous
 62
     7
100
AcDbCircle
 10
120.5
 20
12.5
 30
0.0
 40
0.2999999999999972
  0
CIRCLE
  5
AD
330
38
100
AcDbEntity
  8
1
  6
Continuous
 62
     7
100
AcDbCircle
 10
109.5
 20
12.5
 30
0.0
 40
0.2999999999999972
  0
CIRCLE
  5
AE
330
38
100
AcDbEntity
  8
1
  6
Continuous
 62
     7
100
AcDbCircle
 10
103.5
 20
12.5
 30
0.0
 40
0.2999999999999972
  0
MTEXT
  5
B0
330
38
100
AcDbEntity
  8
1
 62
   250
100
AcDbMText
 10
25.0
 20
5.0
 30
0.0
 40
3.5
 41
0.0
 71
     4
 72
     1
  1
備考欄の文字列 原点位置=4
  7
CONVERTER_1
 73
     1
 44
0.7202881152461
  0
MTEXT
  5
B1
330
38
100
AcDbEntity
  8
1
 62
     2
100
AcDbMText
 10
89.5
 20
24.00000000000001
 30
0.0
 40
3.5
 41
0.0
 71
     5
 72
     1
  1
尺度
  7
CONVERTER_1
 73
     1
 44
0.7202881152461
  0
MTEXT
  5
B2
330
38
100
AcDbEntity
  8
1
 62
     2
100
AcDbMText
 10
135.5
 20
25.00000000000001
 30
0.0
 40
3.0
 41
0.0
 71
     5
 72
     1
  1
製図
  7
CONVERTER_1
 73
     1
 44
0.78031212484994
  0
MTEXT
  5
B3
330
38
100
AcDbEntity
  8
1
 62
     2
100
AcDbMText
 10
152.5
 20
25.00000000000001
 30
0.0
 40
3.0
 41
0.0
 71
     5
 72
     1
  1
設計
  7
CONVERTER_1
 73
     1
 44
0.78031212484994
  0
MTEXT
  5
B4
330
38
100
AcDbEntity
  8
1
 62
     2
100
AcDbMText
 10
118.5
 20
25.00000000000001
 30
0.0
 40
3.0
 41
0.0
 71
     5
 72
     1
  1
検図
  7
CONVERTER_1
 73
     1
 44
0.78031212484994
  0
MTEXT
  5
B5
330
38
100
AcDbEntity
  8
1
 62
     2
100
AcDbMText
 10
175.0
 20
23.50000000000001
 30
0.0
 40
3.5
 41
0.0
 71
     5
 72
     1
  1
第三角法
  7
CONVERTER_1
 73
     1
 44
0.7202881152461
  0
MTEXT
  5
B6
330
38
100
AcDbEntity
  8
1
 62
     2
100
AcDbMText
 10
101.5
 20
25.00000000000001
 30
0.0
 40
3.0
 41
0.0
 71
     5
 72
     1
  1
承認
  7
CONVERTER_1
 73
     1
 44
0.78031212484994
  0
MTEXT
  5
B7
330
38
100
AcDbEntity
  8
1
 62
     2
100
AcDbMText
 10
29.0
 20
14.25
 30
0.0
 40
3.5
 41
0.0
 71
     5
 72
     1
  1
品番
  7
CONVERTER_1
 73
     1
 44
0.96038415366146
  0
MTEXT
  5
B8
330
38
100
AcDbEntity
  8
1
 62
     2
100
AcDbMText
 10
29.0
 20
22.75
 30
0.0
 40
3.5
 41
0.0
 71
     5
 72
     1
  1
品名
  7
CONVERTER_1
 73
     1
 44
0.96038415366146
  0
MTEXT
  5
B9
330
38
100
AcDbEntity
  8
1
 62
     2
100
AcDbMText
 10
29.0
 20
34.00000000000001
 30
0.0
 40
3.5
 41
0.0
 71
     5
 72
     1
  1
備考
  7
CONVERTER_1
 73
     1
 44
0.60024009603842
  0
MTEXT
  5
BA
330
38
100
AcDbEntity
  8
1
 62
     2
100
AcDbMText
 10
32.5
 20
282.0000000000003
 30
0.0
 40
5.0
 41
0.0
 71
     5
 72
     1
  1
図番
  7
CONVERTER_1
 73
     1
 44
0.60024009603842
  0
MTEXT
  5
BB
330
38
100
AcDbEntity
  8
1
 62
     7
100
AcDbMText
 10
171.5
 20
15.0
 30
0.0
 40
2.5
 41
0.0
 71
     5
 72
     1
  1
株式会社
  7
CONVERTER_1
 73
     1
 44
1.32052821128451
  0
MTEXT
  5
BC
330
38
100
AcDbEntity
  8
1
 62
     7
100
AcDbMText
 10
188.5
 20
15.0
 30
0.0
 40
3.0
 41
0.0
 71
     5
 72
     1
  1
三栄水栓製作所
  7
CONVERTER_1
 73
     1
 44
1.32052821128451
  0
ENDBLK
  5
3A
330
38
100
AcDbEntity
  8
0
100
AcDbBlockEnd
  0
BLOCK
  5
3C
330
3B
100
AcDbEntity
  8
0
100
AcDbBlockBegin
  2
60-1-16-170
 70
     0
 71
     0
 10
276.7433585053811
 20
211.7464517382434
 30
0.0
  3
60-1-16-170
  1

  0
LINE
  5
BD
330
3B
100
AcDbEntity
  8
1
  6
Continuous
 62
     7
100
AcDbLine
 10
387.9095925107949
 20
267.1125495682372
 30
0.0
 11
271.9077931063843
 21
267.1125495682372
 31
0.0
  0
LINE
  5
BE
330
3B
100
AcDbEntity
  8
1
  6
Continuous
 62
     7
100
AcDbLine
 10
252.9077931063843
 20
247.1125495682372
 30
0.0
 11
252.9077931063843
 21
248.1125495682372
 31
0.0
  0
LINE
  5
BF
330
3B
100
AcDbEntity
  8
1
  6
Continuous
 62
     7
100
AcDbLine
 10
236.9077931063843
 20
247.1125495682372
 30
0.0
 11
236.9077931063843
 21
248.1125495682372
 31
0.0
  0
LINE
  5
C0
330
3B
100
AcDbEntity
  8
1
  6
Continuous
 62
     7
100
AcDbLine
 10
422.9095925107949
 20
307.6125495682372
 30
0.0
 11
422.9095925107949
 21
302.1125495682372
 31
0.0
  0
LINE
  5
C1
330
3B
100
AcDbEntity
  8
1
  6
Continuous
 62
     7
100
AcDbLine
 10
406.9095925107949
 20
302.1125495682372
 30
0.0
 11
406.9095925107949
 21
307.6125495682372
 31
0.0
  0
LINE
  5
C2
330
3B
100
AcDbEntity
  8
1
  6
Continuous
 62
     7
100
AcDbLine
 10
387.9095925107949
 20
283.1125495682372
 30
0.0
 11
271.9077931063843
 21
283.1125495682372
 31
0.0
  0
LINE
  5
C3
330
3B
100
AcDbEntity
  8
1
  6
Continuous
 62
     7
100
AcDbLine
 10
252.9077931063843
 20
247.1125495682372
 30
0.0
 11
236.9077931063843
 21
247.1125495682372
 31
0.0
  0
LINE
  5
C4
330
3B
100
AcDbEntity
  8
1
  6
Continuous
 62
     7
100
AcDbLine
 10
237.5213861003981
 20
242.1125495682372
 30
0.0
 11
252.2942001123703
 21
242.1125495682372
 31
0.0
  0
LINE
  5
C5
330
3B
100
AcDbEntity
  8
1
  6
Continuous
 62
     7
100
AcDbLine
 10
183.8932375455003
 20
623.7822146803237
 30
0.0
 11
183.8932375455003
 21
465.3274206597056
 31
0.0
  0
LINE
  5
C6
330
3B
100
AcDbEntity
  8
1
  6
Continuous
 62
     7
100
AcDbLine
 10
167.8932375455003
 20
623.7822146803237
 30
0.0
 11
167.8932375455003
 21
465.3274206597056
 31
0.0
  0
LINE
  5
C7
330
3B
100
AcDbEntity
  8
1
  6
Continuous
 62
     7
100
AcDbLine
 10
183.8932375455003
 20
248.1125495682372
 30
0.0
 11
167.8932375455003
 21
248.1125495682372
 31
0.0
  0
LINE
  5
C8
330
3B
100
AcDbEntity
  8
1
  6
Continuous
 62
     7
100
AcDbLine
 10
168.5068305395142
 20
243.1125495682372
 30
0.0
 11
183.2796445514863
 21
243.1125495682372
 31
0.0
  0
LINE
  5
C9
330
3B
100
AcDbEntity
  8
1
  6
Continuous
 62
     7
100
AcDbLine
 10
183.8932375455003
 20
248.1125495682372
 30
0.0
 11
183.8932375455003
 21
308.6125495682372
 31
0.0
  0
LINE
  5
CA
330
3B
100
AcDbEntity
  8
1
  6
Continuous
 62
     7
100
AcDbLine
 10
167.8932375455003
 20
248.1125495682372
 30
0.0
 11
167.8932375455003
 21
308.6125495682372
 31
0.0
  0
ARC
  5
CB
330
3B
100
AcDbEntity
  8
1
  6
Continuous
 62
     7
100
AcDbCircle
 10
249.6977668116659
 20
244.968829861015
 30
0.0
 40
3.86002629471821
100
AcDbArc
 50
0.0
 51
33.73579100002552
  0
ARC
  5
CC
330
3B
100
AcDbEntity
  8
1
  6
Continuous
 62
     7
100
AcDbCircle
 10
240.1178194011023
 20
244.968829861015
 30
0.0
 40
3.86002629471821
100
AcDbArc
 50
180.0
 51
-132.271655496416
  0
ARC
  5
CD
330
3B
100
AcDbEntity
  8
1
  6
Continuous
 62
     7
100
AcDbCircle
 10
240.1178194011023
 20
244.968829861015
 30
0.0
 40
3.860026294717933
100
AcDbArc
 50
146.2642089999712
 51
180.0
  0
ARC
  5
CE
330
3B
100
AcDbEntity
  8
1
  6
Continuous
 62
     7
100
AcDbCircle
 10
249.6977668116659
 20
244.968829861015
 30
0.0
 40
3.860026294718416
100
AcDbArc
 50
-47.7283445035818
 51
0.0
  0
ARC
  5
CF
330
3B
100
AcDbEntity
  8
1
  6
Continuous
 62
     7
100
AcDbCircle
 10
271.9077931063843
 20
248.1125495682372
 30
0.0
 40
19.00000000000003
100
AcDbArc
 50
90.0
 51
180.0
  0
ARC
  5
D0
330
3B
100
AcDbEntity
  8
1
  6
Continuous
 62
     7
100
AcDbCircle
 10
271.9077931063843
 20
248.1125495682372
 30
0.0
 40
35.00000000000003
100
AcDbArc
 50
90.0
 51
180.0
  0
ARC
  5
D1
330
3B
100
AcDbEntity
  8
1
  6
Continuous
 62
     7
100
AcDbCircle
 10
387.9095925107949
 20
302.1125495682372
 30
0.0
 40
19.0
100
AcDbArc
 50
-90.0
 51
0.0
  0
ARC
  5
D2
330
3B
100
AcDbEntity
  8
1
  6
Continuous
 62
     7
100
AcDbCircle
 10
387.9095925107949
 20
302.1125495682372
 30
0.0
 40
35.0
100
AcDbArc
 50
-90.0
 51
0.0
  0
ARC
  5
D3
330
3B
100
AcDbEntity
  8
1
  6
Continuous
 62
     7
100
AcDbCircle
 10
175.8932375455003
 20
465.3274206597056
 30
0.0
 40
8.0
100
AcDbArc
 50
180.0
 51
0.0
  0
ARC
  5
D4
330
3B
100
AcDbEntity
  8
1
  6
Continuous
 62
     7
100
AcDbCircle
 10
175.8932375455003
 20
465.3274206597056
 30
0.0
 40
8.650000000000205
100
AcDbArc
 50
-90.0
 51
22.35342559933271
  0
ARC
  5
D5
330
3B
100
AcDbEntity
  8
1
  6
Continuous
 62
     7
100
AcDbCircle
 10
175.8932375455003
 20
465.3274206597056
 30
0.0
 40
8.650000000000093
100
AcDbArc
 50
157.6465744006673
 51
-90.0
  0
ARC
  5
D6
330
3B
100
AcDbEntity
  8
1
  6
Continuous
 62
     7
100
AcDbCircle
 10
180.6832112507819
 20
245.968829861015
 30
0.0
 40
3.860026294718296
100
AcDbArc
 50
0.0
 51
33.73579100002552
  0
ARC
  5
D7
330
3B
100
AcDbEntity
  8
1
  6
Continuous
 62
     7
100
AcDbCircle
 10
171.1032638402184
 20
245.968829861015
 30
0.0
 40
3.86002629471821
100
AcDbArc
 50
180.0
 51
-132.271655496416
  0
ARC
  5
D8
330
3B
100
AcDbEntity
  8
1
  6
Continuous
 62
     7
100
AcDbCircle
 10
171.1032638402184
 20
245.968829861015
 30
0.0
 40
3.860026294718005
100
AcDbArc
 50
146.2642089999719
 51
180.0
  0
ARC
  5
D9
330
3B
100
AcDbEntity
  8
1
  6
Continuous
 62
     7
100
AcDbCircle
 10
180.6832112507819
 20
245.968829861015
 30
0.0
 40
3.860026294718416
100
AcDbArc
 50
-47.7283445035818
 51
0.0
  0
ARC
  5
DA
330
3B
100
AcDbEntity
  8
1
  6
Continuous
 62
     7
100
AcDbCircle
 10
175.8932375455003
 20
276.1125495682372
 30
0.0
 40
8.0
100
AcDbArc
 50
0.0
 51
180.0
  0
ENDBLK
  5
3D
330
3B
100
AcDbEntity
  8
0
100
AcDbBlockEnd
  0
BLOCK
  5
40
330
3E
100
AcDbEntity
  8
0
100
AcDbBlockBegin
  2
A10J-60X-16
 70
     0
 71
     0
 10
236.2577931063841
 20
239.9645046486152
 30
0.0
  3
A10J-60X-16
  1

  0
INSERT
  5
3F
330
3E
100
AcDbEntity
  8
0
100
AcDbBlockReference
  2
60-1-16-170
 10
276.743358505381
 20
211.7464517382433
 30
0.0
 41
1.0
 42
1.0
 43
1.0
  0
LINE
  5
DB
330
3E
100
AcDbEntity
  8
1
  6
PHANTOM
 62
     4
100
AcDbLine
 10
187.2674597393624
 20
465.3274206597056
 30
0.0
 11
164.9152863332794
 21
465.3274206597056
 31
0.0
  0
LINE
  5
DC
330
3E
100
AcDbEntity
  8
1
  6
PHANTOM
 62
     4
100
AcDbLine
 10
175.8932375455003
 20
732.0510382582601
 30
0.0
 11
175.8932375455003
 21
453.3512233941511
 31
0.0
  0
LINE
  5
DD
330
3E
100
AcDbEntity
  8
1
  6
PHANTOM
 62
     4
100
AcDbLine
 10
414.9095925107949
 20
302.1125495682372
 30
0.0
 11
414.9095925107949
 21
344.2382882965251
 31
0.0
  0
LINE
  5
DE
330
3E
100
AcDbEntity
  8
1
  6
PHANTOM
 62
     4
100
AcDbLine
 10
271.9077931063843
 20
275.1125495682372
 30
0.0
 11
387.9095925107949
 21
275.1125495682372
 31
0.0
  0
LINE
  5
DF
330
3E
100
AcDbEntity
  8
1
  6
PHANTOM
 62
     4
100
AcDbLine
 10
244.9077931063843
 20
239.9645046486152
 30
0.0
 11
244.9077931063843
 21
249.1125495682372
 31
0.0
  0
ARC
  5
E0
330
3E
100
AcDbEntity
  8
1
  6
PHANTOM
 62
     4
100
AcDbCircle
 10
387.9095925107949
 20
302.1125495682372
 30
0.0
 40
27.0
100
AcDbArc
 50
-90.0
 51
0.0
  0
ARC
  5
E1
330
3E
100
AcDbEntity
  8
1
  6
PHANTOM
 62
     4
100
AcDbCircle
 10
271.9077931063843
 20
248.1125495682372
 30
0.0
 40
27.00000000000003
100
AcDbArc
 50
90.0
 51
180.0
  0
ENDBLK
  5
41
330
3E
100
AcDbEntity
  8
0
100
AcDbBlockEnd
  0
BLOCK
  5
43
330
42
100
AcDbEntity
  8
0
100
AcDbBlockBegin
  2
36-1A-13-M4
 70
     0
 71
     0
 10
204.0957340888466
 20
238.0434235588011
 30
0.0
  3
36-1A-13-M4
  1

  0
LINE
  5
E2
330
42
100
AcDbEntity
  8
1
  6
Continuous
 62
     7
100
AcDbLine
 10
445.1595925107948
 20
376.1125495682372
 30
0.0
 11
445.1595925107948
 21
378.1125395682373
 31
0.0
  0
LINE
  5
E3
330
42
100
AcDbEntity
  8
1
  6
Continuous
 62
     7
100
AcDbLine
 10
454.6595925107949
 20
378.1125395682373
 30
0.0
 11
454.6595925107949
 21
376.1125495682372
 31
0.0
  0
LINE
  5
E4
330
42
100
AcDbEntity
  8
1
  6
Continuous
 62
     7
100
AcDbLine
 10
171.1432375455003
 20
376.1125495682372
 30
0.0
 11
171.1432375455003
 21
378.1125395682373
 31
0.0
  0
LINE
  5
E5
330
42
100
AcDbEntity
  8
1
  6
Continuous
 62
     7
100
AcDbLine
 10
180.6432375455003
 20
378.1125395682373
 30
0.0
 11
180.6432375455003
 21
376.1125495682372
 31
0.0
  0
ENDBLK
  5
44
330
42
100
AcDbEntity
  8
0
100
AcDbBlockEnd
  0
BLOCK
  5
46
330
45
100
AcDbEntity
  8
0
100
AcDbBlockBegin
  2
37-1-13
 70
     0
 71
     0
 10
358.1083622940239
 20
220.1168436780927
 30
0.0
  3
37-1-13
  1

  0
LINE
  5
E6
330
45
100
AcDbEntity
  8
1
  6
Continuous
 62
     7
100
AcDbLine
 10
175.8932375455003
 20
369.1832637825087
 30
0.0
 11
185.7640845051093
 21
369.1832637825087
 31
0.0
  0
LINE
  5
E7
330
45
100
AcDbEntity
  8
1
  6
Continuous
 62
     7
100
AcDbLine
 10
166.0223905858912
 20
369.1832637825087
 30
0.0
 11
175.8932375455003
 21
369.1832637825087
 31
0.0
  0
LINE
  5
E8
330
45
100
AcDbEntity
  8
1
  6
Continuous
 62
     7
100
AcDbLine
 10
455.9095925107949
 20
376.1125495682372
 30
0.0
 11
443.9095925107949
 21
376.1125495682372
 31
0.0
  0
LINE
  5
E9
330
45
100
AcDbEntity
  8
1
  6
Continuous
 62
     7
100
AcDbLine
 10
462.9803067250663
 20
362.1125495682372
 30
0.0
 11
436.8388782965234
 21
362.1125495682372
 31
0.0
  0
LINE
  5
EA
330
45
100
AcDbEntity
  8
1
  6
Continuous
 62
     7
100
AcDbLine
 10
437.409592510795
 20
369.6125495682373
 30
0.0
 11
449.9095925107949
 21
369.6125495682372
 31
0.0
  0
LINE
  5
EB
330
45
100
AcDbEntity
  8
1
  6
Continuous
 62
     7
100
AcDbLine
 10
449.9095925107949
 20
369.6125495682372
 30
0.0
 11
462.4095925107947
 21
369.6125495682373
 31
0.0
  0
LINE
  5
EC
330
45
100
AcDbEntity
  8
1
  6
Continuous
 62
     7
100
AcDbLine
 10
175.8932375455003
 20
376.1125495682372
 30
0.0
 11
170.8932375455003
 21
376.1125495682372
 31
0.0
  0
LINE
  5
ED
330
45
100
AcDbEntity
  8
1
  6
Continuous
 62
     7
100
AcDbLine
 10
175.8932375455003
 20
376.1125495682372
 30
0.0
 11
181.8932375455003
 21
376.1125495682372
 31
0.0
  0
LINE
  5
EE
330
45
100
AcDbEntity
  8
1
  6
Continuous
 62
     7
100
AcDbLine
 10
170.8932375455003
 20
376.1125495682372
 30
0.0
 11
169.8932375455003
 21
376.1125495682372
 31
0.0
  0
LINE
  5
EF
330
45
100
AcDbEntity
  8
1
  6
Continuous
 62
     7
100
AcDbLine
 10
175.8932375455003
 20
362.1125495682372
 30
0.0
 11
188.8932375455003
 21
362.1125495682372
 31
0.0
  0
LINE
  5
F0
330
45
100
AcDbEntity
  8
1
  6
Continuous
 62
     7
100
AcDbLine
 10
175.8932375455003
 20
362.1125495682372
 30
0.0
 11
162.8932375455003
 21
362.1125495682372
 31
0.0
  0
LINE
  5
F1
330
45
100
AcDbEntity
  8
1
  6
Continuous
 62
     7
100
AcDbLine
 10
188.8932375455003
 20
369.1832637825087
 30
0.0
 11
188.8932375455003
 21
362.1125495682372
 31
0.0
  0
LINE
  5
F2
330
45
100
AcDbEntity
  8
1
  6
Continuous
 62
     7
100
AcDbLine
 10
162.8932375455003
 20
362.1125495682372
 30
0.0
 11
162.8932375455003
 21
369.1832637825087
 31
0.0
  0
LINE
  5
F3
330
45
100
AcDbEntity
  8
1
  6
Continuous
 62
     7
100
AcDbLine
 10
164.9512412363849
 20
679.0229625485069
 30
0.0
 11
170.283496584066
 21
682.1015416088785
 31
0.0
  0
LINE
  5
F4
330
45
100
AcDbEntity
  8
1
  6
Continuous
 62
     7
100
AcDbLine
 10
162.8932375454998
 20
663.9066037747838
 30
0.0
 11
162.8932375454999
 21
665.200044534511
 31
0.0
  0
LINE
  5
F5
330
45
100
AcDbEntity
  8
1
  6
Continuous
 62
     7
100
AcDbLine
 10
186.8352338546341
 20
661.6354775797363
 30
0.0
 11
181.5029785069581
 21
658.5568985193678
 31
0.0
  0
LINE
  5
F6
330
45
100
AcDbEntity
  8
1
  6
Continuous
 62
     7
100
AcDbLine
 10
188.8932375455002
 20
676.7518363534485
 30
0.0
 11
188.8932375455002
 21
675.4583955937605
 31
0.0
  0
LINE
  5
F7
330
45
100
AcDbEntity
  8
1
  6
Continuous
 62
     7
100
AcDbLine
 10
163.8310886801785
 20
678.3762421686478
 30
0.0
 11
164.9512412363849
 21
679.0229625485069
 31
0.0
  0
LINE
  5
F8
330
45
100
AcDbEntity
  8
1
  6
Continuous
 62
     7
100
AcDbLine
 10
187.9553864108221
 20
662.2821979595849
 30
0.0
 11
186.8352338546341
 21
661.6354775797363
 31
0.0
  0
LINE
  5
F9
330
45
100
AcDbEntity
  8
1
  6
Continuous
 62
     7
100
AcDbLine
 10
182.3932375455003
 20
681.587550313314
 30
0.0
 11
187.9553864108221
 21
678.3762421686473
 31
0.0
  0
LINE
  5
FA
330
45
100
AcDbEntity
  8
1
  6
Continuous
 62
     7
100
AcDbLine
 10
169.3932375455004
 20
659.0708898149185
 30
0.0
 11
163.8310886801786
 21
662.2821979595841
 31
0.0
  0
LINE
  5
FB
330
45
100
AcDbEntity
  8
1
  6
PHANTOM
 62
     4
100
AcDbLine
 10
157.8943289750207
 20
670.3292200641162
 30
0.0
 11
193.598223242891
 21
670.3292200641162
 31
0.0
  0
LINE
  5
FC
330
45
100
AcDbEntity
  8
1
  6
PHANTOM
 62
     4
100
AcDbLine
 10
175.8932375455004
 20
685.8955301191616
 30
0.0
 11
175.8932375455004
 21
654.8325233211183
 31
0.0
  0
LINE
  5
FD
330
45
100
AcDbEntity
  8
1
  6
Continuous
 62
     7
100
AcDbLine
 10
162.8932375455003
 20
676.7518363534489
 30
0.0
 11
163.8310886801785
 21
678.3762421686478
 31
0.0
  0
LINE
  5
FE
330
45
100
AcDbEntity
  8
1
  6
Continuous
 62
     7
100
AcDbLine
 10
163.8310886801786
 20
662.2821979595841
 30
0.0
 11
162.8932375454998
 21
663.9066037747838
 31
0.0
  0
LINE
  5
FF
330
45
100
AcDbEntity
  8
1
  6
Continuous
 62
     7
100
AcDbLine
 10
188.8932375455003
 20
663.9066037747837
 30
0.0
 11
187.9553864108221
 21
662.2821979595849
 31
0.0
  0
LINE
  5
100
330
45
100
AcDbEntity
  8
1
  6
Continuous
 62
     7
100
AcDbLine
 10
187.9553864108221
 20
678.3762421686473
 30
0.0
 11
188.8932375455002
 21
676.7518363534485
 31
0.0
  0
LINE
  5
101
330
45
100
AcDbEntity
  8
1
  6
Continuous
 62
     7
100
AcDbLine
 10
181.5029785069763
 20
682.1015416088543
 30
0.0
 11
182.3932375455003
 21
681.587550313314
 31
0.0
  0
LINE
  5
102
330
45
100
AcDbEntity
  8
1
  6
Continuous
 62
     7
100
AcDbLine
 10
162.8932375455003
 20
675.4583955937507
 30
0.0
 11
162.8932375455003
 21
676.7518363534489
 31
0.0
  0
LINE
  5
103
330
45
100
AcDbEntity
  8
1
  6
Continuous
 62
     7
100
AcDbLine
 10
170.2834965840837
 20
658.5568985193439
 30
0.0
 11
169.3932375455004
 21
659.0708898149185
 31
0.0
  0
LINE
  5
104
330
45
100
AcDbEntity
  8
1
  6
Continuous
 62
     7
100
AcDbLine
 10
188.8932375455003
 20
665.200044534501
 30
0.0
 11
188.8932375455003
 21
663.9066037747837
 31
0.0
  0
ARC
  5
105
330
45
100
AcDbEntity
  8
1
  6
Continuous
 62
     7
100
AcDbCircle
 10
440.4095925107949
 20
365.6125495682372
 30
0.0
 40
4.999999999999977
100
AcDbArc
 50
126.8698976458426
 51
-135.5729959991949
  0
ARC
  5
106
330
45
100
AcDbEntity
  8
1
  6
Continuous
 62
     7
100
AcDbCircle
 10
424.0031373056799
 20
389.5190047733522
 30
0.0
 40
24.0000000000001
100
AcDbArc
 50
-56.04080749990217
 51
-33.95919250009754
  0
ARC
  5
107
330
45
100
AcDbEntity
  8
1
  6
Continuous
 62
     7
100
AcDbCircle
 10
459.4095925107949
 20
365.6125495682372
 30
0.0
 40
5.000000000000016
100
AcDbArc
 50
-44.42700400080553
 51
53.13010235415793
  0
ARC
  5
108
330
45
100
AcDbEntity
  8
1
  6
Continuous
 62
     7
100
AcDbCircle
 10
475.8160477159098
 20
389.5190047733522
 30
0.0
 40
24.00000000000003
100
AcDbArc
 50
-146.0408074999024
 51
-123.9591925000978
  0
ARC
  5
109
330
45
100
AcDbEntity
  8
1
  6
Continuous
 62
     7
100
AcDbCircle
 10
201.7996927506152
 20
389.5190047733522
 30
0.0
 40
24.00000000000001
100
AcDbArc
 50
-146.0408074999024
 51
-123.9591925000975
  0
ARC
  5
10A
330
45
100
AcDbEntity
  8
1
  6
Continuous
 62
     7
100
AcDbCircle
 10
185.3932375455003
 20
365.6125495682372
 30
0.0
 40
5.000000000000016
100
AcDbArc
 50
45.57299599919448
 51
53.13010235415637
  0
ARC
  5
10B
330
45
100
AcDbEntity
  8
1
  6
Continuous
 62
     7
100
AcDbCircle
 10
149.9867823403855
 20
389.5190047733522
 30
0.0
 40
24.00000000000005
100
AcDbArc
 50
-56.04080749990234
 51
-33.95919250009776
  0
ARC
  5
10C
330
45
100
AcDbEntity
  8
1
  6
Continuous
 62
     7
100
AcDbCircle
 10
166.3932375455003
 20
365.6125495682372
 30
0.0
 40
4.999999999999926
100
AcDbArc
 50
126.8698976458418
 51
134.4270040008055
  0
ARC
  5
10D
330
45
100
AcDbEntity
  8
1
  6
Continuous
 62
     7
100
AcDbCircle
 10
175.8932375455004
 20
670.3292200641162
 30
0.0
 40
13.00000000000027
100
AcDbArc
 50
115.6927161548501
 51
145.6927161548488
  0
ARC
  5
10E
330
45
100
AcDbEntity
  8
1
  6
Continuous
 62
     7
100
AcDbCircle
 10
175.8932375455004
 20
670.3292200641162
 30
0.0
 40
12.9999999999999
100
AcDbArc
 50
-64.30728384504236
 51
-34.30728384504013
  0
ARC
  5
10F
330
45
100
AcDbEntity
  8
1
  6
Continuous
 62
     7
100
AcDbCircle
 10
175.8932375455004
 20
670.3292200641162
 30
0.0
 40
13.00000000000014
100
AcDbArc
 50
25.69271615503789
 51
55.69271615504186
  0
ARC
  5
110
330
45
100
AcDbEntity
  8
1
  6
Continuous
 62
     7
100
AcDbCircle
 10
175.8932375455004
 20
670.3292200641162
 30
0.0
 40
13.00000000000018
100
AcDbArc
 50
55.69271615504186
 51
60.00000000000054
  0
ARC
  5
111
330
45
100
AcDbEntity
  8
1
  6
Continuous
 62
     7
100
AcDbCircle
 10
175.8932375455004
 20
670.3292200641162
 30
0.0
 40
13.00000000000003
100
AcDbArc
 50
-154.3072838452304
 51
-120.0
  0
ARC
  5
112
330
45
100
AcDbEntity
  8
1
  6
Continuous
 62
     7
100
AcDbCircle
 10
175.8932375455004
 20
670.3292200641162
 30
0.0
 40
13.00000000000004
100
AcDbArc
 50
60.00000000000054
 51
64.30728384495852
  0
ARC
  5
113
330
45
100
AcDbEntity
  8
1
  6
Continuous
 62
     7
100
AcDbCircle
 10
175.8932375455004
 20
670.3292200641162
 30
0.0
 40
13.00000000000028
100
AcDbArc
 50
145.6927161548488
 51
154.3072838450478
  0
ARC
  5
114
330
45
100
AcDbEntity
  8
1
  6
Continuous
 62
     7
100
AcDbCircle
 10
175.8932375455004
 20
670.3292200641162
 30
0.0
 40
12.99999999999998
100
AcDbArc
 50
-120.0
 51
-115.6927161547681
  0
ARC
  5
115
330
45
100
AcDbEntity
  8
1
  6
Continuous
 62
     7
100
AcDbCircle
 10
175.8932375455004
 20
670.3292200641162
 30
0.0
 40
12.9999999999999
100
AcDbArc
 50
-34.30728384504013
 51
-25.69271615485662
  0
SPLINE
  5
116
330
45
100
AcDbEntity
  8
1
  6
Continuous
 62
     7
100
AcDbSpline
210
0.0
220
0.0
230
1.0
 70
    11
 71
     3
 72
    79
 73
    75
 74
    73
 42
0.0000000001
 43
0.0000000001
 44
0.00000001
 40
0.0
 40
0.0
 40
0.0
 40
0.0
 40
0.3160436465963096
 40
0.631896634505373
 40
0.9639391318841073
 40
1.295702698074536
 40
1.650847227467514
 40
2.005727789197546
 40
2.387357022599032
 40
2.768780714705261
 40
3.176769171734186
 40
3.584612394008196
 40
4.015944751163449
 40
4.447181172427985
 40
4.896666773394704
 40
5.346094681847073
 40
5.807047420514924
 40
6.267973152330089
 40
6.732835060374376
 40
7.197696968418745
 40
7.658622700233961
 40
8.119575438901688
 40
8.569003347353984
 40
9.018488948320744
 40
9.449725369585343
 40
9.881057726740618
 40
10.2889009490146
 40
10.69688940604351
 40
11.07831309814967
 40
11.45994233155112
 40
11.81482289328117
 40
12.16996742267413
 40
12.50173098886456
 40
12.83377348624328
 40
13.14962647415241
 40
13.46567012074867
 40
13.77589255555605
 40
14.08611499036342
 40
14.40215863695979
 40
14.71801162486893
 40
15.0500541222476
 40
15.38181768843803
 40
15.73696221783108
 40
16.09184277956115
 40
16.47347201296266
 40
16.85489570506879
 40
17.26288416209767
 40
17.67072738437163
 40
18.10205974152688
 40
18.53329616279157
 40
18.98278176375832
 40
19.43220967221055
 40
19.89316241087822
 40
20.35408814269344
 40
20.81895005073787
 40
21.28381195878224
 40
21.74473769059743
 40
22.20569042926507
 40
22.65511833771733
 40
23.10460393868416
 40
23.53584035994886
 40
23.96717271710421
 40
24.37501593937819
 40
24.78300439640705
 40
25.16442808851313
 40
25.54605732191457
 40
25.90093788364464
 40
26.25608241303774
 40
26.58784597922824
 40
26.91988847660695
 40
27.23574146451607
 40
27.55178511111241
 40
27.86200754591983
 40
28.17222998072715
 40
28.17222998072715
 40
28.17222998072715
 40
28.17222998072715
 10
176.8518515702698
 20
365.9574335101594
 30
0.0
 10
176.869643479622
 20
366.0614275371441
 30
0.0
 10
176.9052165650556
 20
366.2693528549539
 30
0.0
 10
177.011357287946
 20
366.5739985793236
 30
0.0
 10
177.152410626551
 20
366.8691568693479
 30
0.0
 10
177.3346605452246
 20
367.1566683182462
 30
0.0
 10
177.5508757940283
 20
367.4291915433882
 30
0.0
 10
177.8048146905857
 20
367.6905796119708
 30
0.0
 10
178.0884035101867
 20
367.9331130579208
 30
0.0
 10
178.406000992771
 20
368.1607857192667
 30
0.0
 10
178.7483056764913
 20
368.3667665261783
 30
0.0
 10
179.1197613693806
 20
368.5542086206839
 30
0.0
 10
179.5107049441133
 20
368.7178638814906
 30
0.0
 10
179.9247289534451
 20
368.859716453195
 30
0.0
 10
180.3528261028328
 20
368.9762765508997
 30
0.0
 10
180.7969104111074
 20
369.0684979240103
 30
0.0
 10
181.2495036607361
 20
369.1344418637099
 30
0.0
 10
181.7102735317288
 20
369.1744491463182
 30
0.0
 10
182.1738910098162
 20
369.1876898392216
 30
0.0
 10
182.6375084879175
 20
369.1744491463194
 30
0.0
 10
183.0982783588696
 20
369.1344418637059
 30
0.0
 10
183.5508716086453
 20
369.0684979240259
 30
0.0
 10
183.9949559163852
 20
368.9762765508435
 30
0.0
 10
184.4230530677301
 20
368.8597164534016
 30
0.0
 10
184.8370770700414
 20
368.7178638807542
 30
0.0
 10
185.2280206702788
 20
368.5542086233733
 30
0.0
 10
185.59947627292
 20
368.3667665167457
 30
0.0
 10
185.9417812823217
 20
368.1607857535795
 30
0.0
 10
186.259377624607
 20
367.9331129390684
 30
0.0
 10
186.5429705427081
 20
367.6905800436306
 30
0.0
 10
186.796895158982
 20
367.4291900569146
 30
0.0
 10
187.0131617581522
 20
367.156673729174
 30
0.0
 10
187.1952319578334
 20
366.8691381403495
 30
0.0
 10
187.3369360350742
 20
366.5740672577971
 30
0.0
 10
187.4407598228468
 20
366.2691103217827
 30
0.0
 10
187.5023047305412
 20
365.9602491914466
 30
0.0
 10
187.5238207720698
 20
365.6479066753731
 30
0.0
 10
187.5023047305413
 20
365.3355641592994
 30
0.0
 10
187.440759822847
 20
365.0267030289633
 30
0.0
 10
187.3369360350744
 20
364.7217460929488
 30
0.0
 10
187.1952319578334
 20
364.4266752103967
 30
0.0
 10
187.0131617581521
 20
364.1391396215719
 30
0.0
 10
186.7968951589822
 20
363.8666232938315
 30
0.0
 10
186.542970542708
 20
363.6052333071152
 30
0.0
 10
186.2593776246069
 20
363.3627004116776
 30
0.0
 10
185.9417812823217
 20
363.1350275971664
 30
0.0
 10
185.59947627292
 20
362.9290468340004
 30
0.0
 10
185.2280206702787
 20
362.7416047273725
 30
0.0
 10
184.8370770700415
 20
362.5779494699918
 30
0.0
 10
184.4230530677301
 20
362.4360968973441
 30
0.0
 10
183.9949559163852
 20
362.3195367999023
 30
0.0
 10
183.5508716086452
 20
362.2273154267201
 30
0.0
 10
183.0982783588698
 20
362.1613714870404
 30
0.0
 10
182.6375084879169
 20
362.1213642044265
 30
0.0
 10
182.1738910098184
 20
362.1081235115248
 30
0.0
 10
181.7102735317208
 20
362.1213642044266
 30
0.0
 10
181.2495036607651
 20
362.1613714870406
 30
0.0
 10
180.7969104110001
 20
362.2273154267189
 30
0.0
 10
180.3528261032221
 20
362.3195367999065
 30
0.0
 10
179.9247289520163
 20
362.4360968973294
 30
0.0
 10
179.5107049492056
 20
362.577949470044
 30
0.0
 10
179.1197613507823
 20
362.7416047271814
 30
0.0
 10
178.748305741722
 20
362.9290468346711
 30
0.0
 10
178.4060007554845
 20
363.1350275947257
 30
0.0
 10
178.0884043320954
 20
363.3627004201309
 30
0.0
 10
177.8048117055007
 20
363.6052332764136
 30
0.0
 10
177.55088607354
 20
363.8666233995571
 30
0.0
 10
177.3346231266704
 20
364.1391392367191
 30
0.0
 10
177.1525401444553
 20
364.4266765424986
 30
0.0
 10
177.010882351073
 20
364.7217412081847
 30
0.0
 10
176.9068937710298
 20
365.0267202791623
 30
0.0
 10
176.8459539689281
 20
365.335500131475
 30
0.0
 10
176.82221852035
 20
365.6481407591846
 30
0.0
 10
176.8419738869632
 20
365.8543359265011
 30
0.0
 10
176.8518515702698
 20
365.9574335101594
 30
0.0
 11
176.8518515702698
 21
365.9574335101594
 31
0.0
 11
176.9137339195561
 21
366.2673595681163
 31
0.0
 11
177.0147900464856
 21
366.5666099134479
 31
0.0
 11
177.1582437659541
 21
366.8660648356585
 31
0.0
 11
177.3350744793492
 21
367.1467745837108
 31
0.0
 11
177.5553850501856
 21
367.4253259957257
 31
0.0
 11
177.8021925963092
 21
367.6803284433027
 31
0.0
 11
178.0918028848348
 21
367.9288576218044
 31
0.0
 11
178.4015052037636
 21
368.1514974802082
 31
0.0
 11
178.7507817859127
 21
368.3623539485251
 31
0.0
 11
179.1147255871726
 21
368.5464218802224
 31
0.0
 11
179.512422079246
 21
368.7134102107177
 31
0.0
 11
179.9202979124009
 21
368.8534179096249
 31
0.0
 11
180.3539062937616
 21
368.9718285387516
 31
0.0
 11
180.7939190512142
 21
369.0633392931729
 31
0.0
 11
181.250024934577
 21
369.1300090047912
 31
0.0
 11
181.7092212317166
 21
369.16989999303
 31
0.0
 11
182.1738910098185
 21
369.1832637825088
 31
0.0
 11
182.6385607879206
 21
369.1698999930301
 31
0.0
 11
183.0977570850602
 21
369.1300090047914
 31
0.0
 11
183.5538629684228
 21
369.063339293173
 31
0.0
 11
183.9938757258754
 21
368.9718285387517
 31
0.0
 11
184.4274841072361
 21
368.8534179096249
 31
0.0
 11
184.8353599403911
 21
368.7134102107178
 31
0.0
 11
185.2330564324645
 21
368.5464218802224
 31
0.0
 11
185.5970002337244
 21
368.3623539485252
 31
0.0
 11
185.9462768158734
 21
368.1514974802082
 31
0.0
 11
186.2559791348022
 21
367.9288576218044
 31
0.0
 11
186.5455894233278
 21
367.6803284433028
 31
0.0
 11
186.7923969694514
 21
367.4253259957257
 31
0.0
 11
187.0127075402878
 21
367.1467745837108
 31
0.0
 11
187.1895382536828
 21
366.8660648356585
 31
0.0
 11
187.3329919731513
 21
366.5666099134479
 31
0.0
 11
187.4340481000808
 21
366.2673595681162
 31
0.0
 11
187.4959304493672
 21
365.9574335101594
 31
0.0
 11
187.5166933394586
 21
365.647906675373
 31
0.0
 11
187.4959304493673
 21
365.3383798405866
 31
0.0
 11
187.4340481000809
 21
365.0284537826297
 31
0.0
 11
187.3329919731514
 21
364.729203437298
 31
0.0
 11
187.1895382536828
 21
364.4297485150875
 31
0.0
 11
187.0127075402878
 21
364.1490387670352
 31
0.0
 11
186.7923969694514
 21
363.8704873550202
 31
0.0
 11
186.5455894233278
 21
363.6154849074432
 31
0.0
 11
186.2559791348022
 21
363.3669557289414
 31
0.0
 11
185.9462768158734
 21
363.1443158705378
 31
0.0
 11
185.5970002337244
 21
362.9334594022207
 31
0.0
 11
185.2330564324645
 21
362.7493914705235
 31
0.0
 11
184.8353599403911
 21
362.5824031400282
 31
0.0
 11
184.4274841072361
 21
362.442395441121
 31
0.0
 11
183.9938757258754
 21
362.3239848119943
 31
0.0
 11
183.5538629684228
 21
362.2324740575729
 31
0.0
 11
183.0977570850602
 21
362.1658043459547
 31
0.0
 11
182.6385607879206
 21
362.1259133577159
 31
0.0
 11
182.1738910098185
 21
362.1125495682372
 31
0.0
 11
181.7092212317164
 21
362.1259133577159
 31
0.0
 11
181.2500249345769
 21
362.1658043459547
 31
0.0
 11
180.7939190512143
 21
362.2324740575729
 31
0.0
 11
180.3539062937617
 21
362.3239848119943
 31
0.0
 11
179.9202979124009
 21
362.442395441121
 31
0.0
 11
179.5124220792459
 21
362.5824031400281
 31
0.0
 11
179.1147255871724
 21
362.7493914705235
 31
0.0
 11
178.7507817859125
 21
362.9334594022207
 31
0.0
 11
178.4015052037635
 21
363.1443158705378
 31
0.0
 11
178.0918028848348
 21
363.3669557289414
 31
0.0
 11
177.8021925963093
 21
363.6154849074432
 31
0.0
 11
177.5553850501857
 21
363.8704873550203
 31
0.0
 11
177.3350744793492
 21
364.1490387670352
 31
0.0
 11
177.1582437659539
 21
364.4297485150875
 31
0.0
 11
177.0147900464853
 21
364.729203437298
 31
0.0
 11
176.9137339195559
 21
365.0284537826297
 31
0.0
 11
176.8518515702697
 21
365.3383798405866
 31
0.0
 11
176.8310886801784
 21
365.6479066753731
 31
0.0
 11
176.8518515702698
 21
365.9574335101594
 31
0.0
  0
SPLINE
  5
117
330
45
100
AcDbEntity
  8
1
  6
Continuous
 62
     7
100
AcDbSpline
210
0.0
220
0.0
230
1.0
 70
    11
 71
     3
 72
    79
 73
    75
 74
    73
 42
0.0000000001
 43
0.0000000001
 44
0.00000001
 40
0.0
 40
0.0
 40
0.0
 40
0.0
 40
0.3160436465963152
 40
0.6318966345053787
 40
0.9639391318840884
 40
1.295702698074533
 40
1.650847227467493
 40
2.005727789197544
 40
2.387357022599073
 40
2.768780714705279
 40
3.17676917173418
 40
3.584612394008215
 40
4.015944751163468
 40
4.447181172428032
 40
4.896666773394695
 40
5.346094681847119
 40
5.807047420514942
 40
6.267973152330106
 40
6.732835060374366
 40
7.197696968418734
 40
7.65862270023395
 40
8.119575438901677
 40
8.569003347353974
 40
9.018488948320734
 40
9.449725369585305
 40
9.881057726740606
 40
10.28890094901454
 40
10.69688940604347
 40
11.07831309814965
 40
11.4599423315511
 40
11.81482289328118
 40
12.16996742267414
 40
12.50173098886455
 40
12.8337734862433
 40
13.1496264741524
 40
13.46567012074868
 40
13.77589255555606
 40
14.08611499036343
 40
14.40215863695979
 40
14.71801162486893
 40
15.05005412224759
 40
15.38181768843801
 40
15.73696221783107
 40
16.09184277956121
 40
16.47347201296276
 40
16.85489570506884
 40
17.26288416209775
 40
17.67072738437168
 40
18.10205974152691
 40
18.53329616279157
 40
18.98278176375829
 40
19.43220967221055
 40
19.89316241087817
 40
20.35408814269341
 40
20.81895005073784
 40
21.28381195878221
 40
21.74473769059737
 40
22.20569042926507
 40
22.65511833771739
 40
23.10460393868422
 40
23.53584035994889
 40
23.96717271710422
 40
24.37501593937818
 40
24.78300439640706
 40
25.16442808851314
 40
25.54605732191458
 40
25.90093788364463
 40
26.25608241303774
 40
26.58784597922821
 40
26.91988847660695
 40
27.23574146451607
 40
27.55178511111242
 40
27.86200754591984
 40
28.17222998072716
 40
28.17222998072716
 40
28.17222998072716
 40
28.17222998072716
 10
174.9346235207307
 20
365.9574335101594
 30
0.0
 10
174.9168316113785
 20
366.0614275371441
 30
0.0
 10
174.8812585259449
 20
366.2693528549539
 30
0.0
 10
174.7751178030545
 20
366.5739985793238
 30
0.0
 10
174.6340644644495
 20
366.8691568693479
 30
0.0
 10
174.4518145457759
 20
367.156668318246
 30
0.0
 10
174.2355992969722
 20
367.4291915433884
 30
0.0
 10
173.9816604004147
 20
367.6905796119708
 30
0.0
 10
173.6980715808138
 20
367.9331130579208
 30
0.0
 10
173.3804740982295
 20
368.1607857192666
 30
0.0
 10
173.0381694145092
 20
368.3667665261781
 30
0.0
 10
172.6667137216199
 20
368.554208620684
 30
0.0
 10
172.2757701468872
 20
368.7178638814905
 30
0.0
 10
171.8617461375555
 20
368.8597164531951
 30
0.0
 10
171.4336489881676
 20
368.9762765508998
 30
0.0
 10
170.9895646798931
 20
369.0684979240102
 30
0.0
 10
170.5369714302644
 20
369.1344418637099
 30
0.0
 10
170.0762015592717
 20
369.174449146318
 30
0.0
 10
169.6125840811842
 20
369.1876898392216
 30
0.0
 10
169.1489666030831
 20
369.1744491463194
 30
0.0
 10
168.6881967321309
 20
369.1344418637059
 30
0.0
 10
168.2356034823553
 20
369.0684979240259
 30
0.0
 10
167.7915191746153
 20
368.9762765508435
 30
0.0
 10
167.3634220232705
 20
368.8597164534017
 30
0.0
 10
166.949398020959
 20
368.7178638807542
 30
0.0
 10
166.5584544207217
 20
368.5542086233733
 30
0.0
 10
166.1869988180806
 20
368.3667665167457
 30
0.0
 10
165.8446938086788
 20
368.1607857535795
 30
0.0
 10
165.5270974663935
 20
367.9331129390683
 30
0.0
 10
165.2435045482924
 20
367.6905800436306
 30
0.0
 10
164.9895799320184
 20
367.4291900569146
 30
0.0
 10
164.7733133328483
 20
367.1566737291741
 30
0.0
 10
164.5912431331672
 20
366.8691381403494
 30
0.0
 10
164.4495390559261
 20
366.5740672577971
 30
0.0
 10
164.3457152681538
 20
366.2691103217826
 30
0.0
 10
164.2841703604593
 20
365.9602491914467
 30
0.0
 10
164.2626543189307
 20
365.647906675373
 30
0.0
 10
164.2841703604593
 20
365.3355641592994
 30
0.0
 10
164.3457152681535
 20
365.0267030289633
 30
0.0
 10
164.449539055926
 20
364.7217460929486
 30
0.0
 10
164.5912431331672
 20
364.4266752103966
 30
0.0
 10
164.7733133328483
 20
364.139139621572
 30
0.0
 10
164.9895799320184
 20
363.8666232938314
 30
0.0
 10
165.2435045482925
 20
363.6052333071153
 30
0.0
 10
165.5270974663937
 20
363.3627004116776
 30
0.0
 10
165.8446938086789
 20
363.1350275971663
 30
0.0
 10
166.1869988180806
 20
362.9290468340003
 30
0.0
 10
166.5584544207218
 20
362.7416047273727
 30
0.0
 10
166.9493980209591
 20
362.5779494699918
 30
0.0
 10
167.3634220232704
 20
362.4360968973441
 30
0.0
 10
167.7915191746153
 20
362.3195367999024
 30
0.0
 10
168.2356034823553
 20
362.22731542672
 30
0.0
 10
168.6881967321307
 20
362.1613714870402
 30
0.0
 10
169.1489666030835
 20
362.1213642044266
 30
0.0
 10
169.6125840811822
 20
362.1081235115248
 30
0.0
 10
170.0762015592797
 20
362.1213642044266
 30
0.0
 10
170.5369714302354
 20
362.1613714870405
 30
0.0
 10
170.9895646800004
 20
362.2273154267189
 30
0.0
 10
171.4336489877784
 20
362.3195367999064
 30
0.0
 10
171.8617461389842
 20
362.4360968973296
 30
0.0
 10
172.275770141795
 20
362.5779494700441
 30
0.0
 10
172.6667137402183
 20
362.7416047271813
 30
0.0
 10
173.0381693492784
 20
362.9290468346712
 30
0.0
 10
173.3804743355159
 20
363.1350275947258
 30
0.0
 10
173.6980707589051
 20
363.3627004201309
 30
0.0
 10
173.9816633854998
 20
363.6052332764136
 30
0.0
 10
174.2355890174605
 20
363.8666233995569
 30
0.0
 10
174.4518519643302
 20
364.1391392367192
 30
0.0
 10
174.6339349465451
 20
364.4266765424986
 30
0.0
 10
174.7755927399275
 20
364.7217412081845
 30
0.0
 10
174.8795813199707
 20
365.0267202791623
 30
0.0
 10
174.9405211220724
 20
365.3355001314752
 30
0.0
 10
174.9642565706506
 20
365.6481407591846
 30
0.0
 10
174.9445012040374
 20
365.8543359265012
 30
0.0
 10
174.9346235207307
 20
365.9574335101594
 30
0.0
 11
174.9346235207307
 21
365.9574335101594
 31
0.0
 11
174.8727411714444
 21
366.2673595681163
 31
0.0
 11
174.7716850445149
 21
366.5666099134479
 31
0.0
 11
174.6282313250465
 21
366.8660648356585
 31
0.0
 11
174.4514006116514
 21
367.1467745837108
 31
0.0
 11
174.231090040815
 21
367.4253259957257
 31
0.0
 11
173.9842824946913
 21
367.6803284433027
 31
0.0
 11
173.6946722061657
 21
367.9288576218044
 31
0.0
 11
173.3849698872369
 21
368.1514974802082
 31
0.0
 11
173.0356933050879
 21
368.3623539485251
 31
0.0
 11
172.6717495038279
 21
368.5464218802224
 31
0.0
 11
172.2740530117545
 21
368.7134102107177
 31
0.0
 11
171.8661771785996
 21
368.8534179096249
 31
0.0
 11
171.432568797239
 21
368.9718285387516
 31
0.0
 11
170.9925560397862
 21
369.0633392931729
 31
0.0
 11
170.5364501564235
 21
369.1300090047912
 31
0.0
 11
170.0772538592839
 21
369.16989999303
 31
0.0
 11
169.612584081182
 21
369.1832637825088
 31
0.0
 11
169.1479143030799
 21
369.1698999930301
 31
0.0
 11
168.6887180059403
 21
369.1300090047914
 31
0.0
 11
168.2326121225777
 21
369.063339293173
 31
0.0
 11
167.7925993651251
 21
368.9718285387517
 31
0.0
 11
167.3589909837644
 21
368.8534179096249
 31
0.0
 11
166.9511151506095
 21
368.7134102107178
 31
0.0
 11
166.553418658536
 21
368.5464218802224
 31
0.0
 11
166.1894748572761
 21
368.3623539485252
 31
0.0
 11
165.8401982751271
 21
368.1514974802082
 31
0.0
 11
165.5304959561983
 21
367.9288576218044
 31
0.0
 11
165.2408856676727
 21
367.6803284433028
 31
0.0
 11
164.9940781215491
 21
367.4253259957257
 31
0.0
 11
164.7737675507127
 21
367.1467745837108
 31
0.0
 11
164.5969368373177
 21
366.8660648356585
 31
0.0
 11
164.4534831178492
 21
366.5666099134479
 31
0.0
 11
164.3524269909198
 21
366.2673595681162
 31
0.0
 11
164.2905446416333
 21
365.9574335101594
 31
0.0
 11
164.2697817515419
 21
365.647906675373
 31
0.0
 11
164.2905446416332
 21
365.3383798405866
 31
0.0
 11
164.3524269909196
 21
365.0284537826297
 31
0.0
 11
164.4534831178491
 21
364.729203437298
 31
0.0
 11
164.5969368373177
 21
364.4297485150875
 31
0.0
 11
164.7737675507127
 21
364.1490387670352
 31
0.0
 11
164.9940781215491
 21
363.8704873550202
 31
0.0
 11
165.2408856676728
 21
363.6154849074432
 31
0.0
 11
165.5304959561985
 21
363.3669557289414
 31
0.0
 11
165.8401982751272
 21
363.1443158705378
 31
0.0
 11
166.1894748572762
 21
362.9334594022207
 31
0.0
 11
166.5534186585361
 21
362.7493914705235
 31
0.0
 11
166.9511151506095
 21
362.5824031400282
 31
0.0
 11
167.3589909837644
 21
362.442395441121
 31
0.0
 11
167.7925993651251
 21
362.3239848119943
 31
0.0
 11
168.2326121225777
 21
362.2324740575729
 31
0.0
 11
168.6887180059402
 21
362.1658043459547
 31
0.0
 11
169.1479143030799
 21
362.1259133577159
 31
0.0
 11
169.612584081182
 21
362.1125495682372
 31
0.0
 11
170.077253859284
 21
362.1259133577159
 31
0.0
 11
170.5364501564236
 21
362.1658043459547
 31
0.0
 11
170.9925560397862
 21
362.2324740575729
 31
0.0
 11
171.4325687972388
 21
362.3239848119943
 31
0.0
 11
171.8661771785996
 21
362.442395441121
 31
0.0
 11
172.2740530117546
 21
362.5824031400281
 31
0.0
 11
172.6717495038281
 21
362.7493914705235
 31
0.0
 11
173.035693305088
 21
362.9334594022207
 31
0.0
 11
173.384969887237
 21
363.1443158705378
 31
0.0
 11
173.6946722061657
 21
363.3669557289414
 31
0.0
 11
173.9842824946912
 21
363.6154849074432
 31
0.0
 11
174.2310900408148
 21
363.8704873550203
 31
0.0
 11
174.4514006116513
 21
364.1490387670352
 31
0.0
 11
174.6282313250466
 21
364.4297485150875
 31
0.0
 11
174.7716850445152
 21
364.729203437298
 31
0.0
 11
174.8727411714446
 21
365.0284537826297
 31
0.0
 11
174.9346235207309
 21
365.3383798405866
 31
0.0
 11
174.9553864108221
 21
365.6479066753731
 31
0.0
 11
174.9346235207307
 21
365.9574335101594
 31
0.0
  0
SPLINE
  5
118
330
45
100
AcDbEntity
  8
1
  6
Continuous
 62
     7
100
AcDbSpline
210
0.0
220
0.0
230
1.0
 70
    11
 71
     3
 72
    79
 73
    75
 74
    73
 42
0.0000000001
 43
0.0000000001
 44
0.00000001
 40
0.0
 40
0.0
 40
0.0
 40
0.0
 40
0.2811775426109289
 40
0.5623408931992436
 40
0.8457466631367128
 40
1.129126830422798
 40
1.415908903032348
 40
1.702658539054626
 40
1.993527432940274
 40
2.284362055943323
 40
2.579517800564261
 40
2.874641782101819
 40
3.173769982296792
 40
3.472872122788071
 40
3.775199692337262
 40
4.077508957859521
 40
4.381905225139312
 40
4.6862920914053
 40
4.991400459518983
 40
5.296508827632611
 40
5.600895693898606
 40
5.905291961178373
 40
6.207601226700687
 40
6.509928796249879
 40
6.809030936741182
 40
7.108159136936106
 40
7.403283118473617
 40
7.698438863094642
 40
7.989273486097731
 40
8.280142379983335
 40
8.566892016005548
 40
8.853674088615076
 40
9.137054255901189
 40
9.420460025838658
 40
9.701623376427001
 40
9.982800919037995
 40
10.26319552186825
 40
10.54359012469845
 40
10.82476766730935
 40
11.10593101789769
 40
11.38933678783512
 40
11.67271695512126
 40
11.95949902773076
 40
12.24624866375309
 40
12.53711755763865
 40
12.82795218064178
 40
13.12310792526274
 40
13.41823190680028
 40
13.71736010699515
 40
14.01646224748653
 40
14.31878981703567
 40
14.62109908255806
 40
14.92549534983777
 40
15.22988221610378
 40
15.53499058421735
 40
15.84009895233109
 40
16.14448581859715
 40
16.44888208587688
 40
16.75119135139908
 40
17.05351892094829
 40
17.35262106143967
 40
17.65174926163462
 40
17.94687324317217
 40
18.24202898779312
 40
18.53286361079621
 40
18.82373250468173
 40
19.11048214070397
 40
19.39726421331352
 40
19.68064438059976
 40
19.96405015053728
 40
20.24521350112568
 40
20.52639104373651
 40
20.80678564656677
 40
21.08718024939702
 40
21.08718024939702
 40
21.08718024939702
 40
21.08718024939702
 10
460.8878476653949
 20
369.0991676893558
 30
0.0
 10
460.7947515903043
 20
369.0877165672659
 30
0.0
 10
460.6085641390107
 20
369.0648149010648
 30
0.0
 10
460.3343266857047
 20
368.9967776100158
 30
0.0
 10
460.0666000183978
 20
368.9051554810423
 30
0.0
 10
459.8070395302294
 20
368.7875444932575
 30
0.0
 10
459.5583052378624
 20
368.6463261700383
 30
0.0
 10
459.3214911330718
 20
368.4815041992937
 30
0.0
 10
459.099232769005
 20
368.2954269021288
 30
0.0
 10
458.8923773818699
 20
368.0884020525176
 30
0.0
 10
458.7032635783567
 20
367.8632032548037
 30
0.0
 10
458.5326151942057
 20
367.6203383492741
 30
0.0
 10
458.382297876956
 20
367.3628697182638
 30
0.0
 10
458.2529745415952
 20
367.0915918209925
 30
0.0
 10
458.1459416141569
 20
366.8096386670851
 30
0.0
 10
458.0617944764949
 20
366.5182015137154
 30
0.0
 10
458.001249967787
 20
366.2202635702579
 30
0.0
 10
457.9647627710478
 20
365.9174979054574
 30
0.0
 10
457.9525357146968
 20
365.6125495682382
 30
0.0
 10
457.9647627710476
 20
365.3076012310132
 30
0.0
 10
458.0012499677883
 20
365.0048355662298
 30
0.0
 10
458.0617944764902
 20
364.7068976227103
 30
0.0
 10
458.145941614174
 20
364.4154604695697
 30
0.0
 10
458.2529745415314
 20
364.1335073148122
 30
0.0
 10
458.3822978771919
 20
363.8622294206811
 30
0.0
 10
458.5326151933294
 20
363.6047607780288
 30
0.0
 10
458.7032635815784
 20
363.3618959153922
 30
0.0
 10
458.8923773699139
 20
363.1366969588152
 30
0.0
 10
459.099232812902
 20
362.9296726938117
 30
0.0
 10
459.3214909701246
 20
362.7435932316275
 30
0.0
 10
459.5583058364575
 20
362.5787792318739
 30
0.0
 10
459.8070373060994
 20
362.4375313634598
 30
0.0
 10
460.0666082099859
 20
362.3200293960059
 30
0.0
 10
460.3342962012561
 20
362.228002448636
 30
0.0
 10
460.6086769121392
 20
362.1614646210159
 30
0.0
 10
460.8871679236025
 20
362.1215618374033
 30
0.0
 10
461.1679227599927
 20
362.1080497160741
 30
0.0
 10
461.4486775963827
 20
362.1215618374033
 30
0.0
 10
461.727168607846
 20
362.161464621016
 30
0.0
 10
462.0015493187291
 20
362.2280024486361
 30
0.0
 10
462.2692373099994
 20
362.3200293960057
 30
0.0
 10
462.5288082138857
 20
362.4375313634599
 30
0.0
 10
462.7775396835279
 20
362.5787792318739
 30
0.0
 10
463.0143545498605
 20
362.7435932316275
 30
0.0
 10
463.2366127070833
 20
362.9296726938115
 30
0.0
 10
463.4434681500712
 20
363.1366969588151
 30
0.0
 10
463.632581938407
 20
363.3618959153922
 30
0.0
 10
463.8032303266558
 20
363.6047607780289
 30
0.0
 10
463.9535476427932
 20
363.8622294206809
 30
0.0
 10
464.082870978454
 20
364.133507314812
 30
0.0
 10
464.1899039058114
 20
364.4154604695698
 30
0.0
 10
464.274051043495
 20
364.7068976227102
 30
0.0
 10
464.3345955521969
 20
365.0048355662298
 30
0.0
 10
464.3710827489377
 20
365.3076012310135
 30
0.0
 10
464.3833098052885
 20
365.6125495682374
 30
0.0
 10
464.3710827489381
 20
365.9174979054607
 30
0.0
 10
464.334595552197
 20
366.2202635702459
 30
0.0
 10
464.2740510434953
 20
366.5182015137606
 30
0.0
 10
464.1899039058101
 20
366.8096386669179
 30
0.0
 10
464.0828709784586
 20
367.0915918216142
 30
0.0
 10
463.9535476427764
 20
367.3628697159707
 30
0.0
 10
463.8032303267187
 20
367.6203383577881
 30
0.0
 10
463.6325819381761
 20
367.8632032235001
 30
0.0
 10
463.4434681509286
 20
368.0884021686873
 30
0.0
 10
463.236612703936
 20
368.2954264756046
 30
0.0
 10
463.0143545615435
 20
368.4815057825658
 30
0.0
 10
462.7775396406111
 20
368.6463203538066
 30
0.0
 10
462.5288083733468
 20
368.7875661039528
 30
0.0
 10
462.2692367226968
 20
368.9050758877114
 30
0.0
 10
462.0015515043373
 20
368.997073811285
 30
0.0
 10
461.7271605224815
 20
369.0637191442
 30
0.0
 10
461.4487077455938
 20
369.1032217301467
 30
0.0
 10
461.1678105883832
 20
369.1182235099643
 30
0.0
 10
460.9811686397243
 20
369.1055196295586
 30
0.0
 10
460.8878476653949
 20
369.0991676893558
 30
0.0
 11
460.8878476653949
 21
369.0991676893558
 31
0.0
 11
460.6095209116612
 21
369.059229879892
 31
0.0
 11
460.3362468771123
 21
368.9930926607528
 31
0.0
 11
460.0682422062832
 21
368.9009388390871
 31
0.0
 11
459.8100205682656
 21
368.7842087878123
 31
0.0
 11
459.5606339249151
 21
368.6426098496503
 31
0.0
 11
459.325187547059
 21
368.4789322491262
 31
0.0
 11
459.1021356982348
 21
368.2922437755496
 31
0.0
 11
458.8964676416396
 21
368.0866095652788
 31
0.0
 11
458.7066162368951
 21
367.8606154111524
 31
0.0
 11
458.5368433055237
 21
367.6192126020301
 31
0.0
 11
458.3859816230903
 21
367.3609134868066
 31
0.0
 11
458.2571817561588
 21
367.0909640753887
 31
0.0
 11
458.1498495241451
 21
366.8083304763944
 31
0.0
 11
458.0659215025827
 21
366.517904962334
 31
0.0
 11
458.005286851887
 21
366.219608923693
 31
0.0
 11
457.968828500971
 21
365.9174133694509
 31
0.0
 11
457.9566146153264
 21
365.6125495682372
 31
0.0
 11
457.968828500971
 21
365.3076857670236
 31
0.0
 11
458.0052868518871
 21
365.0054902127815
 31
0.0
 11
458.0659215025826
 21
364.7071941741405
 31
0.0
 11
458.1498495241451
 21
364.4167686600801
 31
0.0
 11
458.2571817561587
 21
364.1341350610858
 31
0.0
 11
458.3859816230903
 21
363.8641856496678
 31
0.0
 11
458.5368433055237
 21
363.6058865344444
 31
0.0
 11
458.7066162368951
 21
363.3644837253222
 31
0.0
 11
458.8964676416396
 21
363.1384895711957
 31
0.0
 11
459.1021356982348
 21
362.9328553609248
 31
0.0
 11
459.3251875470589
 21
362.7461668873482
 31
0.0
 11
459.5606339249151
 21
362.5824892868242
 31
0.0
 11
459.8100205682655
 21
362.4408903486622
 31
0.0
 11
460.0682422062831
 21
362.3241602973874
 31
0.0
 11
460.3362468771123
 21
362.2320064757217
 31
0.0
 11
460.6095209116612
 21
362.1658692565827
 31
0.0
 11
460.8878476653949
 21
362.1259314471188
 31
0.0
 11
461.1679227599927
 21
362.1125495682372
 31
0.0
 11
461.4479978545904
 21
362.1259314471187
 31
0.0
 11
461.726324608324
 21
362.1658692565827
 31
0.0
 11
461.9995986428729
 21
362.2320064757217
 31
0.0
 11
462.2676033137021
 21
362.3241602973874
 31
0.0
 11
462.5258249517197
 21
362.4408903486622
 31
0.0
 11
462.7752115950701
 21
362.5824892868242
 31
0.0
 11
463.0106579729263
 21
362.7461668873483
 31
0.0
 11
463.2337098217505
 21
362.9328553609248
 31
0.0
 11
463.4393778783457
 21
363.1384895711957
 31
0.0
 11
463.6292292830901
 21
363.3644837253222
 31
0.0
 11
463.7990022144616
 21
363.6058865344444
 31
0.0
 11
463.949863896895
 21
363.8641856496678
 31
0.0
 11
464.0786637638266
 21
364.1341350610858
 31
0.0
 11
464.1859959958402
 21
364.41676866008
 31
0.0
 11
464.2699240174026
 21
364.7071941741406
 31
0.0
 11
464.3305586680981
 21
365.0054902127815
 31
0.0
 11
464.3670170190143
 21
365.3076857670236
 31
0.0
 11
464.3792309046589
 21
365.6125495682372
 31
0.0
 11
464.3670170190144
 21
365.9174133694509
 31
0.0
 11
464.3305586680983
 21
366.2196089236931
 31
0.0
 11
464.2699240174027
 21
366.517904962334
 31
0.0
 11
464.1859959958402
 21
366.8083304763943
 31
0.0
 11
464.0786637638265
 21
367.0909640753886
 31
0.0
 11
463.949863896895
 21
367.3609134868067
 31
0.0
 11
463.7990022144617
 21
367.6192126020302
 31
0.0
 11
463.6292292830902
 21
367.8606154111525
 31
0.0
 11
463.4393778783458
 21
368.0866095652789
 31
0.0
 11
463.2337098217506
 21
368.2922437755497
 31
0.0
 11
463.0106579729264
 21
368.4789322491262
 31
0.0
 11
462.7752115950704
 21
368.6426098496503
 31
0.0
 11
462.5258249517199
 21
368.7842087878123
 31
0.0
 11
462.2676033137021
 21
368.9009388390871
 31
0.0
 11
461.9995986428729
 21
368.9930926607528
 31
0.0
 11
461.726324608324
 21
369.0592298798919
 31
0.0
 11
461.4479978545904
 21
369.0991676893558
 31
0.0
 11
461.1679227599926
 21
369.1125495682373
 31
0.0
 11
460.8878476653949
 21
369.0991676893558
 31
0.0
  0
SPLINE
  5
119
330
45
100
AcDbEntity
  8
1
  6
Continuous
 62
     7
100
AcDbSpline
210
0.0
220
0.0
230
1.0
 70
    11
 71
     3
 72
    79
 73
    75
 74
    73
 42
0.0000000001
 43
0.0000000001
 44
0.00000001
 40
0.0
 40
0.0
 40
0.0
 40
0.0
 40
0.2811775426108726
 40
0.5623408931992426
 40
0.845746663136658
 40
1.129126830422743
 40
1.415908903032342
 40
1.702658539054574
 40
1.993527432940222
 40
2.284362055943271
 40
2.579517800564209
 40
2.874641782101734
 40
3.173769982296707
 40
3.47287212278801
 40
3.775199692337222
 40
4.077508957859465
 40
4.381905225139244
 40
4.686292091405245
 40
4.991400459518924
 40
5.296508827632546
 40
5.600895693898534
 40
5.905291961178347
 40
6.207601226700628
 40
6.50992879624984
 40
6.809030936741143
 40
7.108159136936038
 40
7.403283118473549
 40
7.698438863094575
 40
7.989273486097663
 40
8.280142379983225
 40
8.566892016005392
 40
8.853674088615069
 40
9.137054255901182
 40
9.420460025838706
 40
9.701623376427049
 40
9.982800919037874
 40
10.26319552186808
 40
10.54359012469839
 40
10.82476766730928
 40
11.10593101789768
 40
11.38933678783511
 40
11.6727169551212
 40
11.9594990277308
 40
12.24624866375303
 40
12.53711755763864
 40
12.82795218064177
 40
13.12310792526276
 40
13.41823190680027
 40
13.71736010699511
 40
14.01646224748644
 40
14.3187898170356
 40
14.62109908255802
 40
14.92549534983776
 40
15.22988221610375
 40
15.53499058421733
 40
15.84009895233107
 40
16.14448581859712
 40
16.44888208587685
 40
16.75119135139904
 40
17.05351892094823
 40
17.35262106143964
 40
17.65174926163455
 40
17.94687324317211
 40
18.24202898779313
 40
18.53286361079618
 40
18.82373250468175
 40
19.11048214070407
 40
19.39726421331357
 40
19.68064438059976
 40
19.96405015053723
 40
20.24521350112558
 40
20.52639104373652
 40
20.80678564656678
 40
21.08718024939709
 40
21.08718024939709
 40
21.08718024939709
 40
21.08718024939709
 10
438.931337356195
 20
369.0991676893558
 30
0.0
 10
439.0244334312854
 20
369.0877165672659
 30
0.0
 10
439.2106208825791
 20
369.0648149010647
 30
0.0
 10
439.4848583358852
 20
368.9967776100159
 30
0.0
 10
439.7525850031919
 20
368.9051554810422
 30
0.0
 10
440.0121454913605
 20
368.7875444932575
 30
0.0
 10
440.2608797837273
 20
368.6463261700384
 30
0.0
 10
440.497693888518
 20
368.4815041992935
 30
0.0
 10
440.7199522525849
 20
368.295426902129
 30
0.0
 10
440.9268076397199
 20
368.0884020525174
 30
0.0
 10
441.1159214432333
 20
367.8632032548036
 30
0.0
 10
441.286569827384
 20
367.6203383492741
 30
0.0
 10
441.4368871446339
 20
367.3628697182639
 30
0.0
 10
441.5662104799945
 20
367.0915918209925
 30
0.0
 10
441.673243407433
 20
366.8096386670851
 30
0.0
 10
441.7573905450949
 20
366.5182015137155
 30
0.0
 10
441.8179350538027
 20
366.2202635702579
 30
0.0
 10
441.854422250542
 20
365.9174979054574
 30
0.0
 10
441.8666493068929
 20
365.6125495682381
 30
0.0
 10
441.8544222505423
 20
365.3076012310133
 30
0.0
 10
441.8179350538017
 20
365.0048355662296
 30
0.0
 10
441.7573905450994
 20
364.7068976227105
 30
0.0
 10
441.6732434074158
 20
364.4154604695695
 30
0.0
 10
441.5662104800587
 20
364.1335073148123
 30
0.0
 10
441.4368871443978
 20
363.8622294206809
 30
0.0
 10
441.2865698282603
 20
363.604760778029
 30
0.0
 10
441.1159214400117
 20
363.3618959153921
 30
0.0
 10
440.9268076516758
 20
363.1366969588152
 30
0.0
 10
440.7199522086878
 20
362.9296726938117
 30
0.0
 10
440.4976940514655
 20
362.7435932316275
 30
0.0
 10
440.2608791851322
 20
362.5787792318737
 30
0.0
 10
440.0121477154905
 20
362.4375313634599
 30
0.0
 10
439.7525768116038
 20
362.3200293960057
 30
0.0
 10
439.4848888203338
 20
362.2280024486361
 30
0.0
 10
439.2105081094506
 20
362.161464621016
 30
0.0
 10
438.9320170979871
 20
362.1215618374034
 30
0.0
 10
438.6512622615972
 20
362.108049716074
 30
0.0
 10
438.3705074252074
 20
362.1215618374034
 30
0.0
 10
438.0920164137437
 20
362.161464621016
 30
0.0
 10
437.8176357028608
 20
362.228002448636
 30
0.0
 10
437.5499477115903
 20
362.3200293960057
 30
0.0
 10
437.2903768077041
 20
362.43753136346
 30
0.0
 10
437.041645338062
 20
362.5787792318737
 30
0.0
 10
436.804830471729
 20
362.7435932316276
 30
0.0
 10
436.5825723145064
 20
362.9296726938115
 30
0.0
 10
436.3757168715185
 20
363.1366969588152
 30
0.0
 10
436.1866030831826
 20
363.361895915392
 30
0.0
 10
436.015954694934
 20
363.604760778029
 30
0.0
 10
435.8656373787965
 20
363.862229420681
 30
0.0
 10
435.7363140431359
 20
364.1335073148121
 30
0.0
 10
435.6292811157786
 20
364.4154604695697
 30
0.0
 10
435.5451339780948
 20
364.7068976227102
 30
0.0
 10
435.4845894693927
 20
365.0048355662299
 30
0.0
 10
435.4481022726521
 20
365.3076012310135
 30
0.0
 10
435.4358752163012
 20
365.6125495682373
 30
0.0
 10
435.4481022726521
 20
365.9174979054607
 30
0.0
 10
435.484589469393
 20
366.2202635702458
 30
0.0
 10
435.5451339780943
 20
366.5182015137607
 30
0.0
 10
435.6292811157799
 20
366.8096386669178
 30
0.0
 10
435.7363140431311
 20
367.0915918216141
 30
0.0
 10
435.8656373788134
 20
367.3628697159707
 30
0.0
 10
436.015954694871
 20
367.6203383577879
 30
0.0
 10
436.1866030834136
 20
367.8632032235004
 30
0.0
 10
436.3757168706613
 20
368.0884021686872
 30
0.0
 10
436.5825723176537
 20
368.2954264756046
 30
0.0
 10
436.8048304600465
 20
368.4815057825659
 30
0.0
 10
437.0416453809788
 20
368.6463203538065
 30
0.0
 10
437.2903766482432
 20
368.7875661039528
 30
0.0
 10
437.5499482988932
 20
368.9050758877114
 30
0.0
 10
437.8176335172526
 20
368.997073811285
 30
0.0
 10
438.0920244991083
 20
369.0637191441998
 30
0.0
 10
438.3704772759962
 20
369.1032217301468
 30
0.0
 10
438.6513744332066
 20
369.1182235099642
 30
0.0
 10
438.8380163818656
 20
369.1055196295586
 30
0.0
 10
438.9313373561951
 20
369.0991676893558
 30
0.0
 11
438.931337356195
 21
369.0991676893558
 31
0.0
 11
439.2096641099287
 21
369.059229879892
 31
0.0
 11
439.4829381444775
 21
368.9930926607528
 31
0.0
 11
439.7509428153066
 21
368.9009388390871
 31
0.0
 11
440.0091644533242
 21
368.7842087878123
 31
0.0
 11
440.2585510966748
 21
368.6426098496503
 31
0.0
 11
440.4939974745308
 21
368.4789322491262
 31
0.0
 11
440.7170493233551
 21
368.2922437755496
 31
0.0
 11
440.9227173799502
 21
368.0866095652788
 31
0.0
 11
441.1125687846947
 21
367.8606154111524
 31
0.0
 11
441.2823417160661
 21
367.6192126020301
 31
0.0
 11
441.4332033984995
 21
367.3609134868066
 31
0.0
 11
441.562003265431
 21
367.0909640753887
 31
0.0
 11
441.6693354974448
 21
366.8083304763944
 31
0.0
 11
441.7532635190071
 21
366.517904962334
 31
0.0
 11
441.8138981697027
 21
366.219608923693
 31
0.0
 11
441.8503565206189
 21
365.9174133694509
 31
0.0
 11
441.8625704062633
 21
365.6125495682372
 31
0.0
 11
441.8503565206189
 21
365.3076857670236
 31
0.0
 11
441.8138981697028
 21
365.0054902127815
 31
0.0
 11
441.7532635190071
 21
364.7071941741405
 31
0.0
 11
441.6693354974448
 21
364.4167686600801
 31
0.0
 11
441.562003265431
 21
364.1341350610858
 31
0.0
 11
441.4332033984995
 21
363.8641856496678
 31
0.0
 11
441.2823417160661
 21
363.6058865344444
 31
0.0
 11
441.1125687846947
 21
363.3644837253222
 31
0.0
 11
440.9227173799502
 21
363.1384895711957
 31
0.0
 11
440.7170493233551
 21
362.9328553609248
 31
0.0
 11
440.4939974745309
 21
362.7461668873482
 31
0.0
 11
440.2585510966749
 21
362.5824892868242
 31
0.0
 11
440.0091644533243
 21
362.4408903486622
 31
0.0
 11
439.7509428153066
 21
362.3241602973874
 31
0.0
 11
439.4829381444774
 21
362.2320064757217
 31
0.0
 11
439.2096641099286
 21
362.1658692565827
 31
0.0
 11
438.9313373561949
 21
362.1259314471188
 31
0.0
 11
438.6512622615973
 21
362.1125495682372
 31
0.0
 11
438.3711871669995
 21
362.1259314471187
 31
0.0
 11
438.0928604132658
 21
362.1658692565827
 31
0.0
 11
437.8195863787169
 21
362.2320064757217
 31
0.0
 11
437.5515817078877
 21
362.3241602973874
 31
0.0
 11
437.2933600698701
 21
362.4408903486622
 31
0.0
 11
437.0439734265196
 21
362.5824892868242
 31
0.0
 11
436.8085270486635
 21
362.7461668873483
 31
0.0
 11
436.5854751998393
 21
362.9328553609248
 31
0.0
 11
436.3798071432441
 21
363.1384895711957
 31
0.0
 11
436.1899557384996
 21
363.3644837253222
 31
0.0
 11
436.0201828071282
 21
363.6058865344444
 31
0.0
 11
435.8693211246949
 21
363.8641856496678
 31
0.0
 11
435.7405212577634
 21
364.1341350610858
 31
0.0
 11
435.6331890257496
 21
364.41676866008
 31
0.0
 11
435.5492610041872
 21
364.7071941741406
 31
0.0
 11
435.4886263534916
 21
365.0054902127815
 31
0.0
 11
435.4521680025754
 21
365.3076857670236
 31
0.0
 11
435.4399541169308
 21
365.6125495682372
 31
0.0
 11
435.4521680025755
 21
365.9174133694509
 31
0.0
 11
435.4886263534916
 21
366.2196089236931
 31
0.0
 11
435.5492610041872
 21
366.517904962334
 31
0.0
 11
435.6331890257496
 21
366.8083304763943
 31
0.0
 11
435.7405212577633
 21
367.0909640753886
 31
0.0
 11
435.8693211246948
 21
367.3609134868067
 31
0.0
 11
436.0201828071281
 21
367.6192126020302
 31
0.0
 11
436.1899557384995
 21
367.8606154111525
 31
0.0
 11
436.3798071432441
 21
368.0866095652789
 31
0.0
 11
436.5854751998393
 21
368.2922437755497
 31
0.0
 11
436.8085270486635
 21
368.4789322491262
 31
0.0
 11
437.0439734265196
 21
368.6426098496503
 31
0.0
 11
437.2933600698701
 21
368.7842087878123
 31
0.0
 11
437.5515817078878
 21
368.9009388390871
 31
0.0
 11
437.8195863787169
 21
368.9930926607528
 31
0.0
 11
438.0928604132658
 21
369.0592298798919
 31
0.0
 11
438.3711871669995
 21
369.0991676893558
 31
0.0
 11
438.6512622615973
 21
369.1125495682373
 31
0.0
 11
438.9313373561951
 21
369.0991676893558
 31
0.0
  0
SPLINE
  5
11A
330
45
100
AcDbEntity
  8
1
  6
Continuous
 62
     7
100
AcDbSpline
210
0.0
220
0.0
230
1.0
 70
    11
 71
     3
 72
    79
 73
    75
 74
    73
 42
0.0000000001
 43
0.0000000001
 44
0.00000001
 40
0.0
 40
0.0
 40
0.0
 40
0.0
 40
0.3064252399305306
 40
0.6126997295783602
 40
0.9327163807029134
 40
1.252505950546079
 40
1.59227874406948
 40
1.931827979827556
 40
2.294403622084051
 40
2.656798547726799
 40
3.042205862991191
 40
3.427481652445279
 40
3.833206192908579
 40
4.238841967633205
 40
4.660421102442456
 40
5.081946086409708
 40
5.51356242379269
 40
5.945153204326166
 40
6.380194333749658
 40
6.815235463173149
 40
7.24682624370662
 40
7.678442581089676
 40
8.099967565056792
 40
8.521546699866057
 40
8.92718247459077
 40
9.332907015054092
 40
9.718182804508103
 40
10.10359011977262
 40
10.46598504541537
 40
10.82856068767187
 40
11.16810992342994
 40
11.50788271695334
 40
11.8276722867964
 40
12.14768893792096
 40
12.45396342756877
 40
12.7603886674993
 40
13.06189449721449
 40
13.36340032692969
 40
13.66982556686028
 40
13.97610005650808
 40
14.29611670763259
 40
14.61590627747571
 40
14.95567907099908
 40
15.29522830675716
 40
15.65780394901369
 40
16.02019887465651
 40
16.40560618992095
 40
16.79088197937501
 40
17.19660651983834
 40
17.60224229456301
 40
18.0238214293722
 40
18.44534641333949
 40
18.87696275072248
 40
19.3085535312559
 40
19.74359466067933
 40
20.17863579010288
 40
20.61022657063636
 40
21.04184290801945
 40
21.46336789198664
 40
21.88494702679578
 40
22.29058280152051
 40
22.69630734198378
 40
23.0815831314379
 40
23.46699044670238
 40
23.82938537234507
 40
24.19196101460165
 40
24.53151025035985
 40
24.87128304388314
 40
25.19107261372628
 40
25.51108926485084
 40
25.81736375449861
 40
26.12378899442919
 40
26.42529482414438
 40
26.72680065385951
 40
26.72680065385951
 40
26.72680065385951
 40
26.72680065385951
 10
454.8894350965246
 20
365.9748238184042
 30
0.0
 10
454.8728320129551
 20
366.0757499833807
 30
0.0
 10
454.8396340139407
 20
366.2775526612621
 30
0.0
 10
454.7406159712411
 20
366.5735039335932
 30
0.0
 10
454.6087822705148
 20
366.8605737463266
 30
0.0
 10
454.4385510598788
 20
367.1400387645919
 30
0.0
 10
454.2362825322197
 20
367.4053419731722
 30
0.0
 10
453.9988808284542
 20
367.6595443445392
 30
0.0
 10
453.7334258303825
 20
367.8957500709007
 30
0.0
 10
453.4363598287825
 20
368.1172288305505
 30
0.0
 10
453.1158723345423
 20
368.3178430409166
 30
0.0
 10
452.7683334199634
 20
368.500212164098
 30
0.0
 10
452.4023034698664
 20
368.6595837722912
 30
0.0
 10
452.0148752396287
 20
368.7976072031806
 30
0.0
 10
451.614089026854
 20
368.9110993662108
 30
0.0
 10
451.1984868606514
 20
369.0008343814982
 30
0.0
 10
450.7748074804457
 20
369.0650366728968
 30
0.0
 10
450.3435515581023
 20
369.1039629106044
 30
0.0
 10
449.909592510797
 20
369.1168599902185
 30
0.0
 10
449.4756334634795
 20
369.1039629106051
 30
0.0
 10
449.0443775411717
 20
369.0650366728934
 30
0.0
 10
448.6206981608357
 20
369.0008343815113
 30
0.0
 10
448.2050959951087
 20
368.9110993661628
 30
0.0
 10
447.8043097805903
 20
368.7976072033572
 30
0.0
 10
447.4168815566252
 20
368.6595837716594
 30
0.0
 10
447.0508515836942
 20
368.5002121664098
 30
0.0
 10
446.7033127502417
 20
368.31784303277
 30
0.0
 10
446.3828249624278
 20
368.117228860249
 30
0.0
 10
446.0857599943042
 20
367.8957499673718
 30
0.0
 10
445.8203012687116
 20
367.6595447215328
 30
0.0
 10
445.5829126388745
 20
367.405340664778
 30
0.0
 10
445.3805969159914
 20
367.1400435402339
 30
0.0
 10
445.2105320427859
 20
366.8605570790592
 30
0.0
 10
445.0780939424059
 20
366.5735651807606
 30
0.0
 10
444.9812401372618
 20
366.277334912
 30
0.0
 10
444.923742655305
 20
365.9772528778548
 30
0.0
 10
444.903738492205
 20
365.6739414454586
 30
0.0
 10
444.9237426553051
 20
365.3706300130622
 30
0.0
 10
444.981240137262
 20
365.0705479789174
 30
0.0
 10
445.0780939424058
 20
364.7743177101565
 30
0.0
 10
445.2105320427858
 20
364.4873258118577
 30
0.0
 10
445.3805969159913
 20
364.2078393506833
 30
0.0
 10
445.5829126388748
 20
363.9425422261391
 30
0.0
 10
445.8203012687116
 20
363.6883381693843
 30
0.0
 10
446.0857599943042
 20
363.4521329235452
 30
0.0
 10
446.3828249624276
 20
363.2306540306678
 30
0.0
 10
446.7033127502416
 20
363.0300398581469
 30
0.0
 10
447.0508515836942
 20
362.8476707245072
 30
0.0
 10
447.4168815566252
 20
362.6882991192578
 30
0.0
 10
447.8043097805903
 20
362.5502756875596
 30
0.0
 10
448.2050959951088
 20
362.4367835247541
 30
0.0
 10
448.6206981608357
 20
362.3470485094057
 30
0.0
 10
449.0443775411718
 20
362.2828462180236
 30
0.0
 10
449.4756334634798
 20
362.2439199803117
 30
0.0
 10
449.909592510795
 20
362.2310229006988
 30
0.0
 10
450.3435515581091
 20
362.2439199803117
 30
0.0
 10
450.77480748042
 20
362.282846218024
 30
0.0
 10
451.1984868607468
 20
362.3470485094047
 30
0.0
 10
451.6140890265075
 20
362.4367835247576
 30
0.0
 10
452.014875240902
 20
362.5502756875472
 30
0.0
 10
452.4023034653135
 20
362.6882991193025
 30
0.0
 10
452.7683334366184
 20
362.8476707243428
 30
0.0
 10
453.1158722758484
 20
363.030039858727
 30
0.0
 10
453.4363600427563
 20
363.2306540285529
 30
0.0
 10
453.7334250844755
 20
363.4521329309179
 30
0.0
 10
453.9988835446244
 20
363.6883381425378
 30
0.0
 10
454.2362731054805
 20
363.9425423193123
 30
0.0
 10
454.4385854675027
 20
364.2078390106009
 30
0.0
 10
454.6086621859111
 20
364.4873269987655
 30
0.0
 10
454.7410572458488
 20
364.7743133486298
 30
0.0
 10
454.838065170443
 20
365.0705634852542
 30
0.0
 10
454.8949955957743
 20
365.3705724189332
 30
0.0
 10
454.9170842726085
 20
365.674152570393
 30
0.0
 10
454.8986514885527
 20
365.8746000690671
 30
0.0
 10
454.8894350965246
 20
365.9748238184042
 30
0.0
 11
454.8894350965246
 21
365.9748238184042
 31
0.0
 11
454.8316602332731
 21
366.2757532002245
 31
0.0
 11
454.7371043093389
 21
366.5670661595277
 31
0.0
 11
454.6032391426918
 21
366.8577391272345
 31
0.0
 11
454.4375786964989
 21
367.1312752044669
 31
0.0
 11
454.2319195963511
 21
367.4017375599715
 31
0.0
 11
454.0005952847357
 21
367.650298913282
 31
0.0
 11
453.7300859460411
 21
367.8917234232985
 31
0.0
 11
453.4398275573559
 21
368.1087030304727
 31
0.0
 11
453.1134110692244
 21
368.3136202697065
 31
0.0
 11
452.7724118422626
 21
368.4929438909919
 31
0.0
 11
452.4005824498364
 21
368.6552870635065
 31
0.0
 11
452.018548243746
 21
368.7916331199707
 31
0.0
 11
451.6130004618647
 21
368.9067850349254
 31
0.0
 11
451.2009967307506
 21
368.9958705986077
 31
0.0
 11
450.7742805342555
 21
369.0607238972491
 31
0.0
 11
450.3444392103672
 21
369.0995444861093
 31
0.0
 11
449.9095925107949
 21
369.1125495682372
 31
0.0
 11
449.4747458112226
 21
369.0995444861093
 31
0.0
 11
449.0449044873343
 21
369.0607238972492
 31
0.0
 11
448.6181882908392
 21
368.9958705986076
 31
0.0
 11
448.2061845597251
 21
368.9067850349254
 31
0.0
 11
447.8006367778439
 21
368.7916331199707
 31
0.0
 11
447.4186025717534
 21
368.6552870635066
 31
0.0
 11
447.0467731793272
 21
368.4929438909919
 31
0.0
 11
446.7057739523654
 21
368.3136202697065
 31
0.0
 11
446.3793574642338
 21
368.1087030304727
 31
0.0
 11
446.0890990755486
 21
367.8917234232985
 31
0.0
 11
445.8185897368539
 21
367.650298913282
 31
0.0
 11
445.5872654252385
 21
367.4017375599715
 31
0.0
 11
445.3816063250907
 21
367.1312752044669
 31
0.0
 11
445.215945878898
 21
366.8577391272346
 31
0.0
 11
445.082080712251
 21
366.5670661595277
 31
0.0
 11
444.9875247883167
 21
366.2757532002245
 31
0.0
 11
444.9297499250652
 21
365.9748238184042
 31
0.0
 11
444.9103704771151
 21
365.6739414454586
 31
0.0
 11
444.9297499250652
 21
365.3730590725129
 31
0.0
 11
444.9875247883167
 21
365.0721296906926
 31
0.0
 11
445.082080712251
 21
364.7808167313895
 31
0.0
 11
445.2159458788979
 21
364.4901437636825
 31
0.0
 11
445.3816063250908
 21
364.2166076864503
 31
0.0
 11
445.5872654252386
 21
363.9461453309457
 31
0.0
 11
445.8185897368539
 21
363.6975839776351
 31
0.0
 11
446.0890990755486
 21
363.4561594676186
 31
0.0
 11
446.3793574642338
 21
363.2391798604442
 31
0.0
 11
446.7057739523654
 21
363.0342626212105
 31
0.0
 11
447.0467731793272
 21
362.8549389999251
 31
0.0
 11
447.4186025717534
 21
362.6925958274105
 31
0.0
 11
447.8006367778438
 21
362.5562497709462
 31
0.0
 11
448.206184559725
 21
362.4410978559916
 31
0.0
 11
448.6181882908392
 21
362.3520122923094
 31
0.0
 11
449.0449044873343
 21
362.2871589936678
 31
0.0
 11
449.4747458112225
 21
362.2483384048077
 31
0.0
 11
449.9095925107948
 21
362.2353333226799
 31
0.0
 11
450.3444392103671
 21
362.2483384048078
 31
0.0
 11
450.7742805342554
 21
362.287158993668
 31
0.0
 11
451.2009967307506
 21
362.3520122923094
 31
0.0
 11
451.6130004618647
 21
362.4410978559916
 31
0.0
 11
452.0185482437458
 21
362.5562497709463
 31
0.0
 11
452.4005824498364
 21
362.6925958274105
 31
0.0
 11
452.7724118422625
 21
362.8549389999251
 31
0.0
 11
453.1134110692244
 21
363.0342626212105
 31
0.0
 11
453.439827557356
 21
363.2391798604443
 31
0.0
 11
453.7300859460411
 21
363.4561594676186
 31
0.0
 11
454.0005952847358
 21
363.6975839776351
 31
0.0
 11
454.2319195963513
 21
363.9461453309457
 31
0.0
 11
454.4375786964989
 21
364.2166076864503
 31
0.0
 11
454.6032391426919
 21
364.4901437636826
 31
0.0
 11
454.7371043093389
 21
364.7808167313895
 31
0.0
 11
454.8316602332732
 21
365.0721296906926
 31
0.0
 11
454.8894350965246
 21
365.3730590725129
 31
0.0
 11
454.9088145444746
 21
365.6739414454586
 31
0.0
 11
454.8894350965246
 21
365.9748238184042
 31
0.0
  0
ENDBLK
  5
47
330
45
100
AcDbEntity
  8
0
100
AcDbBlockEnd
  0
BLOCK
  5
4A
330
48
100
AcDbEntity
  8
0
100
AcDbBlockBegin
  2
R10A-13
 70
     0
 71
     0
 10
494.9095925107949
 20
337.6125495682372
 30
0.0
  3
R10A-13
  1

  0
INSERT
  5
49
330
48
100
AcDbEntity
  8
0
100
AcDbBlockReference
  2
37-1-13
 10
358.1083622940238
 20
220.1168436780926
 30
0.0
 41
1.0
 42
1.0
 43
1.0
  0
ENDBLK
  5
4B
330
48
100
AcDbEntity
  8
0
100
AcDbBlockEnd
  0
BLOCK
  5
4D
330
4C
100
AcDbEntity
  8
0
100
AcDbBlockBegin
  2
A10-0B-13
 70
     0
 71
     0
 10
449.9095925107949
 20
336.6125495682372
 30
0.0
  3
A10-0B-13
  1

  0
LINE
  5
11B
330
4C
100
AcDbEntity
  8
1
  6
Continuous
 62
     7
100
AcDbLine
 10
508.9095925107949
 20
327.1125495682372
 30
0.0
 11
508.9095925107948
 21
346.1125495682372
 31
0.0
  0
LINE
  5
11C
330
4C
100
AcDbEntity
  8
1
  6
Continuous
 62
     7
100
AcDbLine
 10
401.9095925107947
 20
320.8446003758061
 30
0.0
 11
401.9095925107947
 21
320.9724946235972
 31
0.0
  0
LINE
  5
11D
330
4C
100
AcDbEntity
  8
1
  6
Continuous
 62
     7
100
AcDbLine
 10
437.9095925107947
 20
362.1125495682372
 30
0.0
 11
437.9095925107947
 21
358.8804987606686
 31
0.0
  0
LINE
  5
11E
330
4C
100
AcDbEntity
  8
1
  6
Continuous
 62
     2
100
AcDbLine
 10
438.9095925107947
 20
360.6125495682372
 30
0.0
 11
438.9095925107949
 21
362.1125495682372
 31
0.0
  0
LINE
  5
11F
330
4C
100
AcDbEntity
  8
1
  6
Continuous
 62
     2
100
AcDbLine
 10
437.9095925107947
 20
358.8804987606686
 30
0.0
 11
438.9095925107947
 21
360.6125495682372
 31
0.0
  0
LINE
  5
120
330
4C
100
AcDbEntity
  8
1
  6
Continuous
 62
     7
100
AcDbLine
 10
461.9095925107948
 20
358.8804987606686
 30
0.0
 11
461.9095925107948
 21
362.1125495682372
 31
0.0
  0
LINE
  5
121
330
4C
100
AcDbEntity
  8
1
  6
Continuous
 62
     2
100
AcDbLine
 10
460.9095925107947
 20
360.6125495682372
 30
0.0
 11
461.9095925107948
 21
358.8804987606686
 31
0.0
  0
LINE
  5
122
330
4C
100
AcDbEntity
  8
1
  6
Continuous
 62
     7
100
AcDbLine
 10
461.9095925107948
 20
358.8804987606686
 30
0.0
 11
462.2021697104439
 21
358.8804987606686
 31
0.0
  0
LINE
  5
123
330
4C
100
AcDbEntity
  8
1
  6
Continuous
 62
     7
100
AcDbLine
 10
437.6170153111469
 20
358.8804987606686
 30
0.0
 11
437.9095925107947
 21
358.8804987606686
 31
0.0
  0
LINE
  5
124
330
4C
100
AcDbEntity
  8
1
  6
Continuous
 62
     2
100
AcDbLine
 10
402.9095925107947
 20
318.6125495682372
 30
0.0
 11
402.9095925107947
 21
319.1125495682372
 31
0.0
  0
LINE
  5
125
330
4C
100
AcDbEntity
  8
1
  6
Continuous
 62
     2
100
AcDbLine
 10
426.9095925107947
 20
319.1125495682372
 30
0.0
 11
426.9095925107947
 21
318.6125495682372
 31
0.0
  0
LINE
  5
126
330
4C
100
AcDbEntity
  8
1
  6
Continuous
 62
     2
100
AcDbLine
 10
426.9095925107947
 20
319.1125495682372
 30
0.0
 11
427.9095925107947
 21
320.8446003758062
 31
0.0
  0
LINE
  5
127
330
4C
100
AcDbEntity
  8
1
  6
Continuous
 62
     7
100
AcDbLine
 10
401.9095925107947
 20
318.6125495682372
 30
0.0
 11
401.9095925107947
 21
320.8446003758061
 31
0.0
  0
LINE
  5
128
330
4C
100
AcDbEntity
  8
1
  6
Continuous
 62
     2
100
AcDbLine
 10
401.9095925107947
 20
320.8446003758061
 30
0.0
 11
402.9095925107947
 21
319.1125495682372
 31
0.0
  0
LINE
  5
129
330
4C
100
AcDbEntity
  8
1
  6
Continuous
 62
     7
100
AcDbLine
 10
427.9095925107947
 20
320.9724946235972
 30
0.0
 11
427.9095925107947
 21
318.6125495682372
 31
0.0
  0
LINE
  5
12A
330
4C
100
AcDbEntity
  8
1
  6
Continuous
 62
     7
100
AcDbLine
 10
492.4095925107948
 20
349.3625495682372
 30
0.0
 11
492.4095925107948
 21
359.1125495682372
 31
0.0
  0
LINE
  5
12B
330
4C
100
AcDbEntity
  8
1
  6
Continuous
 62
     7
100
AcDbLine
 10
494.9095925107949
 20
359.6125495682372
 30
0.0
 11
492.9095925107948
 21
359.6125495682372
 31
0.0
  0
LINE
  5
12C
330
4C
100
AcDbEntity
  8
1
  6
Continuous
 62
     7
100
AcDbLine
 10
494.9095925107949
 20
359.6125495682372
 30
0.0
 11
494.9095925107948
 21
347.1125495682372
 31
0.0
  0
LINE
  5
12D
330
4C
100
AcDbEntity
  8
1
  6
Continuous
 62
     2
100
AcDbLine
 10
494.9095925107948
 20
347.1125495682372
 30
0.0
 11
496.6416433183639
 21
346.1125495682372
 31
0.0
  0
LINE
  5
12E
330
4C
100
AcDbEntity
  8
1
  6
Continuous
 62
     7
100
AcDbLine
 10
508.9095925107948
 20
346.1125495682372
 30
0.0
 11
507.9095925107948
 21
347.1125495682372
 31
0.0
  0
LINE
  5
12F
330
4C
100
AcDbEntity
  8
1
  6
Continuous
 62
     7
100
AcDbLine
 10
494.9095925107948
 20
347.1125495682372
 30
0.0
 11
507.9095925107948
 21
347.1125495682372
 31
0.0
  0
LINE
  5
130
330
4C
100
AcDbEntity
  8
1
  6
Continuous
 62
     2
100
AcDbLine
 10
496.6416433183639
 20
346.1125495682372
 30
0.0
 11
508.9095925107948
 21
346.1125495682372
 31
0.0
  0
LINE
  5
131
330
4C
100
AcDbEntity
  8
1
  6
Continuous
 62
     7
100
AcDbLine
 10
494.9095925107948
 20
326.1125495682372
 30
0.0
 11
494.9095925107949
 21
313.6125495682372
 31
0.0
  0
LINE
  5
132
330
4C
100
AcDbEntity
  8
1
  6
Continuous
 62
     7
100
AcDbLine
 10
494.9095925107949
 20
313.6125495682372
 30
0.0
 11
492.9095925107948
 21
313.6125495682372
 31
0.0
  0
LINE
  5
133
330
4C
100
AcDbEntity
  8
1
  6
Continuous
 62
     7
100
AcDbLine
 10
492.4095925107948
 20
323.8625495682372
 30
0.0
 11
492.4095925107949
 21
314.1125495682372
 31
0.0
  0
LINE
  5
134
330
4C
100
AcDbEntity
  8
1
  6
Continuous
 62
     7
100
AcDbLine
 10
507.9095925107948
 20
326.1125495682372
 30
0.0
 11
508.9095925107949
 21
327.1125495682372
 31
0.0
  0
LINE
  5
135
330
4C
100
AcDbEntity
  8
1
  6
Continuous
 62
     2
100
AcDbLine
 10
508.9095925107949
 20
327.1125495682372
 30
0.0
 11
496.6416433183639
 21
327.1125495682372
 31
0.0
  0
LINE
  5
136
330
4C
100
AcDbEntity
  8
1
  6
Continuous
 62
     2
100
AcDbLine
 10
496.6416433183639
 20
327.1125495682372
 30
0.0
 11
494.9095925107948
 21
326.1125495682372
 31
0.0
  0
LINE
  5
137
330
4C
100
AcDbEntity
  8
1
  6
Continuous
 62
     7
100
AcDbLine
 10
507.9095925107948
 20
326.1125495682372
 30
0.0
 11
494.9095925107948
 21
326.1125495682372
 31
0.0
  0
LINE
  5
138
330
4C
100
AcDbEntity
  8
1
  6
Continuous
 62
     2
100
AcDbLine
 10
460.9095925107947
 20
362.1125495682372
 30
0.0
 11
460.9095925107947
 21
360.6125495682372
 31
0.0
  0
LINE
  5
139
330
4C
100
AcDbEntity
  8
1
  6
Continuous
 62
     7
100
AcDbLine
 10
426.8907393279158
 20
324.538480763675
 30
0.0
 11
427.9095925107947
 21
320.9724946235972
 31
0.0
  0
LINE
  5
13A
330
4C
100
AcDbEntity
  8
1
  6
Continuous
 62
     7
100
AcDbLine
 10
431.4772839196279
 20
328.1125495682372
 30
0.0
 11
430.6510664008218
 21
328.1125495682372
 31
0.0
  0
LINE
  5
13B
330
4C
100
AcDbEntity
  8
1
  6
Continuous
 62
     7
100
AcDbLine
 10
472.0892566200629
 20
327.8625495682371
 30
0.0
 11
488.4095925107948
 21
327.8625495682372
 31
0.0
  0
LINE
  5
13C
330
4C
100
AcDbEntity
  8
1
  6
Continuous
 62
     7
100
AcDbLine
 10
462.2021697104439
 20
358.8804987606686
 30
0.0
 11
462.3542677029849
 21
354.0894119956305
 31
0.0
  0
LINE
  5
13D
330
4C
100
AcDbEntity
  8
1
  6
Continuous
 62
     7
100
AcDbLine
 10
488.4095925107948
 20
345.3625495682372
 30
0.0
 11
472.0892566200638
 21
345.3625495682375
 31
0.0
  0
LINE
  5
13E
330
4C
100
AcDbEntity
  8
1
  6
Continuous
 62
     7
100
AcDbLine
 10
402.8883982279757
 20
324.39831463373
 30
0.0
 11
401.9095925107947
 21
320.9724946235972
 31
0.0
  0
LINE
  5
13F
330
4C
100
AcDbEntity
  8
1
  6
Continuous
 62
     7
100
AcDbLine
 10
437.4552362835297
 20
353.7844593907489
 30
0.0
 11
437.6170153111469
 21
358.8804987606686
 31
0.0
  0
LINE
  5
140
330
4C
100
AcDbEntity
  8
1
  6
Continuous
 62
     7
100
AcDbLine
 10
427.9095925107949
 20
319.1125495682372
 30
0.0
 11
401.9095925107947
 21
319.1125495682372
 31
0.0
  0
LINE
  5
141
330
4C
100
AcDbEntity
  8
1
  6
Continuous
 62
     7
100
AcDbLine
 10
461.9095925107948
 20
360.6125495682372
 30
0.0
 11
437.9095925107949
 21
360.6125495682372
 31
0.0
  0
LINE
  5
142
330
4C
100
AcDbEntity
  8
1
  6
Continuous
 62
     7
100
AcDbLine
 10
461.9095925107948
 20
358.8804987606686
 30
0.0
 11
437.9095925107947
 21
358.8804987606686
 31
0.0
  0
LINE
  5
143
330
4C
100
AcDbEntity
  8
1
  6
Continuous
 62
     7
100
AcDbLine
 10
496.6416433183639
 20
347.1125495682372
 30
0.0
 11
496.6416433183639
 21
326.1125495682372
 31
0.0
  0
LINE
  5
144
330
4C
100
AcDbEntity
  8
1
  6
Continuous
 62
     7
100
AcDbLine
 10
494.9095925107948
 20
326.1125495682372
 30
0.0
 11
494.9095925107948
 21
347.1125495682372
 31
0.0
  0
LINE
  5
145
330
4C
100
AcDbEntity
  8
1
  6
Continuous
 62
     7
100
AcDbLine
 10
492.4095925107948
 20
349.3625495682372
 30
0.0
 11
492.4095925107948
 21
323.8625495682372
 31
0.0
  0
LINE
  5
146
330
4C
100
AcDbEntity
  8
1
  6
Continuous
 62
     7
100
AcDbLine
 10
507.9095925107948
 20
347.1125495682372
 30
0.0
 11
507.9095925107948
 21
326.1125495682372
 31
0.0
  0
LINE
  5
147
330
4C
100
AcDbEntity
  8
1
  6
Continuous
 62
     7
100
AcDbLine
 10
162.8932375455001
 20
320.8446003758061
 30
0.0
 11
162.8932375455001
 21
320.9724946235972
 31
0.0
  0
LINE
  5
148
330
4C
100
AcDbEntity
  8
1
  6
Continuous
 62
     7
100
AcDbLine
 10
163.8932375455001
 20
362.1125495682372
 30
0.0
 11
163.8932375455001
 21
358.8804987606686
 31
0.0
  0
LINE
  5
149
330
4C
100
AcDbEntity
  8
1
  6
Continuous
 62
     2
100
AcDbLine
 10
164.8932375455001
 20
360.6125495682372
 30
0.0
 11
164.8932375455003
 21
362.1125495682372
 31
0.0
  0
LINE
  5
14A
330
4C
100
AcDbEntity
  8
1
  6
Continuous
 62
     2
100
AcDbLine
 10
163.8932375455001
 20
358.8804987606686
 30
0.0
 11
164.8932375455001
 21
360.6125495682372
 31
0.0
  0
LINE
  5
14B
330
4C
100
AcDbEntity
  8
1
  6
Continuous
 62
     7
100
AcDbLine
 10
187.8932375455001
 20
358.8804987606686
 30
0.0
 11
187.8932375455001
 21
362.1125495682372
 31
0.0
  0
LINE
  5
14C
330
4C
100
AcDbEntity
  8
1
  6
Continuous
 62
     2
100
AcDbLine
 10
186.8932375455001
 20
360.6125495682372
 30
0.0
 11
187.8932375455001
 21
358.8804987606686
 31
0.0
  0
LINE
  5
14D
330
4C
100
AcDbEntity
  8
1
  6
Continuous
 62
     7
100
AcDbLine
 10
187.8932375455001
 20
358.8804987606686
 30
0.0
 11
188.1858147451493
 21
358.8804987606686
 31
0.0
  0
LINE
  5
14E
330
4C
100
AcDbEntity
  8
1
  6
Continuous
 62
     7
100
AcDbLine
 10
163.6006603458523
 20
358.8804987606686
 30
0.0
 11
163.8932375455001
 21
358.8804987606686
 31
0.0
  0
LINE
  5
14F
330
4C
100
AcDbEntity
  8
1
  6
Continuous
 62
     2
100
AcDbLine
 10
163.8932375455001
 20
318.6125495682372
 30
0.0
 11
163.8932375455001
 21
319.1125495682372
 31
0.0
  0
LINE
  5
150
330
4C
100
AcDbEntity
  8
1
  6
Continuous
 62
     7
100
AcDbLine
 10
162.8932375455001
 20
318.6125495682372
 30
0.0
 11
162.8932375455001
 21
320.8446003758061
 31
0.0
  0
LINE
  5
151
330
4C
100
AcDbEntity
  8
1
  6
Continuous
 62
     2
100
AcDbLine
 10
162.8932375455001
 20
320.8446003758061
 30
0.0
 11
163.8932375455001
 21
319.1125495682372
 31
0.0
  0
LINE
  5
152
330
4C
100
AcDbEntity
  8
1
  6
Continuous
 62
     2
100
AcDbLine
 10
186.8932375455001
 20
362.1125495682372
 30
0.0
 11
186.8932375455001
 21
360.6125495682372
 31
0.0
  0
LINE
  5
153
330
4C
100
AcDbEntity
  8
1
  6
Continuous
 62
     7
100
AcDbLine
 10
188.1858147451493
 20
358.8804987606686
 30
0.0
 11
188.8932282153312
 21
336.5969744499597
 31
0.0
  0
LINE
  5
154
330
4C
100
AcDbEntity
  8
1
  6
Continuous
 62
     7
100
AcDbLine
 10
163.8720432626811
 20
324.39831463373
 30
0.0
 11
162.8932375455001
 21
320.9724946235972
 31
0.0
  0
LINE
  5
155
330
4C
100
AcDbEntity
  8
1
  6
Continuous
 62
     7
100
AcDbLine
 10
188.8932375455003
 20
319.1125495682372
 30
0.0
 11
162.8932375455001
 21
319.1125495682372
 31
0.0
  0
LINE
  5
156
330
4C
100
AcDbEntity
  8
1
  6
Continuous
 62
     7
100
AcDbLine
 10
187.8932375455001
 20
360.6125495682372
 30
0.0
 11
163.8932375455003
 21
360.6125495682372
 31
0.0
  0
LINE
  5
157
330
4C
100
AcDbEntity
  8
1
  6
Continuous
 62
     7
100
AcDbLine
 10
187.8932375455001
 20
358.8804987606686
 30
0.0
 11
163.8932375455001
 21
358.8804987606686
 31
0.0
  0
LINE
  5
158
330
4C
100
AcDbEntity
  8
1
  6
Continuous
 62
     7
100
AcDbLine
 10
162.8932468756693
 20
336.5969744499597
 30
0.0
 11
163.6006603458512
 21
358.8804987606686
 31
0.0
  0
LINE
  5
159
330
4C
100
AcDbEntity
  8
1
  6
Continuous
 62
     7
100
AcDbLine
 10
188.8932375455004
 20
320.9724946235972
 30
0.0
 11
188.8932375455004
 21
320.8446003758061
 31
0.0
  0
LINE
  5
15A
330
4C
100
AcDbEntity
  8
1
  6
Continuous
 62
     2
100
AcDbLine
 10
187.8932375455004
 20
319.1125495682372
 30
0.0
 11
187.8932375455004
 21
318.6125495682372
 31
0.0
  0
LINE
  5
15B
330
4C
100
AcDbEntity
  8
1
  6
Continuous
 62
     7
100
AcDbLine
 10
188.8932375455004
 20
320.8446003758061
 30
0.0
 11
188.8932375455004
 21
318.6125495682372
 31
0.0
  0
LINE
  5
15C
330
4C
100
AcDbEntity
  8
1
  6
Continuous
 62
     2
100
AcDbLine
 10
187.8932375455004
 20
319.1125495682372
 30
0.0
 11
188.8932375455004
 21
320.8446003758061
 31
0.0
  0
LINE
  5
15D
330
4C
100
AcDbEntity
  8
1
  6
Continuous
 62
     7
100
AcDbLine
 10
188.8932375455004
 20
320.9724946235972
 30
0.0
 11
187.9144318283194
 21
324.39831463373
 31
0.0
  0
LINE
  5
15E
330
4C
100
AcDbEntity
  8
1
  6
PHANTOM
 62
     4
100
AcDbLine
 10
159.8932375455005
 20
670.3292200641163
 30
0.0
 11
191.8932375455003
 21
670.3292200641163
 31
0.0
  0
LINE
  5
15F
330
4C
100
AcDbEntity
  8
1
  6
PHANTOM
 62
     4
100
AcDbLine
 10
191.8932375455005
 20
635.3292200641163
 30
0.0
 11
159.8932375455003
 21
635.3292200641163
 31
0.0
  0
LINE
  5
160
330
4C
100
AcDbEntity
  8
1
  6
PHANTOM
 62
     4
100
AcDbLine
 10
175.8932375455003
 20
619.329220064116
 30
0.0
 11
175.8932375455003
 21
732.3292200641163
 31
0.0
  0
LINE
  5
161
330
4C
100
AcDbEntity
  8
1
  6
Continuous
 62
     7
100
AcDbLine
 10
165.3932375455003
 20
728.3292200641163
 30
0.0
 11
186.3932375455003
 21
728.3292200641163
 31
0.0
  0
LINE
  5
162
330
4C
100
AcDbEntity
  8
1
  6
Continuous
 62
     7
100
AcDbLine
 10
165.3932375455003
 20
717.0612708716853
 30
0.0
 11
186.3932375455003
 21
717.0612708716853
 31
0.0
  0
LINE
  5
163
330
4C
100
AcDbEntity
  8
1
  6
Continuous
 62
     7
100
AcDbLine
 10
186.3932375455003
 20
728.3292200641163
 30
0.0
 11
186.3932375455003
 21
715.3292200641163
 31
0.0
  0
LINE
  5
164
330
4C
100
AcDbEntity
  8
1
  6
Continuous
 62
     2
100
AcDbLine
 10
185.3932375455003
 20
717.0612708716853
 30
0.0
 11
186.3932375455003
 21
715.3292200641163
 31
0.0
  0
LINE
  5
165
330
4C
100
AcDbEntity
  8
1
  6
Continuous
 62
     2
100
AcDbLine
 10
185.3932375455003
 20
729.3292200641163
 30
0.0
 11
185.3932375455003
 21
717.0612708716853
 31
0.0
  0
LINE
  5
166
330
4C
100
AcDbEntity
  8
1
  6
Continuous
 62
     7
100
AcDbLine
 10
186.3932375455003
 20
728.3292200641163
 30
0.0
 11
185.3932375455003
 21
729.3292200641163
 31
0.0
  0
LINE
  5
167
330
4C
100
AcDbEntity
  8
1
  6
Continuous
 62
     7
100
AcDbLine
 10
198.8932375455003
 20
715.3292200641163
 30
0.0
 11
198.8932375455003
 21
713.3292200641163
 31
0.0
  0
LINE
  5
168
330
4C
100
AcDbEntity
  8
1
  6
Continuous
 62
     2
100
AcDbLine
 10
166.3932375455003
 20
717.0612708716853
 30
0.0
 11
166.3932375455003
 21
729.3292200641163
 31
0.0
  0
LINE
  5
169
330
4C
100
AcDbEntity
  8
1
  6
Continuous
 62
     7
100
AcDbLine
 10
165.3932375455003
 20
715.3292200641163
 30
0.0
 11
165.3932375455003
 21
728.3292200641163
 31
0.0
  0
LINE
  5
16A
330
4C
100
AcDbEntity
  8
1
  6
Continuous
 62
     7
100
AcDbLine
 10
166.3932375455003
 20
729.3292200641163
 30
0.0
 11
165.3932375455003
 21
728.3292200641163
 31
0.0
  0
LINE
  5
16B
330
4C
100
AcDbEntity
  8
1
  6
Continuous
 62
     2
100
AcDbLine
 10
165.3932375455003
 20
715.3292200641163
 30
0.0
 11
166.3932375455003
 21
717.0612708716853
 31
0.0
  0
LINE
  5
16C
330
4C
100
AcDbEntity
  8
1
  6
Continuous
 62
     7
100
AcDbLine
 10
152.8932375455004
 20
715.3292200641163
 30
0.0
 11
198.8932375455003
 21
715.3292200641163
 31
0.0
  0
LINE
  5
16D
330
4C
100
AcDbEntity
  8
1
  6
Continuous
 62
     7
100
AcDbLine
 10
152.8932375455004
 20
715.3292200641163
 30
0.0
 11
152.8932375455004
 21
713.3292200641163
 31
0.0
  0
LINE
  5
16E
330
4C
100
AcDbEntity
  8
1
  6
Continuous
 62
     7
100
AcDbLine
 10
198.3932375455003
 20
712.8292200641163
 30
0.0
 11
153.3932375455003
 21
712.8292200641163
 31
0.0
  0
LINE
  5
16F
330
4C
100
AcDbEntity
  8
1
  6
Continuous
 62
     7
100
AcDbLine
 10
166.3932375455003
 20
729.3292200641163
 30
0.0
 11
185.3932375455003
 21
729.3292200641163
 31
0.0
  0
LINE
  5
170
330
4C
100
AcDbEntity
  8
1
  6
Continuous
 62
     7
100
AcDbLine
 10
166.8932375455003
 20
708.8292200641163
 30
0.0
 11
166.8932375455003
 21
691.8698792926541
 31
0.0
  0
LINE
  5
171
330
4C
100
AcDbEntity
  8
1
  6
Continuous
 62
     7
100
AcDbLine
 10
164.1885252667643
 20
636.6225273744944
 30
0.0
 11
167.392717757767
 21
651.7899766331893
 31
0.0
  0
LINE
  5
172
330
4C
100
AcDbEntity
  8
1
  6
Continuous
 62
     7
100
AcDbLine
 10
184.8932375455005
 20
691.8698792926535
 30
0.0
 11
184.8932375455003
 21
708.8292200641163
 31
0.0
  0
LINE
  5
173
330
4C
100
AcDbEntity
  8
1
  6
Continuous
 62
     7
100
AcDbLine
 10
184.3937573332337
 20
651.7899766331893
 30
0.0
 11
187.5979498242363
 21
636.6225273744944
 31
0.0
  0
ARC
  5
174
330
4C
100
AcDbEntity
  8
1
  6
Continuous
 62
     7
100
AcDbCircle
 10
428.4597680058681
 20
354.0700298122632
 30
0.0
 40
9.000000000003894
100
AcDbArc
 50
-87.8059549002254
 51
-1.81830296445973
  0
ARC
  5
175
330
4C
100
AcDbEntity
  8
1
  6
Continuous
 62
     7
100
AcDbCircle
 10
430.6802372724561
 20
296.1125495677778
 30
0.0
 40
49.0000000004597
100
AcDbArc
 50
92.19404509977881
 51
99.36066212030438
  0
ARC
  5
176
330
4C
100
AcDbEntity
  8
1
  6
Continuous
 62
     7
100
AcDbCircle
 10
426.6140230847871
 20
320.7796511851723
 30
0.0
 40
24.00000000000211
100
AcDbArc
 50
99.36066212030305
 51
171.3280051740369
  0
ARC
  5
177
330
4C
100
AcDbEntity
  8
1
  6
Continuous
 62
     7
100
AcDbCircle
 10
488.4095925107948
 20
349.3625495682372
 30
0.0
 40
4.0
100
AcDbArc
 50
-90.0
 51
0.0
  0
ARC
  5
178
330
4C
100
AcDbEntity
  8
1
  6
Continuous
 62
     7
100
AcDbCircle
 10
488.4095925107948
 20
323.8625495682372
 30
0.0
 40
4.0
100
AcDbArc
 50
0.0
 51
90.0
  0
ARC
  5
179
330
4C
100
AcDbEntity
  8
1
  6
Continuous
 62
     7
100
AcDbCircle
 10
430.868627135216
 20
324.1184705346134
 30
0.0
 40
3.999999999997971
100
AcDbArc
 50
93.11786651757498
 51
173.972686104896
  0
ARC
  5
17A
330
4C
100
AcDbEntity
  8
1
  6
Continuous
 62
     7
100
AcDbCircle
 10
449.9095925107947
 20
352.6125495682371
 30
0.0
 40
28.99999999999987
100
AcDbArc
 50
-117.4392401506813
 51
-68.30528397761421
  0
ARC
  5
17B
330
4C
100
AcDbEntity
  8
1
  6
Continuous
 62
     7
100
AcDbCircle
 10
187.5976681194925
 20
320.7796511851723
 30
0.0
 40
24.0000000000015
100
AcDbArc
 50
152.1298826058551
 51
171.3280051740369
  0
ARC
  5
17C
330
4C
100
AcDbEntity
  8
1
  6
Continuous
 62
     7
100
AcDbCircle
 10
175.8932375455003
 20
336.6125495682372
 30
0.0
 40
12.99999999999998
100
AcDbArc
 50
-34.31009279338959
 51
-0.06864528893923
  0
ARC
  5
17D
330
4C
100
AcDbEntity
  8
1
  6
Continuous
 62
     7
100
AcDbCircle
 10
175.8932375455003
 20
336.6125495682372
 30
0.0
 40
13.0
100
AcDbArc
 50
180.0
 51
-179.9313547110608
  0
ARC
  5
17E
330
4C
100
AcDbEntity
  8
1
  6
Continuous
 62
     7
100
AcDbCircle
 10
164.188806971508
 20
320.7796511851723
 30
0.0
 40
24.00000000000156
100
AcDbArc
 50
8.67199482596315
 51
27.87011739414487
  0
ARC
  5
17F
330
4C
100
AcDbEntity
  8
1
  6
Continuous
 62
     7
100
AcDbCircle
 10
175.8932375455003
 20
336.6125495682372
 30
0.0
 40
13.00000000000011
100
AcDbArc
 50
-179.9313547110608
 51
-145.6899072066107
  0
ARC
  5
180
330
4C
100
AcDbEntity
  8
0
  6
Continuous
 62
     7
100
AcDbCircle
 10
175.8932375455003
 20
336.6125495682372
 30
0.0
 40
22.99999999999985
100
AcDbArc
 50
-53.10362499676104
 51
0.0
  0
ARC
  5
181
330
4C
100
AcDbEntity
  8
0
  6
Continuous
 62
     7
100
AcDbCircle
 10
175.8932375455003
 20
336.6125495682372
 30
0.0
 40
23.00000000000014
100
AcDbArc
 50
122.5778011728608
 51
-126.8963750032392
  0
ARC
  5
182
330
4C
100
AcDbEntity
  8
0
  6
Continuous
 62
     7
100
AcDbCircle
 10
175.8932375455003
 20
336.6125495682372
 30
0.0
 40
23.0
100
AcDbArc
 50
0.0
 51
57.42219882713951
  0
ARC
  5
183
330
4C
100
AcDbEntity
  8
1
  6
Continuous
 62
     7
100
AcDbCircle
 10
175.8932375455003
 20
336.6125495682372
 30
0.0
 40
8.351995935906075
100
AcDbArc
 50
90.0
 51
179.8094249769217
  0
ARC
  5
184
330
4C
100
AcDbEntity
  8
1
  6
Continuous
 62
     7
100
AcDbCircle
 10
175.8932375455003
 20
336.6125495682372
 30
0.0
 40
8.351995935906039
100
AcDbArc
 50
0.19057502307832
 51
90.0
  0
ARC
  5
185
330
4C
100
AcDbEntity
  8
1
  6
Continuous
 62
     7
100
AcDbCircle
 10
175.8932375455003
 20
635.3292200641163
 30
0.0
 40
13.00000000000001
100
AcDbArc
 50
142.425063810331
 51
37.57493618966879
  0
ARC
  5
186
330
4C
100
AcDbEntity
  8
1
  6
Continuous
 62
     7
100
AcDbCircle
 10
188.8932375455003
 20
708.8292200641163
 30
0.0
 40
4.0
100
AcDbArc
 50
90.0
 51
180.0
  0
ARC
  5
187
330
4C
100
AcDbEntity
  8
1
  6
Continuous
 62
     7
100
AcDbCircle
 10
162.8932375455003
 20
708.8292200641163
 30
0.0
 40
4.0
100
AcDbArc
 50
0.0
 51
90.0
  0
ARC
  5
188
330
4C
100
AcDbEntity
  8
1
  6
Continuous
 62
     7
100
AcDbCircle
 10
191.8932375455003
 20
670.3292200641163
 30
0.0
 40
28.99999999999999
100
AcDbArc
 50
-163.6028189727019
 51
-152.5607598493187
  0
ARC
  5
189
330
4C
100
AcDbEntity
  8
1
  6
Continuous
 62
     7
100
AcDbCircle
 10
159.8932375455005
 20
670.3292200641163
 30
0.0
 40
28.99999999999972
100
AcDbArc
 50
16.39718102729572
 51
21.03946978131665
  0
ARC
  5
18A
330
4C
100
AcDbEntity
  8
1
  6
Continuous
 62
     7
100
AcDbCircle
 10
159.8932375455005
 20
670.3292200641163
 30
0.0
 40
28.99999999999995
100
AcDbArc
 50
-27.43924015068135
 51
-16.39718102729665
  0
ARC
  5
18B
330
4C
100
AcDbEntity
  8
1
  6
Continuous
 62
     7
100
AcDbCircle
 10
191.8932375455003
 20
670.3292200641163
 30
0.0
 40
28.99999999999993
100
AcDbArc
 50
158.9605302186828
 51
163.6028189727033
  0
ARC
  5
18C
330
4C
100
AcDbEntity
  8
1
  6
Continuous
 62
     7
100
AcDbCircle
 10
492.9095925107948
 20
359.1125495682372
 30
0.0
 40
0.5
100
AcDbArc
 50
90.0
 51
180.0
  0
ARC
  5
18D
330
4C
100
AcDbEntity
  8
1
  6
Continuous
 62
     7
100
AcDbCircle
 10
492.9095925107948
 20
314.1125495682372
 30
0.0
 40
0.4999999999999432
100
AcDbArc
 50
180.0
 51
-90.0
  0
ARC
  5
18E
330
4C
100
AcDbEntity
  8
1
  6
Continuous
 62
     7
100
AcDbCircle
 10
431.4772839196279
 20
317.1125495682372
 30
0.0
 40
11.00000000000005
100
AcDbArc
 50
62.5607598493189
 51
90.0
  0
ARC
  5
18F
330
4C
100
AcDbEntity
  8
1
  6
Continuous
 62
     7
100
AcDbCircle
 10
472.0892566200638
 20
296.8625495682371
 30
0.0
 40
31.0
100
AcDbArc
 50
90.00000000000168
 51
111.6947160223879
  0
ARC
  5
190
330
4C
100
AcDbEntity
  8
1
  6
Continuous
 62
     7
100
AcDbCircle
 10
471.3497359806419
 20
354.3749824171434
 30
0.0
 40
8.999999999998732
100
AcDbArc
 50
-178.181697035548
 51
-91.92633614020365
  0
ARC
  5
191
330
4C
100
AcDbEntity
  8
1
  6
Continuous
 62
     7
100
AcDbCircle
 10
472.0892566200638
 20
376.3625495682375
 30
0.0
 40
30.99999999999998
100
AcDbArc
 50
-91.92633614020622
 51
-90.0
  0
ARC
  5
192
330
4C
100
AcDbEntity
  8
1
  6
Continuous
 62
     7
100
AcDbCircle
 10
157.5413431267883
 20
336.6735911603029
 30
0.0
 40
10.00000000000013
100
AcDbArc
 50
-27.87011739414572
 51
-0.1905750230771
  0
ARC
  5
193
330
4C
100
AcDbEntity
  8
1
  6
Continuous
 62
     7
100
AcDbCircle
 10
194.2451319642122
 20
336.6735911603029
 30
0.0
 40
9.999999999999954
100
AcDbArc
 50
-179.8094249769229
 51
-152.1298826058542
  0
ARC
  5
194
330
4C
100
AcDbEntity
  8
1
  6
Continuous
 62
     7
100
AcDbCircle
 10
198.3932375455003
 20
713.3292200641163
 30
0.0
 40
0.5
100
AcDbArc
 50
-90.0
 51
0.0
  0
ARC
  5
195
330
4C
100
AcDbEntity
  8
1
  6
Continuous
 62
     7
100
AcDbCircle
 10
153.3932375455003
 20
713.3292200641163
 30
0.0
 40
0.4999999999999147
100
AcDbArc
 50
180.0
 51
-90.0
  0
ARC
  5
196
330
4C
100
AcDbEntity
  8
1
  6
Continuous
 62
     7
100
AcDbCircle
 10
156.3932375455003
 20
651.8969114729493
 30
0.0
 40
11.00000000000004
100
AcDbArc
 50
-0.55700104626343
 51
27.4392401506813
  0
ARC
  5
197
330
4C
100
AcDbEntity
  8
1
  6
Continuous
 62
     7
100
AcDbCircle
 10
195.3932375455003
 20
651.8969114729493
 30
0.0
 40
10.99999999999995
100
AcDbArc
 50
152.5607598493183
 51
-179.4429989537366
  0
ARC
  5
198
330
4C
100
AcDbEntity
  8
0
  6
Continuous
 62
     7
100
AcDbCircle
 10
135.8932375455004
 20
691.8698792926542
 30
0.0
 40
30.99999999999997
100
AcDbArc
 50
-21.03946978131722
 51
-0.00000000000021
  0
ARC
  5
199
330
4C
100
AcDbEntity
  8
0
  6
Continuous
 62
     7
100
AcDbCircle
 10
215.8932375455005
 20
691.8698792926538
 30
0.0
 40
31.0
100
AcDbArc
 50
-179.9999999999996
 51
-158.9605302186831
  0
ENDBLK
  5
4E
330
4C
100
AcDbEntity
  8
0
100
AcDbBlockEnd
  0
BLOCK
  5
50
330
4F
100
AcDbEntity
  8
0
100
AcDbBlockBegin
  2
32-1-16
 70
     0
 71
     0
 10
118.3638526751261
 20
517.0983816983463
 30
0.0
  3
32-1-16
  1

  0
LINE
  5
19A
330
4F
100
AcDbEntity
  8
1
  6
Continuous
 62
     7
100
AcDbLine
 10
414.9095925107949
 20
308.6125495682372
 30
0.0
 11
406.1112705317252
 21
308.6125495682372
 31
0.0
  0
LINE
  5
19B
330
4F
100
AcDbEntity
  8
1
  6
Continuous
 62
     7
100
AcDbLine
 10
405.1416433183637
 20
307.6125495682372
 30
0.0
 11
414.9095925107949
 21
307.6125495682372
 31
0.0
  0
LINE
  5
19C
330
4F
100
AcDbEntity
  8
1
  6
Continuous
 62
     7
100
AcDbLine
 10
403.4095925107949
 20
308.6125495682372
 30
0.0
 11
403.3515714490643
 21
308.6125495682372
 31
0.0
  0
LINE
  5
19D
330
4F
100
AcDbEntity
  8
1
  6
Continuous
 62
     7
100
AcDbLine
 10
401.6095925107948
 20
317.6125495682372
 30
0.0
 11
401.7225925107948
 21
317.6125495682372
 31
0.0
  0
LINE
  5
19E
330
4F
100
AcDbEntity
  8
1
  6
Continuous
 62
     7
100
AcDbLine
 10
414.9095925107949
 20
317.6125495682372
 30
0.0
 11
401.6095925107948
 21
317.6125495682372
 31
0.0
  0
LINE
  5
19F
330
4F
100
AcDbEntity
  8
1
  6
Continuous
 62
     7
100
AcDbLine
 10
189.8932375455003
 20
641.9812874119411
 30
0.0
 11
189.8932375455003
 21
628.6771527162911
 31
0.0
  0
LINE
  5
1A0
330
4F
100
AcDbEntity
  8
1
  6
Continuous
 62
     7
100
AcDbLine
 10
161.8932375455003
 20
641.9812874119411
 30
0.0
 11
161.8932375455003
 21
628.6771527162911
 31
0.0
  0
LINE
  5
1A1
330
4F
100
AcDbEntity
  8
1
  6
Continuous
 62
     7
100
AcDbLine
 10
163.1323782345988
 20
626.5308980850465
 30
0.0
 11
174.6540968564018
 21
619.8788307372215
 31
0.0
  0
LINE
  5
1A2
330
4F
100
AcDbEntity
  8
1
  6
Continuous
 62
     7
100
AcDbLine
 10
177.1323782345988
 20
619.8788307372215
 30
0.0
 11
188.6540968564018
 21
626.5308980850465
 31
0.0
  0
LINE
  5
1A3
330
4F
100
AcDbEntity
  8
1
  6
Continuous
 62
     7
100
AcDbLine
 10
423.7079144898645
 20
308.6125495682372
 30
0.0
 11
414.9095925107949
 21
308.6125495682372
 31
0.0
  0
LINE
  5
1A4
330
4F
100
AcDbEntity
  8
1
  6
Continuous
 62
     7
100
AcDbLine
 10
414.9095925107949
 20
307.6125495682372
 30
0.0
 11
424.677541703226
 21
307.6125495682372
 31
0.0
  0
LINE
  5
1A5
330
4F
100
AcDbEntity
  8
1
  6
Continuous
 62
     7
100
AcDbLine
 10
426.4676135725254
 20
308.6125495682372
 30
0.0
 11
426.4095925107949
 21
308.6125495682372
 31
0.0
  0
LINE
  5
1A6
330
4F
100
AcDbEntity
  8
1
  6
Continuous
 62
     7
100
AcDbLine
 10
428.0965925107949
 20
317.6125495682372
 30
0.0
 11
428.2095925107949
 21
317.6125495682372
 31
0.0
  0
LINE
  5
1A7
330
4F
100
AcDbEntity
  8
1
  6
Continuous
 62
     7
100
AcDbLine
 10
428.2095925107949
 20
317.6125495682372
 30
0.0
 11
414.9095925107949
 21
317.6125495682372
 31
0.0
  0
LINE
  5
1A8
330
4F
100
AcDbEntity
  8
1
  6
Continuous
 62
     7
100
AcDbLine
 10
175.8932375455001
 20
309.6125495682372
 30
0.0
 11
167.0949155664306
 21
309.6125495682372
 31
0.0
  0
LINE
  5
1A9
330
4F
100
AcDbEntity
  8
1
  6
Continuous
 62
     7
100
AcDbLine
 10
166.125288353069
 20
308.6125495682372
 30
0.0
 11
175.8932375455001
 21
308.6125495682372
 31
0.0
  0
LINE
  5
1AA
330
4F
100
AcDbEntity
  8
1
  6
Continuous
 62
     7
100
AcDbLine
 10
164.3932375455001
 20
309.6125495682372
 30
0.0
 11
164.3352164837696
 21
309.6125495682372
 31
0.0
  0
LINE
  5
1AB
330
4F
100
AcDbEntity
  8
1
  6
Continuous
 62
     7
100
AcDbLine
 10
175.8932375455001
 20
318.6125495682372
 30
0.0
 11
162.5932375455002
 21
318.6125495682372
 31
0.0
  0
LINE
  5
1AC
330
4F
100
AcDbEntity
  8
1
  6
Continuous
 62
     7
100
AcDbLine
 10
161.8932375455003
 20
318.0408007470671
 30
0.0
 11
161.8932375455003
 21
310.8993723185241
 31
0.0
  0
LINE
  5
1AD
330
4F
100
AcDbEntity
  8
1
  6
Continuous
 62
     7
100
AcDbLine
 10
184.6915595245699
 20
309.6125495682372
 30
0.0
 11
175.8932375455001
 21
309.6125495682372
 31
0.0
  0
LINE
  5
1AE
330
4F
100
AcDbEntity
  8
1
  6
Continuous
 62
     7
100
AcDbLine
 10
175.8932375455001
 20
308.6125495682372
 30
0.0
 11
185.6611867379314
 21
308.6125495682372
 31
0.0
  0
LINE
  5
1AF
330
4F
100
AcDbEntity
  8
1
  6
Continuous
 62
     7
100
AcDbLine
 10
187.4512586072309
 20
309.6125495682372
 30
0.0
 11
187.3932375455003
 21
309.6125495682372
 31
0.0
  0
LINE
  5
1B0
330
4F
100
AcDbEntity
  8
1
  6
Continuous
 62
     7
100
AcDbLine
 10
189.1932375455003
 20
318.6125495682372
 30
0.0
 11
175.8932375455001
 21
318.6125495682372
 31
0.0
  0
LINE
  5
1B1
330
4F
100
AcDbEntity
  8
1
  6
Continuous
 62
     7
100
AcDbLine
 10
189.8932375455003
 20
310.8993723185241
 30
0.0
 11
189.8932375455003
 21
318.0408007470671
 31
0.0
  0
LINE
  5
1B2
330
4F
100
AcDbEntity
  8
1
  6
Continuous
 62
     7
100
AcDbLine
 10
185.64553334864
 20
645.8645369942661
 30
0.0
 11
188.6540968564018
 21
644.1275420431857
 31
0.0
  0
LINE
  5
1B3
330
4F
100
AcDbEntity
  8
1
  6
Continuous
 62
     7
100
AcDbLine
 10
166.1409417423607
 20
645.8645369942663
 30
0.0
 11
163.1323782345988
 21
644.1275420431857
 31
0.0
  0
ARC
  5
1B4
330
4F
100
AcDbEntity
  8
1
  6
Continuous
 62
     7
100
AcDbCircle
 10
404.4095925107949
 20
313.4700865327957
 30
0.0
 40
5.000000000000002
100
AcDbArc
 50
124.0557977425688
 51
-105.3375576695554
  0
ARC
  5
1B5
330
4F
100
AcDbEntity
  8
1
  6
Continuous
 62
     7
100
AcDbCircle
 10
175.8932375455003
 20
635.3292200641162
 30
0.0
 40
15.49999999999998
100
AcDbArc
 50
25.4146209151608
 51
34.58537908483877
  0
ARC
  5
1B6
330
4F
100
AcDbEntity
  8
1
  6
Continuous
 62
     7
100
AcDbCircle
 10
175.8932375455003
 20
635.3292200641162
 30
0.0
 40
15.50000000000001
100
AcDbArc
 50
145.4146209151613
 51
154.5853790848392
  0
ARC
  5
1B7
330
4F
100
AcDbEntity
  8
1
  6
Continuous
 62
     7
100
AcDbCircle
 10
175.8932375455003
 20
635.3292200641162
 30
0.0
 40
15.50000000000003
100
AcDbArc
 50
-154.5853790848388
 51
-145.414620915161
  0
ARC
  5
1B8
330
4F
100
AcDbEntity
  8
1
  6
Continuous
 62
     7
100
AcDbCircle
 10
175.8932375455003
 20
635.3292200641162
 30
0.0
 40
15.49999999999999
100
AcDbArc
 50
-94.58537908483893
 51
-90.0
  0
ARC
  5
1B9
330
4F
100
AcDbEntity
  8
1
  6
Continuous
 62
     7
100
AcDbCircle
 10
175.8932375455003
 20
635.3292200641162
 30
0.0
 40
15.50000000000005
100
AcDbArc
 50
-34.58537908483911
 51
-25.41462091516118
  0
ARC
  5
1BA
330
4F
100
AcDbEntity
  8
1
  6
Continuous
 62
     7
100
AcDbCircle
 10
175.8932375455003
 20
635.3292200641162
 30
0.0
 40
15.5
100
AcDbArc
 50
-90.0
 51
-85.41462091516117
  0
ARC
  5
1BB
330
4F
100
AcDbEntity
  8
1
  6
Continuous
 62
     7
100
AcDbCircle
 10
425.4095925107949
 20
313.4700865327957
 30
0.0
 40
5.0
100
AcDbArc
 50
-74.66244233044527
 51
55.94420225743171
  0
ARC
  5
1BC
330
4F
100
AcDbEntity
  8
1
  6
Continuous
 62
     7
100
AcDbCircle
 10
165.3932375455001
 20
314.4700865327957
 30
0.0
 40
4.999999999999958
100
AcDbArc
 50
-134.427004000803
 51
-105.3375576695544
  0
ARC
  5
1BD
330
4F
100
AcDbEntity
  8
1
  6
Continuous
 62
     7
100
AcDbCircle
 10
165.3932375455001
 20
314.4700865327957
 30
0.0
 40
4.999999999999922
100
AcDbArc
 50
124.0557977425675
 51
134.4270040008039
  0
ARC
  5
1BE
330
4F
100
AcDbEntity
  8
1
  6
Continuous
 62
     7
100
AcDbCircle
 10
186.3932375455003
 20
314.4700865327957
 30
0.0
 40
4.999999999999985
100
AcDbArc
 50
-74.66244233044588
 51
-45.57299599919539
  0
ARC
  5
1BF
330
4F
100
AcDbEntity
  8
1
  6
Continuous
 62
     7
100
AcDbCircle
 10
186.3932375455003
 20
314.4700865327957
 30
0.0
 40
5.000000000000016
100
AcDbArc
 50
45.57299599919448
 51
55.94420225743197
  0
SPLINE
  5
1C0
330
4F
100
AcDbEntity
  8
1
  6
Continuous
 62
     7
100
AcDbSpline
210
0.0
220
0.0
230
1.0
 70
    11
 71
     3
 72
    79
 73
    75
 74
    73
 42
0.0000000001
 43
0.0000000001
 44
0.00000001
 40
0.0
 40
0.0
 40
0.0
 40
0.0
 40
0.3210813131182274
 40
0.6418951451339832
 40
0.9828988941043064
 40
1.323531056220968
 40
1.692967059529031
 40
2.062075182676642
 40
2.463733858567255
 40
2.865152866614726
 40
3.298564783375394
 40
3.731815227792656
 40
4.193131264618941
 40
4.654344171660602
 40
5.137240970539569
 40
5.620077103492158
 40
6.116559529336329
 40
6.613013907632129
 40
7.114121234392305
 40
7.61522856115248
 40
8.111682939448199
 40
8.608165365292328
 40
9.09100149824485
 40
9.573898297123844
 40
10.03511120416562
 40
10.49642724099193
 40
10.92967768540914
 40
11.36308960216983
 40
11.76450861021733
 40
12.16616728610806
 40
12.53527540925565
 40
12.90471141256368
 40
13.24534357468022
 40
13.58634732365053
 40
13.90716115566628
 40
14.22824246878458
 40
14.54200445402326
 40
14.85576643926192
 40
15.1768477523802
 40
15.497661584396
 40
15.83866533336643
 40
16.17929749548294
 40
16.54873349879095
 40
16.91784162193852
 40
17.31950029782928
 40
17.72091930587675
 40
18.15433122263739
 40
18.58758166705467
 40
19.04889770388098
 40
19.51011061092278
 40
19.99300740980177
 40
20.47584354275434
 40
20.97232596859847
 40
21.46878034689413
 40
21.96988767365428
 40
22.47099500041448
 40
22.96744937871032
 40
23.46393180455438
 40
23.94676793750686
 40
24.42966473638584
 40
24.89087764342767
 40
25.352193680254
 40
25.78544412467124
 40
26.21885604143188
 40
26.62027504947936
 40
27.02193372537016
 40
27.39104184851771
 40
27.76047785182576
 40
28.10111001394224
 40
28.44211376291264
 40
28.76292759492841
 40
29.08400890804669
 40
29.39777089328535
 40
29.71153287852407
 40
29.71153287852407
 40
29.71153287852407
 40
29.71153287852407
 10
177.1548692164008
 20
314.7830413843614
 30
0.0
 10
177.1741490675975
 20
314.8885024698733
 30
0.0
 10
177.2126927086521
 20
315.0993367851229
 30
0.0
 10
177.3277460207283
 20
315.407676409402
 30
0.0
 10
177.4801344870648
 20
315.7057645028491
 30
0.0
 10
177.6772111314618
 20
315.9964365866724
 30
0.0
 10
177.9103976413736
 20
316.2712021647674
 30
0.0
 10
178.1845661079439
 20
316.5352311097586
 30
0.0
 10
178.4901093080523
 20
316.7796150856501
 30
0.0
 10
178.8327268989576
 20
317.0094866599072
 30
0.0
 10
179.2014231157333
 20
317.2170539120398
 30
0.0
 10
179.6019778578755
 20
317.4062708716153
 30
0.0
 10
180.0230823550279
 20
317.5712354867687
 30
0.0
 10
180.4694406609892
 20
317.7144195084002
 30
0.0
 10
180.9306365188223
 20
317.8319467353373
 30
0.0
 10
181.4093316151782
 20
317.9250305418389
 30
0.0
 10
181.8969989241751
 20
317.9915333404002
 30
0.0
 10
182.393616729926
 20
318.0319189028575
 30
0.0
 10
182.8932375454976
 20
318.0452623830599
 30
0.0
 10
183.3928583610851
 20
318.0319189028588
 30
0.0
 10
183.8894761667884
 20
317.9915333403947
 30
0.0
 10
184.3771434759581
 20
317.9250305418586
 30
0.0
 10
184.855838571687
 20
317.8319467352667
 30
0.0
 10
185.3170344318115
 20
317.7144195086596
 30
0.0
 10
185.763392729588
 20
317.571235485849
 30
0.0
 10
186.1844972563814
 20
317.4062708749657
 30
0.0
 10
186.5850518943093
 20
317.2170539003768
 30
0.0
 10
186.953748485497
 20
317.0094867021828
 30
0.0
 10
187.2963647769744
 20
316.779614940728
 30
0.0
 10
187.6019126206136
 20
316.5352316337903
 30
0.0
 10
187.8760650862917
 20
316.271200383687
 30
0.0
 10
188.1093087512736
 20
315.9964430394356
 30
0.0
 10
188.306187784742
 20
315.7057424874906
 30
0.0
 10
188.4592873269572
 20
315.4077568326836
 30
0.0
 10
188.571834797467
 20
315.0990562131711
 30
0.0
 10
188.6383863078281
 20
314.7864855759343
 30
0.0
 10
188.6618615645155
 20
314.4700865327958
 30
0.0
 10
188.6383863078282
 20
314.1536874896569
 30
0.0
 10
188.5718347974672
 20
313.8411168524203
 30
0.0
 10
188.4592873269572
 20
313.5324162329076
 30
0.0
 10
188.306187784742
 20
313.2344305781007
 30
0.0
 10
188.1093087512737
 20
312.9437300261556
 30
0.0
 10
187.8760650862918
 20
312.6689726819043
 30
0.0
 10
187.6019126206136
 20
312.4049414318009
 30
0.0
 10
187.2963647769746
 20
312.1605581248633
 30
0.0
 10
186.953748485497
 20
311.9306863634087
 30
0.0
 10
186.5850518943093
 20
311.7231191652145
 30
0.0
 10
186.1844972563814
 20
311.5339021906257
 30
0.0
 10
185.763392729588
 20
311.3689375797424
 30
0.0
 10
185.3170344318115
 20
311.2257535569318
 30
0.0
 10
184.8558385716869
 20
311.1082263303246
 30
0.0
 10
184.377143475958
 20
311.0151425237329
 30
0.0
 10
183.8894761667886
 20
310.9486397251968
 30
0.0
 10
183.3928583610844
 20
310.9082541627324
 30
0.0
 10
182.8932375455001
 20
310.8949106825319
 30
0.0
 10
182.3936167299168
 20
310.9082541627323
 30
0.0
 10
181.8969989242093
 20
310.9486397251972
 30
0.0
 10
181.4093316150521
 20
311.0151425237314
 30
0.0
 10
180.9306365192788
 20
311.1082263303297
 30
0.0
 10
180.4694406593168
 20
311.2257535569133
 30
0.0
 10
180.0230823609595
 20
311.3689375798078
 30
0.0
 10
179.6019778362695
 20
311.5339021903879
 30
0.0
 10
179.201423190946
 20
311.7231191660421
 30
0.0
 10
178.8327266263283
 20
311.9306863604087
 30
0.0
 10
178.4901102426381
 20
312.1605581351476
 30
0.0
 10
178.1845627285228
 20
312.4049413946137
 30
0.0
 10
177.9104091273563
 20
312.668972808297
 30
0.0
 10
177.6771695183302
 20
312.9437295682415
 30
0.0
 10
177.4802764615881
 20
313.2344321403999
 30
0.0
 10
177.3272273802041
 20
313.5324105257452
 30
0.0
 10
177.2145020850032
 20
313.841136762945
 30
0.0
 10
177.1486011390163
 20
314.153613678918
 30
0.0
 10
177.1227496298525
 20
314.4703550484949
 30
0.0
 10
177.1441626875513
 20
314.6788126057392
 30
0.0
 10
177.1548692164008
 20
314.7830413843614
 30
0.0
 11
177.1548692164008
 21
314.7830413843614
 31
0.0
 11
177.2218647581035
 21
315.0970554079745
 31
0.0
 11
177.3308195902479
 21
315.3988009288444
 31
0.0
 11
177.4862444568252
 21
315.7023246802399
 31
0.0
 11
177.6764801809309
 21
315.984885539423
 31
0.0
 11
177.9149734774862
 21
316.2670271847687
 31
0.0
 11
178.1803106065912
 21
316.5236144301491
 31
0.0
 11
178.4934719638128
 21
316.7751291538957
 31
0.0
 11
178.8264990829937
 21
316.999250009489
 31
0.0
 11
179.2038274457119
 21
317.2124850823042
 31
0.0
 11
179.5953951149054
 21
317.3979054372551
 31
0.0
 11
180.0247284666446
 21
317.5666814987021
 31
0.0
 11
180.463817555145
 21
317.7078130613722
 31
0.0
 11
180.9316634455458
 21
317.8274355559233
 31
0.0
 11
181.4055954730446
 21
317.9197348765895
 31
0.0
 11
181.8974921797383
 21
317.9870581943629
 31
0.0
 11
182.3923117317207
 21
318.0273143827699
 31
0.0
 11
182.8932375455003
 21
318.0408007470671
 31
0.0
 11
183.3941633592799
 21
318.0273143827699
 31
0.0
 11
183.8889829112622
 21
317.9870581943628
 31
0.0
 11
184.3808796179558
 21
317.9197348765896
 31
0.0
 11
184.8548116454546
 21
317.8274355559234
 31
0.0
 11
185.3226575358555
 21
317.7078130613724
 31
0.0
 11
185.7617466243559
 21
317.5666814987021
 31
0.0
 11
186.1910799760951
 21
317.3979054372551
 31
0.0
 11
186.5826476452886
 21
317.2124850823042
 31
0.0
 11
186.9599760080068
 21
316.999250009489
 31
0.0
 11
187.2930031271877
 21
316.7751291538956
 31
0.0
 11
187.6061644844094
 21
316.5236144301489
 31
0.0
 11
187.8715016135144
 21
316.2670271847686
 31
0.0
 11
188.1099949100697
 21
315.9848855394229
 31
0.0
 11
188.3002306341753
 21
315.7023246802399
 31
0.0
 11
188.4556555007526
 21
315.3988009288444
 31
0.0
 11
188.5646103328969
 21
315.0970554079745
 31
0.0
 11
188.6316058745998
 21
314.7830413843614
 31
0.0
 11
188.6540968564018
 21
314.4700865327957
 31
0.0
 11
188.6316058745999
 21
314.15713168123
 31
0.0
 11
188.5646103328972
 21
313.8431176576169
 31
0.0
 11
188.4556555007527
 21
313.541372136747
 31
0.0
 11
188.3002306341754
 21
313.2378483853513
 31
0.0
 11
188.1099949100697
 21
312.9552875261684
 31
0.0
 11
187.8715016135145
 21
312.6731458808227
 31
0.0
 11
187.6061644844095
 21
312.4165586354424
 31
0.0
 11
187.2930031271878
 21
312.1650439116957
 31
0.0
 11
186.9599760080069
 21
311.9409230561024
 31
0.0
 11
186.5826476452886
 21
311.7276879832872
 31
0.0
 11
186.1910799760951
 21
311.5422676283363
 31
0.0
 11
185.7617466243559
 21
311.3734915668893
 31
0.0
 11
185.3226575358555
 21
311.232360004219
 31
0.0
 11
184.8548116454546
 21
311.1127375096679
 31
0.0
 11
184.3808796179558
 21
311.0204381890018
 31
0.0
 11
183.8889829112621
 21
310.9531148712286
 31
0.0
 11
183.3941633592799
 21
310.9128586828215
 31
0.0
 11
182.8932375455003
 21
310.8993723185242
 31
0.0
 11
182.3923117317207
 21
310.9128586828215
 31
0.0
 11
181.8974921797383
 21
310.9531148712286
 31
0.0
 11
181.4055954730447
 21
311.0204381890018
 31
0.0
 11
180.9316634455459
 21
311.1127375096679
 31
0.0
 11
180.4638175551451
 21
311.232360004219
 31
0.0
 11
180.0247284666446
 21
311.3734915668893
 31
0.0
 11
179.5953951149054
 21
311.5422676283363
 31
0.0
 11
179.2038274457119
 21
311.7276879832871
 31
0.0
 11
178.8264990829937
 21
311.9409230561024
 31
0.0
 11
178.4934719638128
 21
312.1650439116957
 31
0.0
 11
178.1803106065911
 21
312.4165586354425
 31
0.0
 11
177.9149734774861
 21
312.6731458808227
 31
0.0
 11
177.6764801809308
 21
312.9552875261685
 31
0.0
 11
177.4862444568252
 21
313.2378483853514
 31
0.0
 11
177.3308195902478
 21
313.541372136747
 31
0.0
 11
177.2218647581034
 21
313.8431176576169
 31
0.0
 11
177.1548692164007
 21
314.15713168123
 31
0.0
 11
177.1323782345989
 21
314.4700865327957
 31
0.0
 11
177.1548692164008
 21
314.7830413843614
 31
0.0
  0
SPLINE
  5
1C1
330
4F
100
AcDbEntity
  8
1
  6
Continuous
 62
     7
100
AcDbSpline
210
0.0
220
0.0
230
1.0
 70
    11
 71
     3
 72
    79
 73
    75
 74
    73
 42
0.0000000001
 43
0.0000000001
 44
0.00000001
 40
0.0
 40
0.0
 40
0.0
 40
0.0
 40
0.3210813131182333
 40
0.6418951451339987
 40
0.982898894104335
 40
1.323531056220949
 40
1.692967059529012
 40
2.062075182676623
 40
2.463733858567302
 40
2.86515286661475
 40
3.298564783375393
 40
3.731815227792681
 40
4.193131264618966
 40
4.654344171660708
 40
5.137240970539702
 40
5.620077103492235
 40
6.116559529336379
 40
6.613013907632094
 40
7.114121234392269
 40
7.615228561152445
 40
8.111682939448278
 40
8.608165365292406
 40
9.091001498244957
 40
9.573898297123924
 40
10.03511120416567
 40
10.49642724099201
 40
10.92967768540922
 40
11.36308960216986
 40
11.76450861021736
 40
12.16616728610805
 40
12.5352754092556
 40
12.90471141256368
 40
13.24534357468023
 40
13.58634732365054
 40
13.90716115566631
 40
14.2282424687846
 40
14.54200445402326
 40
14.85576643926192
 40
15.17684775238019
 40
15.49766158439598
 40
15.83866533336646
 40
16.17929749548295
 40
16.54873349879099
 40
16.91784162193854
 40
17.31950029782928
 40
17.72091930587675
 40
18.15433122263744
 40
18.58758166705467
 40
19.04889770388101
 40
19.51011061092283
 40
19.99300740980183
 40
20.47584354275434
 40
20.97232596859838
 40
21.46878034689407
 40
21.96988767365419
 40
22.47099500041443
 40
22.96744937871023
 40
23.46393180455435
 40
23.94676793750689
 40
24.4296647363859
 40
24.89087764342772
 40
25.35219368025398
 40
25.78544412467122
 40
26.21885604143188
 40
26.62027504947938
 40
27.02193372537015
 40
27.39104184851769
 40
27.76047785182571
 40
28.1011100139422
 40
28.44211376291257
 40
28.76292759492836
 40
29.08400890804664
 40
29.39777089328531
 40
29.71153287852403
 40
29.71153287852403
 40
29.71153287852403
 40
29.71153287852403
 10
174.6316058745998
 20
314.7830413843614
 30
0.0
 10
174.6123260234029
 20
314.8885024698733
 30
0.0
 10
174.5737823823484
 20
315.0993367851228
 30
0.0
 10
174.4587290702722
 20
315.407676409402
 30
0.0
 10
174.3063406039356
 20
315.7057645028492
 30
0.0
 10
174.1092639595387
 20
315.9964365866723
 30
0.0
 10
173.876077449627
 20
316.2712021647674
 30
0.0
 10
173.6019089830566
 20
316.5352311097586
 30
0.0
 10
173.2963657829482
 20
316.7796150856501
 30
0.0
 10
172.9537481920428
 20
317.0094866599072
 30
0.0
 10
172.5850519752673
 20
317.2170539120398
 30
0.0
 10
172.184497233125
 20
317.4062708716153
 30
0.0
 10
171.7633927359725
 20
317.5712354867688
 30
0.0
 10
171.3170344300113
 20
317.7144195084002
 30
0.0
 10
170.8558385721781
 20
317.8319467353373
 30
0.0
 10
170.3771434758222
 20
317.9250305418389
 30
0.0
 10
169.8894761668254
 20
317.9915333404001
 30
0.0
 10
169.3928583610745
 20
318.0319189028576
 30
0.0
 10
168.893237545503
 20
318.0452623830598
 30
0.0
 10
168.3936167299154
 20
318.0319189028589
 30
0.0
 10
167.896998924212
 20
317.9915333403946
 30
0.0
 10
167.4093316150425
 20
317.9250305418586
 30
0.0
 10
166.9306365193135
 20
317.8319467352666
 30
0.0
 10
166.4694406591889
 20
317.7144195086596
 30
0.0
 10
166.0230823614125
 20
317.5712354858491
 30
0.0
 10
165.6019778346191
 20
317.4062708749657
 30
0.0
 10
165.2014231966912
 20
317.2170539003769
 30
0.0
 10
164.8327266055035
 20
317.0094867021827
 30
0.0
 10
164.4901103140261
 20
316.7796149407279
 30
0.0
 10
164.1845624703871
 20
316.5352316337903
 30
0.0
 10
163.9104100047088
 20
316.2712003836869
 30
0.0
 10
163.6771663397269
 20
315.9964430394357
 30
0.0
 10
163.4802873062586
 20
315.7057424874906
 30
0.0
 10
163.3271877640433
 20
315.4077568326836
 30
0.0
 10
163.2146402935336
 20
315.0990562131711
 30
0.0
 10
163.1480887831724
 20
314.7864855759344
 30
0.0
 10
163.1246135264852
 20
314.4700865327958
 30
0.0
 10
163.1480887831723
 20
314.1536874896569
 30
0.0
 10
163.2146402935333
 20
313.8411168524203
 30
0.0
 10
163.3271877640432
 20
313.5324162329076
 30
0.0
 10
163.4802873062585
 20
313.2344305781007
 30
0.0
 10
163.6771663397269
 20
312.9437300261557
 30
0.0
 10
163.9104100047087
 20
312.6689726819043
 30
0.0
 10
164.1845624703869
 20
312.404941431801
 30
0.0
 10
164.490110314026
 20
312.1605581248632
 30
0.0
 10
164.8327266055035
 20
311.9306863634087
 30
0.0
 10
165.2014231966913
 20
311.7231191652147
 30
0.0
 10
165.6019778346191
 20
311.5339021906257
 30
0.0
 10
166.0230823614126
 20
311.3689375797425
 30
0.0
 10
166.4694406591891
 20
311.2257535569318
 30
0.0
 10
166.9306365193137
 20
311.1082263303247
 30
0.0
 10
167.4093316150426
 20
311.015142523733
 30
0.0
 10
167.8969989242119
 20
310.9486397251968
 30
0.0
 10
168.393616729916
 20
310.9082541627324
 30
0.0
 10
168.8932375455004
 20
310.8949106825319
 30
0.0
 10
169.3928583610836
 20
310.9082541627323
 30
0.0
 10
169.8894761667912
 20
310.9486397251972
 30
0.0
 10
170.3771434759483
 20
311.0151425237314
 30
0.0
 10
170.8558385717218
 20
311.1082263303296
 30
0.0
 10
171.3170344316837
 20
311.2257535569133
 30
0.0
 10
171.7633927300411
 20
311.3689375798077
 30
0.0
 10
172.1844972547311
 20
311.533902190388
 30
0.0
 10
172.5850519000544
 20
311.7231191660421
 30
0.0
 10
172.9537484646723
 20
311.9306863604087
 30
0.0
 10
173.2963648483624
 20
312.1605581351475
 30
0.0
 10
173.6019123624777
 20
312.4049413946137
 30
0.0
 10
173.8760659636442
 20
312.6689728082969
 30
0.0
 10
174.1093055726703
 20
312.9437295682415
 30
0.0
 10
174.3061986294123
 20
313.2344321403999
 30
0.0
 10
174.4592477107963
 20
313.5324105257451
 30
0.0
 10
174.5719730059973
 20
313.841136762945
 30
0.0
 10
174.6378739519842
 20
314.153613678918
 30
0.0
 10
174.6637254611482
 20
314.4703550484949
 30
0.0
 10
174.6423124034493
 20
314.6788126057392
 30
0.0
 10
174.6316058745998
 20
314.7830413843614
 30
0.0
 11
174.6316058745998
 21
314.7830413843614
 31
0.0
 11
174.564610332897
 21
315.0970554079745
 31
0.0
 11
174.4556555007526
 21
315.3988009288444
 31
0.0
 11
174.3002306341753
 21
315.7023246802399
 31
0.0
 11
174.1099949100697
 21
315.984885539423
 31
0.0
 11
173.8715016135144
 21
316.2670271847687
 31
0.0
 11
173.6061644844094
 21
316.5236144301491
 31
0.0
 11
173.2930031271877
 21
316.7751291538957
 31
0.0
 11
172.9599760080068
 21
316.999250009489
 31
0.0
 11
172.5826476452886
 21
317.2124850823042
 31
0.0
 11
172.1910799760951
 21
317.3979054372551
 31
0.0
 11
171.7617466243559
 21
317.5666814987021
 31
0.0
 11
171.3226575358555
 21
317.7078130613722
 31
0.0
 11
170.8548116454546
 21
317.8274355559233
 31
0.0
 11
170.3808796179558
 21
317.9197348765895
 31
0.0
 11
169.8889829112622
 21
317.9870581943629
 31
0.0
 11
169.3941633592799
 21
318.0273143827699
 31
0.0
 11
168.8932375455003
 21
318.0408007470671
 31
0.0
 11
168.3923117317207
 21
318.0273143827699
 31
0.0
 11
167.8974921797383
 21
317.9870581943628
 31
0.0
 11
167.4055954730446
 21
317.9197348765896
 31
0.0
 11
166.9316634455458
 21
317.8274355559234
 31
0.0
 11
166.463817555145
 21
317.7078130613724
 31
0.0
 11
166.0247284666446
 21
317.5666814987021
 31
0.0
 11
165.5953951149054
 21
317.3979054372551
 31
0.0
 11
165.2038274457119
 21
317.2124850823042
 31
0.0
 11
164.8264990829937
 21
316.999250009489
 31
0.0
 11
164.4934719638128
 21
316.7751291538956
 31
0.0
 11
164.1803106065912
 21
316.5236144301489
 31
0.0
 11
163.9149734774862
 21
316.2670271847686
 31
0.0
 11
163.6764801809309
 21
315.9848855394229
 31
0.0
 11
163.4862444568252
 21
315.7023246802399
 31
0.0
 11
163.3308195902479
 21
315.3988009288444
 31
0.0
 11
163.2218647581036
 21
315.0970554079745
 31
0.0
 11
163.1548692164008
 21
314.7830413843614
 31
0.0
 11
163.1323782345988
 21
314.4700865327957
 31
0.0
 11
163.1548692164006
 21
314.15713168123
 31
0.0
 11
163.2218647581033
 21
313.8431176576169
 31
0.0
 11
163.3308195902478
 21
313.541372136747
 31
0.0
 11
163.4862444568252
 21
313.2378483853513
 31
0.0
 11
163.6764801809308
 21
312.9552875261684
 31
0.0
 11
163.9149734774861
 21
312.6731458808227
 31
0.0
 11
164.180310606591
 21
312.4165586354424
 31
0.0
 11
164.4934719638127
 21
312.1650439116957
 31
0.0
 11
164.8264990829936
 21
311.9409230561024
 31
0.0
 11
165.2038274457119
 21
311.7276879832872
 31
0.0
 11
165.5953951149054
 21
311.5422676283363
 31
0.0
 11
166.0247284666446
 21
311.3734915668893
 31
0.0
 11
166.4638175551451
 21
311.232360004219
 31
0.0
 11
166.931663445546
 21
311.1127375096679
 31
0.0
 11
167.4055954730447
 21
311.0204381890018
 31
0.0
 11
167.8974921797383
 21
310.9531148712286
 31
0.0
 11
168.3923117317206
 21
310.9128586828215
 31
0.0
 11
168.8932375455001
 21
310.8993723185242
 31
0.0
 11
169.3941633592798
 21
310.9128586828215
 31
0.0
 11
169.8889829112621
 21
310.9531148712286
 31
0.0
 11
170.3808796179558
 21
311.0204381890018
 31
0.0
 11
170.8548116454546
 21
311.1127375096679
 31
0.0
 11
171.3226575358555
 21
311.232360004219
 31
0.0
 11
171.761746624356
 21
311.3734915668893
 31
0.0
 11
172.1910799760951
 21
311.5422676283363
 31
0.0
 11
172.5826476452886
 21
311.7276879832871
 31
0.0
 11
172.9599760080068
 21
311.9409230561024
 31
0.0
 11
173.2930031271878
 21
312.1650439116957
 31
0.0
 11
173.6061644844094
 21
312.4165586354425
 31
0.0
 11
173.8715016135144
 21
312.6731458808227
 31
0.0
 11
174.1099949100696
 21
312.9552875261685
 31
0.0
 11
174.3002306341753
 21
313.2378483853514
 31
0.0
 11
174.4556555007526
 21
313.541372136747
 31
0.0
 11
174.564610332897
 21
313.8431176576169
 31
0.0
 11
174.6316058745998
 21
314.15713168123
 31
0.0
 11
174.6540968564017
 21
314.4700865327957
 31
0.0
 11
174.6316058745998
 21
314.7830413843614
 31
0.0
  0
SPLINE
  5
1C2
330
4F
100
AcDbEntity
  8
1
  6
Continuous
 62
     7
100
AcDbSpline
210
0.0
220
0.0
230
1.0
 70
    11
 71
     3
 72
    79
 73
    75
 74
    73
 42
0.0000000001
 43
0.0000000001
 44
0.00000001
 40
0.0
 40
0.0
 40
0.0
 40
0.0
 40
0.2910229153818371
 40
0.5820342278737321
 40
0.8749339334364565
 40
1.167812547519353
 40
1.463561188767303
 40
1.759282806464862
 40
2.058487811140783
 40
2.357663885605968
 40
2.660503341347654
 40
2.963315625194715
 40
3.269530826276577
 40
3.575723468843846
 40
3.884662744191517
 40
4.193586027919076
 40
4.504289085610719
 40
4.814983882015397
 40
5.126294430971099
 40
5.437604979926916
 40
5.748299776331487
 40
6.059002834023131
 40
6.367926117750728
 40
6.676865393098306
 40
6.9830580356656
 40
7.289273236747433
 40
7.592085520594513
 40
7.8949249763362
 40
8.194101050801386
 40
8.493306055477307
 40
8.789027673174898
 40
9.084776314422827
 40
9.377654928505724
 40
9.670554634068376
 40
9.961565946560381
 40
10.25258886194218
 40
10.54295309984922
 40
10.83331733775614
 40
11.12434025313804
 40
11.41535156562994
 40
11.70825127119265
 40
12.00112988527555
 40
12.29687852652348
 40
12.59260014422099
 40
12.89180514889687
 40
13.1909812233621
 40
13.49382067910383
 40
13.79663296295084
 40
14.10284816403271
 40
14.40904080660002
 40
14.7179800819476
 40
15.02690336567523
 40
15.33760642336681
 40
15.64830121977144
 40
15.95961176872726
 40
16.27092231768297
 40
16.5816171140876
 40
16.89232017177926
 40
17.20124345550687
 40
17.5101827308545
 40
17.81637537342179
 40
18.12259057450363
 40
18.42540285835072
 40
18.72824231409248
 40
19.02741838855755
 40
19.32662339323352
 40
19.62234501093104
 40
19.91809365217897
 40
20.21097226626182
 40
20.50387197182456
 40
20.79488328431647
 40
21.0859061996983
 40
21.37627043760529
 40
21.66663467551222
 40
21.66663467551222
 40
21.66663467551222
 40
21.66663467551222
 10
426.7439047090269
 20
317.0271557841967
 30
0.0
 10
426.6475296503099
 20
317.0154801163953
 30
0.0
 10
426.4547833752855
 20
316.9921292462938
 30
0.0
 10
426.1708468660204
 20
316.9227732528431
 30
0.0
 10
425.8935826001619
 20
316.8293304952678
 30
0.0
 10
425.6248302163116
 20
316.7094235092905
 30
0.0
 10
425.3671848327919
 20
316.5653780041035
 30
0.0
 10
425.1219578855571
 20
316.3973114032579
 30
0.0
 10
424.8916945295
 20
316.207476670184
 30
0.0
 10
424.6774623209839
 20
315.9963405415167
 30
0.0
 10
424.481507892221
 20
315.7665609378828
 30
0.0
 10
424.3047505486006
 20
315.5188324056585
 30
0.0
 10
424.1489797146334
 20
315.2561001658246
 30
0.0
 10
424.0150112972644
 20
314.9793491541828
 30
0.0
 10
423.9040882659787
 20
314.6916171764191
 30
0.0
 10
423.8169114736074
 20
314.3942637299964
 30
0.0
 10
423.7541634635147
 20
314.0902177338534
 30
0.0
 10
423.7163630843025
 20
313.7812761380992
 30
0.0
 10
423.7036860108142
 20
313.4700865327966
 30
0.0
 10
423.7163630843022
 20
313.1588969274883
 30
0.0
 10
423.7541634635161
 20
312.8499553317512
 30
0.0
 10
423.8169114736029
 20
312.5459093355463
 30
0.0
 10
423.9040882659958
 20
312.2485558893526
 30
0.0
 10
424.0150112972011
 20
311.9608239107378
 30
0.0
 10
424.1489797148667
 20
311.6840729022458
 30
0.0
 10
424.3047505477339
 20
311.4213406507214
 30
0.0
 10
424.4815078954153
 20
311.1736121616632
 30
0.0
 10
424.6774623091184
 20
310.9438323979425
 30
0.0
 10
424.8916945731895
 20
310.7326968598346
 30
0.0
 10
425.121957723224
 20
310.5428599367069
 30
0.0
 10
425.3671854308191
 20
310.374801418612
 30
0.0
 10
425.6248279924986
 20
310.2307259168192
 30
0.0
 10
425.8935908103898
 20
310.1109298463395
 30
0.0
 10
426.1708162960823
 20
310.0170748494983
 30
0.0
 10
426.4548966495847
 20
309.9492479429085
 30
0.0
 10
426.7432641300976
 20
309.9085529812845
 30
0.0
 10
427.0339481637773
 20
309.8947871877199
 30
0.0
 10
427.3246321974568
 20
309.9085529812846
 30
0.0
 10
427.6129996779698
 20
309.9492479429084
 30
0.0
 10
427.8970800314723
 20
310.0170748494981
 30
0.0
 10
428.1743055171645
 20
310.1109298463396
 30
0.0
 10
428.4430683350557
 20
310.2307259168192
 30
0.0
 10
428.7007108967354
 20
310.3748014186121
 30
0.0
 10
428.9459386043305
 20
310.542859936707
 30
0.0
 10
429.1762017543647
 20
310.7326968598345
 30
0.0
 10
429.3904340184361
 20
310.9438323979423
 30
0.0
 10
429.5863884321391
 20
311.1736121616632
 30
0.0
 10
429.7631457798205
 20
311.4213406507214
 30
0.0
 10
429.9189166126877
 20
311.6840729022457
 30
0.0
 10
430.0528850303535
 20
311.9608239107378
 30
0.0
 10
430.1638080615585
 20
312.2485558893525
 30
0.0
 10
430.2509848539518
 20
312.5459093355464
 30
0.0
 10
430.3137328640384
 20
312.849955331751
 30
0.0
 10
430.3515332432525
 20
313.1588969274886
 30
0.0
 10
430.3642103167402
 20
313.4700865327957
 30
0.0
 10
430.3515332432525
 20
313.7812761381024
 30
0.0
 10
430.3137328640386
 20
314.0902177338413
 30
0.0
 10
430.2509848539519
 20
314.3942637300414
 30
0.0
 10
430.1638080615575
 20
314.6916171762518
 30
0.0
 10
430.0528850303579
 20
314.9793491548055
 30
0.0
 10
429.9189166126712
 20
315.2561001635235
 30
0.0
 10
429.7631457798826
 20
315.5188324142093
 30
0.0
 10
429.5863884319101
 20
315.7665609063632
 30
0.0
 10
429.390434019287
 20
315.9963406586034
 30
0.0
 10
429.1762017512316
 20
316.2074762390631
 30
0.0
 10
428.9459386159722
 20
316.3973130051315
 30
0.0
 10
428.7007108538479
 20
316.5653721028788
 30
0.0
 10
428.443068494536
 20
316.7094454534725
 30
0.0
 10
428.1743049283702
 20
316.8292494782295
 30
0.0
 10
427.8970822237878
 20
316.9230749114348
 30
0.0
 10
427.6129915545316
 20
316.9910114761069
 30
0.0
 10
427.3246624934605
 20
317.0312980330234
 30
0.0
 10
427.0338353807947
 20
317.0465847787076
 30
0.0
 10
426.8405482662828
 20
317.0336321157004
 30
0.0
 10
426.7439047090269
 20
317.0271557841967
 30
0.0
 11
426.7439047090269
 21
317.0271557841967
 31
0.0
 11
426.455745212752
 21
316.9864318111102
 31
0.0
 11
426.1726630063695
 21
316.9189629410449
 31
0.0
 11
425.8952389638257
 21
316.8250154124061
 31
0.0
 11
425.6276772117083
 21
316.7058995386067
 31
0.0
 11
425.369544842993
 21
316.5615564091496
 31
0.0
 11
425.1255321903819
 21
316.3944962387338
 31
0.0
 11
424.8946526848511
 21
316.204185207133
 31
0.0
 11
424.6814773898998
 21
315.9942742327776
 31
0.0
 11
424.4849430658915
 21
315.7638702496512
 31
0.0
 11
424.308969530092
 21
315.5174385269634
 31
0.0
 11
424.1527723896191
 21
315.2540562901255
 31
0.0
 11
424.0192767016549
 21
314.9784971573477
 31
0.0
 11
423.9081267760977
 21
314.6902452364504
 31
0.0
 11
423.8211501220714
 21
314.39381875841
 31
0.0
 11
423.75834504775
 21
314.0895295658671
 31
0.0
 11
423.7205696860784
 21
313.7811397499465
 31
0.0
 11
423.7079144898649
 21
313.4700865327957
 31
0.0
 11
423.7205696860784
 21
313.1590333156447
 31
0.0
 11
423.75834504775
 21
312.8506434997242
 31
0.0
 11
423.8211501220715
 21
312.5463543071813
 31
0.0
 11
423.9081267760977
 21
312.2499278291409
 31
0.0
 11
424.0192767016548
 21
311.9616759082437
 31
0.0
 11
424.1527723896191
 21
311.6861167754659
 31
0.0
 11
424.3089695300919
 21
311.422734538628
 31
0.0
 11
424.4849430658915
 21
311.1763028159402
 31
0.0
 11
424.6814773898998
 21
310.9458988328138
 31
0.0
 11
424.894652684851
 21
310.7359878584583
 31
0.0
 11
425.1255321903818
 21
310.5456768268575
 31
0.0
 11
425.369544842993
 21
310.3786166564418
 31
0.0
 11
425.6276772117082
 21
310.2342735269846
 31
0.0
 11
425.8952389638255
 21
310.1151576531852
 31
0.0
 11
426.1726630063694
 21
310.0212101245464
 31
0.0
 11
426.4557452127519
 21
309.9537412544811
 31
0.0
 11
426.7439047090268
 21
309.9130172813945
 31
0.0
 11
427.0339481637773
 21
309.8993723185243
 31
0.0
 11
427.3239916185277
 21
309.9130172813945
 31
0.0
 11
427.6121511148026
 21
309.9537412544809
 31
0.0
 11
427.8952333211851
 21
310.0212101245463
 31
0.0
 11
428.1726573637289
 21
310.1151576531852
 31
0.0
 11
428.4402191158463
 21
310.2342735269846
 31
0.0
 11
428.6983514845614
 21
310.3786166564418
 31
0.0
 11
428.9423641371726
 21
310.5456768268575
 31
0.0
 11
429.1732436427034
 21
310.7359878584583
 31
0.0
 11
429.3864189376546
 21
310.9458988328137
 31
0.0
 11
429.5829532616629
 21
311.1763028159402
 31
0.0
 11
429.7589267974624
 21
311.422734538628
 31
0.0
 11
429.9151239379353
 21
311.6861167754659
 31
0.0
 11
430.0486196258996
 21
311.9616759082437
 31
0.0
 11
430.1597695514568
 21
312.2499278291409
 31
0.0
 11
430.2467462054831
 21
312.5463543071813
 31
0.0
 11
430.3095512798045
 21
312.8506434997242
 31
0.0
 11
430.3473266414761
 21
313.1590333156447
 31
0.0
 11
430.3599818376898
 21
313.4700865327957
 31
0.0
 11
430.3473266414762
 21
313.7811397499465
 31
0.0
 11
430.3095512798045
 21
314.0895295658671
 31
0.0
 11
430.246746205483
 21
314.39381875841
 31
0.0
 11
430.1597695514568
 21
314.6902452364504
 31
0.0
 11
430.0486196258996
 21
314.9784971573477
 31
0.0
 11
429.9151239379353
 21
315.2540562901255
 31
0.0
 11
429.7589267974626
 21
315.5174385269634
 31
0.0
 11
429.582953261663
 21
315.7638702496512
 31
0.0
 11
429.3864189376546
 21
315.9942742327777
 31
0.0
 11
429.1732436427035
 21
316.204185207133
 31
0.0
 11
428.9423641371726
 21
316.3944962387338
 31
0.0
 11
428.6983514845614
 21
316.5615564091495
 31
0.0
 11
428.4402191158463
 21
316.7058995386067
 31
0.0
 11
428.1726573637289
 21
316.8250154124061
 31
0.0
 11
427.8952333211851
 21
316.9189629410449
 31
0.0
 11
427.6121511148026
 21
316.9864318111103
 31
0.0
 11
427.3239916185277
 21
317.0271557841968
 31
0.0
 11
427.0339481637773
 21
317.040800747067
 31
0.0
 11
426.7439047090269
 21
317.0271557841967
 31
0.0
  0
SPLINE
  5
1C3
330
4F
100
AcDbEntity
  8
1
  6
Continuous
 62
     7
100
AcDbSpline
210
0.0
220
0.0
230
1.0
 70
    11
 71
     3
 72
    79
 73
    75
 74
    73
 42
0.0000000001
 43
0.0000000001
 44
0.00000001
 40
0.0
 40
0.0
 40
0.0
 40
0.0
 40
0.2910229153818371
 40
0.5820342278738426
 40
0.8749339334364594
 40
1.167812547519356
 40
1.463561188767256
 40
1.759282806464815
 40
2.058487811140735
 40
2.357663885605921
 40
2.660503341347681
 40
2.963315625194742
 40
3.269530826276603
 40
3.575723468843872
 40
3.884662744191483
 40
4.193586027919073
 40
4.50428908561074
 40
4.814983882015424
 40
5.126294430971127
 40
5.43760497992695
 40
5.748299776331521
 40
6.059002834023153
 40
6.367926117750766
 40
6.676865393098365
 40
6.983058035665659
 40
7.28927323674752
 40
7.592085520594567
 40
7.894924976336254
 40
8.19410105080148
 40
8.493306055477401
 40
8.789027673174898
 40
9.084776314422877
 40
9.377654928505722
 40
9.670554634068427
 40
9.961565946560377
 40
10.25258886194223
 40
10.54295309984916
 40
10.83331733775608
 40
11.12434025313792
 40
11.41535156562988
 40
11.70825127119259
 40
12.00112988527549
 40
12.29687852652347
 40
12.59260014422098
 40
12.89180514889691
 40
13.19098122336205
 40
13.49382067910382
 40
13.79663296295083
 40
14.10284816403269
 40
14.40904080659999
 40
14.71798008194758
 40
15.0269033656752
 40
15.33760642336681
 40
15.64830121977144
 40
15.95961176872726
 40
16.27092231768297
 40
16.58161711408761
 40
16.89232017177925
 40
17.20124345550688
 40
17.51018273085453
 40
17.81637537342182
 40
18.12259057450366
 40
18.42540285835075
 40
18.72824231409244
 40
19.02741838855755
 40
19.32662339323347
 40
19.622345010931
 40
19.91809365217898
 40
20.21097226626187
 40
20.50387197182461
 40
20.79488328431658
 40
21.0859061996983
 40
21.37627043760523
 40
21.66663467551222
 40
21.66663467551222
 40
21.66663467551222
 40
21.66663467551222
 10
403.0752803125631
 20
317.0271557841967
 30
0.0
 10
403.1716553712801
 20
317.0154801163953
 30
0.0
 10
403.3644016463046
 20
316.9921292462938
 30
0.0
 10
403.6483381555693
 20
316.9227732528432
 30
0.0
 10
403.9256024214282
 20
316.8293304952676
 30
0.0
 10
404.1943548052782
 20
316.7094235092905
 30
0.0
 10
404.452000188798
 20
316.5653780041034
 30
0.0
 10
404.6972271360327
 20
316.3973114032579
 30
0.0
 10
404.9274904920899
 20
316.207476670184
 30
0.0
 10
405.1417227006058
 20
315.9963405415166
 30
0.0
 10
405.3376771293689
 20
315.7665609378829
 30
0.0
 10
405.5144344729894
 20
315.5188324056583
 30
0.0
 10
405.6702053069565
 20
315.2561001658246
 30
0.0
 10
405.8041737243257
 20
314.9793491541828
 30
0.0
 10
405.9150967556111
 20
314.6916171764192
 30
0.0
 10
406.0022735479824
 20
314.3942637299963
 30
0.0
 10
406.0650215580753
 20
314.0902177338533
 30
0.0
 10
406.1028219372878
 20
313.7812761380993
 30
0.0
 10
406.1154990107759
 20
313.4700865327966
 30
0.0
 10
406.1028219372878
 20
313.1588969274883
 30
0.0
 10
406.0650215580739
 20
312.8499553317511
 30
0.0
 10
406.0022735479872
 20
312.5459093355464
 30
0.0
 10
405.9150967555942
 20
312.2485558893526
 30
0.0
 10
405.8041737243886
 20
311.9608239107376
 30
0.0
 10
405.6702053067234
 20
311.6840729022457
 30
0.0
 10
405.5144344738558
 20
311.4213406507214
 30
0.0
 10
405.3376771261746
 20
311.1736121616632
 30
0.0
 10
405.1417227124714
 20
310.9438323979425
 30
0.0
 10
404.9274904484003
 20
310.7326968598346
 30
0.0
 10
404.6972272983658
 20
310.542859936707
 30
0.0
 10
404.4519995907708
 20
310.374801418612
 30
0.0
 10
404.1943570290913
 20
310.2307259168192
 30
0.0
 10
403.9255942112001
 20
310.1109298463394
 30
0.0
 10
403.6483687255078
 20
310.0170748494983
 30
0.0
 10
403.3642883720052
 20
309.9492479429085
 30
0.0
 10
403.0759208914922
 20
309.9085529812846
 30
0.0
 10
402.7852368578127
 20
309.8947871877198
 30
0.0
 10
402.4945528241333
 20
309.9085529812845
 30
0.0
 10
402.2061853436204
 20
309.9492479429083
 30
0.0
 10
401.9221049901176
 20
310.0170748494981
 30
0.0
 10
401.6448795044255
 20
310.1109298463395
 30
0.0
 10
401.3761166865341
 20
310.2307259168192
 30
0.0
 10
401.1184741248545
 20
310.374801418612
 30
0.0
 10
400.8732464172597
 20
310.5428599367072
 30
0.0
 10
400.6429832672249
 20
310.7326968598344
 30
0.0
 10
400.4287510031541
 20
310.9438323979425
 30
0.0
 10
400.2327965894508
 20
311.1736121616631
 30
0.0
 10
400.0560392417694
 20
311.4213406507214
 30
0.0
 10
399.9002684089023
 20
311.6840729022457
 30
0.0
 10
399.7662999912367
 20
311.9608239107378
 30
0.0
 10
399.6553769600313
 20
312.2485558893525
 30
0.0
 10
399.5682001676385
 20
312.5459093355464
 30
0.0
 10
399.5054521575511
 20
312.849955331751
 30
0.0
 10
399.4676517783375
 20
313.1588969274886
 30
0.0
 10
399.4549747048495
 20
313.4700865327958
 30
0.0
 10
399.4676517783374
 20
313.7812761381024
 30
0.0
 10
399.5054521575515
 20
314.0902177338411
 30
0.0
 10
399.5682001676381
 20
314.3942637300416
 30
0.0
 10
399.6553769600325
 20
314.6916171762516
 30
0.0
 10
399.7662999912322
 20
314.9793491548056
 30
0.0
 10
399.9002684089188
 20
315.2561001635234
 30
0.0
 10
400.0560392417075
 20
315.5188324142094
 30
0.0
 10
400.2327965896797
 20
315.7665609063632
 30
0.0
 10
400.4287510023028
 20
315.9963406586035
 30
0.0
 10
400.6429832703582
 20
316.207476239063
 30
0.0
 10
400.8732464056176
 20
316.3973130051315
 30
0.0
 10
401.1184741677421
 20
316.5653721028789
 30
0.0
 10
401.3761165270537
 20
316.7094454534724
 30
0.0
 10
401.6448800932198
 20
316.8292494782295
 30
0.0
 10
401.9221027978023
 20
316.9230749114347
 30
0.0
 10
402.2061934670584
 20
316.991011476107
 30
0.0
 10
402.4945225281293
 20
317.0312980330235
 30
0.0
 10
402.7853496407953
 20
317.0465847787076
 30
0.0
 10
402.9786367553071
 20
317.0336321157004
 30
0.0
 10
403.0752803125631
 20
317.0271557841967
 30
0.0
 11
403.0752803125631
 21
317.0271557841967
 31
0.0
 11
403.3634398088379
 21
316.9864318111102
 31
0.0
 11
403.6465220152205
 21
316.9189629410449
 31
0.0
 11
403.9239460577643
 21
316.8250154124061
 31
0.0
 11
404.1915078098817
 21
316.7058995386067
 31
0.0
 11
404.4496401785968
 21
316.5615564091496
 31
0.0
 11
404.693652831208
 21
316.3944962387338
 31
0.0
 11
404.9245323367388
 21
316.204185207133
 31
0.0
 11
405.1377076316901
 21
315.9942742327776
 31
0.0
 11
405.3342419556985
 21
315.7638702496512
 31
0.0
 11
405.510215491498
 21
315.5174385269634
 31
0.0
 11
405.6664126319708
 21
315.2540562901255
 31
0.0
 11
405.7999083199351
 21
314.9784971573477
 31
0.0
 11
405.9110582454921
 21
314.6902452364504
 31
0.0
 11
405.9980348995185
 21
314.39381875841
 31
0.0
 11
406.0608399738401
 21
314.0895295658671
 31
0.0
 11
406.0986153355117
 21
313.7811397499465
 31
0.0
 11
406.1112705317252
 21
313.4700865327957
 31
0.0
 11
406.0986153355115
 21
313.1590333156447
 31
0.0
 11
406.0608399738399
 21
312.8506434997242
 31
0.0
 11
405.9980348995185
 21
312.5463543071813
 31
0.0
 11
405.9110582454923
 21
312.2499278291409
 31
0.0
 11
405.7999083199351
 21
311.9616759082437
 31
0.0
 11
405.6664126319708
 21
311.6861167754659
 31
0.0
 11
405.510215491498
 21
311.422734538628
 31
0.0
 11
405.3342419556984
 21
311.1763028159402
 31
0.0
 11
405.1377076316901
 21
310.9458988328138
 31
0.0
 11
404.9245323367388
 21
310.7359878584583
 31
0.0
 11
404.693652831208
 21
310.5456768268575
 31
0.0
 11
404.449640178597
 21
310.3786166564418
 31
0.0
 11
404.1915078098817
 21
310.2342735269846
 31
0.0
 11
403.9239460577644
 21
310.1151576531852
 31
0.0
 11
403.6465220152205
 21
310.0212101245464
 31
0.0
 11
403.363439808838
 21
309.9537412544811
 31
0.0
 11
403.0752803125631
 21
309.9130172813945
 31
0.0
 11
402.7852368578127
 21
309.8993723185243
 31
0.0
 11
402.4951934030623
 21
309.9130172813945
 31
0.0
 11
402.2070339067874
 21
309.9537412544809
 31
0.0
 11
401.9239517004049
 21
310.0212101245463
 31
0.0
 11
401.6465276578611
 21
310.1151576531852
 31
0.0
 11
401.3789659057437
 21
310.2342735269846
 31
0.0
 11
401.1208335370285
 21
310.3786166564418
 31
0.0
 11
400.8768208844174
 21
310.5456768268575
 31
0.0
 11
400.6459413788865
 21
310.7359878584583
 31
0.0
 11
400.4327660839354
 21
310.9458988328137
 31
0.0
 11
400.236231759927
 21
311.1763028159402
 31
0.0
 11
400.0602582241275
 21
311.422734538628
 31
0.0
 11
399.9040610836547
 21
311.6861167754659
 31
0.0
 11
399.7705653956904
 21
311.9616759082437
 31
0.0
 11
399.6594154701332
 21
312.2499278291409
 31
0.0
 11
399.5724388161069
 21
312.5463543071813
 31
0.0
 11
399.5096337417854
 21
312.8506434997242
 31
0.0
 11
399.4718583801138
 21
313.1590333156447
 31
0.0
 11
399.4592031839001
 21
313.4700865327957
 31
0.0
 11
399.4718583801138
 21
313.7811397499465
 31
0.0
 11
399.5096337417854
 21
314.0895295658671
 31
0.0
 11
399.5724388161069
 21
314.39381875841
 31
0.0
 11
399.6594154701332
 21
314.6902452364504
 31
0.0
 11
399.7705653956904
 21
314.9784971573477
 31
0.0
 11
399.9040610836547
 21
315.2540562901255
 31
0.0
 11
400.0602582241274
 21
315.5174385269634
 31
0.0
 11
400.236231759927
 21
315.7638702496512
 31
0.0
 11
400.4327660839352
 21
315.9942742327777
 31
0.0
 11
400.6459413788865
 21
316.204185207133
 31
0.0
 11
400.8768208844173
 21
316.3944962387338
 31
0.0
 11
401.1208335370284
 21
316.5615564091495
 31
0.0
 11
401.3789659057437
 21
316.7058995386067
 31
0.0
 11
401.646527657861
 21
316.8250154124061
 31
0.0
 11
401.9239517004049
 21
316.9189629410449
 31
0.0
 11
402.2070339067874
 21
316.9864318111103
 31
0.0
 11
402.4951934030622
 21
317.0271557841968
 31
0.0
 11
402.7852368578126
 21
317.040800747067
 31
0.0
 11
403.0752803125631
 21
317.0271557841967
 31
0.0
  0
SPLINE
  5
1C4
330
4F
100
AcDbEntity
  8
1
  6
Continuous
 62
     7
100
AcDbSpline
210
0.0
220
0.0
230
1.0
 70
    11
 71
     3
 72
    79
 73
    75
 74
    73
 42
0.0000000001
 43
0.0000000001
 44
0.00000001
 40
0.0
 40
0.0
 40
0.0
 40
0.0
 40
0.3261189881638906
 40
0.6517242273663368
 40
1.0075707340718
 40
1.362786578155801
 40
1.759886314710425
 40
2.156516714717011
 40
2.599210008268748
 40
3.041603627004125
 40
3.528307206464613
 40
4.014826849024933
 40
4.539616314403986
 40
5.064295509496665
 40
5.618233632287932
 40
6.172109437578984
 40
6.744280968665912
 40
7.316424323670572
 40
7.894787044418015
 40
8.473149765165628
 40
9.045293120170353
 40
9.617464651257274
 40
10.17134045654826
 40
10.72527857933942
 40
11.24995777443204
 40
11.77474723981111
 40
12.2612668823714
 40
12.74797046183186
 40
13.19036408056716
 40
13.6330573741189
 40
14.02968777412566
 40
14.4267875106802
 40
14.78200335476423
 40
15.13784986146968
 40
15.46345510067215
 40
15.78957408883603
 40
16.10448972240899
 40
16.41940535598188
 40
16.74552434414581
 40
17.07112958334826
 40
17.42697609005369
 40
17.78219193413771
 40
18.17929167069226
 40
18.57592207069897
 40
19.01861536425077
 40
19.46100898298617
 40
19.94771256244663
 40
20.4342322050069
 40
20.95902167038582
 40
21.48370086547852
 40
22.03763898826976
 40
22.59151479356085
 40
23.16368632464772
 40
23.7358296796525
 40
24.31419240040006
 40
24.89255512114756
 40
25.46469847615222
 40
26.03687000723915
 40
26.59074581253008
 40
27.14468393532141
 40
27.66936313041411
 40
28.1941525957931
 40
28.68067223835345
 40
29.16737581781383
 40
29.60976943654921
 40
30.05246273010086
 40
30.44909313010758
 40
30.84619286666217
 40
31.20140871074611
 40
31.55725521745167
 40
31.88286045665414
 40
32.20897944481806
 40
32.52389507839096
 40
32.83881071196392
 40
32.83881071196392
 40
32.83881071196392
 40
32.83881071196392
 10
421.5353716676846
 20
313.7839030194339
 30
0.0
 10
421.5128143936896
 20
313.8904927777059
 30
0.0
 10
421.4677353811226
 20
314.1035043789197
 30
0.0
 10
421.3332076095513
 20
314.413322873635
 30
0.0
 10
421.1564635193672
 20
314.7111067195182
 30
0.0
 10
420.9275821066125
 20
315.0022527631069
 30
0.0
 10
420.6583641968311
 20
315.2756449801934
 30
0.0
 10
420.3410940809087
 20
315.539604707305
 30
0.0
 10
419.9890416602192
 20
315.782610908389
 30
0.0
 10
419.593168292429
 20
316.0122651590165
 30
0.0
 10
419.1684598777713
 20
316.2188161181183
 30
0.0
 10
418.7059425044245
 20
316.4078188732958
 30
0.0
 10
418.2207020026414
 20
316.5721326679363
 30
0.0
 10
417.7054605146131
 20
316.7151481697744
 30
0.0
 10
417.1737952538553
 20
316.8323006054185
 30
0.0
 10
416.621346204256
 20
316.9252744964455
 30
0.0
 10
416.0589553643208
 20
316.9915935554103
 30
0.0
 10
415.4859387140723
 20
317.0319398134544
 30
0.0
 10
414.9095925107986
 20
317.0452301452324
 30
0.0
 10
414.3332463075024
 20
317.0319398134567
 30
0.0
 10
413.7602296573199
 20
316.9915935554014
 30
0.0
 10
413.1978388171444
 20
316.9252744964774
 30
0.0
 10
412.6453897684144
 20
316.8323006053038
 30
0.0
 10
412.113724504491
 20
316.7151481701934
 30
0.0
 10
411.5984830276817
 20
316.5721326664637
 30
0.0
 10
411.1132424855109
 20
316.4078188786328
 30
0.0
 10
410.6507252524356
 20
316.2188160998051
 30
0.0
 10
410.2260163382317
 20
316.0122652249278
 30
0.0
 10
409.830144673871
 20
315.7826106870991
 30
0.0
 10
409.4780862391037
 20
315.5396054999987
 30
0.0
 10
409.1608363624164
 20
315.2756423605185
 30
0.0
 10
408.891547233253
 20
315.0022621511385
 30
0.0
 10
408.6629052411334
 20
314.7110757408311
 30
0.0
 10
408.4853125158854
 20
314.4134349762364
 30
0.0
 10
408.353699444251
 20
314.1031250582457
 30
0.0
 10
408.2762744681745
 20
313.7889664812196
 30
0.0
 10
408.2483143510615
 20
313.4700865327957
 30
0.0
 10
408.2762744681744
 20
313.1512065843717
 30
0.0
 10
408.3536994442508
 20
312.8370480073455
 30
0.0
 10
408.4853125158855
 20
312.5267380893549
 30
0.0
 10
408.6629052411333
 20
312.2290973247601
 30
0.0
 10
408.8915472332528
 20
311.9379109144528
 30
0.0
 10
409.1608363624162
 20
311.6645307050727
 30
0.0
 10
409.4780862391036
 20
311.4005675655925
 30
0.0
 10
409.8301446738709
 20
311.1575623784919
 30
0.0
 10
410.2260163382318
 20
310.9279078406636
 30
0.0
 10
410.6507252524356
 20
310.7213569657861
 30
0.0
 10
411.1132424855108
 20
310.5323541869585
 30
0.0
 10
411.5984830276816
 20
310.3680403991277
 30
0.0
 10
412.1137245044911
 20
310.2250248953982
 30
0.0
 10
412.6453897684145
 20
310.1078724602874
 30
0.0
 10
413.1978388171444
 20
310.0148985691139
 30
0.0
 10
413.76022965732
 20
309.9485795101898
 30
0.0
 10
414.3332463075033
 20
309.9082332521344
 30
0.0
 10
414.9095925107951
 20
309.8949429203595
 30
0.0
 10
415.4859387140853
 20
309.9082332521342
 30
0.0
 10
416.0589553642735
 20
309.9485795101904
 30
0.0
 10
416.6213462044317
 20
310.0148985691116
 30
0.0
 10
417.173795253223
 20
310.1078724602955
 30
0.0
 10
417.7054605169232
 20
310.2250248953684
 30
0.0
 10
418.220701994524
 20
310.3680403992315
 30
0.0
 10
418.705942533846
 20
310.5323541865822
 30
0.0
 10
419.1684597768156
 20
310.7213569670778
 30
0.0
 10
419.5931686557834
 20
310.9279078360144
 30
0.0
 10
419.989040440297
 20
311.157562394101
 30
0.0
 10
420.3410984508558
 20
311.4005675096791
 30
0.0
 10
420.6583497551367
 20
311.664530889854
 30
0.0
 10
420.9276338607731
 20
311.937910252259
 30
0.0
 10
421.1562927406559
 20
312.2290995098714
 30
0.0
 10
421.3338256066182
 20
312.5267301820906
 30
0.0
 10
421.4656442694002
 20
312.837074763092
 30
0.0
 10
421.5423241309584
 20
313.1511077125664
 30
0.0
 10
421.5729760312664
 20
313.470441500131
 30
0.0
 10
421.5479064555452
 20
313.679415846333
 30
0.0
 10
421.5353716676846
 20
313.7839030194339
 30
0.0
 11
421.5353716676846
 21
313.7839030194339
 31
0.0
 11
421.4571990051308
 21
314.1005141835932
 31
0.0
 11
421.3314927500542
 21
314.4008751484849
 31
0.0
 11
421.149936366619
 21
314.7069209227875
 31
0.0
 11
420.9315743067241
 21
314.9870928462323
 31
0.0
 11
420.6538267573488
 21
315.2708964747993
 31
0.0
 11
420.3495272051696
 21
315.5252927341131
 31
0.0
 11
419.9858795798506
 21
315.7777561111711
 31
0.0
 11
419.6035465729715
 21
316.0003175313423
 31
0.0
 11
419.1662780121964
 21
316.2140383305578
 31
0.0
 11
418.7160825844973
 21
316.3984981892691
 31
0.0
 11
418.2192428628827
 21
316.5674782886854
 31
0.0
 11
417.7137561949633
 21
316.7080894060227
 31
0.0
 11
417.1728983879561
 21
316.8277567636478
 31
0.0
 11
416.6267280798393
 21
316.919824142335
 31
0.0
 11
416.0585281128
 21
316.9871224219781
 31
0.0
 11
415.4877984347493
 21
317.0273176115929
 31
0.0
 11
414.9095925107948
 21
317.0407840979316
 31
0.0
 11
414.3313865868402
 21
317.0273176115929
 31
0.0
 11
413.7606569087894
 21
316.987122421978
 31
0.0
 11
413.1924569417502
 21
316.919824142335
 31
0.0
 11
412.6462866336333
 21
316.8277567636478
 31
0.0
 11
412.1054288266263
 21
316.7080894060227
 31
0.0
 11
411.599942158707
 21
316.5674782886854
 31
0.0
 11
411.1031024370924
 21
316.3984981892691
 31
0.0
 11
410.6529070093933
 21
316.2140383305577
 31
0.0
 11
410.2156384486182
 21
316.0003175313423
 31
0.0
 11
409.8333054417392
 21
315.7777561111711
 31
0.0
 11
409.4696578164202
 21
315.5252927341131
 31
0.0
 11
409.1653582642407
 21
315.2708964747993
 31
0.0
 11
408.8876107148656
 21
314.9870928462323
 31
0.0
 11
408.6692486549705
 21
314.7069209227875
 31
0.0
 11
408.4876922715355
 21
314.4008751484849
 31
0.0
 11
408.3619860164588
 21
314.1005141835932
 31
0.0
 11
408.2838133539051
 21
313.7839030194339
 31
0.0
 11
408.2575251629698
 21
313.4700865327956
 31
0.0
 11
408.2838133539051
 21
313.1562700461574
 31
0.0
 11
408.3619860164588
 21
312.8396588819981
 31
0.0
 11
408.4876922715354
 21
312.5392979171063
 31
0.0
 11
408.6692486549704
 21
312.2332521428037
 31
0.0
 11
408.8876107148655
 21
311.953080219359
 31
0.0
 11
409.1653582642406
 21
311.669276590792
 31
0.0
 11
409.46965781642
 21
311.4148803314781
 31
0.0
 11
409.833305441739
 21
311.16241695442
 31
0.0
 11
410.2156384486182
 21
310.939855534249
 31
0.0
 11
410.6529070093933
 21
310.7261347350336
 31
0.0
 11
411.1031024370924
 21
310.5416748763223
 31
0.0
 11
411.5999421587069
 21
310.372694776906
 31
0.0
 11
412.1054288266263
 21
310.2320836595686
 31
0.0
 11
412.6462866336333
 21
310.1124163019434
 31
0.0
 11
413.1924569417503
 21
310.0203489232563
 31
0.0
 11
413.7606569087895
 21
309.9530506436132
 31
0.0
 11
414.3313865868403
 21
309.9128554539984
 31
0.0
 11
414.9095925107949
 21
309.8993889676597
 31
0.0
 11
415.4877984347494
 21
309.9128554539983
 31
0.0
 11
416.0585281128001
 21
309.9530506436132
 31
0.0
 11
416.6267280798394
 21
310.0203489232563
 31
0.0
 11
417.1728983879561
 21
310.1124163019434
 31
0.0
 11
417.7137561949633
 21
310.2320836595686
 31
0.0
 11
418.2192428628827
 21
310.3726947769059
 31
0.0
 11
418.7160825844973
 21
310.5416748763223
 31
0.0
 11
419.1662780121964
 21
310.7261347350336
 31
0.0
 11
419.6035465729715
 21
310.939855534249
 31
0.0
 11
419.9858795798505
 21
311.1624169544202
 31
0.0
 11
420.3495272051695
 21
311.4148803314781
 31
0.0
 11
420.6538267573489
 21
311.669276590792
 31
0.0
 11
420.9315743067241
 21
311.953080219359
 31
0.0
 11
421.149936366619
 21
312.2332521428037
 31
0.0
 11
421.3314927500542
 21
312.5392979171063
 31
0.0
 11
421.4571990051309
 21
312.8396588819981
 31
0.0
 11
421.5353716676846
 21
313.1562700461574
 31
0.0
 11
421.5616598586198
 21
313.4700865327956
 31
0.0
 11
421.5353716676846
 21
313.7839030194339
 31
0.0
  0
ARC
  5
1C5
330
4F
100
AcDbEntity
  8
1
  6
Continuous
 62
     7
100
AcDbCircle
 10
403.4095925107949
 20
307.6125495682372
 30
0.0
 40
0.9999999999999836
100
AcDbArc
 50
30.00000000000054
 51
90.0
  0
ARC
  5
1C6
330
4F
100
AcDbEntity
  8
1
  6
Continuous
 62
     7
100
AcDbCircle
 10
405.1416433183637
 20
308.6125495682372
 30
0.0
 40
0.9999999999999836
100
AcDbArc
 50
-149.9999999999995
 51
-90.0
  0
ARC
  5
1C7
330
4F
100
AcDbEntity
  8
1
  6
Continuous
 62
     7
100
AcDbCircle
 10
403.3515714490643
 20
309.6125495682372
 30
0.0
 40
0.9999999999999741
100
AcDbArc
 50
-105.3375576695592
 51
-90.0
  0
ARC
  5
1C8
330
4F
100
AcDbEntity
  8
1
  6
Continuous
 62
     7
100
AcDbCircle
 10
426.4095925107949
 20
307.6125495682372
 30
0.0
 40
1.0
100
AcDbArc
 50
90.0
 51
150.0000000000011
  0
ARC
  5
1C9
330
4F
100
AcDbEntity
  8
1
  6
Continuous
 62
     7
100
AcDbCircle
 10
424.677541703226
 20
308.6125495682372
 30
0.0
 40
1.0
100
AcDbArc
 50
-90.0
 51
-30.00000000000054
  0
ARC
  5
1CA
330
4F
100
AcDbEntity
  8
1
  6
Continuous
 62
     7
100
AcDbCircle
 10
426.4676135725254
 20
309.6125495682372
 30
0.0
 40
1.0
100
AcDbArc
 50
-90.0
 51
-74.6624423304408
  0
ARC
  5
1CB
330
4F
100
AcDbEntity
  8
1
  6
Continuous
 62
     7
100
AcDbCircle
 10
164.3932375455001
 20
308.6125495682372
 30
0.0
 40
1.000000000000033
100
AcDbArc
 50
29.99999999999892
 51
90.0
  0
ARC
  5
1CC
330
4F
100
AcDbEntity
  8
1
  6
Continuous
 62
     7
100
AcDbCircle
 10
166.125288353069
 20
309.6125495682372
 30
0.0
 40
0.9999999999999836
100
AcDbArc
 50
-149.9999999999995
 51
-90.0
  0
ARC
  5
1CD
330
4F
100
AcDbEntity
  8
1
  6
Continuous
 62
     7
100
AcDbCircle
 10
164.3352164837696
 20
310.6125495682372
 30
0.0
 40
0.9999999999999741
100
AcDbArc
 50
-105.3375576695592
 51
-90.0
  0
ARC
  5
1CE
330
4F
100
AcDbEntity
  8
1
  6
Continuous
 62
     7
100
AcDbCircle
 10
187.3932375455003
 20
308.6125495682372
 30
0.0
 40
1.0
100
AcDbArc
 50
90.0
 51
150.0000000000019
  0
ARC
  5
1CF
330
4F
100
AcDbEntity
  8
1
  6
Continuous
 62
     7
100
AcDbCircle
 10
185.6611867379314
 20
309.6125495682372
 30
0.0
 40
1.0
100
AcDbArc
 50
-90.0
 51
-30.00000000000054
  0
ARC
  5
1D0
330
4F
100
AcDbEntity
  8
1
  6
Continuous
 62
     7
100
AcDbCircle
 10
187.4512586072309
 20
310.6125495682372
 30
0.0
 40
1.0
100
AcDbArc
 50
-90.0
 51
-74.66244233044709
  0
ENDBLK
  5
51
330
4F
100
AcDbEntity
  8
0
100
AcDbBlockEnd
  0
BLOCK
  5
53
330
52
100
AcDbEntity
  8
0
100
AcDbBlockBegin
  2
84-338
 70
     0
 71
     0
 10
89.64146800485719
 20
620.3690297494059
 30
0.0
  3
84-338
  1

  0
LINE
  5
1D1
330
52
100
AcDbEntity
  8
1
  6
PHANTOM
 62
     4
100
AcDbLine
 10
175.8932375455001
 20
658.4769959861972
 30
0.0
 11
175.8932375455001
 21
682.1814441420354
 31
0.0
  0
LINE
  5
1D2
330
52
100
AcDbEntity
  8
1
  6
PHANTOM
 62
     4
100
AcDbLine
 10
164.041013467581
 20
670.3292200641163
 30
0.0
 11
187.7454616234192
 21
670.3292200641163
 31
0.0
  0
ARC
  5
1D3
330
52
100
AcDbEntity
  8
_______C____
  6
Continuous
 62
     7
100
AcDbCircle
 10
456.8690118480726
 20
401.899986676432
 30
0.0
 40
1.000000000000411
100
AcDbArc
 50
57.27729399998255
 51
83.22581999998381
  0
ARC
  5
1D4
330
52
100
AcDbEntity
  8
1
  6
Continuous
 62
     7
100
AcDbCircle
 10
449.9095938480726
 20
343.3163814681685
 30
0.0
 40
59.99552778043412
100
AcDbArc
 50
83.22532657334733
 51
90.00000127710149
  0
ARC
  5
1D5
330
52
100
AcDbEntity
  8
1
  6
Continuous
 62
     7
100
AcDbCircle
 10
449.9095911735166
 20
343.3163814681685
 30
0.0
 40
59.99552778043422
100
AcDbArc
 50
89.9999987228983
 51
96.77467342665246
  0
ARC
  5
1D6
330
52
100
AcDbEntity
  8
_______C____
  6
Continuous
 62
     7
100
AcDbCircle
 10
442.9501731735167
 20
401.899986676432
 30
0.0
 40
1.000000000000198
100
AcDbArc
 50
96.77418000000972
 51
122.722706000012
  0
ARC
  5
1D7
330
52
100
AcDbEntity
  8
1
  6
DASH_CENTER
 62
     2
100
AcDbCircle
 10
449.9095925107946
 20
343.2119005722153
 30
0.0
 40
59.99997753533462
100
AcDbArc
 50
82.81924815559157
 51
97.18075184440822
  0
ARC
  5
1D8
330
52
100
AcDbEntity
  8
1
  6
Continuous
 62
     7
100
AcDbCircle
 10
449.9095925104574
 20
343.2119005698556
 30
0.0
 40
59.9999775377178
100
AcDbArc
 50
82.18472029842656
 51
82.81924815555377
  0
ARC
  5
1D9
330
52
100
AcDbEntity
  8
1
  6
Continuous
 62
     7
100
AcDbCircle
 10
449.9095925108567
 20
343.211900571783
 30
0.0
 40
59.99997753577126
100
AcDbArc
 50
97.1807518444155
 51
97.81527943696504
  0
ARC
  5
1DA
330
52
100
AcDbEntity
  8
1
  6
Continuous
 62
     7
100
AcDbCircle
 10
175.8932375455621
 20
343.211900571783
 30
0.0
 40
59.99997753577126
100
AcDbArc
 50
97.1807518444155
 51
97.81527943696504
  0
ARC
  5
1DB
330
52
100
AcDbEntity
  8
1
  6
Continuous
 62
     7
100
AcDbCircle
 10
175.8932375451628
 20
343.2119005698556
 30
0.0
 40
59.99997753771782
100
AcDbArc
 50
82.18472029842644
 51
82.81924815555377
  0
ARC
  5
1DC
330
52
100
AcDbEntity
  8
1
  6
DASH_CENTER
 62
     2
100
AcDbCircle
 10
175.8932375455
 20
343.2119005722153
 30
0.0
 40
59.99997753533462
100
AcDbArc
 50
82.81924815559157
 51
97.18075184440825
  0
ARC
  5
1DD
330
52
100
AcDbEntity
  8
_______C____
  6
Continuous
 62
     7
100
AcDbCircle
 10
168.9338182082221
 20
401.899986676432
 30
0.0
 40
1.000000000000188
100
AcDbArc
 50
96.77418000000486
 51
122.7227060000134
  0
ARC
  5
1DE
330
52
100
AcDbEntity
  8
1
  6
Continuous
 62
     7
100
AcDbCircle
 10
175.893236208222
 20
343.3163814681685
 30
0.0
 40
59.99552778043422
100
AcDbArc
 50
89.99999872289828
 51
96.77467342665236
  0
ARC
  5
1DF
330
52
100
AcDbEntity
  8
1
  6
Continuous
 62
     7
100
AcDbCircle
 10
175.8932388827781
 20
343.3163814681685
 30
0.0
 40
59.9955277804341
100
AcDbArc
 50
83.22532657334745
 51
90.00000127710159
  0
ARC
  5
1E0
330
52
100
AcDbEntity
  8
_______C____
  6
Continuous
 62
     7
100
AcDbCircle
 10
182.852656882778
 20
401.899986676432
 30
0.0
 40
1.000000000000411
100
AcDbArc
 50
57.27729399998255
 51
83.22581999998381
  0
CIRCLE
  5
1E1
330
52
100
AcDbEntity
  8
1
  6
Continuous
 62
     7
100
AcDbCircle
 10
175.8932375455001
 20
670.3292200641163
 30
0.0
 40
7.500000000006793
  0
CIRCLE
  5
1E2
330
52
100
AcDbEntity
  8
1
  6
Continuous
 62
     7
100
AcDbCircle
 10
175.8932375455001
 20
670.3292200641163
 30
0.0
 40
8.85222407791909
  0
ARC
  5
1E3
330
52
100
AcDbEntity
  8
1
  6
Continuous
 62
     7
100
AcDbCircle
 10
457.9595925107946
 20
401.8620057740313
 30
0.0
 40
0.7999999999999754
100
AcDbArc
 50
18.25096144528862
 51
82.18472029842224
  0
ARC
  5
1E4
330
52
100
AcDbEntity
  8
1
  6
Continuous
 62
     7
100
AcDbCircle
 10
441.8595927816472
 20
401.8620058112073
 30
0.0
 40
0.8000000000000243
100
AcDbArc
 50
97.81527943696342
 51
161.7490413582912
  0
ARC
  5
1E5
330
52
100
AcDbEntity
  8
1
  6
Continuous
 62
     7
100
AcDbCircle
 10
167.8432378163526
 20
401.8620058112073
 30
0.0
 40
0.8000000000000243
100
AcDbArc
 50
97.81527943696342
 51
161.7490413582886
  0
ARC
  5
1E6
330
52
100
AcDbEntity
  8
1
  6
Continuous
 62
     7
100
AcDbCircle
 10
183.9432375455
 20
401.8620057740313
 30
0.0
 40
0.7999999999999754
100
AcDbArc
 50
18.25096144528862
 51
82.18472029841418
  0
ENDBLK
  5
54
330
52
100
AcDbEntity
  8
0
100
AcDbBlockEnd
  0
BLOCK
  5
57
330
55
100
AcDbEntity
  8
0
100
AcDbBlockBegin
  2
84-338X
 70
     0
 71
     0
 10
35.789769663454
 20
315.206756427137
 30
0.0
  3
84-338X
  1

  0
INSERT
  5
56
330
55
100
AcDbEntity
  8
1
100
AcDbBlockReference
  2
84-338
 10
34.4534320193599
 20
389.0493174810849
 30
0.0
 41
0.33333333333333
 42
0.33333333333334
  0
LINE
  5
1E7
330
55
100
AcDbEntity
  8
1
  6
PHANTOM
 62
     4
100
AcDbLine
 10
169.8503410469472
 20
200.2067564271369
 30
0.0
 11
169.9296362885363
 21
200.2067564271369
 31
0.0
  0
LINE
  5
1E8
330
55
100
AcDbEntity
  8
1
  6
PHANTOM
 62
     4
100
AcDbLine
 10
63.20402186624084
 20
410.7027142526595
 30
0.0
 11
63.20402186624084
 21
400.7027142526504
 31
0.0
  0
LINE
  5
1E9
330
55
100
AcDbEntity
  8
1
  6
PHANTOM
 62
     4
100
AcDbLine
 10
58.20402186623629
 20
405.702714252655
 30
0.0
 11
68.20402186624538
 21
405.702714252655
 31
0.0
  0
ENDBLK
  5
58
330
55
100
AcDbEntity
  8
0
100
AcDbBlockEnd
  0
BLOCK
  5
5A
330
59
100
AcDbEntity
  8
0
100
AcDbBlockBegin
  2
21-9-M1
 70
     0
 71
     0
 10
102.7389713189832
 20
444.3283009256315
 30
0.0
  3
21-9-M1
  1

  0
POINT
  5
1EA
330
59
100
AcDbEntity
  8
____
 62
     7
100
AcDbPoint
 10
484.9095911818184
 20
391.6125495682372
 30
0.0
  0
POINT
  5
1EB
330
59
100
AcDbEntity
  8
____
 62
     7
100
AcDbPoint
 10
484.9095911818184
 20
391.6125495682372
 30
0.0
  0
POINT
  5
1EC
330
59
100
AcDbEntity
  8
____
 62
     7
100
AcDbPoint
 10
470.0611231818183
 20
387.1125495682372
 30
0.0
  0
POINT
  5
1ED
330
59
100
AcDbEntity
  8
____
 62
     7
100
AcDbPoint
 10
470.0611231818183
 20
396.1125495682372
 30
0.0
  0
POINT
  5
1EE
330
59
100
AcDbEntity
  8
____
 62
     7
100
AcDbPoint
 10
449.9095921818185
 20
402.8125495682373
 30
0.0
  0
POINT
  5
1EF
330
59
100
AcDbEntity
  8
____
 62
     7
100
AcDbPoint
 10
484.9095911818184
 20
391.6125495682372
 30
0.0
  0
POINT
  5
1F0
330
59
100
AcDbEntity
  8
____
 62
     7
100
AcDbPoint
 10
414.9095931818182
 20
391.6125495682372
 30
0.0
  0
POINT
  5
1F1
330
59
100
AcDbEntity
  8
____
 62
     7
100
AcDbPoint
 10
140.8932382165236
 20
391.6125495682372
 30
0.0
  0
POINT
  5
1F2
330
59
100
AcDbEntity
  8
____
 62
     7
100
AcDbPoint
 10
210.8932362165239
 20
391.6125495682372
 30
0.0
  0
POINT
  5
1F3
330
59
100
AcDbEntity
  8
____
 62
     7
100
AcDbPoint
 10
175.893237216524
 20
402.8125495682373
 30
0.0
  0
POINT
  5
1F4
330
59
100
AcDbEntity
  8
____
 62
     7
100
AcDbPoint
 10
196.0447682165237
 20
396.1125495682372
 30
0.0
  0
POINT
  5
1F5
330
59
100
AcDbEntity
  8
____
 62
     7
100
AcDbPoint
 10
196.0447682165237
 20
387.1125495682372
 30
0.0
  0
POINT
  5
1F6
330
59
100
AcDbEntity
  8
____
 62
     7
100
AcDbPoint
 10
210.8932362165239
 20
391.6125495682372
 30
0.0
  0
POINT
  5
1F7
330
59
100
AcDbEntity
  8
____
 62
     7
100
AcDbPoint
 10
210.8932362165239
 20
391.6125495682372
 30
0.0
  0
LINE
  5
1F8
330
59
100
AcDbEntity
  8
1
  6
Continuous
 62
     7
100
AcDbLine
 10
181.4067468206621
 20
677.2547587867268
 30
0.0
 11
181.5119001424045
 21
677.3599121084692
 31
0.0
  0
LINE
  5
1F9
330
59
100
AcDbEntity
  8
1
  6
Continuous
 62
     7
100
AcDbLine
 10
182.8187762681217
 20
675.8427293392645
 30
0.0
 11
182.923929589864
 21
675.9478826610068
 31
0.0
  0
LINE
  5
1FA
330
59
100
AcDbEntity
  8
1
  6
PHANTOM
 62
     4
100
AcDbLine
 10
137.8932375455157
 20
670.3292200641162
 30
0.0
 11
213.8932375455153
 21
670.3292200641162
 31
0.0
  0
LINE
  5
1FB
330
59
100
AcDbEntity
  8
1
  6
PHANTOM
 62
     4
100
AcDbLine
 10
175.8932375455001
 20
708.3292200641307
 30
0.0
 11
175.8932375455001
 21
632.3292200641305
 31
0.0
  0
LINE
  5
1FC
330
59
100
AcDbEntity
  8
_______C____
  6
Continuous
 62
     7
100
AcDbLine
 10
196.0447685455155
 20
665.8292200641306
 30
0.0
 11
192.7929415455157
 21
665.8292200641306
 31
0.0
  0
LINE
  5
1FD
330
59
100
AcDbEntity
  8
_______C____
  6
Continuous
 62
     7
100
AcDbLine
 10
155.7417065455156
 20
665.8292200641306
 30
0.0
 11
158.9935335455156
 21
665.8292200641306
 31
0.0
  0
LINE
  5
1FE
330
59
100
AcDbEntity
  8
_______C____
  6
Continuous
 62
     7
100
AcDbLine
 10
155.7417065455156
 20
674.8292200641306
 30
0.0
 11
158.9935335455156
 21
674.8292200641306
 31
0.0
  0
LINE
  5
1FF
330
59
100
AcDbEntity
  8
_______C____
  6
Continuous
 62
     7
100
AcDbLine
 10
180.3932375455156
 20
690.4807510641307
 30
0.0
 11
180.3932375455156
 21
687.2289240641309
 31
0.0
  0
LINE
  5
200
330
59
100
AcDbEntity
  8
_______C____
  6
Continuous
 62
     7
100
AcDbLine
 10
180.3932375455156
 20
650.1776890641306
 30
0.0
 11
180.3932375455156
 21
653.4295160641308
 31
0.0
  0
LINE
  5
201
330
59
100
AcDbEntity
  8
_______C____
  6
Continuous
 62
     7
100
AcDbLine
 10
171.3932375455156
 20
690.4807510641307
 30
0.0
 11
171.3932375455156
 21
690.4807510641307
 31
0.0
  0
LINE
  5
202
330
59
100
AcDbEntity
  8
_______C____
  6
Continuous
 62
     7
100
AcDbLine
 10
196.0447685455155
 20
674.8292200641306
 30
0.0
 11
192.7929425455156
 21
674.8292200641306
 31
0.0
  0
LINE
  5
203
330
59
100
AcDbEntity
  8
_______C____
  6
Continuous
 62
     7
100
AcDbLine
 10
180.3932375455156
 20
650.1776890641306
 30
0.0
 11
180.3932375455156
 21
650.177690064131
 31
0.0
  0
LINE
  5
204
330
59
100
AcDbEntity
  8
_______C____
  6
Continuous
 62
     7
100
AcDbLine
 10
171.3932375455156
 20
690.4807510641307
 30
0.0
 11
171.3932375455156
 21
687.2289240641309
 31
0.0
  0
LINE
  5
205
330
59
100
AcDbEntity
  8
_______C____
  6
Continuous
 62
     7
100
AcDbLine
 10
171.3932375455156
 20
650.1776890641306
 30
0.0
 11
171.3932375455156
 21
653.4295160641308
 31
0.0
  0
LINE
  5
206
330
59
100
AcDbEntity
  8
_______C____
  6
Continuous
 62
     7
100
AcDbLine
 10
196.0447685454854
 20
674.8292200641317
 30
0.0
 11
196.0447675454854
 21
674.8292200641317
 31
0.0
  0
LINE
  5
207
330
59
100
AcDbEntity
  8
_______C____
  6
Continuous
 62
     7
100
AcDbLine
 10
449.9118171818183
 20
402.1125495682372
 30
0.0
 11
458.9595921818185
 21
402.1125495682372
 31
0.0
  0
LINE
  5
208
330
59
100
AcDbEntity
  8
_______C____
  6
Continuous
 62
     7
100
AcDbLine
 10
429.7580611818185
 20
396.1125495682372
 30
0.0
 11
430.7580591818185
 21
396.1144355682372
 31
0.0
  0
LINE
  5
209
330
59
100
AcDbEntity
  8
_______C____
  6
Continuous
 62
     7
100
AcDbLine
 10
449.9073671818184
 20
402.1125495682372
 30
0.0
 11
440.4323671818185
 21
402.1125495682372
 31
0.0
  0
LINE
  5
20A
330
59
100
AcDbEntity
  8
_______C____
  6
Continuous
 62
     7
100
AcDbLine
 10
470.0611231818183
 20
396.1125495682372
 30
0.0
 11
469.0611251818183
 21
396.1144355682372
 31
0.0
  0
LINE
  5
20B
330
59
100
AcDbEntity
  8
1
  6
PHANTOM
 62
     4
100
AcDbLine
 10
487.9095911818184
 20
391.6125495682372
 30
0.0
 11
411.9095931818182
 21
391.6125495682372
 31
0.0
  0
LINE
  5
20C
330
59
100
AcDbEntity
  8
1
  6
PHANTOM
 62
     4
100
AcDbLine
 10
449.9095927939133
 20
405.8125495682371
 30
0.0
 11
449.9095921818185
 21
375.1125395682373
 31
0.0
  0
LINE
  5
20D
330
59
100
AcDbEntity
  8
1
  6
Continuous
 62
     7
100
AcDbLine
 10
438.4095931818182
 20
378.3125395682374
 30
0.0
 11
438.4095931818182
 21
381.1488775682373
 31
0.0
  0
LINE
  5
20E
330
59
100
AcDbEntity
  8
1
  6
Continuous
 62
     7
100
AcDbLine
 10
438.6095931818184
 20
378.1125395682373
 30
0.0
 11
449.9095922416323
 21
378.1125395682373
 31
0.0
  0
LINE
  5
20F
330
59
100
AcDbEntity
  8
1
  6
Continuous
 62
     7
100
AcDbLine
 10
449.9095923169317
 20
378.1125395682373
 30
0.0
 11
461.2095913767456
 21
378.1125395682373
 31
0.0
  0
LINE
  5
210
330
59
100
AcDbEntity
  8
1
  6
Continuous
 62
     7
100
AcDbLine
 10
461.4095911818183
 20
381.1488775682373
 30
0.0
 11
461.4095913767457
 21
378.3125395682374
 31
0.0
  0
LINE
  5
211
330
59
100
AcDbEntity
  8
1
  6
Continuous
 62
     2
100
AcDbLine
 10
438.4095931818182
 20
378.3125395682374
 30
0.0
 11
438.4095931818182
 21
378.1125395682373
 31
0.0
  0
LINE
  5
212
330
59
100
AcDbEntity
  8
1
  6
Continuous
 62
     2
100
AcDbLine
 10
438.4095931818182
 20
378.1125395682373
 30
0.0
 11
438.6095931818184
 21
378.1125395682373
 31
0.0
  0
LINE
  5
213
330
59
100
AcDbEntity
  8
1
  6
Continuous
 62
     2
100
AcDbLine
 10
461.2095911818184
 20
378.1125395682373
 30
0.0
 11
461.4095911818185
 21
378.1125395682373
 31
0.0
  0
LINE
  5
214
330
59
100
AcDbEntity
  8
1
  6
Continuous
 62
     2
100
AcDbLine
 10
461.4095911818185
 20
378.1125395682373
 30
0.0
 11
461.4095911818185
 21
378.3125395682374
 31
0.0
  0
LINE
  5
215
330
59
100
AcDbEntity
  8
_______C____
  6
Continuous
 62
     7
100
AcDbLine
 10
459.1595921818183
 20
402.1125495682372
 30
0.0
 11
459.3868171818184
 21
402.1125495682372
 31
0.0
  0
LINE
  5
216
330
59
100
AcDbEntity
  8
1
  6
Continuous
 62
     7
100
AcDbLine
 10
458.9595921818185
 20
402.1125495682372
 30
0.0
 11
459.1595921818183
 21
402.1125495682372
 31
0.0
  0
LINE
  5
217
330
59
100
AcDbEntity
  8
1
  6
Continuous
 62
     7
100
AcDbLine
 10
184.9432372165239
 20
402.1125495682372
 30
0.0
 11
185.1432372165237
 21
402.1125495682372
 31
0.0
  0
LINE
  5
218
330
59
100
AcDbEntity
  8
_______C____
  6
Continuous
 62
     7
100
AcDbLine
 10
185.1432372165237
 20
402.1125495682372
 30
0.0
 11
185.3704622165238
 21
402.1125495682372
 31
0.0
  0
LINE
  5
219
330
59
100
AcDbEntity
  8
1
  6
Continuous
 62
     2
100
AcDbLine
 10
187.393236216524
 20
378.1125395682373
 30
0.0
 11
187.393236216524
 21
378.3125395682374
 31
0.0
  0
LINE
  5
21A
330
59
100
AcDbEntity
  8
1
  6
Continuous
 62
     2
100
AcDbLine
 10
187.1932362165238
 20
378.1125395682373
 30
0.0
 11
187.393236216524
 21
378.1125395682373
 31
0.0
  0
LINE
  5
21B
330
59
100
AcDbEntity
  8
1
  6
Continuous
 62
     2
100
AcDbLine
 10
164.3932382165236
 20
378.1125395682373
 30
0.0
 11
164.5932382165238
 21
378.1125395682373
 31
0.0
  0
LINE
  5
21C
330
59
100
AcDbEntity
  8
1
  6
Continuous
 62
     2
100
AcDbLine
 10
164.3932382165236
 20
378.3125395682374
 30
0.0
 11
164.3932382165236
 21
378.1125395682373
 31
0.0
  0
LINE
  5
21D
330
59
100
AcDbEntity
  8
1
  6
Continuous
 62
     7
100
AcDbLine
 10
187.3932362165238
 20
381.1488775682373
 30
0.0
 11
187.3932364114511
 21
378.3125395682374
 31
0.0
  0
LINE
  5
21E
330
59
100
AcDbEntity
  8
1
  6
Continuous
 62
     7
100
AcDbLine
 10
175.8932373516371
 20
378.1125395682373
 30
0.0
 11
187.193236411451
 21
378.1125395682373
 31
0.0
  0
LINE
  5
21F
330
59
100
AcDbEntity
  8
1
  6
Continuous
 62
     7
100
AcDbLine
 10
164.5932382165238
 20
378.1125395682373
 30
0.0
 11
175.8932372763377
 21
378.1125395682373
 31
0.0
  0
LINE
  5
220
330
59
100
AcDbEntity
  8
1
  6
Continuous
 62
     7
100
AcDbLine
 10
164.3932382165236
 20
378.3125395682374
 30
0.0
 11
164.3932382165236
 21
381.1488775682373
 31
0.0
  0
LINE
  5
221
330
59
100
AcDbEntity
  8
1
  6
PHANTOM
 62
     4
100
AcDbLine
 10
175.8932378286187
 20
405.8125495682371
 30
0.0
 11
175.893237216524
 21
375.1125395682373
 31
0.0
  0
LINE
  5
222
330
59
100
AcDbEntity
  8
1
  6
PHANTOM
 62
     4
100
AcDbLine
 10
213.8932362165239
 20
391.6125495682372
 30
0.0
 11
137.8932382165236
 21
391.6125495682372
 31
0.0
  0
LINE
  5
223
330
59
100
AcDbEntity
  8
_______C____
  6
Continuous
 62
     7
100
AcDbLine
 10
196.0447682165237
 20
396.1125495682372
 30
0.0
 11
195.0447702165237
 21
396.1144355682372
 31
0.0
  0
LINE
  5
224
330
59
100
AcDbEntity
  8
_______C____
  6
Continuous
 62
     7
100
AcDbLine
 10
175.8910122165238
 20
402.1125495682372
 30
0.0
 11
166.4160122165239
 21
402.1125495682372
 31
0.0
  0
LINE
  5
225
330
59
100
AcDbEntity
  8
_______C____
  6
Continuous
 62
     7
100
AcDbLine
 10
155.7417062165239
 20
396.1125495682372
 30
0.0
 11
156.7417042165239
 21
396.1144355682372
 31
0.0
  0
LINE
  5
226
330
59
100
AcDbEntity
  8
_______C____
  6
Continuous
 62
     7
100
AcDbLine
 10
175.8954622165237
 20
402.1125495682372
 30
0.0
 11
184.9432372165239
 21
402.1125495682372
 31
0.0
  0
ARC
  5
227
330
59
100
AcDbEntity
  8
1
  6
Continuous
 62
     7
100
AcDbCircle
 10
182.2571985761915
 20
676.6931810947951
 30
0.0
 40
1.000000000000035
100
AcDbArc
 50
-48.18473853607078
 51
138.1847385359541
  0
ARC
  5
228
330
59
100
AcDbEntity
  8
_______C____
  6
Continuous
 62
     7
100
AcDbCircle
 10
158.9935335455156
 20
653.429220064131
 30
0.0
 40
12.3999999999998
100
AcDbArc
 50
45.00050199999909
 51
90.0
  0
ARC
  5
229
330
59
100
AcDbEntity
  8
_______C____
  6
Continuous
 62
     7
100
AcDbCircle
 10
158.9935335455156
 20
687.2292200641308
 30
0.0
 40
12.40000000000021
100
AcDbArc
 50
-90.0
 51
-45.00050199999983
  0
ARC
  5
22A
330
59
100
AcDbEntity
  8
_______C____
  6
Continuous
 62
     7
100
AcDbCircle
 10
192.7929415455157
 20
653.429220064131
 30
0.0
 40
12.39999999999964
100
AcDbArc
 50
90.0
 51
134.9994980000016
  0
ARC
  5
22B
330
59
100
AcDbEntity
  8
_______C____
  6
Continuous
 62
     7
100
AcDbCircle
 10
168.3932375455156
 20
690.4807510641307
 30
0.0
 40
3.0
100
AcDbArc
 50
0.0
 51
44.4153089999984
  0
ARC
  5
22C
330
59
100
AcDbEntity
  8
_______C____
  6
Continuous
 62
     7
100
AcDbCircle
 10
155.7417065455156
 20
677.8292200641306
 30
0.0
 40
3.000000000000215
100
AcDbArc
 50
-134.4153089999977
 51
-90.0
  0
ARC
  5
22D
330
59
100
AcDbEntity
  8
_______C____
  6
Continuous
 62
     7
100
AcDbCircle
 10
155.7417065455156
 20
662.8292200641306
 30
0.0
 40
3.0
100
AcDbArc
 50
90.0
 51
134.4153089999916
  0
ARC
  5
22E
330
59
100
AcDbEntity
  8
_______C____
  6
Continuous
 62
     7
100
AcDbCircle
 10
168.3932375455156
 20
650.1776890641306
 30
0.0
 40
2.999999999999814
100
AcDbArc
 50
-44.4153089999953
 51
0.0
  0
ARC
  5
22F
330
59
100
AcDbEntity
  8
_______C____
  6
Continuous
 62
     7
100
AcDbCircle
 10
183.3932375455156
 20
650.1776890641306
 30
0.0
 40
3.0
100
AcDbArc
 50
180.0
 51
-135.5846910000032
  0
ARC
  5
230
330
59
100
AcDbEntity
  8
_______C____
  6
Continuous
 62
     7
100
AcDbCircle
 10
192.7932375455156
 20
687.2289240641309
 30
0.0
 40
12.40000000000001
100
AcDbArc
 50
180.0
 51
-135.0005020000007
  0
ARC
  5
231
330
59
100
AcDbEntity
  8
_______C____
  6
Continuous
 62
     7
100
AcDbCircle
 10
158.9932375455157
 20
687.2289240641309
 30
0.0
 40
12.39999999999974
100
AcDbArc
 50
-44.99949800000007
 51
0.0
  0
ARC
  5
232
330
59
100
AcDbEntity
  8
_______C____
  6
Continuous
 62
     7
100
AcDbCircle
 10
192.7932375455156
 20
653.4295160641308
 30
0.0
 40
12.3999999999999
100
AcDbArc
 50
135.0005020000007
 51
180.0
  0
ARC
  5
233
330
59
100
AcDbEntity
  8
_______C____
  6
Continuous
 62
     7
100
AcDbCircle
 10
158.9932375455157
 20
653.4295160641308
 30
0.0
 40
12.39999999999989
100
AcDbArc
 50
0.0
 51
44.99949800000007
  0
ARC
  5
234
330
59
100
AcDbEntity
  8
_______C____
  6
Continuous
 62
     7
100
AcDbCircle
 10
192.7929415455157
 20
687.2292200641308
 30
0.0
 40
12.4000000000001
100
AcDbArc
 50
-134.9994980000008
 51
-90.0
  0
ARC
  5
235
330
59
100
AcDbEntity
  8
_______C____
  6
Continuous
 62
     7
100
AcDbCircle
 10
175.8932375455156
 20
642.8292200641306
 30
0.0
 40
7.500000000000378
100
AcDbArc
 50
135.5846909999958
 51
44.41530800000299
  0
ARC
  5
236
330
59
100
AcDbEntity
  8
_______C____
  6
Continuous
 62
     7
100
AcDbCircle
 10
148.3932375455156
 20
670.3292200641306
 30
0.0
 40
7.500000000000358
100
AcDbArc
 50
45.58469400000342
 51
-45.58469300000026
  0
ARC
  5
237
330
59
100
AcDbEntity
  8
_______C____
  6
Continuous
 62
     7
100
AcDbCircle
 10
175.8932375455156
 20
697.8292200641306
 30
0.0
 40
7.499999999999606
100
AcDbArc
 50
-44.41531099999719
 51
-135.5846920000003
  0
ARC
  5
238
330
59
100
AcDbEntity
  8
_______C____
  6
Continuous
 62
     7
100
AcDbCircle
 10
183.3932375455156
 20
690.4807510641307
 30
0.0
 40
2.999999999999892
100
AcDbArc
 50
135.5846910000001
 51
180.0
  0
ARC
  5
239
330
59
100
AcDbEntity
  8
_______C____
  6
Continuous
 62
     7
100
AcDbCircle
 10
175.8932375455156
 20
670.3292200641306
 30
0.0
 40
9.000000000000355
100
AcDbArc
 50
52.9641571551567
 51
0.0
  0
ARC
  5
23A
330
59
100
AcDbEntity
  8
_______C____
  6
Continuous
 62
     7
100
AcDbCircle
 10
175.8932375455156
 20
670.3292200641306
 30
0.0
 40
9.0
100
AcDbArc
 50
0.0
 51
37.03584284482927
  0
ARC
  5
23B
330
59
100
AcDbEntity
  8
1
  6
Continuous
 62
     7
100
AcDbCircle
 10
175.8932375455001
 20
670.3292200641162
 30
0.0
 40
9.000000000021187
100
AcDbArc
 50
51.36947707337492
 51
52.96415715513335
  0
ARC
  5
23C
330
59
100
AcDbEntity
  8
1
  6
Continuous
 62
     7
100
AcDbCircle
 10
175.8932375455001
 20
670.3292200641162
 30
0.0
 40
9.000000000021178
100
AcDbArc
 50
37.03584284484325
 51
38.63052292651366
  0
ARC
  5
23D
330
59
100
AcDbEntity
  8
_______C____
  6
Continuous
 62
     7
100
AcDbCircle
 10
203.3932375454854
 20
670.3292200641317
 30
0.0
 40
7.500000000000098
100
AcDbArc
 50
-134.4153090000023
 51
134.4153080000017
  0
ARC
  5
23E
330
59
100
AcDbEntity
  8
_______C____
  6
Continuous
 62
     7
100
AcDbCircle
 10
196.0447685454854
 20
677.8292200641317
 30
0.0
 40
3.0
100
AcDbArc
 50
-90.0
 51
-45.58469099999932
  0
ARC
  5
23F
330
59
100
AcDbEntity
  8
_______C____
  6
Continuous
 62
     7
100
AcDbCircle
 10
196.0447685454854
 20
662.8292200641315
 30
0.0
 40
3.000000000000216
100
AcDbArc
 50
45.58469100000539
 51
90.0
  0
ARC
  5
240
330
59
100
AcDbEntity
  8
_______C____
  6
Continuous
 62
     7
100
AcDbCircle
 10
430.7580591818185
 20
408.5144355682373
 30
0.0
 40
12.40000000000009
100
AcDbArc
 50
-90.0
 51
-58.69962399999892
  0
ARC
  5
241
330
59
100
AcDbEntity
  8
_______C____
  6
Continuous
 62
     7
100
AcDbCircle
 10
418.9095911818182
 20
391.6128495682373
 30
0.0
 40
42.5
100
AcDbArc
 50
12.86811999999974
 51
13.34193900000008
  0
ARC
  5
242
330
59
100
AcDbEntity
  8
_______C____
  6
Continuous
 62
     7
100
AcDbCircle
 10
469.0611251818183
 20
408.5144355682373
 30
0.0
 40
12.3999999999998
100
AcDbArc
 50
-121.3003759999979
 51
-90.0
  0
ARC
  5
243
330
59
100
AcDbEntity
  8
_______C____
  6
Continuous
 62
     7
100
AcDbCircle
 10
422.4095931818182
 20
391.6125495682372
 30
0.0
 40
7.5
100
AcDbArc
 50
180.0
 51
-45.59551799999665
  0
ARC
  5
244
330
59
100
AcDbEntity
  8
_______C____
  6
Continuous
 62
     7
100
AcDbCircle
 10
434.6025431818183
 20
402.1914655682373
 30
0.0
 40
5.00000000000014
100
AcDbArc
 50
-58.69962199999646
 51
-12.86811999999847
  0
ARC
  5
245
330
59
100
AcDbEntity
  8
_______C____
  6
Continuous
 62
     7
100
AcDbCircle
 10
440.4323671818185
 20
401.2125495682371
 30
0.0
 40
0.9000000000001478
100
AcDbArc
 50
90.0
 51
166.6580609999853
  0
ARC
  5
246
330
59
100
AcDbEntity
  8
_______C____
  6
Continuous
 62
     7
100
AcDbCircle
 10
429.7580611818185
 20
384.1125495682372
 30
0.0
 40
3.0
100
AcDbArc
 50
90.0
 51
134.4153089999981
  0
ARC
  5
247
330
59
100
AcDbEntity
  8
_______C____
  6
Continuous
 62
     7
100
AcDbCircle
 10
429.7580611818185
 20
399.1125495682372
 30
0.0
 40
2.999999999999952
100
AcDbArc
 50
-134.4153090000003
 51
-90.0
  0
ARC
  5
248
330
59
100
AcDbEntity
  8
_______C____
  6
Continuous
 62
     7
100
AcDbCircle
 10
480.9095931818182
 20
391.6128495682373
 30
0.0
 40
42.49999999999993
100
AcDbArc
 50
166.6580609999999
 51
167.1318799999997
  0
ARC
  5
249
330
59
100
AcDbEntity
  8
_______C____
  6
Continuous
 62
     7
100
AcDbCircle
 10
470.0611231818183
 20
399.1125495682372
 30
0.0
 40
3.0
100
AcDbArc
 50
-90.0
 51
-45.58469100000279
  0
ARC
  5
24A
330
59
100
AcDbEntity
  8
_______C____
  6
Continuous
 62
     7
100
AcDbCircle
 10
470.0611231818183
 20
384.1125495682372
 30
0.0
 40
2.999999999999914
100
AcDbArc
 50
45.58469100000507
 51
90.0
  0
ARC
  5
24B
330
59
100
AcDbEntity
  8
_______C____
  6
Continuous
 62
     7
100
AcDbCircle
 10
459.3868171818184
 20
401.2125495682371
 30
0.0
 40
0.9000000000000324
100
AcDbArc
 50
13.34193900001634
 51
90.0
  0
ARC
  5
24C
330
59
100
AcDbEntity
  8
_______C____
  6
Continuous
 62
     7
100
AcDbCircle
 10
465.2166411818183
 20
402.1914655682373
 30
0.0
 40
5.000000000000413
100
AcDbArc
 50
-167.1318800000014
 51
-121.3003780000019
  0
ARC
  5
24D
330
59
100
AcDbEntity
  8
_______C____
  6
Continuous
 62
     7
100
AcDbCircle
 10
477.4095911818183
 20
391.6125495682372
 30
0.0
 40
7.500000000000114
100
AcDbArc
 50
0.0
 51
134.4044820000003
  0
ARC
  5
24E
330
59
100
AcDbEntity
  8
_______C____
  6
Continuous
 62
     7
100
AcDbCircle
 10
470.0611231818183
 20
374.7125495682371
 30
0.0
 40
12.40000000000015
100
AcDbArc
 50
90.0
 51
122.7807259999981
  0
ARC
  5
24F
330
59
100
AcDbEntity
  8
_______C____
  6
Continuous
 62
     7
100
AcDbCircle
 10
470.0611231818183
 20
374.7125495682371
 30
0.0
 40
12.40000000000015
100
AcDbArc
 50
90.0
 51
119.5676059999992
  0
ARC
  5
250
330
59
100
AcDbEntity
  8
_______C____
  6
Continuous
 62
     7
100
AcDbCircle
 10
466.4095911818183
 20
381.1488775682373
 30
0.0
 40
4.999999999999689
100
AcDbArc
 50
119.5676059999959
 51
180.0
  0
ARC
  5
251
330
59
100
AcDbEntity
  8
_______C____
  6
Continuous
 62
     7
100
AcDbCircle
 10
433.4095931818182
 20
381.1488775682373
 30
0.0
 40
5.0
100
AcDbArc
 50
0.0
 51
60.43239400000133
  0
ARC
  5
252
330
59
100
AcDbEntity
  8
_______C____
  6
Continuous
 62
     7
100
AcDbCircle
 10
429.7580611818185
 20
374.7125495682371
 30
0.0
 40
12.40000000000013
100
AcDbArc
 50
60.43239400000106
 51
90.0
  0
ARC
  5
253
330
59
100
AcDbEntity
  8
_______C____
  6
Continuous
 62
     7
100
AcDbCircle
 10
422.4095931818182
 20
391.6125495682372
 30
0.0
 40
7.500000000000458
100
AcDbArc
 50
45.59551799999817
 51
180.0
  0
ARC
  5
254
330
59
100
AcDbEntity
  8
_______C____
  6
Continuous
 62
     7
100
AcDbCircle
 10
477.4095911818183
 20
391.6125495682372
 30
0.0
 40
7.500000000000057
100
AcDbArc
 50
-134.4044820000018
 51
0.0
  0
ARC
  5
255
330
59
100
AcDbEntity
  8
_______C____
  6
Continuous
 62
     7
100
AcDbCircle
 10
203.3932362165238
 20
391.6125495682372
 30
0.0
 40
7.500000000000137
100
AcDbArc
 50
-134.4044820000025
 51
0.0
  0
ARC
  5
256
330
59
100
AcDbEntity
  8
_______C____
  6
Continuous
 62
     7
100
AcDbCircle
 10
148.3932382165236
 20
391.6125495682372
 30
0.0
 40
7.500000000000538
100
AcDbArc
 50
45.59551799999755
 51
180.0
  0
ARC
  5
257
330
59
100
AcDbEntity
  8
_______C____
  6
Continuous
 62
     7
100
AcDbCircle
 10
155.7417062165239
 20
374.7125495682371
 30
0.0
 40
12.40000000000011
100
AcDbArc
 50
60.43239400000118
 51
90.0
  0
ARC
  5
258
330
59
100
AcDbEntity
  8
_______C____
  6
Continuous
 62
     7
100
AcDbCircle
 10
159.3932382165236
 20
381.1488775682373
 30
0.0
 40
5.0
100
AcDbArc
 50
0.0
 51
60.43239400000133
  0
ARC
  5
259
330
59
100
AcDbEntity
  8
_______C____
  6
Continuous
 62
     7
100
AcDbCircle
 10
192.3932362165238
 20
381.1488775682373
 30
0.0
 40
4.999999999999731
100
AcDbArc
 50
119.5676059999967
 51
180.0
  0
ARC
  5
25A
330
59
100
AcDbEntity
  8
_______C____
  6
Continuous
 62
     7
100
AcDbCircle
 10
196.0447682165237
 20
374.7125495682371
 30
0.0
 40
12.40000000000015
100
AcDbArc
 50
90.0
 51
119.5676059999993
  0
ARC
  5
25B
330
59
100
AcDbEntity
  8
_______C____
  6
Continuous
 62
     7
100
AcDbCircle
 10
196.0447682165237
 20
374.7125495682371
 30
0.0
 40
12.40000000000015
100
AcDbArc
 50
90.0
 51
122.7807259999978
  0
ARC
  5
25C
330
59
100
AcDbEntity
  8
_______C____
  6
Continuous
 62
     7
100
AcDbCircle
 10
203.3932362165238
 20
391.6125495682372
 30
0.0
 40
7.500000000000085
100
AcDbArc
 50
0.0
 51
134.4044820000009
  0
ARC
  5
25D
330
59
100
AcDbEntity
  8
_______C____
  6
Continuous
 62
     7
100
AcDbCircle
 10
191.2002862165238
 20
402.1914655682373
 30
0.0
 40
5.000000000000386
100
AcDbArc
 50
-167.1318800000013
 51
-121.3003780000027
  0
ARC
  5
25E
330
59
100
AcDbEntity
  8
_______C____
  6
Continuous
 62
     7
100
AcDbCircle
 10
185.3704622165238
 20
401.2125495682371
 30
0.0
 40
0.9000000000000324
100
AcDbArc
 50
13.34193900001634
 51
90.0
  0
ARC
  5
25F
330
59
100
AcDbEntity
  8
_______C____
  6
Continuous
 62
     7
100
AcDbCircle
 10
196.0447682165237
 20
384.1125495682372
 30
0.0
 40
2.999999999999994
100
AcDbArc
 50
45.58469100000351
 51
90.0
  0
ARC
  5
260
330
59
100
AcDbEntity
  8
_______C____
  6
Continuous
 62
     7
100
AcDbCircle
 10
196.0447682165237
 20
399.1125495682372
 30
0.0
 40
3.0
100
AcDbArc
 50
-90.0
 51
-45.58469100000124
  0
ARC
  5
261
330
59
100
AcDbEntity
  8
_______C____
  6
Continuous
 62
     7
100
AcDbCircle
 10
206.8932382165236
 20
391.6128495682373
 30
0.0
 40
42.49999999999993
100
AcDbArc
 50
166.6580609999999
 51
167.1318799999997
  0
ARC
  5
262
330
59
100
AcDbEntity
  8
_______C____
  6
Continuous
 62
     7
100
AcDbCircle
 10
155.7417062165239
 20
399.1125495682372
 30
0.0
 40
2.999999999999952
100
AcDbArc
 50
-134.4153090000003
 51
-90.0
  0
ARC
  5
263
330
59
100
AcDbEntity
  8
_______C____
  6
Continuous
 62
     7
100
AcDbCircle
 10
155.7417062165239
 20
384.1125495682372
 30
0.0
 40
3.0
100
AcDbArc
 50
90.0
 51
134.4153089999981
  0
ARC
  5
264
330
59
100
AcDbEntity
  8
_______C____
  6
Continuous
 62
     7
100
AcDbCircle
 10
166.4160122165239
 20
401.2125495682371
 30
0.0
 40
0.9000000000001478
100
AcDbArc
 50
90.0
 51
166.6580609999853
  0
ARC
  5
265
330
59
100
AcDbEntity
  8
_______C____
  6
Continuous
 62
     7
100
AcDbCircle
 10
160.5861882165237
 20
402.1914655682373
 30
0.0
 40
5.00000000000014
100
AcDbArc
 50
-58.69962199999646
 51
-12.86811999999847
  0
ARC
  5
266
330
59
100
AcDbEntity
  8
_______C____
  6
Continuous
 62
     7
100
AcDbCircle
 10
148.3932382165236
 20
391.6125495682372
 30
0.0
 40
7.5
100
AcDbArc
 50
180.0
 51
-45.59551799999603
  0
ARC
  5
267
330
59
100
AcDbEntity
  8
_______C____
  6
Continuous
 62
     7
100
AcDbCircle
 10
195.0447702165237
 20
408.5144355682373
 30
0.0
 40
12.3999999999998
100
AcDbArc
 50
-121.3003759999979
 51
-90.0
  0
ARC
  5
268
330
59
100
AcDbEntity
  8
_______C____
  6
Continuous
 62
     7
100
AcDbCircle
 10
144.8932362165236
 20
391.6128495682373
 30
0.0
 40
42.5
100
AcDbArc
 50
12.86811999999974
 51
13.34193900000009
  0
ARC
  5
269
330
59
100
AcDbEntity
  8
_______C____
  6
Continuous
 62
     7
100
AcDbCircle
 10
156.7417042165239
 20
408.5144355682373
 30
0.0
 40
12.40000000000009
100
AcDbArc
 50
-90.0
 51
-58.69962399999892
  0
CIRCLE
  5
26A
330
59
100
AcDbEntity
  8
1
  6
Continuous
 62
     7
100
AcDbCircle
 10
449.9095921818185
 20
391.6125495682372
 30
0.0
 40
7.499999999999972
  0
CIRCLE
  5
26B
330
59
100
AcDbEntity
  8
1
  6
Continuous
 62
     7
100
AcDbCircle
 10
175.893237216524
 20
391.6125495682372
 30
0.0
 40
7.499999999999972
  0
ARC
  5
26C
330
59
100
AcDbEntity
  8
1
  6
Continuous
 62
     7
100
AcDbCircle
 10
438.6095931818184
 20
378.3125395682374
 30
0.0
 40
0.200000000000216
100
AcDbArc
 50
180.0
 51
-90.0
  0
ARC
  5
26D
330
59
100
AcDbEntity
  8
1
  6
Continuous
 62
     7
100
AcDbCircle
 10
461.2095913767456
 20
378.3125395682374
 30
0.0
 40
0.2000000000001023
100
AcDbArc
 50
-90.0
 51
0.0
  0
ARC
  5
26E
330
59
100
AcDbEntity
  8
1
  6
Continuous
 62
     7
100
AcDbCircle
 10
187.193236411451
 20
378.3125395682374
 30
0.0
 40
0.2000000000001023
100
AcDbArc
 50
-90.0
 51
0.0
  0
ARC
  5
26F
330
59
100
AcDbEntity
  8
1
  6
Continuous
 62
     7
100
AcDbCircle
 10
164.5932382165238
 20
378.3125395682374
 30
0.0
 40
0.2000000000001876
100
AcDbArc
 50
180.0
 51
-90.0
  0
ENDBLK
  5
5B
330
59
100
AcDbEntity
  8
0
100
AcDbBlockEnd
  0
BLOCK
  5
28F
330
288
100
AcDbEntity
  8
0
100
AcDbBlockBegin
  2
*D012
 70
     1
 71
     0
 10
0.0
 20
0.0
 30
0.0
  3
*D012
  1

  0
LINE
  5
289
330
288
100
AcDbEntity
  8
0
  6
Continuous
 62
     2
100
AcDbLine
 10
370.4334148623031
 20
336.6125495682372
 30
0.0
 11
370.4334148623031
 21
242.1125495682373
 31
0.0
  0
LINE
  5
28A
330
288
100
AcDbEntity
  8
0
  6
Continuous
 62
     2
100
AcDbLine
 10
252.2942001123703
 20
242.1125495682373
 30
0.0
 11
373.4334148623031
 21
242.1125495682373
 31
0.0
  0
LINE
  5
28B
330
288
100
AcDbEntity
  8
0
  6
Continuous
 62
     2
100
AcDbLine
 10
400.1143262386055
 20
336.6125495682372
 30
0.0
 11
367.4334148623031
 21
336.6125495682372
 31
0.0
  0
SOLID
  5
28C
330
288
100
AcDbEntity
  8
0
 62
     2
100
AcDbTrace
 10
371.8157660869708
 20
326.1125495682372
 30
0.0
 11
369.0510636376354
 21
326.1125495682372
 31
0.0
 12
370.4334148623031
 22
336.6125495682372
 32
0.0
 13
370.4334148623031
 23
336.6125495682372
 33
0.0
  0
SOLID
  5
28D
330
288
100
AcDbEntity
  8
0
 62
     2
100
AcDbTrace
 10
369.0510636376354
 20
252.6125495682373
 30
0.0
 11
371.8157660869708
 21
252.6125495682373
 31
0.0
 12
370.4334148623031
 22
242.1125495682373
 32
0.0
 13
370.4334148623031
 23
242.1125495682373
 33
0.0
  0
MTEXT
  5
28E
330
288
100
AcDbEntity
  8
0
 62
     7
100
AcDbMText
 10
367.4334148623031
 20
293.2795867734475
 30
0.0
 40
10.50000000000001
 41
0.0
 71
     7
 72
     1
  1
95
  7
CONVERTER_2
 11
0.0
 21
1.0
 31
0.0
 73
     1
 44
0.60024009603842
  0
ENDBLK
  5
290
330
288
100
AcDbEntity
  8
0
100
AcDbBlockEnd
  0
BLOCK
  5
29A
330
293
100
AcDbEntity
  8
0
100
AcDbBlockBegin
  2
*D113
 70
     1
 71
     0
 10
0.0
 20
0.0
 30
0.0
  3
*D113
  1

  0
LINE
  5
294
330
293
100
AcDbEntity
  8
1
  6
Continuous
 62
     2
100
AcDbLine
 10
494.9095925107949
 20
212.1125495682372
 30
0.0
 11
508.9095925107949
 21
212.1125495682372
 31
0.0
  0
LINE
  5
295
330
293
100
AcDbEntity
  8
1
  6
Continuous
 62
     2
100
AcDbLine
 10
508.9095925107949
 20
212.1125495682372
 30
0.0
 11
529.9095925107949
 21
212.1125495682372
 31
0.0
  0
LINE
  5
296
330
293
100
AcDbEntity
  8
1
  6
Continuous
 62
     2
100
AcDbLine
 10
508.9095925107949
 20
327.1125495682372
 30
0.0
 11
508.9095925107949
 21
209.1125495682372
 31
0.0
  0
LINE
  5
297
330
293
100
AcDbEntity
  8
1
  6
Continuous
 62
     2
100
AcDbLine
 10
494.9095925107949
 20
313.6125495682372
 30
0.0
 11
494.9095925107949
 21
209.1125495682372
 31
0.0
  0
SOLID
  5
298
330
293
100
AcDbEntity
  8
1
 62
     2
100
AcDbTrace
 10
519.4095925107949
 20
213.4949007929048
 30
0.0
 11
519.4095925107949
 21
210.7301983435696
 31
0.0
 12
508.9095925107949
 22
212.1125495682372
 32
0.0
 13
508.9095925107949
 23
212.1125495682372
 33
0.0
  0
MTEXT
  5
299
330
293
100
AcDbEntity
  8
1
 62
     7
100
AcDbMText
 10
495.6095925107949
 20
215.1125495682372
 30
0.0
 40
10.50000000000001
 41
0.0
 71
     7
 72
     1
  1
14
  7
CONVERTER_2
 11
0.9999999999970621
 21
2.424068405545307E-6
 31
0.0
 73
     1
 44
0.60024009603842
  0
ENDBLK
  5
29B
330
293
100
AcDbEntity
  8
0
100
AcDbBlockEnd
  0
BLOCK
  5
29D
330
29C
100
AcDbEntity
  8
0
100
AcDbBlockBegin
  2
_None
 70
     0
 71
     0
 10
0.0
 20
0.0
 30
0.0
  3
_None
  1

  0
ENDBLK
  5
29E
330
29C
100
AcDbEntity
  8
0
100
AcDbBlockEnd
  0
BLOCK
  5
2A8
330
2A1
100
AcDbEntity
  8
0
100
AcDbBlockBegin
  2
*D215
 70
     1
 71
     0
 10
0.0
 20
0.0
 30
0.0
  3
*D215
  1

  0
LINE
  5
2A2
330
2A1
100
AcDbEntity
  8
1
  6
Continuous
 62
     2
100
AcDbLine
 10
538.9095925107949
 20
313.6125495682373
 30
0.0
 11
538.9095925107949
 21
359.6125495682373
 31
0.0
  0
LINE
  5
2A3
330
2A1
100
AcDbEntity
  8
1
  6
Continuous
 62
     2
100
AcDbLine
 10
494.9095925107949
 20
359.6125495682372
 30
0.0
 11
541.9095925107949
 21
359.6125495682372
 31
0.0
  0
LINE
  5
2A4
330
2A1
100
AcDbEntity
  8
1
  6
Continuous
 62
     2
100
AcDbLine
 10
494.9095925107949
 20
313.6125495682372
 30
0.0
 11
541.9095925107949
 21
313.6125495682372
 31
0.0
  0
SOLID
  5
2A5
330
2A1
100
AcDbEntity
  8
1
 62
     2
100
AcDbTrace
 10
537.5272412861273
 20
324.1125495682373
 30
0.0
 11
540.2919437354626
 21
324.1125495682373
 31
0.0
 12
538.9095925107949
 22
313.6125495682373
 32
0.0
 13
538.9095925107949
 23
313.6125495682373
 33
0.0
  0
SOLID
  5
2A6
330
2A1
100
AcDbEntity
  8
1
 62
     2
100
AcDbTrace
 10
540.2919437354626
 20
349.1125495682373
 30
0.0
 11
537.5272412861273
 21
349.1125495682373
 31
0.0
 12
538.9095925107949
 22
359.6125495682373
 32
0.0
 13
538.9095925107949
 23
359.6125495682373
 33
0.0
  0
MTEXT
  5
2A7
330
2A1
100
AcDbEntity
  8
1
 62
     7
100
AcDbMText
 10
535.9095925107949
 20
317.8175495682372
 30
0.0
 40
10.50000000000001
 41
0.0
 71
     7
 72
     1
  1
\C7;{\Fgdt;n}\C7;46
  7
CONVERTER_2
 11
0.0
 21
1.0
 31
0.0
 73
     1
 44
0.60024009603842
  0
ENDBLK
  5
2A9
330
2A1
100
AcDbEntity
  8
0
100
AcDbBlockEnd
  0
BLOCK
  5
2B3
330
2AC
100
AcDbEntity
  8
0
100
AcDbBlockBegin
  2
*D316
 70
     1
 71
     0
 10
0.0
 20
0.0
 30
0.0
  3
*D316
  1

  0
LINE
  5
2AD
330
2AC
100
AcDbEntity
  8
1
  6
Continuous
 62
     2
100
AcDbLine
 10
370.433414862303
 20
403.3119092486026
 30
0.0
 11
370.433414862303
 21
336.6125495682372
 31
0.0
  0
LINE
  5
2AE
330
2AC
100
AcDbEntity
  8
1
  6
Continuous
 62
     2
100
AcDbLine
 10
449.9095925107946
 20
403.3119092486026
 30
0.0
 11
367.433414862303
 21
403.3119092486026
 31
0.0
  0
LINE
  5
2AF
330
2AC
100
AcDbEntity
  8
1
  6
Continuous
 62
     2
100
AcDbLine
 10
400.1143262386054
 20
336.6125495682372
 30
0.0
 11
367.433414862303
 21
336.6125495682372
 31
0.0
  0
SOLID
  5
2B0
330
2AC
100
AcDbEntity
  8
1
 62
     2
100
AcDbTrace
 10
371.8157660869707
 20
392.8119092486026
 30
0.0
 11
369.0510636376353
 21
392.8119092486026
 31
0.0
 12
370.433414862303
 22
403.3119092486026
 32
0.0
 13
370.433414862303
 23
403.3119092486026
 33
0.0
  0
SOLID
  5
2B1
330
2AC
100
AcDbEntity
  8
1
 62
     2
100
AcDbTrace
 10
369.0510636376353
 20
347.1125495682372
 30
0.0
 11
371.8157660869707
 21
347.1125495682372
 31
0.0
 12
370.433414862303
 22
336.6125495682372
 32
0.0
 13
370.433414862303
 23
336.6125495682372
 33
0.0
  0
MTEXT
  5
2B2
330
2AC
100
AcDbEntity
  8
1
 62
     7
100
AcDbMText
 10
367.433414862303
 20
341.6122294084199
 30
0.0
 40
10.50000000000001
 41
0.0
 71
     7
 72
     1
  1
67リフト5
  7
CONVERTER_1
 11
0.0
 21
1.0
 31
0.0
 73
     1
 44
0.60024009603842
  0
ENDBLK
  5
2B4
330
2AC
100
AcDbEntity
  8
0
100
AcDbBlockEnd
  0
BLOCK
  5
2BE
330
2B7
100
AcDbEntity
  8
0
100
AcDbBlockBegin
  2
*D417
 70
     1
 71
     0
 10
0.0
 20
0.0
 30
0.0
  3
*D417
  1

  0
LINE
  5
2B8
330
2B7
100
AcDbEntity
  8
0
  6
Continuous
 62
     2
100
AcDbLine
 10
414.9095925107949
 20
212.1125495682372
 30
0.0
 11
449.9095925107949
 21
212.1125495682372
 31
0.0
  0
LINE
  5
2B9
330
2B7
100
AcDbEntity
  8
0
  6
Continuous
 62
     2
100
AcDbLine
 10
449.9095925107949
 20
320.9612646182733
 30
0.0
 11
449.9095925107949
 21
209.1125495682372
 31
0.0
  0
LINE
  5
2BA
330
2B7
100
AcDbEntity
  8
0
  6
Continuous
 62
     2
100
AcDbLine
 10
414.9095925107949
 20
302.1125495682372
 30
0.0
 11
414.9095925107949
 21
209.1125495682372
 31
0.0
  0
SOLID
  5
2BB
330
2B7
100
AcDbEntity
  8
0
 62
     2
100
AcDbTrace
 10
425.4095925107949
 20
213.4949007929048
 30
0.0
 11
425.4095925107949
 21
210.7301983435696
 31
0.0
 12
414.9095925107949
 22
212.1125495682372
 32
0.0
 13
414.9095925107949
 23
212.1125495682372
 33
0.0
  0
SOLID
  5
2BC
330
2B7
100
AcDbEntity
  8
0
 62
     2
100
AcDbTrace
 10
439.4095925107949
 20
210.7301983435696
 30
0.0
 11
439.4095925107949
 21
213.4949007929048
 31
0.0
 12
449.9095925107949
 22
212.1125495682372
 32
0.0
 13
449.9095925107949
 23
212.1125495682372
 33
0.0
  0
MTEXT
  5
2BD
330
2B7
100
AcDbEntity
  8
0
 62
     7
100
AcDbMText
 10
424.5345925107949
 20
215.1125495682372
 30
0.0
 40
10.50000000000001
 41
0.0
 71
     7
 72
     1
  1
35
  7
CONVERTER_2
 11
0.9999999999970621
 21
2.424068405545307E-6
 31
0.0
 73
     1
 44
0.60024009603842
  0
ENDBLK
  5
2BF
330
2B7
100
AcDbEntity
  8
0
100
AcDbBlockEnd
  0
BLOCK
  5
2C9
330
2C2
100
AcDbEntity
  8
0
100
AcDbBlockBegin
  2
*D518
 70
     1
 71
     0
 10
0.0
 20
0.0
 30
0.0
  3
*D518
  1

  0
LINE
  5
2C3
330
2C2
100
AcDbEntity
  8
0
  6
Continuous
 62
     2
100
AcDbLine
 10
449.9095925107949
 20
212.1125495682372
 30
0.0
 11
494.9095925107949
 21
212.1125495682372
 31
0.0
  0
LINE
  5
2C4
330
2C2
100
AcDbEntity
  8
0
  6
Continuous
 62
     2
100
AcDbLine
 10
494.9095925107949
 20
313.6125495682372
 30
0.0
 11
494.9095925107949
 21
209.1125495682372
 31
0.0
  0
LINE
  5
2C5
330
2C2
100
AcDbEntity
  8
0
  6
Continuous
 62
     2
100
AcDbLine
 10
449.9095925107949
 20
320.9612646182733
 30
0.0
 11
449.9095925107949
 21
209.1125495682372
 31
0.0
  0
SOLID
  5
2C6
330
2C2
100
AcDbEntity
  8
0
 62
     2
100
AcDbTrace
 10
460.4095925107949
 20
213.4949007929048
 30
0.0
 11
460.4095925107949
 21
210.7301983435696
 31
0.0
 12
449.9095925107949
 22
212.1125495682372
 32
0.0
 13
449.9095925107949
 23
212.1125495682372
 33
0.0
  0
SOLID
  5
2C7
330
2C2
100
AcDbEntity
  8
0
 62
     2
100
AcDbTrace
 10
484.4095925107949
 20
210.7301983435696
 30
0.0
 11
484.4095925107949
 21
213.4949007929048
 31
0.0
 12
494.9095925107949
 22
212.1125495682372
 32
0.0
 13
494.9095925107949
 23
212.1125495682372
 33
0.0
  0
MTEXT
  5
2C8
330
2C2
100
AcDbEntity
  8
0
 62
     7
100
AcDbMText
 10
464.5345925107949
 20
215.1125495682372
 30
0.0
 40
10.50000000000001
 41
0.0
 71
     7
 72
     1
  1
45
  7
CONVERTER_2
 11
0.9999999999970621
 21
2.424068405545307E-6
 31
0.0
 73
     1
 44
0.60024009603842
  0
ENDBLK
  5
2CA
330
2C2
100
AcDbEntity
  8
0
100
AcDbBlockEnd
  0
BLOCK
  5
2D4
330
2CD
100
AcDbEntity
  8
0
100
AcDbBlockBegin
  2
*D619
 70
     1
 71
     0
 10
0.0
 20
0.0
 30
0.0
  3
*D619
  1

  0
LINE
  5
2CE
330
2CD
100
AcDbEntity
  8
0
  6
Continuous
 62
     2
100
AcDbLine
 10
244.9077931063842
 20
212.1125495682372
 30
0.0
 11
414.9095925107949
 21
212.1125495682372
 31
0.0
  0
LINE
  5
2CF
330
2CD
100
AcDbEntity
  8
0
  6
Continuous
 62
     2
100
AcDbLine
 10
414.9095925107949
 20
302.1125495682372
 30
0.0
 11
414.9095925107949
 21
209.1125495682372
 31
0.0
  0
LINE
  5
2D0
330
2CD
100
AcDbEntity
  8
0
  6
Continuous
 62
     2
100
AcDbLine
 10
244.9077931063843
 20
239.1125495682372
 30
0.0
 11
244.9077931063843
 21
209.1125495682372
 31
0.0
  0
SOLID
  5
2D1
330
2CD
100
AcDbEntity
  8
0
 62
     2
100
AcDbTrace
 10
255.4077931063842
 20
213.4949007929048
 30
0.0
 11
255.4077931063842
 21
210.7301983435696
 31
0.0
 12
244.9077931063842
 22
212.1125495682372
 32
0.0
 13
244.9077931063842
 23
212.1125495682372
 33
0.0
  0
SOLID
  5
2D2
330
2CD
100
AcDbEntity
  8
0
 62
     2
100
AcDbTrace
 10
404.4095925107949
 20
210.7301983435696
 30
0.0
 11
404.4095925107949
 21
213.4949007929048
 31
0.0
 12
414.9095925107949
 22
212.1125495682372
 32
0.0
 13
414.9095925107949
 23
212.1125495682372
 33
0.0
  0
MTEXT
  5
2D3
330
2CD
100
AcDbEntity
  8
0
 62
     7
100
AcDbMText
 10
318.8836928085896
 20
215.1125495682372
 30
0.0
 40
10.50000000000001
 41
0.0
 71
     7
 72
     1
  1
170
  7
CONVERTER_2
 11
0.9999999999970621
 21
2.424068405545307E-6
 31
0.0
 73
     1
 44
0.60024009603842
  0
ENDBLK
  5
2D5
330
2CD
100
AcDbEntity
  8
0
100
AcDbBlockEnd
  0
ENDSEC
  0
SECTION
  2
ENTITIES
  0
INSERT
  5
5C
330
1F
100
AcDbEntity
  8
1
100
AcDbBlockReference
  2
_J__A4
 10
0.0
 20
0.0
 30
0.0
 41
3.0
 42
3.0
 43
3.0
  0
INSERT
  5
5D
330
1F
100
AcDbEntity
  8
1
100
AcDbBlockReference
  2
A10J-60X-16
 10
236.257793106384
 20
239.9645046486151
 30
0.0
 41
1.0
 42
1.0
 43
1.0
  0
INSERT
  5
5E
330
1F
100
AcDbEntity
  8
0
100
AcDbBlockReference
  2
36-1A-13-M4
 10
204.0957340888465
 20
238.043423558801
 30
0.0
 41
1.0
 42
1.0
 43
1.0
  0
INSERT
  5
5F
330
1F
100
AcDbEntity
  8
0
100
AcDbBlockReference
  2
R10A-13
 10
494.9095925107948
 20
337.6125495682372
 30
0.0
 41
1.0
 42
1.0
 43
1.0
  0
INSERT
  5
60
330
1F
100
AcDbEntity
  8
1
100
AcDbBlockReference
  2
A10-0B-13
 10
449.9095925107948
 20
336.6125495682372
 30
0.0
 41
1.0
 42
1.0
 43
1.0
  0
INSERT
  5
61
330
1F
100
AcDbEntity
  8
1
100
AcDbBlockReference
  2
32-1-16
 10
118.3638526751261
 20
517.0983816983462
 30
0.0
 41
1.0
 42
1.0
 43
1.0
  0
INSERT
  5
62
330
1F
100
AcDbEntity
  8
1
100
AcDbBlockReference
  2
84-338X
 10
93.65048093713948
 20
398.841346587562
 30
0.0
 41
3.0
 42
3.0
  0
INSERT
  5
63
330
1F
100
AcDbEntity
  8
1
100
AcDbBlockReference
  2
21-9-M1
 10
102.7389713189832
 20
444.3283009256314
 30
0.0
 41
1.0
 42
1.0
 43
1.0
  0
LINE
  5
270
330
1F
100
AcDbEntity
  8
0
  6
DASH_CENTER
 62
     2
100
AcDbLine
 10
149.8932375455003
 20
336.6125495682372
 30
0.0
 11
201.8932375455003
 21
336.6125495682372
 31
0.0
  0
LINE
  5
271
330
1F
100
AcDbEntity
  8
1
  6
DASH_CENTER
 62
     2
100
AcDbLine
 10
191.8932375455004
 20
635.3292200641163
 30
0.0
 11
159.8932375455004
 21
635.3292200641163
 31
0.0
  0
LINE
  5
272
330
1F
100
AcDbEntity
  8
1
  6
DASH_CENTER
 62
     2
100
AcDbLine
 10
511.9473990425479
 20
336.6125495682372
 30
0.0
 11
400.1143262386055
 21
336.6125495682372
 31
0.0
  0
LINE
  5
273
330
1F
100
AcDbEntity
  8
1
  6
DASH_CENTER
 62
     2
100
AcDbLine
 10
449.9095925107949
 20
320.9612646182733
 30
0.0
 11
449.9095925107949
 21
405.8125495682371
 31
0.0
  0
LINE
  5
274
330
1F
100
AcDbEntity
  8
0
  6
DASH_CENTER
 62
     2
100
AcDbLine
 10
175.8932375455003
 20
405.8125495682371
 30
0.0
 11
175.8932375455003
 21
239.6695770666534
 31
0.0
  0
LINE
  5
275
330
1F
100
AcDbEntity
  8
1
  6
DASH_CENTER
 62
     2
100
AcDbLine
 10
137.8932375455157
 20
670.3292200641162
 30
0.0
 11
213.8932375454855
 21
670.3292200641162
 31
0.0
  0
LINE
  5
276
330
1F
100
AcDbEntity
  8
1
  6
DASH_CENTER
 62
     2
100
AcDbLine
 10
164.2432375455001
 20
465.3274206597055
 30
0.0
 11
186.8932375455003
 21
465.3274206597055
 31
0.0
  0
LINE
  5
277
330
1F
100
AcDbEntity
  8
1
  6
DASH_CENTER
 62
     2
100
AcDbLine
 10
175.8932375455003
 20
453.6774206597054
 30
0.0
 11
175.8932375455003
 21
732.3292200641163
 31
0.0
  0
LINE
  5
278
330
1F
100
AcDbEntity
  8
1
  6
DASH_CENTER
 62
     2
100
AcDbLine
 10
137.8932375455157
 20
391.6125495682372
 30
0.0
 11
213.8932375454855
 21
391.6125495682372
 31
0.0
  0
LINE
  5
279
330
1F
100
AcDbEntity
  8
1
  6
DASH_CENTER
 62
     2
100
AcDbLine
 10
411.9095931818179
 20
391.6125495682372
 30
0.0
 11
487.9095911818185
 21
391.6125495682372
 31
0.0
  0
LINE
  5
27A
330
1F
100
AcDbEntity
  8
1
  6
DASH_CENTER
 62
     2
100
AcDbLine
 10
414.9095925107949
 20
344.2382882965251
 30
0.0
 11
414.9095925107949
 21
302.1125495682372
 31
0.0
  0
LINE
  5
27B
330
1F
100
AcDbEntity
  8
1
  6
DASH_CENTER
 62
     2
100
AcDbLine
 10
387.9095925107949
 20
275.1125495682372
 30
0.0
 11
271.9077931063843
 21
275.1125495682372
 31
0.0
  0
LINE
  5
27C
330
1F
100
AcDbEntity
  8
1
  6
DASH_CENTER
 62
     2
100
AcDbLine
 10
244.9077931063843
 20
239.1125495682372
 30
0.0
 11
244.9077931063843
 21
248.1125495682372
 31
0.0
  0
ARC
  5
27D
330
1F
100
AcDbEntity
  8
1
  6
DASH_CENTER
 62
     2
100
AcDbCircle
 10
387.9095925107949
 20
302.1125495682372
 30
0.0
 40
27.0
100
AcDbArc
 50
-90.0
 51
0.0
  0
ARC
  5
27E
330
1F
100
AcDbEntity
  8
1
  6
DASH_CENTER
 62
     2
100
AcDbCircle
 10
271.9077931063843
 20
248.1125495682372
 30
0.0
 40
27.00000000000003
100
AcDbArc
 50
90.0
 51
180.0
  0
SOLID
  5
27F
330
1F
100
AcDbEntity
  8
1
 62
     2
100
AcDbTrace
 10
190.4460862679858
 20
731.0246572995957
 30
0.0
 11
192.8403888230152
 21
729.642306074928
 31
0.0
 12
186.3932375455004
 22
721.2402149475253
 32
0.0
 13
186.3932375455004
 23
721.2402149475253
 33
0.0
  0
LEADER
  5
280
330
1F
100
AcDbEntity
  8
1
  6
Continuous
 62
     2
100
AcDbLeader
  3
Standard
 71
     0
 76
     3
 10
186.3932375455004
 20
721.2402149475253
 30
0.0
 10
201.0563506972273
 20
746.6374719234478
 30
0.0
 10
245.8272175846742
 20
746.6374719234478
 30
0.0
  0
MTEXT
  5
282
330
1F
100
AcDbEntity
  8
1
 62
     7
100
AcDbMText
 10
281.2500000000003
 20
51.00000000000005
 30
0.0
 40
10.50000000000001
 41
0.0
 71
     5
 72
     1
  1
3
  7
CONVERTER_2
 73
     1
 44
0.7202881152461
  0
MTEXT
  5
283
330
1F
100
AcDbEntity
  8
1
 62
     7
100
AcDbMText
 10
255.7500000000003
 20
51.00000000000005
 30
0.0
 40
10.50000000000001
 41
0.0
 71
     5
 72
     1
  1
1
  7
CONVERTER_2
 73
     1
 44
0.7202881152461
  0
MTEXT
  5
284
330
1F
100
AcDbEntity
  8
1
 62
     7
100
AcDbMText
 10
102.0000000000001
 20
102.0000000000001
 30
0.0
 40
10.50000000000001
 41
0.0
 71
     4
 72
     1
  1
JIS
  7
CONVERTER_2
 73
     1
 44
0.7202881152461
  0
MTEXT
  5
285
330
1F
100
AcDbEntity
  8
1
 62
     7
100
AcDbMText
 10
223.4417841409507
 20
755.6374719234478
 30
0.0
 40
10.50000000000001
 41
0.0
 71
     5
 72
     1
  1
PJ1/2
  7
CONVERTER_2
 73
     1
 44
1.32052821128451
  0
MTEXT
  5
286
330
1F
100
AcDbEntity
  8
0
 62
     7
100
AcDbMText
 10
171.0000000000002
 20
68.2500000000001
 30
0.0
 40
10.50000000000001
 41
0.0
 71
     5
 72
     1
  1
自在水栓
  7
CONVERTER_1
 73
     1
 44
1.32052821128451
  0
MTEXT
  5
287
330
1F
100
AcDbEntity
  8
0
 62
     7
100
AcDbMText
 10
171.0000000000002
 20
42.75000000000005
 30
0.0
 40
10.50000000000001
 41
0.0
 71
     5
 72
     1
  1
A10Y-13
  7
CONVERTER_2
 73
     1
 44
1.32052821128451
  0
DIMENSION
  5
292
330
1F
100
AcDbEntity
  8
0
100
AcDbDimension
  2
*D012
 10
370.4334148623031
 20
336.6125495682372
 30
0.0
 11
362.1834148623031
 21
301.1545867734475
 31
0.0
  1
95
 71
     5
 42
0.0
 53
90.0
  3
ME10_DIM_0
100
AcDbAlignedDimension
 13
252.2942001123702
 23
242.1125495682371
 33
0.0
 14
400.1143262386055
 24
336.6125495682372
 34
0.0
 50
90.0
100
AcDbRotatedDimension
  0
DIMENSION
  5
2A0
330
1F
100
AcDbEntity
  8
1
100
AcDbDimension
  2
*D113
 10
494.9095925107949
 20
212.1125495682372
 30
0.0
 11
501.9095925107949
 21
220.3625495682372
 31
0.0
  1
<>
 71
     5
 42
0.0
 53
0.00013888888889
  3
ME10_DIM_1
100
AcDbAlignedDimension
 13
508.9095925107947
 23
327.1125495682371
 33
0.0
 14
494.9095925107948
 24
313.6125495682371
 34
0.0
100
AcDbRotatedDimension
  0
DIMENSION
  5
2AB
330
1F
100
AcDbEntity
  8
1
100
AcDbDimension
  2
*D215
 10
538.9095925107949
 20
313.6125495682373
 30
0.0
 11
530.6595925107949
 21
336.6125495682372
 31
0.0
  1
<>
 71
     5
 42
0.0
 53
90.0
  3
ME10_DIM_2
100
AcDbAlignedDimension
 13
494.9095925107948
 23
359.6125495682371
 33
0.0
 14
494.9095925107948
 24
313.6125495682371
 34
0.0
 50
90.0
100
AcDbRotatedDimension
  0
DIMENSION
  5
2B6
330
1F
100
AcDbEntity
  8
1
100
AcDbDimension
  2
*D316
 10
370.433414862303
 20
403.3119092486026
 30
0.0
 11
362.183414862303
 21
369.9622294084199
 31
0.0
  1
67リフト5
 71
     5
 42
0.0
 53
90.0
  3
ME10_DIM_3
100
AcDbAlignedDimension
 13
400.1143262386055
 23
336.6125495682372
 33
0.0
 14
449.9095925107947
 24
403.3119092486027
 34
0.0
 50
90.0
100
AcDbRotatedDimension
  0
DIMENSION
  5
2C1
330
1F
100
AcDbEntity
  8
0
100
AcDbDimension
  2
*D417
 10
414.9095925107949
 20
212.1125495682372
 30
0.0
 11
432.4095925107949
 21
220.3625495682372
 31
0.0
  1
<>
 71
     5
 42
0.0
 53
0.00013888888889
  3
ME10_DIM_4
100
AcDbAlignedDimension
 13
449.9095925107949
 23
320.9612646182733
 33
0.0
 14
414.9095925107947
 24
302.1125495682371
 34
0.0
100
AcDbRotatedDimension
  0
DIMENSION
  5
2CC
330
1F
100
AcDbEntity
  8
0
100
AcDbDimension
  2
*D518
 10
449.9095925107949
 20
212.1125495682372
 30
0.0
 11
472.4095925107949
 21
220.3625495682372
 31
0.0
  1
<>
 71
     5
 42
0.0
 53
0.00013888888889
  3
ME10_DIM_5
100
AcDbAlignedDimension
 13
494.9095925107948
 23
313.6125495682371
 33
0.0
 14
449.9095925107949
 24
320.9612646182733
 34
0.0
100
AcDbRotatedDimension
  0
DIMENSION
  5
2D7
330
1F
100
AcDbEntity
  8
0
100
AcDbDimension
  2
*D619
 10
244.9077931063842
 20
212.1125495682372
 30
0.0
 11
329.9086928085896
 21
220.3625495682372
 31
0.0
  1
<>
 71
     5
 42
0.0
 53
0.00013888888889
  3
ME10_DIM_6
100
AcDbAlignedDimension
 13
414.9095925107947
 23
302.1125495682371
 33
0.0
 14
244.9077931063843
 24
239.1125495682372
 34
0.0
100
AcDbRotatedDimension
  0
ENDSEC
  0
SECTION
  2
OBJECTS
  0
DICTIONARY
  5
C
330
0
100
AcDbDictionary
281
     1
  3
ACAD_GROUP
350
D
  3
ACAD_LAYOUT
350
1A
  3
ACAD_MLINESTYLE
350
17
  3
ACAD_PLOTSETTINGS
350
19
  3
ACAD_PLOTSTYLENAME
350
E
  3
ACAD_TABLESTYLE
350
2A
  3
AcDbVariableDictionary
350
2C
  0
DICTIONARY
  5
D
102
{ACAD_REACTORS
330
C
102
}
330
C
100
AcDbDictionary
281
     1
  0
DICTIONARY
  5
1A
102
{ACAD_REACTORS
330
C
102
}
330
C
100
AcDbDictionary
281
     1
  3
Layout1
350
1E
  3
Layout2
350
26
  3
Model
350
22
  0
DICTIONARY
  5
17
102
{ACAD_REACTORS
330
C
102
}
330
C
100
AcDbDictionary
281
     1
  3
Standard
350
18
  0
DICTIONARY
  5
19
102
{ACAD_REACTORS
330
C
102
}
330
C
100
AcDbDictionary
281
     1
  0
ACDBDICTIONARYWDFLT
  5
E
102
{ACAD_REACTORS
330
C
102
}
330
C
100
AcDbDictionary
281
     1
  3
Normal
350
F
100
AcDbDictionaryWithDefault
340
F
  0
DICTIONARY
  5
2A
102
{ACAD_REACTORS
330
C
102
}
330
C
100
AcDbDictionary
281
     1
  3
Standard
350
2B
  0
DICTIONARY
  5
2C
102
{ACAD_REACTORS
330
C
102
}
330
C
100
AcDbDictionary
281
     1
  3
CTABLESTYLE
350
2D
  0
LAYOUT
  5
1E
102
{ACAD_REACTORS
330
1A
102
}
330
1A
100
AcDbPlotSettings
  1

  2

  4

  6

 40
0.0
 41
0.0
 42
0.0
 43
0.0
 44
0.0
 45
0.0
 46
0.0
 47
0.0
 48
0.0
 49
0.0
140
0.0
141
0.0
142
1.0
143
1.0
 70
   688
 72
     0
 73
     0
 74
     5
  7

 75
    16
147
1.0
148
0.0
149
0.0
100
AcDbLayout
  1
Layout1
 70
     1
 71
     1
 10
0.0
 20
0.0
 11
12.0
 21
9.0
 12
0.0
 22
0.0
 32
0.0
 14
1.00000000000000E+20
 24
1.00000000000000E+20
 34
1.00000000000000E+20
 15
-1.00000000000000E+20
 25
-1.00000000000000E+20
 35
-1.00000000000000E+20
146
0.0
 13
0.0
 23
0.0
 33
0.0
 16
1.0
 26
0.0
 36
0.0
 17
0.0
 27
1.0
 37
0.0
 76
     0
330
1B
  0
LAYOUT
  5
26
102
{ACAD_REACTORS
330
1A
102
}
330
1A
100
AcDbPlotSettings
  1

  2

  4

  6

 40
0.0
 41
0.0
 42
0.0
 43
0.0
 44
0.0
 45
0.0
 46
0.0
 47
0.0
 48
0.0
 49
0.0
140
0.0
141
0.0
142
1.0
143
1.0
 70
   688
 72
     0
 73
     0
 74
     5
  7

 75
    16
147
1.0
148
0.0
149
0.0
100
AcDbLayout
  1
Layout2
 70
     1
 71
     2
 10
0.0
 20
0.0
 11
0.0
 21
0.0
 12
0.0
 22
0.0
 32
0.0
 14
0.0
 24
0.0
 34
0.0
 15
0.0
 25
0.0
 35
0.0
146
0.0
 13
0.0
 23
0.0
 33
0.0
 16
1.0
 26
0.0
 36
0.0
 17
0.0
 27
1.0
 37
0.0
 76
     0
330
23
  0
LAYOUT
  5
22
102
{ACAD_REACTORS
330
1A
102
}
330
1A
100
AcDbPlotSettings
  1

  2

  4

  6

 40
0.0
 41
0.0
 42
0.0
 43
0.0
 44
0.0
 45
0.0
 46
0.0
 47
0.0
 48
0.0
 49
0.0
140
0.0
141
0.0
142
1.0
143
1.0
 70
  1712
 72
     0
 73
     0
 74
     0
  7

 75
     0
147
1.0
148
0.0
149
0.0
100
AcDbLayout
  1
Model
 70
     1
 71
     0
 10
0.0
 20
0.0
 11
0.0
 21
0.0
 12
0.0
 22
0.0
 32
0.0
 14
0.0
 24
0.0
 34
0.0
 15
630.0000000000007
 25
891.0000000000009
 35
0.0
146
0.0
 13
0.0
 23
0.0
 33
0.0
 16
1.0
 26
0.0
 36
0.0
 17
0.0
 27
1.0
 37
0.0
 76
     0
330
1F
  0
MLINESTYLE
  5
18
102
{ACAD_REACTORS
330
17
102
}
330
17
100
AcDbMlineStyle
  2
Standard
 70
     0
  3

 62
   256
 51
90.0
 52
90.0
 71
     2
 49
0.5
 62
   256
  6
BYLAYER
 49
-0.5
 62
   256
  6
BYLAYER
  0
ACDBPLACEHOLDER
  5
F
102
{ACAD_REACTORS
330
E
102
}
330
E
  0
TABLESTYLE
  5
2B
102
{ACAD_REACTORS
330
2A
102
}
330
2A
100
AcDbTableStyle
  3
Standard
 70
     0
 71
     0
 40
0.06
 41
0.06
280
     0
281
     0
  7
Standard
140
0.18
170
     2
 62
     0
 63
     7
283
     0
274
    -2
284
     1
 64
     0
275
    -2
285
     1
 65
     0
276
    -2
286
     1
 66
     0
277
    -2
287
     1
 67
     0
278
    -2
288
     1
 68
     0
279
    -2
289
     1
 69
     0
  7
Standard
140
0.25
170
     5
 62
     0
 63
     7
283
     0
274
    -2
284
     1
 64
     0
275
    -2
285
     1
 65
     0
276
    -2
286
     1
 66
     0
277
    -2
287
     1
 67
     0
278
    -2
288
     1
 68
     0
279
    -2
289
     1
 69
     0
  7
Standard
140
0.18
170
     5
 62
     0
 63
     7
283
     0
274
    -2
284
     1
 64
     0
275
    -2
285
     1
 65
     0
276
    -2
286
     1
 66
     0
277
    -2
287
     1
 67
     0
278
    -2
288
     1
 68
     0
279
    -2
289
     1
 69
     0
  0
DICTIONARYVAR
  5
2D
102
{ACAD_REACTORS
330
2C
102
}
330
2C
100
DictionaryVariables
280
     0
  1
Standard
  0
ENDSEC
  0
EOF
