  0
SECTION
  2
HEADER
  9
$ACADVER
  1
AC1015
  9
$ACADMAINTVER
 70
     6
  9
$DWGCODEPAGE
  3
DOS932
  9
$INSBASE
 10
0.0
 20
0.0
 30
0.0
  9
$EXTMIN
 10
0.0
 20
0.0
 30
0.0
  9
$EXTMAX
 10
525.0
 20
742.5
 30
0.0
  9
$LIMMIN
 10
0.0
 20
0.0
  9
$LIMMAX
 10
12.0
 20
9.0
  9
$ORTHOMODE
 70
     0
  9
$REGENMODE
 70
     1
  9
$FILLMODE
 70
     1
  9
$QTEXTMODE
 70
     0
  9
$MIRRTEXT
 70
     1
  9
$LTSCALE
 40
1.0
  9
$ATTMODE
 70
     1
  9
$TEXTSIZE
 40
0.2
  9
$TRACEWID
 40
0.05
  9
$TEXTSTYLE
  7
Standard
  9
$CLAYER
  8
0
  9
$CELTYPE
  6
ByLayer
  9
$CECOLOR
 62
   256
  9
$CELTSCALE
 40
1.0
  9
$DISPSILH
 70
     0
  9
$DIMSCALE
 40
1.0
  9
$DIMASZ
 40
0.18
  9
$DIMEXO
 40
0.0625
  9
$DIMDLI
 40
0.38
  9
$DIMRND
 40
0.0
  9
$DIMDLE
 40
0.0
  9
$DIMEXE
 40
0.18
  9
$DIMTP
 40
0.0
  9
$DIMTM
 40
0.0
  9
$DIMTXT
 40
0.18
  9
$DIMCEN
 40
0.09
  9
$DIMTSZ
 40
0.0
  9
$DIMTOL
 70
     0
  9
$DIMLIM
 70
     0
  9
$DIMTIH
 70
     1
  9
$DIMTOH
 70
     1
  9
$DIMSE1
 70
     0
  9
$DIMSE2
 70
     0
  9
$DIMTAD
 70
     0
  9
$DIMZIN
 70
     0
  9
$DIMBLK
  1

  9
$DIMASO
 70
     1
  9
$DIMSHO
 70
     1
  9
$DIMPOST
  1

  9
$DIMAPOST
  1

  9
$DIMALT
 70
     0
  9
$DIMALTD
 70
     2
  9
$DIMALTF
 40
25.4
  9
$DIMLFAC
 40
1.0
  9
$DIMTOFL
 70
     0
  9
$DIMTVP
 40
0.0
  9
$DIMTIX
 70
     0
  9
$DIMSOXD
 70
     0
  9
$DIMSAH
 70
     0
  9
$DIMBLK1
  1

  9
$DIMBLK2
  1

  9
$DIMSTYLE
  2
Standard
  9
$DIMCLRD
 70
     0
  9
$DIMCLRE
 70
     0
  9
$DIMCLRT
 70
     0
  9
$DIMTFAC
 40
1.0
  9
$DIMGAP
 40
0.09
  9
$DIMJUST
 70
     0
  9
$DIMSD1
 70
     0
  9
$DIMSD2
 70
     0
  9
$DIMTOLJ
 70
     1
  9
$DIMTZIN
 70
     0
  9
$DIMALTZ
 70
     0
  9
$DIMALTTZ
 70
     0
  9
$DIMUPT
 70
     0
  9
$DIMDEC
 70
     4
  9
$DIMTDEC
 70
     4
  9
$DIMALTU
 70
     2
  9
$DIMALTTD
 70
     2
  9
$DIMTXSTY
  7
Standard
  9
$DIMAUNIT
 70
     0
  9
$DIMADEC
 70
     0
  9
$DIMALTRND
 40
0.0
  9
$DIMAZIN
 70
     0
  9
$DIMDSEP
 70
    46
  9
$DIMATFIT
 70
     3
  9
$DIMFRAC
 70
     0
  9
$DIMLDRBLK
  1

  9
$DIMLUNIT
 70
     2
  9
$DIMLWD
 70
    -2
  9
$DIMLWE
 70
    -2
  9
$DIMTMOVE
 70
     0
  9
$LUNITS
 70
     2
  9
$LUPREC
 70
     4
  9
$SKETCHINC
 40
0.1
  9
$FILLETRAD
 40
0.5
  9
$AUNITS
 70
     0
  9
$AUPREC
 70
     0
  9
$MENU
  1
.
  9
$ELEVATION
 40
0.0
  9
$PELEVATION
 40
0.0
  9
$THICKNESS
 40
0.0
  9
$LIMCHECK
 70
     0
  9
$CHAMFERA
 40
0.5
  9
$CHAMFERB
 40
0.5
  9
$CHAMFERC
 40
1.0
  9
$CHAMFERD
 40
0.0
  9
$SKPOLY
 70
     0
  9
$TDCREATE
 40
2456142.468852535
  9
$TDUCREATE
 40
2456142.093852535
  9
$TDUPDATE
 40
2456142.468852546
  9
$TDUUPDATE
 40
2456142.093852546
  9
$TDINDWG
 40
0.0000000116
  9
$TDUSRTIMER
 40
0.0000000116
  9
$USRTIMER
 70
     1
  9
$ANGBASE
 50
0.0
  9
$ANGDIR
 70
     0
  9
$PDMODE
 70
     0
  9
$PDSIZE
 40
0.0
  9
$PLINEWID
 40
0.0
  9
$SPLFRAME
 70
     0
  9
$SPLINETYPE
 70
     6
  9
$SPLINESEGS
 70
     8
  9
$HANDSEED
  5
267
  9
$SURFTAB1
 70
     6
  9
$SURFTAB2
 70
     6
  9
$SURFTYPE
 70
     6
  9
$SURFU
 70
     6
  9
$SURFV
 70
     6
  9
$UCSBASE
  2

  9
$UCSNAME
  2

  9
$UCSORG
 10
0.0
 20
0.0
 30
0.0
  9
$UCSXDIR
 10
1.0
 20
0.0
 30
0.0
  9
$UCSYDIR
 10
0.0
 20
1.0
 30
0.0
  9
$UCSORTHOREF
  2

  9
$UCSORTHOVIEW
 70
     0
  9
$UCSORGTOP
 10
0.0
 20
0.0
 30
0.0
  9
$UCSORGBOTTOM
 10
0.0
 20
0.0
 30
0.0
  9
$UCSORGLEFT
 10
0.0
 20
0.0
 30
0.0
  9
$UCSORGRIGHT
 10
0.0
 20
0.0
 30
0.0
  9
$UCSORGFRONT
 10
0.0
 20
0.0
 30
0.0
  9
$UCSORGBACK
 10
0.0
 20
0.0
 30
0.0
  9
$PUCSBASE
  2

  9
$PUCSNAME
  2

  9
$PUCSORG
 10
0.0
 20
0.0
 30
0.0
  9
$PUCSXDIR
 10
1.0
 20
0.0
 30
0.0
  9
$PUCSYDIR
 10
0.0
 20
1.0
 30
0.0
  9
$PUCSORTHOREF
  2

  9
$PUCSORTHOVIEW
 70
     0
  9
$PUCSORGTOP
 10
0.0
 20
0.0
 30
0.0
  9
$PUCSORGBOTTOM
 10
0.0
 20
0.0
 30
0.0
  9
$PUCSORGLEFT
 10
0.0
 20
0.0
 30
0.0
  9
$PUCSORGRIGHT
 10
0.0
 20
0.0
 30
0.0
  9
$PUCSORGFRONT
 10
0.0
 20
0.0
 30
0.0
  9
$PUCSORGBACK
 10
0.0
 20
0.0
 30
0.0
  9
$USERI1
 70
     0
  9
$USERI2
 70
     0
  9
$USERI3
 70
     0
  9
$USERI4
 70
     0
  9
$USERI5
 70
     0
  9
$USERR1
 40
13.2
  9
$USERR2
 40
0.0
  9
$USERR3
 40
0.0
  9
$USERR4
 40
0.0
  9
$USERR5
 40
0.0
  9
$WORLDVIEW
 70
     1
  9
$SHADEDGE
 70
     3
  9
$SHADEDIF
 70
    70
  9
$TILEMODE
 70
     1
  9
$MAXACTVP
 70
    64
  9
$PINSBASE
 10
0.0
 20
0.0
 30
0.0
  9
$PLIMCHECK
 70
     0
  9
$PEXTMIN
 10
1.00000000000000E+20
 20
1.00000000000000E+20
 30
1.00000000000000E+20
  9
$PEXTMAX
 10
-1.00000000000000E+20
 20
-1.00000000000000E+20
 30
-1.00000000000000E+20
  9
$PLIMMIN
 10
0.0
 20
0.0
  9
$PLIMMAX
 10
12.0
 20
9.0
  9
$UNITMODE
 70
     0
  9
$VISRETAIN
 70
     1
  9
$PLINEGEN
 70
     0
  9
$PSLTSCALE
 70
     1
  9
$TREEDEPTH
 70
  3020
  9
$CMLSTYLE
  2
Standard
  9
$CMLJUST
 70
     0
  9
$CMLSCALE
 40
1.0
  9
$PROXYGRAPHICS
 70
     1
  9
$MEASUREMENT
 70
     1
  9
$CELWEIGHT
370
    -1
  9
$ENDCAPS
280
     0
  9
$JOINSTYLE
280
     0
  9
$LWDISPLAY
290
     0
  9
$INSUNITS
 70
     1
  9
$HYPERLINKBASE
  1

  9
$STYLESHEET
  1

  9
$XEDIT
290
     1
  9
$CEPSNTYPE
380
     0
  9
$PSTYLEMODE
290
     0
  9
$FINGERPRINTGUID
  2
{FAEB1C30-E019-11D5-929B-00C0DF256EC4}
  9
$VERSIONGUID
  2
{FAEB1C32-E019-11D5-929B-00C0DF256EC4}
  9
$EXTNAMES
290
     1
  9
$PSVPSCALE
 40
0.0
  9
$OLESTARTUP
290
     0
  0
ENDSEC
  0
SECTION
  2
CLASSES
  0
CLASS
  1
ACDBDICTIONARYWDFLT
  2
AcDbDictionaryWithDefault
  3
ObjectDBX Classes
 90
        0
280
     0
281
     0
  0
CLASS
  1
TABLESTYLE
  2
AcDbTableStyle
  3
ObjectDBX Classes
 90
     2047
280
     0
281
     0
  0
CLASS
  1
DICTIONARYVAR
  2
AcDbDictionaryVar
  3
ObjectDBX Classes
 90
        0
280
     0
281
     0
  0
CLASS
  1

  2
exOdDbCircle
  3

 90
        0
280
     0
281
     1
  0
CLASS
  1

  2
exOdDbSpline
  3

 90
        0
280
     0
281
     1
  0
CLASS
  1
ACDBPLACEHOLDER
  2
AcDbPlaceHolder
  3
ObjectDBX Classes
 90
        0
280
     0
281
     0
  0
CLASS
  1
LAYOUT
  2
AcDbLayout
  3
ObjectDBX Classes
 90
        0
280
     0
281
     0
  0
ENDSEC
  0
SECTION
  2
TABLES
  0
TABLE
  2
VPORT
  5
8
330
0
100
AcDbSymbolTable
 70
     2
  0
VPORT
  5
29
330
8
100
AcDbSymbolTableRecord
100
AcDbViewportTableRecord
  2
*Active
 70
     0
 10
0.0
 20
0.0
 11
1.0
 21
1.0
 12
262.5
 22
371.25
 13
0.0
 23
0.0
 14
0.5
 24
0.5
 15
0.5
 25
0.5
 16
0.0
 26
0.0
 36
1.0
 17
0.0
 27
0.0
 37
0.0
 40
816.7500000000001
 41
1.60267857142857
 42
50.0
 43
0.0
 44
0.0
 50
0.0
 51
0.0
 71
     0
 72
   100
 73
     1
 74
     3
 75
     0
 76
     0
 77
     0
 78
     0
281
     0
 65
     1
110
0.0
120
0.0
130
0.0
111
1.0
121
0.0
131
0.0
112
0.0
122
1.0
132
0.0
 79
     0
146
0.0
  0
ENDTAB
  0
TABLE
  2
LTYPE
  5
5
330
0
100
AcDbSymbolTable
 70
     8
  0
LTYPE
  5
14
330
5
100
AcDbSymbolTableRecord
100
AcDbLinetypeTableRecord
  2
ByBlock
 70
     0
  3

 72
    65
 73
     0
 40
0.0
  0
LTYPE
  5
15
330
5
100
AcDbSymbolTableRecord
100
AcDbLinetypeTableRecord
  2
ByLayer
 70
     0
  3

 72
    65
 73
     0
 40
0.0
  0
LTYPE
  5
16
330
5
100
AcDbSymbolTableRecord
100
AcDbLinetypeTableRecord
  2
Continuous
 70
     0
  3
Solid line
 72
    65
 73
     0
 40
0.0
  0
LTYPE
  5
2E
330
5
100
AcDbSymbolTableRecord
100
AcDbLinetypeTableRecord
  2
DASHED
 70
     0
  3
Dashed
 72
    65
 73
     2
 40
15.0
 49
7.0
 74
     0
 49
-8.0
 74
     0
  0
LTYPE
  5
2F
330
5
100
AcDbSymbolTableRecord
100
AcDbLinetypeTableRecord
  2
DOTTED
 70
     0
  3
Dotted
 72
    65
 73
     2
 40
1.0
 49
0.0
 74
     0
 49
-1.0
 74
     0
  0
LTYPE
  5
30
330
5
100
AcDbSymbolTableRecord
100
AcDbLinetypeTableRecord
  2
DOT_CENTER
 70
     0
  3
Dot_Center
 72
    65
 73
     4
 40
14.0
 49
12.0
 74
     0
 49
-1.0
 74
     0
 49
0.0
 74
     0
 49
-1.0
 74
     0
  0
LTYPE
  5
31
330
5
100
AcDbSymbolTableRecord
100
AcDbLinetypeTableRecord
  2
LONG_DASHED
 70
     0
  3
Long_Dashed
 72
    65
 73
     2
 40
15.0
 49
10.0
 74
     0
 49
-5.0
 74
     0
  0
LTYPE
  5
32
330
5
100
AcDbSymbolTableRecord
100
AcDbLinetypeTableRecord
  2
DASH_CENTER
 70
     0
  3
Dash_Center
 72
    65
 73
     4
 40
14.0
 49
11.0
 74
     0
 49
-1.0
 74
     0
 49
1.0
 74
     0
 49
-1.0
 74
     0
  0
LTYPE
  5
33
330
5
100
AcDbSymbolTableRecord
100
AcDbLinetypeTableRecord
  2
PHANTOM
 70
     0
  3
Phantom
 72
    65
 73
     6
 40
13.0
 49
10.0
 74
     0
 49
-1.0
 74
     0
 49
0.0
 74
     0
 49
-1.0
 74
     0
 49
0.0
 74
     0
 49
-1.0
 74
     0
  0
LTYPE
  5
34
330
5
100
AcDbSymbolTableRecord
100
AcDbLinetypeTableRecord
  2
CENTER_DASH_DASH
 70
     0
  3
Center_Dash_Dash
 72
    65
 73
     6
 40
14.0
 49
9.0
 74
     0
 49
-1.0
 74
     0
 49
1.0
 74
     0
 49
-1.0
 74
     0
 49
1.0
 74
     0
 49
-1.0
 74
     0
  0
ENDTAB
  0
TABLE
  2
LAYER
  5
2
330
0
100
AcDbSymbolTable
 70
     2
  0
LAYER
  5
10
330
2
100
AcDbSymbolTableRecord
100
AcDbLayerTableRecord
  2
0
 70
     0
 62
     7
  6
Continuous
370
    -3
390
F
  0
LAYER
  5
35
330
2
100
AcDbSymbolTableRecord
100
AcDbLayerTableRecord
  2
1
 70
     0
 62
     7
  6
Continuous
370
    -3
390
F
  0
ENDTAB
  0
TABLE
  2
STYLE
  5
3
330
0
100
AcDbSymbolTable
 70
     3
  0
STYLE
  5
11
330
3
100
AcDbSymbolTableRecord
100
AcDbTextStyleTableRecord
  2
Standard
 70
     0
 40
0.0
 41
1.0
 50
0.0
 71
     0
 42
0.2
  3
txt
  4

  0
STYLE
  5
9D
330
3
100
AcDbSymbolTableRecord
100
AcDbTextStyleTableRecord
  2
CONVERTER_1
 70
     0
 40
0.0
 41
0.89
 50
0.0
 71
     0
 42
0.2
  3
msmincho.ttc
  4

1001
ACAD
1000
MS Mincho
1071
    32785
  0
STYLE
  5
1F9
330
3
100
AcDbSymbolTableRecord
100
AcDbTextStyleTableRecord
  2
CONVERTER_2
 70
     0
 40
0.0
 41
0.9
 50
0.0
 71
     0
 42
0.2
  3
txt.shx
  4

  0
ENDTAB
  0
TABLE
  2
VIEW
  5
6
330
0
100
AcDbSymbolTable
 70
     0
  0
ENDTAB
  0
TABLE
  2
UCS
  5
7
330
0
100
AcDbSymbolTable
 70
     0
  0
ENDTAB
  0
TABLE
  2
APPID
  5
9
330
0
100
AcDbSymbolTable
 70
     1
  0
APPID
  5
12
330
9
100
AcDbSymbolTableRecord
100
AcDbRegAppTableRecord
  2
ACAD
 70
     0
  0
ENDTAB
  0
TABLE
  2
DIMSTYLE
  5
A
330
0
100
AcDbSymbolTable
 70
    10
100
AcDbDimStyleTable
  0
DIMSTYLE
105
27
330
A
100
AcDbSymbolTableRecord
100
AcDbDimStyleTableRecord
  2
Standard
 70
     0
340
11
  0
DIMSTYLE
105
20C
102
{ACAD_REACTORS
330
20D
102
}
330
A
100
AcDbSymbolTableRecord
100
AcDbDimStyleTableRecord
  2
ME10_DIM_0
 70
     0
 41
8.75
 42
0.0
 44
2.5
 73
     0
 74
     0
 77
     1
 78
     8
140
8.75
147
0.625
172
     1
173
     1
176
     2
177
     2
178
     7
271
     2
340
1F9
344
209
  0
DIMSTYLE
105
217
102
{ACAD_REACTORS
330
218
102
}
330
A
100
AcDbSymbolTableRecord
100
AcDbDimStyleTableRecord
  2
ME10_DIM_1
 70
     0
 41
7.5
 42
0.0
 44
2.5
 73
     0
 74
     0
 77
     1
 78
     8
140
8.75
147
0.625
172
     1
173
     1
176
     2
177
     2
178
     7
271
     2
340
1F9
  0
DIMSTYLE
105
222
102
{ACAD_REACTORS
330
223
102
}
330
A
100
AcDbSymbolTableRecord
100
AcDbDimStyleTableRecord
  2
ME10_DIM_2
 70
     0
 41
7.5
 42
0.0
 44
2.5
 73
     0
 74
     0
 77
     1
 78
     8
140
8.75
147
0.625
172
     1
173
     1
176
     2
177
     2
178
     7
271
     2
340
1F9
  0
DIMSTYLE
105
22D
102
{ACAD_REACTORS
330
22E
102
}
330
A
100
AcDbSymbolTableRecord
100
AcDbDimStyleTableRecord
  2
ME10_DIM_3
 70
     0
 41
8.75
 42
0.0
 44
2.5
 73
     0
 74
     0
 77
     1
 78
     8
140
8.75
147
0.625
172
     1
173
     1
176
     2
177
     2
178
     7
271
     2
340
1F9
  0
DIMSTYLE
105
239
102
{ACAD_REACTORS
330
23A
102
}
330
A
100
AcDbSymbolTableRecord
100
AcDbDimStyleTableRecord
  2
ME10_DIM_4
 70
     0
 41
8.75
 42
0.0
 44
2.5
 73
     0
 74
     0
 77
     1
 78
     8
140
8.75
147
0.625
172
     1
173
     1
176
     2
177
     2
178
     7
271
     2
340
9D
  0
DIMSTYLE
105
244
102
{ACAD_REACTORS
330
245
102
}
330
A
100
AcDbSymbolTableRecord
100
AcDbDimStyleTableRecord
  2
ME10_DIM_5
 70
     0
 41
8.75
 42
0.0
 44
2.5
 73
     0
 74
     0
 77
     1
 78
     8
140
8.75
147
0.625
172
     1
173
     1
176
     2
177
     2
178
     7
271
     2
340
1F9
  0
DIMSTYLE
105
24F
102
{ACAD_REACTORS
330
250
102
}
330
A
100
AcDbSymbolTableRecord
100
AcDbDimStyleTableRecord
  2
ME10_DIM_6
 70
     0
  3
{\Fgdt;n}<>
 41
8.75
 42
0.0
 44
2.5
 73
     0
 74
     0
 77
     1
 78
     8
140
8.75
147
0.625
172
     1
173
     1
176
     2
177
     2
178
     7
271
     2
340
1F9
  0
DIMSTYLE
105
25A
102
{ACAD_REACTORS
330
25B
102
}
330
A
100
AcDbSymbolTableRecord
100
AcDbDimStyleTableRecord
  2
ME10_DIM_7
 70
     0
 41
8.75
 42
0.0
 44
2.5
 73
     0
 74
     0
 77
     1
 78
     8
140
8.75
147
0.625
172
     1
173
     1
176
     2
177
     2
178
     7
271
     2
340
1F9
  0
DIMSTYLE
105
265
102
{ACAD_REACTORS
330
266
102
}
330
A
100
AcDbSymbolTableRecord
100
AcDbDimStyleTableRecord
  2
ME10_DIM_8
 70
     0
 41
7.5
 42
0.0
 44
2.5
 73
     0
 74
     0
 77
     1
 78
     8
140
8.75
147
0.625
172
     1
173
     1
176
     2
177
     2
178
     7
271
     2
340
1F9
  0
ENDTAB
  0
TABLE
  2
BLOCK_RECORD
  5
1
330
0
100
AcDbSymbolTable
 70
    18
  0
BLOCK_RECORD
  5
1F
330
1
100
AcDbSymbolTableRecord
100
AcDbBlockTableRecord
  2
*Model_Space
340
22
  0
BLOCK_RECORD
  5
1B
330
1
100
AcDbSymbolTableRecord
100
AcDbBlockTableRecord
  2
*Paper_Space
340
1E
  0
BLOCK_RECORD
  5
23
330
1
100
AcDbSymbolTableRecord
100
AcDbBlockTableRecord
  2
*Paper_Space0
340
26
  0
BLOCK_RECORD
  5
36
330
1
100
AcDbSymbolTableRecord
100
AcDbBlockTableRecord
  2
_J__A4
340
0
102
{BLKREFS
331
4D
102
}
  0
BLOCK_RECORD
  5
39
330
1
100
AcDbSymbolTableRecord
100
AcDbBlockTableRecord
  2
A90-0A-13
340
0
102
{BLKREFS
331
4E
102
}
  0
BLOCK_RECORD
  5
3C
330
1
100
AcDbSymbolTableRecord
100
AcDbBlockTableRecord
  2
21-5A
340
0
102
{BLKREFS
331
4F
102
}
  0
BLOCK_RECORD
  5
3F
330
1
100
AcDbSymbolTableRecord
100
AcDbBlockTableRecord
  2
84-55
340
0
102
{BLKREFS
331
50
102
}
  0
BLOCK_RECORD
  5
42
330
1
100
AcDbSymbolTableRecord
100
AcDbBlockTableRecord
  2
32-1-16
340
0
102
{BLKREFS
331
49
102
}
  0
BLOCK_RECORD
  5
45
330
1
100
AcDbSymbolTableRecord
100
AcDbBlockTableRecord
  2
60-1-16-170
340
0
102
{BLKREFS
331
4A
102
}
  0
BLOCK_RECORD
  5
48
330
1
100
AcDbSymbolTableRecord
100
AcDbBlockTableRecord
  2
60-1X-16-170
340
0
102
{BLKREFS
331
51
102
}
  0
BLOCK_RECORD
  5
200
330
1
100
AcDbSymbolTableRecord
100
AcDbBlockTableRecord
  2
*D08
340
0
  0
BLOCK_RECORD
  5
209
330
1
100
AcDbSymbolTableRecord
100
AcDbBlockTableRecord
  2
_None
340
0
  0
BLOCK_RECORD
  5
20E
330
1
100
AcDbSymbolTableRecord
100
AcDbBlockTableRecord
  2
*D110
340
0
  0
BLOCK_RECORD
  5
219
330
1
100
AcDbSymbolTableRecord
100
AcDbBlockTableRecord
  2
*D211
340
0
  0
BLOCK_RECORD
  5
224
330
1
100
AcDbSymbolTableRecord
100
AcDbBlockTableRecord
  2
*D312
340
0
  0
BLOCK_RECORD
  5
22F
330
1
100
AcDbSymbolTableRecord
100
AcDbBlockTableRecord
  2
*D413
340
0
  0
BLOCK_RECORD
  5
23B
330
1
100
AcDbSymbolTableRecord
100
AcDbBlockTableRecord
  2
*D514
340
0
  0
BLOCK_RECORD
  5
246
330
1
100
AcDbSymbolTableRecord
100
AcDbBlockTableRecord
  2
*D615
340
0
  0
BLOCK_RECORD
  5
251
330
1
100
AcDbSymbolTableRecord
100
AcDbBlockTableRecord
  2
*D716
340
0
  0
BLOCK_RECORD
  5
25C
330
1
100
AcDbSymbolTableRecord
100
AcDbBlockTableRecord
  2
*D817
340
0
  0
ENDTAB
  0
ENDSEC
  0
SECTION
  2
BLOCKS
  0
BLOCK
  5
20
330
1F
100
AcDbEntity
  8
0
100
AcDbBlockBegin
  2
*Model_Space
 70
     0
 71
     0
 10
0.0
 20
0.0
 30
0.0
  3
*Model_Space
  1

  0
ENDBLK
  5
21
330
1F
100
AcDbEntity
  8
0
100
AcDbBlockEnd
  0
BLOCK
  5
1C
330
1B
100
AcDbEntity
 67
     1
  8
0
100
AcDbBlockBegin
  2
*Paper_Space
 70
     0
 71
     0
 10
0.0
 20
0.0
 30
0.0
  3
*Paper_Space
  1

  0
ENDBLK
  5
1D
330
1B
100
AcDbEntity
 67
     1
  8
0
100
AcDbBlockEnd
  0
BLOCK
  5
24
330
23
100
AcDbEntity
  8
0
100
AcDbBlockBegin
  2
*Paper_Space0
 70
     0
 71
     0
 10
0.0
 20
0.0
 30
0.0
  3
*Paper_Space0
  1

  0
ENDBLK
  5
25
330
23
100
AcDbEntity
  8
0
100
AcDbBlockEnd
  0
BLOCK
  5
37
330
36
100
AcDbEntity
  8
0
100
AcDbBlockBegin
  2
_J__A4
 70
     0
 71
     0
 10
0.0
 20
0.0
 30
0.0
  3
_J__A4
  1

  0
POINT
  5
52
330
36
100
AcDbEntity
  8
1
 62
     4
100
AcDbPoint
 10
34.0
 20
34.00000000000001
 30
0.0
  0
POINT
  5
53
330
36
100
AcDbEntity
  8
1
 62
     4
100
AcDbPoint
 10
57.0
 20
12.25
 30
0.0
  0
POINT
  5
54
330
36
100
AcDbEntity
  8
1
 62
     4
100
AcDbPoint
 10
57.0
 20
20.75000000000001
 30
0.0
  0
POINT
  5
55
330
36
100
AcDbEntity
  8
1
 62
     4
100
AcDbPoint
 10
57.0
 20
24.75000000000001
 30
0.0
  0
POINT
  5
56
330
36
100
AcDbEntity
  8
1
 62
     4
100
AcDbPoint
 10
57.0
 20
16.25
 30
0.0
  0
POINT
  5
57
330
36
100
AcDbEntity
  8
1
 62
     4
100
AcDbPoint
 10
157.5
 20
19.00000000000001
 30
0.0
  0
POINT
  5
58
330
36
100
AcDbEntity
  8
1
 62
     4
100
AcDbPoint
 10
47.5
 20
282.0000000000003
 30
0.0
  0
POINT
  5
59
330
36
100
AcDbEntity
  8
1
 62
     4
100
AcDbPoint
 10
57.0
 20
22.75000000000001
 30
0.0
  0
POINT
  5
5A
330
36
100
AcDbEntity
  8
1
 62
     4
100
AcDbPoint
 10
57.0
 20
14.25
 30
0.0
  0
POINT
  5
5B
330
36
100
AcDbEntity
  8
1
 62
     4
100
AcDbPoint
 10
157.5
 20
12.5
 30
0.0
  0
POINT
  5
5C
330
36
100
AcDbEntity
  8
1
 62
     4
100
AcDbPoint
 10
163.25
 20
12.5
 30
0.0
  0
POINT
  5
5D
330
36
100
AcDbEntity
  8
1
 62
     4
100
AcDbPoint
 10
151.75
 20
12.5
 30
0.0
  0
POINT
  5
5E
330
36
100
AcDbEntity
  8
1
 62
     4
100
AcDbPoint
 10
134.75
 20
12.5
 30
0.0
  0
POINT
  5
5F
330
36
100
AcDbEntity
  8
1
 62
     4
100
AcDbPoint
 10
146.25
 20
12.5
 30
0.0
  0
POINT
  5
60
330
36
100
AcDbEntity
  8
1
 62
     4
100
AcDbPoint
 10
140.5
 20
12.5
 30
0.0
  0
POINT
  5
61
330
36
100
AcDbEntity
  8
1
 62
     4
100
AcDbPoint
 10
140.5
 20
19.00000000000001
 30
0.0
  0
POINT
  5
62
330
36
100
AcDbEntity
  8
1
 62
     4
100
AcDbPoint
 10
117.75
 20
12.5
 30
0.0
  0
POINT
  5
63
330
36
100
AcDbEntity
  8
1
 62
     4
100
AcDbPoint
 10
129.25
 20
12.5
 30
0.0
  0
POINT
  5
64
330
36
100
AcDbEntity
  8
1
 62
     4
100
AcDbPoint
 10
123.5
 20
12.5
 30
0.0
  0
POINT
  5
65
330
36
100
AcDbEntity
  8
1
 62
     4
100
AcDbPoint
 10
123.5
 20
19.00000000000001
 30
0.0
  0
POINT
  5
66
330
36
100
AcDbEntity
  8
1
 62
     4
100
AcDbPoint
 10
100.75
 20
12.5
 30
0.0
  0
POINT
  5
67
330
36
100
AcDbEntity
  8
1
 62
     4
100
AcDbPoint
 10
112.25
 20
12.5
 30
0.0
  0
POINT
  5
68
330
36
100
AcDbEntity
  8
1
 62
     4
100
AcDbPoint
 10
106.5
 20
12.5
 30
0.0
  0
POINT
  5
69
330
36
100
AcDbEntity
  8
1
 62
     4
100
AcDbPoint
 10
106.5
 20
19.00000000000001
 30
0.0
  0
POINT
  5
6A
330
36
100
AcDbEntity
  8
1
 62
     4
100
AcDbPoint
 10
85.25
 20
17.0
 30
0.0
  0
POINT
  5
6B
330
36
100
AcDbEntity
  8
1
 62
     4
100
AcDbPoint
 10
93.75
 20
17.0
 30
0.0
  0
LINE
  5
6C
330
36
100
AcDbEntity
  8
1
  6
Continuous
 62
     2
100
AcDbLine
 10
81.0
 20
27.00000000000001
 30
0.0
 11
81.0
 21
10.0
 31
0.0
  0
LINE
  5
6D
330
36
100
AcDbEntity
  8
1
  6
DOT_CENTER
 62
     2
100
AcDbLine
 10
187.0
 20
26.50000000000001
 30
0.0
 11
187.0
 21
20.50000000000001
 31
0.0
  0
LINE
  5
6E
330
36
100
AcDbEntity
  8
1
  6
DOT_CENTER
 62
     2
100
AcDbLine
 10
184.0
 20
23.50000000000001
 30
0.0
 11
197.0
 21
23.50000000000001
 31
0.0
  0
LINE
  5
6F
330
36
100
AcDbEntity
  8
1
  6
Continuous
 62
     7
100
AcDbLine
 10
196.0
 20
21.50000000000001
 30
0.0
 11
191.0
 21
22.30000000000001
 31
0.0
  0
LINE
  5
70
330
36
100
AcDbEntity
  8
1
  6
Continuous
 62
     7
100
AcDbLine
 10
196.0
 20
25.50000000000001
 30
0.0
 11
196.0
 21
21.50000000000001
 31
0.0
  0
LINE
  5
71
330
36
100
AcDbEntity
  8
1
  6
Continuous
 62
     7
100
AcDbLine
 10
191.0
 20
24.70000000000001
 30
0.0
 11
196.0
 21
25.50000000000001
 31
0.0
  0
LINE
  5
72
330
36
100
AcDbEntity
  8
1
  6
Continuous
 62
     7
100
AcDbLine
 10
191.0
 20
24.70000000000001
 30
0.0
 11
191.0
 21
22.30000000000001
 31
0.0
  0
LINE
  5
73
330
36
100
AcDbEntity
  8
1
  6
Continuous
 62
     2
100
AcDbLine
 10
33.0
 20
27.0
 30
0.0
 11
33.0
 21
10.0
 31
0.0
  0
LINE
  5
74
330
36
100
AcDbEntity
  8
1
  6
Continuous
 62
     2
100
AcDbLine
 10
25.0
 20
18.50000000000001
 30
0.0
 11
81.0
 21
18.50000000000001
 31
0.0
  0
LINE
  5
75
330
36
100
AcDbEntity
  8
1
  6
Continuous
 62
     7
100
AcDbLine
 10
200.0
 20
287.0000000000003
 30
0.0
 11
105.0
 21
287.0000000000003
 31
0.0
  0
LINE
  5
76
330
36
100
AcDbEntity
  8
1
  6
Continuous
 62
     7
100
AcDbLine
 10
200.0
 20
10.0
 30
0.0
 11
200.0
 21
148.5
 31
0.0
  0
LINE
  5
77
330
36
100
AcDbEntity
  8
1
  6
Continuous
 62
     7
100
AcDbLine
 10
25.0
 20
10.0
 30
0.0
 11
105.0
 21
10.0
 31
0.0
  0
LINE
  5
78
330
36
100
AcDbEntity
  8
1
  6
PHANTOM
 62
     4
100
AcDbLine
 10
0.0
 20
297.0
 30
0.0
 11
0.0
 21
0.0
 31
0.0
  0
LINE
  5
79
330
36
100
AcDbEntity
  8
1
  6
PHANTOM
 62
     4
100
AcDbLine
 10
210.0
 20
297.0
 30
0.0
 11
0.0
 21
297.0
 31
0.0
  0
LINE
  5
7A
330
36
100
AcDbEntity
  8
1
  6
PHANTOM
 62
     4
100
AcDbLine
 10
210.0
 20
0.0
 30
0.0
 11
210.0
 21
297.0
 31
0.0
  0
LINE
  5
7B
330
36
100
AcDbEntity
  8
1
  6
PHANTOM
 62
     4
100
AcDbLine
 10
0.0
 20
0.0
 30
0.0
 11
210.0
 21
0.0
 31
0.0
  0
LINE
  5
7C
330
36
100
AcDbEntity
  8
1
  6
Continuous
 62
     7
100
AcDbLine
 10
25.0
 20
41.0
 30
0.0
 11
200.0
 21
41.0
 31
0.0
  0
LINE
  5
7D
330
36
100
AcDbEntity
  8
1
  6
Continuous
 62
     7
100
AcDbLine
 10
200.0
 20
27.00000000000001
 30
0.0
 11
25.0
 21
27.00000000000001
 31
0.0
  0
LINE
  5
7E
330
36
100
AcDbEntity
  8
1
  6
Continuous
 62
     2
100
AcDbLine
 10
33.0
 20
41.00000000000001
 30
0.0
 11
33.0
 21
27.0
 31
0.0
  0
LINE
  5
7F
330
36
100
AcDbEntity
  8
1
  6
Continuous
 62
     2
100
AcDbLine
 10
55.0
 20
287.0000000000003
 30
0.0
 11
55.0
 21
277.0000000000003
 31
0.0
  0
LINE
  5
80
330
36
100
AcDbEntity
  8
1
  6
Continuous
 62
     2
100
AcDbLine
 10
40.0
 20
287.0000000000003
 30
0.0
 11
40.0
 21
277.0000000000003
 31
0.0
  0
LINE
  5
81
330
36
100
AcDbEntity
  8
1
  6
Continuous
 62
     7
100
AcDbLine
 10
25.0
 20
10.0
 30
0.0
 11
25.0
 21
148.5
 31
0.0
  0
LINE
  5
82
330
36
100
AcDbEntity
  8
1
  6
Continuous
 62
     2
100
AcDbLine
 10
55.0
 20
277.0000000000003
 30
0.0
 11
25.0
 21
277.0000000000003
 31
0.0
  0
LINE
  5
83
330
36
100
AcDbEntity
  8
1
  6
Continuous
 62
     2
100
AcDbLine
 10
166.0
 20
27.00000000000001
 30
0.0
 11
166.0
 21
10.0
 31
0.0
  0
LINE
  5
84
330
36
100
AcDbEntity
  8
1
  6
Continuous
 62
     2
100
AcDbLine
 10
132.0
 20
27.00000000000001
 30
0.0
 11
132.0
 21
9.99999999999999
 31
0.0
  0
LINE
  5
85
330
36
100
AcDbEntity
  8
1
  6
Continuous
 62
     2
100
AcDbLine
 10
149.0
 20
27.00000000000001
 30
0.0
 11
149.0
 21
10.0
 31
0.0
  0
LINE
  5
86
330
36
100
AcDbEntity
  8
1
  6
Continuous
 62
     2
100
AcDbLine
 10
115.0
 20
27.00000000000001
 30
0.0
 11
115.0
 21
9.99999999999999
 31
0.0
  0
LINE
  5
87
330
36
100
AcDbEntity
  8
1
  6
Continuous
 62
     2
100
AcDbLine
 10
98.0
 20
27.00000000000001
 30
0.0
 11
98.0
 21
9.99999999999999
 31
0.0
  0
LINE
  5
88
330
36
100
AcDbEntity
  8
1
  6
Continuous
 62
     2
100
AcDbLine
 10
166.0
 20
20.00000000000001
 30
0.0
 11
200.0
 21
20.00000000000001
 31
0.0
  0
LINE
  5
89
330
36
100
AcDbEntity
  8
1
  6
Continuous
 62
     2
100
AcDbLine
 10
105.0
 20
287.0000000000003
 30
0.0
 11
105.0
 21
292.0000000000003
 31
0.0
  0
LINE
  5
8A
330
36
100
AcDbEntity
  8
1
  6
Continuous
 62
     7
100
AcDbLine
 10
105.0
 20
287.0000000000003
 30
0.0
 11
25.0
 21
287.0000000000003
 31
0.0
  0
LINE
  5
8B
330
36
100
AcDbEntity
  8
1
  6
Continuous
 62
     2
100
AcDbLine
 10
25.0
 20
148.5
 30
0.0
 11
20.0
 21
148.5
 31
0.0
  0
LINE
  5
8C
330
36
100
AcDbEntity
  8
1
  6
Continuous
 62
     7
100
AcDbLine
 10
25.0
 20
148.5
 30
0.0
 11
25.0
 21
287.0000000000003
 31
0.0
  0
LINE
  5
8D
330
36
100
AcDbEntity
  8
1
  6
Continuous
 62
     2
100
AcDbLine
 10
200.0
 20
148.5
 30
0.0
 11
205.0
 21
148.5
 31
0.0
  0
LINE
  5
8E
330
36
100
AcDbEntity
  8
1
  6
Continuous
 62
     7
100
AcDbLine
 10
200.0
 20
148.5
 30
0.0
 11
200.0
 21
287.0000000000003
 31
0.0
  0
LINE
  5
8F
330
36
100
AcDbEntity
  8
1
  6
Continuous
 62
     2
100
AcDbLine
 10
105.0
 20
10.0
 30
0.0
 11
105.0
 21
5.0
 31
0.0
  0
LINE
  5
90
330
36
100
AcDbEntity
  8
1
  6
Continuous
 62
     7
100
AcDbLine
 10
105.0
 20
10.0
 30
0.0
 11
200.0
 21
10.0
 31
0.0
  0
CIRCLE
  5
91
330
36
100
AcDbEntity
  8
1
  6
DOT_CENTER
 62
     7
100
AcDbCircle
 10
89.5
 20
18.0
 30
0.0
 40
0.1000000000000227
  0
CIRCLE
  5
92
330
36
100
AcDbEntity
  8
1
  6
DOT_CENTER
 62
     7
100
AcDbCircle
 10
89.5
 20
16.0
 30
0.0
 40
0.1000000000000227
  0
CIRCLE
  5
93
330
36
100
AcDbEntity
  8
1
  6
Continuous
 62
     7
100
AcDbCircle
 10
187.0
 20
23.50000000000001
 30
0.0
 40
2.0
  0
CIRCLE
  5
94
330
36
100
AcDbEntity
  8
1
  6
Continuous
 62
     7
100
AcDbCircle
 10
187.0
 20
23.50000000000001
 30
0.0
 40
1.200000000000102
  0
CIRCLE
  5
95
330
36
100
AcDbEntity
  8
1
  6
Continuous
 62
     7
100
AcDbCircle
 10
154.5
 20
12.5
 30
0.0
 40
0.3000000000000114
  0
CIRCLE
  5
96
330
36
100
AcDbEntity
  8
1
  6
Continuous
 62
     7
100
AcDbCircle
 10
160.5
 20
12.5
 30
0.0
 40
0.3000000000000114
  0
CIRCLE
  5
97
330
36
100
AcDbEntity
  8
1
  6
Continuous
 62
     7
100
AcDbCircle
 10
143.5
 20
12.5
 30
0.0
 40
0.3000000000000114
  0
CIRCLE
  5
98
330
36
100
AcDbEntity
  8
1
  6
Continuous
 62
     7
100
AcDbCircle
 10
137.5
 20
12.5
 30
0.0
 40
0.3000000000000114
  0
CIRCLE
  5
99
330
36
100
AcDbEntity
  8
1
  6
Continuous
 62
     7
100
AcDbCircle
 10
126.5
 20
12.5
 30
0.0
 40
0.2999999999999972
  0
CIRCLE
  5
9A
330
36
100
AcDbEntity
  8
1
  6
Continuous
 62
     7
100
AcDbCircle
 10
120.5
 20
12.5
 30
0.0
 40
0.2999999999999972
  0
CIRCLE
  5
9B
330
36
100
AcDbEntity
  8
1
  6
Continuous
 62
     7
100
AcDbCircle
 10
109.5
 20
12.5
 30
0.0
 40
0.2999999999999972
  0
CIRCLE
  5
9C
330
36
100
AcDbEntity
  8
1
  6
Continuous
 62
     7
100
AcDbCircle
 10
103.5
 20
12.5
 30
0.0
 40
0.2999999999999972
  0
MTEXT
  5
9E
330
36
100
AcDbEntity
  8
1
 62
   250
100
AcDbMText
 10
25.0
 20
5.0
 30
0.0
 40
3.5
 41
0.0
 71
     4
 72
     1
  1
備考欄の文字列 原点位置=4
  7
CONVERTER_1
 73
     1
 44
0.7202881152461
  0
MTEXT
  5
9F
330
36
100
AcDbEntity
  8
1
 62
     2
100
AcDbMText
 10
89.5
 20
24.00000000000001
 30
0.0
 40
3.5
 41
0.0
 71
     5
 72
     1
  1
尺度
  7
CONVERTER_1
 73
     1
 44
0.7202881152461
  0
MTEXT
  5
A0
330
36
100
AcDbEntity
  8
1
 62
     2
100
AcDbMText
 10
135.5
 20
25.00000000000001
 30
0.0
 40
3.0
 41
0.0
 71
     5
 72
     1
  1
製図
  7
CONVERTER_1
 73
     1
 44
0.78031212484994
  0
MTEXT
  5
A1
330
36
100
AcDbEntity
  8
1
 62
     2
100
AcDbMText
 10
152.5
 20
25.00000000000001
 30
0.0
 40
3.0
 41
0.0
 71
     5
 72
     1
  1
設計
  7
CONVERTER_1
 73
     1
 44
0.78031212484994
  0
MTEXT
  5
A2
330
36
100
AcDbEntity
  8
1
 62
     2
100
AcDbMText
 10
118.5
 20
25.00000000000001
 30
0.0
 40
3.0
 41
0.0
 71
     5
 72
     1
  1
検図
  7
CONVERTER_1
 73
     1
 44
0.78031212484994
  0
MTEXT
  5
A3
330
36
100
AcDbEntity
  8
1
 62
     2
100
AcDbMText
 10
175.0
 20
23.50000000000001
 30
0.0
 40
3.5
 41
0.0
 71
     5
 72
     1
  1
第三角法
  7
CONVERTER_1
 73
     1
 44
0.7202881152461
  0
MTEXT
  5
A4
330
36
100
AcDbEntity
  8
1
 62
     2
100
AcDbMText
 10
101.5
 20
25.00000000000001
 30
0.0
 40
3.0
 41
0.0
 71
     5
 72
     1
  1
承認
  7
CONVERTER_1
 73
     1
 44
0.78031212484994
  0
MTEXT
  5
A5
330
36
100
AcDbEntity
  8
1
 62
     2
100
AcDbMText
 10
29.0
 20
14.25
 30
0.0
 40
3.5
 41
0.0
 71
     5
 72
     1
  1
品番
  7
CONVERTER_1
 73
     1
 44
0.96038415366146
  0
MTEXT
  5
A6
330
36
100
AcDbEntity
  8
1
 62
     2
100
AcDbMText
 10
29.0
 20
22.75
 30
0.0
 40
3.5
 41
0.0
 71
     5
 72
     1
  1
品名
  7
CONVERTER_1
 73
     1
 44
0.96038415366146
  0
MTEXT
  5
A7
330
36
100
AcDbEntity
  8
1
 62
     2
100
AcDbMText
 10
29.0
 20
34.00000000000001
 30
0.0
 40
3.5
 41
0.0
 71
     5
 72
     1
  1
備考
  7
CONVERTER_1
 73
     1
 44
0.60024009603842
  0
MTEXT
  5
A8
330
36
100
AcDbEntity
  8
1
 62
     2
100
AcDbMText
 10
32.5
 20
282.0000000000003
 30
0.0
 40
5.0
 41
0.0
 71
     5
 72
     1
  1
図番
  7
CONVERTER_1
 73
     1
 44
0.60024009603842
  0
MTEXT
  5
A9
330
36
100
AcDbEntity
  8
1
 62
     7
100
AcDbMText
 10
171.5
 20
15.0
 30
0.0
 40
2.5
 41
0.0
 71
     5
 72
     1
  1
株式会社
  7
CONVERTER_1
 73
     1
 44
1.32052821128451
  0
MTEXT
  5
AA
330
36
100
AcDbEntity
  8
1
 62
     7
100
AcDbMText
 10
188.5
 20
15.0
 30
0.0
 40
3.0
 41
0.0
 71
     5
 72
     1
  1
三栄水栓製作所
  7
CONVERTER_1
 73
     1
 44
1.32052821128451
  0
ENDBLK
  5
38
330
36
100
AcDbEntity
  8
0
100
AcDbBlockEnd
  0
BLOCK
  5
3A
330
39
100
AcDbEntity
  8
0
100
AcDbBlockBegin
  2
A90-0A-13
 70
     0
 71
     0
 10
356.8371116096303
 20
247.5453512917064
 30
0.0
  3
A90-0A-13
  1

  0
LINE
  5
AB
330
39
100
AcDbEntity
  8
1
  6
Continuous
 62
     7
100
AcDbLine
 10
131.8596821387559
 20
606.4184631519806
 30
0.0
 11
131.8596821387558
 21
622.7387990427128
 31
0.0
  0
LINE
  5
AC
330
39
100
AcDbEntity
  8
1
  6
Continuous
 62
     7
100
AcDbLine
 10
113.8596821387558
 20
622.7387990427128
 30
0.0
 11
113.8596821387557
 21
606.4184631519806
 31
0.0
  0
LINE
  5
AD
330
39
100
AcDbEntity
  8
1
  6
Continuous
 62
     7
100
AcDbLine
 10
435.3760371040505
 20
250.2720626067329
 30
0.0
 11
419.0557012133193
 21
250.272062606733
 31
0.0
  0
LINE
  5
AE
330
39
100
AcDbEntity
  8
1
  6
Continuous
 62
     7
100
AcDbLine
 10
408.8760371040505
 20
263.5400117991641
 30
0.0
 11
409.1686143036993
 21
263.5400117991641
 31
0.0
  0
LINE
  5
AF
330
39
100
AcDbEntity
  8
1
  6
Continuous
 62
     7
100
AcDbLine
 10
409.1686143036993
 20
263.5400117991641
 30
0.0
 11
409.3207122962406
 21
258.7489250341261
 31
0.0
  0
LINE
  5
B0
330
39
100
AcDbEntity
  8
1
  6
Continuous
 62
     7
100
AcDbLine
 10
408.8760371040505
 20
265.772062606733
 30
0.0
 11
408.8760371040505
 21
263.5400117991641
 31
0.0
  0
LINE
  5
B1
330
39
100
AcDbEntity
  8
1
  6
Continuous
 62
     7
100
AcDbLine
 10
384.4216808767853
 20
258.4439724292445
 30
0.0
 11
384.5834599044026
 21
263.5400117991641
 31
0.0
  0
LINE
  5
B2
330
39
100
AcDbEntity
  8
1
  6
Continuous
 62
     7
100
AcDbLine
 10
384.5834599044026
 20
263.5400117991641
 30
0.0
 11
384.8760371040505
 21
263.5400117991641
 31
0.0
  0
LINE
  5
B3
330
39
100
AcDbEntity
  8
1
  6
Continuous
 62
     7
100
AcDbLine
 10
384.8760371040505
 20
263.5400117991641
 30
0.0
 11
384.8760371040505
 21
265.772062606733
 31
0.0
  0
LINE
  5
B4
330
39
100
AcDbEntity
  8
1
  6
Continuous
 62
     7
100
AcDbLine
 10
348.8760371040505
 20
225.5041134143018
 30
0.0
 11
348.8760371040505
 21
225.6320076620928
 31
0.0
  0
LINE
  5
B5
330
39
100
AcDbEntity
  8
1
  6
Continuous
 62
     7
100
AcDbLine
 10
349.8548428212314
 20
229.0578276722257
 30
0.0
 11
348.8760371040505
 21
225.6320076620928
 31
0.0
  0
LINE
  5
B6
330
39
100
AcDbEntity
  8
1
  6
Continuous
 62
     7
100
AcDbLine
 10
374.8760371040505
 20
225.6320076620928
 30
0.0
 11
374.8760371040505
 21
225.5041134143018
 31
0.0
  0
LINE
  5
B7
330
39
100
AcDbEntity
  8
1
  6
Continuous
 62
     7
100
AcDbLine
 10
373.8571839211716
 20
229.1979938021706
 30
0.0
 11
374.8760371040505
 21
225.6320076620928
 31
0.0
  0
LINE
  5
B8
330
39
100
AcDbEntity
  8
1
  6
Continuous
 62
     7
100
AcDbLine
 10
378.4437285128836
 20
232.7720626067329
 30
0.0
 11
377.6175109940775
 21
232.7720626067329
 31
0.0
  0
LINE
  5
B9
330
39
100
AcDbEntity
  8
1
  6
Continuous
 62
     7
100
AcDbLine
 10
419.0557012133183
 20
232.2720626067326
 30
0.0
 11
435.3760371040505
 21
232.2720626067329
 31
0.0
  0
LINE
  5
BA
330
39
100
AcDbEntity
  8
0
  6
Continuous
 62
     7
100
AcDbLine
 10
439.3760371040505
 20
263.772062606733
 30
0.0
 11
439.3760371040505
 21
218.7720626067329
 31
0.0
  0
LINE
  5
BB
330
39
100
AcDbEntity
  8
1
  6
Continuous
 62
     7
100
AcDbLine
 10
131.6096821387558
 20
558.8532413042276
 30
0.0
 11
131.6096821387558
 21
560.2192757335381
 31
0.0
  0
LINE
  5
BC
330
39
100
AcDbEntity
  8
1
  6
PHANTOM
 62
     4
100
AcDbLine
 10
106.6630497020407
 20
549.238799042713
 30
0.0
 11
139.1113265954878
 21
549.238799042713
 31
0.0
  0
LINE
  5
BD
330
39
100
AcDbEntity
  8
1
  6
PHANTOM
 62
     4
100
AcDbLine
 10
101.8596821387558
 20
584.2387990427129
 30
0.0
 11
143.8596821387558
 21
584.2387990427129
 31
0.0
  0
LINE
  5
BE
330
39
100
AcDbEntity
  8
1
  6
Continuous
 62
     7
100
AcDbLine
 10
100.3204525908918
 20
626.7025356216756
 30
0.0
 11
145.3989116866197
 21
626.7025356216756
 31
0.0
  0
LINE
  5
BF
330
39
100
AcDbEntity
  8
1
  6
Continuous
 62
     7
100
AcDbLine
 10
133.3596821387558
 20
642.2387990427129
 30
0.0
 11
112.3596821387558
 21
642.2387990427129
 31
0.0
  0
LINE
  5
C0
330
39
100
AcDbEntity
  8
1
  6
Continuous
 62
     7
100
AcDbLine
 10
112.3596821387558
 20
630.9708498502819
 30
0.0
 11
133.3596821387558
 21
630.9708498502819
 31
0.0
  0
LINE
  5
C1
330
39
100
AcDbEntity
  8
1
  6
Continuous
 62
     7
100
AcDbLine
 10
112.3596821387558
 20
629.2387990427129
 30
0.0
 11
133.3596821387558
 21
629.2387990427129
 31
0.0
  0
LINE
  5
C2
330
39
100
AcDbEntity
  8
1
  6
Continuous
 62
     7
100
AcDbLine
 10
113.3596821387558
 20
643.2387990427129
 30
0.0
 11
132.3596821387558
 21
643.2387990427129
 31
0.0
  0
LINE
  5
C3
330
39
100
AcDbEntity
  8
1
  6
Continuous
 62
     7
100
AcDbLine
 10
133.3596821387558
 20
630.9708498502819
 30
0.0
 11
133.3596821387558
 21
629.2387990427129
 31
0.0
  0
LINE
  5
C4
330
39
100
AcDbEntity
  8
1
  6
Continuous
 62
     7
100
AcDbLine
 10
133.3596821387558
 20
642.2387990427129
 30
0.0
 11
132.3596821387558
 21
643.2387990427129
 31
0.0
  0
LINE
  5
C5
330
39
100
AcDbEntity
  8
1
  6
Continuous
 62
     7
100
AcDbLine
 10
133.3596821387558
 20
642.2387990427129
 30
0.0
 11
133.3596821387558
 21
630.9708498502819
 31
0.0
  0
LINE
  5
C6
330
39
100
AcDbEntity
  8
1
  6
Continuous
 62
     7
100
AcDbLine
 10
112.3596821387558
 20
630.9708498502819
 30
0.0
 11
112.3596821387558
 21
642.2387990427129
 31
0.0
  0
LINE
  5
C7
330
39
100
AcDbEntity
  8
1
  6
Continuous
 62
     7
100
AcDbLine
 10
113.3596821387558
 20
643.2387990427129
 30
0.0
 11
112.3596821387558
 21
642.2387990427129
 31
0.0
  0
LINE
  5
C8
330
39
100
AcDbEntity
  8
1
  6
Continuous
 62
     7
100
AcDbLine
 10
112.3596821387558
 20
629.2387990427129
 30
0.0
 11
112.3596821387558
 21
630.9708498502819
 31
0.0
  0
LINE
  5
C9
330
39
100
AcDbEntity
  8
1
  6
Continuous
 62
     2
100
AcDbLine
 10
113.3596821387558
 20
630.9708498502819
 30
0.0
 11
113.3596821387558
 21
643.2387990427129
 31
0.0
  0
LINE
  5
CA
330
39
100
AcDbEntity
  8
1
  6
Continuous
 62
     2
100
AcDbLine
 10
112.3596821387558
 20
629.2387990427129
 30
0.0
 11
113.3596821387558
 21
630.9708498502819
 31
0.0
  0
LINE
  5
CB
330
39
100
AcDbEntity
  8
1
  6
Continuous
 62
     7
100
AcDbLine
 10
99.85968213875583
 20
629.2387990427129
 30
0.0
 11
112.3596821387558
 21
629.2387990427129
 31
0.0
  0
LINE
  5
CC
330
39
100
AcDbEntity
  8
1
  6
Continuous
 62
     7
100
AcDbLine
 10
99.85968213875583
 20
629.2387990427129
 30
0.0
 11
99.85968213875583
 21
627.200994288542
 31
0.0
  0
LINE
  5
CD
330
39
100
AcDbEntity
  8
1
  6
Continuous
 62
     7
100
AcDbLine
 10
145.8596821387558
 20
627.200994288542
 30
0.0
 11
145.8596821387558
 21
629.2387990427129
 31
0.0
  0
LINE
  5
CE
330
39
100
AcDbEntity
  8
1
  6
Continuous
 62
     7
100
AcDbLine
 10
133.3596821387558
 20
629.2387990427129
 30
0.0
 11
145.8596821387558
 21
629.2387990427129
 31
0.0
  0
LINE
  5
CF
330
39
100
AcDbEntity
  8
1
  6
Continuous
 62
     2
100
AcDbLine
 10
132.3596821387558
 20
630.9708498502819
 30
0.0
 11
133.3596821387558
 21
629.2387990427129
 31
0.0
  0
LINE
  5
D0
330
39
100
AcDbEntity
  8
1
  6
Continuous
 62
     2
100
AcDbLine
 10
132.3596821387558
 20
630.9708498502819
 30
0.0
 11
132.3596821387558
 21
643.2387990427129
 31
0.0
  0
LINE
  5
D1
330
39
100
AcDbEntity
  8
1
  6
Continuous
 62
     2
100
AcDbLine
 10
385.8760371040505
 20
265.272062606733
 30
0.0
 11
385.8760371040505
 21
265.772062606733
 31
0.0
  0
LINE
  5
D2
330
39
100
AcDbEntity
  8
1
  6
Continuous
 62
     2
100
AcDbLine
 10
349.8760371040505
 20
222.2720626067329
 30
0.0
 11
349.8760371040505
 21
223.7720626067329
 31
0.0
  0
LINE
  5
D3
330
39
100
AcDbEntity
  8
1
  6
Continuous
 62
     2
100
AcDbLine
 10
348.8760371040505
 20
225.5041134143018
 30
0.0
 11
349.8760371040505
 21
223.7720626067329
 31
0.0
  0
LINE
  5
D4
330
39
100
AcDbEntity
  8
1
  6
Continuous
 62
     2
100
AcDbLine
 10
384.8760371040505
 20
263.5400117991641
 30
0.0
 11
385.8760371040505
 21
265.272062606733
 31
0.0
  0
LINE
  5
D5
330
39
100
AcDbEntity
  8
1
  6
Continuous
 62
     7
100
AcDbLine
 10
455.8760371040505
 20
250.7720626067329
 30
0.0
 11
455.8760371040505
 21
231.7720626067329
 31
0.0
  0
LINE
  5
D6
330
39
100
AcDbEntity
  8
1
  6
Continuous
 62
     2
100
AcDbLine
 10
455.8760371040505
 20
231.7720626067329
 30
0.0
 11
443.6080879116194
 21
231.7720626067329
 31
0.0
  0
LINE
  5
D7
330
39
100
AcDbEntity
  8
1
  6
Continuous
 62
     2
100
AcDbLine
 10
443.6080879116194
 20
231.7720626067329
 30
0.0
 11
441.8760371040505
 21
230.7720626067329
 31
0.0
  0
LINE
  5
D8
330
39
100
AcDbEntity
  8
1
  6
Continuous
 62
     7
100
AcDbLine
 10
441.8760371040505
 20
230.7720626067329
 30
0.0
 11
441.8760371040505
 21
218.2720626067329
 31
0.0
  0
LINE
  5
D9
330
39
100
AcDbEntity
  8
1
  6
Continuous
 62
     7
100
AcDbLine
 10
441.8760371040505
 20
218.2720626067329
 30
0.0
 11
439.8760371040505
 21
218.2720626067329
 31
0.0
  0
LINE
  5
DA
330
39
100
AcDbEntity
  8
1
  6
Continuous
 62
     2
100
AcDbLine
 10
373.8760371040505
 20
223.7720626067329
 30
0.0
 11
374.8760371040505
 21
225.5041134143018
 31
0.0
  0
LINE
  5
DB
330
39
100
AcDbEntity
  8
1
  6
Continuous
 62
     2
100
AcDbLine
 10
373.8760371040505
 20
223.7720626067329
 30
0.0
 11
373.8760371040505
 21
222.2720626067329
 31
0.0
  0
LINE
  5
DC
330
39
100
AcDbEntity
  8
1
  6
Continuous
 62
     2
100
AcDbLine
 10
407.8760371040505
 20
265.772062606733
 30
0.0
 11
407.8760371040505
 21
265.272062606733
 31
0.0
  0
LINE
  5
DD
330
39
100
AcDbEntity
  8
1
  6
Continuous
 62
     2
100
AcDbLine
 10
407.8760371040505
 20
265.272062606733
 30
0.0
 11
408.8760371040505
 21
263.5400117991641
 31
0.0
  0
LINE
  5
DE
330
39
100
AcDbEntity
  8
1
  6
Continuous
 62
     7
100
AcDbLine
 10
441.8760371040505
 20
264.272062606733
 30
0.0
 11
439.8760371040505
 21
264.272062606733
 31
0.0
  0
LINE
  5
DF
330
39
100
AcDbEntity
  8
1
  6
Continuous
 62
     7
100
AcDbLine
 10
441.8760371040505
 20
264.272062606733
 30
0.0
 11
441.8760371040505
 21
251.7720626067329
 31
0.0
  0
LINE
  5
E0
330
39
100
AcDbEntity
  8
1
  6
Continuous
 62
     2
100
AcDbLine
 10
441.8760371040505
 20
251.7720626067329
 30
0.0
 11
443.6080879116194
 21
250.7720626067329
 31
0.0
  0
LINE
  5
E1
330
39
100
AcDbEntity
  8
1
  6
Continuous
 62
     2
100
AcDbLine
 10
443.6080879116194
 20
250.7720626067329
 30
0.0
 11
455.8760371040505
 21
250.7720626067329
 31
0.0
  0
LINE
  5
E2
330
39
100
AcDbEntity
  8
1
  6
Continuous
 62
     7
100
AcDbLine
 10
441.8760371040505
 20
251.7720626067329
 30
0.0
 11
454.8760371040505
 21
251.7720626067329
 31
0.0
  0
LINE
  5
E3
330
39
100
AcDbEntity
  8
1
  6
Continuous
 62
     7
100
AcDbLine
 10
455.8760371040505
 20
250.7720626067329
 30
0.0
 11
454.8760371040505
 21
251.7720626067329
 31
0.0
  0
LINE
  5
E4
330
39
100
AcDbEntity
  8
1
  6
Continuous
 62
     7
100
AcDbLine
 10
443.6080879116194
 20
250.7720626067329
 30
0.0
 11
443.6080879116194
 21
251.7720626067329
 31
0.0
  0
LINE
  5
E5
330
39
100
AcDbEntity
  8
1
  6
Continuous
 62
     7
100
AcDbLine
 10
454.8760371040505
 20
251.7720626067329
 30
0.0
 11
454.8760371040505
 21
250.7720626067329
 31
0.0
  0
LINE
  5
E6
330
39
100
AcDbEntity
  8
1
  6
Continuous
 62
     7
100
AcDbLine
 10
454.8760371040505
 20
231.7720626067329
 30
0.0
 11
454.8760371040505
 21
230.7720626067329
 31
0.0
  0
LINE
  5
E7
330
39
100
AcDbEntity
  8
1
  6
Continuous
 62
     7
100
AcDbLine
 10
454.8760371040505
 20
230.7720626067329
 30
0.0
 11
441.8760371040505
 21
230.7720626067329
 31
0.0
  0
LINE
  5
E8
330
39
100
AcDbEntity
  8
1
  6
Continuous
 62
     7
100
AcDbLine
 10
443.6080879116194
 20
230.7720626067329
 30
0.0
 11
443.6080879116194
 21
231.7720626067329
 31
0.0
  0
LINE
  5
E9
330
39
100
AcDbEntity
  8
1
  6
Continuous
 62
     7
100
AcDbLine
 10
454.8760371040505
 20
230.7720626067329
 30
0.0
 11
455.8760371040505
 21
231.7720626067329
 31
0.0
  0
LINE
  5
EA
330
39
100
AcDbEntity
  8
1
  6
Continuous
 62
     7
100
AcDbLine
 10
407.8760371040505
 20
265.272062606733
 30
0.0
 11
408.8760371040505
 21
265.272062606733
 31
0.0
  0
LINE
  5
EB
330
39
100
AcDbEntity
  8
1
  6
Continuous
 62
     7
100
AcDbLine
 10
384.8760371040505
 20
265.272062606733
 30
0.0
 11
385.8760371040505
 21
265.272062606733
 31
0.0
  0
LINE
  5
EC
330
39
100
AcDbEntity
  8
1
  6
Continuous
 62
     7
100
AcDbLine
 10
374.8760371040505
 20
225.5041134143018
 30
0.0
 11
374.8760371040505
 21
222.2720626067329
 31
0.0
  0
LINE
  5
ED
330
39
100
AcDbEntity
  8
1
  6
Continuous
 62
     7
100
AcDbLine
 10
373.8760371040505
 20
223.7720626067329
 30
0.0
 11
374.8760371040505
 21
223.7720626067329
 31
0.0
  0
LINE
  5
EE
330
39
100
AcDbEntity
  8
1
  6
Continuous
 62
     7
100
AcDbLine
 10
348.8760371040505
 20
222.2720626067329
 30
0.0
 11
348.8760371040505
 21
225.5041134143018
 31
0.0
  0
LINE
  5
EF
330
39
100
AcDbEntity
  8
1
  6
Continuous
 62
     7
100
AcDbLine
 10
348.8760371040505
 20
223.7720626067329
 30
0.0
 11
349.8760371040505
 21
223.7720626067329
 31
0.0
  0
LINE
  5
F0
330
39
100
AcDbEntity
  8
1
  6
Continuous
 62
     7
100
AcDbLine
 10
114.1096821387558
 20
551.238799042713
 30
0.0
 11
114.1096821387558
 21
560.2192757335381
 31
0.0
  0
LINE
  5
F1
330
39
100
AcDbEntity
  8
1
  6
Continuous
 62
     7
100
AcDbLine
 10
131.6096821387558
 20
551.238799042713
 30
0.0
 11
131.6096821387558
 21
558.8532413042276
 31
0.0
  0
LINE
  5
F2
330
39
100
AcDbEntity
  8
1
  6
Continuous
 62
     7
100
AcDbLine
 10
349.8760371040505
 20
223.7720626067329
 30
0.0
 11
373.8760371040505
 21
223.7720626067329
 31
0.0
  0
LINE
  5
F3
330
39
100
AcDbEntity
  8
1
  6
Continuous
 62
     7
100
AcDbLine
 10
441.8760371040505
 20
251.7720626067329
 30
0.0
 11
441.8760371040505
 21
230.7720626067329
 31
0.0
  0
LINE
  5
F4
330
39
100
AcDbEntity
  8
1
  6
Continuous
 62
     7
100
AcDbLine
 10
443.6080879116194
 20
231.7720626067329
 30
0.0
 11
443.6080879116194
 21
250.7720626067329
 31
0.0
  0
LINE
  5
F5
330
39
100
AcDbEntity
  8
1
  6
Continuous
 62
     7
100
AcDbLine
 10
454.8760371040505
 20
250.7720626067329
 30
0.0
 11
454.8760371040505
 21
231.7720626067329
 31
0.0
  0
LINE
  5
F6
330
39
100
AcDbEntity
  8
1
  6
Continuous
 62
     7
100
AcDbLine
 10
407.8760371040505
 20
265.272062606733
 30
0.0
 11
385.8760371040505
 21
265.272062606733
 31
0.0
  0
LINE
  5
F7
330
39
100
AcDbEntity
  8
1
  6
Continuous
 62
     7
100
AcDbLine
 10
135.8596821387559
 20
225.632007662093
 30
0.0
 11
134.880876421575
 21
229.0578276722257
 31
0.0
  0
LINE
  5
F8
330
39
100
AcDbEntity
  8
1
  6
Continuous
 62
     2
100
AcDbLine
 10
134.8596821387559
 20
223.7720626067329
 30
0.0
 11
135.8596821387559
 21
225.5041134143018
 31
0.0
  0
LINE
  5
F9
330
39
100
AcDbEntity
  8
1
  6
Continuous
 62
     7
100
AcDbLine
 10
135.8596821387559
 20
225.5041134143018
 30
0.0
 11
135.8596821387559
 21
222.2720626067329
 31
0.0
  0
LINE
  5
FA
330
39
100
AcDbEntity
  8
1
  6
Continuous
 62
     2
100
AcDbLine
 10
134.8596821387559
 20
223.7720626067329
 30
0.0
 11
134.8596821387561
 21
222.2720626067329
 31
0.0
  0
LINE
  5
FB
330
39
100
AcDbEntity
  8
1
  6
Continuous
 62
     7
100
AcDbLine
 10
135.8596821387559
 20
225.632007662093
 30
0.0
 11
135.8596821387559
 21
225.5041134143018
 31
0.0
  0
LINE
  5
FC
330
39
100
AcDbEntity
  8
1
  6
Continuous
 62
     7
100
AcDbLine
 10
109.8596914689249
 20
241.2564874884555
 30
0.0
 11
110.5671049391068
 21
263.5400117991644
 31
0.0
  0
LINE
  5
FD
330
39
100
AcDbEntity
  8
1
  6
Continuous
 62
     7
100
AcDbLine
 10
134.8596821387557
 20
263.5400117991644
 30
0.0
 11
110.8596821387557
 21
263.5400117991644
 31
0.0
  0
LINE
  5
FE
330
39
100
AcDbEntity
  8
1
  6
Continuous
 62
     7
100
AcDbLine
 10
134.8596821387557
 20
265.272062606733
 30
0.0
 11
110.8596821387558
 21
265.272062606733
 31
0.0
  0
LINE
  5
FF
330
39
100
AcDbEntity
  8
1
  6
Continuous
 62
     7
100
AcDbLine
 10
135.8596821387558
 20
223.7720626067329
 30
0.0
 11
109.8596821387557
 21
223.7720626067329
 31
0.0
  0
LINE
  5
100
330
39
100
AcDbEntity
  8
1
  6
Continuous
 62
     7
100
AcDbLine
 10
110.8384878559367
 20
229.0578276722257
 30
0.0
 11
109.8596821387557
 21
225.632007662093
 31
0.0
  0
LINE
  5
101
330
39
100
AcDbEntity
  8
1
  6
Continuous
 62
     7
100
AcDbLine
 10
135.1522593384049
 20
263.5400117991644
 30
0.0
 11
135.8596728085868
 21
241.2564874884555
 31
0.0
  0
LINE
  5
102
330
39
100
AcDbEntity
  8
1
  6
Continuous
 62
     2
100
AcDbLine
 10
133.8596821387557
 20
265.772062606733
 30
0.0
 11
133.8596821387557
 21
265.272062606733
 31
0.0
  0
LINE
  5
103
330
39
100
AcDbEntity
  8
1
  6
Continuous
 62
     2
100
AcDbLine
 10
109.8596821387557
 20
225.5041134143018
 30
0.0
 11
110.8596821387557
 21
223.7720626067329
 31
0.0
  0
LINE
  5
104
330
39
100
AcDbEntity
  8
1
  6
Continuous
 62
     7
100
AcDbLine
 10
109.8596821387557
 20
222.2720626067329
 30
0.0
 11
109.8596821387557
 21
225.5041134143018
 31
0.0
  0
LINE
  5
105
330
39
100
AcDbEntity
  8
1
  6
Continuous
 62
     2
100
AcDbLine
 10
110.8596821387556
 20
222.2720626067329
 30
0.0
 11
110.8596821387557
 21
223.7720626067329
 31
0.0
  0
LINE
  5
106
330
39
100
AcDbEntity
  8
1
  6
Continuous
 62
     7
100
AcDbLine
 10
110.5671049391068
 20
263.5400117991644
 30
0.0
 11
110.8596821387557
 21
263.5400117991644
 31
0.0
  0
LINE
  5
107
330
39
100
AcDbEntity
  8
1
  6
Continuous
 62
     7
100
AcDbLine
 10
134.8596821387557
 20
263.5400117991644
 30
0.0
 11
135.1522593384049
 21
263.5400117991644
 31
0.0
  0
LINE
  5
108
330
39
100
AcDbEntity
  8
1
  6
Continuous
 62
     2
100
AcDbLine
 10
133.8596821387557
 20
265.272062606733
 30
0.0
 11
134.8596821387557
 21
263.5400117991644
 31
0.0
  0
LINE
  5
109
330
39
100
AcDbEntity
  8
1
  6
Continuous
 62
     7
100
AcDbLine
 10
134.8596821387557
 20
263.5400117991644
 30
0.0
 11
134.8596821387557
 21
265.772062606733
 31
0.0
  0
LINE
  5
10A
330
39
100
AcDbEntity
  8
1
  6
Continuous
 62
     2
100
AcDbLine
 10
110.8596821387557
 20
263.5400117991644
 30
0.0
 11
111.8596821387557
 21
265.272062606733
 31
0.0
  0
LINE
  5
10B
330
39
100
AcDbEntity
  8
1
  6
Continuous
 62
     2
100
AcDbLine
 10
111.8596821387557
 20
265.272062606733
 30
0.0
 11
111.8596821387558
 21
265.772062606733
 31
0.0
  0
LINE
  5
10C
330
39
100
AcDbEntity
  8
1
  6
Continuous
 62
     7
100
AcDbLine
 10
110.8596821387557
 20
265.772062606733
 30
0.0
 11
110.8596821387557
 21
263.5400117991644
 31
0.0
  0
LINE
  5
10D
330
39
100
AcDbEntity
  8
1
  6
Continuous
 62
     7
100
AcDbLine
 10
109.8596821387557
 20
225.5041134143018
 30
0.0
 11
109.8596821387557
 21
225.632007662093
 31
0.0
  0
LINE
  5
10E
330
39
100
AcDbEntity
  8
0
  6
PHANTOM
 62
     4
100
AcDbLine
 10
96.85968213875583
 20
241.2720626067329
 30
0.0
 11
148.8596821387558
 21
241.2720626067329
 31
0.0
  0
ARC
  5
10F
330
39
100
AcDbEntity
  8
1
  6
Continuous
 62
     7
100
AcDbCircle
 10
109.8596821387558
 20
622.7387990427128
 30
0.0
 40
4.0
100
AcDbArc
 50
0.0
 51
90.0
  0
ARC
  5
110
330
39
100
AcDbEntity
  8
1
  6
Continuous
 62
     7
100
AcDbCircle
 10
135.8596821387558
 20
622.7387990427128
 30
0.0
 40
4.0
100
AcDbArc
 50
90.0
 51
180.0
  0
ARC
  5
111
330
39
100
AcDbEntity
  8
1
  6
Continuous
 62
     7
100
AcDbCircle
 10
435.3760371040505
 20
254.2720626067329
 30
0.0
 40
4.0
100
AcDbArc
 50
-90.0
 51
0.0
  0
ARC
  5
112
330
39
100
AcDbEntity
  8
1
  6
Continuous
 62
     7
100
AcDbCircle
 10
377.6466818657116
 20
200.7720626062735
 30
0.0
 40
49.00000000045964
100
AcDbArc
 50
92.19404509977861
 51
99.36066212030445
  0
ARC
  5
113
330
39
100
AcDbEntity
  8
1
  6
Continuous
 62
     7
100
AcDbCircle
 10
375.4262125991238
 20
258.7295428507587
 30
0.0
 40
9.00000000000378
100
AcDbArc
 50
-87.80595490022539
 51
-1.81830296445903
  0
ARC
  5
114
330
39
100
AcDbEntity
  8
1
  6
Continuous
 62
     7
100
AcDbCircle
 10
373.5804676780429
 20
225.4391642236679
 30
0.0
 40
24.0000000000022
100
AcDbArc
 50
99.36066212030383
 51
171.3280051740366
  0
ARC
  5
115
330
39
100
AcDbEntity
  8
1
  6
Continuous
 62
     7
100
AcDbCircle
 10
377.8350717284714
 20
228.7779835731091
 30
0.0
 40
3.999999999997895
100
AcDbArc
 50
93.11786651757015
 51
173.9726861048974
  0
ARC
  5
116
330
39
100
AcDbEntity
  8
1
  6
Continuous
 62
     7
100
AcDbCircle
 10
396.8760371040505
 20
257.2720626067328
 30
0.0
 40
28.99999999999995
100
AcDbArc
 50
-117.4392401506813
 51
-68.30528397761427
  0
ARC
  5
117
330
39
100
AcDbEntity
  8
1
  6
Continuous
 62
     7
100
AcDbCircle
 10
435.3760371040505
 20
228.2720626067329
 30
0.0
 40
4.0
100
AcDbArc
 50
0.0
 51
90.0
  0
ARC
  5
118
330
39
100
AcDbEntity
  8
1
  6
Continuous
 62
     7
100
AcDbCircle
 10
122.8596821387558
 20
549.238799042713
 30
0.0
 40
12.9999999999999
100
AcDbArc
 50
132.3049897071832
 51
-103.3423637970882
  0
ARC
  5
119
330
39
100
AcDbEntity
  8
1
  6
Continuous
 62
     7
100
AcDbCircle
 10
122.8596821387558
 20
549.238799042713
 30
0.0
 40
13.00000000000008
100
AcDbArc
 50
-76.65763620291185
 51
47.69501029281675
  0
ARC
  5
11A
330
39
100
AcDbEntity
  8
1
  6
Continuous
 62
     7
100
AcDbCircle
 10
122.8596821387558
 20
241.2720626067329
 30
0.0
 40
8.351995935906155
100
AcDbArc
 50
0.1905750230791
 51
90.0
  0
ARC
  5
11B
330
39
100
AcDbEntity
  8
1
  6
Continuous
 62
     7
100
AcDbCircle
 10
122.8596821387558
 20
241.2720626067329
 30
0.0
 40
8.351995935906189
100
AcDbArc
 50
90.0
 51
179.8094249769209
  0
ARC
  5
11C
330
39
100
AcDbEntity
  8
1
  6
Continuous
 62
     7
100
AcDbCircle
 10
122.8596821387558
 20
241.2720626067329
 30
0.0
 40
13.0
100
AcDbArc
 50
-179.9313547110613
 51
-145.689907206611
  0
ARC
  5
11D
330
39
100
AcDbEntity
  8
1
  6
Continuous
 62
     7
100
AcDbCircle
 10
111.1552515647636
 20
225.439164223668
 30
0.0
 40
24.00000000000156
100
AcDbArc
 50
8.67199482596315
 51
27.87011739414511
  0
ARC
  5
11E
330
39
100
AcDbEntity
  8
1
  6
Continuous
 62
     7
100
AcDbCircle
 10
122.8596821387558
 20
241.2720626067329
 30
0.0
 40
13.0
100
AcDbArc
 50
180.0
 51
-179.9313547110613
  0
ARC
  5
11F
330
39
100
AcDbEntity
  8
1
  6
Continuous
 62
     7
100
AcDbCircle
 10
122.8596821387558
 20
241.2720626067329
 30
0.0
 40
12.99999999999999
100
AcDbArc
 50
-34.3100927933888
 51
-0.06864528893873
  0
ARC
  5
120
330
39
100
AcDbEntity
  8
1
  6
Continuous
 62
     7
100
AcDbCircle
 10
134.5641127127481
 20
225.439164223668
 30
0.0
 40
24.00000000000156
100
AcDbArc
 50
152.1298826058549
 51
171.3280051740369
  0
ARC
  5
121
330
39
100
AcDbEntity
  8
1
  6
Continuous
 62
     7
100
AcDbCircle
 10
122.8596821387558
 20
241.2720626067329
 30
0.0
 40
22.99999999999982
100
AcDbArc
 50
-55.58261128955787
 51
57.42219882713911
  0
ARC
  5
122
330
39
100
AcDbEntity
  8
1
  6
Continuous
 62
     7
100
AcDbCircle
 10
122.8596821387558
 20
241.2720626067329
 30
0.0
 40
22.99999999999998
100
AcDbArc
 50
122.5778011728607
 51
-124.4173887104422
  0
ARC
  5
123
330
39
100
AcDbEntity
  8
1
  6
Continuous
 62
     7
100
AcDbCircle
 10
162.7346821387561
 20
605.7661200899443
 30
0.0
 40
30.88189075284415
100
AcDbArc
 50
178.7896050547128
 51
-170.6495516062538
  0
ARC
  5
124
330
39
100
AcDbEntity
  8
1
  6
Continuous
 62
     7
100
AcDbCircle
 10
82.98468213875549
 20
605.7661200899443
 30
0.0
 40
30.88189075284415
100
AcDbArc
 50
-9.35044839374617
 51
1.21039494528722
  0
ARC
  5
125
330
39
100
AcDbEntity
  8
1
  6
Continuous
 62
     7
100
AcDbCircle
 10
419.0557012133193
 20
281.272062606733
 30
0.0
 40
31.0
100
AcDbArc
 50
-91.92633614020589
 51
-90.0
  0
ARC
  5
126
330
39
100
AcDbEntity
  8
1
  6
Continuous
 62
     7
100
AcDbCircle
 10
418.1827319456918
 20
259.159495455639
 30
0.0
 40
8.871525254333703
100
AcDbArc
 50
-177.3474282000039
 51
-91.09206730465894
  0
ARC
  5
127
330
39
100
AcDbEntity
  8
1
  6
Continuous
 62
     7
100
AcDbCircle
 10
378.4437285128836
 20
221.7720626067329
 30
0.0
 40
11.00000000000003
100
AcDbArc
 50
62.5607598493185
 51
90.0
  0
ARC
  5
128
330
39
100
AcDbEntity
  8
1
  6
Continuous
 62
     7
100
AcDbCircle
 10
418.403358151282
 20
201.3970626067326
 30
0.0
 40
30.88189075284392
100
AcDbArc
 50
88.78960505471298
 51
110.4843210770984
  0
ARC
  5
129
330
39
100
AcDbEntity
  8
1
  6
Continuous
 62
     7
100
AcDbCircle
 10
100.3596821387558
 20
627.200994288542
 30
0.0
 40
0.4999999999999716
100
AcDbArc
 50
180.0
 51
-94.50000000000958
  0
ARC
  5
12A
330
39
100
AcDbEntity
  8
1
  6
Continuous
 62
     7
100
AcDbCircle
 10
145.3596821387558
 20
627.200994288542
 30
0.0
 40
0.4999999999998749
100
AcDbArc
 50
-85.50000000000179
 51
0.0
  0
ARC
  5
12B
330
39
100
AcDbEntity
  8
1
  6
Continuous
 62
     7
100
AcDbCircle
 10
439.8760371040505
 20
218.7720626067329
 30
0.0
 40
0.5
100
AcDbArc
 50
180.0
 51
-90.0
  0
ARC
  5
12C
330
39
100
AcDbEntity
  8
1
  6
Continuous
 62
     7
100
AcDbCircle
 10
439.8760371040505
 20
263.772062606733
 30
0.0
 40
0.5
100
AcDbArc
 50
90.0
 51
180.0
  0
ARC
  5
12D
330
39
100
AcDbEntity
  8
1
  6
Continuous
 62
     7
100
AcDbCircle
 10
161.6096821387558
 20
560.2192757335381
 30
0.0
 40
30.0
100
AcDbArc
 50
165.0925604765197
 51
180.0
  0
ARC
  5
12E
330
39
100
AcDbEntity
  8
1
  6
Continuous
 62
     7
100
AcDbCircle
 10
112.1096821387558
 20
551.238799042713
 30
0.0
 40
2.0
100
AcDbArc
 50
-90.0
 51
0.0
  0
ARC
  5
12F
330
39
100
AcDbEntity
  8
1
  6
Continuous
 62
     7
100
AcDbCircle
 10
133.6096821387558
 20
551.238799042713
 30
0.0
 40
2.0
100
AcDbArc
 50
180.0
 51
-90.0
  0
ARC
  5
130
330
39
100
AcDbEntity
  8
1
  6
Continuous
 62
     7
100
AcDbCircle
 10
84.10968213875583
 20
560.2192757335381
 30
0.0
 40
29.99999999999997
100
AcDbArc
 50
0.0
 51
14.90743952348059
  0
ARC
  5
131
330
39
100
AcDbEntity
  8
1
  6
Continuous
 62
     7
100
AcDbCircle
 10
141.2115765574678
 20
241.3331041987986
 30
0.0
 40
9.999999999999954
100
AcDbArc
 50
-179.8094249769235
 51
-152.1298826058548
  0
ARC
  5
132
330
39
100
AcDbEntity
  8
1
  6
Continuous
 62
     7
100
AcDbCircle
 10
104.5077877200439
 20
241.3331041987986
 30
0.0
 40
10.00000000000006
100
AcDbArc
 50
-27.87011739414518
 51
-0.19057502307644
  0
ENDBLK
  5
3B
330
39
100
AcDbEntity
  8
0
100
AcDbBlockEnd
  0
BLOCK
  5
3D
330
3C
100
AcDbEntity
  8
0
100
AcDbBlockBegin
  2
21-5A
 70
     0
 71
     0
 10
426.659602669998
 20
16.84338346949255
 30
0.0
  3
21-5A
  1

  0
LINE
  5
133
330
3C
100
AcDbEntity
  8
1
  6
Continuous
 62
     7
100
AcDbLine
 10
396.8760371040505
 20
265.772062606733
 30
0.0
 11
378.8760371040505
 21
265.772062606733
 31
0.0
  0
LINE
  5
134
330
3C
100
AcDbEntity
  8
1
  6
Continuous
 62
     7
100
AcDbLine
 10
385.3826694513562
 20
308.272062606733
 30
0.0
 11
386.8760371040505
 21
308.272062606733
 31
0.0
  0
LINE
  5
135
330
3C
100
AcDbEntity
  8
1
  6
Continuous
 62
     7
100
AcDbLine
 10
385.3760371040505
 20
308.272062606733
 30
0.0
 11
386.8760371040505
 21
308.272062606733
 31
0.0
  0
LINE
  5
136
330
3C
100
AcDbEntity
  8
1
  6
Continuous
 62
     7
100
AcDbLine
 10
385.3826694513562
 20
308.272062606733
 30
0.0
 11
386.8760371040505
 21
308.272062606733
 31
0.0
  0
LINE
  5
137
330
3C
100
AcDbEntity
  8
1
  6
Continuous
 62
     7
100
AcDbLine
 10
377.8760371040505
 20
305.6273052401031
 30
0.0
 11
377.8760371040505
 21
266.772062606733
 31
0.0
  0
LINE
  5
138
330
3C
100
AcDbEntity
  8
1
  6
Continuous
 62
     7
100
AcDbLine
 10
216.8760371040505
 20
330.272062606733
 30
0.0
 11
216.8760371040505
 21
324.272062606733
 31
0.0
  0
LINE
  5
139
330
3C
100
AcDbEntity
  8
1
  6
Continuous
 62
     7
100
AcDbLine
 10
235.843946678508
 20
290.2423313558475
 30
0.0
 11
235.6362540231145
 21
290.2424237371428
 31
0.0
  0
LINE
  5
13A
330
3C
100
AcDbEntity
  8
1
  6
Continuous
 62
     7
100
AcDbLine
 10
243.9332987799811
 20
329.8970543848197
 30
0.0
 11
243.8756127497608
 21
330.167024368677
 31
0.0
  0
LINE
  5
13B
330
3C
100
AcDbEntity
  8
1
  6
Continuous
 62
     7
100
AcDbLine
 10
352.3589117191403
 20
290.1905057225481
 30
0.0
 11
235.843946678508
 21
290.2423313558475
 31
0.0
  0
LINE
  5
13C
330
3C
100
AcDbEntity
  8
1
  6
Continuous
 62
     7
100
AcDbLine
 10
352.3589117191415
 20
300.4154014630157
 30
0.0
 11
293.8760371040623
 21
300.7720626067329
 31
0.0
  0
LINE
  5
13D
330
3C
100
AcDbEntity
  8
1
  6
Continuous
 62
     7
100
AcDbLine
 10
375.8760371040505
 20
289.272062606733
 30
0.0
 11
234.8708959882911
 21
289.272062606733
 31
0.0
  0
LINE
  5
13E
330
3C
100
AcDbEntity
  8
1
  6
Continuous
 62
     7
100
AcDbLine
 10
375.8648013263029
 20
301.283361684136
 30
0.0
 11
293.8760371040632
 21
301.772062606733
 31
0.0
  0
LINE
  5
13F
330
3C
100
AcDbEntity
  8
1
  6
Continuous
 62
     7
100
AcDbLine
 10
125.8596821387558
 20
405.9961583555942
 30
0.0
 11
125.8596821387558
 21
539.7216736578041
 31
0.0
  0
LINE
  5
140
330
3C
100
AcDbEntity
  8
1
  6
Continuous
 62
     7
100
AcDbLine
 10
119.8596821387558
 20
539.7216736578041
 30
0.0
 11
119.8596821387558
 21
405.9961583555942
 31
0.0
  0
LINE
  5
141
330
3C
100
AcDbEntity
  8
1
  6
Continuous
 62
     7
100
AcDbLine
 10
128.8596821387558
 20
564.8223112037656
 30
0.0
 11
128.8596821387558
 21
554.2387990427133
 31
0.0
  0
LINE
  5
142
330
3C
100
AcDbEntity
  8
1
  6
Continuous
 62
     7
100
AcDbLine
 10
116.8596821387559
 20
564.8223112037656
 30
0.0
 11
116.8596821387558
 21
554.2387990427133
 31
0.0
  0
LINE
  5
143
330
3C
100
AcDbEntity
  8
1
  6
Continuous
 62
     7
100
AcDbLine
 10
414.8760371040505
 20
265.772062606733
 30
0.0
 11
396.8760371040505
 21
265.772062606733
 31
0.0
  0
LINE
  5
144
330
3C
100
AcDbEntity
  8
1
  6
Continuous
 62
     7
100
AcDbLine
 10
406.8760371040505
 20
308.272062606733
 30
0.0
 11
408.3694047567448
 21
308.272062606733
 31
0.0
  0
LINE
  5
145
330
3C
100
AcDbEntity
  8
1
  6
Continuous
 62
     7
100
AcDbLine
 10
406.8760371040505
 20
308.272062606733
 30
0.0
 11
408.3760371040505
 21
308.272062606733
 31
0.0
  0
LINE
  5
146
330
3C
100
AcDbEntity
  8
1
  6
Continuous
 62
     7
100
AcDbLine
 10
406.8760371040505
 20
308.272062606733
 30
0.0
 11
408.3694047567448
 21
308.272062606733
 31
0.0
  0
LINE
  5
147
330
3C
100
AcDbEntity
  8
1
  6
Continuous
 62
     7
100
AcDbLine
 10
415.8760371040505
 20
266.772062606733
 30
0.0
 11
415.8760371040505
 21
305.6273052401031
 31
0.0
  0
LINE
  5
148
330
3C
100
AcDbEntity
  8
1
  6
Continuous
 62
     7
100
AcDbLine
 10
406.8760371040505
 20
308.272062606733
 30
0.0
 11
386.8760371040505
 21
308.272062606733
 31
0.0
  0
LINE
  5
149
330
3C
100
AcDbEntity
  8
1
  6
Continuous
 62
     7
100
AcDbLine
 10
122.8596821387558
 20
265.772062606733
 30
0.0
 11
104.8596821387558
 21
265.772062606733
 31
0.0
  0
LINE
  5
14A
330
3C
100
AcDbEntity
  8
1
  6
Continuous
 62
     7
100
AcDbLine
 10
111.3663144860615
 20
308.272062606733
 30
0.0
 11
112.8596821387558
 21
308.272062606733
 31
0.0
  0
LINE
  5
14B
330
3C
100
AcDbEntity
  8
1
  6
Continuous
 62
     7
100
AcDbLine
 10
111.3596821387558
 20
308.272062606733
 30
0.0
 11
112.8596821387558
 21
308.272062606733
 31
0.0
  0
LINE
  5
14C
330
3C
100
AcDbEntity
  8
1
  6
Continuous
 62
     7
100
AcDbLine
 10
111.3663144860615
 20
308.272062606733
 30
0.0
 11
112.8596821387558
 21
308.272062606733
 31
0.0
  0
LINE
  5
14D
330
3C
100
AcDbEntity
  8
1
  6
Continuous
 62
     7
100
AcDbLine
 10
103.8596821387558
 20
305.6273052401031
 30
0.0
 11
103.8596821387558
 21
266.772062606733
 31
0.0
  0
LINE
  5
14E
330
3C
100
AcDbEntity
  8
1
  6
Continuous
 62
     7
100
AcDbLine
 10
140.8596821387558
 20
265.772062606733
 30
0.0
 11
122.8596821387558
 21
265.772062606733
 31
0.0
  0
LINE
  5
14F
330
3C
100
AcDbEntity
  8
1
  6
Continuous
 62
     7
100
AcDbLine
 10
132.8596821387558
 20
308.272062606733
 30
0.0
 11
134.3530497914501
 21
308.272062606733
 31
0.0
  0
LINE
  5
150
330
3C
100
AcDbEntity
  8
1
  6
Continuous
 62
     7
100
AcDbLine
 10
132.8596821387558
 20
308.272062606733
 30
0.0
 11
134.3596821387558
 21
308.272062606733
 31
0.0
  0
LINE
  5
151
330
3C
100
AcDbEntity
  8
1
  6
Continuous
 62
     7
100
AcDbLine
 10
132.8596821387558
 20
308.272062606733
 30
0.0
 11
134.3530497914501
 21
308.272062606733
 31
0.0
  0
LINE
  5
152
330
3C
100
AcDbEntity
  8
1
  6
Continuous
 62
     7
100
AcDbLine
 10
141.8596821387558
 20
266.772062606733
 30
0.0
 11
141.8596821387558
 21
305.6273052401031
 31
0.0
  0
LINE
  5
153
330
3C
100
AcDbEntity
  8
1
  6
Continuous
 62
     7
100
AcDbLine
 10
132.8596821387558
 20
308.272062606733
 30
0.0
 11
126.1096821387558
 21
308.272062606733
 31
0.0
  0
LINE
  5
154
330
3C
100
AcDbEntity
  8
1
  6
Continuous
 62
     7
100
AcDbLine
 10
119.6096821387559
 20
308.272062606733
 30
0.0
 11
112.8596821387558
 21
308.272062606733
 31
0.0
  0
LINE
  5
155
330
3C
100
AcDbEntity
  8
1
  6
Continuous
 62
     7
100
AcDbLine
 10
119.6096821387558
 20
330.272062606733
 30
0.0
 11
119.6096821387561
 21
296.4576203948114
 31
0.0
  0
LINE
  5
156
330
3C
100
AcDbEntity
  8
1
  6
Continuous
 62
     7
100
AcDbLine
 10
119.6096821387558
 20
330.272062606733
 30
0.0
 11
120.0641472423021
 21
342.6227646997392
 31
0.0
  0
LINE
  5
157
330
3C
100
AcDbEntity
  8
1
  6
Continuous
 62
     7
100
AcDbLine
 10
126.1096821387558
 20
330.272062606733
 30
0.0
 11
125.6552170352095
 21
342.6227646997393
 31
0.0
  0
LINE
  5
158
330
3C
100
AcDbEntity
  8
1
  6
Continuous
 62
     7
100
AcDbLine
 10
126.1096821387558
 20
296.4576203948114
 30
0.0
 11
126.1096821387558
 21
330.272062606733
 31
0.0
  0
LINE
  5
159
330
3C
100
AcDbEntity
  8
1
  6
Continuous
 62
     7
100
AcDbLine
 10
126.1096821387558
 20
296.4576203948114
 30
0.0
 11
125.6800520564796
 21
290.8567563854448
 31
0.0
  0
LINE
  5
15A
330
3C
100
AcDbEntity
  8
1
  6
Continuous
 62
     7
100
AcDbLine
 10
120.0393122210322
 20
290.8567563854448
 30
0.0
 11
119.6096821387561
 21
296.4576203948114
 31
0.0
  0
LINE
  5
15B
330
3C
100
AcDbEntity
  8
1
  6
PHANTOM
 62
     4
100
AcDbLine
 10
115.8543671367102
 20
295.272062606733
 30
0.0
 11
130.5015769484062
 21
295.272062606733
 31
0.0
  0
ARC
  5
15C
330
3C
100
AcDbEntity
  8
1
  6
Continuous
 62
     7
100
AcDbCircle
 10
396.8777209303976
 20
229.1031844464435
 30
0.0
 40
80.00000000000013
100
AcDbArc
 50
98.26611976827353
 51
102.8824414943157
  0
ARC
  5
15D
330
3C
100
AcDbEntity
  8
1
  6
Continuous
 62
     7
100
AcDbCircle
 10
271.6587549145081
 20
328.7186275630575
 30
0.0
 40
25.00000000000011
100
AcDbArc
 50
-144.2008277336729
 51
-103.9166031733218
  0
ARC
  5
15E
330
3C
100
AcDbEntity
  8
1
  6
Continuous
 62
     7
100
AcDbCircle
 10
271.6587549145081
 20
328.7186275630575
 30
0.0
 40
26.0
100
AcDbArc
 50
-144.2008277336731
 51
-103.9166031733215
  0
ARC
  5
15F
330
3C
100
AcDbEntity
  8
1
  6
Continuous
 62
     7
100
AcDbCircle
 10
235.6402572054816
 20
299.2424228468389
 30
0.0
 40
10.00000000000005
100
AcDbArc
 50
-145.9977781491284
 51
-94.41247541904173
  0
ARC
  5
160
330
3C
100
AcDbEntity
  8
1
  6
Continuous
 62
     7
100
AcDbCircle
 10
266.8760371040505
 20
324.272062606733
 30
0.0
 40
50.0
100
AcDbArc
 50
180.0
 51
-142.2340183189925
  0
ARC
  5
161
330
3C
100
AcDbEntity
  8
1
  6
Continuous
 62
     7
100
AcDbCircle
 10
230.8760371040505
 20
330.272062606733
 30
0.0
 40
14.0
100
AcDbArc
 50
90.0
 51
180.0
  0
ARC
  5
162
330
3C
100
AcDbEntity
  8
1
  6
Continuous
 62
     7
100
AcDbCircle
 10
230.8760371040505
 20
330.272062606733
 30
0.0
 40
14.0
100
AcDbArc
 50
0.0
 51
90.0
  0
ARC
  5
163
330
3C
100
AcDbEntity
  8
1
  6
Continuous
 62
     7
100
AcDbCircle
 10
235.6402572054816
 20
299.2424228468389
 30
0.0
 40
8.999999999999972
100
AcDbArc
 50
-90.02548505131315
 51
-87.65135007041842
  0
ARC
  5
164
330
3C
100
AcDbEntity
  8
1
  6
Continuous
 62
     7
100
AcDbCircle
 10
235.6402572054816
 20
299.2424228468389
 30
0.0
 40
9.002396139230932
100
AcDbArc
 50
-146.4155654586465
 51
-88.70350704869271
  0
ARC
  5
165
330
3C
100
AcDbEntity
  8
1
  6
Continuous
 62
     7
100
AcDbCircle
 10
289.0710778513629
 20
327.4230701824582
 30
0.0
 40
71.26473655149324
100
AcDbArc
 50
177.1972694036021
 51
-177.4658109747483
  0
ARC
  5
166
330
3C
100
AcDbEntity
  8
1
  6
Continuous
 62
     7
100
AcDbCircle
 10
230.8760371040505
 20
330.272062606733
 30
0.0
 40
12.99999999999993
100
AcDbArc
 50
177.1972694036026
 51
-178.3422760274179
  0
ARC
  5
167
330
3C
100
AcDbEntity
  8
1
  6
Continuous
 62
     7
100
AcDbCircle
 10
230.8760371040505
 20
330.272062606733
 30
0.0
 40
12.99999999999987
100
AcDbArc
 50
0.13526393627248
 51
177.1972694036026
  0
ARC
  5
168
330
3C
100
AcDbEntity
  8
1
  6
Continuous
 62
     7
100
AcDbCircle
 10
293.8074464257477
 20
340.5539487076644
 30
0.0
 40
49.99999999999999
100
AcDbArc
 50
-168.1331667707036
 51
-148.049972936446
  0
ARC
  5
169
330
3C
100
AcDbEntity
  8
1
  6
Continuous
 62
     7
100
AcDbCircle
 10
293.8074464257477
 20
340.5539487076644
 30
0.0
 40
51.00000000000004
100
AcDbArc
 50
-167.9386628924875
 51
-147.9230530697708
  0
ARC
  5
16A
330
3C
100
AcDbEntity
  8
1
  6
Continuous
 62
     7
100
AcDbCircle
 10
230.8760371040505
 20
330.272062606733
 30
0.0
 40
12.99999999999991
100
AcDbArc
 50
-0.46294717021397
 51
0.13526393627248
  0
ARC
  5
16B
330
3C
100
AcDbEntity
  8
1
  6
Continuous
 62
     7
100
AcDbCircle
 10
266.8760371040505
 20
324.272062606733
 30
0.0
 40
49.0
100
AcDbArc
 50
180.0
 51
-142.2340183189925
  0
ARC
  5
16C
330
3C
100
AcDbEntity
  8
1
  6
Continuous
 62
     7
100
AcDbCircle
 10
293.8760371040504
 20
451.7720626067329
 30
0.0
 40
149.9999999999999
100
AcDbArc
 50
-100.8477628313301
 51
-89.99999999999511
  0
ARC
  5
16D
330
3C
100
AcDbEntity
  8
1
  6
Continuous
 62
     7
100
AcDbCircle
 10
293.8760371040504
 20
451.7720626067329
 30
0.0
 40
151.0
100
AcDbArc
 50
-100.8905601039189
 51
-89.9999999999955
  0
ARC
  5
16E
330
3C
100
AcDbEntity
  8
1
  6
Continuous
 62
     7
100
AcDbCircle
 10
122.8596821387559
 20
410.2387990427136
 30
0.0
 40
6.000000000000022
100
AcDbArc
 50
-109.4712206344916
 51
-70.52877936551053
  0
ARC
  5
16F
330
3C
100
AcDbEntity
  8
1
  6
Continuous
 62
     7
100
AcDbCircle
 10
60.05126992923192
 20
534.9306582147407
 30
0.0
 40
59.99999999999998
100
AcDbArc
 50
4.57995858047846
 51
18.77195827303786
  0
ARC
  5
170
330
3C
100
AcDbEntity
  8
1
  6
Continuous
 62
     7
100
AcDbCircle
 10
185.6680943482796
 20
534.9306582147407
 30
0.0
 40
59.99999999999995
100
AcDbArc
 50
161.2280417269621
 51
175.4200414195215
  0
ARC
  5
171
330
3C
100
AcDbEntity
  8
1
  6
Continuous
 62
     7
100
AcDbCircle
 10
112.8596821387558
 20
584.2387990427129
 30
0.0
 40
1.499999999999901
100
AcDbArc
 50
85.69877769533328
 51
-85.6987776953336
  0
ARC
  5
172
330
3C
100
AcDbEntity
  8
1
  6
Continuous
 62
     7
100
AcDbCircle
 10
396.8743532777033
 20
229.1031844464435
 30
0.0
 40
80.00000000000014
100
AcDbArc
 50
77.11755850568426
 51
81.73388023172636
  0
ARC
  5
173
330
3C
100
AcDbEntity
  8
1
  6
Continuous
 62
     7
100
AcDbCircle
 10
122.8613659651029
 20
229.1031844464435
 30
0.0
 40
80.00000000000014
100
AcDbArc
 50
98.26611976827354
 51
102.8824414943158
  0
ARC
  5
174
330
3C
100
AcDbEntity
  8
1
  6
Continuous
 62
     7
100
AcDbCircle
 10
122.8579983124087
 20
229.1031844464435
 30
0.0
 40
80.00000000000011
100
AcDbArc
 50
77.11755850568432
 51
81.73388023172645
  0
ARC
  5
175
330
3C
100
AcDbEntity
  8
1
  6
Continuous
 62
     7
100
AcDbCircle
 10
122.8596821387558
 20
338.2720626067334
 30
0.0
 40
5.999999999999635
100
AcDbArc
 50
73.26033058590373
 51
106.7396694140954
  0
ARC
  5
176
330
3C
100
AcDbEntity
  8
1
  6
Continuous
 62
     7
100
AcDbCircle
 10
122.8596821387558
 20
295.272062606733
 30
0.0
 40
6.0
100
AcDbArc
 50
0.0
 51
57.2028317041762
  0
ARC
  5
177
330
3C
100
AcDbEntity
  8
1
  6
Continuous
 62
     7
100
AcDbCircle
 10
122.8596821387558
 20
295.272062606733
 30
0.0
 40
6.000000000000015
100
AcDbArc
 50
122.7971682958224
 51
0.0
  0
CIRCLE
  5
178
330
3C
100
AcDbEntity
  8
0
  6
Continuous
 62
     7
100
AcDbCircle
 10
122.8596821387558
 20
584.238799042713
 30
0.0
 40
11.49999999999977
  0
CIRCLE
  5
179
330
3C
100
AcDbEntity
  8
1
  6
Continuous
 62
     7
100
AcDbCircle
 10
122.8596821387558
 20
584.238799042713
 30
0.0
 40
18.99999999999994
  0
SPLINE
  5
17A
330
3C
100
AcDbEntity
  8
1
  6
Continuous
 62
     7
100
AcDbSpline
210
0.0
220
0.0
230
1.0
 70
     8
 71
     3
 72
   323
 73
   319
 74
   317
 42
0.0000000001
 43
0.0000000001
 44
0.00000001
 40
0.0
 40
0.0
 40
0.0
 40
0.0
 40
0.1017559056299709
 40
0.2035118137183604
 40
0.2537271641881793
 40
0.30394287470473
 40
0.3541503621802341
 40
0.4043567540699115
 40
0.4334317381371698
 40
0.4625065016562075
 40
0.4978588912689832
 40
0.5332114681337534
 40
0.5685689403761657
 40
0.603926715783791
 40
0.6538589925605357
 40
0.7037920299284384
 40
0.7537205266639829
 40
0.803648207149264
 40
0.8539649829249474
 40
0.9042824918673351
 40
0.9546066478255693
 40
1.004930810603613
 40
1.055881414788647
 40
1.106831856627521
 40
1.157782864524058
 40
1.208733916095147
 40
1.259687945101958
 40
1.310641965995924
 40
1.350470186266087
 40
1.390298238788634
 40
1.430122077335324
 40
1.469945998132318
 40
1.509766470151244
 40
1.549586780464677
 40
1.581953221947821
 40
1.61431978073735
 40
1.664814775373336
 40
1.71530993492697
 40
1.765808968148624
 40
1.816307986421634
 40
1.866805162842308
 40
1.917302234044668
 40
1.967901162122439
 40
2.018500209652598
 40
2.069100678138602
 40
2.119701115744671
 40
2.170302447921595
 40
2.220903785447776
 40
2.267393406674758
 40
2.313882975350662
 40
2.360371615750995
 40
2.406860272826183
 40
2.453349985308388
 40
2.499839683864763
 40
2.54633011565526
 40
2.592820586567108
 40
2.642788799374957
 40
2.692756984271943
 40
2.742722811804704
 40
2.792688669272733
 40
2.842652590685496
 40
2.892616420155524
 40
2.928193658160471
 40
2.963770910482325
 40
3.010106313107934
 40
3.05644174089031
 40
3.102778913736128
 40
3.149116078755185
 40
3.195453566800385
 40
3.241791061007752
 40
3.288127829686993
 40
3.334464581538795
 40
3.380855513815924
 40
3.427246462932846
 40
3.473637488526271
 40
3.520028510723299
 40
3.566420065725981
 40
3.612811617527788
 40
3.659203063196309
 40
3.705594525096416
 40
3.760715924102963
 40
3.815837346392216
 40
3.870958424072554
 40
3.926079495470924
 40
3.981201152410006
 40
4.036322811243356
 40
4.091444897927932
 40
4.146566983338482
 40
4.193106561391672
 40
4.239646123093696
 40
4.28618498407992
 40
4.332723847734903
 40
4.379261921742709
 40
4.425800001417084
 40
4.472337423678968
 40
4.518874820596483
 40
4.55292789254157
 40
4.586980974494646
 40
4.642015034301626
 40
4.6970491236868
 40
4.752084325985358
 40
4.807119519834104
 40
4.862155022074255
 40
4.917190528541995
 40
4.97222571019205
 40
5.027260883381354
 40
5.082331070886085
 40
5.137401266688698
 40
5.192471424562934
 40
5.247541579995554
 40
5.302611939012603
 40
5.357682299511502
 40
5.412752575107612
 40
5.467822847224452
 40
5.518268501640464
 40
5.568714150480637
 40
5.619159636851465
 40
5.669605124620047
 40
5.720050766492957
 40
5.770496408354171
 40
5.820942302222219
 40
5.871388194741955
 40
5.921834222259507
 40
5.972280255184969
 40
6.027859287611848
 40
6.083438320466168
 40
6.139016945238933
 40
6.194595568272669
 40
6.250173669154528
 40
6.305751776561194
 40
6.361329374528634
 40
6.416906948131011
 40
6.446647137489702
 40
6.476387326868538
 40
6.526790831969836
 40
6.577194350310073
 40
6.627598445810529
 40
6.678002537793558
 40
6.728406932497226
 40
6.77881132803378
 40
6.829215782371142
 40
6.879620236895644
 40
6.930024548484669
 40
6.98042885849295
 40
7.030854532329564
 40
7.081280207843975
 40
7.131705798326561
 40
7.1821313883176
 40
7.232557009891477
 40
7.28298263175459
 40
7.333408286117877
 40
7.383833939816115
 40
7.434259514942645
 40
7.484685092441288
 40
7.540455097759055
 40
7.596225105945032
 40
7.651995045107765
 40
7.707764983509663
 40
7.763535026431932
 40
7.81930506953115
 40
7.875075273646571
 40
7.930845477816694
 40
7.986615789466005
 40
8.042386100720414
 40
8.093402391446087
 40
8.144418679483522
 40
8.195434829127924
 40
8.246450979701455
 40
8.297466914174773
 40
8.348482847619003
 40
8.39949851421558
 40
8.450514183998603
 40
8.501529570345712
 40
8.552544944975054
 40
8.576192403482679
 40
8.5998398625511
 40
8.65558115351498
 40
8.711322458041661
 40
8.767064201310292
 40
8.822805940960384
 40
8.87854793196739
 40
8.934289923886828
 40
8.990031992094623
 40
9.045774060272057
 40
9.101516052970901
 40
9.157258044879031
 40
9.213017313762244
 40
9.268776583499099
 40
9.324535772068064
 40
9.380294960440009
 40
9.436054138472038
 40
9.491813316439211
 40
9.547572492598846
 40
9.603331669215113
 40
9.659090793821697
 40
9.714849916667188
 40
9.764653697902336
 40
9.814457477439392
 40
9.864261226195263
 40
9.914064975405294
 40
9.963868759444376
 40
10.01367254336523
 40
10.06347639902571
 40
10.11328025470506
 40
10.16308418969407
 40
10.21288812472617
 40
10.26269211844823
 40
10.31249611197929
 40
10.35955500980908
 40
10.40661390682925
 40
10.45367275856284
 40
10.50073161048072
 40
10.54779036735996
 40
10.594849124312
 40
10.64190774513146
 40
10.68896636547566
 40
10.73602481534538
 40
10.78308326704302
 40
10.83014152601473
 40
10.87719977814971
 40
10.89357548811874
 40
10.90995119817678
 40
10.95973715662748
 40
11.00952312268792
 40
11.05930935587047
 40
11.10909558701333
 40
11.15888200559969
 40
11.20866842473603
 40
11.25845495174331
 40
11.30824147859046
 40
11.35802803951264
 40
11.40781460052542
 40
11.45760112624656
 40
11.50738765176555
 40
11.55718683760579
 40
11.60698602364614
 40
11.65678514857983
 40
11.70658427346176
 40
11.75638336360114
 40
11.80618245374811
 40
11.85598152128036
 40
11.90578058883419
 40
11.95557963206372
 40
12.00537867519913
 40
12.05517767833542
 40
12.10497668182691
 40
12.15683885724281
 40
12.20870103311321
 40
12.26056319937873
 40
12.31242536552379
 40
12.36428757021536
 40
12.41614977493429
 40
12.46801204868357
 40
12.5198743224426
 40
12.57173667871154
 40
12.62359903491948
 40
12.67546147012398
 40
12.72732390554541
 40
12.77777856077297
 40
12.82823321501465
 40
12.87868784654216
 40
12.92914247967147
 40
12.97959702538577
 40
13.03005156657362
 40
13.08050596126819
 40
13.13096036907752
 40
13.18141461021238
 40
13.23186881624332
 40
13.28232278929534
 40
13.33277684109604
 40
13.34114362511772
 40
13.34951038288064
 40
13.40135767408773
 40
13.45320577106452
 40
13.50505356325767
 40
13.55690111624518
 40
13.6087487532182
 40
13.66059645411127
 40
13.71244413109713
 40
13.76429179201537
 40
13.81613946107117
 40
13.86798713044448
 40
13.91983479239668
 40
13.9716824695683
 40
14.02354165638941
 40
14.07540078800465
 40
14.12726012641141
 40
14.17911952815059
 40
14.23098003554452
 40
14.28284051493
 40
14.33470233818535
 40
14.38656417151945
 40
14.43842692930979
 40
14.49028968328766
 40
14.54215248712696
 40
14.5940152943597
 40
14.646574844036
 40
14.69913439065124
 40
14.75169287567153
 40
14.80425136150968
 40
14.85680896238994
 40
14.90936656307614
 40
14.96192352989488
 40
15.01448049666566
 40
15.06703716184137
 40
15.11959382740372
 40
15.17215061588675
 40
15.2247074028704
 40
15.27725249364919
 40
15.32979758590499
 40
15.38234316851888
 40
15.4348887507201
 40
15.48743464414363
 40
15.53998053774151
 40
15.59252652829824
 40
15.64507251857066
 40
15.75016374762336
 40
15.85525497667573
 40
15.85525497667573
 40
15.85525497667573
 40
15.85525497667573
 10
366.8154930287424
 20
295.7574932365664
 30
0.0
 10
366.8063867934189
 20
295.7901711692858
 30
0.0
 10
366.7881743225518
 20
295.8555270355142
 30
0.0
 10
366.761290861228
 20
295.9357576103953
 30
0.0
 10
366.738075369293
 20
295.9990301880794
 30
0.0
 10
366.7197805087661
 20
296.045796319553
 30
0.0
 10
366.7005215051711
 20
296.0921693529482
 30
0.0
 10
366.6831296258863
 20
296.1316771570852
 30
0.0
 10
366.6680264868688
 20
296.1644874260124
 30
0.0
 10
366.6546451567886
 20
296.192636940908
 30
0.0
 10
366.6399531441227
 20
296.2224773891765
 30
0.0
 10
366.6238620296594
 20
296.2539588690761
 30
0.0
 10
366.6073027252376
 20
296.285198686533
 30
0.0
 10
366.5879433214334
 20
296.3204497136935
 30
0.0
 10
366.5655466455523
 20
296.3595700363804
 30
0.0
 10
366.5398232599257
 20
296.4023697650491
 30
0.0
 10
366.5131799002351
 20
296.4446013508889
 30
0.0
 10
366.4855380988612
 20
296.4863401349361
 30
0.0
 10
366.4568824458197
 20
296.527547274243
 30
0.0
 10
366.4273025107324
 20
296.5682584574672
 30
0.0
 10
366.3969674458225
 20
296.6084124739872
 30
0.0
 10
366.3658405395802
 20
296.6482232674796
 30
0.0
 10
366.3340034456196
 20
296.6877365072333
 30
0.0
 10
366.3014870637061
 20
296.7269642419182
 30
0.0
 10
366.2684608577087
 20
296.7657636666669
 30
0.0
 10
366.2349617756512
 20
296.8041569178018
 30
0.0
 10
366.2010265511269
 20
296.8421663394792
 30
0.0
 10
366.1691897807864
 20
296.8770751955496
 30
0.0
 10
366.1395741339577
 20
296.9089875456037
 30
0.0
 10
366.1122534194317
 20
296.9379664919622
 30
0.0
 10
366.0846995464652
 20
296.9667218719494
 30
0.0
 10
366.0569080717188
 20
296.9952441972976
 30
0.0
 10
366.0288730420776
 20
297.0235255363594
 30
0.0
 10
366.0023543880792
 20
297.049807802625
 30
0.0
 10
365.9773991560662
 20
297.0741359171797
 30
0.0
 10
365.949705914307
 20
297.1007513730774
 30
0.0
 10
365.9173867366739
 20
297.1312727241782
 30
0.0
 10
365.8802987245101
 20
297.165543205356
 30
0.0
 10
365.8428332129215
 20
297.1994026632534
 30
0.0
 10
365.8049887868818
 20
297.2328391422702
 30
0.0
 10
365.7667648031318
 20
297.2658400982131
 30
0.0
 10
365.7281338333412
 20
297.2984154726979
 30
0.0
 10
365.6890933518235
 20
297.3305523221014
 30
0.0
 10
365.6496673573825
 20
297.3622698236418
 30
0.0
 10
365.6099064233569
 20
297.3935670655811
 30
0.0
 10
365.5698340027413
 20
297.4244655554865
 30
0.0
 10
365.5294733835305
 20
297.4549869462607
 30
0.0
 10
365.4899471015553
 20
297.4843365501326
 30
0.0
 10
365.4512995514047
 20
297.512567793301
 30
0.0
 10
365.413564030586
 20
297.5397214053209
 30
0.0
 10
365.3756448126353
 20
297.5666172702502
 30
0.0
 10
365.3375523777835
 20
297.5932672689841
 30
0.0
 10
365.29929700603
 20
297.6196834071624
 30
0.0
 10
365.2608887936787
 20
297.6458778183995
 30
0.0
 10
365.2223380867947
 20
297.6718624679156
 30
0.0
 10
365.1826901611478
 20
297.6982926452916
 30
0.0
 10
365.1419438977717
 20
297.7251641490713
 30
0.0
 10
365.1000851500413
 20
297.7524517172569
 30
0.0
 10
365.0580782696955
 20
297.7795092692862
 30
0.0
 10
365.0159205101514
 20
297.8063285196239
 30
0.0
 10
364.9736080833366
 20
297.8329018493839
 30
0.0
 10
364.9352142258221
 20
297.8566950478018
 30
0.0
 10
364.9007852399179
 20
297.8777809523845
 30
0.0
 10
364.8673017468491
 20
297.8980941960592
 30
0.0
 10
364.8306492334359
 20
297.9200968956129
 30
0.0
 10
364.7907949575037
 20
297.9437333529021
 30
0.0
 10
364.7508132322267
 20
297.9671547575248
 30
0.0
 10
364.7107037107371
 20
297.9903580095534
 30
0.0
 10
364.6704666741082
 20
298.0133396528083
 30
0.0
 10
364.6301021467744
 20
298.0360963714511
 30
0.0
 10
364.5896100892946
 20
298.0586248928806
 30
0.0
 10
364.5489745665645
 20
298.0809306586224
 30
0.0
 10
364.5081951390962
 20
298.1030101833005
 30
0.0
 10
364.4672772070476
 20
298.1248703375354
 30
0.0
 10
364.4262421058279
 20
298.146509776984
 30
0.0
 10
364.3850950182076
 20
298.1679359134897
 30
0.0
 10
364.3438411768134
 20
298.1891561307515
 30
0.0
 10
364.302485702119
 20
298.2101778691767
 30
0.0
 10
364.261033721317
 20
298.2310085690187
 30
0.0
 10
364.2168842089761
 20
298.2529509196736
 30
0.0
 10
364.1700217409612
 20
298.2759718885448
 30
0.0
 10
364.1204306451805
 20
298.3000364564203
 30
0.0
 10
364.0707284710304
 20
298.3238704764544
 30
0.0
 10
364.0209206274171
 20
298.347483019247
 30
0.0
 10
363.9710124565953
 20
298.3708831831796
 30
0.0
 10
363.9210091534542
 20
298.394080135817
 30
0.0
 10
363.8709161060111
 20
298.4170829556699
 30
0.0
 10
363.8233426313445
 20
298.4387166028149
 30
0.0
 10
363.7783076674074
 20
298.4590207706049
 30
0.0
 10
363.7358235662243
 20
298.4780212302304
 30
0.0
 10
363.6932816475247
 20
298.4968912974781
 30
0.0
 10
363.6506815100315
 20
298.5156283382101
 30
0.0
 10
363.6080223253417
 20
298.5342299071128
 30
0.0
 10
363.5653037035937
 20
298.5526933666874
 30
0.0
 10
363.5225248447259
 20
298.571016257503
 30
0.0
 10
363.4835159817699
 20
298.5875703524417
 30
0.0
 10
363.4482941840185
 20
298.6023952337388
 30
0.0
 10
363.4104237362788
 20
298.618227690847
 30
0.0
 10
363.3660444464792
 20
298.6366225642153
 30
0.0
 10
363.3151243922974
 20
298.6575020591412
 30
0.0
 10
363.2641242463226
 20
298.6781861720038
 30
0.0
 10
363.2130439473992
 20
298.6986728142568
 30
0.0
 10
363.1618838815654
 20
298.7189597207002
 30
0.0
 10
363.1106442108463
 20
298.7390447125145
 30
0.0
 10
363.0593251202587
 20
298.7589256045175
 30
0.0
 10
363.0079158158434
 20
298.7786044100847
 30
0.0
 10
362.9564162697089
 20
298.7980788427369
 30
0.0
 10
362.9048294155372
 20
298.8173541245925
 30
0.0
 10
362.8531690786624
 20
298.8364315357865
 30
0.0
 10
362.8014380438505
 20
298.8553165354118
 30
0.0
 10
362.7496390800374
 20
298.8740145875628
 30
0.0
 10
362.697774932253
 20
298.8925311645175
 30
0.0
 10
362.6458483254467
 20
298.910871746904
 30
0.0
 10
362.5953170748329
 20
298.9285332343644
 30
0.0
 10
362.5461891883924
 20
298.9455369442417
 30
0.0
 10
362.4984715389168
 20
298.9619012597692
 30
0.0
 10
362.4507088956069
 20
298.9781335983731
 30
0.0
 10
362.4029027024297
 20
298.9942372086591
 30
0.0
 10
362.3550543758122
 20
299.010215347599
 30
0.0
 10
362.3071652778411
 20
299.0260712907484
 30
0.0
 10
362.2592368732695
 20
299.0418082793269
 30
0.0
 10
362.2112705100175
 20
299.0574295930574
 30
0.0
 10
362.1632676320455
 20
299.0729384805471
 30
0.0
 10
362.1136002558173
 20
299.0888605416897
 30
0.0
 10
362.0622656060633
 20
299.1051861200583
 30
0.0
 10
362.0092592733769
 20
299.1218998495632
 30
0.0
 10
361.9562115656797
 20
299.1384813387235
 30
0.0
 10
361.9031224378842
 20
299.1549286857328
 30
0.0
 10
361.8499915599195
 20
299.1712400777663
 30
0.0
 10
361.7968189080887
 20
299.1874136071713
 30
0.0
 10
361.74360415483
 20
299.2034474593888
 30
0.0
 10
361.6985999963283
 20
299.2168770519529
 30
0.0
 10
361.6618261700584
 20
299.2277679838922
 30
0.0
 10
361.6266914560144
 20
299.2381198048555
 30
0.0
 10
361.5849271058741
 20
299.2503411847393
 30
0.0
 10
361.5365190853099
 20
299.2643840376744
 30
0.0
 10
361.4880780268248
 20
299.2783132122256
 30
0.0
 10
361.439603920805
 20
299.2921280075735
 30
0.0
 10
361.3910970383161
 20
299.3058276433208
 30
0.0
 10
361.3425574505137
 20
299.3194113951247
 30
0.0
 10
361.2939853503504
 20
299.332878504975
 30
0.0
 10
361.2453808843734
 20
299.3462282272715
 30
0.0
 10
361.1967441773355
 20
299.3594598229585
 30
0.0
 10
361.1480684626215
 20
299.3725744087761
 30
0.0
 10
361.0993537937104
 20
299.3855712001816
 30
0.0
 10
361.0506010121475
 20
299.3984520767589
 30
0.0
 10
361.0018178128007
 20
299.4112171531647
 30
0.0
 10
360.9530049864342
 20
299.4238683869572
 30
0.0
 10
360.9041632915601
 20
299.4364077438239
 30
0.0
 10
360.8552934897044
 20
299.4488371887236
 30
0.0
 10
360.8063963497451
 20
299.4611586847415
 30
0.0
 10
360.7574726422744
 20
299.4733741944677
 30
0.0
 10
360.7085231086345
 20
299.4854856880597
 30
0.0
 10
360.6578182523444
 20
299.4979194199369
 30
0.0
 10
360.6053556369381
 20
299.5106646287288
 30
0.0
 10
360.5511328542162
 20
299.5237101626218
 30
0.0
 10
360.4968818263749
 20
299.536637631696
 30
0.0
 10
360.4426033048858
 20
299.5494492156877
 30
0.0
 10
360.3882980369242
 20
299.5621470949993
 30
0.0
 10
360.3339667257437
 20
299.5747334605012
 30
0.0
 10
360.2796101472311
 20
299.5872104860509
 30
0.0
 10
360.2252289949683
 20
299.5995803644867
 30
0.0
 10
360.1708240368313
 20
299.6118452717985
 30
0.0
 10
360.1179425090759
 20
299.6236618204921
 30
0.0
 10
360.0665873102547
 20
299.635041956245
 30
0.0
 10
360.0167605743176
 20
299.6459943973781
 30
0.0
 10
359.9669151644765
 20
299.656861317349
 30
0.0
 10
359.9170511590215
 20
299.6676420321128
 30
0.0
 10
359.8671685256323
 20
299.6783358817713
 30
0.0
 10
359.8172673672086
 20
299.6889421772191
 30
0.0
 10
359.767347631376
 20
299.6994602625839
 30
0.0
 10
359.7174094323397
 20
299.7098894466245
 30
0.0
 10
359.66745271381
 20
299.7202290739754
 30
0.0
 10
359.6264141365681
 20
299.7286456607266
 30
0.0
 10
359.5943034821285
 20
299.7351867132852
 30
0.0
 10
359.560643558611
 20
299.7420143378657
 30
0.0
 10
359.5164869953801
 20
299.7509083910271
 30
0.0
 10
359.4618218817333
 20
299.7618096721
 30
0.0
 10
359.4071356603654
 20
299.7726053474141
 30
0.0
 10
359.3524283752893
 20
299.7832949629294
 30
0.0
 10
359.2977002922573
 20
299.7938780215136
 30
0.0
 10
359.2429515105346
 20
299.8043540579899
 30
0.0
 10
359.1881822402843
 20
299.8147225861746
 30
0.0
 10
359.1333926368673
 20
299.8249831300226
 30
0.0
 10
359.0785828585348
 20
299.8351352132617
 30
0.0
 10
359.0237473757366
 20
299.8451794009484
 30
0.0
 10
358.9688862949288
 20
299.8551151847638
 30
0.0
 10
358.9140000925858
 20
299.8649438102618
 30
0.0
 10
358.859094884099
 20
299.8746655427261
 30
0.0
 10
358.8041711142374
 20
299.8842816749314
 30
0.0
 10
358.7492291897103
 20
299.8937935062218
 30
0.0
 10
358.6942695368339
 20
299.9032023325708
 30
0.0
 10
358.6392925703835
 20
299.9125094519217
 30
0.0
 10
358.5842987182874
 20
299.9217161599465
 30
0.0
 10
358.5292883844031
 20
299.9308237564763
 30
0.0
 10
358.4762209928896
 20
299.9395127795843
 30
0.0
 10
358.4250988176293
 20
299.9477961915568
 30
0.0
 10
358.3759239251391
 20
299.9556858947218
 30
0.0
 10
358.3267370056726
 20
299.9635001956917
 30
0.0
 10
358.2775382908926
 20
299.9712398935172
 30
0.0
 10
358.2283280109198
 20
299.9789057873836
 30
0.0
 10
358.1791063787715
 20
299.986498679224
 30
0.0
 10
358.1298736387939
 20
299.9940193660628
 30
0.0
 10
358.0806299941064
 20
300.001468651285
 30
0.0
 10
358.0313756940862
 20
300.0088473312335
 30
0.0
 10
357.9821109416138
 20
300.0161562092364
 30
0.0
 10
357.9328359817193
 20
300.0233960823728
 30
0.0
 10
357.8844565253111
 20
300.030435989425
 30
0.0
 10
357.8369734223521
 20
300.0372809955601
 30
0.0
 10
357.7903873319779
 20
300.0439350040886
 30
0.0
 10
357.7437926277393
 20
300.0505283148332
 30
0.0
 10
357.6971893850295
 20
300.057060664632
 30
0.0
 10
357.6505776342498
 20
300.0635317967229
 30
0.0
 10
357.6039574667188
 20
300.0699414457843
 30
0.0
 10
357.5573288985207
 20
300.0762893569482
 30
0.0
 10
357.510692034254
 20
300.0825752631914
 30
0.0
 10
357.4640468776734
 20
300.0887989111911
 30
0.0
 10
357.4173935423729
 20
300.0949600328353
 30
0.0
 10
357.3707320262581
 20
300.1010583754337
 30
0.0
 10
357.334205434646
 20
300.1057819826005
 30
0.0
 10
357.3078188013194
 20
300.1091697769617
 30
0.0
 10
357.280528703673
 20
300.1126606273265
 30
0.0
 10
357.2421872989528
 20
300.1175288232398
 30
0.0
 10
357.1927889907099
 20
300.1237304161558
 30
0.0
 10
357.1433819125568
 20
300.1298624926859
 30
0.0
 10
357.0939660872586
 20
300.1359249140547
 30
0.0
 10
357.0445416848025
 20
300.1419175234691
 30
0.0
 10
356.9951087514362
 20
300.1478401790932
 30
0.0
 10
356.9456674323729
 20
300.1536927272678
 30
0.0
 10
356.8962178002146
 20
300.1594750228806
 30
0.0
 10
356.8467599749225
 20
300.1651869153525
 30
0.0
 10
356.7972940529669
 20
300.1708282567357
 30
0.0
 10
356.7478201311379
 20
300.1763988991442
 30
0.0
 10
356.6983341011262
 20
300.1818991619161
 30
0.0
 10
356.6488360355728
 20
300.1873288783189
 30
0.0
 10
356.5993260995991
 20
300.1926884311296
 30
0.0
 10
356.5498086334383
 20
300.1979777665219
 30
0.0
 10
356.5002837922411
 20
300.203197289921
 30
0.0
 10
356.4507516975342
 20
300.208347410283
 30
0.0
 10
356.4012124968385
 20
300.2134285338628
 30
0.0
 10
356.351666316921
 20
300.2184410690418
 30
0.0
 10
356.3021133024164
 20
300.2233854223886
 30
0.0
 10
356.2525535806956
 20
300.2282620022085
 30
0.0
 10
356.2029872981797
 20
300.2330712149129
 30
0.0
 10
356.1534145780691
 20
300.2378134692001
 30
0.0
 10
356.1031508641293
 20
300.2425537444796
 30
0.0
 10
356.052195967447
 20
300.2472892154024
 30
0.0
 10
356.0005497325548
 20
300.2520171164102
 30
0.0
 10
355.9488970791833
 20
300.2566743349648
 30
0.0
 10
355.8972381390412
 20
300.2612613992124
 30
0.0
 10
355.845573051029
 20
300.2657788365917
 30
0.0
 10
355.7939019321129
 20
300.2702271761957
 30
0.0
 10
355.7422249328658
 20
300.2746069441612
 30
0.0
 10
355.6905421616402
 20
300.2789186714668
 30
0.0
 10
355.6388537750145
 20
300.283162885021
 30
0.0
 10
355.5871598779099
 20
300.2873401115104
 30
0.0
 10
355.535460626781
 20
300.2914508734299
 30
0.0
 10
355.4842239807599
 20
300.2954591139595
 30
0.0
 10
355.4334502522301
 20
300.2993674273621
 30
0.0
 10
355.3831396433436
 20
300.3031773298496
 30
0.0
 10
355.3328243172426
 20
300.3069243224381
 30
0.0
 10
355.2825043604801
 20
300.3106081116866
 30
0.0
 10
355.232179825682
 20
300.3142284067571
 30
0.0
 10
355.1818507627637
 20
300.3177840801161
 30
0.0
 10
355.1315171444655
 20
300.321274009758
 30
0.0
 10
355.0811792472886
 20
300.3247001751257
 30
0.0
 10
355.0308372456058
 20
300.3280645628371
 30
0.0
 10
354.9804906600357
 20
300.3313575509972
 30
0.0
 10
354.9301389108732
 20
300.3345695240994
 30
0.0
 10
354.893785694559
 20
300.3368542151768
 30
0.0
 10
354.8714337079805
 20
300.3382554278076
 30
0.0
 10
354.8486169115881
 20
300.3396649248467
 30
0.0
 10
354.8113195145838
 20
300.3417297734032
 30
0.0
 10
354.7595395462251
 20
300.3443782710379
 30
0.0
 10
354.7077664275584
 20
300.3471616059362
 30
0.0
 10
354.6559961960303
 20
300.3499938786001
 30
0.0
 10
354.6042239693907
 20
300.3527892370386
 30
0.0
 10
354.5524510267055
 20
300.3555719179278
 30
0.0
 10
354.5006786964333
 20
300.3583661549867
 30
0.0
 10
354.4489064294562
 20
300.3611613582864
 30
0.0
 10
354.3971336467849
 20
300.3639469394826
 30
0.0
 10
354.3453613242045
 20
300.3667411084595
 30
0.0
 10
354.2935904550124
 20
300.3695620741984
 30
0.0
 10
354.2418137718858
 20
300.3723469525509
 30
0.0
 10
354.190027989745
 20
300.3750326199588
 30
0.0
 10
354.1382312565195
 20
300.3775794123988
 30
0.0
 10
354.0864259640017
 20
300.3799474703793
 30
0.0
 10
354.0346134919271
 20
300.3821627453843
 30
0.0
 10
353.9827953832679
 20
300.3842511788818
 30
0.0
 10
353.9309718331109
 20
300.3862211591005
 30
0.0
 10
353.8791437806614
 20
300.3880810457157
 30
0.0
 10
353.8273115870358
 20
300.3898439359489
 30
0.0
 10
353.7754763033553
 20
300.391522904239
 30
0.0
 10
353.7236384164751
 20
300.3931297781579
 30
0.0
 10
353.6717986843519
 20
300.3946763782442
 30
0.0
 10
353.6197253753019
 20
300.3961815822385
 30
0.0
 10
353.5674188741545
 20
300.3976569926398
 30
0.0
 10
353.5148794547816
 20
300.3990988154861
 30
0.0
 10
353.4623392176338
 20
300.4004972876021
 30
0.0
 10
353.4097984099504
 20
300.4018492113138
 30
0.0
 10
353.3572566401032
 20
300.4031514056441
 30
0.0
 10
353.304714090488
 20
300.404400668531
 30
0.0
 10
353.2521704467896
 20
300.4055938098324
 30
0.0
 10
353.1996258003002
 20
300.4067276319836
 30
0.0
 10
353.1470799413231
 20
300.4077989437781
 30
0.0
 10
353.0945328419182
 20
300.4088045500571
 30
0.0
 10
353.0419844272075
 20
300.4097412560994
 30
0.0
 10
352.9894386328149
 20
300.4106058022674
 30
0.0
 10
352.9368955516029
 20
300.4113950120614
 30
0.0
 10
352.8843551434672
 20
300.4121099673832
 30
0.0
 10
352.8318136276333
 20
300.4127517897384
 30
0.0
 10
352.7792710142645
 20
300.4133215293735
 30
0.0
 10
352.726727575573
 20
300.4138202833171
 30
0.0
 10
352.6741833840123
 20
300.4142489655046
 30
0.0
 10
352.6216386427603
 20
300.4146091789183
 30
0.0
 10
352.5515786389045
 20
300.4149968752058
 30
0.0
 10
352.4640029728483
 20
300.4153294904919
 30
0.0
 10
352.3939421370438
 20
300.4153774721745
 30
0.0
 10
352.3589117191415
 20
300.4154014630157
 30
0.0
 11
366.8154930287424
 21
295.7574932365664
 31
0.0
 11
366.7873367071293
 21
295.8552760872295
 31
0.0
 11
366.755225739436
 21
295.9518325504243
 31
0.0
 11
366.7379090269128
 21
295.9989675999119
 31
0.0
 11
366.7196186063334
 21
296.0457338067038
 31
0.0
 11
366.7003593169572
 21
296.0921005142786
 31
0.0
 11
366.680130154181
 21
296.1380511699862
 31
0.0
 11
366.6679722556381
 21
296.1644621563656
 31
0.0
 11
366.6554893496502
 21
296.1907208488651
 31
0.0
 11
366.6398741745405
 21
296.2224376859966
 31
0.0
 11
366.6237848896833
 21
296.2539168791845
 31
0.0
 11
366.6072260022007
 21
296.2851571430873
 31
0.0
 11
366.5902062729775
 21
296.3161490952514
 31
0.0
 11
366.5653945369294
 21
296.3594804928563
 31
0.0
 11
366.5396690025054
 21
296.402276580287
 31
0.0
 11
366.5130251229077
 21
296.4445016731378
 31
0.0
 11
366.4854540958257
 21
296.4861263262209
 31
0.0
 11
366.4567411234949
 21
296.5274463352285
 31
0.0
 11
366.4271782188353
 21
296.5681634860897
 31
0.0
 11
366.3968571337406
 21
296.6083275554999
 31
0.0
 11
366.3658736227255
 21
296.6479828628936
 31
0.0
 11
366.3339120472269
 21
296.6876618467322
 31
0.0
 11
366.3014022304311
 21
296.7268926934664
 31
0.0
 11
366.2683821852573
 21
296.7656958096093
 31
0.0
 11
366.2348898527543
 21
296.8040920766115
 31
0.0
 11
366.2009598890558
 21
296.8421061613097
 31
0.0
 11
366.1666298350273
 21
296.87975931039
 31
0.0
 11
366.1395359583345
 21
296.908951928903
 31
0.0
 11
366.1122134274642
 21
296.9379304222141
 31
0.0
 11
366.0846596727088
 21
296.9666833127727
 31
0.0
 11
366.0568665359954
 21
296.9952049925842
 31
0.0
 11
366.028831464285
 21
297.0234840439475
 31
0.0
 11
366.0005473183643
 21
297.0515137461042
 31
0.0
 11
365.977372481213
 21
297.0741082909611
 31
0.0
 11
365.9540372990531
 21
297.0965373658738
 31
0.0
 11
365.9173243776226
 21
297.1312058801674
 31
0.0
 11
365.8802369260911
 21
297.1654736795898
 31
0.0
 11
365.8427701391588
 21
297.1993320941021
 31
0.0
 11
365.8049249827308
 21
297.2327670306428
 31
0.0
 11
365.7667011896284
 21
297.2657656134505
 31
0.0
 11
365.7280960148034
 21
297.2983170293453
 31
0.0
 11
365.6890335662187
 21
297.3304787555611
 31
0.0
 11
365.6496119703369
 21
297.3621994331878
 31
0.0
 11
365.6098546008416
 21
297.3935005351143
 31
0.0
 11
365.5697862450151
 21
297.4244024953642
 31
0.0
 11
365.5294290807474
 21
297.4549277981531
 31
0.0
 11
365.4888059822785
 21
297.4850983008042
 31
0.0
 11
365.451267039539
 21
297.5125229732695
 31
0.0
 11
365.4135331190471
 21
297.5396786584935
 31
0.0
 11
365.3756159544324
 21
297.5665762850404
 31
0.0
 11
365.3375255587791
 21
297.5932280578825
 31
0.0
 11
365.2992716100344
 21
297.6196463994677
 31
0.0
 11
365.2608652817665
 21
297.6458426973138
 31
0.0
 11
365.2223160260438
 21
297.6718295234243
 31
0.0
 11
365.1836342683013
 21
297.6976187751302
 31
0.0
 11
365.1419196570288
 21
297.7251272010685
 31
0.0
 11
365.1000596920233
 21
297.7524138797163
 31
0.0
 11
365.0580529321135
 21
297.7794696747133
 31
0.0
 11
365.0158940929185
 21
297.8062879369658
 31
0.0
 11
364.9735816762238
 21
297.8328595917203
 31
0.0
 11
364.9311110923966
 21
297.8591775278987
 31
0.0
 11
364.9007722351437
 21
297.8777596054103
 31
0.0
 11
364.8703553015565
 21
297.896213630281
 31
0.0
 11
364.8306281336707
 21
297.9200615163141
 31
0.0
 11
364.7907743014074
 21
297.943697165696
 31
0.0
 11
364.7507920294134
 21
297.9671183423005
 31
0.0
 11
364.7106825670452
 21
297.9903210122017
 31
0.0
 11
364.6704454082133
 21
298.013302175085
 31
0.0
 11
364.6300806450607
 21
298.036058476741
 31
0.0
 11
364.5895887761137
 21
298.0585863412826
 31
0.0
 11
364.5489690820446
 21
298.0808828662565
 31
0.0
 11
364.5081747114721
 21
298.1029721832929
 31
0.0
 11
364.4672577057805
 21
298.1248335374413
 31
0.0
 11
364.4262234702704
 21
298.1464742114537
 31
0.0
 11
364.3850774096043
 21
298.1679014985463
 31
0.0
 11
364.3438242578877
 21
298.1891230406442
 31
0.0
 11
364.3024695815785
 21
298.2101460477064
 31
0.0
 11
364.2610184482319
 21
298.2309779889387
 31
0.0
 11
364.2194756097651
 21
298.2516264830568
 31
0.0
 11
364.1700022701317
 21
298.2759319823101
 31
0.0
 11
364.1204120122636
 21
298.2999980895934
 31
0.0
 11
364.0707108693795
 21
298.3238335589754
 31
0.0
 11
364.0209041119626
 21
298.3474475257688
 31
0.0
 11
363.9709966528922
 21
298.3708492905064
 31
0.0
 11
363.9209943471732
 21
298.3940477106107
 31
0.0
 11
363.8709020189523
 21
298.417052125271
 31
0.0
 11
363.8207251562062
 21
298.4398715631469
 31
0.0
 11
363.778298098569
 21
298.4589994774508
 31
0.0
 11
363.735813680352
 21
298.4779996093497
 31
0.0
 11
363.6932718695999
 21
298.4968691594194
 31
0.0
 11
363.6506713879636
 21
298.5156058825761
 31
0.0
 11
363.6080123474485
 21
298.5342069200387
 31
0.0
 11
363.5652934282233
 21
298.5526700400354
 31
0.0
 11
363.5225146709603
 21
298.5709924197339
 31
0.0
 11
363.4796749503125
 21
298.5891717389367
 31
0.0
 11
363.4482889009609
 21
298.6023826289518
 31
0.0
 11
363.4168711203629
 21
298.6155179040841
 31
0.0
 11
363.366031166623
 21
298.6365903230853
 31
0.0
 11
363.3151114455075
 21
298.6574693315861
 31
0.0
 11
363.2641109576477
 21
298.6781532318496
 31
0.0
 11
363.213030764095
 21
298.6986394806177
 31
0.0
 11
363.1618706147395
 21
298.7189260679292
 31
0.0
 11
363.1106308562846
 21
298.7390107418285
 31
0.0
 11
363.05931188142
 21
298.7588912357384
 31
0.0
 11
363.0079135022352
 21
298.7785655058685
 31
0.0
 11
362.956403538916
 21
298.7980449625
 31
0.0
 11
362.9048171548978
 21
298.8173211511707
 31
0.0
 11
362.8531573034293
 21
298.8363994643704
 31
0.0
 11
362.8014267967202
 21
298.8552853505024
 31
0.0
 11
362.7496282227807
 21
298.8739843392478
 31
0.0
 11
362.6977644911971
 21
298.8925018431751
 31
0.0
 11
362.6458383429787
 21
298.9108433367195
 31
0.0
 11
362.593852301823
 21
298.9290143685003
 31
0.0
 11
362.5461814249176
 21
298.9455144153042
 31
0.0
 11
362.4984639799309
 21
298.9618792841043
 31
0.0
 11
362.450701637378
 21
298.9781121436507
 31
0.0
 11
362.4028957370816
 21
298.9942162776869
 31
0.0
 11
362.3550476019937
 21
299.0101949745231
 31
0.0
 11
362.3071588197432
 21
299.0260514343219
 31
0.0
 11
362.2592305667574
 21
299.0417889936585
 31
0.0
 11
362.2112644743831
 21
299.0574108390828
 31
0.0
 11
362.1632617793518
 21
299.0729202865918
 31
0.0
 11
362.1152239474698
 21
299.0883205770433
 31
0.0
 11
362.0622587261918
 21
299.1051643943208
 31
0.0
 11
362.0092522260602
 21
299.1218778570626
 31
0.0
 11
361.9562046123363
 21
299.1384589972475
 31
0.0
 11
361.9031152857361
 21
299.1549060863355
 31
0.0
 11
361.8499845452268
 21
299.1712171166697
 31
0.0
 11
361.7968117006181
 21
299.187390385329
 31
0.0
 11
361.7435970743918
 21
299.2034238800019
 31
0.0
 11
361.6903400448268
 21
299.2193158745099
 31
0.0
 11
361.6618241971893
 21
299.227761305026
 31
0.0
 11
361.6332965118623
 21
299.2361666624947
 31
0.0
 11
361.584921622914
 21
299.2503223484805
 31
0.0
 11
361.5365137951457
 21
299.2643650288455
 31
0.0
 11
361.4880725645769
 21
299.278294135931
 31
0.0
 11
361.4395985711717
 21
299.2921087822163
 31
0.0
 11
361.391091607073
 21
299.3058083237913
 31
0.0
 11
361.3425520538698
 21
299.3193919486478
 31
0.0
 11
361.2939799516089
 21
299.3328589415937
 31
0.0
 11
361.2453754571696
 21
299.3462085541805
 31
0.0
 11
361.1967388138143
 21
299.3594400147908
 31
0.0
 11
361.1480699950005
 21
299.3725526248547
 31
0.0
 11
361.0993485844341
 21
299.3855515761314
 31
0.0
 11
361.0505959105996
 21
299.3984327851223
 31
0.0
 11
361.0018128719074
 21
299.4111981801996
 31
0.0
 11
360.9530001868983
 21
299.4238497377379
 31
0.0
 11
360.9041586106215
 21
299.4363894242535
 31
0.0
 11
360.8552889455859
 21
299.4488191941465
 31
0.0
 11
360.8063919190914
 21
299.4611410210387
 31
0.0
 11
360.7574683083515
 21
299.4733568657932
 31
0.0
 11
360.7085189208631
 21
299.4854686819801
 31
0.0
 11
360.6595443968842
 21
299.4974784641228
 31
0.0
 11
360.6053507938849
 21
299.510644590626
 31
0.0
 11
360.5511281207056
 21
299.523690491375
 31
0.0
 11
360.4968772457335
 21
299.5366183171389
 31
0.0
 11
360.4425988866783
 21
299.5494302556192
 31
0.0
 11
360.3882937108235
 21
299.5621285060079
 31
0.0
 11
360.3339625755504
 21
299.5747152231026
 31
0.0
 11
360.2796060661678
 21
299.5871926248682
 31
0.0
 11
360.2252250680695
 21
299.5995628600721
 31
0.0
 11
360.1708201918266
 21
299.6118281404384
 31
0.0
 11
360.1163922449833
 21
299.623990632775
 31
0.0
 11
360.0665841883372
 21
299.6350278159548
 31
0.0
 11
360.0167574093303
 21
299.6459801553813
 31
0.0
 11
359.9669120463141
 21
299.6568469539126
 31
0.0
 11
359.9170479722038
 21
299.667627572284
 31
0.0
 11
359.8671654114953
 21
299.6783212950851
 31
0.0
 11
359.8172641695654
 21
299.6889274969991
 31
0.0
 11
359.7673445254678
 21
299.6994454517177
 31
0.0
 11
359.7174062373758
 21
299.709874543042
 31
0.0
 11
359.6674496116885
 21
299.7202140398424
 31
0.0
 11
359.6174744115958
 21
299.7304633239279
 31
0.0
 11
359.5943028323499
 21
299.7351835155678
 31
0.0
 11
359.5711273525158
 21
299.7398845212958
 31
0.0
 11
359.5164834875251
 21
299.7508908620681
 31
0.0
 11
359.4618185316809
 21
299.7617920378252
 31
0.0
 11
359.4071321859847
 21
299.7725876636536
 31
0.0
 11
359.3524250047697
 21
299.7832771848178
 31
0.0
 11
359.297696860697
 21
299.7938601809808
 31
0.0
 11
359.2429481249726
 21
299.804336134385
 31
0.0
 11
359.1881788514542
 21
299.8147045887708
 31
0.0
 11
359.1333892454799
 21
299.8249650586373
 31
0.0
 11
359.0785795141567
 21
299.8351170585541
 31
0.0
 11
359.0237497194814
 21
299.8451601296855
 31
0.0
 11
358.9688830483625
 21
299.8550971547294
 31
0.0
 11
358.9139968938546
 21
299.8649260002835
 31
0.0
 11
358.859091785455
 21
299.8746479435815
 31
0.0
 11
358.8041680844841
 21
299.8842642921378
 31
0.0
 11
358.7492262342955
 21
299.8937763388507
 31
0.0
 11
358.6942666505667
 21
299.9031853815188
 31
0.0
 11
358.6392897533355
 21
299.912492717165
 31
0.0
 11
358.5842959512999
 21
299.9216996446975
 31
0.0
 11
358.5292856998624
 21
299.9308074552843
 31
0.0
 11
358.4742593458802
 21
299.9398174579437
 31
0.0
 11
358.4250967694282
 21
299.9477834922091
 31
0.0
 11
358.3759219087541
 21
299.9556733295875
 31
0.0
 11
358.326735040184
 21
299.9634877617743
 31
0.0
 11
358.2775363767605
 21
299.9712275907596
 31
0.0
 11
358.228326124696
 21
299.9788936194809
 31
0.0
 11
358.1791045550369
 21
299.9864866408249
 31
0.0
 11
358.1298718296459
 21
299.9940074645314
 31
0.0
 11
358.08062824872
 21
300.0014568791475
 31
0.0
 11
358.0313739596101
 21
300.0088356964421
 31
0.0
 11
357.9821092629478
 21
300.0161447050929
 31
0.0
 11
357.9328343194982
 21
300.0233847146718
 31
0.0
 11
357.8835494028573
 21
300.0305565180254
 31
0.0
 11
357.8369719766291
 21
300.0372709227577
 31
0.0
 11
357.7903858788634
 21
300.0439248902751
 31
0.0
 11
357.7437911970118
 21
300.050518155751
 31
0.0
 11
357.6971879304269
 21
300.0570504667851
 31
0.0
 11
357.6505762187637
 21
300.0635215513036
 31
0.0
 11
357.6039560141336
 21
300.0699311633138
 31
0.0
 11
357.5573274987797
 21
300.0762790251048
 31
0.0
 11
357.5106905865687
 21
300.0825648956192
 31
0.0
 11
357.4640454952556
 21
300.0887884926927
 31
0.0
 11
357.4173921043175
 21
300.0949495794596
 31
0.0
 11
357.370730657904
 21
300.1010478707001
 31
0.0
 11
357.3240610239648
 21
300.1070831305931
 31
0.0
 11
357.3078186395069
 21
300.1091685140383
 31
0.0
 11
357.2915752838696
 21
300.111246319983
 31
0.0
 11
357.2421858418763
 21
300.1175172591831
 31
0.0
 11
357.1927876324461
 21
300.1237188171854
 31
0.0
 11
357.1433804789753
 21
300.1298508804936
 31
0.0
 11
357.0939647300087
 21
300.1359132699139
 31
0.0
 11
357.0445402794846
 21
300.1419058625121
 31
0.0
 11
356.995107395497
 21
300.1478284895548
 31
0.0
 11
356.9456660546268
 21
300.1536810175905
 31
0.0
 11
356.8962164478513
 21
300.1594632874945
 31
0.0
 11
356.8467586254462
 21
300.1651751568387
 31
0.0
 11
356.7972927060113
 21
300.1708164751194
 31
0.0
 11
356.7478188101277
 21
300.1763870917354
 31
0.0
 11
356.6983369889172
 21
300.181886863816
 31
0.0
 11
356.6488347530291
 21
300.1873171080494
 31
0.0
 11
356.5993248209487
 21
300.1926767307664
 31
0.0
 11
356.5498073989505
 21
300.1979661317548
 31
0.0
 11
356.5002825698828
 21
300.2031857241551
 31
0.0
 11
356.4507505100361
 21
300.2083359111468
 31
0.0
 11
356.4012113248871
 21
300.2134171033538
 31
0.0
 11
356.3516651752368
 21
300.2184297056629
 31
0.0
 11
356.3021121751297
 21
300.2233741277339
 31
0.0
 11
356.2525524836367
 21
300.2282507747064
 31
0.0
 11
356.2029862097781
 21
300.233060056667
 31
0.0
 11
356.1534135247086
 21
300.2378023776565
 31
0.0
 11
356.1038345180003
 21
300.2424781495246
 31
0.0
 11
356.0521948729595
 21
300.2472773472629
 31
0.0
 11
356.0005486591068
 21
300.2520053363376
 31
0.0
 11
355.9488960329432
 21
300.256662642443
 31
0.0
 11
355.8972371293236
 21
300.261249793419
 31
0.0
 11
355.8455720518432
 21
300.2657673197794
 31
0.0
 11
355.7939009788075
 21
300.2702157453043
 31
0.0
 11
355.7422239792625
 21
300.2745956033459
 31
0.0
 11
355.6905412577152
 21
300.2789074165283
 31
0.0
 11
355.6388528655207
 21
300.2831517197836
 31
0.0
 11
355.5871590162038
 21
300.2873290316267
 31
0.0
 11
355.5354597602863
 21
300.2914398859079
 31
0.0
 11
355.48375530443
 21
300.2954848151344
 31
0.0
 11
355.4334494578454
 21
300.2993570281366
 31
0.0
 11
355.3831388483667
 21
300.3031668455254
 31
0.0
 11
355.332823539985
 21
300.3069137889505
 31
0.0
 11
355.2825035634065
 21
300.3105975317958
 31
0.0
 11
355.2321790562774
 21
300.3142176375191
 31
0.0
 11
355.1818499471791
 21
300.317773126775
 31
0.0
 11
355.1315164190499
 21
300.3212633832212
 31
0.0
 11
355.0811784973143
 21
300.3246898832921
 31
0.0
 11
355.0308364458481
 21
300.3280526652748
 31
0.0
 11
354.9804897114425
 21
300.331344054177
 31
0.0
 11
354.9301384396173
 21
300.3345616343739
 31
0.0
 11
354.8797840871932
 21
300.3377318922587
 31
0.0
 11
354.8714336195454
 21
300.338254161278
 31
0.0
 11
354.8630827060663
 21
300.3387688257591
 31
0.0
 11
354.8113179703765
 21
300.3416935042847
 31
0.0
 11
354.7595406009127
 21
300.3444007485506
 31
0.0
 11
354.7077668036111
 21
300.3471697679223
 31
0.0
 11
354.6559958864012
 21
300.3499877249911
 31
0.0
 11
354.6042238782044
 21
300.3527871225963
 31
0.0
 11
354.5524511221452
 21
300.3555738443136
 31
0.0
 11
354.5006786998683
 21
300.3583663164109
 31
0.0
 11
354.4489063457934
 21
300.3611597544793
 31
0.0
 11
354.3971337236298
 21
300.3639483707707
 31
0.0
 11
354.3453615644161
 21
300.3667455746958
 31
0.0
 11
354.2935901300239
 21
300.3695560249937
 31
0.0
 11
354.2418167229085
 21
300.3723301813984
 31
0.0
 11
354.1900267931646
 21
300.3750094415329
 31
0.0
 11
354.1382299107509
 21
300.3775496195014
 31
0.0
 11
354.0864248648598
 21
300.3799220023132
 31
0.0
 11
354.0346129840634
 21
300.3821415872042
 31
0.0
 11
353.9827946014489
 21
300.3842314317852
 31
0.0
 11
353.9309716039932
 21
300.3862027909084
 31
0.0
 11
353.879143220323
 21
300.3880648750919
 31
0.0
 11
353.8273114316873
 21
300.3898299370167
 31
0.0
 11
353.7754759221073
 21
300.3915108868089
 31
0.0
 11
353.7236381282929
 21
300.3931197319305
 31
0.0
 11
353.6717984507088
 21
300.3946683603704
 31
0.0
 11
353.619957354957
 21
300.3961688820526
 31
0.0
 11
353.5674186868322
 21
300.3976503049642
 31
0.0
 11
353.5148789056694
 21
300.3990916015229
 31
0.0
 11
353.4623390147578
 21
300.4004895323603
 31
0.0
 11
353.4097979055839
 21
300.4018409317722
 31
0.0
 11
353.3572564257123
 21
300.4031425857938
 31
0.0
 11
353.3047136616899
 21
300.4043913206614
 31
0.0
 11
353.2521702276819
 21
300.4055839244687
 31
0.0
 11
353.1996254809765
 21
300.406717216051
 31
0.0
 11
353.1470797248113
 21
300.4077879930667
 31
0.0
 11
353.0945326704331
 21
300.4087930658021
 31
0.0
 11
353.0419842204706
 21
300.4097292400316
 31
0.0
 11
352.9894345370491
 21
300.410593317775
 31
0.0
 11
352.9368953752135
 21
300.4113826456959
 31
0.0
 11
352.8843551495889
 21
300.4120977760926
 31
0.0
 11
352.8318134890795
 21
300.4127397754334
 31
0.0
 11
352.7792709977221
 21
300.4133096971945
 31
0.0
 11
352.7267274728384
 21
300.4138086044825
 31
0.0
 11
352.6741833300962
 21
300.4142375537593
 31
0.0
 11
352.621638573114
 21
300.4145976055223
 31
0.0
 11
352.569093395359
 21
300.4148898184652
 31
0.0
 11
352.4640028720587
 21
300.4152749629504
 31
0.0
 11
352.3589117191415
 21
300.4154014630157
 31
0.0
  0
SPLINE
  5
17B
330
3C
100
AcDbEntity
  8
1
  6
Continuous
 62
     7
100
AcDbSpline
210
0.0
220
0.0
230
1.0
 70
     8
 71
     3
 72
   353
 73
   349
 74
   347
 42
0.0000000001
 43
0.0000000001
 44
0.00000001
 40
0.0
 40
0.0
 40
0.0
 40
0.0
 40
0.1050900782217452
 40
0.2101801564434096
 40
0.2627252818819296
 40
0.3152704067862111
 40
0.3678155321486853
 40
0.4203606586773222
 40
0.4729057870911263
 40
0.525450911370192
 40
0.5779960302772945
 40
0.6305411649574017
 40
0.683098035061847
 40
0.7356548520182838
 40
0.7882118835287368
 40
0.8407689755282461
 40
0.8933271190423048
 40
0.9458852357850832
 40
0.9984446247441731
 40
1.0510040233577
 40
1.103564295252464
 40
1.156124563473956
 40
1.208684873609892
 40
1.261245187058347
 40
1.313106956645103
 40
1.364968723195709
 40
1.416829513545365
 40
1.468690304706055
 40
1.52055027581868
 40
1.572410246737825
 40
1.624269629709919
 40
1.676129012638584
 40
1.727988122612107
 40
1.77984723295286
 40
1.831706479401868
 40
1.88356572442363
 40
1.935413467085596
 40
1.987261211155915
 40
2.039109427555693
 40
2.090957643534097
 40
2.142806143307518
 40
2.194654643358597
 40
2.24650321251448
 40
2.298351780981255
 40
2.350200177465973
 40
2.402048576429804
 40
2.453893432237472
 40
2.505738278813974
 40
2.505741389673124
 40
2.505744500532466
 40
2.505744584200255
 40
2.505744667867934
 40
2.514111270555012
 40
2.522477873271905
 40
2.522477956939554
 40
2.52247804060727
 40
2.522481067839775
 40
2.522484095072036
 40
2.572934634567038
 40
2.62338601404143
 40
2.673840074610254
 40
2.724293885201917
 40
2.774747782099293
 40
2.825201745828207
 40
2.875655684476544
 40
2.926109606214121
 40
2.976563536247896
 40
3.02701746705893
 40
3.077471390837223
 40
3.127925328787317
 40
3.179786630044899
 40
3.231647880352746
 40
3.283509359230211
 40
3.335370897101594
 40
3.387233483440958
 40
3.439096043551597
 40
3.490959872514097
 40
3.542823710981844
 40
3.594688430956348
 40
3.646553147262501
 40
3.698417927571198
 40
3.750282711310221
 40
3.800083359437983
 40
3.849884004327891
 40
3.899683714283344
 40
3.949483425102579
 40
3.999282321131684
 40
4.049081216959207
 40
4.09887950555088
 40
4.148677794078783
 40
4.198475778676166
 40
4.248273763730729
 40
4.298071857004467
 40
4.347869948512052
 40
4.397655810748941
 40
4.447441674726823
 40
4.497228028365835
 40
4.54701438150571
 40
4.596801050071001
 40
4.646587718892263
 40
4.69637448827708
 40
4.746161257137564
 40
4.795947872198809
 40
4.84573448910152
 40
4.895520664296214
 40
4.9453068326486
 40
4.961682542591153
 40
4.978058252630514
 40
5.034528158095062
 40
5.090998076036441
 40
5.147468276515569
 40
5.203938473673068
 40
5.260408907649555
 40
5.31687934243624
 40
5.373349943451578
 40
5.429820544548228
 40
5.486291226815972
 40
5.542761907948584
 40
5.592565908110535
 40
5.642369906506292
 40
5.692173843468646
 40
5.741977780912452
 40
5.791781636155926
 40
5.841585491239903
 40
5.891389272804205
 40
5.941193054524123
 40
5.990996800545842
 40
6.040800546103774
 40
6.09060432268376
 40
6.140408100963045
 40
6.196167221913938
 40
6.251926344627671
 40
6.307685520780605
 40
6.363444696476342
 40
6.41920387498485
 40
6.474963053558427
 40
6.530722242994648
 40
6.586481432627815
 40
6.642240703408311
 40
6.697999973335937
 40
6.753741965794906
 40
6.809483959043698
 40
6.865226027304786
 40
6.920968095596625
 40
6.976710087307664
 40
7.032452078106376
 40
7.088193817451142
 40
7.143935560414649
 40
7.199676864755633
 40
7.255418155533429
 40
7.2790656146019
 40
7.302713073109569
 40
7.353728447753473
 40
7.404743834114938
 40
7.455759503901694
 40
7.506775170501997
 40
7.557791103942413
 40
7.608807038411825
 40
7.659823188977484
 40
7.710839338613742
 40
7.76185562664327
 40
7.812871917361075
 40
7.868642228610579
 40
7.924412540254781
 40
7.980182744423722
 40
8.035952948537842
 40
8.091722991638561
 40
8.147493034562277
 40
8.203262972966794
 40
8.259032912132353
 40
8.31480292032091
 40
8.37057292564127
 40
8.420998503141208
 40
8.471424078269116
 40
8.521849731967519
 40
8.572275386331125
 40
8.622701008193983
 40
8.673126629767403
 40
8.723552219757819
 40
8.77397781023963
 40
8.824403485753381
 40
8.874829159589474
 40
8.925233469597314
 40
8.975637781185991
 40
9.026042235710342
 40
9.076446690047753
 40
9.12685108558442
 40
9.177255480288148
 40
9.227659572271419
 40
9.278063667772063
 40
9.328467186112341
 40
9.37887069121361
 40
9.40861088059255
 40
9.438351069951382
 40
9.49392864355376
 40
9.549506241521199
 40
9.605084348927935
 40
9.660662449809701
 40
9.716241072843509
 40
9.771819697616273
 40
9.82739873047063
 40
9.882977762897493
 40
9.933423795822938
 40
9.983869823340525
 40
10.03431571586008
 40
10.0847616097282
 40
10.13520725158949
 40
10.18565289346241
 40
10.23609838123089
 40
10.28654386760161
 40
10.33698951644166
 40
10.38743517085763
 40
10.44250544297435
 40
10.49757571857062
 40
10.55264607906962
 40
10.60771643808674
 40
10.66278659351944
 40
10.71785675139362
 40
10.77292694719611
 40
10.82799713470092
 40
10.88303230789023
 40
10.93806748954028
 40
10.99310299600793
 40
11.048138498248
 40
11.10317369209691
 40
11.15820889439554
 40
11.21324298378069
 40
11.26827704358758
 40
11.30233012554075
 40
11.33638319748596
 40
11.3829205944036
 40
11.42945801666548
 40
11.4759960963398
 40
11.52253417034759
 40
11.56907303400257
 40
11.61561189498874
 40
11.66215145669082
 40
11.70869103474391
 40
11.7638131201546
 40
11.8189352068391
 40
11.8740568656725
 40
11.92917852261146
 40
11.98429959400983
 40
12.03942067169024
 40
12.09454209397955
 40
12.14966349298594
 40
12.19605495488602
 40
12.24244640055439
 40
12.28883795235615
 40
12.33522950735881
 40
12.38162052955581
 40
12.42801155514918
 40
12.47440250426607
 40
12.52079343654346
 40
12.5671301883953
 40
12.61346695707474
 40
12.65980445128216
 40
12.7061419393274
 40
12.75247910434653
 40
12.79881627719245
 40
12.84515170497463
 40
12.89148710759998
 40
12.92706435992174
 40
12.96264159792677
 40
13.012605427399
 40
13.06256934881412
 40
13.11253520628379
 40
13.1625010338181
 40
13.21246921871139
 40
13.26243743151549
 40
13.30892790241741
 40
13.35541833419802
 40
13.40190803274517
 40
13.44839774521811
 40
13.49488640229349
 40
13.54137504269401
 40
13.58786461138791
 40
13.63435423263309
 40
13.68495557019765
 40
13.73555690241282
 40
13.78615734003574
 40
13.83675780853855
 40
13.887356856017
 40
13.93795578404263
 40
13.98845285511979
 40
14.03895003141599
 40
14.08944904963254
 40
14.13994808279617
 40
14.19044324251572
 40
14.24093823732298
 40
14.27330479611675
 40
14.30567123759828
 40
14.34549154663134
 40
14.38531201737756
 40
14.42513593731754
 40
14.46495977500223
 40
14.50478782952139
 40
14.54461605180076
 40
14.59557008011129
 40
14.64652411650735
 40
14.69747517181164
 40
14.74842618347416
 40
14.7993766154787
 40
14.8503272097261
 40
14.90065135358394
 40
14.950975490422
 40
15.00129301491093
 40
15.05160980752349
 40
15.10153753843495
 40
15.15146608452385
 40
15.20139908388959
 40
15.25133132203587
 40
15.28668902274938
 40
15.32204641514262
 40
15.35739903812221
 40
15.39275149811803
 40
15.42182628794996
 40
15.45090126046794
 40
15.50110687740684
 40
15.55131362587135
 40
15.60152927239142
 40
15.6517448613689
 40
15.70262898452096
 40
15.75351309629164
 40
15.80439339088991
 40
15.8552731552742
 40
15.89408543215055
 40
15.93289730839426
 40
15.97170571373821
 40
16.01051392004749
 40
16.04873691992634
 40
16.08696013834809
 40
16.12518605518098
 40
16.16341192484284
 40
16.20133968714784
 40
16.23926743306177
 40
16.27719401441832
 40
16.31512054855638
 40
16.35304775789508
 40
16.39097502477744
 40
16.42890231676513
 40
16.46682957646851
 40
16.50505286514985
 40
16.54327621609004
 40
16.58150130660198
 40
16.61972633121028
 40
16.69734459214186
 40
16.7749628511963
 40
16.7749628511963
 40
16.7749628511963
 40
16.7749628511963
 10
352.3589117191403
 20
290.1905057225481
 30
0.0
 10
352.3939408494528
 20
290.1907563771549
 30
0.0
 10
352.463999110078
 20
290.1912576863687
 30
0.0
 10
352.5515715249848
 20
290.1919431660806
 30
0.0
 10
352.6216295576148
 20
290.1924825673294
 30
0.0
 10
352.6741731332218
 20
290.1928861247585
 30
0.0
 10
352.7267167183659
 20
290.1932884651931
 30
0.0
 10
352.7792602829572
 20
290.1936936688034
 30
0.0
 10
352.8318037947333
 20
290.1941055485892
 30
0.0
 10
352.8843473793797
 20
290.194507990991
 30
0.0
 10
352.9368911529606
 20
290.1948848631546
 30
0.0
 10
352.98943858659
 20
290.1952976694902
 30
0.0
 10
353.0419890921171
 20
290.1958079059697
 30
0.0
 10
353.0945421004932
 20
290.1964548327387
 30
0.0
 10
353.1470927316444
 20
290.1972776437427
 30
0.0
 10
353.1996411951597
 20
290.1982510810965
 30
0.0
 10
353.2521875374985
 20
290.1993498866567
 30
0.0
 10
353.3047320552332
 20
290.2005660908031
 30
0.0
 10
353.357274337596
 20
290.2018917077974
 30
0.0
 10
353.409814798521
 20
290.2033141414702
 30
0.0
 10
353.4623531991964
 20
290.204820777363
 30
0.0
 10
353.514889759189
 20
290.2064002565959
 30
0.0
 10
353.5674244444219
 20
290.2080412113783
 30
0.0
 10
353.6197248343437
 20
290.2097244633763
 30
0.0
 10
353.6717912748679
 20
290.211437736463
 30
0.0
 10
353.7236233262057
 20
290.2131836558164
 30
0.0
 10
353.7754535676036
 20
290.2149730992638
 30
0.0
 10
353.8272815773779
 20
290.2168092534564
 30
0.0
 10
353.8791075222906
 20
290.2186953256453
 30
0.0
 10
353.9309310384357
 20
290.2206345102468
 30
0.0
 10
353.9827522212986
 20
290.2226300187643
 30
0.0
 10
354.0345707920059
 20
290.2246850465922
 30
0.0
 10
354.0863867474359
 20
290.2268028002023
 30
0.0
 10
354.1381999222658
 20
290.2289864796501
 30
0.0
 10
354.1900101839053
 20
290.2312392868523
 30
0.0
 10
354.2418134666136
 20
290.2335642460524
 30
0.0
 10
354.2936094761171
 20
290.2359645310588
 30
0.0
 10
354.3453982965182
 20
290.2384393571275
 30
0.0
 10
354.3971836879807
 20
290.2409881300298
 30
0.0
 10
354.4489656776446
 20
290.2436100836028
 30
0.0
 10
354.5007440448542
 20
290.246304439025
 30
0.0
 10
354.5525187524144
 20
290.2490704271912
 30
0.0
 10
354.6042896484674
 20
290.2519072726242
 30
0.0
 10
354.6560566217221
 20
290.2548142023317
 30
0.0
 10
354.7078195988481
 20
290.2577904448186
 30
0.0
 10
354.7595773541093
 20
290.260835162857
 30
0.0
 10
354.8113298935988
 20
290.2639475823437
 30
0.0
 10
354.8458291259594
 20
290.2660672189668
 30
0.0
 10
354.8630796011844
 20
290.2671381670451
 30
0.0
 10
354.8630816989426
 20
290.2671382972812
 30
0.0
 10
354.8630827895734
 20
290.2671383649889
 30
0.0
 10
354.8658663547753
 20
290.2673111788076
 30
0.0
 10
354.8714334328199
 20
290.2676562261017
 30
0.0
 10
354.877000477165
 20
290.2680018860847
 30
0.0
 10
354.8797840036875
 20
290.2681752881026
 30
0.0
 10
354.879785066483
 20
290.2681753543145
 30
0.0
 10
354.8797871085678
 20
290.2681754815411
 30
0.0
 10
354.8965734182835
 20
290.2692214340232
 30
0.0
 10
354.9301302456809
 20
290.2715205518485
 30
0.0
 10
354.9804474288497
 20
290.2752051865806
 30
0.0
 10
355.0307766042537
 20
290.2787401782279
 30
0.0
 10
355.0811103128042
 20
290.2822207756667
 30
0.0
 10
355.1314411702603
 20
290.2857422404535
 30
0.0
 10
355.1817710653518
 20
290.2892778942207
 30
0.0
 10
355.2321018472901
 20
290.2928010558023
 30
0.0
 10
355.2824327254473
 20
290.296322671078
 30
0.0
 10
355.3327629420101
 20
290.2998536882312
 30
0.0
 10
355.3830937074181
 20
290.3033769123068
 30
0.0
 10
355.4334262159954
 20
290.3068751471834
 30
0.0
 10
355.4842243630085
 20
290.3104398400228
 30
0.0
 10
355.5354837250435
 20
290.3141326138086
 30
0.0
 10
355.5872011437589
 20
290.3179947667253
 30
0.0
 10
355.6389053709278
 20
290.3220308000571
 30
0.0
 10
355.6905981217731
 20
290.3262163434313
 30
0.0
 10
355.7422809394199
 20
290.330527015296
 30
0.0
 10
355.7939545795593
 20
290.33495524641
 30
0.0
 10
355.8456190930262
 20
290.339493407429
 30
0.0
 10
355.8972756306983
 20
290.3441294416676
 30
0.0
 10
355.9489246908168
 20
290.3488512332856
 30
0.0
 10
356.0005671596513
 20
290.3536479159207
 30
0.0
 10
356.0522036609633
 20
290.3585085975199
 30
0.0
 10
356.1031502307231
 20
290.3633569133942
 30
0.0
 10
356.1534080519161
 20
290.368179771873
 30
0.0
 10
356.2029766368175
 20
290.3729786610256
 30
0.0
 10
356.2525405168551
 20
290.3778226997397
 30
0.0
 10
356.3020990487536
 20
290.3827152332257
 30
0.0
 10
356.3516521583887
 20
290.3876596625843
 30
0.0
 10
356.4011992487413
 20
290.3926593428853
 30
0.0
 10
356.4507401833446
 20
290.3977176755253
 30
0.0
 10
356.5002744429995
 20
290.4028380212658
 30
0.0
 10
356.549801797985
 20
290.4080237709163
 30
0.0
 10
356.5993218396492
 20
290.4132782967425
 30
0.0
 10
356.6488342093388
 20
290.4186049768271
 30
0.0
 10
356.698334381641
 20
290.4240067333304
 30
0.0
 10
356.747821833501
 20
290.429486902211
 30
0.0
 10
356.7972967267174
 20
290.4350443648382
 30
0.0
 10
356.8467631162916
 20
290.4406784572417
 30
0.0
 10
356.8962211141269
 20
290.4463880799547
 30
0.0
 10
356.9456705713722
 20
290.4521721033133
 30
0.0
 10
356.995111539568
 20
290.4580294212218
 30
0.0
 10
357.0445439371275
 20
290.4639589115814
 30
0.0
 10
357.0939677408239
 20
290.4699594596049
 30
0.0
 10
357.1433829504493
 20
290.4760299529239
 30
0.0
 10
357.1927894573313
 20
290.4821692663096
 30
0.0
 10
357.2421873510928
 20
290.4883762986113
 30
0.0
 10
357.2805286311658
 20
290.493246573607
 30
0.0
 10
357.3078187846874
 20
290.4967375381901
 30
0.0
 10
357.3373171246166
 20
290.5005246031809
 30
0.0
 10
357.3800656312922
 20
290.5060584426705
 30
0.0
 10
357.4360565458055
 20
290.5133988770206
 30
0.0
 10
357.4920356383031
 20
290.5208296753835
 30
0.0
 10
357.5480028959809
 20
290.5283503798715
 30
0.0
 10
357.603958142743
 20
290.5359605106376
 30
0.0
 10
357.6599013532315
 20
290.5436596083518
 30
0.0
 10
357.7158323701671
 20
290.551447195534
 30
0.0
 10
357.7717511431043
 20
290.5593228096091
 30
0.0
 10
357.8276575417353
 20
290.567285976669
 30
0.0
 10
357.8813519622638
 20
290.5750194386346
 30
0.0
 10
357.9328359738328
 20
290.5825111981978
 30
0.0
 10
357.9821109291074
 20
290.589751134056
 30
0.0
 10
358.0313756788443
 20
290.59706005073
 30
0.0
 10
358.0806299775252
 20
290.604438748515
 30
0.0
 10
358.1298736226348
 20
290.6118880340918
 30
0.0
 10
358.1791063636117
 20
290.6194087069153
 30
0.0
 10
358.2283279978431
 20
290.6270015737374
 30
0.0
 10
358.2775382802751
 20
290.634667434766
 30
0.0
 10
358.3267369979915
 20
290.6424070952439
 30
0.0
 10
358.3759239204422
 20
290.6502213575816
 30
0.0
 10
358.4250988157399
 20
290.6581110240883
 30
0.0
 10
358.4762209936591
 20
290.6663944034043
 30
0.0
 10
358.5292883868717
 20
290.6750834022623
 30
0.0
 10
358.5842987219493
 20
290.6841909829395
 30
0.0
 10
358.6392925744327
 20
290.6933976829847
 30
0.0
 10
358.6942695409935
 20
290.7027048009346
 30
0.0
 10
358.7492291934395
 20
290.7121136310365
 30
0.0
 10
358.804171117381
 20
290.7216254699168
 30
0.0
 10
358.8590948863919
 20
290.7312416121486
 30
0.0
 10
358.914000093984
 20
290.7409633557311
 30
0.0
 10
358.9688862954529
 20
290.7507919920691
 30
0.0
 10
359.0237473754879
 20
290.7607277850772
 30
0.0
 10
359.0785828578736
 20
290.7707719789746
 30
0.0
 10
359.1333926359328
 20
290.7809240658482
 30
0.0
 10
359.1881822393069
 20
290.7911846112183
 30
0.0
 10
359.2429515095759
 20
290.8015531392256
 30
0.0
 10
359.2977002914561
 20
290.8120291742855
 30
0.0
 10
359.352428374674
 20
290.8226122306388
 30
0.0
 10
359.4071356599794
 20
290.8333018435572
 30
0.0
 10
359.4618218815757
 20
290.8440975163452
 30
0.0
 10
359.5164869953956
 20
290.8549987953979
 30
0.0
 10
359.5606435586768
 20
290.8638928476864
 30
0.0
 10
359.5943034821443
 20
290.8707204722012
 30
0.0
 10
359.6264141365663
 20
290.8772615248706
 30
0.0
 10
359.6674527137955
 20
290.8856781117314
 30
0.0
 10
359.7174094323187
 20
290.8960177391678
 30
0.0
 10
359.7673476313532
 20
290.9064469232524
 30
0.0
 10
359.8172673671852
 20
290.916965008626
 30
0.0
 10
359.8671685256114
 20
290.9275713040551
 30
0.0
 10
359.9170511590039
 20
290.9382651536737
 30
0.0
 10
359.9669151644635
 20
290.9490458683846
 30
0.0
 10
360.0167605743094
 20
290.9599127882955
 30
0.0
 10
360.0665873102516
 20
290.9708652293692
 30
0.0
 10
360.1179425090777
 20
290.9822453650677
 30
0.0
 10
360.1708240368357
 20
290.9940619137219
 30
0.0
 10
360.2252289949748
 20
291.0063268210083
 30
0.0
 10
360.2796101472382
 20
291.0186966994308
 30
0.0
 10
360.3339667257508
 20
291.0311737249783
 30
0.0
 10
360.3882980369305
 20
291.0437600904863
 30
0.0
 10
360.4426033048911
 20
291.05645796981
 30
0.0
 10
360.4968818263785
 20
291.0692695538178
 30
0.0
 10
360.5511328542186
 20
291.0821970229102
 30
0.0
 10
360.6053556369387
 20
291.0952425568208
 30
0.0
 10
360.6578182523439
 20
291.1079877656267
 30
0.0
 10
360.7085231086336
 20
291.1204214975141
 30
0.0
 10
360.7574726422727
 20
291.132532991112
 30
0.0
 10
360.8063963497435
 20
291.1447485008413
 30
0.0
 10
360.8552934897026
 20
291.1570699968596
 30
0.0
 10
360.9041632915587
 20
291.1694994417582
 30
0.0
 10
360.9530049864328
 20
291.1820387986219
 30
0.0
 10
361.0018178127997
 20
291.1946900324108
 30
0.0
 10
361.0506010121468
 20
291.2074551088125
 30
0.0
 10
361.0993537937102
 20
291.2203359853854
 30
0.0
 10
361.1480684626218
 20
291.2333327767876
 30
0.0
 10
361.1967441773359
 20
291.2464473626031
 30
0.0
 10
361.2453808843737
 20
291.2596789582883
 30
0.0
 10
361.2939853503507
 20
291.2730286805845
 30
0.0
 10
361.3425574505143
 20
291.2864957904343
 30
0.0
 10
361.3910970383165
 20
291.300079542239
 30
0.0
 10
361.4396039208055
 20
291.3137791779868
 30
0.0
 10
361.4880780268249
 20
291.327593973336
 30
0.0
 10
361.53651908531
 20
291.3415231478883
 30
0.0
 10
361.584927105874
 20
291.3555660008242
 30
0.0
 10
361.6266914560142
 20
291.3677873807081
 30
0.0
 10
361.6618261700583
 20
291.3781392016717
 30
0.0
 10
361.698599996328
 20
291.389030133611
 30
0.0
 10
361.7436041548301
 20
291.4024597261752
 30
0.0
 10
361.7968189080887
 20
291.4184935783928
 30
0.0
 10
361.8499915599195
 20
291.4346671077976
 30
0.0
 10
361.9031224378842
 20
291.4509784998312
 30
0.0
 10
361.9562115656796
 20
291.4674258468406
 30
0.0
 10
362.009259273377
 20
291.484007336001
 30
0.0
 10
362.0622656060632
 20
291.5007210655057
 30
0.0
 10
362.1136002558174
 20
291.5170466438742
 30
0.0
 10
362.1632676320455
 20
291.5329687050167
 30
0.0
 10
362.2112705100175
 20
291.5484775925067
 30
0.0
 10
362.2592368732695
 20
291.5640989062371
 30
0.0
 10
362.307165277841
 20
291.5798358948156
 30
0.0
 10
362.3550543758123
 20
291.5956918379651
 30
0.0
 10
362.4029027024297
 20
291.611669976905
 30
0.0
 10
362.4507088956069
 20
291.6277735871908
 30
0.0
 10
362.4984715389165
 20
291.6440059257947
 30
0.0
 10
362.5461891883923
 20
291.6603702413223
 30
0.0
 10
362.5953170748326
 20
291.6773739511992
 30
0.0
 10
362.6458483254463
 20
291.6950354386601
 30
0.0
 10
362.6977749322526
 20
291.7133760210463
 30
0.0
 10
362.7496390800371
 20
291.7318925980013
 30
0.0
 10
362.8014380438505
 20
291.7505906501519
 30
0.0
 10
362.8531690786624
 20
291.7694756497774
 30
0.0
 10
362.9048294155371
 20
291.7885530609713
 30
0.0
 10
362.9564162697089
 20
291.807828342827
 30
0.0
 10
363.0079158158432
 20
291.827302775479
 30
0.0
 10
363.0593251202587
 20
291.8469815810463
 30
0.0
 10
363.1106442108462
 20
291.8668624730493
 30
0.0
 10
363.1618838815653
 20
291.8869474648634
 30
0.0
 10
363.2130439473992
 20
291.9072343713069
 30
0.0
 10
363.2641242463226
 20
291.9277210135597
 30
0.0
 10
363.3151243922974
 20
291.9484051264224
 30
0.0
 10
363.3660444464792
 20
291.9692846213486
 30
0.0
 10
363.4104237362788
 20
291.9876794947168
 30
0.0
 10
363.4482941840184
 20
292.0035119518251
 30
0.0
 10
363.4835159817699
 20
292.0183368331223
 30
0.0
 10
363.5225248447259
 20
292.034890928061
 30
0.0
 10
363.5653037035937
 20
292.0532138188768
 30
0.0
 10
363.6080223253416
 20
292.0716772784515
 30
0.0
 10
363.6506815100315
 20
292.0902788473538
 30
0.0
 10
363.6932816475246
 20
292.1090158880862
 30
0.0
 10
363.7358235662245
 20
292.1278859553335
 30
0.0
 10
363.7783076674074
 20
292.1468864149592
 30
0.0
 10
363.8233426313445
 20
292.167190582749
 30
0.0
 10
363.8709161060114
 20
292.188824229894
 30
0.0
 10
363.9210091534543
 20
292.2118270497468
 30
0.0
 10
363.9710124565956
 20
292.2350240023841
 30
0.0
 10
364.0209206274174
 20
292.2584241663164
 30
0.0
 10
364.0707284710305
 20
292.2820367091091
 30
0.0
 10
364.1204306451808
 20
292.3058707291433
 30
0.0
 10
364.1700217409612
 20
292.3299352970191
 30
0.0
 10
364.2168842089762
 20
292.3529562658903
 30
0.0
 10
364.2610337213168
 20
292.3748986165449
 30
0.0
 10
364.302485702119
 20
292.395729316387
 30
0.0
 10
364.3438411768129
 20
292.4167510548124
 30
0.0
 10
364.3850950182071
 20
292.4379712720743
 30
0.0
 10
364.4262421058276
 20
292.4593974085797
 30
0.0
 10
364.4672772070472
 20
292.4810368480288
 30
0.0
 10
364.508195139096
 20
292.5028970022632
 30
0.0
 10
364.5489745665642
 20
292.5249765269416
 30
0.0
 10
364.5896100892946
 20
292.5472822926832
 30
0.0
 10
364.6301021467744
 20
292.5698108141127
 30
0.0
 10
364.6704666741084
 20
292.5925675327555
 30
0.0
 10
364.7107037107376
 20
292.6155491760103
 30
0.0
 10
364.7508132322271
 20
292.638752428039
 30
0.0
 10
364.7907949575042
 20
292.6621738326614
 30
0.0
 10
364.830649233436
 20
292.6858102899509
 30
0.0
 10
364.867301746849
 20
292.7078129895046
 30
0.0
 10
364.9007852399177
 20
292.7281262331795
 30
0.0
 10
364.9352142258224
 20
292.7492121377625
 30
0.0
 10
364.9736080833396
 20
292.7730053361792
 30
0.0
 10
365.0159205101581
 20
292.7995786659373
 30
0.0
 10
365.0580782697055
 20
292.8263979162732
 30
0.0
 10
365.1000851500519
 20
292.8534554683013
 30
0.0
 10
365.1419438977795
 20
292.880743036488
 30
0.0
 10
365.1826901611468
 20
292.90761454027
 30
0.0
 10
365.2223380867798
 20
292.9340447176527
 30
0.0
 10
365.2608887936473
 20
292.9600293671759
 30
0.0
 10
365.2992970059822
 20
292.9862237784204
 30
0.0
 10
365.3375523777242
 20
293.0126399166047
 30
0.0
 10
365.3756448125707
 20
293.039289915341
 30
0.0
 10
365.4135640305292
 20
293.0661857802699
 30
0.0
 10
365.4512995513683
 20
293.0933393922823
 30
0.0
 10
365.4899471015594
 20
293.121570635437
 30
0.0
 10
365.5294733835946
 20
293.1509202392812
 30
0.0
 10
365.5698340028682
 20
293.1814416300237
 30
0.0
 10
365.6099064235324
 20
293.2123401199057
 30
0.0
 10
365.6496673575608
 20
293.243637361832
 30
0.0
 10
365.6890933519516
 20
293.2753548633888
 30
0.0
 10
365.7281338333332
 20
293.307491712838
 30
0.0
 10
365.7667648029051
 20
293.3400670874267
 30
0.0
 10
365.8049887864198
 20
293.3730680434858
 30
0.0
 10
365.8428332122765
 20
293.406504522589
 30
0.0
 10
365.8802987238434
 20
293.4403639805348
 30
0.0
 10
365.9173867361861
 20
293.474634461655
 30
0.0
 10
365.9497059141826
 20
293.5051558125348
 30
0.0
 10
365.9773991563986
 20
293.531771268041
 30
0.0
 10
366.0023543879499
 20
293.5560993824644
 30
0.0
 10
366.0288730397354
 20
293.5823816497608
 30
0.0
 10
366.056908066129
 20
293.6106629904426
 30
0.0
 10
366.0846995379885
 20
293.6391853172069
 30
0.0
 10
366.1122534101312
 20
293.667940698102
 30
0.0
 10
366.1395741268557
 20
293.6969196438135
 30
0.0
 10
366.1691897817034
 20
293.7288319915975
 30
0.0
 10
366.2010265679703
 20
293.7637408406962
 30
0.0
 10
366.2349618121071
 20
293.8017502531513
 30
0.0
 10
366.2684609100019
 20
293.8401434970935
 30
0.0
 10
366.3014871194753
 20
293.8789429179474
 30
0.0
 10
366.334003487547
 20
293.9181706572975
 30
0.0
 10
366.3658405423893
 20
293.9576839122263
 30
0.0
 10
366.3969673808517
 20
293.9974947385234
 30
0.0
 10
366.4273023928563
 20
294.0376487853316
 30
0.0
 10
366.4568823287296
 20
294.078359972858
 30
0.0
 10
366.4855380830712
 20
294.1195670739467
 30
0.0
 10
366.5131801218121
 20
294.1613057466252
 30
0.0
 10
366.5398236865147
 20
294.2035372286425
 30
0.0
 10
366.5655470829025
 20
294.2463369425561
 30
0.0
 10
366.5879434349004
 20
294.2854573968491
 30
0.0
 10
366.6073021809351
 20
294.320708712673
 30
0.0
 10
366.623861006139
 20
294.3519487413848
 30
0.0
 10
366.6399521091564
 20
294.3834302372073
 30
0.0
 10
366.6546449035764
 20
294.4132703466023
 30
0.0
 10
366.6680279181917
 20
294.4414190898946
 30
0.0
 10
366.6831302880905
 20
294.4742294738436
 30
0.0
 10
366.7005102716179
 20
294.5137419681115
 30
0.0
 10
366.7197553089336
 20
294.5601204338291
 30
0.0
 10
366.738041620761
 20
294.606888748147
 30
0.0
 10
366.7554583922776
 20
294.6542282267031
 30
0.0
 10
366.7720033228164
 20
294.7021154028265
 30
0.0
 10
366.7876199264109
 20
294.7505465050189
 30
0.0
 10
366.802193258931
 20
294.7993003745281
 30
0.0
 10
366.8146147799367
 20
294.8444856981131
 30
0.0
 10
366.8251325011663
 20
294.8860112623219
 30
0.0
 10
366.8339550902241
 20
294.9238085600783
 30
0.0
 10
366.8420190174563
 20
294.9617738385856
 30
0.0
 10
366.8492359957097
 20
294.999709811648
 30
0.0
 10
366.8555686581793
 20
295.0376056687755
 30
0.0
 10
366.8610323359512
 20
295.0754403549314
 30
0.0
 10
366.8656593076549
 20
295.1133874097032
 30
0.0
 10
366.8694396164822
 20
295.1513291413003
 30
0.0
 10
366.872380761046
 20
295.1892453878688
 30
0.0
 10
366.874484358831
 20
295.2271174338147
 30
0.0
 10
366.8757521744836
 20
295.2650262846631
 30
0.0
 10
366.8761783598
 20
295.3029538076476
 30
0.0
 10
366.8757570103305
 20
295.3408816203798
 30
0.0
 10
366.8744922108024
 20
295.3787908933532
 30
0.0
 10
366.8723880929091
 20
295.4166628561084
 30
0.0
 10
366.8694408479811
 20
295.4545774860779
 30
0.0
 10
366.8656473005877
 20
295.49251609295
 30
0.0
 10
366.8610074718132
 20
295.5304602313208
 30
0.0
 10
366.8555470113581
 20
295.5682963553771
 30
0.0
 10
366.8470884465176
 20
295.6189524016236
 30
0.0
 10
366.8345872660573
 20
295.682249113523
 30
0.0
 10
366.8218577744627
 20
295.7324118624208
 30
0.0
 10
366.8154930287424
 20
295.7574932365664
 30
0.0
 11
352.3589117191403
 21
290.1905057225481
 31
0.0
 11
352.4639990221481
 21
290.1912694549626
 31
0.0
 11
352.5690859955537
 21
290.1920772674936
 31
0.0
 11
352.6216295591332
 21
290.1924824016909
 31
0.0
 11
352.674173134598
 21
290.1928859219244
 31
0.0
 11
352.7267167143568
 21
290.1932889423845
 31
0.0
 11
352.7792602735865
 21
290.1936947814949
 31
0.0
 11
352.83180380868
 21
290.1941039757058
 31
0.0
 11
352.8843474123113
 21
290.1945037292957
 31
0.0
 11
352.9368911051853
 21
290.1948908470176
 31
0.0
 11
352.9894345370486
 21
290.195313867789
 31
0.0
 11
353.0419888660695
 21
290.1958306814355
 31
0.0
 11
353.0945416204519
 21
290.1964841455949
 31
0.0
 11
353.1470922765259
 21
290.1973027464638
 31
0.0
 11
353.1996404309144
 21
290.198271967705
 31
0.0
 11
353.2521871147417
 21
290.1993694504602
 31
0.0
 11
353.3047311890157
 21
290.2005843143352
 31
0.0
 11
353.3572739111156
 21
290.2019078407167
 31
0.0
 11
353.4098141153363
 21
290.2033281657019
 31
0.0
 11
353.4623528430206
 21
290.204832916501
 31
0.0
 11
353.5148894304568
 21
290.2064105020219
 31
0.0
 11
353.5674241795014
 21
290.208049509163
 31
0.0
 11
353.619957354957
 21
290.2097383035111
 31
0.0
 11
353.6717910523888
 21
290.2114444556788
 31
0.0
 11
353.7236234040856
 21
290.2131909227759
 31
0.0
 11
353.7754532950819
 21
290.2149808878613
 31
0.0
 11
353.8272815519022
 21
290.2168175845658
 31
0.0
 11
353.8791071957402
 21
290.2187041805951
 31
0.0
 11
353.9309308780501
 21
290.2206439062406
 31
0.0
 11
353.982751833748
 21
290.2226399405079
 31
0.0
 11
354.0345704621716
 21
290.2246955051591
 31
0.0
 11
354.0863862914565
 21
290.2268137881368
 31
0.0
 11
354.1381993839103
 21
290.228997998681
 31
0.0
 11
354.1900096521277
 21
290.231251340532
 31
0.0
 11
354.2418167229086
 21
290.2335770041652
 31
0.0
 11
354.2936088895108
 21
290.2359769828721
 31
0.0
 11
354.3453975415056
 21
290.2384516726985
 31
0.0
 11
354.3971830792229
 21
290.2410003247292
 31
0.0
 11
354.4489649636906
 21
290.2436221449199
 31
0.0
 11
354.5007434152261
 21
290.2463163767859
 31
0.0
 11
354.5525180903512
 21
290.249082235285
 31
0.0
 11
354.6042890006414
 21
290.2519189536771
 31
0.0
 11
354.6560560223755
 21
290.2548257582503
 31
0.0
 11
354.707818933616
 21
290.2578018694625
 31
0.0
 11
354.7595778606514
 21
290.2608465282715
 31
0.0
 11
354.8113292195046
 21
290.2639587510396
 31
0.0
 11
354.8630764963033
 21
290.2671379742872
 31
0.0
 11
354.8630796011848
 21
290.2671381670457
 31
0.0
 11
354.8630827060664
 21
290.2671383598047
 31
0.0
 11
354.8630827895734
 21
290.267138364989
 31
0.0
 11
354.8630828730803
 21
290.2671383701733
 31
0.0
 11
354.8714334243853
 21
290.2676563792726
 31
0.0
 11
354.8797839201818
 21
290.2681752829005
 31
0.0
 11
354.8797840036875
 21
290.2681752881027
 31
0.0
 11
354.8797840871933
 21
290.268175293305
 31
0.0
 11
354.8797871085676
 21
290.2681754815449
 31
0.0
 11
354.8797901299405
 21
290.2681756698027
 31
0.0
 11
354.9301270365937
 21
290.2715598630488
 31
0.0
 11
354.9804483548938
 21
290.2751801690313
 31
0.0
 11
355.0307773033891
 21
290.2787311085183
 31
0.0
 11
355.0811098142901
 21
290.2822275852614
 31
0.0
 11
355.1314409805467
 21
290.285744603229
 31
0.0
 11
355.1817712201228
 21
290.2892758126775
 31
0.0
 11
355.2321018708171
 21
290.2928007986089
 31
0.0
 11
355.2824326128572
 21
290.2963242378946
 31
0.0
 11
355.3327630331127
 21
290.2998523893588
 31
0.0
 11
355.3830939998462
 21
290.303372747573
 31
0.0
 11
355.4334258222246
 21
290.3068807499528
 31
0.0
 11
355.4837553044301
 21
290.3104223704294
 31
0.0
 11
355.5354820901114
 21
290.3141552260669
 31
0.0
 11
355.5871988560929
 21
290.3180237399816
 31
0.0
 11
355.6389033646192
 21
290.3220557108898
 31
0.0
 11
355.6905960580579
 21
290.3262371646378
 31
0.0
 11
355.742279291718
 21
290.3305465985033
 31
0.0
 11
355.7939525677776
 21
290.3349735254845
 31
0.0
 11
355.8456176410471
 21
290.3395097087596
 31
0.0
 11
355.897274042706
 21
290.3441437036092
 31
0.0
 11
355.9489235413803
 21
290.3488637104653
 31
0.0
 11
356.0005661402956
 21
290.3536585800983
 31
0.0
 11
356.0522028259559
 21
290.3585173999636
 31
0.0
 11
356.1038345180002
 21
290.3634290360393
 31
0.0
 11
356.15340738198
 21
290.3681867361966
 31
0.0
 11
356.2029762146824
 21
290.3729862211661
 31
0.0
 11
356.2525397219059
 21
290.3778307916683
 31
0.0
 11
356.30209846032
 21
290.3827239138295
 31
0.0
 11
356.3516512338603
 21
290.3876688789639
 31
0.0
 11
356.4011984577378
 21
290.3926691421245
 31
0.0
 11
356.4507391212343
 21
290.3977280162075
 31
0.0
 11
356.5002734097603
 21
290.4028489341459
 31
0.0
 11
356.5498005897359
 21
290.4080352347176
 31
0.0
 11
356.5993205192119
 21
290.4132903179888
 31
0.0
 11
356.6488328465407
 21
290.4186175626976
 31
0.0
 11
356.6983369889173
 21
290.4240203217481
 31
0.0
 11
356.7478203879638
 21
290.4294998561695
 31
0.0
 11
356.7972951201579
 21
290.435057115057
 31
0.0
 11
356.8467616734246
 21
290.4406910405606
 31
0.0
 11
356.8962195688632
 21
290.4464004659046
 31
0.0
 11
356.9456691334787
 21
290.4521843163668
 31
0.0
 11
356.9951100723103
 21
290.4580414453361
 31
0.0
 11
357.0445425079544
 21
290.4639707549142
 31
0.0
 11
357.0939663677758
 21
290.4699711243959
 31
0.0
 11
357.1433815321141
 21
290.4760414269151
 31
0.0
 11
357.1927881925366
 21
290.4821805741293
 31
0.0
 11
357.2421859505848
 21
290.4883874042641
 31
0.0
 11
357.2915752838696
 21
290.494660865581
 31
0.0
 11
357.3078186269591
 21
290.496738768707
 31
0.0
 11
357.3240610239648
 21
290.4988240549707
 31
0.0
 11
357.3800636545306
 21
290.5060735786024
 31
0.0
 11
357.4360544660332
 21
290.513413923253
 31
0.0
 11
357.492033638514
 21
290.520844656091
 31
0.0
 11
357.5480008030339
 21
290.5283652719314
 31
0.0
 11
357.6039561141999
 21
290.5359753353875
 31
0.0
 11
357.6598992568897
 21
290.5436743477255
 31
0.0
 11
357.7158303158572
 21
290.5514618647759
 31
0.0
 11
357.7717490495233
 21
290.5593373973546
 31
0.0
 11
357.8276554632924
 21
290.5673004906768
 31
0.0
 11
357.8835494028573
 21
290.5753506675384
 31
0.0
 11
357.9328343130135
 21
290.5825225615022
 31
0.0
 11
357.9821092518895
 21
290.5897626343585
 31
0.0
 11
358.0313739447088
 21
290.597071682065
 31
0.0
 11
358.0806282335229
 21
290.604450517903
 31
0.0
 11
358.1298718138935
 21
290.6118999332754
 31
0.0
 11
358.1791045407476
 21
290.6194207435866
 31
0.0
 11
358.228326111813
 21
290.6270137403571
 31
0.0
 11
358.2775363665551
 21
290.634679736824
 31
0.0
 11
358.3267350325491
 21
290.6424195289532
 31
0.0
 11
358.3759219039358
 21
290.6502339230302
 31
0.0
 11
358.4250967674088
 21
290.6581237242973
 31
0.0
 11
358.4742593458802
 21
290.6660897276199
 31
0.0
 11
358.5292857020854
 21
290.6750997049782
 31
0.0
 11
358.584295954279
 21
290.6842074994094
 31
0.0
 11
358.6392897572054
 21
290.6934144188153
 31
0.0
 11
358.6942666542508
 21
290.70272175278
 31
0.0
 11
358.7492262379151
 21
290.7121307990327
 31
0.0
 11
358.8041680873832
 21
290.7216428530817
 31
0.0
 11
358.8590917877131
 21
290.7312592114703
 31
0.0
 11
358.9139968952641
 21
290.7409811656644
 31
0.0
 11
358.9688830489312
 21
290.7508100218341
 31
0.0
 11
359.0237497194814
 21
290.7607470558784
 31
0.0
 11
359.0785795135714
 21
290.7707901332626
 31
0.0
 11
359.1333892447621
 21
290.7809421369148
 31
0.0
 11
359.1881788505284
 21
290.7912026083466
 31
0.0
 11
359.2429481241488
 21
290.8015710626452
 31
0.0
 11
359.2976968599218
 21
290.8120470146866
 31
0.0
 11
359.3524250041986
 21
290.8226300086966
 31
0.0
 11
359.4071321855972
 21
290.8333195273293
 31
0.0
 11
359.4618185314685
 21
290.8441151506954
 31
0.0
 11
359.5164834875104
 21
290.8550163245113
 31
0.0
 11
359.5711273525159
 21
290.866022664268
 31
0.0
 11
359.5943028323617
 21
290.870723669938
 31
0.0
 11
359.6174744115959
 21
290.8754438616359
 31
0.0
 11
359.6674496116758
 21
290.8856931458565
 31
0.0
 11
359.7174062373597
 21
290.8960326427442
 31
0.0
 11
359.7673445254462
 21
290.9064617341129
 31
0.0
 11
359.8172641695454
 21
290.916979688842
 31
0.0
 11
359.8671654114752
 21
290.9275858907379
 31
0.0
 11
359.917047972188
 21
290.9382796135008
 31
0.0
 11
359.9669120463015
 21
290.9490602318199
 31
0.0
 11
360.0167574093222
 21
290.9599270302924
 31
0.0
 11
360.0665841883339
 21
290.9708793696603
 31
0.0
 11
360.1163922449833
 21
290.9819165527887
 31
0.0
 11
360.1708201918307
 21
290.9940790450844
 31
0.0
 11
360.2252250680742
 21
291.0063443254245
 31
0.0
 11
360.2796060661744
 21
291.0187145606153
 31
0.0
 11
360.3339625755563
 21
291.0311919623781
 31
0.0
 11
360.3882937108295
 21
291.0437786794787
 31
0.0
 11
360.4425988866831
 21
291.0564769298791
 31
0.0
 11
360.4968772457372
 21
291.0692888683754
 31
0.0
 11
360.551128120708
 21
291.0822166941569
 31
0.0
 11
360.6053507938858
 21
291.0952625949231
 31
0.0
 11
360.6595443968843
 21
291.1084287214408
 31
0.0
 11
360.7085189208621
 21
291.1204385035931
 31
0.0
 11
360.7574683083504
 21
291.1325503197862
 31
0.0
 11
360.8063919190898
 21
291.1447661645436
 31
0.0
 11
360.8552889455845
 21
291.1570879914365
 31
0.0
 11
360.9041586106201
 21
291.1695177613282
 31
0.0
 11
360.9530001868971
 21
291.1820574478411
 31
0.0
 11
361.0018128719065
 21
291.1947090053758
 31
0.0
 11
361.0505959105989
 21
291.2074744004489
 31
0.0
 11
361.0993485844339
 21
291.2203556094357
 31
0.0
 11
361.1480699950006
 21
291.2333545607091
 31
0.0
 11
361.1967388138145
 21
291.2464671707707
 31
0.0
 11
361.24537545717
 21
291.2596986313795
 31
0.0
 11
361.2939799516092
 21
291.2730482439658
 31
0.0
 11
361.3425520538702
 21
291.2865152369114
 31
0.0
 11
361.3910916070734
 21
291.3000988617686
 31
0.0
 11
361.439598571172
 21
291.3137984033442
 31
0.0
 11
361.4880725645771
 21
291.3276130496305
 31
0.0
 11
361.5365137951458
 21
291.3415421567171
 31
0.0
 11
361.5849216229139
 21
291.3555848370829
 31
0.0
 11
361.6332965118622
 21
291.3697405230689
 31
0.0
 11
361.6618241971892
 21
291.3781458805378
 31
0.0
 11
361.6903400448268
 21
291.386591311054
 31
0.0
 11
361.7435970743918
 21
291.402483305562
 31
0.0
 11
361.7968117006181
 21
291.418516800235
 31
0.0
 11
361.8499845452269
 21
291.4346900688943
 31
0.0
 11
361.9031152857361
 21
291.4510010992286
 31
0.0
 11
361.9562046123363
 21
291.4674481883166
 31
0.0
 11
362.0092522260602
 21
291.4840293285015
 31
0.0
 11
362.0622587261918
 21
291.5007427912433
 31
0.0
 11
362.1152239474699
 21
291.5175866085207
 31
0.0
 11
362.1632617793519
 21
291.5329868989721
 31
0.0
 11
362.2112644743832
 21
291.5484963464812
 31
0.0
 11
362.2592305667573
 21
291.5641181919054
 31
0.0
 11
362.3071588197431
 21
291.5798557512422
 31
0.0
 11
362.3550476019937
 21
291.595712211041
 31
0.0
 11
362.4028957370816
 21
291.6116909078771
 31
0.0
 11
362.450701637378
 21
291.6277950419133
 31
0.0
 11
362.4984639799307
 21
291.6440279014597
 31
0.0
 11
362.5461814249173
 21
291.6603927702597
 31
0.0
 11
362.5938523018227
 21
291.6768928170635
 31
0.0
 11
362.6458383429783
 21
291.6950638488444
 31
0.0
 11
362.6977644911968
 21
291.7134053423888
 31
0.0
 11
362.7496282227805
 21
291.7319228463161
 31
0.0
 11
362.8014267967201
 21
291.7506218350615
 31
0.0
 11
362.8531573034293
 21
291.7695077211935
 31
0.0
 11
362.9048171548978
 21
291.7885860343931
 31
0.0
 11
362.9564035389158
 21
291.8078622230638
 31
0.0
 11
363.0079135022352
 21
291.8273416796952
 31
0.0
 11
363.0593118814199
 21
291.8470159498254
 31
0.0
 11
363.1106308562846
 21
291.8668964437352
 31
0.0
 11
363.1618706147394
 21
291.8869811176344
 31
0.0
 11
363.2130307640949
 21
291.9072677049459
 31
0.0
 11
363.2641109576477
 21
291.927753953714
 31
0.0
 11
363.3151114455076
 21
291.9484378539775
 31
0.0
 11
363.366031166623
 21
291.9693168624784
 31
0.0
 11
363.4168711203628
 21
291.9903892814797
 31
0.0
 11
363.4482889009608
 21
292.0035245566121
 31
0.0
 11
363.4796749503125
 21
292.0167354466274
 31
0.0
 11
363.5225146709605
 21
292.0349147658302
 31
0.0
 11
363.5652934282234
 21
292.0532371455288
 31
0.0
 11
363.6080123474485
 21
292.0717002655255
 31
0.0
 11
363.6506713879637
 21
292.0903013029879
 31
0.0
 11
363.6932718695999
 21
292.1090380261447
 31
0.0
 11
363.735813680352
 21
292.1279075762143
 31
0.0
 11
363.7782980985691
 21
292.1469077081133
 31
0.0
 11
363.8207251562062
 21
292.166035622417
 31
0.0
 11
363.8709020189525
 21
292.1888550602928
 31
0.0
 11
363.9209943471734
 21
292.2118594749531
 31
0.0
 11
363.9709966528924
 21
292.2350578950573
 31
0.0
 11
364.0209041119628
 21
292.2584596597948
 31
0.0
 11
364.0707108693797
 21
292.2820736265882
 31
0.0
 11
364.1204120122638
 21
292.3059090959702
 31
0.0
 11
364.1700022701318
 21
292.3299752032537
 31
0.0
 11
364.2194756097651
 21
292.354280702507
 31
0.0
 11
364.2610184482319
 21
292.3749291966251
 31
0.0
 11
364.3024695815783
 21
292.3957611378573
 31
0.0
 11
364.3438242578874
 21
292.4167841449196
 31
0.0
 11
364.3850774096039
 21
292.4380056870177
 31
0.0
 11
364.42622347027
 21
292.4594329741103
 31
0.0
 11
364.46725770578
 21
292.4810736481227
 31
0.0
 11
364.5081747114717
 21
292.5029350022709
 31
0.0
 11
364.5489690820444
 21
292.5250243193074
 31
0.0
 11
364.5895887761136
 21
292.5473208442812
 31
0.0
 11
364.6300806450609
 21
292.5698487088229
 31
0.0
 11
364.6704454082135
 21
292.5926050104789
 31
0.0
 11
364.7106825670456
 21
292.615586173362
 31
0.0
 11
364.7507920294138
 21
292.6387888432632
 31
0.0
 11
364.7907743014079
 21
292.6622100198678
 31
0.0
 11
364.830628133671
 21
292.6858456692497
 31
0.0
 11
364.8703553015565
 21
292.7096935552829
 31
0.0
 11
364.9007722351435
 21
292.7281475801536
 31
0.0
 11
364.9311110923966
 21
292.746729657665
 31
0.0
 11
364.9735816762269
 21
292.7730475938425
 31
0.0
 11
365.0158940929254
 21
292.7996192485956
 31
0.0
 11
365.0580529321234
 21
292.8264375108464
 31
0.0
 11
365.100059692035
 21
292.8534933058434
 31
0.0
 11
365.1419196570361
 21
292.8807799844913
 31
0.0
 11
365.1836342683013
 21
292.9082884104337
 31
0.0
 11
365.2223160260288
 21
292.9340776621443
 31
0.0
 11
365.260865281735
 21
292.9600644882615
 31
0.0
 11
365.299271609987
 21
292.9862607861144
 31
0.0
 11
365.3375255587179
 21
293.0126791277035
 31
0.0
 11
365.3756159543688
 21
293.0393309005494
 31
0.0
 11
365.4135331189867
 21
293.066228527092
 31
0.0
 11
365.451267039504
 21
293.0933842123115
 31
0.0
 11
365.4888059822786
 21
293.1208088847596
 31
0.0
 11
365.5294290808119
 21
293.1509793873884
 31
0.0
 11
365.5697862451463
 21
293.1815046901525
 31
0.0
 11
365.6098546010134
 21
293.2124066503774
 31
0.0
 11
365.6496119705272
 21
293.2437077523076
 31
0.0
 11
365.6890335663387
 21
293.2754284299391
 31
0.0
 11
365.7280960148034
 21
293.3075901562186
 31
0.0
 11
365.7667011893989
 21
293.3401415721913
 31
0.0
 11
365.8049249822576
 21
293.3731401550909
 31
0.0
 11
365.842770138529
 21
293.4065750917235
 31
0.0
 11
365.8802369253934
 21
293.4404335062245
 31
0.0
 11
365.917324377168
 21
293.4747013056282
 31
0.0
 11
365.954037299053
 21
293.5093698196899
 31
0.0
 11
365.9773724814643
 21
293.5317988943473
 31
0.0
 11
366.0005473183643
 21
293.5543934394596
 31
0.0
 11
366.0288314618204
 21
293.5824231422844
 31
0.0
 11
366.0568665303522
 21
293.6107021950066
 31
0.0
 11
366.0846596644513
 21
293.6392238761691
 31
0.0
 11
366.1122134179012
 21
293.6679767667848
 31
0.0
 11
366.1395359518089
 21
293.6969552599762
 31
0.0
 11
366.1666298350273
 21
293.726147875174
 31
0.0
 11
366.2009599062946
 21
293.7638010185733
 31
0.0
 11
366.2348898895219
 21
293.8018150957454
 31
0.0
 11
366.2683822361053
 21
293.8402113554195
 31
0.0
 11
366.3014022867183
 21
293.8790144718788
 31
0.0
 11
366.333912085741
 21
293.9182453205689
 31
0.0
 11
366.3658736227255
 21
293.9579243226702
 31
0.0
 11
366.3968570704024
 21
293.9975796555408
 31
0.0
 11
366.4271781018451
 21
294.0377437414976
 31
0.0
 11
366.4567410207059
 21
294.0784609012601
 31
0.0
 11
366.4854540958256
 21
294.1197808593431
 31
0.0
 11
366.513025340969
 21
294.1614054284726
 31
0.0
 11
366.5396694145799
 21
294.2036304572584
 31
0.0
 11
366.565394916756
 21
294.2464265197344
 31
0.0
 11
366.5902062729774
 21
294.2897580903123
 31
0.0
 11
366.6072254736712
 21
294.3207502475055
 31
0.0
 11
366.6237839210133
 21
294.3519906543286
 31
0.0
 11
366.6398732734159
 21
294.3834698647825
 31
0.0
 11
366.6554893496502
 21
294.4151863366985
 31
0.0
 11
366.6679733433097
 21
294.4414445412465
 31
0.0
 11
366.680130154181
 21
294.4678560155779
 31
0.0
 11
366.700348053747
 21
294.5138107814826
 31
0.0
 11
366.7195942051588
 21
294.5601821438436
 31
0.0
 11
366.737883700299
 21
294.606948643851
 31
0.0
 11
366.755225739436
 21
294.6540746351395
 31
0.0
 11
366.771836538729
 21
294.7021711561759
 31
0.0
 11
366.7874464969158
 21
294.7506017460556
 31
0.0
 11
366.8020124630036
 21
294.7993525102582
 31
0.0
 11
366.8154930287425
 21
294.8484139489974
 31
0.0
 11
366.8250146753729
 21
294.8860401510615
 31
0.0
 11
366.8338289475946
 21
294.9238379068515
 31
0.0
 11
366.8418839911712
 21
294.9618011601147
 31
0.0
 11
366.8491286261357
 21
294.9999271635923
 31
0.0
 11
366.8554291519244
 21
295.0376273107342
 31
0.0
 11
366.8608927450114
 21
295.0754580333958
 31
0.0
 11
366.8655198231519
 21
295.1134028731714
 31
0.0
 11
366.8693099845718
 21
295.151440378187
 31
0.0
 11
366.872242454851
 21
295.1892546052918
 31
0.0
 11
366.8743450820758
 21
295.2271240239414
 31
0.0
 11
366.8756119049122
 21
295.2650294421992
 31
0.0
 11
366.8760371040506
 21
295.3029535927819
 31
0.0
 11
366.8756164362814
 21
295.3408784691409
 31
0.0
 11
366.874352324849
 21
295.3787846638253
 31
0.0
 11
366.8722488456496
 21
295.4166535805352
 31
0.0
 11
366.8693099845718
 21
295.4544668073768
 31
0.0
 11
366.8655079045416
 21
295.4925005290598
 31
0.0
 11
366.8608707891417
 21
295.530441558538
 31
0.0
 11
366.8554077942622
 21
295.5682742590971
 31
0.0
 11
366.8491286261357
 21
295.6059800219715
 31
0.0
 11
366.8339126779072
 21
295.6820922374796
 31
0.0
 11
366.8154930287424
 21
295.7574932365664
 31
0.0
  0
ARC
  5
17C
330
3C
100
AcDbEntity
  8
1
  6
Continuous
 62
     7
100
AcDbCircle
 10
378.8760371040505
 20
266.772062606733
 30
0.0
 40
1.0
100
AcDbArc
 50
180.0
 51
-90.0
  0
ARC
  5
17D
330
3C
100
AcDbEntity
  8
1
  6
Continuous
 62
     7
100
AcDbCircle
 10
379.3760371040505
 20
305.6273052401031
 30
0.0
 40
1.499999999999952
100
AcDbArc
 50
102.8824414943179
 51
180.0
  0
ARC
  5
17E
330
3C
100
AcDbEntity
  8
1
  6
Continuous
 62
     7
100
AcDbCircle
 10
375.8760371040505
 20
287.272062606733
 30
0.0
 40
2.0
100
AcDbArc
 50
0.0
 51
90.0
  0
ARC
  5
17F
330
3C
100
AcDbEntity
  8
1
  6
Continuous
 62
     7
100
AcDbCircle
 10
375.8760371040505
 20
303.2833301232116
 30
0.0
 40
2.000000000000009
100
AcDbArc
 50
-90.32188301539911
 51
0.0
  0
ARC
  5
180
330
3C
100
AcDbEntity
  8
1
  6
Continuous
 62
     7
100
AcDbCircle
 10
121.3596821387558
 20
405.9961583555942
 30
0.0
 40
1.5
100
AcDbArc
 50
180.0
 51
-109.471220634492
  0
ARC
  5
181
330
3C
100
AcDbEntity
  8
1
  6
Continuous
 62
     7
100
AcDbCircle
 10
124.3596821387558
 20
405.9961583555942
 30
0.0
 40
1.500000000000011
100
AcDbArc
 50
-70.52877936550945
 51
0.0
  0
ARC
  5
182
330
3C
100
AcDbEntity
  8
1
  6
Continuous
 62
     7
100
AcDbCircle
 10
130.8596821387558
 20
564.8223112037656
 30
0.0
 40
2.000000000000033
100
AcDbArc
 50
112.3926878053994
 51
180.0
  0
ARC
  5
183
330
3C
100
AcDbEntity
  8
1
  6
Continuous
 62
     7
100
AcDbCircle
 10
114.8596821387559
 20
564.8223112037656
 30
0.0
 40
2.0
100
AcDbArc
 50
0.0
 51
67.60731219460061
  0
ARC
  5
184
330
3C
100
AcDbEntity
  8
1
  6
Continuous
 62
     7
100
AcDbCircle
 10
414.8760371040505
 20
266.772062606733
 30
0.0
 40
1.0
100
AcDbArc
 50
-90.0
 51
0.0
  0
ARC
  5
185
330
3C
100
AcDbEntity
  8
1
  6
Continuous
 62
     7
100
AcDbCircle
 10
414.3760371040505
 20
305.6273052401031
 30
0.0
 40
1.5
100
AcDbArc
 50
0.0
 51
77.1175585056863
  0
ARC
  5
186
330
3C
100
AcDbEntity
  8
1
  6
Continuous
 62
     7
100
AcDbCircle
 10
104.8596821387558
 20
266.772062606733
 30
0.0
 40
1.0
100
AcDbArc
 50
180.0
 51
-90.0
  0
ARC
  5
187
330
3C
100
AcDbEntity
  8
1
  6
Continuous
 62
     7
100
AcDbCircle
 10
105.3596821387558
 20
305.6273052401031
 30
0.0
 40
1.499999999999955
100
AcDbArc
 50
102.8824414943185
 51
180.0
  0
ARC
  5
188
330
3C
100
AcDbEntity
  8
1
  6
Continuous
 62
     7
100
AcDbCircle
 10
140.8596821387558
 20
266.772062606733
 30
0.0
 40
1.0
100
AcDbArc
 50
-90.0
 51
0.0
  0
ARC
  5
189
330
3C
100
AcDbEntity
  8
1
  6
Continuous
 62
     7
100
AcDbCircle
 10
140.3596821387558
 20
305.6273052401031
 30
0.0
 40
1.5
100
AcDbArc
 50
0.0
 51
77.11755850568524
  0
ARC
  5
18A
330
3C
100
AcDbEntity
  8
1
  6
Continuous
 62
     7
100
AcDbCircle
 10
124.1557883869626
 20
342.5813674919041
 30
0.0
 40
1.500000000000032
100
AcDbArc
 50
1.58145765984656
 51
73.26033058590316
  0
ARC
  5
18B
330
3C
100
AcDbEntity
  8
1
  6
Continuous
 62
     7
100
AcDbCircle
 10
121.563575890549
 20
342.5813674919041
 30
0.0
 40
1.500000000000003
100
AcDbArc
 50
106.7396694140932
 51
178.4185423401578
  0
ARC
  5
18C
330
3C
100
AcDbEntity
  8
1
  6
Continuous
 62
     7
100
AcDbCircle
 10
124.1844457438448
 20
290.9714810890041
 30
0.0
 40
1.500000000000078
100
AcDbArc
 50
-72.87892264132796
 51
-4.3864445314508
  0
ARC
  5
18D
330
3C
100
AcDbEntity
  8
1
  6
Continuous
 62
     7
100
AcDbCircle
 10
121.5349185336671
 20
290.9714810890041
 30
0.0
 40
1.500000000000036
100
AcDbArc
 50
-175.6135554685495
 51
-107.1210773586757
  0
ENDBLK
  5
3E
330
3C
100
AcDbEntity
  8
0
100
AcDbBlockEnd
  0
BLOCK
  5
40
330
3F
100
AcDbEntity
  8
0
100
AcDbBlockBegin
  2
84-55
 70
     0
 71
     0
 10
657.475501481041
 20
789.0562925633618
 30
0.0
  3
84-55
  1

  0
CIRCLE
  5
18E
330
3F
100
AcDbEntity
  8
1
  6
Continuous
 62
     7
100
AcDbCircle
 10
122.8596821387558
 20
584.238799042713
 30
0.0
 40
9.999999999999886
  0
ENDBLK
  5
41
330
3F
100
AcDbEntity
  8
0
100
AcDbBlockEnd
  0
BLOCK
  5
43
330
42
100
AcDbEntity
  8
0
100
AcDbBlockBegin
  2
32-1-16
 70
     0
 71
     0
 10
65.33029726838163
 20
421.7578947368421
 30
0.0
  3
32-1-16
  1

  0
LINE
  5
18F
330
42
100
AcDbEntity
  8
1
  6
Continuous
 62
     7
100
AcDbLine
 10
131.609978487898
 20
560.3526206273562
 30
0.0
 11
135.6205414496573
 21
558.0371210217825
 31
0.0
  0
LINE
  5
190
330
42
100
AcDbEntity
  8
1
  6
Continuous
 62
     7
100
AcDbLine
 10
114.1093857896137
 20
560.3526206273562
 30
0.0
 11
110.0988228278545
 21
558.0371210217825
 31
0.0
  0
LINE
  5
191
330
42
100
AcDbEntity
  8
1
  6
Continuous
 62
     7
100
AcDbLine
 10
136.8596821387558
 20
214.5588853570199
 30
0.0
 11
136.8596821387558
 21
221.7003137855628
 31
0.0
  0
LINE
  5
192
330
42
100
AcDbEntity
  8
1
  6
Continuous
 62
     7
100
AcDbLine
 10
136.1596821387559
 20
222.2720626067329
 30
0.0
 11
122.8596821387557
 21
222.2720626067329
 31
0.0
  0
LINE
  5
193
330
42
100
AcDbEntity
  8
1
  6
Continuous
 62
     7
100
AcDbLine
 10
134.4177032004865
 20
213.2720626067329
 30
0.0
 11
134.3596821387558
 21
213.2720626067329
 31
0.0
  0
LINE
  5
194
330
42
100
AcDbEntity
  8
1
  6
Continuous
 62
     7
100
AcDbLine
 10
122.8596821387557
 20
212.2720626067329
 30
0.0
 11
132.627631331187
 21
212.2720626067329
 31
0.0
  0
LINE
  5
195
330
42
100
AcDbEntity
  8
1
  6
Continuous
 62
     7
100
AcDbLine
 10
131.6580041178255
 20
213.2720626067329
 30
0.0
 11
122.8596821387557
 21
213.2720626067329
 31
0.0
  0
LINE
  5
196
330
42
100
AcDbEntity
  8
1
  6
Continuous
 62
     7
100
AcDbLine
 10
108.8596821387558
 20
221.7003137855628
 30
0.0
 11
108.8596821387558
 21
214.5588853570199
 31
0.0
  0
LINE
  5
197
330
42
100
AcDbEntity
  8
1
  6
Continuous
 62
     7
100
AcDbLine
 10
122.8596821387557
 20
222.2720626067329
 30
0.0
 11
109.5596821387558
 21
222.2720626067329
 31
0.0
  0
LINE
  5
198
330
42
100
AcDbEntity
  8
1
  6
Continuous
 62
     7
100
AcDbLine
 10
111.3596821387557
 20
213.2720626067329
 30
0.0
 11
111.3016610770252
 21
213.2720626067329
 31
0.0
  0
LINE
  5
199
330
42
100
AcDbEntity
  8
1
  6
Continuous
 62
     7
100
AcDbLine
 10
113.0917329463246
 20
212.2720626067329
 30
0.0
 11
122.8596821387557
 21
212.2720626067329
 31
0.0
  0
LINE
  5
19A
330
42
100
AcDbEntity
  8
1
  6
Continuous
 62
     7
100
AcDbLine
 10
122.8596821387557
 20
213.2720626067329
 30
0.0
 11
114.0613601596862
 21
213.2720626067329
 31
0.0
  0
LINE
  5
19B
330
42
100
AcDbEntity
  8
1
  6
Continuous
 62
     7
100
AcDbLine
 10
375.1760371040505
 20
222.2720626067329
 30
0.0
 11
361.8760371040505
 21
222.2720626067329
 31
0.0
  0
LINE
  5
19C
330
42
100
AcDbEntity
  8
1
  6
Continuous
 62
     7
100
AcDbLine
 10
375.0630371040505
 20
222.2720626067329
 30
0.0
 11
375.1760371040505
 21
222.2720626067329
 31
0.0
  0
LINE
  5
19D
330
42
100
AcDbEntity
  8
1
  6
Continuous
 62
     7
100
AcDbLine
 10
373.4340581657809
 20
213.2720626067329
 30
0.0
 11
373.3760371040505
 21
213.2720626067329
 31
0.0
  0
LINE
  5
19E
330
42
100
AcDbEntity
  8
1
  6
Continuous
 62
     7
100
AcDbLine
 10
361.8760371040505
 20
212.2720626067329
 30
0.0
 11
371.6439862964816
 21
212.2720626067329
 31
0.0
  0
LINE
  5
19F
330
42
100
AcDbEntity
  8
1
  6
Continuous
 62
     7
100
AcDbLine
 10
370.6743590831201
 20
213.2720626067329
 30
0.0
 11
361.8760371040505
 21
213.2720626067329
 31
0.0
  0
LINE
  5
1A0
330
42
100
AcDbEntity
  8
1
  6
Continuous
 62
     7
100
AcDbLine
 10
110.0988228278545
 20
540.4404770636431
 30
0.0
 11
119.8596821387558
 21
534.8050423129723
 31
0.0
  0
LINE
  5
1A1
330
42
100
AcDbEntity
  8
1
  6
Continuous
 62
     7
100
AcDbLine
 10
108.8596821387558
 20
555.8908663905379
 30
0.0
 11
108.8596821387558
 21
542.5867316948879
 31
0.0
  0
LINE
  5
1A2
330
42
100
AcDbEntity
  8
1
  6
Continuous
 62
     7
100
AcDbLine
 10
136.8596821387558
 20
555.8908663905379
 30
0.0
 11
136.8596821387558
 21
542.5867316948879
 31
0.0
  0
LINE
  5
1A3
330
42
100
AcDbEntity
  8
1
  6
Continuous
 62
     7
100
AcDbLine
 10
361.8760371040505
 20
222.2720626067329
 30
0.0
 11
348.5760371040504
 21
222.2720626067329
 31
0.0
  0
LINE
  5
1A4
330
42
100
AcDbEntity
  8
1
  6
Continuous
 62
     7
100
AcDbLine
 10
348.5760371040504
 20
222.2720626067329
 30
0.0
 11
348.6890371040504
 21
222.2720626067329
 31
0.0
  0
LINE
  5
1A5
330
42
100
AcDbEntity
  8
1
  6
Continuous
 62
     7
100
AcDbLine
 10
350.3760371040505
 20
213.2720626067329
 30
0.0
 11
350.3180160423199
 21
213.2720626067329
 31
0.0
  0
LINE
  5
1A6
330
42
100
AcDbEntity
  8
1
  6
Continuous
 62
     7
100
AcDbLine
 10
352.1080879116192
 20
212.2720626067329
 30
0.0
 11
361.8760371040505
 21
212.2720626067329
 31
0.0
  0
LINE
  5
1A7
330
42
100
AcDbEntity
  8
1
  6
Continuous
 62
     7
100
AcDbLine
 10
361.8760371040505
 20
213.2720626067329
 30
0.0
 11
353.0777151249807
 21
213.2720626067329
 31
0.0
  0
LINE
  5
1A8
330
42
100
AcDbEntity
  8
1
  6
Continuous
 62
     7
100
AcDbLine
 10
125.8596821387558
 20
534.8050423129723
 30
0.0
 11
135.6205414496573
 21
540.4404770636431
 31
0.0
  0
ARC
  5
1A9
330
42
100
AcDbEntity
  8
1
  6
Continuous
 62
     7
100
AcDbCircle
 10
133.3596821387558
 20
218.1295995712913
 30
0.0
 40
5.000000000000057
100
AcDbArc
 50
45.57299599919494
 51
55.94420225743126
  0
ARC
  5
1AA
330
42
100
AcDbEntity
  8
1
  6
Continuous
 62
     7
100
AcDbCircle
 10
133.3596821387558
 20
218.1295995712913
 30
0.0
 40
4.999999999999905
100
AcDbArc
 50
-74.66244233044429
 51
-45.57299599919402
  0
ARC
  5
1AB
330
42
100
AcDbEntity
  8
1
  6
Continuous
 62
     7
100
AcDbCircle
 10
112.3596821387557
 20
218.1295995712913
 30
0.0
 40
4.999999999999953
100
AcDbArc
 50
124.0557977425669
 51
134.4270040008043
  0
ARC
  5
1AC
330
42
100
AcDbEntity
  8
1
  6
Continuous
 62
     7
100
AcDbCircle
 10
112.3596821387557
 20
218.1295995712913
 30
0.0
 40
4.999999999999906
100
AcDbArc
 50
-134.4270040008052
 51
-105.3375576695546
  0
ARC
  5
1AD
330
42
100
AcDbEntity
  8
1
  6
Continuous
 62
     7
100
AcDbCircle
 10
372.3760371040505
 20
218.1295995712913
 30
0.0
 40
4.999999999999905
100
AcDbArc
 50
-74.66244233044429
 51
55.94420225743207
  0
ARC
  5
1AE
330
42
100
AcDbEntity
  8
1
  6
Continuous
 62
     7
100
AcDbCircle
 10
122.8596821387558
 20
549.238799042713
 30
0.0
 40
15.5000000000002
100
AcDbArc
 50
-34.58537908483974
 51
-25.41462091516118
  0
ARC
  5
1AF
330
42
100
AcDbEntity
  8
1
  6
Continuous
 62
     7
100
AcDbCircle
 10
122.8596821387558
 20
549.238799042713
 30
0.0
 40
15.50000000000003
100
AcDbArc
 50
-154.5853790848388
 51
-145.4146209151598
  0
ARC
  5
1B0
330
42
100
AcDbEntity
  8
1
  6
Continuous
 62
     7
100
AcDbCircle
 10
122.8596821387558
 20
549.238799042713
 30
0.0
 40
15.49999999999977
100
AcDbArc
 50
145.4146209151612
 51
154.5853790848396
  0
ARC
  5
1B1
330
42
100
AcDbEntity
  8
1
  6
Continuous
 62
     7
100
AcDbCircle
 10
122.8596821387558
 20
549.238799042713
 30
0.0
 40
15.49999999999993
100
AcDbArc
 50
25.41462091516042
 51
34.58537908483836
  0
ARC
  5
1B2
330
42
100
AcDbEntity
  8
1
  6
Continuous
 62
     7
100
AcDbCircle
 10
351.3760371040505
 20
218.1295995712913
 30
0.0
 40
5.00000000000008
100
AcDbArc
 50
124.055797742569
 51
-105.3375576695545
  0
SPLINE
  5
1B3
330
42
100
AcDbEntity
  8
1
  6
Continuous
 62
     7
100
AcDbSpline
210
0.0
220
0.0
230
1.0
 70
    11
 71
     3
 72
    79
 73
    75
 74
    73
 42
0.0000000001
 43
0.0000000001
 44
0.00000001
 40
0.0
 40
0.0
 40
0.0
 40
0.0
 40
0.2903672562530041
 40
0.5807357597935632
 40
0.8724071051837831
 40
1.164081918217665
 40
1.458189931540191
 40
1.752302927360629
 40
2.049663207833781
 40
2.347029113126271
 40
2.648045792769427
 40
2.94906794293893
 40
3.253697753141484
 40
3.558332281909085
 40
3.866104864362529
 40
4.173881026138558
 40
4.483966067735043
 40
4.794053328113987
 40
5.105362224076081
 40
5.416671870214141
 40
5.727981516352314
 40
6.039290412314492
 40
6.349377672693447
 40
6.659462714289917
 40
6.967238876065887
 40
7.275011458519305
 40
7.579645987286882
 40
7.884275797489368
 40
8.185297947658963
 40
8.48631462730218
 40
8.783680532594714
 40
9.081040813067819
 40
9.375153808888312
 40
9.669261822210839
 40
9.960936635244648
 40
10.25260798063491
 40
10.54297648417542
 40
10.83334374042848
 40
11.12371099668154
 40
11.41407950022211
 40
11.70575084561227
 40
11.99742565864596
 40
12.2915336719687
 40
12.58564666778919
 40
12.88300694826229
 40
13.18037285355483
 40
13.481389533198
 40
13.78241168336763
 40
14.08704149357006
 40
14.39167602233767
 40
14.69944860479111
 40
15.00722476656708
 40
15.31730980816355
 40
15.6273970685425
 40
15.93870596450469
 40
16.25001561064286
 40
16.56132525678097
 40
16.87263415274302
 40
17.18272141312199
 40
17.49280645471845
 40
17.80058261649445
 40
18.10835519894794
 40
18.41298972771554
 40
18.71761953791807
 40
19.01864168808755
 40
19.31965836773073
 40
19.61702427302325
 40
19.91438455349638
 40
20.20849754931689
 40
20.50260556263955
 40
20.79428037567319
 40
21.08595172106343
 40
21.37632022460399
 40
21.66668748085705
 40
21.66668748085705
 40
21.66668748085705
 40
21.66668748085705
 10
349.7516814510683
 20
214.5588853570201
 30
0.0
 10
349.6548576413343
 20
214.5615169544229
 30
0.0
 10
349.4612096059546
 20
214.5667801605327
 30
0.0
 10
349.1728487275661
 20
214.6090752342263
 30
0.0
 10
348.8891365843199
 20
214.6762861272684
 30
0.0
 10
348.6117115219597
 20
214.7703412928203
 30
0.0
 10
348.3433906108839
 20
214.8897727507362
 30
0.0
 10
348.0853908477735
 20
215.0340482464059
 30
0.0
 10
347.8405888447513
 20
215.2016523217689
 30
0.0
 10
347.6098926199075
 20
215.39181487607
 30
0.0
 10
347.3959969128388
 20
215.6024375965098
 30
0.0
 10
347.1996233704594
 20
215.8326592124584
 30
0.0
 10
347.0230740254907
 20
216.0798956359647
 30
0.0
 10
346.8669712290106
 20
216.343129810312
 30
0.0
 10
346.7330822145883
 20
216.6194933649875
 30
0.0
 10
346.6219541977698
 20
216.9077068089371
 30
0.0
 10
346.5347634379702
 20
217.2048452521725
 30
0.0
 10
346.4719378315117
 20
217.5092684062821
 30
0.0
 10
346.4340892817376
 20
217.8182050186478
 30
0.0
 10
346.4214270197797
 20
218.1295995712915
 30
0.0
 10
346.4340892817375
 20
218.4409941239339
 30
0.0
 10
346.4719378315114
 20
218.7499307363042
 30
0.0
 10
346.5347634379706
 20
219.054353890397
 30
0.0
 10
346.6219541977697
 20
219.351492333695
 30
0.0
 10
346.7330822145883
 20
219.6397057774127
 30
0.0
 10
346.8669712290107
 20
219.916069332949
 30
0.0
 10
347.0230740254905
 20
220.1793035041154
 30
0.0
 10
347.1996233704595
 20
220.4265399394207
 30
0.0
 10
347.3959969128387
 20
220.6567615118346
 30
0.0
 10
347.6098926199075
 20
220.8673843936854
 30
0.0
 10
347.8405888447514
 20
221.0575463525926
 30
0.0
 10
348.0853908477735
 20
221.2251526362126
 30
0.0
 10
348.3433906108838
 20
221.3694199766965
 30
0.0
 10
348.6117115219599
 20
221.4888817160538
 30
0.0
 10
348.8891365843199
 20
221.5828247631221
 30
0.0
 10
349.1728487275662
 20
221.6504527355697
 30
0.0
 10
349.4612096059545
 20
221.6911978604184
 30
0.0
 10
349.7516814510682
 20
221.7048717383455
 30
0.0
 10
350.0421532961822
 20
221.6911978604184
 30
0.0
 10
350.3305141745704
 20
221.6504527355698
 30
0.0
 10
350.6142263178166
 20
221.582824763122
 30
0.0
 10
350.8916513801767
 20
221.4888817160536
 30
0.0
 10
351.1599722912528
 20
221.3694199766967
 30
0.0
 10
351.417972054363
 20
221.2251526362125
 30
0.0
 10
351.6627740573853
 20
221.0575463525927
 30
0.0
 10
351.893470282229
 20
220.8673843936854
 30
0.0
 10
352.107365989298
 20
220.6567615118347
 30
0.0
 10
352.3037395316771
 20
220.4265399394207
 30
0.0
 10
352.480288876646
 20
220.1793035041154
 30
0.0
 10
352.6363916731259
 20
219.916069332949
 30
0.0
 10
352.7702806875483
 20
219.6397057774127
 30
0.0
 10
352.881408704367
 20
219.3514923336951
 30
0.0
 10
352.9685994641662
 20
219.0543538903969
 30
0.0
 10
353.031425070625
 20
218.7499307363043
 30
0.0
 10
353.0692736203993
 20
218.4409941239339
 30
0.0
 10
353.0819358823568
 20
218.1295995712916
 30
0.0
 10
353.0692736203993
 20
217.8182050186478
 30
0.0
 10
353.031425070625
 20
217.5092684062821
 30
0.0
 10
352.9685994641664
 20
217.2048452521726
 30
0.0
 10
352.8814087043668
 20
216.907706808937
 30
0.0
 10
352.7702806875483
 20
216.6194933649875
 30
0.0
 10
352.6363916731258
 20
216.343129810312
 30
0.0
 10
352.4802888766461
 20
216.0798956359647
 30
0.0
 10
352.3037395316771
 20
215.8326592124584
 30
0.0
 10
352.1073659892981
 20
215.6024375965097
 30
0.0
 10
351.8934702822289
 20
215.3918148760701
 30
0.0
 10
351.6627740573853
 20
215.2016523217687
 30
0.0
 10
351.4179720543631
 20
215.0340482464058
 30
0.0
 10
351.1599722912528
 20
214.8897727507361
 30
0.0
 10
350.8916513801767
 20
214.7703412928203
 30
0.0
 10
350.6142263178166
 20
214.6762861272686
 30
0.0
 10
350.3305141745705
 20
214.6090752342263
 30
0.0
 10
350.0421532961822
 20
214.5667801605326
 30
0.0
 10
349.8485052608023
 20
214.5615169544229
 30
0.0
 10
349.7516814510683
 20
214.5588853570201
 30
0.0
 11
349.7516814510683
 21
214.5588853570201
 31
0.0
 11
349.4616336892702
 21
214.5725029698725
 31
0.0
 11
349.1741217647344
 21
214.613132529286
 31
0.0
 11
348.8903844548659
 21
214.6806996271245
 31
0.0
 11
348.6141109372106
 21
214.7742257732053
 31
0.0
 11
348.3453938751119
 21
214.8937693386431
 31
0.0
 11
348.088664614112
 21
215.0372703520782
 31
0.0
 11
347.8432473243299
 21
215.205179524785
 31
0.0
 11
347.6137482160772
 21
215.3942737894829
 31
0.0
 11
347.3991936570404
 21
215.6054073553125
 31
0.0
 11
347.203791837541
 21
215.834388716626
 31
0.0
 11
347.0266884324008
 21
216.0822469526235
 31
0.0
 11
346.8712517956176
 21
216.3442424641556
 31
0.0
 11
346.7369985669945
 21
216.6211901724226
 31
0.0
 11
346.6262321512073
 21
216.9083433839513
 31
0.0
 11
346.5388743957343
 21
217.2058687703986
 31
0.0
 11
346.4761777022196
 21
217.5095515550138
 31
0.0
 11
346.4382952822506
 21
217.8185469448862
 31
0.0
 11
346.4256477771559
 21
218.1295995712913
 31
0.0
 11
346.4382952822506
 21
218.4406521976965
 31
0.0
 11
346.4761777022196
 21
218.749647587569
 31
0.0
 11
346.5388743957344
 21
219.0533303721842
 31
0.0
 11
346.6262321512073
 21
219.3508557586315
 31
0.0
 11
346.7369985669945
 21
219.6380089701601
 31
0.0
 11
346.8712517956176
 21
219.9149566784271
 31
0.0
 11
347.0266884324008
 21
220.1769521899592
 31
0.0
 11
347.203791837541
 21
220.4248104259566
 31
0.0
 11
347.3991936570404
 21
220.6537917872703
 31
0.0
 11
347.6137482160772
 21
220.8649253530999
 31
0.0
 11
347.84324732433
 21
221.0540196177978
 31
0.0
 11
348.088664614112
 21
221.2219287905046
 31
0.0
 11
348.3453938751119
 21
221.3654298039398
 31
0.0
 11
348.6141109372106
 21
221.4849733693776
 31
0.0
 11
348.8903844548659
 21
221.5784995154583
 31
0.0
 11
349.1741217647344
 21
221.6460666132968
 31
0.0
 11
349.4616336892701
 21
221.6866961727103
 31
0.0
 11
349.7516814510683
 21
221.7003137855628
 31
0.0
 11
350.0417292128665
 21
221.6866961727103
 31
0.0
 11
350.3292411374022
 21
221.6460666132968
 31
0.0
 11
350.6129784472707
 21
221.5784995154583
 31
0.0
 11
350.8892519649258
 21
221.4849733693776
 31
0.0
 11
351.1579690270247
 21
221.3654298039398
 31
0.0
 11
351.4146982880246
 21
221.2219287905046
 31
0.0
 11
351.6601155778067
 21
221.0540196177978
 31
0.0
 11
351.8896146860594
 21
220.8649253530999
 31
0.0
 11
352.1041692450962
 21
220.6537917872703
 31
0.0
 11
352.2995710645956
 21
220.4248104259566
 31
0.0
 11
352.4766744697358
 21
220.1769521899593
 31
0.0
 11
352.632111106519
 21
219.9149566784271
 31
0.0
 11
352.7663643351421
 21
219.6380089701601
 31
0.0
 11
352.8771307509293
 21
219.3508557586315
 31
0.0
 11
352.9644885064023
 21
219.0533303721842
 31
0.0
 11
353.027185199917
 21
218.749647587569
 31
0.0
 11
353.0650676198861
 21
218.4406521976965
 31
0.0
 11
353.0777151249807
 21
218.1295995712913
 31
0.0
 11
353.0650676198861
 21
217.8185469448862
 31
0.0
 11
353.027185199917
 21
217.5095515550138
 31
0.0
 11
352.9644885064024
 21
217.2058687703986
 31
0.0
 11
352.8771307509293
 21
216.9083433839513
 31
0.0
 11
352.7663643351422
 21
216.6211901724226
 31
0.0
 11
352.632111106519
 21
216.3442424641556
 31
0.0
 11
352.4766744697358
 21
216.0822469526235
 31
0.0
 11
352.2995710645956
 21
215.834388716626
 31
0.0
 11
352.1041692450963
 21
215.6054073553125
 31
0.0
 11
351.8896146860594
 21
215.3942737894829
 31
0.0
 11
351.6601155778067
 21
215.2051795247849
 31
0.0
 11
351.4146982880246
 21
215.0372703520782
 31
0.0
 11
351.1579690270247
 21
214.893769338643
 31
0.0
 11
350.8892519649258
 21
214.7742257732053
 31
0.0
 11
350.6129784472707
 21
214.6806996271246
 31
0.0
 11
350.3292411374022
 21
214.613132529286
 31
0.0
 11
350.0417292128665
 21
214.5725029698725
 31
0.0
 11
349.7516814510683
 21
214.5588853570201
 31
0.0
  0
SPLINE
  5
1B4
330
42
100
AcDbEntity
  8
1
  6
Continuous
 62
     7
100
AcDbSpline
210
0.0
220
0.0
230
1.0
 70
    11
 71
     3
 72
    79
 73
    75
 74
    73
 42
0.0000000001
 43
0.0000000001
 44
0.00000001
 40
0.0
 40
0.0
 40
0.0
 40
0.0
 40
0.2903672562530055
 40
0.5807357597935042
 40
0.8724071051838347
 40
1.164081918217609
 40
1.458189931540135
 40
1.752302927360523
 40
2.049663207833863
 40
2.347029113126441
 40
2.648045792769476
 40
2.949067942938874
 40
3.253697753141452
 40
3.558332281909086
 40
3.866104864362579
 40
4.173881026138608
 40
4.483966067735078
 40
4.794053328114033
 40
5.105362224076141
 40
5.416671870214201
 40
5.727981516352372
 40
6.039290412314572
 40
6.349377672693544
 40
6.659462714290002
 40
6.967238876065972
 40
7.27501145851944
 40
7.579645987286997
 40
7.884275797489562
 40
8.185297947658967
 40
8.486314627302143
 40
8.783680532594721
 40
9.081040813068061
 40
9.375153808888504
 40
9.669261822211031
 40
9.960936635244787
 40
10.25260798063511
 40
10.54297648417567
 40
10.83334374042862
 40
11.12371099668151
 40
11.41407950022202
 40
11.70575084561224
 40
11.99742565864604
 40
12.29153367196871
 40
12.58564666778931
 40
12.88300694826256
 40
13.18037285355505
 40
13.48138953319827
 40
13.78241168336779
 40
14.08704149357027
 40
14.39167602233782
 40
14.69944860479129
 40
15.00722476656726
 40
15.31730980816374
 40
15.62739706854269
 40
15.93870596450486
 40
16.25001561064304
 40
16.56132525678115
 40
16.87263415274319
 40
17.18272141312217
 40
17.49280645471862
 40
17.80058261649466
 40
18.10835519894813
 40
18.41298972771573
 40
18.71761953791825
 40
19.01864168808772
 40
19.31965836773084
 40
19.61702427302341
 40
19.91438455349658
 40
20.20849754931714
 40
20.5026055626398
 40
20.79428037567357
 40
21.08595172106385
 40
21.3763202246043
 40
21.66668748085724
 40
21.66668748085724
 40
21.66668748085724
 40
21.66668748085724
 10
374.0003927570326
 20
214.5588853570201
 30
0.0
 10
374.0972165667666
 20
214.5615169544229
 30
0.0
 10
374.2908646021464
 20
214.5667801605326
 30
0.0
 10
374.5792254805347
 20
214.6090752342263
 30
0.0
 10
374.8629376237809
 20
214.6762861272684
 30
0.0
 10
375.1403626861412
 20
214.7703412928203
 30
0.0
 10
375.408683597217
 20
214.8897727507362
 30
0.0
 10
375.6666833603273
 20
215.0340482464059
 30
0.0
 10
375.9114853633496
 20
215.2016523217689
 30
0.0
 10
376.1421815881935
 20
215.3918148760699
 30
0.0
 10
376.3560772952623
 20
215.6024375965097
 30
0.0
 10
376.5524508376414
 20
215.8326592124585
 30
0.0
 10
376.7290001826102
 20
216.0798956359647
 30
0.0
 10
376.8851029790903
 20
216.343129810312
 30
0.0
 10
377.0189919935128
 20
216.6194933649875
 30
0.0
 10
377.1301200103312
 20
216.9077068089371
 30
0.0
 10
377.2173107701306
 20
217.2048452521726
 30
0.0
 10
377.2801363765894
 20
217.5092684062821
 30
0.0
 10
377.3179849263638
 20
217.8182050186477
 30
0.0
 10
377.3306471883213
 20
218.1295995712916
 30
0.0
 10
377.3179849263638
 20
218.4409941239339
 30
0.0
 10
377.2801363765892
 20
218.7499307363042
 30
0.0
 10
377.2173107701308
 20
219.054353890397
 30
0.0
 10
377.1301200103312
 20
219.3514923336951
 30
0.0
 10
377.0189919935127
 20
219.6397057774126
 30
0.0
 10
376.8851029790902
 20
219.9160693329491
 30
0.0
 10
376.7290001826102
 20
220.1793035041153
 30
0.0
 10
376.5524508376414
 20
220.4265399394206
 30
0.0
 10
376.3560772952624
 20
220.6567615118346
 30
0.0
 10
376.1421815881935
 20
220.8673843936855
 30
0.0
 10
375.9114853633497
 20
221.0575463525926
 30
0.0
 10
375.6666833603272
 20
221.2251526362125
 30
0.0
 10
375.408683597217
 20
221.3694199766965
 30
0.0
 10
375.1403626861412
 20
221.4888817160538
 30
0.0
 10
374.8629376237809
 20
221.5828247631221
 30
0.0
 10
374.5792254805348
 20
221.6504527355698
 30
0.0
 10
374.2908646021462
 20
221.6911978604182
 30
0.0
 10
374.0003927570326
 20
221.7048717383456
 30
0.0
 10
373.7099209119189
 20
221.6911978604183
 30
0.0
 10
373.4215600335308
 20
221.6504527355698
 30
0.0
 10
373.1378478902844
 20
221.582824763122
 30
0.0
 10
372.8604228279243
 20
221.4888817160537
 30
0.0
 10
372.5921019168482
 20
221.3694199766966
 30
0.0
 10
372.3341021537378
 20
221.2251526362126
 30
0.0
 10
372.0893001507155
 20
221.0575463525927
 30
0.0
 10
371.8586039258718
 20
220.8673843936854
 30
0.0
 10
371.6447082188028
 20
220.6567615118347
 30
0.0
 10
371.4483346764239
 20
220.4265399394207
 30
0.0
 10
371.2717853314549
 20
220.1793035041154
 30
0.0
 10
371.115682534975
 20
219.9160693329489
 30
0.0
 10
370.9817935205526
 20
219.6397057774128
 30
0.0
 10
370.8706655037339
 20
219.351492333695
 30
0.0
 10
370.7834747439346
 20
219.054353890397
 30
0.0
 10
370.7206491374758
 20
218.7499307363042
 30
0.0
 10
370.6828005877017
 20
218.4409941239339
 30
0.0
 10
370.670138325744
 20
218.1295995712916
 30
0.0
 10
370.6828005877017
 20
217.8182050186478
 30
0.0
 10
370.7206491374757
 20
217.5092684062821
 30
0.0
 10
370.7834747439347
 20
217.2048452521726
 30
0.0
 10
370.8706655037339
 20
216.907706808937
 30
0.0
 10
370.9817935205526
 20
216.6194933649875
 30
0.0
 10
371.1156825349751
 20
216.343129810312
 30
0.0
 10
371.2717853314549
 20
216.0798956359647
 30
0.0
 10
371.4483346764238
 20
215.8326592124585
 30
0.0
 10
371.6447082188028
 20
215.6024375965097
 30
0.0
 10
371.8586039258718
 20
215.3918148760701
 30
0.0
 10
372.0893001507155
 20
215.2016523217687
 30
0.0
 10
372.3341021537378
 20
215.0340482464059
 30
0.0
 10
372.5921019168482
 20
214.8897727507361
 30
0.0
 10
372.8604228279243
 20
214.7703412928204
 30
0.0
 10
373.1378478902845
 20
214.6762861272684
 30
0.0
 10
373.4215600335306
 20
214.6090752342263
 30
0.0
 10
373.7099209119189
 20
214.5667801605326
 30
0.0
 10
373.9035689472987
 20
214.5615169544229
 30
0.0
 10
374.0003927570326
 20
214.5588853570201
 30
0.0
 11
374.0003927570326
 21
214.5588853570201
 31
0.0
 11
374.2904405188307
 21
214.5725029698726
 31
0.0
 11
374.5779524433664
 21
214.613132529286
 31
0.0
 11
374.8616897532351
 21
214.6806996271245
 31
0.0
 11
375.1379632708902
 21
214.7742257732053
 31
0.0
 11
375.4066803329889
 21
214.8937693386431
 31
0.0
 11
375.6634095939888
 21
215.0372703520782
 31
0.0
 11
375.9088268837711
 21
215.205179524785
 31
0.0
 11
376.1383259920239
 21
215.3942737894829
 31
0.0
 11
376.3528805510606
 21
215.6054073553124
 31
0.0
 11
376.5482823705598
 21
215.834388716626
 31
0.0
 11
376.7253857757
 21
216.0822469526235
 31
0.0
 11
376.8808224124833
 21
216.3442424641556
 31
0.0
 11
377.0150756411065
 21
216.6211901724226
 31
0.0
 11
377.1258420568937
 21
216.9083433839513
 31
0.0
 11
377.2131998123667
 21
217.2058687703986
 31
0.0
 11
377.2758965058814
 21
217.5095515550138
 31
0.0
 11
377.3137789258506
 21
217.8185469448862
 31
0.0
 11
377.3264264309452
 21
218.1295995712913
 31
0.0
 11
377.3137789258506
 21
218.4406521976965
 31
0.0
 11
377.2758965058814
 21
218.749647587569
 31
0.0
 11
377.2131998123667
 21
219.0533303721842
 31
0.0
 11
377.1258420568937
 21
219.3508557586315
 31
0.0
 11
377.0150756411065
 21
219.6380089701601
 31
0.0
 11
376.8808224124833
 21
219.9149566784271
 31
0.0
 11
376.7253857757001
 21
220.1769521899592
 31
0.0
 11
376.5482823705598
 21
220.4248104259566
 31
0.0
 11
376.3528805510607
 21
220.6537917872702
 31
0.0
 11
376.1383259920239
 21
220.8649253530999
 31
0.0
 11
375.9088268837711
 21
221.0540196177978
 31
0.0
 11
375.6634095939888
 21
221.2219287905046
 31
0.0
 11
375.4066803329889
 21
221.3654298039398
 31
0.0
 11
375.1379632708902
 21
221.4849733693776
 31
0.0
 11
374.8616897532351
 21
221.5784995154583
 31
0.0
 11
374.5779524433664
 21
221.6460666132968
 31
0.0
 11
374.2904405188307
 21
221.6866961727103
 31
0.0
 11
374.0003927570326
 21
221.7003137855628
 31
0.0
 11
373.7103449952346
 21
221.6866961727103
 31
0.0
 11
373.4228330706989
 21
221.6460666132968
 31
0.0
 11
373.1390957608304
 21
221.5784995154583
 31
0.0
 11
372.8628222431752
 21
221.4849733693776
 31
0.0
 11
372.5941051810763
 21
221.3654298039399
 31
0.0
 11
372.3373759200763
 21
221.2219287905046
 31
0.0
 11
372.0919586302941
 21
221.0540196177978
 31
0.0
 11
371.8624595220414
 21
220.8649253530999
 31
0.0
 11
371.6479049630045
 21
220.6537917872703
 31
0.0
 11
371.4525031435053
 21
220.4248104259566
 31
0.0
 11
371.2753997383651
 21
220.1769521899592
 31
0.0
 11
371.1199631015819
 21
219.9149566784271
 31
0.0
 11
370.9857098729588
 21
219.6380089701601
 31
0.0
 11
370.8749434571715
 21
219.3508557586315
 31
0.0
 11
370.7875857016985
 21
219.0533303721842
 31
0.0
 11
370.7248890081838
 21
218.749647587569
 31
0.0
 11
370.6870065882148
 21
218.4406521976965
 31
0.0
 11
370.6743590831201
 21
218.1295995712913
 31
0.0
 11
370.6870065882148
 21
217.8185469448862
 31
0.0
 11
370.7248890081838
 21
217.5095515550138
 31
0.0
 11
370.7875857016986
 21
217.2058687703986
 31
0.0
 11
370.8749434571715
 21
216.9083433839513
 31
0.0
 11
370.9857098729588
 21
216.6211901724226
 31
0.0
 11
371.1199631015819
 21
216.3442424641556
 31
0.0
 11
371.2753997383651
 21
216.0822469526235
 31
0.0
 11
371.4525031435053
 21
215.834388716626
 31
0.0
 11
371.6479049630046
 21
215.6054073553124
 31
0.0
 11
371.8624595220414
 21
215.3942737894829
 31
0.0
 11
372.0919586302941
 21
215.2051795247849
 31
0.0
 11
372.3373759200763
 21
215.0372703520782
 31
0.0
 11
372.5941051810763
 21
214.893769338643
 31
0.0
 11
372.8628222431752
 21
214.7742257732053
 31
0.0
 11
373.1390957608303
 21
214.6806996271245
 31
0.0
 11
373.4228330706989
 21
214.613132529286
 31
0.0
 11
373.7103449952346
 21
214.5725029698725
 31
0.0
 11
374.0003927570326
 21
214.5588853570201
 31
0.0
  0
SPLINE
  5
1B5
330
42
100
AcDbEntity
  8
1
  6
Continuous
 62
     7
100
AcDbSpline
210
0.0
220
0.0
230
1.0
 70
     8
 71
     3
 72
    25
 73
    21
 74
    19
 42
0.0000000001
 43
0.0000000001
 44
0.00000001
 40
0.0
 40
0.0
 40
0.0
 40
0.0
 40
1.525997370510122
 40
3.041992003908279
 40
4.036425737836233
 40
5.033630630935357
 40
5.779988211950928
 40
6.525153434394562
 40
7.113139666336486
 40
7.696814705995136
 40
7.949097156283874
 40
8.201245184936061
 40
8.846896632263388
 40
9.49990991980135
 40
10.24994291556186
 40
11.00216046997814
 40
12.12686677425061
 40
13.2481259941516
 40
14.81779815243862
 40
16.39782997493273
 40
16.39782997493273
 40
16.39782997493273
 40
16.39782997493273
 10
361.8760371040505
 20
221.7002971364274
 30
0.0
 10
361.3684882760625
 20
221.6669792677522
 30
0.0
 10
360.3567175442318
 20
221.6005619251957
 30
0.0
 10
359.0230551221711
 20
221.3866416506648
 30
0.0
 10
357.9079927788446
 20
221.0238022152733
 30
0.0
 10
357.0827973145595
 20
220.6271585382994
 30
0.0
 10
356.3852549901435
 20
220.1739493122372
 30
0.0
 10
355.8720471858639
 20
219.7008467215919
 30
0.0
 10
355.4952397770644
 20
219.180285940156
 30
0.0
 10
355.3060214091977
 20
218.7385678227116
 30
0.0
 10
355.234602005659
 20
218.3820264606118
 30
0.0
 10
355.2092078086574
 20
217.9983357789434
 30
0.0
 10
355.3079646484557
 20
217.4805822310613
 30
0.0
 10
355.6180570793922
 20
216.8645042241364
 30
0.0
 10
356.098632420303
 20
216.3203652588848
 30
0.0
 10
356.8011578021303
 20
215.792394757738
 30
0.0
 10
357.686268146305
 20
215.3179272009756
 30
0.0
 10
358.8931523202546
 20
214.901249266129
 30
0.0
 10
360.3031507554655
 20
214.6659308237805
 30
0.0
 10
361.3505932764671
 20
214.5945768660732
 30
0.0
 10
361.8760371040505
 20
214.558782542376
 30
0.0
 11
361.8760371040505
 21
221.7002971364274
 31
0.0
 11
360.3550706030305
 21
221.5764872919932
 31
0.0
 11
358.8621812593252
 21
221.3128186819101
 31
0.0
 11
357.917070998195
 21
221.0035210170625
 31
0.0
 11
357.0192327795922
 21
220.5695807768945
 31
0.0
 11
356.3974277665307
 21
220.1567755389542
 31
0.0
 11
355.8541711897589
 21
219.6467328931551
 31
0.0
 11
355.5131872179014
 21
219.1677154196852
 31
0.0
 11
355.289389874188
 21
218.6286502094672
 31
0.0
 11
355.2400888705386
 21
218.3812318476529
 31
0.0
 11
355.2239697562254
 21
218.1295995712913
 31
0.0
 11
355.3356407615257
 21
217.4936786815486
 31
0.0
 11
355.6251385043282
 21
216.9083433839513
 31
0.0
 11
356.1147912511594
 21
216.3401975556201
 31
0.0
 11
356.7099200130152
 21
215.8801399440278
 31
0.0
 11
357.6991605705886
 21
215.3450068856936
 31
0.0
 11
358.7577840414182
 21
214.9754956068106
 31
0.0
 11
360.3016211722988
 21
214.6918803783485
 31
0.0
 11
361.8760371040505
 21
214.558782542376
 31
0.0
  0
SPLINE
  5
1B6
330
42
100
AcDbEntity
  8
1
  6
Continuous
 62
     7
100
AcDbSpline
210
0.0
220
0.0
230
1.0
 70
     8
 71
     3
 72
    25
 73
    21
 74
    19
 42
0.0000000001
 43
0.0000000001
 44
0.00000001
 40
0.0
 40
0.0
 40
0.0
 40
0.0
 40
1.525997370509954
 40
3.041992003907994
 40
4.036425737835894
 40
5.03363063093512
 40
5.779988211950707
 40
6.525153434394321
 40
7.113139666336245
 40
7.696814705994895
 40
7.949097156283655
 40
8.201245184935836
 40
8.846896632263151
 40
9.499909919801141
 40
10.24994291556165
 40
11.00216046997793
 40
12.1268667742504
 40
13.24812599415139
 40
14.81779815243829
 40
16.39782997493229
 40
16.39782997493229
 40
16.39782997493229
 40
16.39782997493229
 10
361.8760371040505
 20
221.7002971364274
 30
0.0
 10
362.3835859320385
 20
221.6669792677522
 30
0.0
 10
363.395356663869
 20
221.6005619251957
 30
0.0
 10
364.7290190859297
 20
221.3866416506648
 30
0.0
 10
365.8440814292561
 20
221.0238022152732
 30
0.0
 10
366.6692768935413
 20
220.6271585382995
 30
0.0
 10
367.3668192179572
 20
220.1739493122371
 30
0.0
 10
367.8800270222369
 20
219.700846721592
 30
0.0
 10
368.2568344310366
 20
219.180285940156
 30
0.0
 10
368.4460527989029
 20
218.7385678227116
 30
0.0
 10
368.5174722024418
 20
218.3820264606118
 30
0.0
 10
368.5428663994433
 20
217.9983357789435
 30
0.0
 10
368.4441095596453
 20
217.4805822310613
 30
0.0
 10
368.1340171287085
 20
216.8645042241365
 30
0.0
 10
367.6534417877978
 20
216.3203652588848
 30
0.0
 10
366.9509164059705
 20
215.792394757738
 30
0.0
 10
366.0658060617957
 20
215.3179272009756
 30
0.0
 10
364.8589218878462
 20
214.901249266129
 30
0.0
 10
363.4489234526354
 20
214.6659308237805
 30
0.0
 10
362.4014809316338
 20
214.5945768660732
 30
0.0
 10
361.8760371040505
 20
214.558782542376
 30
0.0
 11
361.8760371040505
 21
221.7002971364274
 31
0.0
 11
363.3970036050703
 21
221.5764872919931
 31
0.0
 11
364.8898929487755
 21
221.3128186819101
 31
0.0
 11
365.8350032099057
 21
221.0035210170625
 31
0.0
 11
366.7328414285086
 21
220.5695807768945
 31
0.0
 11
367.3546464415701
 21
220.1567755389542
 31
0.0
 11
367.8979030183419
 21
219.6467328931551
 31
0.0
 11
368.2388869901994
 21
219.1677154196852
 31
0.0
 11
368.4626843339128
 21
218.6286502094672
 31
0.0
 11
368.5119853375624
 21
218.3812318476529
 31
0.0
 11
368.5281044518754
 21
218.1295995712913
 31
0.0
 11
368.4164334465752
 21
217.4936786815486
 31
0.0
 11
368.1269357037726
 21
216.9083433839513
 31
0.0
 11
367.6372829569414
 21
216.3401975556201
 31
0.0
 11
367.0421541950856
 21
215.8801399440278
 31
0.0
 11
366.0529136375122
 21
215.3450068856936
 31
0.0
 11
364.9942901666826
 21
214.9754956068106
 31
0.0
 11
363.4504530358021
 21
214.6918803783486
 31
0.0
 11
361.8760371040505
 21
214.558782542376
 31
0.0
  0
SPLINE
  5
1B7
330
42
100
AcDbEntity
  8
1
  6
Continuous
 62
     7
100
AcDbSpline
210
0.0
220
0.0
230
1.0
 70
    11
 71
     3
 72
    79
 73
    75
 74
    73
 42
0.0000000001
 43
0.0000000001
 44
0.00000001
 40
0.0
 40
0.0
 40
0.0
 40
0.0
 40
0.3210813131182274
 40
0.641895145134056
 40
0.9828988941044429
 40
1.323531056221027
 40
1.692967059529089
 40
2.062075182676601
 40
2.463733858567289
 40
2.865152866614745
 40
3.298564783375462
 40
3.731815227792648
 40
4.193131264618897
 40
4.654344171660692
 40
5.137240970539756
 40
5.620077103492295
 40
6.116559529336366
 40
6.613013907632091
 40
7.11412123439227
 40
7.615228561152504
 40
8.111682939448368
 40
8.608165365292443
 40
9.091001498244923
 40
9.57389829712389
 40
10.03511120416563
 40
10.49642724099191
 40
10.92967768540913
 40
11.36308960216981
 40
11.76450861021725
 40
12.16616728610806
 40
12.53527540925567
 40
12.90471141256363
 40
13.24534357468009
 40
13.58634732365047
 40
13.90716115566628
 40
14.22824246878454
 40
14.54200445402323
 40
14.85576643926204
 40
15.17684775238037
 40
15.49766158439611
 40
15.8386653333664
 40
16.17929749548297
 40
16.54873349879112
 40
16.91784162193871
 40
17.3195002978294
 40
17.72091930587684
 40
18.15433122263746
 40
18.5875816670547
 40
19.04889770388097
 40
19.51011061092272
 40
19.99300740980169
 40
20.47584354275422
 40
20.97232596859833
 40
21.46878034689411
 40
21.96988767365434
 40
22.47099500041455
 40
22.9674493787103
 40
23.46393180455437
 40
23.94676793750689
 40
24.42966473638591
 40
24.89087764342771
 40
25.352193680254
 40
25.78544412467124
 40
26.21885604143186
 40
26.62027504947927
 40
27.02193372537002
 40
27.39104184851755
 40
27.76047785182557
 40
28.1011100139421
 40
28.44211376291248
 40
28.76292759492834
 40
29.08400890804663
 40
29.39777089328536
 40
29.71153287852403
 40
29.71153287852403
 40
29.71153287852403
 40
29.71153287852403
 10
135.5980504678554
 20
217.8166447197256
 30
0.0
 10
135.5787706166587
 20
217.7111836342137
 30
0.0
 10
135.5402269756042
 20
217.5003493189642
 30
0.0
 10
135.4251736635278
 20
217.192009694685
 30
0.0
 10
135.2727851971913
 20
216.8939216012379
 30
0.0
 10
135.0757085527943
 20
216.6032495174147
 30
0.0
 10
134.8425220428825
 20
216.3284839393196
 30
0.0
 10
134.5683535763121
 20
216.0644549943285
 30
0.0
 10
134.2628103762039
 20
215.8200710184369
 30
0.0
 10
133.9201927852984
 20
215.5901994441799
 30
0.0
 10
133.5514965685228
 20
215.3826321920474
 30
0.0
 10
133.1509418263805
 20
215.1934152324718
 30
0.0
 10
132.7298373292281
 20
215.0284506173184
 30
0.0
 10
132.2834790232669
 20
214.885266595687
 30
0.0
 10
131.8222831654336
 20
214.7677393687496
 30
0.0
 10
131.3435880690778
 20
214.6746555622483
 30
0.0
 10
130.8559207600809
 20
214.6081527636872
 30
0.0
 10
130.35930295433
 20
214.5677672012296
 30
0.0
 10
129.8596821387585
 20
214.5544237210272
 30
0.0
 10
129.3600613231709
 20
214.5677672012282
 30
0.0
 10
128.8634435174675
 20
214.6081527636924
 30
0.0
 10
128.375776208298
 20
214.6746555622286
 30
0.0
 10
127.8970811125691
 20
214.7677393688205
 30
0.0
 10
127.4358852524445
 20
214.8852665954276
 30
0.0
 10
126.9895269546681
 20
215.0284506182382
 30
0.0
 10
126.5684224278747
 20
215.1934152291214
 30
0.0
 10
126.1678677899468
 20
215.3826322037103
 30
0.0
 10
125.7991711987592
 20
215.5901994019044
 30
0.0
 10
125.4565549072816
 20
215.820071163359
 30
0.0
 10
125.1510070636425
 20
216.0644544702968
 30
0.0
 10
124.8768545979643
 20
216.3284857204
 30
0.0
 10
124.6436109329824
 20
216.6032430646513
 30
0.0
 10
124.4467318995141
 20
216.8939436165964
 30
0.0
 10
124.2936323572989
 20
217.1919292714033
 30
0.0
 10
124.181084886789
 20
217.500629890916
 30
0.0
 10
124.1145333764279
 20
217.8132005281526
 30
0.0
 10
124.0910581197407
 20
218.1295995712914
 30
0.0
 10
124.1145333764279
 20
218.4459986144301
 30
0.0
 10
124.1810848867891
 20
218.7585692516668
 30
0.0
 10
124.2936323572989
 20
219.0672698711795
 30
0.0
 10
124.4467318995142
 20
219.3652555259864
 30
0.0
 10
124.6436109329824
 20
219.6559560779314
 30
0.0
 10
124.8768545979643
 20
219.930713422183
 30
0.0
 10
125.1510070636425
 20
220.1947446722862
 30
0.0
 10
125.4565549072816
 20
220.4391279792239
 30
0.0
 10
125.7991711987591
 20
220.6689997406784
 30
0.0
 10
126.1678677899468
 20
220.8765669388725
 30
0.0
 10
126.5684224278747
 20
221.0657839134614
 30
0.0
 10
126.9895269546681
 20
221.2307485243446
 30
0.0
 10
127.4358852524446
 20
221.3739325471552
 30
0.0
 10
127.8970811125691
 20
221.4914597737624
 30
0.0
 10
128.3757762082981
 20
221.5845435803543
 30
0.0
 10
128.8634435174674
 20
221.6510463788904
 30
0.0
 10
129.3600613231716
 20
221.6914319413548
 30
0.0
 10
129.859682138756
 20
221.7047754215551
 30
0.0
 10
130.3593029543393
 20
221.6914319413548
 30
0.0
 10
130.8559207600468
 20
221.6510463788898
 30
0.0
 10
131.3435880692039
 20
221.5845435803556
 30
0.0
 10
131.8222831649773
 20
221.4914597737573
 30
0.0
 10
132.2834790249394
 20
221.3739325471736
 30
0.0
 10
132.7298373232966
 20
221.2307485242793
 30
0.0
 10
133.1509418479866
 20
221.0657839136991
 30
0.0
 10
133.55149649331
 20
220.8765669380448
 30
0.0
 10
133.9201930579279
 20
220.6689997436785
 30
0.0
 10
134.2628094416179
 20
220.4391279689394
 30
0.0
 10
134.5683569557333
 20
220.1947447094735
 30
0.0
 10
134.8425105568997
 20
219.9307132957901
 30
0.0
 10
135.0757501659258
 20
219.6559565358459
 30
0.0
 10
135.2726432226679
 20
219.3652539636872
 30
0.0
 10
135.4256923040518
 20
219.067275578342
 30
0.0
 10
135.5384175992527
 20
218.758549341142
 30
0.0
 10
135.6043185452397
 20
218.446072425169
 30
0.0
 10
135.6301700544038
 20
218.1293310555922
 30
0.0
 10
135.6087569967049
 20
217.9208734983478
 30
0.0
 10
135.5980504678554
 20
217.8166447197256
 30
0.0
 11
135.5980504678554
 21
217.8166447197256
 31
0.0
 11
135.5310549261527
 21
217.5026306961125
 31
0.0
 11
135.4221000940083
 21
217.2008851752426
 31
0.0
 11
135.2666752274309
 21
216.897361423847
 31
0.0
 11
135.0764395033252
 21
216.6148005646641
 31
0.0
 11
134.8379462067699
 21
216.3326589193183
 31
0.0
 11
134.572609077665
 21
216.076071673938
 31
0.0
 11
134.2594477204433
 21
215.8245569501914
 31
0.0
 11
133.9264206012624
 21
215.6004360945981
 31
0.0
 11
133.5490922385441
 21
215.3872010217829
 31
0.0
 11
133.1575245693506
 21
215.201780666832
 31
0.0
 11
132.7281912176115
 21
215.0330046053851
 31
0.0
 11
132.289102129111
 21
214.8918730427149
 31
0.0
 11
131.8212562387101
 21
214.7722505481637
 31
0.0
 11
131.3473242112113
 21
214.6799512274976
 31
0.0
 11
130.8554275045177
 21
214.6126279097244
 31
0.0
 11
130.3606079525355
 21
214.5723717213173
 31
0.0
 11
129.8596821387558
 21
214.5588853570199
 31
0.0
 11
129.3587563249762
 21
214.5723717213172
 31
0.0
 11
128.8639367729938
 21
214.6126279097243
 31
0.0
 11
128.3720400663001
 21
214.6799512274976
 31
0.0
 11
127.8981080388014
 21
214.7722505481637
 31
0.0
 11
127.4302621484006
 21
214.8918730427149
 31
0.0
 11
126.9911730599002
 21
215.0330046053851
 31
0.0
 11
126.561839708161
 21
215.201780666832
 31
0.0
 11
126.1702720389675
 21
215.3872010217829
 31
0.0
 11
125.7929436762493
 21
215.6004360945981
 31
0.0
 11
125.4599165570684
 21
215.8245569501914
 31
0.0
 11
125.1467551998466
 21
216.0760716739381
 31
0.0
 11
124.8814180707417
 21
216.3326589193185
 31
0.0
 11
124.6429247741864
 21
216.6148005646641
 31
0.0
 11
124.4526890500808
 21
216.897361423847
 31
0.0
 11
124.2972641835034
 21
217.2008851752426
 31
0.0
 11
124.188309351359
 21
217.5026306961125
 31
0.0
 11
124.1213138096562
 21
217.8166447197256
 31
0.0
 11
124.0988228278543
 21
218.1295995712913
 31
0.0
 11
124.1213138096563
 21
218.4425544228571
 31
0.0
 11
124.1883093513591
 21
218.7565684464703
 31
0.0
 11
124.2972641835035
 21
219.0583139673402
 31
0.0
 11
124.4526890500808
 21
219.3618377187357
 31
0.0
 11
124.6429247741864
 21
219.6443985779187
 31
0.0
 11
124.8814180707417
 21
219.9265402232645
 31
0.0
 11
125.1467551998467
 21
220.1831274686449
 31
0.0
 11
125.4599165570684
 21
220.4346421923915
 31
0.0
 11
125.7929436762493
 21
220.6587630479848
 31
0.0
 11
126.1702720389675
 21
220.8719981207999
 31
0.0
 11
126.561839708161
 21
221.0574184757508
 31
0.0
 11
126.9911730599002
 21
221.2261945371977
 31
0.0
 11
127.4302621484006
 21
221.367326099868
 31
0.0
 11
127.8981080388014
 21
221.4869485944191
 31
0.0
 11
128.3720400663002
 21
221.5792479150853
 31
0.0
 11
128.8639367729938
 21
221.6465712328586
 31
0.0
 11
129.3587563249762
 21
221.6868274212656
 31
0.0
 11
129.8596821387558
 21
221.7003137855629
 31
0.0
 11
130.3606079525355
 21
221.6868274212656
 31
0.0
 11
130.8554275045178
 21
221.6465712328584
 31
0.0
 11
131.3473242112114
 21
221.5792479150852
 31
0.0
 11
131.8212562387102
 21
221.4869485944191
 31
0.0
 11
132.289102129111
 21
221.367326099868
 31
0.0
 11
132.7281912176115
 21
221.2261945371978
 31
0.0
 11
133.1575245693507
 21
221.0574184757508
 31
0.0
 11
133.5490922385442
 21
220.8719981207999
 31
0.0
 11
133.9264206012624
 21
220.6587630479847
 31
0.0
 11
134.2594477204432
 21
220.4346421923914
 31
0.0
 11
134.5726090776649
 21
220.1831274686447
 31
0.0
 11
134.8379462067699
 21
219.9265402232644
 31
0.0
 11
135.0764395033252
 21
219.6443985779187
 31
0.0
 11
135.2666752274308
 21
219.3618377187358
 31
0.0
 11
135.4221000940081
 21
219.0583139673401
 31
0.0
 11
135.5310549261525
 21
218.7565684464702
 31
0.0
 11
135.5980504678553
 21
218.442554422857
 31
0.0
 11
135.6205414496573
 21
218.1295995712913
 31
0.0
 11
135.5980504678554
 21
217.8166447197256
 31
0.0
  0
SPLINE
  5
1B8
330
42
100
AcDbEntity
  8
1
  6
Continuous
 62
     7
100
AcDbSpline
210
0.0
220
0.0
230
1.0
 70
    11
 71
     3
 72
    79
 73
    75
 74
    73
 42
0.0000000001
 43
0.0000000001
 44
0.00000001
 40
0.0
 40
0.0
 40
0.0
 40
0.0
 40
0.3210813131182274
 40
0.6418951451340753
 40
0.9828988941044686
 40
1.323531056221005
 40
1.692967059529021
 40
2.062075182676553
 40
2.463733858567286
 40
2.865152866614765
 40
3.298564783375458
 40
3.731815227792696
 40
4.193131264618997
 40
4.654344171660751
 40
5.137240970539732
 40
5.62007710349223
 40
6.116559529336316
 40
6.613013907632026
 40
7.114121234392204
 40
7.615228561152467
 40
8.111682939448246
 40
8.608165365292363
 40
9.091001498244857
 40
9.573898297123879
 40
10.0351112041657
 40
10.49642724099199
 40
10.92967768540924
 40
11.36308960216988
 40
11.7645086102173
 40
12.16616728610804
 40
12.53527540925563
 40
12.90471141256359
 40
13.24534357468007
 40
13.58634732365046
 40
13.90716115566627
 40
14.22824246878452
 40
14.54200445402321
 40
14.85576643926202
 40
15.17684775238033
 40
15.49766158439607
 40
15.83866533336637
 40
16.17929749548295
 40
16.54873349879112
 40
16.91784162193868
 40
17.31950029782937
 40
17.72091930587678
 40
18.1543312226374
 40
18.58758166705463
 40
19.04889770388095
 40
19.51011061092275
 40
19.99300740980179
 40
20.47584354275428
 40
20.97232596859837
 40
21.46878034689414
 40
21.96988767365433
 40
22.47099500041455
 40
22.96744937871035
 40
23.46393180455445
 40
23.94676793750698
 40
24.42966473638592
 40
24.89087764342767
 40
25.35219368025397
 40
25.7854441246712
 40
26.21885604143185
 40
26.6202750494793
 40
27.02193372537004
 40
27.3910418485176
 40
27.76047785182562
 40
28.10111001394213
 40
28.4421137629125
 40
28.76292759492835
 40
29.08400890804665
 40
29.39777089328538
 40
29.71153287852404
 40
29.71153287852404
 40
29.71153287852404
 40
29.71153287852404
 10
110.1213138096562
 20
217.8166447197256
 30
0.0
 10
110.140593660853
 20
217.7111836342137
 30
0.0
 10
110.1791373019075
 20
217.5003493189642
 30
0.0
 10
110.2941906139838
 20
217.192009694685
 30
0.0
 10
110.4465790803204
 20
216.8939216012379
 30
0.0
 10
110.6436557247173
 20
216.6032495174146
 30
0.0
 10
110.876842234629
 20
216.3284839393195
 30
0.0
 10
111.1510107011995
 20
216.0644549943285
 30
0.0
 10
111.4565539013077
 20
215.8200710184369
 30
0.0
 10
111.7991714922132
 20
215.5901994441798
 30
0.0
 10
112.1678677089888
 20
215.3826321920473
 30
0.0
 10
112.5684224511311
 20
215.1934152324717
 30
0.0
 10
112.9895269482836
 20
215.0284506173184
 30
0.0
 10
113.4358852542448
 20
214.885266595687
 30
0.0
 10
113.897081112078
 20
214.7677393687496
 30
0.0
 10
114.3757762084338
 20
214.6746555622483
 30
0.0
 10
114.8634435174306
 20
214.6081527636872
 30
0.0
 10
115.3600613231816
 20
214.5677672012296
 30
0.0
 10
115.859682138753
 20
214.5544237210271
 30
0.0
 10
116.3593029543407
 20
214.5677672012283
 30
0.0
 10
116.8559207600439
 20
214.6081527636924
 30
0.0
 10
117.3435880692136
 20
214.6746555622286
 30
0.0
 10
117.8222831649425
 20
214.7677393688205
 30
0.0
 10
118.2834790250671
 20
214.8852665954277
 30
0.0
 10
118.7298373228436
 20
215.0284506182382
 30
0.0
 10
119.150941849637
 20
215.1934152291214
 30
0.0
 10
119.5514964875649
 20
215.3826322037103
 30
0.0
 10
119.9201930787526
 20
215.5901994019044
 30
0.0
 10
120.2628093702301
 20
215.820071163359
 30
0.0
 10
120.5683572138691
 20
216.0644544702968
 30
0.0
 10
120.8425096795472
 20
216.3284857204
 30
0.0
 10
121.0757533445291
 20
216.6032430646514
 30
0.0
 10
121.2726323779975
 20
216.8939436165963
 30
0.0
 10
121.4257319202127
 20
217.1919292714034
 30
0.0
 10
121.5382793907226
 20
217.500629890916
 30
0.0
 10
121.6048309010837
 20
217.8132005281526
 30
0.0
 10
121.6283061577708
 20
218.1295995712914
 30
0.0
 10
121.6048309010837
 20
218.4459986144302
 30
0.0
 10
121.5382793907226
 20
218.7585692516669
 30
0.0
 10
121.4257319202128
 20
219.0672698711794
 30
0.0
 10
121.2726323779976
 20
219.3652555259864
 30
0.0
 10
121.0757533445292
 20
219.6559560779315
 30
0.0
 10
120.8425096795473
 20
219.9307134221828
 30
0.0
 10
120.5683572138692
 20
220.1947446722862
 30
0.0
 10
120.26280937023
 20
220.4391279792239
 30
0.0
 10
119.9201930787526
 20
220.6689997406785
 30
0.0
 10
119.5514964875649
 20
220.8765669388725
 30
0.0
 10
119.150941849637
 20
221.0657839134614
 30
0.0
 10
118.7298373228436
 20
221.2307485243447
 30
0.0
 10
118.2834790250671
 20
221.3739325471552
 30
0.0
 10
117.8222831649425
 20
221.4914597737623
 30
0.0
 10
117.3435880692135
 20
221.5845435803542
 30
0.0
 10
116.8559207600442
 20
221.6510463788904
 30
0.0
 10
116.3593029543401
 20
221.6914319413548
 30
0.0
 10
115.8596821387556
 20
221.7047754215551
 30
0.0
 10
115.3600613231723
 20
221.6914319413548
 30
0.0
 10
114.8634435174648
 20
221.6510463788898
 30
0.0
 10
114.3757762083076
 20
221.5845435803556
 30
0.0
 10
113.8970811125342
 20
221.4914597737573
 30
0.0
 10
113.4358852525723
 20
221.3739325471736
 30
0.0
 10
112.989526954215
 20
221.2307485242794
 30
0.0
 10
112.5684224295251
 20
221.0657839136991
 30
0.0
 10
112.1678677842017
 20
220.8765669380449
 30
0.0
 10
111.7991712195838
 20
220.6689997436783
 30
0.0
 10
111.4565548358937
 20
220.4391279689395
 30
0.0
 10
111.1510073217784
 20
220.1947447094734
 30
0.0
 10
110.8768537206119
 20
219.9307132957901
 30
0.0
 10
110.6436141115858
 20
219.6559565358458
 30
0.0
 10
110.4467210548437
 20
219.3652539636872
 30
0.0
 10
110.2936719734598
 20
219.067275578342
 30
0.0
 10
110.180946678259
 20
218.758549341142
 30
0.0
 10
110.1150457322719
 20
218.446072425169
 30
0.0
 10
110.0891942231079
 20
218.1293310555922
 30
0.0
 10
110.1106072808067
 20
217.9208734983478
 30
0.0
 10
110.1213138096562
 20
217.8166447197256
 30
0.0
 11
110.1213138096562
 21
217.8166447197256
 31
0.0
 11
110.1883093513589
 21
217.5026306961125
 31
0.0
 11
110.2972641835034
 21
217.2008851752426
 31
0.0
 11
110.4526890500807
 21
216.897361423847
 31
0.0
 11
110.6429247741864
 21
216.6148005646641
 31
0.0
 11
110.8814180707416
 21
216.3326589193183
 31
0.0
 11
111.1467551998466
 21
216.076071673938
 31
0.0
 11
111.4599165570683
 21
215.8245569501914
 31
0.0
 11
111.7929436762492
 21
215.6004360945981
 31
0.0
 11
112.1702720389675
 21
215.3872010217829
 31
0.0
 11
112.561839708161
 21
215.201780666832
 31
0.0
 11
112.9911730599002
 21
215.0330046053851
 31
0.0
 11
113.4302621484006
 21
214.8918730427149
 31
0.0
 11
113.8981080388015
 21
214.7722505481637
 31
0.0
 11
114.3720400663002
 21
214.6799512274976
 31
0.0
 11
114.8639367729939
 21
214.6126279097244
 31
0.0
 11
115.3587563249761
 21
214.5723717213173
 31
0.0
 11
115.8596821387557
 21
214.5588853570199
 31
0.0
 11
116.3606079525354
 21
214.5723717213172
 31
0.0
 11
116.8554275045177
 21
214.6126279097243
 31
0.0
 11
117.3473242112114
 21
214.6799512274976
 31
0.0
 11
117.8212562387102
 21
214.7722505481637
 31
0.0
 11
118.289102129111
 21
214.8918730427149
 31
0.0
 11
118.7281912176115
 21
215.0330046053851
 31
0.0
 11
119.1575245693507
 21
215.201780666832
 31
0.0
 11
119.5490922385442
 21
215.3872010217829
 31
0.0
 11
119.9264206012624
 21
215.6004360945981
 31
0.0
 11
120.2594477204433
 21
215.8245569501914
 31
0.0
 11
120.5726090776649
 21
216.0760716739381
 31
0.0
 11
120.8379462067699
 21
216.3326589193185
 31
0.0
 11
121.0764395033252
 21
216.6148005646641
 31
0.0
 11
121.2666752274308
 21
216.897361423847
 31
0.0
 11
121.4221000940082
 21
217.2008851752426
 31
0.0
 11
121.5310549261526
 21
217.5026306961125
 31
0.0
 11
121.5980504678553
 21
217.8166447197256
 31
0.0
 11
121.6205414496572
 21
218.1295995712913
 31
0.0
 11
121.5980504678553
 21
218.4425544228571
 31
0.0
 11
121.5310549261526
 21
218.7565684464703
 31
0.0
 11
121.4221000940082
 21
219.0583139673402
 31
0.0
 11
121.2666752274309
 21
219.3618377187357
 31
0.0
 11
121.0764395033252
 21
219.6443985779187
 31
0.0
 11
120.8379462067699
 21
219.9265402232645
 31
0.0
 11
120.572609077665
 21
220.1831274686449
 31
0.0
 11
120.2594477204433
 21
220.4346421923915
 31
0.0
 11
119.9264206012624
 21
220.6587630479848
 31
0.0
 11
119.5490922385442
 21
220.8719981207999
 31
0.0
 11
119.1575245693507
 21
221.0574184757508
 31
0.0
 11
118.7281912176115
 21
221.2261945371977
 31
0.0
 11
118.289102129111
 21
221.367326099868
 31
0.0
 11
117.8212562387101
 21
221.4869485944191
 31
0.0
 11
117.3473242112114
 21
221.5792479150853
 31
0.0
 11
116.8554275045178
 21
221.6465712328586
 31
0.0
 11
116.3606079525355
 21
221.6868274212656
 31
0.0
 11
115.8596821387558
 21
221.7003137855629
 31
0.0
 11
115.3587563249762
 21
221.6868274212656
 31
0.0
 11
114.8639367729938
 21
221.6465712328584
 31
0.0
 11
114.3720400663002
 21
221.5792479150852
 31
0.0
 11
113.8981080388014
 21
221.4869485944191
 31
0.0
 11
113.4302621484006
 21
221.367326099868
 31
0.0
 11
112.9911730599002
 21
221.2261945371978
 31
0.0
 11
112.561839708161
 21
221.0574184757508
 31
0.0
 11
112.1702720389675
 21
220.8719981207999
 31
0.0
 11
111.7929436762493
 21
220.6587630479847
 31
0.0
 11
111.4599165570684
 21
220.4346421923914
 31
0.0
 11
111.1467551998467
 21
220.1831274686447
 31
0.0
 11
110.8814180707417
 21
219.9265402232644
 31
0.0
 11
110.6429247741864
 21
219.6443985779187
 31
0.0
 11
110.4526890500808
 21
219.3618377187358
 31
0.0
 11
110.2972641835035
 21
219.0583139673401
 31
0.0
 11
110.1883093513592
 21
218.7565684464702
 31
0.0
 11
110.1213138096563
 21
218.442554422857
 31
0.0
 11
110.0988228278543
 21
218.1295995712913
 31
0.0
 11
110.1213138096562
 21
217.8166447197256
 31
0.0
  0
ARC
  5
1B9
330
42
100
AcDbEntity
  8
1
  6
Continuous
 62
     7
100
AcDbCircle
 10
134.4177032004865
 20
214.2720626067329
 30
0.0
 40
1.0
100
AcDbArc
 50
-90.0
 51
-74.66244233044623
  0
ARC
  5
1BA
330
42
100
AcDbEntity
  8
1
  6
Continuous
 62
     7
100
AcDbCircle
 10
132.627631331187
 20
213.2720626067329
 30
0.0
 40
1.0
100
AcDbArc
 50
-90.0
 51
-30.00000000000054
  0
ARC
  5
1BB
330
42
100
AcDbEntity
  8
1
  6
Continuous
 62
     7
100
AcDbCircle
 10
134.3596821387558
 20
212.2720626067329
 30
0.0
 40
1.0
100
AcDbArc
 50
90.0
 51
149.9999999999987
  0
ARC
  5
1BC
330
42
100
AcDbEntity
  8
1
  6
Continuous
 62
     7
100
AcDbCircle
 10
111.3016610770252
 20
214.2720626067329
 30
0.0
 40
0.9999999999999155
100
AcDbArc
 50
-105.3375576695593
 51
-90.0
  0
ARC
  5
1BD
330
42
100
AcDbEntity
  8
1
  6
Continuous
 62
     7
100
AcDbCircle
 10
113.0917329463246
 20
213.2720626067329
 30
0.0
 40
1.000000000000045
100
AcDbArc
 50
-150.0000000000015
 51
-90.0
  0
ARC
  5
1BE
330
42
100
AcDbEntity
  8
1
  6
Continuous
 62
     7
100
AcDbCircle
 10
111.3596821387557
 20
212.2720626067329
 30
0.0
 40
0.9999999999999713
100
AcDbArc
 50
30.00000000000095
 51
90.0
  0
ARC
  5
1BF
330
42
100
AcDbEntity
  8
1
  6
Continuous
 62
     7
100
AcDbCircle
 10
373.4340581657809
 20
214.2720626067329
 30
0.0
 40
1.0
100
AcDbArc
 50
-90.0
 51
-74.66244233043052
  0
ARC
  5
1C0
330
42
100
AcDbEntity
  8
1
  6
Continuous
 62
     7
100
AcDbCircle
 10
371.6439862964816
 20
213.2720626067329
 30
0.0
 40
1.0
100
AcDbArc
 50
-90.0
 51
-30.00000000000217
  0
ARC
  5
1C1
330
42
100
AcDbEntity
  8
1
  6
Continuous
 62
     7
100
AcDbCircle
 10
373.3760371040505
 20
212.2720626067329
 30
0.0
 40
1.0
100
AcDbArc
 50
90.0
 51
150.0000000000027
  0
ARC
  5
1C2
330
42
100
AcDbEntity
  8
1
  6
Continuous
 62
     7
100
AcDbCircle
 10
350.3180160423199
 20
214.2720626067329
 30
0.0
 40
0.9999999999998892
100
AcDbArc
 50
-105.3375576695538
 51
-90.0
  0
ARC
  5
1C3
330
42
100
AcDbEntity
  8
1
  6
Continuous
 62
     7
100
AcDbCircle
 10
352.1080879116192
 20
213.2720626067329
 30
0.0
 40
0.9999999999998851
100
AcDbArc
 50
-149.9999999999962
 51
-90.0
  0
ARC
  5
1C4
330
42
100
AcDbEntity
  8
1
  6
Continuous
 62
     7
100
AcDbCircle
 10
350.3760371040505
 20
212.2720626067329
 30
0.0
 40
0.9999999999999344
100
AcDbArc
 50
30.00000000000217
 51
90.0
  0
ENDBLK
  5
44
330
42
100
AcDbEntity
  8
0
100
AcDbBlockEnd
  0
BLOCK
  5
46
330
45
100
AcDbEntity
  8
0
100
AcDbBlockBegin
  2
60-1-16-170
 70
     0
 71
     0
 10
223.7098030986367
 20
116.4059647767392
 30
0.0
  3
60-1-16-170
  1

  0
LINE
  5
1C5
330
45
100
AcDbEntity
  8
1
  6
Continuous
 62
     7
100
AcDbLine
 10
114.8596821387558
 20
151.772062606733
 30
0.0
 11
114.8596821387558
 21
212.2720626067329
 31
0.0
  0
LINE
  5
1C6
330
45
100
AcDbEntity
  8
1
  6
Continuous
 62
     7
100
AcDbLine
 10
130.8596821387558
 20
151.772062606733
 30
0.0
 11
130.8596821387558
 21
212.2720626067329
 31
0.0
  0
LINE
  5
1C7
330
45
100
AcDbEntity
  8
1
  6
Continuous
 62
     7
100
AcDbLine
 10
115.4732751327698
 20
146.772062606733
 30
0.0
 11
130.2460891447419
 21
146.772062606733
 31
0.0
  0
LINE
  5
1C8
330
45
100
AcDbEntity
  8
1
  6
Continuous
 62
     7
100
AcDbLine
 10
130.8596821387558
 20
151.772062606733
 30
0.0
 11
114.8596821387558
 21
151.772062606733
 31
0.0
  0
LINE
  5
1C9
330
45
100
AcDbEntity
  8
1
  6
PHANTOM
 62
     4
100
AcDbLine
 10
134.2339043326179
 20
379.2369996383025
 30
0.0
 11
111.8817309265349
 21
379.2369996383025
 31
0.0
  0
LINE
  5
1CA
330
45
100
AcDbEntity
  8
1
  6
Continuous
 62
     7
100
AcDbLine
 10
114.8596821387558
 20
537.6917936589205
 30
0.0
 11
114.8596821387558
 21
379.2369996383025
 31
0.0
  0
LINE
  5
1CB
330
45
100
AcDbEntity
  8
1
  6
Continuous
 62
     7
100
AcDbLine
 10
130.8596821387558
 20
537.6917936589205
 30
0.0
 11
130.8596821387558
 21
379.2369996383025
 31
0.0
  0
LINE
  5
1CC
330
45
100
AcDbEntity
  8
1
  6
Continuous
 62
     7
100
AcDbLine
 10
184.4878306936537
 20
146.772062606733
 30
0.0
 11
199.2606447056259
 21
146.772062606733
 31
0.0
  0
LINE
  5
1CD
330
45
100
AcDbEntity
  8
1
  6
Continuous
 62
     7
100
AcDbLine
 10
199.8742376996398
 20
151.772062606733
 30
0.0
 11
183.8742376996398
 21
151.772062606733
 31
0.0
  0
LINE
  5
1CE
330
45
100
AcDbEntity
  8
1
  6
Continuous
 62
     7
100
AcDbLine
 10
334.8760371040505
 20
187.772062606733
 30
0.0
 11
218.8742376996398
 21
187.772062606733
 31
0.0
  0
LINE
  5
1CF
330
45
100
AcDbEntity
  8
1
  6
Continuous
 62
     7
100
AcDbLine
 10
353.8760371040505
 20
206.772062606733
 30
0.0
 11
353.8760371040505
 21
212.2720626067329
 31
0.0
  0
LINE
  5
1D0
330
45
100
AcDbEntity
  8
1
  6
Continuous
 62
     7
100
AcDbLine
 10
369.8760371040505
 20
212.2720626067329
 30
0.0
 11
369.8760371040505
 21
206.772062606733
 31
0.0
  0
LINE
  5
1D1
330
45
100
AcDbEntity
  8
1
  6
Continuous
 62
     7
100
AcDbLine
 10
183.8742376996398
 20
151.772062606733
 30
0.0
 11
183.8742376996398
 21
152.772062606733
 31
0.0
  0
LINE
  5
1D2
330
45
100
AcDbEntity
  8
1
  6
Continuous
 62
     7
100
AcDbLine
 10
199.8742376996398
 20
151.772062606733
 30
0.0
 11
199.8742376996398
 21
152.772062606733
 31
0.0
  0
LINE
  5
1D3
330
45
100
AcDbEntity
  8
1
  6
Continuous
 62
     7
100
AcDbLine
 10
334.8760371040505
 20
171.772062606733
 30
0.0
 11
218.8742376996398
 21
171.772062606733
 31
0.0
  0
ARC
  5
1D4
330
45
100
AcDbEntity
  8
1
  6
Continuous
 62
     7
100
AcDbCircle
 10
122.8596821387558
 20
179.772062606733
 30
0.0
 40
8.0
100
AcDbArc
 50
0.0
 51
180.0
  0
ARC
  5
1D5
330
45
100
AcDbEntity
  8
1
  6
Continuous
 62
     7
100
AcDbCircle
 10
127.6496558440375
 20
149.6283428995108
 30
0.0
 40
3.860026294718428
100
AcDbArc
 50
-47.72834450358224
 51
0.0
  0
ARC
  5
1D6
330
45
100
AcDbEntity
  8
1
  6
Continuous
 62
     7
100
AcDbCircle
 10
118.0697084334739
 20
149.6283428995108
 30
0.0
 40
3.860026294718
100
AcDbArc
 50
146.2642089999724
 51
180.0
  0
ARC
  5
1D7
330
45
100
AcDbEntity
  8
1
  6
Continuous
 62
     7
100
AcDbCircle
 10
118.0697084334739
 20
149.6283428995108
 30
0.0
 40
3.86002629471821
100
AcDbArc
 50
180.0
 51
-132.2716554964146
  0
ARC
  5
1D8
330
45
100
AcDbEntity
  8
1
  6
Continuous
 62
     7
100
AcDbCircle
 10
127.6496558440375
 20
149.6283428995108
 30
0.0
 40
3.86002629471831
100
AcDbArc
 50
0.0
 51
33.73579100002598
  0
ARC
  5
1D9
330
45
100
AcDbEntity
  8
1
  6
Continuous
 62
     7
100
AcDbCircle
 10
122.8596821387558
 20
379.2369996383025
 30
0.0
 40
8.650000000000114
100
AcDbArc
 50
157.6465744006669
 51
-90.0
  0
ARC
  5
1DA
330
45
100
AcDbEntity
  8
1
  6
Continuous
 62
     7
100
AcDbCircle
 10
122.8596821387558
 20
379.2369996383025
 30
0.0
 40
8.650000000000091
100
AcDbArc
 50
-90.0
 51
22.35342559933306
  0
ARC
  5
1DB
330
45
100
AcDbEntity
  8
1
  6
Continuous
 62
     7
100
AcDbCircle
 10
122.8596821387558
 20
379.2369996383025
 30
0.0
 40
8.0
100
AcDbArc
 50
180.0
 51
0.0
  0
ARC
  5
1DC
330
45
100
AcDbEntity
  8
1
  6
Continuous
 62
     7
100
AcDbCircle
 10
334.8760371040505
 20
206.772062606733
 30
0.0
 40
35.0
100
AcDbArc
 50
-90.0
 51
0.0
  0
ARC
  5
1DD
330
45
100
AcDbEntity
  8
1
  6
Continuous
 62
     7
100
AcDbCircle
 10
334.8760371040505
 20
206.772062606733
 30
0.0
 40
19.0
100
AcDbArc
 50
-90.0
 51
0.0
  0
ARC
  5
1DE
330
45
100
AcDbEntity
  8
1
  6
Continuous
 62
     7
100
AcDbCircle
 10
218.8742376996398
 20
152.772062606733
 30
0.0
 40
35.0
100
AcDbArc
 50
90.0
 51
180.0
  0
ARC
  5
1DF
330
45
100
AcDbEntity
  8
1
  6
Continuous
 62
     7
100
AcDbCircle
 10
218.8742376996398
 20
152.772062606733
 30
0.0
 40
19.0
100
AcDbArc
 50
90.0
 51
180.0
  0
ARC
  5
1E0
330
45
100
AcDbEntity
  8
1
  6
Continuous
 62
     7
100
AcDbCircle
 10
196.6642114049215
 20
149.6283428995108
 30
0.0
 40
3.860026294718437
100
AcDbArc
 50
-47.72834450358208
 51
0.0
  0
ARC
  5
1E1
330
45
100
AcDbEntity
  8
1
  6
Continuous
 62
     7
100
AcDbCircle
 10
187.0842639943579
 20
149.6283428995108
 30
0.0
 40
3.860026294718012
100
AcDbArc
 50
146.2642089999725
 51
180.0
  0
ARC
  5
1E2
330
45
100
AcDbEntity
  8
1
  6
Continuous
 62
     7
100
AcDbCircle
 10
187.0842639943579
 20
149.6283428995108
 30
0.0
 40
3.86002629471821
100
AcDbArc
 50
180.0
 51
-132.2716554964157
  0
ARC
  5
1E3
330
45
100
AcDbEntity
  8
1
  6
Continuous
 62
     7
100
AcDbCircle
 10
196.6642114049215
 20
149.6283428995108
 30
0.0
 40
3.86002629471821
100
AcDbArc
 50
0.0
 51
33.7357910000261
  0
ENDBLK
  5
47
330
45
100
AcDbEntity
  8
0
100
AcDbBlockEnd
  0
BLOCK
  5
4B
330
48
100
AcDbEntity
  8
0
100
AcDbBlockBegin
  2
60-1X-16-170
 70
     0
 71
     0
 10
183.2242376996397
 20
144.624017687111
 30
0.0
  3
60-1X-16-170
  1

  0
INSERT
  5
49
330
48
100
AcDbEntity
  8
1
100
AcDbBlockReference
  2
32-1-16
 10
65.33029726838163
 20
421.7578947368421
 30
0.0
  0
INSERT
  5
4A
330
48
100
AcDbEntity
  8
0
100
AcDbBlockReference
  2
60-1-16-170
 10
223.7098030986367
 20
116.4059647767392
 30
0.0
  0
LINE
  5
1E4
330
48
100
AcDbEntity
  8
1
  6
PHANTOM
 62
     4
100
AcDbLine
 10
191.8742376996398
 20
143.624017687111
 30
0.0
 11
191.8742376996398
 21
152.772062606733
 31
0.0
  0
LINE
  5
1E5
330
48
100
AcDbEntity
  8
1
  6
PHANTOM
 62
     4
100
AcDbLine
 10
218.8742376996398
 20
179.772062606733
 30
0.0
 11
334.8760371040505
 21
179.772062606733
 31
0.0
  0
LINE
  5
1E6
330
48
100
AcDbEntity
  8
1
  6
PHANTOM
 62
     4
100
AcDbLine
 10
361.8760371040505
 20
206.772062606733
 30
0.0
 11
361.8760371040505
 21
248.8978013350208
 31
0.0
  0
ARC
  5
1E7
330
48
100
AcDbEntity
  8
1
  6
PHANTOM
 62
     4
100
AcDbCircle
 10
218.8742376996398
 20
152.772062606733
 30
0.0
 40
27.0
100
AcDbArc
 50
90.0
 51
180.0
  0
ARC
  5
1E8
330
48
100
AcDbEntity
  8
1
  6
PHANTOM
 62
     4
100
AcDbCircle
 10
334.8760371040505
 20
206.772062606733
 30
0.0
 40
27.0
100
AcDbArc
 50
-90.0
 51
0.0
  0
ENDBLK
  5
4C
330
48
100
AcDbEntity
  8
0
100
AcDbBlockEnd
  0
BLOCK
  5
207
330
200
100
AcDbEntity
  8
0
100
AcDbBlockBegin
  2
*D08
 70
     1
 71
     0
 10
0.0
 20
0.0
 30
0.0
  3
*D08
  1

  0
LINE
  5
201
330
200
100
AcDbEntity
  8
1
  6
Continuous
 62
     2
100
AcDbLine
 10
455.8760371040506
 20
121.772062606733
 30
0.0
 11
473.3760371040506
 21
121.772062606733
 31
0.0
  0
LINE
  5
202
330
200
100
AcDbEntity
  8
1
  6
Continuous
 62
     2
100
AcDbLine
 10
441.8760371040506
 20
121.772062606733
 30
0.0
 11
455.8760371040506
 21
121.772062606733
 31
0.0
  0
LINE
  5
203
330
200
100
AcDbEntity
  8
1
  6
Continuous
 62
     2
100
AcDbLine
 10
441.8760371040506
 20
218.272062606733
 30
0.0
 11
441.8760371040506
 21
119.272062606733
 31
0.0
  0
LINE
  5
204
330
200
100
AcDbEntity
  8
1
  6
Continuous
 62
     2
100
AcDbLine
 10
455.8760371040506
 20
231.772062606733
 30
0.0
 11
455.8760371040506
 21
119.272062606733
 31
0.0
  0
SOLID
  5
205
330
200
100
AcDbEntity
  8
1
 62
     2
100
AcDbTrace
 10
464.6260371040506
 20
122.9240219606227
 30
0.0
 11
464.6260371040506
 21
120.6201032528433
 31
0.0
 12
455.8760371040506
 22
121.772062606733
 32
0.0
 13
455.8760371040506
 23
121.772062606733
 33
0.0
  0
MTEXT
  5
206
330
200
100
AcDbEntity
  8
1
 62
     7
100
AcDbMText
 10
443.6260371040507
 20
124.272062606733
 30
0.0
 40
8.75
 41
0.0
 71
     7
 72
     1
  1
14
  7
CONVERTER_2
 11
0.9999999999970621
 21
2.424068405545307E-6
 31
0.0
 73
     1
 44
0.60024009603842
  0
ENDBLK
  5
208
330
200
100
AcDbEntity
  8
0
100
AcDbBlockEnd
  0
BLOCK
  5
20A
330
209
100
AcDbEntity
  8
0
100
AcDbBlockBegin
  2
_None
 70
     0
 71
     0
 10
0.0
 20
0.0
 30
0.0
  3
_None
  1

  0
ENDBLK
  5
20B
330
209
100
AcDbEntity
  8
0
100
AcDbBlockEnd
  0
BLOCK
  5
215
330
20E
100
AcDbEntity
  8
0
100
AcDbBlockBegin
  2
*D110
 70
     1
 71
     0
 10
0.0
 20
0.0
 30
0.0
  3
*D110
  1

  0
LINE
  5
20F
330
20E
100
AcDbEntity
  8
1
  6
Continuous
 62
     2
100
AcDbLine
 10
396.8760371040505
 20
121.772062606733
 30
0.0
 11
441.8760371040506
 21
121.772062606733
 31
0.0
  0
LINE
  5
210
330
20E
100
AcDbEntity
  8
1
  6
Continuous
 62
     2
100
AcDbLine
 10
396.8760371040505
 20
222.772062606733
 30
0.0
 11
396.8760371040505
 21
119.272062606733
 31
0.0
  0
LINE
  5
211
330
20E
100
AcDbEntity
  8
1
  6
Continuous
 62
     2
100
AcDbLine
 10
441.8760371040506
 20
218.272062606733
 30
0.0
 11
441.8760371040506
 21
119.272062606733
 31
0.0
  0
SOLID
  5
212
330
20E
100
AcDbEntity
  8
1
 62
     2
100
AcDbTrace
 10
404.3760371040505
 20
122.7594563386385
 30
0.0
 11
404.3760371040505
 21
120.7846688748275
 31
0.0
 12
396.8760371040505
 22
121.772062606733
 32
0.0
 13
396.8760371040505
 23
121.772062606733
 33
0.0
  0
SOLID
  5
213
330
20E
100
AcDbEntity
  8
1
 62
     2
100
AcDbTrace
 10
434.3760371040506
 20
120.7846688748275
 30
0.0
 11
434.3760371040506
 21
122.7594563386385
 31
0.0
 12
441.8760371040506
 22
121.772062606733
 32
0.0
 13
441.8760371040506
 23
121.772062606733
 33
0.0
  0
MTEXT
  5
214
330
20E
100
AcDbEntity
  8
1
 62
     7
100
AcDbMText
 10
412.8135371040506
 20
124.272062606733
 30
0.0
 40
8.75
 41
0.0
 71
     7
 72
     1
  1
45
  7
CONVERTER_2
 11
0.9999999999970621
 21
2.424068405545307E-6
 31
0.0
 73
     1
 44
0.60024009603842
  0
ENDBLK
  5
216
330
20E
100
AcDbEntity
  8
0
100
AcDbBlockEnd
  0
BLOCK
  5
220
330
219
100
AcDbEntity
  8
0
100
AcDbBlockBegin
  2
*D211
 70
     1
 71
     0
 10
0.0
 20
0.0
 30
0.0
  3
*D211
  1

  0
LINE
  5
21A
330
219
100
AcDbEntity
  8
1
  6
Continuous
 62
     2
100
AcDbLine
 10
361.8760371040505
 20
121.772062606733
 30
0.0
 11
396.8760371040505
 21
121.772062606733
 31
0.0
  0
LINE
  5
21B
330
219
100
AcDbEntity
  8
1
  6
Continuous
 62
     2
100
AcDbLine
 10
361.8760371040505
 20
206.772062606733
 30
0.0
 11
361.8760371040505
 21
119.272062606733
 31
0.0
  0
LINE
  5
21C
330
219
100
AcDbEntity
  8
1
  6
Continuous
 62
     2
100
AcDbLine
 10
396.8760371040505
 20
222.772062606733
 30
0.0
 11
396.8760371040505
 21
119.272062606733
 31
0.0
  0
SOLID
  5
21D
330
219
100
AcDbEntity
  8
1
 62
     2
100
AcDbTrace
 10
369.3760371040505
 20
122.7594563386385
 30
0.0
 11
369.3760371040505
 21
120.7846688748275
 31
0.0
 12
361.8760371040505
 22
121.772062606733
 32
0.0
 13
361.8760371040505
 23
121.772062606733
 33
0.0
  0
SOLID
  5
21E
330
219
100
AcDbEntity
  8
1
 62
     2
100
AcDbTrace
 10
389.3760371040505
 20
120.7846688748275
 30
0.0
 11
389.3760371040505
 21
122.7594563386385
 31
0.0
 12
396.8760371040505
 22
121.772062606733
 32
0.0
 13
396.8760371040505
 23
121.772062606733
 33
0.0
  0
MTEXT
  5
21F
330
219
100
AcDbEntity
  8
1
 62
     7
100
AcDbMText
 10
372.8135371040505
 20
124.272062606733
 30
0.0
 40
8.75
 41
0.0
 71
     7
 72
     1
  1
35
  7
CONVERTER_2
 11
0.9999999999970621
 21
2.424068405545307E-6
 31
0.0
 73
     1
 44
0.60024009603842
  0
ENDBLK
  5
221
330
219
100
AcDbEntity
  8
0
100
AcDbBlockEnd
  0
BLOCK
  5
22B
330
224
100
AcDbEntity
  8
0
100
AcDbBlockBegin
  2
*D312
 70
     1
 71
     0
 10
0.0
 20
0.0
 30
0.0
  3
*D312
  1

  0
LINE
  5
225
330
224
100
AcDbEntity
  8
1
  6
Continuous
 62
     2
100
AcDbLine
 10
216.8760371040505
 20
369.272062606733
 30
0.0
 11
396.8760371040505
 21
369.272062606733
 31
0.0
  0
LINE
  5
226
330
224
100
AcDbEntity
  8
1
  6
Continuous
 62
     2
100
AcDbLine
 10
216.8760371040505
 20
324.272062606733
 30
0.0
 11
216.8760371040505
 21
371.772062606733
 31
0.0
  0
LINE
  5
227
330
224
100
AcDbEntity
  8
1
  6
Continuous
 62
     2
100
AcDbLine
 10
396.8760371040505
 20
310.272062606733
 30
0.0
 11
396.8760371040505
 21
371.772062606733
 31
0.0
  0
SOLID
  5
228
330
224
100
AcDbEntity
  8
1
 62
     2
100
AcDbTrace
 10
225.6260371040505
 20
370.4240219606227
 30
0.0
 11
225.6260371040505
 21
368.1201032528433
 31
0.0
 12
216.8760371040505
 22
369.272062606733
 32
0.0
 13
216.8760371040505
 23
369.272062606733
 33
0.0
  0
SOLID
  5
229
330
224
100
AcDbEntity
  8
1
 62
     2
100
AcDbTrace
 10
388.1260371040505
 20
368.1201032528433
 30
0.0
 11
388.1260371040505
 21
370.4240219606227
 31
0.0
 12
396.8760371040505
 22
369.272062606733
 32
0.0
 13
396.8760371040505
 23
369.272062606733
 33
0.0
  0
MTEXT
  5
22A
330
224
100
AcDbEntity
  8
1
 62
     7
100
AcDbMText
 10
297.6885371040506
 20
371.772062606733
 30
0.0
 40
8.75
 41
0.0
 71
     7
 72
     1
  1
180
  7
CONVERTER_2
 11
0.9999999999970621
 21
2.424068405545307E-6
 31
0.0
 73
     1
 44
0.60024009603842
  0
ENDBLK
  5
22C
330
224
100
AcDbEntity
  8
0
100
AcDbBlockEnd
  0
BLOCK
  5
237
330
22F
100
AcDbEntity
  8
0
100
AcDbBlockBegin
  2
*D413
 70
     1
 71
     0
 10
0.0
 20
0.0
 30
0.0
  3
*D413
  1

  0
LINE
  5
230
330
22F
100
AcDbEntity
  8
1
  6
Continuous
 62
     2
100
AcDbLine
 10
322.6087731415128
 20
308.272062606733
 30
0.0
 11
322.6087731415128
 21
360.886238121097
 31
0.0
  0
LINE
  5
231
330
22F
100
AcDbEntity
  8
1
  6
Continuous
 62
     2
100
AcDbLine
 10
322.6087731415128
 20
241.272062606733
 30
0.0
 11
322.6087731415128
 21
308.272062606733
 31
0.0
  0
LINE
  5
232
330
22F
100
AcDbEntity
  8
1
  6
Continuous
 62
     2
100
AcDbLine
 10
361.1484613830821
 20
241.272062606733
 30
0.0
 11
320.1087731415128
 21
241.272062606733
 31
0.0
  0
LINE
  5
233
330
22F
100
AcDbEntity
  8
1
  6
Continuous
 62
     2
100
AcDbLine
 10
385.3826694513562
 20
308.272062606733
 30
0.0
 11
320.1087731415128
 21
308.272062606733
 31
0.0
  0
SOLID
  5
234
330
22F
100
AcDbEntity
  8
1
 62
     2
100
AcDbTrace
 10
321.4568137876231
 20
250.022062606733
 30
0.0
 11
323.7607324954025
 21
250.022062606733
 31
0.0
 12
322.6087731415128
 22
241.272062606733
 32
0.0
 13
322.6087731415128
 23
241.272062606733
 33
0.0
  0
SOLID
  5
235
330
22F
100
AcDbEntity
  8
1
 62
     2
100
AcDbTrace
 10
323.7607324954025
 20
299.522062606733
 30
0.0
 11
321.4568137876231
 21
299.522062606733
 31
0.0
 12
322.6087731415128
 22
308.272062606733
 32
0.0
 13
322.6087731415128
 23
308.272062606733
 33
0.0
  0
MTEXT
  5
236
330
22F
100
AcDbEntity
  8
1
 62
     7
100
AcDbMText
 10
320.1087731415128
 20
313.636238121097
 30
0.0
 40
8.75
 41
0.0
 71
     7
 72
     1
  1
67リフト5
  7
CONVERTER_1
 11
0.0
 21
1.0
 31
0.0
 73
     1
 44
0.60024009603842
  0
ENDBLK
  5
238
330
22F
100
AcDbEntity
  8
0
100
AcDbBlockEnd
  0
BLOCK
  5
242
330
23B
100
AcDbEntity
  8
0
100
AcDbBlockBegin
  2
*D514
 70
     1
 71
     0
 10
0.0
 20
0.0
 30
0.0
  3
*D514
  1

  0
LINE
  5
23C
330
23B
100
AcDbEntity
  8
1
  6
Continuous
 62
     2
100
AcDbLine
 10
191.8760371040506
 20
241.272062606733
 30
0.0
 11
191.8760371040506
 21
344.272062606733
 31
0.0
  0
LINE
  5
23D
330
23B
100
AcDbEntity
  8
1
  6
Continuous
 62
     2
100
AcDbLine
 10
361.1484613830821
 20
241.272062606733
 30
0.0
 11
189.3760371040506
 21
241.272062606733
 31
0.0
  0
LINE
  5
23E
330
23B
100
AcDbEntity
  8
1
  6
Continuous
 62
     2
100
AcDbLine
 10
230.8760371040505
 20
344.272062606733
 30
0.0
 11
189.3760371040506
 21
344.272062606733
 31
0.0
  0
SOLID
  5
23F
330
23B
100
AcDbEntity
  8
1
 62
     2
100
AcDbTrace
 10
190.7240777501609
 20
250.022062606733
 30
0.0
 11
193.0279964579403
 21
250.022062606733
 31
0.0
 12
191.8760371040506
 22
241.272062606733
 32
0.0
 13
191.8760371040506
 23
241.272062606733
 33
0.0
  0
SOLID
  5
240
330
23B
100
AcDbEntity
  8
1
 62
     2
100
AcDbTrace
 10
193.0279964579403
 20
335.522062606733
 30
0.0
 11
190.7240777501609
 21
335.522062606733
 31
0.0
 12
191.8760371040506
 22
344.272062606733
 32
0.0
 13
191.8760371040506
 23
344.272062606733
 33
0.0
  0
MTEXT
  5
241
330
23B
100
AcDbEntity
  8
1
 62
     7
100
AcDbMText
 10
189.3760371040506
 20
283.584562606733
 30
0.0
 40
8.75
 41
0.0
 71
     7
 72
     1
  1
103
  7
CONVERTER_2
 11
0.0
 21
1.0
 31
0.0
 73
     1
 44
0.60024009603842
  0
ENDBLK
  5
243
330
23B
100
AcDbEntity
  8
0
100
AcDbBlockEnd
  0
BLOCK
  5
24D
330
246
100
AcDbEntity
  8
0
100
AcDbBlockBegin
  2
*D615
 70
     1
 71
     0
 10
0.0
 20
0.0
 30
0.0
  3
*D615
  1

  0
LINE
  5
247
330
246
100
AcDbEntity
  8
0
  6
Continuous
 62
     2
100
AcDbLine
 10
480.8760371040506
 20
264.272062606733
 30
0.0
 11
480.8760371040506
 21
218.272062606733
 31
0.0
  0
LINE
  5
248
330
246
100
AcDbEntity
  8
0
  6
Continuous
 62
     2
100
AcDbLine
 10
441.8760371040506
 20
264.272062606733
 30
0.0
 11
483.3760371040506
 21
264.272062606733
 31
0.0
  0
LINE
  5
249
330
246
100
AcDbEntity
  8
0
  6
Continuous
 62
     2
100
AcDbLine
 10
441.8760371040506
 20
218.272062606733
 30
0.0
 11
483.3760371040506
 21
218.272062606733
 31
0.0
  0
SOLID
  5
24A
330
246
100
AcDbEntity
  8
0
 62
     2
100
AcDbTrace
 10
482.0279964579403
 20
255.522062606733
 30
0.0
 11
479.7240777501609
 21
255.522062606733
 31
0.0
 12
480.8760371040506
 22
264.272062606733
 32
0.0
 13
480.8760371040506
 23
264.272062606733
 33
0.0
  0
SOLID
  5
24B
330
246
100
AcDbEntity
  8
0
 62
     2
100
AcDbTrace
 10
479.7240777501609
 20
227.022062606733
 30
0.0
 11
482.0279964579403
 21
227.022062606733
 31
0.0
 12
480.8760371040506
 22
218.272062606733
 32
0.0
 13
480.8760371040506
 23
218.272062606733
 33
0.0
  0
MTEXT
  5
24C
330
246
100
AcDbEntity
  8
0
 62
     7
100
AcDbMText
 10
478.3760371040506
 20
225.6095626067329
 30
0.0
 40
8.75
 41
0.0
 71
     7
 72
     1
  1
\C7;{\Fgdt;n}\C7;46
  7
CONVERTER_2
 11
0.0
 21
1.0
 31
0.0
 73
     1
 44
0.60024009603842
  0
ENDBLK
  5
24E
330
246
100
AcDbEntity
  8
0
100
AcDbBlockEnd
  0
BLOCK
  5
258
330
251
100
AcDbEntity
  8
0
100
AcDbBlockBegin
  2
*D716
 70
     1
 71
     0
 10
0.0
 20
0.0
 30
0.0
  3
*D716
  1

  0
LINE
  5
252
330
251
100
AcDbEntity
  8
1
  6
Continuous
 62
     2
100
AcDbLine
 10
322.6087731415128
 20
146.772062606733
 30
0.0
 11
322.6087731415128
 21
241.272062606733
 31
0.0
  0
LINE
  5
253
330
251
100
AcDbEntity
  8
1
  6
Continuous
 62
     2
100
AcDbLine
 10
199.2606447056259
 20
146.772062606733
 30
0.0
 11
325.1087731415128
 21
146.772062606733
 31
0.0
  0
LINE
  5
254
330
251
100
AcDbEntity
  8
1
  6
Continuous
 62
     2
100
AcDbLine
 10
361.1484613830821
 20
241.272062606733
 30
0.0
 11
320.1087731415128
 21
241.272062606733
 31
0.0
  0
SOLID
  5
255
330
251
100
AcDbEntity
  8
1
 62
     2
100
AcDbTrace
 10
321.4568137876231
 20
155.522062606733
 30
0.0
 11
323.7607324954025
 21
155.522062606733
 31
0.0
 12
322.6087731415128
 22
146.772062606733
 32
0.0
 13
322.6087731415128
 23
146.772062606733
 33
0.0
  0
SOLID
  5
256
330
251
100
AcDbEntity
  8
1
 62
     2
100
AcDbTrace
 10
323.7607324954025
 20
232.522062606733
 30
0.0
 11
321.4568137876231
 21
232.522062606733
 31
0.0
 12
322.6087731415128
 22
241.272062606733
 32
0.0
 13
322.6087731415128
 23
241.272062606733
 33
0.0
  0
MTEXT
  5
257
330
251
100
AcDbEntity
  8
1
 62
     7
100
AcDbMText
 10
320.1087731415128
 20
203.142647472305
 30
0.0
 40
8.75
 41
0.0
 71
     7
 72
     1
  1
95
  7
CONVERTER_2
 11
0.0
 21
1.0
 31
0.0
 73
     1
 44
0.60024009603842
  0
ENDBLK
  5
259
330
251
100
AcDbEntity
  8
0
100
AcDbBlockEnd
  0
BLOCK
  5
263
330
25C
100
AcDbEntity
  8
0
100
AcDbBlockBegin
  2
*D817
 70
     1
 71
     0
 10
0.0
 20
0.0
 30
0.0
  3
*D817
  1

  0
LINE
  5
25D
330
25C
100
AcDbEntity
  8
0
  6
Continuous
 62
     2
100
AcDbLine
 10
191.8742376996398
 20
121.772062606733
 30
0.0
 11
361.8760371040505
 21
121.772062606733
 31
0.0
  0
LINE
  5
25E
330
25C
100
AcDbEntity
  8
0
  6
Continuous
 62
     2
100
AcDbLine
 10
191.8742376996398
 20
143.624017687111
 30
0.0
 11
191.8742376996398
 21
119.272062606733
 31
0.0
  0
LINE
  5
25F
330
25C
100
AcDbEntity
  8
0
  6
Continuous
 62
     2
100
AcDbLine
 10
361.8760371040505
 20
206.772062606733
 30
0.0
 11
361.8760371040505
 21
119.272062606733
 31
0.0
  0
SOLID
  5
260
330
25C
100
AcDbEntity
  8
0
 62
     2
100
AcDbTrace
 10
199.3742376996398
 20
122.7594563386385
 30
0.0
 11
199.3742376996398
 21
120.7846688748275
 31
0.0
 12
191.8742376996398
 22
121.772062606733
 32
0.0
 13
191.8742376996398
 23
121.772062606733
 33
0.0
  0
SOLID
  5
261
330
25C
100
AcDbEntity
  8
0
 62
     2
100
AcDbTrace
 10
354.3760371040505
 20
120.7846688748275
 30
0.0
 11
354.3760371040505
 21
122.7594563386385
 31
0.0
 12
361.8760371040505
 22
121.772062606733
 32
0.0
 13
361.8760371040505
 23
121.772062606733
 33
0.0
  0
MTEXT
  5
262
330
25C
100
AcDbEntity
  8
0
 62
     7
100
AcDbMText
 10
267.6885371040505
 20
124.272062606733
 30
0.0
 40
8.75
 41
0.0
 71
     7
 72
     1
  1
170
  7
CONVERTER_2
 11
0.9999999999970621
 21
2.424068405545307E-6
 31
0.0
 73
     1
 44
0.60024009603842
  0
ENDBLK
  5
264
330
25C
100
AcDbEntity
  8
0
100
AcDbBlockEnd
  0
ENDSEC
  0
SECTION
  2
ENTITIES
  0
INSERT
  5
4D
330
1F
100
AcDbEntity
  8
1
100
AcDbBlockReference
  2
_J__A4
 10
0.0
 20
0.0
 30
0.0
 41
2.5
 42
2.5
 43
2.5
  0
INSERT
  5
4E
330
1F
100
AcDbEntity
  8
1
100
AcDbBlockReference
  2
A90-0A-13
 10
356.8371116096303
 20
247.5453512917064
 30
0.0
  0
INSERT
  5
4F
330
1F
100
AcDbEntity
  8
0
100
AcDbBlockReference
  2
21-5A
 10
426.659602669998
 20
16.84338346949255
 30
0.0
  0
INSERT
  5
50
330
1F
100
AcDbEntity
  8
0
100
AcDbBlockReference
  2
84-55
 10
657.475501481041
 20
789.0562925633618
 30
0.0
  0
INSERT
  5
51
330
1F
100
AcDbEntity
  8
1
100
AcDbBlockReference
  2
60-1X-16-170
 10
183.2242376996397
 20
144.624017687111
 30
0.0
  0
LINE
  5
1E9
330
1F
100
AcDbEntity
  8
1
  6
DASH_CENTER
 62
     2
100
AcDbLine
 10
139.0096821387559
 20
379.2369996383025
 30
0.0
 11
106.7096821387557
 21
379.2369996383025
 31
0.0
  0
LINE
  5
1EA
330
1F
100
AcDbEntity
  8
1
  6
DASH_CENTER
 62
     2
100
AcDbLine
 10
134.8596821387558
 20
295.272062606733
 30
0.0
 11
110.8596821387558
 21
295.272062606733
 31
0.0
  0
LINE
  5
1EB
330
1F
100
AcDbEntity
  8
1
  6
DASH_CENTER
 62
     2
100
AcDbLine
 10
191.8742376996398
 20
143.624017687111
 30
0.0
 11
191.8742376996398
 21
152.772062606733
 31
0.0
  0
LINE
  5
1EC
330
1F
100
AcDbEntity
  8
1
  6
DASH_CENTER
 62
     2
100
AcDbLine
 10
218.8742376996398
 20
179.772062606733
 30
0.0
 11
334.8760371040505
 21
179.772062606733
 31
0.0
  0
LINE
  5
1ED
330
1F
100
AcDbEntity
  8
1
  6
DASH_CENTER
 62
     2
100
AcDbLine
 10
361.8760371040505
 20
206.772062606733
 30
0.0
 11
361.8760371040505
 21
248.8978013350208
 31
0.0
  0
LINE
  5
1EE
330
1F
100
AcDbEntity
  8
1
  6
DASH_CENTER
 62
     2
100
AcDbLine
 10
149.3596821387558
 20
584.238799042713
 30
0.0
 11
96.35968213875586
 21
584.238799042713
 31
0.0
  0
LINE
  5
1EF
330
1F
100
AcDbEntity
  8
1
  6
DASH_CENTER
 62
     2
100
AcDbLine
 10
144.3596821387558
 20
549.238799042713
 30
0.0
 11
101.3596821387558
 21
549.238799042713
 31
0.0
  0
LINE
  5
1F0
330
1F
100
AcDbEntity
  8
1
  6
DASH_CENTER
 62
     2
100
AcDbLine
 10
153.3596821387558
 20
241.2720626067329
 30
0.0
 11
92.35968213875597
 21
241.2720626067329
 31
0.0
  0
LINE
  5
1F1
330
1F
100
AcDbEntity
  8
1
  6
DASH_CENTER
 62
     2
100
AcDbLine
 10
122.8596821387558
 20
347.2773776087788
 30
0.0
 11
122.8596821387558
 21
139.6301677970826
 31
0.0
  0
LINE
  5
1F2
330
1F
100
AcDbEntity
  8
1
  6
DASH_CENTER
 62
     2
100
AcDbLine
 10
458.9138436358036
 20
241.2720626067329
 30
0.0
 11
361.148461383082
 21
241.2720626067329
 31
0.0
  0
LINE
  5
1F3
330
1F
100
AcDbEntity
  8
1
  6
DASH_CENTER
 62
     2
100
AcDbLine
 10
122.8596821387558
 20
650.7387990427129
 30
0.0
 11
122.8596821387558
 21
367.5945075293842
 31
0.0
  0
LINE
  5
1F4
330
1F
100
AcDbEntity
  8
1
  6
DASH_CENTER
 62
     2
100
AcDbLine
 10
396.8760371040505
 20
222.7720626067329
 30
0.0
 11
396.8760371040505
 21
310.272062606733
 31
0.0
  0
ARC
  5
1F5
330
1F
100
AcDbEntity
  8
1
  6
DASH_CENTER
 62
     2
100
AcDbCircle
 10
218.8742376996398
 20
152.772062606733
 30
0.0
 40
27.0
100
AcDbArc
 50
90.0
 51
180.0
  0
ARC
  5
1F6
330
1F
100
AcDbEntity
  8
1
  6
DASH_CENTER
 62
     2
100
AcDbCircle
 10
334.8760371040505
 20
206.772062606733
 30
0.0
 40
27.0
100
AcDbArc
 50
-90.0
 51
0.0
  0
SOLID
  5
1F7
330
1F
100
AcDbEntity
  8
1
 62
     2
100
AcDbTrace
 10
136.7370560741603
 20
643.8925010027717
 30
0.0
 11
138.7323082033515
 21
642.740541648882
 31
0.0
 12
133.3596821387558
 22
635.738799042713
 32
0.0
 13
133.3596821387558
 23
635.738799042713
 33
0.0
  0
LEADER
  5
1F8
330
1F
100
AcDbEntity
  8
1
  6
Continuous
 62
     2
100
AcDbLeader
  3
Standard
 71
     0
 76
     3
 10
133.3596821387558
 20
635.738799042713
 30
0.0
 10
144.5842105131894
 20
655.1802524782305
 30
0.0
 10
181.5329544063497
 20
655.1802524782304
 30
0.0
  0
MTEXT
  5
1FA
330
1F
100
AcDbEntity
  8
1
 62
     7
100
AcDbMText
 10
234.375
 20
42.5
 30
0.0
 40
8.75
 41
0.0
 71
     5
 72
     1
  1
2,5
  7
CONVERTER_2
 73
     1
 44
0.7202881152461
  0
MTEXT
  5
1FB
330
1F
100
AcDbEntity
  8
1
 62
     7
100
AcDbMText
 10
213.125
 20
42.5
 30
0.0
 40
8.75
 41
0.0
 71
     5
 72
     1
  1
1
  7
CONVERTER_2
 73
     1
 44
0.7202881152461
  0
MTEXT
  5
1FC
330
1F
100
AcDbEntity
  8
1
 62
     7
100
AcDbMText
 10
162.6461625175486
 20
662.6802524782304
 30
0.0
 40
8.75
 41
0.0
 71
     5
 72
     1
  1
PJ1/2
  7
CONVERTER_2
 73
     1
 44
1.32052821128451
  0
MTEXT
  5
1FD
330
1F
100
AcDbEntity
  8
0
 62
     7
100
AcDbMText
 10
142.5
 20
56.87500000000003
 30
0.0
 40
8.75
 41
0.0
 71
     5
 72
     1
  1
レバー自在水栓
  7
CONVERTER_1
 73
     1
 44
1.32052821128451
  0
MTEXT
  5
1FE
330
1F
100
AcDbEntity
  8
0
 62
     7
100
AcDbMText
 10
142.5
 20
35.625
 30
0.0
 40
8.75
 41
0.0
 71
     5
 72
     1
  1
A131-13
  7
CONVERTER_2
 73
     1
 44
1.32052821128451
  0
MTEXT
  5
1FF
330
1F
100
AcDbEntity
  8
0
 62
     7
100
AcDbMText
 10
85.0
 20
85.00000000000001
 30
0.0
 40
8.75
 41
0.0
 71
     4
 72
     1
  1
JIS
  7
CONVERTER_2
 73
     1
 44
1.32052821128451
  0
DIMENSION
  5
20D
330
1F
100
AcDbEntity
  8
1
100
AcDbDimension
  2
*D08
 10
441.8760371040506
 20
121.772062606733
 30
0.0
 11
448.8760371040507
 21
128.647062606733
 31
0.0
  1
<>
 71
     5
 42
0.0
 53
0.00013888888889
  3
ME10_DIM_0
100
AcDbAlignedDimension
 13
455.8760371040506
 23
231.7720626067329
 33
0.0
 14
441.8760371040506
 24
218.2720626067329
 34
0.0
100
AcDbRotatedDimension
  0
DIMENSION
  5
218
330
1F
100
AcDbEntity
  8
1
100
AcDbDimension
  2
*D110
 10
396.8760371040505
 20
121.772062606733
 30
0.0
 11
419.3760371040506
 21
128.647062606733
 31
0.0
  1
<>
 71
     5
 42
0.0
 53
0.00013888888889
  3
ME10_DIM_1
100
AcDbAlignedDimension
 13
441.8760371040506
 23
218.2720626067329
 33
0.0
 14
396.8760371040505
 24
222.7720626067329
 34
0.0
100
AcDbRotatedDimension
  0
DIMENSION
  5
223
330
1F
100
AcDbEntity
  8
1
100
AcDbDimension
  2
*D211
 10
361.8760371040505
 20
121.772062606733
 30
0.0
 11
379.3760371040505
 21
128.647062606733
 31
0.0
  1
<>
 71
     5
 42
0.0
 53
0.00013888888889
  3
ME10_DIM_2
100
AcDbAlignedDimension
 13
396.8760371040505
 23
222.7720626067329
 33
0.0
 14
361.8760371040505
 24
206.772062606733
 34
0.0
100
AcDbRotatedDimension
  0
DIMENSION
  5
22E
330
1F
100
AcDbEntity
  8
1
100
AcDbDimension
  2
*D312
 10
216.8760371040505
 20
369.272062606733
 30
0.0
 11
306.8760371040506
 21
376.147062606733
 31
0.0
  1
<>
 71
     5
 42
0.0
 53
0.00013888888889
  3
ME10_DIM_3
100
AcDbAlignedDimension
 13
396.8760371040505
 23
310.272062606733
 33
0.0
 14
216.8760371040505
 24
324.272062606733
 34
0.0
100
AcDbRotatedDimension
  0
DIMENSION
  5
23A
330
1F
100
AcDbEntity
  8
1
100
AcDbDimension
  2
*D413
 10
322.6087731415128
 20
241.272062606733
 30
0.0
 11
315.7337731415128
 21
337.261238121097
 31
0.0
  1
67リフト5
 71
     5
 42
0.0
 53
90.0
  3
ME10_DIM_4
100
AcDbAlignedDimension
 13
385.3826694513563
 23
308.272062606733
 33
0.0
 14
361.148461383082
 24
241.2720626067329
 34
0.0
 50
90.0
100
AcDbRotatedDimension
  0
DIMENSION
  5
245
330
1F
100
AcDbEntity
  8
1
100
AcDbDimension
  2
*D514
 10
191.8760371040506
 20
241.272062606733
 30
0.0
 11
185.0010371040506
 21
292.772062606733
 31
0.0
  1
<>
 71
     5
 42
0.0
 53
90.0
  3
ME10_DIM_5
100
AcDbAlignedDimension
 13
230.8760371040505
 23
344.272062606733
 33
0.0
 14
361.148461383082
 24
241.2720626067329
 34
0.0
 50
90.0
100
AcDbRotatedDimension
  0
DIMENSION
  5
250
330
1F
100
AcDbEntity
  8
0
100
AcDbDimension
  2
*D615
 10
480.8760371040506
 20
264.272062606733
 30
0.0
 11
474.0010371040506
 21
241.2720626067329
 31
0.0
  1
<>
 71
     5
 42
0.0
 53
90.0
  3
ME10_DIM_6
100
AcDbAlignedDimension
 13
441.8760371040506
 23
218.2720626067329
 33
0.0
 14
441.8760371040506
 24
264.272062606733
 34
0.0
 50
90.0
100
AcDbRotatedDimension
  0
DIMENSION
  5
25B
330
1F
100
AcDbEntity
  8
1
100
AcDbDimension
  2
*D716
 10
322.6087731415128
 20
146.772062606733
 30
0.0
 11
315.7337731415128
 21
209.705147472305
 31
0.0
  1
95
 71
     5
 42
0.0
 53
90.0
  3
ME10_DIM_7
100
AcDbAlignedDimension
 13
361.148461383082
 23
241.2720626067329
 33
0.0
 14
199.2606447056259
 24
146.772062606733
 34
0.0
 50
90.0
100
AcDbRotatedDimension
  0
DIMENSION
  5
266
330
1F
100
AcDbEntity
  8
0
100
AcDbDimension
  2
*D817
 10
191.8742376996398
 20
121.772062606733
 30
0.0
 11
276.8760371040505
 21
128.647062606733
 31
0.0
  1
<>
 71
     5
 42
0.0
 53
0.00013888888889
  3
ME10_DIM_8
100
AcDbAlignedDimension
 13
361.8760371040505
 23
206.772062606733
 33
0.0
 14
191.8742376996398
 24
143.624017687111
 34
0.0
100
AcDbRotatedDimension
  0
ENDSEC
  0
SECTION
  2
OBJECTS
  0
DICTIONARY
  5
C
330
0
100
AcDbDictionary
281
     1
  3
ACAD_GROUP
350
D
  3
ACAD_LAYOUT
350
1A
  3
ACAD_MLINESTYLE
350
17
  3
ACAD_PLOTSETTINGS
350
19
  3
ACAD_PLOTSTYLENAME
350
E
  3
ACAD_TABLESTYLE
350
2A
  3
AcDbVariableDictionary
350
2C
  0
DICTIONARY
  5
D
102
{ACAD_REACTORS
330
C
102
}
330
C
100
AcDbDictionary
281
     1
  0
DICTIONARY
  5
1A
102
{ACAD_REACTORS
330
C
102
}
330
C
100
AcDbDictionary
281
     1
  3
Layout1
350
1E
  3
Layout2
350
26
  3
Model
350
22
  0
DICTIONARY
  5
17
102
{ACAD_REACTORS
330
C
102
}
330
C
100
AcDbDictionary
281
     1
  3
Standard
350
18
  0
DICTIONARY
  5
19
102
{ACAD_REACTORS
330
C
102
}
330
C
100
AcDbDictionary
281
     1
  0
ACDBDICTIONARYWDFLT
  5
E
102
{ACAD_REACTORS
330
C
102
}
330
C
100
AcDbDictionary
281
     1
  3
Normal
350
F
100
AcDbDictionaryWithDefault
340
F
  0
DICTIONARY
  5
2A
102
{ACAD_REACTORS
330
C
102
}
330
C
100
AcDbDictionary
281
     1
  3
Standard
350
2B
  0
DICTIONARY
  5
2C
102
{ACAD_REACTORS
330
C
102
}
330
C
100
AcDbDictionary
281
     1
  3
CTABLESTYLE
350
2D
  0
LAYOUT
  5
1E
102
{ACAD_REACTORS
330
1A
102
}
330
1A
100
AcDbPlotSettings
  1

  2

  4

  6

 40
0.0
 41
0.0
 42
0.0
 43
0.0
 44
0.0
 45
0.0
 46
0.0
 47
0.0
 48
0.0
 49
0.0
140
0.0
141
0.0
142
1.0
143
1.0
 70
   688
 72
     0
 73
     0
 74
     5
  7

 75
    16
147
1.0
148
0.0
149
0.0
100
AcDbLayout
  1
Layout1
 70
     1
 71
     1
 10
0.0
 20
0.0
 11
12.0
 21
9.0
 12
0.0
 22
0.0
 32
0.0
 14
1.00000000000000E+20
 24
1.00000000000000E+20
 34
1.00000000000000E+20
 15
-1.00000000000000E+20
 25
-1.00000000000000E+20
 35
-1.00000000000000E+20
146
0.0
 13
0.0
 23
0.0
 33
0.0
 16
1.0
 26
0.0
 36
0.0
 17
0.0
 27
1.0
 37
0.0
 76
     0
330
1B
  0
LAYOUT
  5
26
102
{ACAD_REACTORS
330
1A
102
}
330
1A
100
AcDbPlotSettings
  1

  2

  4

  6

 40
0.0
 41
0.0
 42
0.0
 43
0.0
 44
0.0
 45
0.0
 46
0.0
 47
0.0
 48
0.0
 49
0.0
140
0.0
141
0.0
142
1.0
143
1.0
 70
   688
 72
     0
 73
     0
 74
     5
  7

 75
    16
147
1.0
148
0.0
149
0.0
100
AcDbLayout
  1
Layout2
 70
     1
 71
     2
 10
0.0
 20
0.0
 11
0.0
 21
0.0
 12
0.0
 22
0.0
 32
0.0
 14
0.0
 24
0.0
 34
0.0
 15
0.0
 25
0.0
 35
0.0
146
0.0
 13
0.0
 23
0.0
 33
0.0
 16
1.0
 26
0.0
 36
0.0
 17
0.0
 27
1.0
 37
0.0
 76
     0
330
23
  0
LAYOUT
  5
22
102
{ACAD_REACTORS
330
1A
102
}
330
1A
100
AcDbPlotSettings
  1

  2

  4

  6

 40
0.0
 41
0.0
 42
0.0
 43
0.0
 44
0.0
 45
0.0
 46
0.0
 47
0.0
 48
0.0
 49
0.0
140
0.0
141
0.0
142
1.0
143
1.0
 70
  1712
 72
     0
 73
     0
 74
     0
  7

 75
     0
147
1.0
148
0.0
149
0.0
100
AcDbLayout
  1
Model
 70
     1
 71
     0
 10
0.0
 20
0.0
 11
0.0
 21
0.0
 12
0.0
 22
0.0
 32
0.0
 14
0.0
 24
0.0
 34
0.0
 15
525.0
 25
742.5
 35
0.0
146
0.0
 13
0.0
 23
0.0
 33
0.0
 16
1.0
 26
0.0
 36
0.0
 17
0.0
 27
1.0
 37
0.0
 76
     0
330
1F
  0
MLINESTYLE
  5
18
102
{ACAD_REACTORS
330
17
102
}
330
17
100
AcDbMlineStyle
  2
Standard
 70
     0
  3

 62
   256
 51
90.0
 52
90.0
 71
     2
 49
0.5
 62
   256
  6
BYLAYER
 49
-0.5
 62
   256
  6
BYLAYER
  0
ACDBPLACEHOLDER
  5
F
102
{ACAD_REACTORS
330
E
102
}
330
E
  0
TABLESTYLE
  5
2B
102
{ACAD_REACTORS
330
2A
102
}
330
2A
100
AcDbTableStyle
  3
Standard
 70
     0
 71
     0
 40
0.06
 41
0.06
280
     0
281
     0
  7
Standard
140
0.18
170
     2
 62
     0
 63
     7
283
     0
274
    -2
284
     1
 64
     0
275
    -2
285
     1
 65
     0
276
    -2
286
     1
 66
     0
277
    -2
287
     1
 67
     0
278
    -2
288
     1
 68
     0
279
    -2
289
     1
 69
     0
  7
Standard
140
0.25
170
     5
 62
     0
 63
     7
283
     0
274
    -2
284
     1
 64
     0
275
    -2
285
     1
 65
     0
276
    -2
286
     1
 66
     0
277
    -2
287
     1
 67
     0
278
    -2
288
     1
 68
     0
279
    -2
289
     1
 69
     0
  7
Standard
140
0.18
170
     5
 62
     0
 63
     7
283
     0
274
    -2
284
     1
 64
     0
275
    -2
285
     1
 65
     0
276
    -2
286
     1
 66
     0
277
    -2
287
     1
 67
     0
278
    -2
288
     1
 68
     0
279
    -2
289
     1
 69
     0
  0
DICTIONARYVAR
  5
2D
102
{ACAD_REACTORS
330
2C
102
}
330
2C
100
DictionaryVariables
280
     0
  1
Standard
  0
ENDSEC
  0
EOF
