  0
SECTION
  2
HEADER
  9
$ACADVER
  1
AC1015
  9
$ACADMAINTVER
 70
     6
  9
$DWGCODEPAGE
  3
DOS932
  9
$INSBASE
 10
0.0
 20
0.0
 30
0.0
  9
$EXTMIN
 10
0.0
 20
0.0
 30
0.0
  9
$EXTMAX
 10
525.0
 20
742.5
 30
0.0
  9
$LIMMIN
 10
0.0
 20
0.0
  9
$LIMMAX
 10
12.0
 20
9.0
  9
$ORTHOMODE
 70
     0
  9
$REGENMODE
 70
     1
  9
$FILLMODE
 70
     1
  9
$QTEXTMODE
 70
     0
  9
$MIRRTEXT
 70
     1
  9
$LTSCALE
 40
1.0
  9
$ATTMODE
 70
     1
  9
$TEXTSIZE
 40
0.2
  9
$TRACEWID
 40
0.05
  9
$TEXTSTYLE
  7
Standard
  9
$CLAYER
  8
0
  9
$CELTYPE
  6
ByLayer
  9
$CECOLOR
 62
   256
  9
$CELTSCALE
 40
1.0
  9
$DISPSILH
 70
     0
  9
$DIMSCALE
 40
1.0
  9
$DIMASZ
 40
0.18
  9
$DIMEXO
 40
0.0625
  9
$DIMDLI
 40
0.38
  9
$DIMRND
 40
0.0
  9
$DIMDLE
 40
0.0
  9
$DIMEXE
 40
0.18
  9
$DIMTP
 40
0.0
  9
$DIMTM
 40
0.0
  9
$DIMTXT
 40
0.18
  9
$DIMCEN
 40
0.09
  9
$DIMTSZ
 40
0.0
  9
$DIMTOL
 70
     0
  9
$DIMLIM
 70
     0
  9
$DIMTIH
 70
     1
  9
$DIMTOH
 70
     1
  9
$DIMSE1
 70
     0
  9
$DIMSE2
 70
     0
  9
$DIMTAD
 70
     0
  9
$DIMZIN
 70
     0
  9
$DIMBLK
  1

  9
$DIMASO
 70
     1
  9
$DIMSHO
 70
     1
  9
$DIMPOST
  1

  9
$DIMAPOST
  1

  9
$DIMALT
 70
     0
  9
$DIMALTD
 70
     2
  9
$DIMALTF
 40
25.4
  9
$DIMLFAC
 40
1.0
  9
$DIMTOFL
 70
     0
  9
$DIMTVP
 40
0.0
  9
$DIMTIX
 70
     0
  9
$DIMSOXD
 70
     0
  9
$DIMSAH
 70
     0
  9
$DIMBLK1
  1

  9
$DIMBLK2
  1

  9
$DIMSTYLE
  2
Standard
  9
$DIMCLRD
 70
     0
  9
$DIMCLRE
 70
     0
  9
$DIMCLRT
 70
     0
  9
$DIMTFAC
 40
1.0
  9
$DIMGAP
 40
0.09
  9
$DIMJUST
 70
     0
  9
$DIMSD1
 70
     0
  9
$DIMSD2
 70
     0
  9
$DIMTOLJ
 70
     1
  9
$DIMTZIN
 70
     0
  9
$DIMALTZ
 70
     0
  9
$DIMALTTZ
 70
     0
  9
$DIMUPT
 70
     0
  9
$DIMDEC
 70
     4
  9
$DIMTDEC
 70
     4
  9
$DIMALTU
 70
     2
  9
$DIMALTTD
 70
     2
  9
$DIMTXSTY
  7
Standard
  9
$DIMAUNIT
 70
     0
  9
$DIMADEC
 70
     0
  9
$DIMALTRND
 40
0.0
  9
$DIMAZIN
 70
     0
  9
$DIMDSEP
 70
    46
  9
$DIMATFIT
 70
     3
  9
$DIMFRAC
 70
     0
  9
$DIMLDRBLK
  1

  9
$DIMLUNIT
 70
     2
  9
$DIMLWD
 70
    -2
  9
$DIMLWE
 70
    -2
  9
$DIMTMOVE
 70
     0
  9
$LUNITS
 70
     2
  9
$LUPREC
 70
     4
  9
$SKETCHINC
 40
0.1
  9
$FILLETRAD
 40
0.5
  9
$AUNITS
 70
     0
  9
$AUPREC
 70
     0
  9
$MENU
  1
.
  9
$ELEVATION
 40
0.0
  9
$PELEVATION
 40
0.0
  9
$THICKNESS
 40
0.0
  9
$LIMCHECK
 70
     0
  9
$CHAMFERA
 40
0.5
  9
$CHAMFERB
 40
0.5
  9
$CHAMFERC
 40
1.0
  9
$CHAMFERD
 40
0.0
  9
$SKPOLY
 70
     0
  9
$TDCREATE
 40
2456142.469591829
  9
$TDUCREATE
 40
2456142.094591829
  9
$TDUPDATE
 40
2456142.46959184
  9
$TDUUPDATE
 40
2456142.09459184
  9
$TDINDWG
 40
0.0000000116
  9
$TDUSRTIMER
 40
0.0000000116
  9
$USRTIMER
 70
     1
  9
$ANGBASE
 50
0.0
  9
$ANGDIR
 70
     0
  9
$PDMODE
 70
     0
  9
$PDSIZE
 40
0.0
  9
$PLINEWID
 40
0.0
  9
$SPLFRAME
 70
     0
  9
$SPLINETYPE
 70
     6
  9
$SPLINESEGS
 70
     8
  9
$HANDSEED
  5
3E7
  9
$SURFTAB1
 70
     6
  9
$SURFTAB2
 70
     6
  9
$SURFTYPE
 70
     6
  9
$SURFU
 70
     6
  9
$SURFV
 70
     6
  9
$UCSBASE
  2

  9
$UCSNAME
  2

  9
$UCSORG
 10
0.0
 20
0.0
 30
0.0
  9
$UCSXDIR
 10
1.0
 20
0.0
 30
0.0
  9
$UCSYDIR
 10
0.0
 20
1.0
 30
0.0
  9
$UCSORTHOREF
  2

  9
$UCSORTHOVIEW
 70
     0
  9
$UCSORGTOP
 10
0.0
 20
0.0
 30
0.0
  9
$UCSORGBOTTOM
 10
0.0
 20
0.0
 30
0.0
  9
$UCSORGLEFT
 10
0.0
 20
0.0
 30
0.0
  9
$UCSORGRIGHT
 10
0.0
 20
0.0
 30
0.0
  9
$UCSORGFRONT
 10
0.0
 20
0.0
 30
0.0
  9
$UCSORGBACK
 10
0.0
 20
0.0
 30
0.0
  9
$PUCSBASE
  2

  9
$PUCSNAME
  2

  9
$PUCSORG
 10
0.0
 20
0.0
 30
0.0
  9
$PUCSXDIR
 10
1.0
 20
0.0
 30
0.0
  9
$PUCSYDIR
 10
0.0
 20
1.0
 30
0.0
  9
$PUCSORTHOREF
  2

  9
$PUCSORTHOVIEW
 70
     0
  9
$PUCSORGTOP
 10
0.0
 20
0.0
 30
0.0
  9
$PUCSORGBOTTOM
 10
0.0
 20
0.0
 30
0.0
  9
$PUCSORGLEFT
 10
0.0
 20
0.0
 30
0.0
  9
$PUCSORGRIGHT
 10
0.0
 20
0.0
 30
0.0
  9
$PUCSORGFRONT
 10
0.0
 20
0.0
 30
0.0
  9
$PUCSORGBACK
 10
0.0
 20
0.0
 30
0.0
  9
$USERI1
 70
     0
  9
$USERI2
 70
     0
  9
$USERI3
 70
     0
  9
$USERI4
 70
     0
  9
$USERI5
 70
     0
  9
$USERR1
 40
13.2
  9
$USERR2
 40
0.0
  9
$USERR3
 40
0.0
  9
$USERR4
 40
0.0
  9
$USERR5
 40
0.0
  9
$WORLDVIEW
 70
     1
  9
$SHADEDGE
 70
     3
  9
$SHADEDIF
 70
    70
  9
$TILEMODE
 70
     1
  9
$MAXACTVP
 70
    64
  9
$PINSBASE
 10
0.0
 20
0.0
 30
0.0
  9
$PLIMCHECK
 70
     0
  9
$PEXTMIN
 10
1.00000000000000E+20
 20
1.00000000000000E+20
 30
1.00000000000000E+20
  9
$PEXTMAX
 10
-1.00000000000000E+20
 20
-1.00000000000000E+20
 30
-1.00000000000000E+20
  9
$PLIMMIN
 10
0.0
 20
0.0
  9
$PLIMMAX
 10
12.0
 20
9.0
  9
$UNITMODE
 70
     0
  9
$VISRETAIN
 70
     1
  9
$PLINEGEN
 70
     0
  9
$PSLTSCALE
 70
     1
  9
$TREEDEPTH
 70
  3020
  9
$CMLSTYLE
  2
Standard
  9
$CMLJUST
 70
     0
  9
$CMLSCALE
 40
1.0
  9
$PROXYGRAPHICS
 70
     1
  9
$MEASUREMENT
 70
     1
  9
$CELWEIGHT
370
    -1
  9
$ENDCAPS
280
     0
  9
$JOINSTYLE
280
     0
  9
$LWDISPLAY
290
     0
  9
$INSUNITS
 70
     1
  9
$HYPERLINKBASE
  1

  9
$STYLESHEET
  1

  9
$XEDIT
290
     1
  9
$CEPSNTYPE
380
     0
  9
$PSTYLEMODE
290
     0
  9
$FINGERPRINTGUID
  2
{FAEB1C30-E019-11D5-929B-00C0DF256EC4}
  9
$VERSIONGUID
  2
{FAEB1C32-E019-11D5-929B-00C0DF256EC4}
  9
$EXTNAMES
290
     1
  9
$PSVPSCALE
 40
0.0
  9
$OLESTARTUP
290
     0
  0
ENDSEC
  0
SECTION
  2
CLASSES
  0
CLASS
  1
ACDBDICTIONARYWDFLT
  2
AcDbDictionaryWithDefault
  3
ObjectDBX Classes
 90
        0
280
     0
281
     0
  0
CLASS
  1
TABLESTYLE
  2
AcDbTableStyle
  3
ObjectDBX Classes
 90
     2047
280
     0
281
     0
  0
CLASS
  1
DICTIONARYVAR
  2
AcDbDictionaryVar
  3
ObjectDBX Classes
 90
        0
280
     0
281
     0
  0
CLASS
  1

  2
exOdDbCircle
  3

 90
        0
280
     0
281
     1
  0
CLASS
  1

  2
exOdDbSpline
  3

 90
        0
280
     0
281
     1
  0
CLASS
  1
ACDBPLACEHOLDER
  2
AcDbPlaceHolder
  3
ObjectDBX Classes
 90
        0
280
     0
281
     0
  0
CLASS
  1
LAYOUT
  2
AcDbLayout
  3
ObjectDBX Classes
 90
        0
280
     0
281
     0
  0
ENDSEC
  0
SECTION
  2
TABLES
  0
TABLE
  2
VPORT
  5
8
330
0
100
AcDbSymbolTable
 70
     2
  0
VPORT
  5
29
330
8
100
AcDbSymbolTableRecord
100
AcDbViewportTableRecord
  2
*Active
 70
     0
 10
0.0
 20
0.0
 11
1.0
 21
1.0
 12
262.5
 22
371.25
 13
0.0
 23
0.0
 14
0.5
 24
0.5
 15
0.5
 25
0.5
 16
0.0
 26
0.0
 36
1.0
 17
0.0
 27
0.0
 37
0.0
 40
816.7500000000001
 41
1.60267857142857
 42
50.0
 43
0.0
 44
0.0
 50
0.0
 51
0.0
 71
     0
 72
   100
 73
     1
 74
     3
 75
     0
 76
     0
 77
     0
 78
     0
281
     0
 65
     1
110
0.0
120
0.0
130
0.0
111
1.0
121
0.0
131
0.0
112
0.0
122
1.0
132
0.0
 79
     0
146
0.0
  0
ENDTAB
  0
TABLE
  2
LTYPE
  5
5
330
0
100
AcDbSymbolTable
 70
     8
  0
LTYPE
  5
14
330
5
100
AcDbSymbolTableRecord
100
AcDbLinetypeTableRecord
  2
ByBlock
 70
     0
  3

 72
    65
 73
     0
 40
0.0
  0
LTYPE
  5
15
330
5
100
AcDbSymbolTableRecord
100
AcDbLinetypeTableRecord
  2
ByLayer
 70
     0
  3

 72
    65
 73
     0
 40
0.0
  0
LTYPE
  5
16
330
5
100
AcDbSymbolTableRecord
100
AcDbLinetypeTableRecord
  2
Continuous
 70
     0
  3
Solid line
 72
    65
 73
     0
 40
0.0
  0
LTYPE
  5
2E
330
5
100
AcDbSymbolTableRecord
100
AcDbLinetypeTableRecord
  2
DASHED
 70
     0
  3
Dashed
 72
    65
 73
     2
 40
15.0
 49
7.0
 74
     0
 49
-8.0
 74
     0
  0
LTYPE
  5
2F
330
5
100
AcDbSymbolTableRecord
100
AcDbLinetypeTableRecord
  2
DOTTED
 70
     0
  3
Dotted
 72
    65
 73
     2
 40
1.0
 49
0.0
 74
     0
 49
-1.0
 74
     0
  0
LTYPE
  5
30
330
5
100
AcDbSymbolTableRecord
100
AcDbLinetypeTableRecord
  2
DOT_CENTER
 70
     0
  3
Dot_Center
 72
    65
 73
     4
 40
14.0
 49
12.0
 74
     0
 49
-1.0
 74
     0
 49
0.0
 74
     0
 49
-1.0
 74
     0
  0
LTYPE
  5
31
330
5
100
AcDbSymbolTableRecord
100
AcDbLinetypeTableRecord
  2
LONG_DASHED
 70
     0
  3
Long_Dashed
 72
    65
 73
     2
 40
15.0
 49
10.0
 74
     0
 49
-5.0
 74
     0
  0
LTYPE
  5
32
330
5
100
AcDbSymbolTableRecord
100
AcDbLinetypeTableRecord
  2
DASH_CENTER
 70
     0
  3
Dash_Center
 72
    65
 73
     4
 40
14.0
 49
11.0
 74
     0
 49
-1.0
 74
     0
 49
1.0
 74
     0
 49
-1.0
 74
     0
  0
LTYPE
  5
33
330
5
100
AcDbSymbolTableRecord
100
AcDbLinetypeTableRecord
  2
PHANTOM
 70
     0
  3
Phantom
 72
    65
 73
     6
 40
13.0
 49
10.0
 74
     0
 49
-1.0
 74
     0
 49
0.0
 74
     0
 49
-1.0
 74
     0
 49
0.0
 74
     0
 49
-1.0
 74
     0
  0
LTYPE
  5
34
330
5
100
AcDbSymbolTableRecord
100
AcDbLinetypeTableRecord
  2
CENTER_DASH_DASH
 70
     0
  3
Center_Dash_Dash
 72
    65
 73
     6
 40
14.0
 49
9.0
 74
     0
 49
-1.0
 74
     0
 49
1.0
 74
     0
 49
-1.0
 74
     0
 49
1.0
 74
     0
 49
-1.0
 74
     0
  0
ENDTAB
  0
TABLE
  2
LAYER
  5
2
330
0
100
AcDbSymbolTable
 70
     2
  0
LAYER
  5
10
330
2
100
AcDbSymbolTableRecord
100
AcDbLayerTableRecord
  2
0
 70
     0
 62
     7
  6
Continuous
370
    -3
390
F
  0
LAYER
  5
35
330
2
100
AcDbSymbolTableRecord
100
AcDbLayerTableRecord
  2
1
 70
     0
 62
     7
  6
Continuous
370
    -3
390
F
  0
ENDTAB
  0
TABLE
  2
STYLE
  5
3
330
0
100
AcDbSymbolTable
 70
     3
  0
STYLE
  5
11
330
3
100
AcDbSymbolTableRecord
100
AcDbTextStyleTableRecord
  2
Standard
 70
     0
 40
0.0
 41
1.0
 50
0.0
 71
     0
 42
0.2
  3
txt
  4

  0
STYLE
  5
BD
330
3
100
AcDbSymbolTableRecord
100
AcDbTextStyleTableRecord
  2
CONVERTER_1
 70
     0
 40
0.0
 41
0.89
 50
0.0
 71
     0
 42
0.2
  3
msmincho.ttc
  4

1001
ACAD
1000
MS Mincho
1071
    32785
  0
STYLE
  5
38F
330
3
100
AcDbSymbolTableRecord
100
AcDbTextStyleTableRecord
  2
CONVERTER_2
 70
     0
 40
0.0
 41
0.9
 50
0.0
 71
     0
 42
0.2
  3
txt.shx
  4

  0
ENDTAB
  0
TABLE
  2
VIEW
  5
6
330
0
100
AcDbSymbolTable
 70
     0
  0
ENDTAB
  0
TABLE
  2
UCS
  5
7
330
0
100
AcDbSymbolTable
 70
     0
  0
ENDTAB
  0
TABLE
  2
APPID
  5
9
330
0
100
AcDbSymbolTable
 70
     1
  0
APPID
  5
12
330
9
100
AcDbSymbolTableRecord
100
AcDbRegAppTableRecord
  2
ACAD
 70
     0
  0
ENDTAB
  0
TABLE
  2
DIMSTYLE
  5
A
330
0
100
AcDbSymbolTable
 70
     8
100
AcDbDimStyleTable
  0
DIMSTYLE
105
27
330
A
100
AcDbSymbolTableRecord
100
AcDbDimStyleTableRecord
  2
Standard
 70
     0
340
11
  0
DIMSTYLE
105
3A0
102
{ACAD_REACTORS
330
3A1
102
}
330
A
100
AcDbSymbolTableRecord
100
AcDbDimStyleTableRecord
  2
ME10_DIM_0
 70
     0
  3
{\Fgdt;n}<>
 41
8.75
 42
0.0
 44
2.5
 73
     0
 74
     0
 77
     1
 78
     8
140
8.75
147
0.625
172
     1
173
     1
176
     2
177
     2
178
     7
271
     2
340
38F
  0
DIMSTYLE
105
3AB
102
{ACAD_REACTORS
330
3AC
102
}
330
A
100
AcDbSymbolTableRecord
100
AcDbDimStyleTableRecord
  2
ME10_DIM_1
 70
     0
 41
8.75
 42
0.0
 44
2.5
 73
     0
 74
     0
 77
     1
 78
     8
140
8.75
147
0.625
172
     1
173
     1
176
     2
177
     2
178
     7
271
     0
340
BD
  0
DIMSTYLE
105
3B6
102
{ACAD_REACTORS
330
3B7
102
}
330
A
100
AcDbSymbolTableRecord
100
AcDbDimStyleTableRecord
  2
ME10_DIM_2
 70
     0
 41
8.75
 42
0.0
 44
2.5
 73
     0
 74
     0
 77
     1
 78
     8
140
8.75
147
0.625
172
     1
173
     1
176
     2
177
     2
178
     7
271
     2
340
38F
  0
DIMSTYLE
105
3C1
102
{ACAD_REACTORS
330
3C2
102
}
330
A
100
AcDbSymbolTableRecord
100
AcDbDimStyleTableRecord
  2
ME10_DIM_3
 70
     0
 41
8.75
 42
0.0
 44
2.5
 73
     0
 74
     0
 77
     1
 78
     8
140
8.75
147
0.625
172
     1
173
     1
176
     2
177
     2
178
     7
271
     2
340
38F
  0
DIMSTYLE
105
3CC
102
{ACAD_REACTORS
330
3CD
102
}
330
A
100
AcDbSymbolTableRecord
100
AcDbDimStyleTableRecord
  2
ME10_DIM_4
 70
     0
 41
8.75
 42
0.0
 44
2.5
 73
     0
 74
     0
 77
     1
 78
     8
140
8.75
147
0.625
172
     1
173
     1
176
     2
177
     2
178
     7
271
     2
340
38F
  0
DIMSTYLE
105
3D7
102
{ACAD_REACTORS
330
3D8
102
}
330
A
100
AcDbSymbolTableRecord
100
AcDbDimStyleTableRecord
  2
ME10_DIM_5
 70
     0
 41
8.75
 42
0.0
 44
2.5
 73
     0
 74
     0
 77
     1
 78
     8
140
8.75
147
0.625
172
     1
173
     1
176
     2
177
     2
178
     7
271
     2
340
38F
  0
DIMSTYLE
105
3E5
102
{ACAD_REACTORS
330
3E6
102
}
330
A
100
AcDbSymbolTableRecord
100
AcDbDimStyleTableRecord
  2
ME10_DIM_6
 70
     0
 41
8.75
 42
0.0
 44
2.5
 73
     0
 74
     0
 77
     1
 78
     8
140
8.75
147
0.625
172
     1
173
     1
176
     2
177
     2
178
     7
271
     2
340
38F
344
3E2
  0
ENDTAB
  0
TABLE
  2
BLOCK_RECORD
  5
1
330
0
100
AcDbSymbolTable
 70
    24
  0
BLOCK_RECORD
  5
1F
330
1
100
AcDbSymbolTableRecord
100
AcDbBlockTableRecord
  2
*Model_Space
340
22
  0
BLOCK_RECORD
  5
1B
330
1
100
AcDbSymbolTableRecord
100
AcDbBlockTableRecord
  2
*Paper_Space
340
1E
  0
BLOCK_RECORD
  5
23
330
1
100
AcDbSymbolTableRecord
100
AcDbBlockTableRecord
  2
*Paper_Space0
340
26
  0
BLOCK_RECORD
  5
36
330
1
100
AcDbSymbolTableRecord
100
AcDbBlockTableRecord
  2
_J__A4
340
0
102
{BLKREFS
331
6E
102
}
  0
BLOCK_RECORD
  5
39
330
1
100
AcDbSymbolTableRecord
100
AcDbBlockTableRecord
  2
A10-0A-13
340
0
102
{BLKREFS
331
6F
102
}
  0
BLOCK_RECORD
  5
3C
330
1
100
AcDbSymbolTableRecord
100
AcDbBlockTableRecord
  2
32-1-16
340
0
102
{BLKREFS
331
51
102
}
  0
BLOCK_RECORD
  5
3F
330
1
100
AcDbSymbolTableRecord
100
AcDbBlockTableRecord
  2
88-59
340
0
102
{BLKREFS
331
52
102
}
  0
BLOCK_RECORD
  5
42
330
1
100
AcDbSymbolTableRecord
100
AcDbBlockTableRecord
  2
84-54
340
0
102
{BLKREFS
331
53
102
}
  0
BLOCK_RECORD
  5
45
330
1
100
AcDbSymbolTableRecord
100
AcDbBlockTableRecord
  2
30-18A
340
0
102
{BLKREFS
331
4C
102
}
  0
BLOCK_RECORD
  5
48
330
1
100
AcDbSymbolTableRecord
100
AcDbBlockTableRecord
  2
62-6A
340
0
102
{BLKREFS
331
4D
102
}
  0
BLOCK_RECORD
  5
4B
330
1
100
AcDbSymbolTableRecord
100
AcDbBlockTableRecord
  2
80-29
340
0
102
{BLKREFS
331
54
102
}
  0
BLOCK_RECORD
  5
50
330
1
100
AcDbSymbolTableRecord
100
AcDbBlockTableRecord
  2
A13D-60X
340
0
102
{BLKREFS
331
70
102
}
  0
BLOCK_RECORD
  5
57
330
1
100
AcDbSymbolTableRecord
100
AcDbBlockTableRecord
  2
84-34
340
0
102
{BLKREFS
331
5E
102
}
  0
BLOCK_RECORD
  5
5A
330
1
100
AcDbSymbolTableRecord
100
AcDbBlockTableRecord
  2
84-35
340
0
102
{BLKREFS
331
5F
102
}
  0
BLOCK_RECORD
  5
5D
330
1
100
AcDbSymbolTableRecord
100
AcDbBlockTableRecord
  2
84-34X
340
0
102
{BLKREFS
331
66
102
}
  0
BLOCK_RECORD
  5
62
330
1
100
AcDbSymbolTableRecord
100
AcDbBlockTableRecord
  2
81-8-I
340
0
102
{BLKREFS
331
67
102
}
  0
BLOCK_RECORD
  5
65
330
1
100
AcDbSymbolTableRecord
100
AcDbBlockTableRecord
  2
81-8-2WC
340
0
102
{BLKREFS
331
6B
102
}
  0
BLOCK_RECORD
  5
6A
330
1
100
AcDbSymbolTableRecord
100
AcDbBlockTableRecord
  2
R281F
340
0
102
{BLKREFS
331
71
102
}
  0
BLOCK_RECORD
  5
397
330
1
100
AcDbSymbolTableRecord
100
AcDbBlockTableRecord
  2
*D016
340
0
  0
BLOCK_RECORD
  5
3A2
330
1
100
AcDbSymbolTableRecord
100
AcDbBlockTableRecord
  2
*D117
340
0
  0
BLOCK_RECORD
  5
3AD
330
1
100
AcDbSymbolTableRecord
100
AcDbBlockTableRecord
  2
*D218
340
0
  0
BLOCK_RECORD
  5
3B8
330
1
100
AcDbSymbolTableRecord
100
AcDbBlockTableRecord
  2
*D319
340
0
  0
BLOCK_RECORD
  5
3C3
330
1
100
AcDbSymbolTableRecord
100
AcDbBlockTableRecord
  2
*D420
340
0
  0
BLOCK_RECORD
  5
3CE
330
1
100
AcDbSymbolTableRecord
100
AcDbBlockTableRecord
  2
*D521
340
0
  0
BLOCK_RECORD
  5
3D9
330
1
100
AcDbSymbolTableRecord
100
AcDbBlockTableRecord
  2
*D622
340
0
  0
BLOCK_RECORD
  5
3E2
330
1
100
AcDbSymbolTableRecord
100
AcDbBlockTableRecord
  2
_None
340
0
  0
ENDTAB
  0
ENDSEC
  0
SECTION
  2
BLOCKS
  0
BLOCK
  5
20
330
1F
100
AcDbEntity
  8
0
100
AcDbBlockBegin
  2
*Model_Space
 70
     0
 71
     0
 10
0.0
 20
0.0
 30
0.0
  3
*Model_Space
  1

  0
ENDBLK
  5
21
330
1F
100
AcDbEntity
  8
0
100
AcDbBlockEnd
  0
BLOCK
  5
1C
330
1B
100
AcDbEntity
 67
     1
  8
0
100
AcDbBlockBegin
  2
*Paper_Space
 70
     0
 71
     0
 10
0.0
 20
0.0
 30
0.0
  3
*Paper_Space
  1

  0
ENDBLK
  5
1D
330
1B
100
AcDbEntity
 67
     1
  8
0
100
AcDbBlockEnd
  0
BLOCK
  5
24
330
23
100
AcDbEntity
  8
0
100
AcDbBlockBegin
  2
*Paper_Space0
 70
     0
 71
     0
 10
0.0
 20
0.0
 30
0.0
  3
*Paper_Space0
  1

  0
ENDBLK
  5
25
330
23
100
AcDbEntity
  8
0
100
AcDbBlockEnd
  0
BLOCK
  5
37
330
36
100
AcDbEntity
  8
0
100
AcDbBlockBegin
  2
_J__A4
 70
     0
 71
     0
 10
0.0
 20
0.0
 30
0.0
  3
_J__A4
  1

  0
POINT
  5
72
330
36
100
AcDbEntity
  8
1
 62
     4
100
AcDbPoint
 10
34.0
 20
34.00000000000001
 30
0.0
  0
POINT
  5
73
330
36
100
AcDbEntity
  8
1
 62
     4
100
AcDbPoint
 10
57.0
 20
12.25
 30
0.0
  0
POINT
  5
74
330
36
100
AcDbEntity
  8
1
 62
     4
100
AcDbPoint
 10
57.0
 20
20.75000000000001
 30
0.0
  0
POINT
  5
75
330
36
100
AcDbEntity
  8
1
 62
     4
100
AcDbPoint
 10
57.0
 20
24.75000000000001
 30
0.0
  0
POINT
  5
76
330
36
100
AcDbEntity
  8
1
 62
     4
100
AcDbPoint
 10
57.0
 20
16.25
 30
0.0
  0
POINT
  5
77
330
36
100
AcDbEntity
  8
1
 62
     4
100
AcDbPoint
 10
157.5
 20
19.00000000000001
 30
0.0
  0
POINT
  5
78
330
36
100
AcDbEntity
  8
1
 62
     4
100
AcDbPoint
 10
47.5
 20
282.0000000000003
 30
0.0
  0
POINT
  5
79
330
36
100
AcDbEntity
  8
1
 62
     4
100
AcDbPoint
 10
57.0
 20
22.75000000000001
 30
0.0
  0
POINT
  5
7A
330
36
100
AcDbEntity
  8
1
 62
     4
100
AcDbPoint
 10
57.0
 20
14.25
 30
0.0
  0
POINT
  5
7B
330
36
100
AcDbEntity
  8
1
 62
     4
100
AcDbPoint
 10
157.5
 20
12.5
 30
0.0
  0
POINT
  5
7C
330
36
100
AcDbEntity
  8
1
 62
     4
100
AcDbPoint
 10
163.25
 20
12.5
 30
0.0
  0
POINT
  5
7D
330
36
100
AcDbEntity
  8
1
 62
     4
100
AcDbPoint
 10
151.75
 20
12.5
 30
0.0
  0
POINT
  5
7E
330
36
100
AcDbEntity
  8
1
 62
     4
100
AcDbPoint
 10
134.75
 20
12.5
 30
0.0
  0
POINT
  5
7F
330
36
100
AcDbEntity
  8
1
 62
     4
100
AcDbPoint
 10
146.25
 20
12.5
 30
0.0
  0
POINT
  5
80
330
36
100
AcDbEntity
  8
1
 62
     4
100
AcDbPoint
 10
140.5
 20
12.5
 30
0.0
  0
POINT
  5
81
330
36
100
AcDbEntity
  8
1
 62
     4
100
AcDbPoint
 10
140.5
 20
19.00000000000001
 30
0.0
  0
POINT
  5
82
330
36
100
AcDbEntity
  8
1
 62
     4
100
AcDbPoint
 10
117.75
 20
12.5
 30
0.0
  0
POINT
  5
83
330
36
100
AcDbEntity
  8
1
 62
     4
100
AcDbPoint
 10
129.25
 20
12.5
 30
0.0
  0
POINT
  5
84
330
36
100
AcDbEntity
  8
1
 62
     4
100
AcDbPoint
 10
123.5
 20
12.5
 30
0.0
  0
POINT
  5
85
330
36
100
AcDbEntity
  8
1
 62
     4
100
AcDbPoint
 10
123.5
 20
19.00000000000001
 30
0.0
  0
POINT
  5
86
330
36
100
AcDbEntity
  8
1
 62
     4
100
AcDbPoint
 10
100.75
 20
12.5
 30
0.0
  0
POINT
  5
87
330
36
100
AcDbEntity
  8
1
 62
     4
100
AcDbPoint
 10
112.25
 20
12.5
 30
0.0
  0
POINT
  5
88
330
36
100
AcDbEntity
  8
1
 62
     4
100
AcDbPoint
 10
106.5
 20
12.5
 30
0.0
  0
POINT
  5
89
330
36
100
AcDbEntity
  8
1
 62
     4
100
AcDbPoint
 10
106.5
 20
19.00000000000001
 30
0.0
  0
POINT
  5
8A
330
36
100
AcDbEntity
  8
1
 62
     4
100
AcDbPoint
 10
85.25
 20
17.0
 30
0.0
  0
POINT
  5
8B
330
36
100
AcDbEntity
  8
1
 62
     4
100
AcDbPoint
 10
93.75
 20
17.0
 30
0.0
  0
LINE
  5
8C
330
36
100
AcDbEntity
  8
1
  6
Continuous
 62
     2
100
AcDbLine
 10
81.0
 20
27.00000000000001
 30
0.0
 11
81.0
 21
10.0
 31
0.0
  0
LINE
  5
8D
330
36
100
AcDbEntity
  8
1
  6
DOT_CENTER
 62
     2
100
AcDbLine
 10
187.0
 20
26.50000000000001
 30
0.0
 11
187.0
 21
20.50000000000001
 31
0.0
  0
LINE
  5
8E
330
36
100
AcDbEntity
  8
1
  6
DOT_CENTER
 62
     2
100
AcDbLine
 10
184.0
 20
23.50000000000001
 30
0.0
 11
197.0
 21
23.50000000000001
 31
0.0
  0
LINE
  5
8F
330
36
100
AcDbEntity
  8
1
  6
Continuous
 62
     7
100
AcDbLine
 10
196.0
 20
21.50000000000001
 30
0.0
 11
191.0
 21
22.30000000000001
 31
0.0
  0
LINE
  5
90
330
36
100
AcDbEntity
  8
1
  6
Continuous
 62
     7
100
AcDbLine
 10
196.0
 20
25.50000000000001
 30
0.0
 11
196.0
 21
21.50000000000001
 31
0.0
  0
LINE
  5
91
330
36
100
AcDbEntity
  8
1
  6
Continuous
 62
     7
100
AcDbLine
 10
191.0
 20
24.70000000000001
 30
0.0
 11
196.0
 21
25.50000000000001
 31
0.0
  0
LINE
  5
92
330
36
100
AcDbEntity
  8
1
  6
Continuous
 62
     7
100
AcDbLine
 10
191.0
 20
24.70000000000001
 30
0.0
 11
191.0
 21
22.30000000000001
 31
0.0
  0
LINE
  5
93
330
36
100
AcDbEntity
  8
1
  6
Continuous
 62
     2
100
AcDbLine
 10
33.0
 20
27.0
 30
0.0
 11
33.0
 21
10.0
 31
0.0
  0
LINE
  5
94
330
36
100
AcDbEntity
  8
1
  6
Continuous
 62
     2
100
AcDbLine
 10
25.0
 20
18.50000000000001
 30
0.0
 11
81.0
 21
18.50000000000001
 31
0.0
  0
LINE
  5
95
330
36
100
AcDbEntity
  8
1
  6
Continuous
 62
     7
100
AcDbLine
 10
200.0
 20
287.0000000000003
 30
0.0
 11
105.0
 21
287.0000000000003
 31
0.0
  0
LINE
  5
96
330
36
100
AcDbEntity
  8
1
  6
Continuous
 62
     7
100
AcDbLine
 10
200.0
 20
10.0
 30
0.0
 11
200.0
 21
148.5
 31
0.0
  0
LINE
  5
97
330
36
100
AcDbEntity
  8
1
  6
Continuous
 62
     7
100
AcDbLine
 10
25.0
 20
10.0
 30
0.0
 11
105.0
 21
10.0
 31
0.0
  0
LINE
  5
98
330
36
100
AcDbEntity
  8
1
  6
PHANTOM
 62
     4
100
AcDbLine
 10
0.0
 20
297.0
 30
0.0
 11
0.0
 21
0.0
 31
0.0
  0
LINE
  5
99
330
36
100
AcDbEntity
  8
1
  6
PHANTOM
 62
     4
100
AcDbLine
 10
210.0
 20
297.0
 30
0.0
 11
0.0
 21
297.0
 31
0.0
  0
LINE
  5
9A
330
36
100
AcDbEntity
  8
1
  6
PHANTOM
 62
     4
100
AcDbLine
 10
210.0
 20
0.0
 30
0.0
 11
210.0
 21
297.0
 31
0.0
  0
LINE
  5
9B
330
36
100
AcDbEntity
  8
1
  6
PHANTOM
 62
     4
100
AcDbLine
 10
0.0
 20
0.0
 30
0.0
 11
210.0
 21
0.0
 31
0.0
  0
LINE
  5
9C
330
36
100
AcDbEntity
  8
1
  6
Continuous
 62
     7
100
AcDbLine
 10
25.0
 20
41.0
 30
0.0
 11
200.0
 21
41.0
 31
0.0
  0
LINE
  5
9D
330
36
100
AcDbEntity
  8
1
  6
Continuous
 62
     7
100
AcDbLine
 10
200.0
 20
27.00000000000001
 30
0.0
 11
25.0
 21
27.00000000000001
 31
0.0
  0
LINE
  5
9E
330
36
100
AcDbEntity
  8
1
  6
Continuous
 62
     2
100
AcDbLine
 10
33.0
 20
41.00000000000001
 30
0.0
 11
33.0
 21
27.0
 31
0.0
  0
LINE
  5
9F
330
36
100
AcDbEntity
  8
1
  6
Continuous
 62
     2
100
AcDbLine
 10
55.0
 20
287.0000000000003
 30
0.0
 11
55.0
 21
277.0000000000003
 31
0.0
  0
LINE
  5
A0
330
36
100
AcDbEntity
  8
1
  6
Continuous
 62
     2
100
AcDbLine
 10
40.0
 20
287.0000000000003
 30
0.0
 11
40.0
 21
277.0000000000003
 31
0.0
  0
LINE
  5
A1
330
36
100
AcDbEntity
  8
1
  6
Continuous
 62
     7
100
AcDbLine
 10
25.0
 20
10.0
 30
0.0
 11
25.0
 21
148.5
 31
0.0
  0
LINE
  5
A2
330
36
100
AcDbEntity
  8
1
  6
Continuous
 62
     2
100
AcDbLine
 10
55.0
 20
277.0000000000003
 30
0.0
 11
25.0
 21
277.0000000000003
 31
0.0
  0
LINE
  5
A3
330
36
100
AcDbEntity
  8
1
  6
Continuous
 62
     2
100
AcDbLine
 10
166.0
 20
27.00000000000001
 30
0.0
 11
166.0
 21
10.0
 31
0.0
  0
LINE
  5
A4
330
36
100
AcDbEntity
  8
1
  6
Continuous
 62
     2
100
AcDbLine
 10
132.0
 20
27.00000000000001
 30
0.0
 11
132.0
 21
9.99999999999999
 31
0.0
  0
LINE
  5
A5
330
36
100
AcDbEntity
  8
1
  6
Continuous
 62
     2
100
AcDbLine
 10
149.0
 20
27.00000000000001
 30
0.0
 11
149.0
 21
10.0
 31
0.0
  0
LINE
  5
A6
330
36
100
AcDbEntity
  8
1
  6
Continuous
 62
     2
100
AcDbLine
 10
115.0
 20
27.00000000000001
 30
0.0
 11
115.0
 21
9.99999999999999
 31
0.0
  0
LINE
  5
A7
330
36
100
AcDbEntity
  8
1
  6
Continuous
 62
     2
100
AcDbLine
 10
98.0
 20
27.00000000000001
 30
0.0
 11
98.0
 21
9.99999999999999
 31
0.0
  0
LINE
  5
A8
330
36
100
AcDbEntity
  8
1
  6
Continuous
 62
     2
100
AcDbLine
 10
166.0
 20
20.00000000000001
 30
0.0
 11
200.0
 21
20.00000000000001
 31
0.0
  0
LINE
  5
A9
330
36
100
AcDbEntity
  8
1
  6
Continuous
 62
     2
100
AcDbLine
 10
105.0
 20
287.0000000000003
 30
0.0
 11
105.0
 21
292.0000000000003
 31
0.0
  0
LINE
  5
AA
330
36
100
AcDbEntity
  8
1
  6
Continuous
 62
     7
100
AcDbLine
 10
105.0
 20
287.0000000000003
 30
0.0
 11
25.0
 21
287.0000000000003
 31
0.0
  0
LINE
  5
AB
330
36
100
AcDbEntity
  8
1
  6
Continuous
 62
     2
100
AcDbLine
 10
25.0
 20
148.5
 30
0.0
 11
20.0
 21
148.5
 31
0.0
  0
LINE
  5
AC
330
36
100
AcDbEntity
  8
1
  6
Continuous
 62
     7
100
AcDbLine
 10
25.0
 20
148.5
 30
0.0
 11
25.0
 21
287.0000000000003
 31
0.0
  0
LINE
  5
AD
330
36
100
AcDbEntity
  8
1
  6
Continuous
 62
     2
100
AcDbLine
 10
200.0
 20
148.5
 30
0.0
 11
205.0
 21
148.5
 31
0.0
  0
LINE
  5
AE
330
36
100
AcDbEntity
  8
1
  6
Continuous
 62
     7
100
AcDbLine
 10
200.0
 20
148.5
 30
0.0
 11
200.0
 21
287.0000000000003
 31
0.0
  0
LINE
  5
AF
330
36
100
AcDbEntity
  8
1
  6
Continuous
 62
     2
100
AcDbLine
 10
105.0
 20
10.0
 30
0.0
 11
105.0
 21
5.0
 31
0.0
  0
LINE
  5
B0
330
36
100
AcDbEntity
  8
1
  6
Continuous
 62
     7
100
AcDbLine
 10
105.0
 20
10.0
 30
0.0
 11
200.0
 21
10.0
 31
0.0
  0
CIRCLE
  5
B1
330
36
100
AcDbEntity
  8
1
  6
DOT_CENTER
 62
     7
100
AcDbCircle
 10
89.5
 20
18.0
 30
0.0
 40
0.1000000000000227
  0
CIRCLE
  5
B2
330
36
100
AcDbEntity
  8
1
  6
DOT_CENTER
 62
     7
100
AcDbCircle
 10
89.5
 20
16.0
 30
0.0
 40
0.1000000000000227
  0
CIRCLE
  5
B3
330
36
100
AcDbEntity
  8
1
  6
Continuous
 62
     7
100
AcDbCircle
 10
187.0
 20
23.50000000000001
 30
0.0
 40
2.0
  0
CIRCLE
  5
B4
330
36
100
AcDbEntity
  8
1
  6
Continuous
 62
     7
100
AcDbCircle
 10
187.0
 20
23.50000000000001
 30
0.0
 40
1.200000000000102
  0
CIRCLE
  5
B5
330
36
100
AcDbEntity
  8
1
  6
Continuous
 62
     7
100
AcDbCircle
 10
154.5
 20
12.5
 30
0.0
 40
0.3000000000000114
  0
CIRCLE
  5
B6
330
36
100
AcDbEntity
  8
1
  6
Continuous
 62
     7
100
AcDbCircle
 10
160.5
 20
12.5
 30
0.0
 40
0.3000000000000114
  0
CIRCLE
  5
B7
330
36
100
AcDbEntity
  8
1
  6
Continuous
 62
     7
100
AcDbCircle
 10
143.5
 20
12.5
 30
0.0
 40
0.3000000000000114
  0
CIRCLE
  5
B8
330
36
100
AcDbEntity
  8
1
  6
Continuous
 62
     7
100
AcDbCircle
 10
137.5
 20
12.5
 30
0.0
 40
0.3000000000000114
  0
CIRCLE
  5
B9
330
36
100
AcDbEntity
  8
1
  6
Continuous
 62
     7
100
AcDbCircle
 10
126.5
 20
12.5
 30
0.0
 40
0.2999999999999972
  0
CIRCLE
  5
BA
330
36
100
AcDbEntity
  8
1
  6
Continuous
 62
     7
100
AcDbCircle
 10
120.5
 20
12.5
 30
0.0
 40
0.2999999999999972
  0
CIRCLE
  5
BB
330
36
100
AcDbEntity
  8
1
  6
Continuous
 62
     7
100
AcDbCircle
 10
109.5
 20
12.5
 30
0.0
 40
0.2999999999999972
  0
CIRCLE
  5
BC
330
36
100
AcDbEntity
  8
1
  6
Continuous
 62
     7
100
AcDbCircle
 10
103.5
 20
12.5
 30
0.0
 40
0.2999999999999972
  0
MTEXT
  5
BE
330
36
100
AcDbEntity
  8
1
 62
   250
100
AcDbMText
 10
25.0
 20
5.0
 30
0.0
 40
3.5
 41
0.0
 71
     4
 72
     1
  1
備考欄の文字列 原点位置=4
  7
CONVERTER_1
 73
     1
 44
0.7202881152461
  0
MTEXT
  5
BF
330
36
100
AcDbEntity
  8
1
 62
     2
100
AcDbMText
 10
89.5
 20
24.00000000000001
 30
0.0
 40
3.5
 41
0.0
 71
     5
 72
     1
  1
尺度
  7
CONVERTER_1
 73
     1
 44
0.7202881152461
  0
MTEXT
  5
C0
330
36
100
AcDbEntity
  8
1
 62
     2
100
AcDbMText
 10
135.5
 20
25.00000000000001
 30
0.0
 40
3.0
 41
0.0
 71
     5
 72
     1
  1
製図
  7
CONVERTER_1
 73
     1
 44
0.78031212484994
  0
MTEXT
  5
C1
330
36
100
AcDbEntity
  8
1
 62
     2
100
AcDbMText
 10
152.5
 20
25.00000000000001
 30
0.0
 40
3.0
 41
0.0
 71
     5
 72
     1
  1
設計
  7
CONVERTER_1
 73
     1
 44
0.78031212484994
  0
MTEXT
  5
C2
330
36
100
AcDbEntity
  8
1
 62
     2
100
AcDbMText
 10
118.5
 20
25.00000000000001
 30
0.0
 40
3.0
 41
0.0
 71
     5
 72
     1
  1
検図
  7
CONVERTER_1
 73
     1
 44
0.78031212484994
  0
MTEXT
  5
C3
330
36
100
AcDbEntity
  8
1
 62
     2
100
AcDbMText
 10
175.0
 20
23.50000000000001
 30
0.0
 40
3.5
 41
0.0
 71
     5
 72
     1
  1
第三角法
  7
CONVERTER_1
 73
     1
 44
0.7202881152461
  0
MTEXT
  5
C4
330
36
100
AcDbEntity
  8
1
 62
     2
100
AcDbMText
 10
101.5
 20
25.00000000000001
 30
0.0
 40
3.0
 41
0.0
 71
     5
 72
     1
  1
承認
  7
CONVERTER_1
 73
     1
 44
0.78031212484994
  0
MTEXT
  5
C5
330
36
100
AcDbEntity
  8
1
 62
     2
100
AcDbMText
 10
29.0
 20
14.25
 30
0.0
 40
3.5
 41
0.0
 71
     5
 72
     1
  1
品番
  7
CONVERTER_1
 73
     1
 44
0.96038415366146
  0
MTEXT
  5
C6
330
36
100
AcDbEntity
  8
1
 62
     2
100
AcDbMText
 10
29.0
 20
22.75
 30
0.0
 40
3.5
 41
0.0
 71
     5
 72
     1
  1
品名
  7
CONVERTER_1
 73
     1
 44
0.96038415366146
  0
MTEXT
  5
C7
330
36
100
AcDbEntity
  8
1
 62
     2
100
AcDbMText
 10
29.0
 20
34.00000000000001
 30
0.0
 40
3.5
 41
0.0
 71
     5
 72
     1
  1
備考
  7
CONVERTER_1
 73
     1
 44
0.60024009603842
  0
MTEXT
  5
C8
330
36
100
AcDbEntity
  8
1
 62
     2
100
AcDbMText
 10
32.5
 20
282.0000000000003
 30
0.0
 40
5.0
 41
0.0
 71
     5
 72
     1
  1
図番
  7
CONVERTER_1
 73
     1
 44
0.60024009603842
  0
MTEXT
  5
C9
330
36
100
AcDbEntity
  8
1
 62
     7
100
AcDbMText
 10
171.5
 20
15.0
 30
0.0
 40
2.5
 41
0.0
 71
     5
 72
     1
  1
株式会社
  7
CONVERTER_1
 73
     1
 44
1.32052821128451
  0
MTEXT
  5
CA
330
36
100
AcDbEntity
  8
1
 62
     7
100
AcDbMText
 10
188.5
 20
15.0
 30
0.0
 40
3.0
 41
0.0
 71
     5
 72
     1
  1
三栄水栓製作所
  7
CONVERTER_1
 73
     1
 44
1.32052821128451
  0
ENDBLK
  5
38
330
36
100
AcDbEntity
  8
0
100
AcDbBlockEnd
  0
BLOCK
  5
3A
330
39
100
AcDbEntity
  8
0
100
AcDbBlockBegin
  2
A10-0A-13
 70
     0
 71
     0
 10
401.0
 20
240.5
 30
0.0
  3
A10-0A-13
  1

  0
LINE
  5
CB
330
39
100
AcDbEntity
  8
1
  6
Continuous
 62
     7
100
AcDbLine
 10
136.016047107468
 20
613.1644236126297
 30
0.0
 11
136.0160471074679
 21
627.8560918171971
 31
0.0
  0
LINE
  5
CC
330
39
100
AcDbEntity
  8
1
  6
Continuous
 62
     7
100
AcDbLine
 10
136.8144468642728
 20
565.856576397392
 30
0.0
 11
138.9707593862039
 21
555.6493991275752
 31
0.0
  0
LINE
  5
CD
330
39
100
AcDbEntity
  8
1
  6
Continuous
 62
     7
100
AcDbLine
 10
114.266047107468
 20
222.4999999999999
 30
0.0
 11
114.266047107468
 21
224.7320508075689
 31
0.0
  0
LINE
  5
CE
330
39
100
AcDbEntity
  8
1
  6
Continuous
 62
     7
100
AcDbLine
 10
140.266047107468
 20
222.4999999999999
 30
0.0
 11
140.266047107468
 21
224.7320508075689
 31
0.0
  0
LINE
  5
CF
330
39
100
AcDbEntity
  8
1
  6
Continuous
 62
     7
100
AcDbLine
 10
139.355612216425
 20
260.8000000000001
 30
0.0
 11
140.252604321829
 21
241.0910429071817
 31
0.0
  0
LINE
  5
D0
330
39
100
AcDbEntity
  8
1
  6
Continuous
 62
     7
100
AcDbLine
 10
115.176481998511
 20
260.8000000000001
 30
0.0
 11
114.2794898931071
 21
241.0910429071817
 31
0.0
  0
LINE
  5
D1
330
39
100
AcDbEntity
  8
1
  6
Continuous
 62
     2
100
AcDbLine
 10
115.266047107468
 20
222.9999999999999
 30
0.0
 11
115.266047107468
 21
222.4999999999999
 31
0.0
  0
LINE
  5
D2
330
39
100
AcDbEntity
  8
1
  6
Continuous
 62
     2
100
AcDbLine
 10
139.266047107468
 20
222.9999999999999
 30
0.0
 11
139.266047107468
 21
222.4999999999999
 31
0.0
  0
LINE
  5
D3
330
39
100
AcDbEntity
  8
1
  6
Continuous
 62
     2
100
AcDbLine
 10
139.266047107468
 20
222.9999999999999
 30
0.0
 11
140.266047107468
 21
224.7320508075689
 31
0.0
  0
LINE
  5
D4
330
39
100
AcDbEntity
  8
1
  6
Continuous
 62
     2
100
AcDbLine
 10
114.266047107468
 20
224.7320508075689
 30
0.0
 11
115.266047107468
 21
222.9999999999999
 31
0.0
  0
LINE
  5
D5
330
39
100
AcDbEntity
  8
1
  6
Continuous
 62
     7
100
AcDbLine
 10
140.266047107468
 20
222.9999999999999
 30
0.0
 11
114.266047107468
 21
222.9999999999999
 31
0.0
  0
LINE
  5
D6
330
39
100
AcDbEntity
  8
1
  6
Continuous
 62
     7
100
AcDbLine
 10
114.266047107468
 20
224.7320508075689
 30
0.0
 11
118.7816363303748
 21
242.639456418239
 31
0.0
  0
LINE
  5
D7
330
39
100
AcDbEntity
  8
1
  6
Continuous
 62
     7
100
AcDbLine
 10
140.266047107468
 20
224.7320508075689
 30
0.0
 11
135.7504578845612
 21
242.639456418239
 31
0.0
  0
LINE
  5
D8
330
39
100
AcDbEntity
  8
1
  6
Continuous
 62
     7
100
AcDbLine
 10
116.7660471074679
 20
647.356091817197
 30
0.0
 11
137.7660471074679
 21
647.356091817197
 31
0.0
  0
LINE
  5
D9
330
39
100
AcDbEntity
  8
1
  6
Continuous
 62
     7
100
AcDbLine
 10
116.7660471074679
 20
636.0881426247661
 30
0.0
 11
137.7660471074679
 21
636.0881426247661
 31
0.0
  0
LINE
  5
DA
330
39
100
AcDbEntity
  8
1
  6
Continuous
 62
     7
100
AcDbLine
 10
137.7660471074679
 20
647.356091817197
 30
0.0
 11
137.7660471074679
 21
634.356091817197
 31
0.0
  0
LINE
  5
DB
330
39
100
AcDbEntity
  8
1
  6
Continuous
 62
     2
100
AcDbLine
 10
136.7660471074679
 20
636.0881426247661
 30
0.0
 11
137.7660471074679
 21
634.356091817197
 31
0.0
  0
LINE
  5
DC
330
39
100
AcDbEntity
  8
1
  6
Continuous
 62
     2
100
AcDbLine
 10
136.7660471074679
 20
648.356091817197
 30
0.0
 11
136.7660471074679
 21
636.0881426247661
 31
0.0
  0
LINE
  5
DD
330
39
100
AcDbEntity
  8
1
  6
Continuous
 62
     7
100
AcDbLine
 10
137.7660471074679
 20
647.356091817197
 30
0.0
 11
136.7660471074679
 21
648.356091817197
 31
0.0
  0
LINE
  5
DE
330
39
100
AcDbEntity
  8
1
  6
Continuous
 62
     7
100
AcDbLine
 10
150.2660471074679
 20
634.356091817197
 30
0.0
 11
150.2660471074679
 21
632.356091817197
 31
0.0
  0
LINE
  5
DF
330
39
100
AcDbEntity
  8
1
  6
Continuous
 62
     2
100
AcDbLine
 10
117.7660471074679
 20
636.0881426247661
 30
0.0
 11
117.7660471074679
 21
648.356091817197
 31
0.0
  0
LINE
  5
E0
330
39
100
AcDbEntity
  8
1
  6
Continuous
 62
     7
100
AcDbLine
 10
116.7660471074679
 20
634.356091817197
 30
0.0
 11
116.7660471074679
 21
647.356091817197
 31
0.0
  0
LINE
  5
E1
330
39
100
AcDbEntity
  8
1
  6
Continuous
 62
     7
100
AcDbLine
 10
117.7660471074679
 20
648.356091817197
 30
0.0
 11
116.7660471074679
 21
647.356091817197
 31
0.0
  0
LINE
  5
E2
330
39
100
AcDbEntity
  8
1
  6
Continuous
 62
     2
100
AcDbLine
 10
116.7660471074679
 20
634.356091817197
 30
0.0
 11
117.7660471074679
 21
636.0881426247661
 31
0.0
  0
LINE
  5
E3
330
39
100
AcDbEntity
  8
1
  6
Continuous
 62
     7
100
AcDbLine
 10
104.2660471074679
 20
634.356091817197
 30
0.0
 11
150.2660471074679
 21
634.356091817197
 31
0.0
  0
LINE
  5
E4
330
39
100
AcDbEntity
  8
1
  6
Continuous
 62
     7
100
AcDbLine
 10
104.2660471074679
 20
634.356091817197
 30
0.0
 11
104.2660471074679
 21
632.356091817197
 31
0.0
  0
LINE
  5
E5
330
39
100
AcDbEntity
  8
1
  6
Continuous
 62
     7
100
AcDbLine
 10
149.7660471074679
 20
631.856091817197
 30
0.0
 11
104.7660471074679
 21
631.856091817197
 31
0.0
  0
LINE
  5
E6
330
39
100
AcDbEntity
  8
1
  6
Continuous
 62
     7
100
AcDbLine
 10
117.7660471074679
 20
648.356091817197
 30
0.0
 11
136.7660471074679
 21
648.356091817197
 31
0.0
  0
LINE
  5
E7
330
39
100
AcDbEntity
  8
1
  6
Continuous
 62
     7
100
AcDbLine
 10
118.5160471074679
 20
627.8560918171971
 30
0.0
 11
118.5160471074678
 21
613.1644236126297
 31
0.0
  0
LINE
  5
E8
330
39
100
AcDbEntity
  8
1
  6
Continuous
 62
     7
100
AcDbLine
 10
115.5613348287319
 20
555.6493991275752
 30
0.0
 11
117.7176473506632
 21
565.856576397392
 31
0.0
  0
LINE
  5
E9
330
39
100
AcDbEntity
  8
1
  6
Continuous
 62
     7
100
AcDbLine
 10
413.3550517771865
 20
260.8
 30
0.0
 11
413.4446751921901
 21
257.9768624273933
 31
0.0
  0
LINE
  5
EA
330
39
100
AcDbEntity
  8
1
  6
Continuous
 62
     7
100
AcDbLine
 10
458.9999999999999
 20
251.0
 30
0.0
 11
458.9999999999999
 21
230.0
 31
0.0
  0
LINE
  5
EB
330
39
100
AcDbEntity
  8
1
  6
Continuous
 62
     7
100
AcDbLine
 10
443.5
 20
253.25
 30
0.0
 11
443.5
 21
227.75
 31
0.0
  0
LINE
  5
EC
330
39
100
AcDbEntity
  8
1
  6
Continuous
 62
     7
100
AcDbLine
 10
446.0
 20
230.0
 30
0.0
 11
446.0
 21
251.0
 31
0.0
  0
LINE
  5
ED
330
39
100
AcDbEntity
  8
1
  6
Continuous
 62
     7
100
AcDbLine
 10
447.7320508075691
 20
251.0
 30
0.0
 11
447.7320508075691
 21
230.0
 31
0.0
  0
LINE
  5
EE
330
39
100
AcDbEntity
  8
1
  6
Continuous
 62
     7
100
AcDbLine
 10
388.5456437727347
 20
257.6719098225118
 30
0.0
 11
388.6449482228143
 21
260.8
 31
0.0
  0
LINE
  5
EF
330
39
100
AcDbEntity
  8
1
  6
Continuous
 62
     7
100
AcDbLine
 10
353.9788057171807
 20
228.2857650654928
 30
0.0
 11
352.9999999999998
 21
224.8599450553599
 31
0.0
  0
LINE
  5
F0
330
39
100
AcDbEntity
  8
1
  6
Continuous
 62
     7
100
AcDbLine
 10
439.5
 20
249.25
 30
0.0
 11
423.1796641092687
 21
249.2500000000003
 31
0.0
  0
LINE
  5
F1
330
39
100
AcDbEntity
  8
1
  6
Continuous
 62
     7
100
AcDbLine
 10
423.179664109268
 20
231.7499999999999
 30
0.0
 11
439.5
 21
231.75
 31
0.0
  0
LINE
  5
F2
330
39
100
AcDbEntity
  8
1
  6
Continuous
 62
     7
100
AcDbLine
 10
382.5676914088328
 20
232.0
 30
0.0
 11
381.741473890027
 21
232.0
 31
0.0
  0
LINE
  5
F3
330
39
100
AcDbEntity
  8
1
  6
Continuous
 62
     7
100
AcDbLine
 10
377.9811468171208
 20
228.4259311954378
 30
0.0
 11
378.9999999999998
 21
224.8599450553599
 31
0.0
  0
LINE
  5
F4
330
39
100
AcDbEntity
  8
1
  6
Continuous
 62
     7
100
AcDbLine
 10
458.9999999999999
 20
230.0
 30
0.0
 11
446.0
 21
230.0
 31
0.0
  0
LINE
  5
F5
330
39
100
AcDbEntity
  8
1
  6
Continuous
 62
     2
100
AcDbLine
 10
447.7320508075691
 20
231.0
 30
0.0
 11
446.0
 21
230.0
 31
0.0
  0
LINE
  5
F6
330
39
100
AcDbEntity
  8
1
  6
Continuous
 62
     2
100
AcDbLine
 10
459.9999999999999
 20
231.0
 30
0.0
 11
447.7320508075691
 21
231.0
 31
0.0
  0
LINE
  5
F7
330
39
100
AcDbEntity
  8
1
  6
Continuous
 62
     7
100
AcDbLine
 10
458.9999999999999
 20
230.0
 30
0.0
 11
459.9999999999999
 21
231.0
 31
0.0
  0
LINE
  5
F8
330
39
100
AcDbEntity
  8
1
  6
Continuous
 62
     7
100
AcDbLine
 10
443.5
 20
227.75
 30
0.0
 11
443.5
 21
218.0
 31
0.0
  0
LINE
  5
F9
330
39
100
AcDbEntity
  8
1
  6
Continuous
 62
     7
100
AcDbLine
 10
446.0
 20
217.5
 30
0.0
 11
444.0
 21
217.5
 31
0.0
  0
LINE
  5
FA
330
39
100
AcDbEntity
  8
1
  6
Continuous
 62
     7
100
AcDbLine
 10
446.0
 20
230.0
 30
0.0
 11
446.0
 21
217.5
 31
0.0
  0
LINE
  5
FB
330
39
100
AcDbEntity
  8
1
  6
Continuous
 62
     2
100
AcDbLine
 10
447.7320508075691
 20
250.0
 30
0.0
 11
459.9999999999999
 21
250.0
 31
0.0
  0
LINE
  5
FC
330
39
100
AcDbEntity
  8
1
  6
Continuous
 62
     7
100
AcDbLine
 10
446.0
 20
251.0
 30
0.0
 11
458.9999999999999
 21
251.0
 31
0.0
  0
LINE
  5
FD
330
39
100
AcDbEntity
  8
1
  6
Continuous
 62
     7
100
AcDbLine
 10
459.9999999999999
 20
250.0
 30
0.0
 11
458.9999999999999
 21
251.0
 31
0.0
  0
LINE
  5
FE
330
39
100
AcDbEntity
  8
1
  6
Continuous
 62
     2
100
AcDbLine
 10
446.0
 20
251.0
 30
0.0
 11
447.7320508075691
 21
250.0
 31
0.0
  0
LINE
  5
FF
330
39
100
AcDbEntity
  8
1
  6
Continuous
 62
     7
100
AcDbLine
 10
446.0
 20
263.5
 30
0.0
 11
446.0
 21
251.0
 31
0.0
  0
LINE
  5
100
330
39
100
AcDbEntity
  8
1
  6
Continuous
 62
     7
100
AcDbLine
 10
446.0
 20
263.5
 30
0.0
 11
444.0
 21
263.5
 31
0.0
  0
LINE
  5
101
330
39
100
AcDbEntity
  8
1
  6
Continuous
 62
     7
100
AcDbLine
 10
443.5
 20
253.25
 30
0.0
 11
443.5
 21
263.0
 31
0.0
  0
LINE
  5
102
330
39
100
AcDbEntity
  8
1
  6
Continuous
 62
     7
100
AcDbLine
 10
378.9999999999998
 20
224.8599450553599
 30
0.0
 11
378.9999999999998
 21
222.5
 31
0.0
  0
LINE
  5
103
330
39
100
AcDbEntity
  8
1
  6
Continuous
 62
     2
100
AcDbLine
 10
352.9999999999999
 20
224.7320508075688
 30
0.0
 11
353.9999999999998
 21
223.0
 31
0.0
  0
LINE
  5
104
330
39
100
AcDbEntity
  8
1
  6
Continuous
 62
     7
100
AcDbLine
 10
352.9999999999998
 20
222.5
 30
0.0
 11
352.9999999999999
 21
224.7320508075688
 31
0.0
  0
LINE
  5
105
330
39
100
AcDbEntity
  8
1
  6
Continuous
 62
     2
100
AcDbLine
 10
377.9999999999998
 20
223.0
 30
0.0
 11
378.9999999999998
 21
224.7320508075689
 31
0.0
  0
LINE
  5
106
330
39
100
AcDbEntity
  8
1
  6
Continuous
 62
     2
100
AcDbLine
 10
377.9999999999998
 20
223.0
 30
0.0
 11
377.9999999999998
 21
222.5
 31
0.0
  0
LINE
  5
107
330
39
100
AcDbEntity
  8
1
  6
Continuous
 62
     2
100
AcDbLine
 10
353.9999999999998
 20
222.5
 30
0.0
 11
353.9999999999998
 21
223.0
 31
0.0
  0
LINE
  5
108
330
39
100
AcDbEntity
  8
1
  6
Continuous
 62
     7
100
AcDbLine
 10
352.9999999999999
 20
224.7320508075688
 30
0.0
 11
352.9999999999998
 21
224.8599450553599
 31
0.0
  0
LINE
  5
109
330
39
100
AcDbEntity
  8
1
  6
Continuous
 62
     7
100
AcDbLine
 10
459.9999999999999
 20
231.0
 30
0.0
 11
459.9999999999999
 21
250.0
 31
0.0
  0
ARC
  5
10A
330
39
100
AcDbEntity
  8
1
  6
Continuous
 62
     7
100
AcDbCircle
 10
127.266047107468
 20
240.4999999999999
 30
0.0
 40
22.99999999999983
100
AcDbArc
 50
-53.10362499676096
 51
58.18845294248605
  0
ARC
  5
10B
330
39
100
AcDbEntity
  8
1
  6
Continuous
 62
     7
100
AcDbCircle
 10
127.266047107468
 20
240.4999999999999
 30
0.0
 40
23.00000000000014
100
AcDbArc
 50
121.8115470575139
 51
-126.896375003239
  0
ARC
  5
10C
330
39
100
AcDbEntity
  8
1
  6
Continuous
 62
     7
100
AcDbCircle
 10
127.266047107468
 20
240.4999999999999
 30
0.0
 40
12.99999999999993
100
AcDbArc
 50
-33.54217325347406
 51
2.60584165292783
  0
ARC
  5
10D
330
39
100
AcDbEntity
  8
1
  6
Continuous
 62
     7
100
AcDbCircle
 10
127.266047107468
 20
240.4999999999999
 30
0.0
 40
8.749999999999991
100
AcDbArc
 50
14.15283703934392
 51
165.8471629606561
  0
ARC
  5
10E
330
39
100
AcDbEntity
  8
1
  6
Continuous
 62
     7
100
AcDbCircle
 10
127.266047107468
 20
240.4999999999999
 30
0.0
 40
12.99999999999996
100
AcDbArc
 50
177.3941583470722
 51
-146.457826746526
  0
ARC
  5
10F
330
39
100
AcDbEntity
  8
1
  6
Continuous
 62
     7
100
AcDbCircle
 10
127.2660471074679
 20
554.3560918171969
 30
0.0
 40
13.00000000000007
100
AcDbArc
 50
142.4250638103305
 51
37.57493618966888
  0
ARC
  5
110
330
39
100
AcDbEntity
  8
1
  6
Continuous
 62
     7
100
AcDbCircle
 10
140.0160471074679
 20
627.856091817197
 30
0.0
 40
4.0
100
AcDbArc
 50
90.0
 51
179.9999999999984
  0
ARC
  5
111
330
39
100
AcDbEntity
  8
1
  6
Continuous
 62
     7
100
AcDbCircle
 10
114.5160471074679
 20
627.856091817197
 30
0.0
 40
4.0
100
AcDbArc
 50
0.00000000000163
 51
90.0
  0
ARC
  5
112
330
39
100
AcDbEntity
  8
1
  6
Continuous
 62
     7
100
AcDbCircle
 10
400.9999999999998
 20
256.4999999999999
 30
0.0
 40
28.99999999999984
100
AcDbArc
 50
-117.439240150681
 51
-68.30528397761385
  0
ARC
  5
113
330
39
100
AcDbEntity
  8
1
  6
Continuous
 62
     7
100
AcDbCircle
 10
381.9590346244211
 20
228.0059209663762
 30
0.0
 40
3.999999999997908
100
AcDbArc
 50
93.1178665175734
 51
173.9726861048966
  0
ARC
  5
114
330
39
100
AcDbEntity
  8
1
  6
Continuous
 62
     7
100
AcDbCircle
 10
439.5
 20
227.75
 30
0.0
 40
4.0
100
AcDbArc
 50
0.0
 51
90.0
  0
ARC
  5
115
330
39
100
AcDbEntity
  8
1
  6
Continuous
 62
     7
100
AcDbCircle
 10
439.5
 20
253.25
 30
0.0
 40
4.0
100
AcDbArc
 50
-90.0
 51
0.0
  0
ARC
  5
116
330
39
100
AcDbEntity
  8
1
  6
Continuous
 62
     7
100
AcDbCircle
 10
377.7044305739921
 20
224.667101616935
 30
0.0
 40
24.00000000000223
100
AcDbArc
 50
99.36066212030299
 51
171.3280051740367
  0
ARC
  5
117
330
39
100
AcDbEntity
  8
1
  6
Continuous
 62
     7
100
AcDbCircle
 10
381.7706447616611
 20
199.9999999995406
 30
0.0
 40
49.00000000045976
100
AcDbArc
 50
92.19404509977881
 51
99.36066212030437
  0
ARC
  5
118
330
39
100
AcDbEntity
  8
1
  6
Continuous
 62
     7
100
AcDbCircle
 10
379.5501754950731
 20
257.957480244026
 30
0.0
 40
9.000000000003837
100
AcDbArc
 50
-87.8059549002254
 51
-1.81830296445901
  0
ARC
  5
119
330
39
100
AcDbEntity
  8
1
  6
Continuous
 62
     7
100
AcDbCircle
 10
149.7660471074679
 20
632.356091817197
 30
0.0
 40
0.5
100
AcDbArc
 50
-90.0
 51
0.0
  0
ARC
  5
11A
330
39
100
AcDbEntity
  8
1
  6
Continuous
 62
     7
100
AcDbCircle
 10
104.7660471074679
 20
632.356091817197
 30
0.0
 40
0.5
100
AcDbArc
 50
180.0
 51
-90.0
  0
ARC
  5
11B
330
39
100
AcDbEntity
  8
1
  6
Continuous
 62
     7
100
AcDbCircle
 10
423.1796641092687
 20
280.2500000000002
 30
0.0
 40
30.99999999999992
100
AcDbArc
 50
-91.926336140206
 51
-90.0
  0
ARC
  5
11C
330
39
100
AcDbEntity
  8
1
  6
Continuous
 62
     7
100
AcDbCircle
 10
422.440143469847
 20
258.2624328489062
 30
0.0
 40
8.999999999998559
100
AcDbArc
 50
-178.1816970355484
 51
-91.92633614020402
  0
ARC
  5
11D
330
39
100
AcDbEntity
  8
1
  6
Continuous
 62
     7
100
AcDbCircle
 10
423.1796641092687
 20
200.7499999999999
 30
0.0
 40
31.0
100
AcDbArc
 50
90.00000000000127
 51
111.6947160223873
  0
ARC
  5
11E
330
39
100
AcDbEntity
  8
1
  6
Continuous
 62
     7
100
AcDbCircle
 10
382.5676914088328
 20
221.0
 30
0.0
 40
11.00000000000016
100
AcDbArc
 50
62.56075984931719
 51
90.0
  0
ARC
  5
11F
330
39
100
AcDbEntity
  8
1
  6
Continuous
 62
     7
100
AcDbCircle
 10
444.0
 20
218.0
 30
0.0
 40
0.5
100
AcDbArc
 50
180.0
 51
-90.0
  0
ARC
  5
120
330
39
100
AcDbEntity
  8
1
  6
Continuous
 62
     7
100
AcDbCircle
 10
444.0
 20
263.0
 30
0.0
 40
0.5
100
AcDbArc
 50
90.0
 51
180.0
  0
ENDBLK
  5
3B
330
39
100
AcDbEntity
  8
0
100
AcDbBlockEnd
  0
BLOCK
  5
3D
330
3C
100
AcDbEntity
  8
0
100
AcDbBlockBegin
  2
32-1-16
 70
     0
 71
     0
 10
416.0103514310853
 20
223.5774701513785
 30
0.0
  3
32-1-16
  1

  0
LINE
  5
121
330
3C
100
AcDbEntity
  8
1
  6
Continuous
 62
     7
100
AcDbLine
 10
379.0
 20
223.0
 30
0.0
 11
352.9999999999998
 21
223.0
 31
0.0
  0
LINE
  5
122
330
3C
100
AcDbEntity
  8
1
  6
Continuous
 62
     7
100
AcDbLine
 10
118.266047107468
 20
212.5
 30
0.0
 11
136.266047107468
 21
212.5
 31
0.0
  0
LINE
  5
123
330
3C
100
AcDbEntity
  8
1
  6
Continuous
 62
     7
100
AcDbLine
 10
141.266047107468
 20
213.786822750287
 30
0.0
 11
141.266047107468
 21
220.9282511788298
 31
0.0
  0
LINE
  5
124
330
3C
100
AcDbEntity
  8
1
  6
Continuous
 62
     7
100
AcDbLine
 10
113.266047107468
 20
213.7868227502869
 30
0.0
 11
113.266047107468
 21
220.9282511788299
 31
0.0
  0
LINE
  5
125
330
3C
100
AcDbEntity
  8
1
  6
Continuous
 62
     7
100
AcDbLine
 10
137.0339962998991
 20
211.5
 30
0.0
 11
117.4980979150368
 21
211.5
 31
0.0
  0
LINE
  5
126
330
3C
100
AcDbEntity
  8
1
  6
Continuous
 62
     7
100
AcDbLine
 10
140.5660471074681
 20
221.5
 30
0.0
 11
113.9660471074678
 21
221.5
 31
0.0
  0
LINE
  5
127
330
3C
100
AcDbEntity
  8
1
  6
Continuous
 62
     7
100
AcDbLine
 10
138.8240681691985
 20
212.5
 30
0.0
 11
138.766047107468
 21
212.5
 31
0.0
  0
LINE
  5
128
330
3C
100
AcDbEntity
  8
1
  6
Continuous
 62
     7
100
AcDbLine
 10
115.766047107468
 20
212.5
 30
0.0
 11
115.7080260457375
 21
212.5
 31
0.0
  0
LINE
  5
129
330
3C
100
AcDbEntity
  8
1
  6
Continuous
 62
     7
100
AcDbLine
 10
113.2660471074679
 20
547.7040244693718
 30
0.0
 11
113.2660471074679
 21
561.008159165022
 31
0.0
  0
LINE
  5
12A
330
3C
100
AcDbEntity
  8
1
  6
Continuous
 62
     7
100
AcDbLine
 10
114.5051877965665
 20
563.1544137962667
 30
0.0
 11
117.5137513043282
 21
564.8914087473469
 31
0.0
  0
LINE
  5
12B
330
3C
100
AcDbEntity
  8
1
  6
Continuous
 62
     7
100
AcDbLine
 10
140.0269064183694
 20
563.1544137962667
 30
0.0
 11
137.0183429106075
 21
564.891408747347
 31
0.0
  0
LINE
  5
12C
330
3C
100
AcDbEntity
  8
1
  6
Continuous
 62
     7
100
AcDbLine
 10
141.2660471074679
 20
547.7040244693718
 30
0.0
 11
141.2660471074679
 21
561.008159165022
 31
0.0
  0
LINE
  5
12D
330
3C
100
AcDbEntity
  8
1
  6
Continuous
 62
     7
100
AcDbLine
 10
128.5051877965665
 20
538.9057024903023
 30
0.0
 11
140.0269064183694
 21
545.5577698381273
 31
0.0
  0
LINE
  5
12E
330
3C
100
AcDbEntity
  8
1
  6
Continuous
 62
     7
100
AcDbLine
 10
114.5051877965665
 20
545.5577698381273
 30
0.0
 11
126.0269064183694
 21
538.9057024903023
 31
0.0
  0
LINE
  5
12F
330
3C
100
AcDbEntity
  8
1
  6
Continuous
 62
     7
100
AcDbLine
 10
366.0
 20
212.5
 30
0.0
 11
357.2016780209302
 21
212.5
 31
0.0
  0
LINE
  5
130
330
3C
100
AcDbEntity
  8
1
  6
Continuous
 62
     7
100
AcDbLine
 10
356.2320508075688
 20
211.5
 30
0.0
 11
366.0
 21
211.5
 31
0.0
  0
LINE
  5
131
330
3C
100
AcDbEntity
  8
1
  6
Continuous
 62
     7
100
AcDbLine
 10
354.5
 20
212.5
 30
0.0
 11
354.4419789382695
 21
212.5
 31
0.0
  0
LINE
  5
132
330
3C
100
AcDbEntity
  8
1
  6
Continuous
 62
     7
100
AcDbLine
 10
352.6999999999999
 20
221.5
 30
0.0
 11
352.813
 21
221.5
 31
0.0
  0
LINE
  5
133
330
3C
100
AcDbEntity
  8
1
  6
Continuous
 62
     7
100
AcDbLine
 10
366.0
 20
221.5
 30
0.0
 11
352.6999999999999
 21
221.5
 31
0.0
  0
LINE
  5
134
330
3C
100
AcDbEntity
  8
1
  6
Continuous
 62
     7
100
AcDbLine
 10
374.7983219790694
 20
212.5
 30
0.0
 11
366.0
 21
212.5
 31
0.0
  0
LINE
  5
135
330
3C
100
AcDbEntity
  8
1
  6
Continuous
 62
     7
100
AcDbLine
 10
366.0
 20
211.5
 30
0.0
 11
375.7679491924312
 21
211.5
 31
0.0
  0
LINE
  5
136
330
3C
100
AcDbEntity
  8
1
  6
Continuous
 62
     7
100
AcDbLine
 10
377.5580210617306
 20
212.5
 30
0.0
 11
377.5
 21
212.5
 31
0.0
  0
LINE
  5
137
330
3C
100
AcDbEntity
  8
1
  6
Continuous
 62
     7
100
AcDbLine
 10
379.1869999999999
 20
221.5
 30
0.0
 11
379.3
 21
221.5
 31
0.0
  0
LINE
  5
138
330
3C
100
AcDbEntity
  8
1
  6
Continuous
 62
     7
100
AcDbLine
 10
379.3
 20
221.5
 30
0.0
 11
366.0
 21
221.5
 31
0.0
  0
ARC
  5
139
330
3C
100
AcDbEntity
  8
1
  6
Continuous
 62
     7
100
AcDbCircle
 10
137.766047107468
 20
217.3575369645585
 30
0.0
 40
5.000000000000064
100
AcDbArc
 50
-74.66244233044749
 51
-45.57299599919494
  0
ARC
  5
13A
330
3C
100
AcDbEntity
  8
1
  6
Continuous
 62
     7
100
AcDbCircle
 10
116.7660471074679
 20
217.3575369645585
 30
0.0
 40
4.99999999999997
100
AcDbArc
 50
124.0557977425695
 51
134.4270040008052
  0
ARC
  5
13B
330
3C
100
AcDbEntity
  8
1
  6
Continuous
 62
     7
100
AcDbCircle
 10
137.766047107468
 20
217.3575369645585
 30
0.0
 40
4.999999999999915
100
AcDbArc
 50
45.57299599919334
 51
55.94420225743053
  0
ARC
  5
13C
330
3C
100
AcDbEntity
  8
1
  6
Continuous
 62
     7
100
AcDbCircle
 10
116.7660471074679
 20
217.3575369645585
 30
0.0
 40
5.000000000000068
100
AcDbArc
 50
-134.4270040008034
 51
-105.3375576695517
  0
ARC
  5
13D
330
3C
100
AcDbEntity
  8
1
  6
Continuous
 62
     7
100
AcDbCircle
 10
127.2660471074679
 20
554.3560918171969
 30
0.0
 40
15.50000000000004
100
AcDbArc
 50
145.4146209151604
 51
154.5853790848388
  0
ARC
  5
13E
330
3C
100
AcDbEntity
  8
1
  6
Continuous
 62
     7
100
AcDbCircle
 10
127.2660471074679
 20
554.3560918171969
 30
0.0
 40
15.50000000000003
100
AcDbArc
 50
25.41462091516118
 51
34.5853790848394
  0
ARC
  5
13F
330
3C
100
AcDbEntity
  8
1
  6
Continuous
 62
     7
100
AcDbCircle
 10
127.2660471074679
 20
554.3560918171969
 30
0.0
 40
15.50000000000001
100
AcDbArc
 50
-34.58537908483871
 51
-25.41462091516118
  0
ARC
  5
140
330
3C
100
AcDbEntity
  8
1
  6
Continuous
 62
     7
100
AcDbCircle
 10
127.2660471074679
 20
554.3560918171969
 30
0.0
 40
15.49999999999999
100
AcDbArc
 50
-94.58537908483883
 51
-85.41462091516075
  0
ARC
  5
141
330
3C
100
AcDbEntity
  8
1
  6
Continuous
 62
     7
100
AcDbCircle
 10
127.2660471074679
 20
554.3560918171969
 30
0.0
 40
15.50000000000003
100
AcDbArc
 50
-154.5853790848388
 51
-145.4146209151611
  0
ARC
  5
142
330
3C
100
AcDbEntity
  8
1
  6
Continuous
 62
     7
100
AcDbCircle
 10
355.5
 20
217.3575369645584
 30
0.0
 40
5.00000000000008
100
AcDbArc
 50
124.055797742569
 51
-105.3375576695541
  0
ARC
  5
143
330
3C
100
AcDbEntity
  8
1
  6
Continuous
 62
     7
100
AcDbCircle
 10
376.5
 20
217.3575369645584
 30
0.0
 40
5.000000000000014
100
AcDbArc
 50
-74.66244233044463
 51
55.94420225743207
  0
SPLINE
  5
144
330
3C
100
AcDbEntity
  8
1
  6
Continuous
 62
     7
100
AcDbSpline
210
0.0
220
0.0
230
1.0
 70
     8
 71
     3
 72
    25
 73
    21
 74
    19
 42
0.0000000001
 43
0.0000000001
 44
0.00000001
 40
0.0
 40
0.0
 40
0.0
 40
0.0
 40
1.525997370509997
 40
3.041992003908032
 40
4.036425737835995
 40
5.033630630935258
 40
5.779988211950814
 40
6.525153434394486
 40
7.113139666336378
 40
7.696814705994923
 40
7.949097156283644
 40
8.201245184935861
 40
8.846896632263213
 40
9.499909919801278
 40
10.24994291556175
 40
11.00216046997801
 40
12.12686677425047
 40
13.24812599415151
 40
14.81779815243845
 40
16.39782997493239
 40
16.39782997493239
 40
16.39782997493239
 40
16.39782997493239
 10
366.0
 20
220.9282345296944
 30
0.0
 10
366.5075488279881
 20
220.8949166610193
 30
0.0
 10
367.5193195598185
 20
220.828499318463
 30
0.0
 10
368.8529819818793
 20
220.614579043932
 30
0.0
 10
369.9680443252057
 20
220.2517396085405
 30
0.0
 10
370.7932397894909
 20
219.8550959315666
 30
0.0
 10
371.4907821139068
 20
219.4018867055041
 30
0.0
 10
372.0039899181864
 20
218.928784114859
 30
0.0
 10
372.3807973269859
 20
218.4082233334229
 30
0.0
 10
372.5700156948525
 20
217.9665052159787
 30
0.0
 10
372.6414350983913
 20
217.6099638538789
 30
0.0
 10
372.6668292953929
 20
217.2262731722106
 30
0.0
 10
372.5680724555948
 20
216.7085196243283
 30
0.0
 10
372.257980024658
 20
216.0924416174036
 30
0.0
 10
371.7774046837473
 20
215.5483026521518
 30
0.0
 10
371.0748793019201
 20
215.020332151005
 30
0.0
 10
370.1897689577453
 20
214.5458645942425
 30
0.0
 10
368.9828847837957
 20
214.1291866593961
 30
0.0
 10
367.5728863485849
 20
213.8938682170475
 30
0.0
 10
366.5254438275833
 20
213.8225142593403
 30
0.0
 10
366.0
 20
213.7867199356431
 30
0.0
 11
366.0
 21
220.9282345296944
 31
0.0
 11
367.5209665010199
 21
220.8044246852603
 31
0.0
 11
369.0138558447251
 21
220.5407560751773
 31
0.0
 11
369.9589661058553
 21
220.2314584103297
 31
0.0
 11
370.8568043244582
 21
219.7975181701616
 31
0.0
 11
371.4786093375197
 21
219.3847129322212
 31
0.0
 11
372.0218659142914
 21
218.8746702864221
 31
0.0
 11
372.3628498861489
 21
218.3956528129522
 31
0.0
 11
372.5866472298623
 21
217.8565876027343
 31
0.0
 11
372.6359482335118
 21
217.6091692409201
 31
0.0
 11
372.6520673478249
 21
217.3575369645584
 31
0.0
 11
372.5403963425247
 21
216.7216160748157
 31
0.0
 11
372.250898599722
 21
216.1362807772183
 31
0.0
 11
371.7612458528909
 21
215.5681349488871
 31
0.0
 11
371.1661170910351
 21
215.1080773372948
 31
0.0
 11
370.1768765334617
 21
214.5729442789606
 31
0.0
 11
369.1182530626321
 21
214.2034330000776
 31
0.0
 11
367.5744159317515
 21
213.9198177716156
 31
0.0
 11
366.0
 21
213.7867199356431
 31
0.0
  0
SPLINE
  5
145
330
3C
100
AcDbEntity
  8
1
  6
Continuous
 62
     7
100
AcDbSpline
210
0.0
220
0.0
230
1.0
 70
     8
 71
     3
 72
    25
 73
    21
 74
    19
 42
0.0000000001
 43
0.0000000001
 44
0.00000001
 40
0.0
 40
0.0
 40
0.0
 40
0.0
 40
1.525997370510049
 40
3.041992003908262
 40
4.036425737836064
 40
5.033630630935173
 40
5.779988211950855
 40
6.525153434394529
 40
7.113139666336407
 40
7.696814705995027
 40
7.949097156283748
 40
8.201245184935964
 40
8.846896632263317
 40
9.499909919801331
 40
10.24994291556184
 40
11.00216046997814
 40
12.12686677425056
 40
13.24812599415154
 40
14.8177981524386
 40
16.39782997493271
 40
16.39782997493271
 40
16.39782997493271
 40
16.39782997493271
 10
366.0
 20
220.9282345296944
 30
0.0
 10
365.492451172012
 20
220.8949166610193
 30
0.0
 10
364.4806804401814
 20
220.828499318463
 30
0.0
 10
363.1470180181207
 20
220.6145790439321
 30
0.0
 10
362.0319556747943
 20
220.2517396085405
 30
0.0
 10
361.2067602105092
 20
219.8550959315665
 30
0.0
 10
360.5092178860932
 20
219.4018867055041
 30
0.0
 10
359.9960100818135
 20
218.928784114859
 30
0.0
 10
359.6192026730141
 20
218.408223333423
 30
0.0
 10
359.4299843051472
 20
217.9665052159787
 30
0.0
 10
359.3585649016086
 20
217.609963853879
 30
0.0
 10
359.3331707046069
 20
217.2262731722106
 30
0.0
 10
359.4319275444052
 20
216.7085196243284
 30
0.0
 10
359.7420199753417
 20
216.0924416174034
 30
0.0
 10
360.2225953162525
 20
215.5483026521519
 30
0.0
 10
360.9251206980798
 20
215.020332151005
 30
0.0
 10
361.8102310422543
 20
214.5458645942425
 30
0.0
 10
363.0171152162042
 20
214.129186659396
 30
0.0
 10
364.4271136514149
 20
213.8938682170475
 30
0.0
 10
365.4745561724166
 20
213.8225142593403
 30
0.0
 10
366.0
 20
213.7867199356431
 30
0.0
 11
366.0
 21
220.9282345296944
 31
0.0
 11
364.4790334989801
 21
220.8044246852604
 31
0.0
 11
362.9861441552747
 21
220.5407560751773
 31
0.0
 11
362.0410338941446
 21
220.2314584103297
 31
0.0
 11
361.1431956755419
 21
219.7975181701616
 31
0.0
 11
360.5213906624803
 21
219.3847129322212
 31
0.0
 11
359.9781340857085
 21
218.8746702864221
 31
0.0
 11
359.637150113851
 21
218.3956528129522
 31
0.0
 11
359.4133527701375
 21
217.8565876027343
 31
0.0
 11
359.3640517664881
 21
217.6091692409201
 31
0.0
 11
359.3479326521749
 21
217.3575369645584
 31
0.0
 11
359.4596036574752
 21
216.7216160748157
 31
0.0
 11
359.7491014002777
 21
216.1362807772183
 31
0.0
 11
360.2387541471089
 21
215.5681349488871
 31
0.0
 11
360.8338829089647
 21
215.1080773372948
 31
0.0
 11
361.8231234665381
 21
214.5729442789606
 31
0.0
 11
362.8817469373676
 21
214.2034330000776
 31
0.0
 11
364.4255840682483
 21
213.9198177716156
 31
0.0
 11
366.0
 21
213.7867199356431
 31
0.0
  0
SPLINE
  5
146
330
3C
100
AcDbEntity
  8
1
  6
Continuous
 62
     7
100
AcDbSpline
210
0.0
220
0.0
230
1.0
 70
    11
 71
     3
 72
    79
 73
    75
 74
    73
 42
0.0000000001
 43
0.0000000001
 44
0.00000001
 40
0.0
 40
0.0
 40
0.0
 40
0.0
 40
0.2903672562528946
 40
0.5807357597934013
 40
0.8724071051837186
 40
1.164081918217582
 40
1.45818993154012
 40
1.752302927360599
 40
2.049663207833892
 40
2.347029113126437
 40
2.648045792769594
 40
2.949067942938992
 40
3.25369775314156
 40
3.558332281909209
 40
3.866104864362676
 40
4.173881026138634
 40
4.483966067735119
 40
4.794053328114175
 40
5.105362224076283
 40
5.416671870214315
 40
5.727981516352573
 40
6.039290412314794
 40
6.34937767269371
 40
6.659462714290113
 40
6.96723887606607
 40
7.275011458519537
 40
7.579645987287118
 40
7.884275797489653
 40
8.185297947659159
 40
8.486314627302436
 40
8.783680532595014
 40
9.081040813068148
 40
9.375153808888614
 40
9.669261822211128
 40
9.960936635245
 40
10.25260798063533
 40
10.54297648417583
 40
10.83334374042873
 40
11.12371099668162
 40
11.41407950022201
 40
11.70575084561233
 40
11.99742565864622
 40
12.29153367196882
 40
12.5856466677894
 40
12.88300694826255
 40
13.18037285355511
 40
13.48138953319837
 40
13.78241168336789
 40
14.08704149357035
 40
14.39167602233795
 40
14.69944860479142
 40
15.00722476656732
 40
15.31730980816374
 40
15.62739706854264
 40
15.93870596450487
 40
16.25001561064313
 40
16.56132525678117
 40
16.87263415274328
 40
17.18272141312232
 40
17.49280645471882
 40
17.80058261649478
 40
18.10835519894819
 40
18.41298972771581
 40
18.71761953791835
 40
19.01864168808778
 40
19.3196583677309
 40
19.61702427302351
 40
19.91438455349673
 40
20.20849754931732
 40
20.50260556263995
 40
20.79428037567382
 40
21.08595172106413
 40
21.37632022460453
 40
21.66668748085742
 40
21.66668748085742
 40
21.66668748085742
 40
21.66668748085742
 10
378.1243556529821
 20
213.786822750287
 30
0.0
 10
378.2211794627161
 20
213.7894543476898
 30
0.0
 10
378.4148274980958
 20
213.7947175537996
 30
0.0
 10
378.7031883764842
 20
213.8370126274934
 30
0.0
 10
378.9869005197303
 20
213.9042235205353
 30
0.0
 10
379.2643255820906
 20
213.9982786860872
 30
0.0
 10
379.5326464931665
 20
214.1177101440032
 30
0.0
 10
379.7906462562768
 20
214.2619856396729
 30
0.0
 10
380.0354482592991
 20
214.4295897150358
 30
0.0
 10
380.266144484143
 20
214.6197522693373
 30
0.0
 10
380.4800401912119
 20
214.8303749897767
 30
0.0
 10
380.6764137335908
 20
215.0605966057256
 30
0.0
 10
380.8529630785598
 20
215.3078330292318
 30
0.0
 10
381.0090658750394
 20
215.5710672035792
 30
0.0
 10
381.1429548894621
 20
215.8474307582546
 30
0.0
 10
381.2540829062809
 20
216.1356442022041
 30
0.0
 10
381.3412736660803
 20
216.4327826454397
 30
0.0
 10
381.4040992725389
 20
216.7372057995491
 30
0.0
 10
381.4419478223134
 20
217.046142411915
 30
0.0
 10
381.4546100842711
 20
217.3575369645587
 30
0.0
 10
381.4419478223134
 20
217.668931517201
 30
0.0
 10
381.404099272539
 20
217.9778681295715
 30
0.0
 10
381.3412736660804
 20
218.2822912836641
 30
0.0
 10
381.2540829062808
 20
218.5794297269622
 30
0.0
 10
381.1429548894622
 20
218.8676431706797
 30
0.0
 10
381.0090658750396
 20
219.144006726216
 30
0.0
 10
380.8529630785596
 20
219.4072408973823
 30
0.0
 10
380.676413733591
 20
219.6544773326878
 30
0.0
 10
380.4800401912117
 20
219.8846989051017
 30
0.0
 10
380.2661444841429
 20
220.0953217869526
 30
0.0
 10
380.0354482592991
 20
220.2854837458599
 30
0.0
 10
379.7906462562768
 20
220.4530900294797
 30
0.0
 10
379.5326464931665
 20
220.5973573699636
 30
0.0
 10
379.2643255820906
 20
220.7168191093207
 30
0.0
 10
378.9869005197302
 20
220.8107621563891
 30
0.0
 10
378.7031883764842
 20
220.8783901288369
 30
0.0
 10
378.4148274980958
 20
220.9191352536854
 30
0.0
 10
378.1243556529821
 20
220.9328091316125
 30
0.0
 10
377.8338838078684
 20
220.9191352536854
 30
0.0
 10
377.5455229294802
 20
220.8783901288368
 30
0.0
 10
377.261810786234
 20
220.8107621563893
 30
0.0
 10
376.9843857238737
 20
220.7168191093207
 30
0.0
 10
376.7160648127977
 20
220.5973573699635
 30
0.0
 10
376.4580650496873
 20
220.4530900294797
 30
0.0
 10
376.2132630466651
 20
220.2854837458598
 30
0.0
 10
375.9825668218211
 20
220.0953217869526
 30
0.0
 10
375.7686711147522
 20
219.8846989051018
 30
0.0
 10
375.5722975723733
 20
219.6544773326878
 30
0.0
 10
375.3957482274045
 20
219.4072408973823
 30
0.0
 10
375.2396454309246
 20
219.144006726216
 30
0.0
 10
375.1057564165023
 20
218.8676431706797
 30
0.0
 10
374.9946283996835
 20
218.5794297269622
 30
0.0
 10
374.9074376398841
 20
218.2822912836641
 30
0.0
 10
374.8446120334253
 20
217.9778681295714
 30
0.0
 10
374.8067634836508
 20
217.668931517201
 30
0.0
 10
374.7941012216933
 20
217.3575369645588
 30
0.0
 10
374.806763483651
 20
217.046142411915
 30
0.0
 10
374.8446120334253
 20
216.7372057995491
 30
0.0
 10
374.9074376398842
 20
216.4327826454397
 30
0.0
 10
374.9946283996833
 20
216.135644202204
 30
0.0
 10
375.1057564165022
 20
215.8474307582547
 30
0.0
 10
375.2396454309247
 20
215.5710672035792
 30
0.0
 10
375.3957482274045
 20
215.3078330292317
 30
0.0
 10
375.5722975723733
 20
215.0605966057256
 30
0.0
 10
375.7686711147522
 20
214.8303749897767
 30
0.0
 10
375.9825668218213
 20
214.6197522693372
 30
0.0
 10
376.213263046665
 20
214.4295897150359
 30
0.0
 10
376.4580650496873
 20
214.2619856396729
 30
0.0
 10
376.7160648127976
 20
214.1177101440031
 30
0.0
 10
376.9843857238739
 20
213.9982786860872
 30
0.0
 10
377.261810786234
 20
213.9042235205354
 30
0.0
 10
377.5455229294803
 20
213.8370126274934
 30
0.0
 10
377.8338838078685
 20
213.7947175537996
 30
0.0
 10
378.027531843248
 20
213.7894543476898
 30
0.0
 10
378.1243556529821
 20
213.786822750287
 30
0.0
 11
378.1243556529821
 21
213.786822750287
 31
0.0
 11
378.4144034147801
 21
213.8004403631395
 31
0.0
 11
378.7019153393158
 21
213.841069922553
 31
0.0
 11
378.9856526491844
 21
213.9086370203915
 31
0.0
 11
379.2619261668397
 21
214.0021631664722
 31
0.0
 11
379.5306432289384
 21
214.12170673191
 31
0.0
 11
379.7873724899383
 21
214.2652077453452
 31
0.0
 11
380.0327897797206
 21
214.433116918052
 31
0.0
 11
380.2622888879733
 21
214.62221118275
 31
0.0
 11
380.4768434470101
 21
214.8333447485795
 31
0.0
 11
380.6722452665093
 21
215.0623261098931
 31
0.0
 11
380.8493486716495
 21
215.3101843458906
 31
0.0
 11
381.0047853084327
 21
215.5721798574228
 31
0.0
 11
381.139038537056
 21
215.8491275656897
 31
0.0
 11
381.2498049528433
 21
216.1362807772183
 31
0.0
 11
381.3371627083163
 21
216.4338061636656
 31
0.0
 11
381.399859401831
 21
216.7374889482809
 31
0.0
 11
381.4377418218002
 21
217.0464843381534
 31
0.0
 11
381.4503893268948
 21
217.3575369645584
 31
0.0
 11
381.4377418218002
 21
217.6685895909637
 31
0.0
 11
381.399859401831
 21
217.9775849808362
 31
0.0
 11
381.3371627083163
 21
218.2812677654514
 31
0.0
 11
381.2498049528433
 21
218.5787931518986
 31
0.0
 11
381.139038537056
 21
218.8659463634272
 31
0.0
 11
381.0047853084327
 21
219.1428940716941
 31
0.0
 11
380.8493486716495
 21
219.4048895832262
 31
0.0
 11
380.6722452665093
 21
219.6527478192237
 31
0.0
 11
380.4768434470101
 21
219.8817291805374
 31
0.0
 11
380.2622888879733
 21
220.0928627463671
 31
0.0
 11
380.0327897797205
 21
220.281957011065
 31
0.0
 11
379.7873724899383
 21
220.4498661837717
 31
0.0
 11
379.5306432289384
 21
220.5933671972069
 31
0.0
 11
379.2619261668397
 21
220.7129107626446
 31
0.0
 11
378.9856526491844
 21
220.8064369087254
 31
0.0
 11
378.7019153393158
 21
220.8740040065639
 31
0.0
 11
378.4144034147801
 21
220.9146335659774
 31
0.0
 11
378.1243556529821
 21
220.9282511788298
 31
0.0
 11
377.8343078911841
 21
220.9146335659774
 31
0.0
 11
377.5467959666485
 21
220.8740040065639
 31
0.0
 11
377.2630586567799
 21
220.8064369087254
 31
0.0
 11
376.9867851391246
 21
220.7129107626446
 31
0.0
 11
376.7180680770258
 21
220.5933671972069
 31
0.0
 11
376.4613388160258
 21
220.4498661837717
 31
0.0
 11
376.2159215262436
 21
220.281957011065
 31
0.0
 11
375.9864224179908
 21
220.0928627463671
 31
0.0
 11
375.771867858954
 21
219.8817291805374
 31
0.0
 11
375.5764660394548
 21
219.6527478192237
 31
0.0
 11
375.3993626343147
 21
219.4048895832262
 31
0.0
 11
375.2439259975315
 21
219.1428940716941
 31
0.0
 11
375.1096727689084
 21
218.8659463634271
 31
0.0
 11
374.998906353121
 21
218.5787931518986
 31
0.0
 11
374.9115485976481
 21
218.2812677654514
 31
0.0
 11
374.8488519041333
 21
217.9775849808362
 31
0.0
 11
374.8109694841641
 21
217.6685895909637
 31
0.0
 11
374.7983219790694
 21
217.3575369645584
 31
0.0
 11
374.8109694841641
 21
217.0464843381534
 31
0.0
 11
374.8488519041333
 21
216.7374889482809
 31
0.0
 11
374.9115485976481
 21
216.4338061636656
 31
0.0
 11
374.998906353121
 21
216.1362807772183
 31
0.0
 11
375.1096727689084
 21
215.8491275656897
 31
0.0
 11
375.2439259975315
 21
215.5721798574228
 31
0.0
 11
375.3993626343146
 21
215.3101843458906
 31
0.0
 11
375.5764660394548
 21
215.0623261098931
 31
0.0
 11
375.771867858954
 21
214.8333447485795
 31
0.0
 11
375.9864224179908
 21
214.62221118275
 31
0.0
 11
376.2159215262436
 21
214.433116918052
 31
0.0
 11
376.4613388160258
 21
214.2652077453452
 31
0.0
 11
376.7180680770258
 21
214.12170673191
 31
0.0
 11
376.9867851391246
 21
214.0021631664722
 31
0.0
 11
377.2630586567799
 21
213.9086370203915
 31
0.0
 11
377.5467959666485
 21
213.841069922553
 31
0.0
 11
377.8343078911841
 21
213.8004403631395
 31
0.0
 11
378.1243556529821
 21
213.786822750287
 31
0.0
  0
SPLINE
  5
147
330
3C
100
AcDbEntity
  8
1
  6
Continuous
 62
     7
100
AcDbSpline
210
0.0
220
0.0
230
1.0
 70
    11
 71
     3
 72
    79
 73
    75
 74
    73
 42
0.0000000001
 43
0.0000000001
 44
0.00000001
 40
0.0
 40
0.0
 40
0.0
 40
0.0
 40
0.2903672562531203
 40
0.5807357597936873
 40
0.872407105183894
 40
1.164081918217704
 40
1.458189931540346
 40
1.752302927360775
 40
2.049663207833927
 40
2.347029113126472
 40
2.648045792769628
 40
2.94906794293913
 40
3.253697753141698
 40
3.558332281909348
 40
3.866104864362716
 40
4.173881026138612
 40
4.483966067735167
 40
4.794053328114178
 40
5.105362224076287
 40
5.416671870214313
 40
5.727981516352569
 40
6.039290412314784
 40
6.349377672693723
 40
6.659462714290125
 40
6.967238876066048
 40
7.275011458519391
 40
7.579645987286991
 40
7.884275797489513
 40
8.185297947659093
 40
8.486314627302409
 40
8.7836805325949
 40
9.081040813067988
 40
9.375153808888504
 40
9.669261822211018
 40
9.960936635244783
 40
10.25260798063506
 40
10.54297648417562
 40
10.83334374042874
 40
11.12371099668169
 40
11.41407950022225
 40
11.70575084561257
 40
11.99742565864635
 40
12.29153367196876
 40
12.58564666778922
 40
12.88300694826237
 40
13.18037285355489
 40
13.48138953319807
 40
13.7824116833677
 40
14.08704149357029
 40
14.39167602233789
 40
14.69944860479123
 40
15.00722476656711
 40
15.31730980816354
 40
15.62739706854245
 40
15.93870596450462
 40
16.25001561064293
 40
16.56132525678099
 40
16.87263415274307
 40
17.18272141312212
 40
17.49280645471863
 40
17.8005826164945
 40
18.10835519894784
 40
18.41298972771552
 40
18.71761953791813
 40
19.01864168808752
 40
19.31965836773072
 40
19.61702427302329
 40
19.9143845534965
 40
20.20849754931695
 40
20.50260556263942
 40
20.79428037567323
 40
21.0859517210635
 40
21.37632022460406
 40
21.66668748085701
 40
21.66668748085701
 40
21.66668748085701
 40
21.66668748085701
 10
353.8756443470179
 20
213.786822750287
 30
0.0
 10
353.7788205372838
 20
213.7894543476897
 30
0.0
 10
353.585172501904
 20
213.7947175537995
 30
0.0
 10
353.2968116235157
 20
213.8370126274933
 30
0.0
 10
353.0130994802695
 20
213.9042235205354
 30
0.0
 10
352.7356744179093
 20
213.9982786860872
 30
0.0
 10
352.4673535068333
 20
214.1177101440031
 30
0.0
 10
352.209353743723
 20
214.2619856396729
 30
0.0
 10
351.9645517407008
 20
214.4295897150358
 30
0.0
 10
351.7338555158571
 20
214.6197522693372
 30
0.0
 10
351.5199598087882
 20
214.8303749897768
 30
0.0
 10
351.3235862664089
 20
215.0605966057255
 30
0.0
 10
351.1470369214401
 20
215.3078330292317
 30
0.0
 10
350.9909341249604
 20
215.5710672035792
 30
0.0
 10
350.8570451105378
 20
215.8474307582546
 30
0.0
 10
350.7459170937194
 20
216.1356442022041
 30
0.0
 10
350.6587263339198
 20
216.4327826454397
 30
0.0
 10
350.5959007274612
 20
216.7372057995491
 30
0.0
 10
350.5580521776867
 20
217.0461424119149
 30
0.0
 10
350.5453899157292
 20
217.3575369645587
 30
0.0
 10
350.5580521776868
 20
217.6689315172011
 30
0.0
 10
350.595900727461
 20
217.9778681295715
 30
0.0
 10
350.65872633392
 20
218.2822912836641
 30
0.0
 10
350.7459170937194
 20
218.5794297269622
 30
0.0
 10
350.8570451105379
 20
218.8676431706798
 30
0.0
 10
350.9909341249604
 20
219.144006726216
 30
0.0
 10
351.1470369214401
 20
219.4072408973824
 30
0.0
 10
351.3235862664089
 20
219.6544773326877
 30
0.0
 10
351.519959808788
 20
219.8846989051017
 30
0.0
 10
351.7338555158572
 20
220.0953217869527
 30
0.0
 10
351.9645517407007
 20
220.2854837458599
 30
0.0
 10
352.2093537437232
 20
220.4530900294797
 30
0.0
 10
352.4673535068333
 20
220.5973573699635
 30
0.0
 10
352.7356744179094
 20
220.7168191093207
 30
0.0
 10
353.0130994802695
 20
220.8107621563892
 30
0.0
 10
353.2968116235155
 20
220.8783901288368
 30
0.0
 10
353.585172501904
 20
220.9191352536854
 30
0.0
 10
353.8756443470177
 20
220.9328091316125
 30
0.0
 10
354.1661161921317
 20
220.9191352536855
 30
0.0
 10
354.45447707052
 20
220.8783901288368
 30
0.0
 10
354.7381892137662
 20
220.8107621563892
 30
0.0
 10
355.0156142761263
 20
220.7168191093207
 30
0.0
 10
355.2839351872022
 20
220.5973573699636
 30
0.0
 10
355.5419349503125
 20
220.4530900294797
 30
0.0
 10
355.7867369533348
 20
220.2854837458598
 30
0.0
 10
356.0174331781785
 20
220.0953217869526
 30
0.0
 10
356.2313288852474
 20
219.8846989051017
 30
0.0
 10
356.4277024276265
 20
219.6544773326878
 30
0.0
 10
356.6042517725954
 20
219.4072408973824
 30
0.0
 10
356.7603545690755
 20
219.1440067262161
 30
0.0
 10
356.8942435834977
 20
218.8676431706797
 30
0.0
 10
357.0053716003163
 20
218.5794297269622
 30
0.0
 10
357.0925623601155
 20
218.2822912836641
 30
0.0
 10
357.1553879665744
 20
217.9778681295715
 30
0.0
 10
357.1932365163488
 20
217.668931517201
 30
0.0
 10
357.2058987783064
 20
217.3575369645587
 30
0.0
 10
357.1932365163488
 20
217.046142411915
 30
0.0
 10
357.1553879665745
 20
216.7372057995492
 30
0.0
 10
357.0925623601155
 20
216.4327826454397
 30
0.0
 10
357.0053716003163
 20
216.1356442022041
 30
0.0
 10
356.8942435834975
 20
215.8474307582547
 30
0.0
 10
356.7603545690753
 20
215.5710672035791
 30
0.0
 10
356.6042517725956
 20
215.3078330292317
 30
0.0
 10
356.4277024276265
 20
215.0605966057256
 30
0.0
 10
356.2313288852475
 20
214.8303749897768
 30
0.0
 10
356.0174331781785
 20
214.6197522693371
 30
0.0
 10
355.7867369533349
 20
214.4295897150359
 30
0.0
 10
355.5419349503125
 20
214.2619856396728
 30
0.0
 10
355.2839351872022
 20
214.1177101440031
 30
0.0
 10
355.0156142761264
 20
213.9982786860872
 30
0.0
 10
354.7381892137661
 20
213.9042235205354
 30
0.0
 10
354.4544770705199
 20
213.8370126274933
 30
0.0
 10
354.1661161921316
 20
213.7947175537996
 30
0.0
 10
353.9724681567519
 20
213.7894543476899
 30
0.0
 10
353.8756443470179
 20
213.786822750287
 30
0.0
 11
353.8756443470179
 21
213.786822750287
 31
0.0
 11
353.5855965852197
 21
213.8004403631395
 31
0.0
 11
353.2980846606839
 21
213.841069922553
 31
0.0
 11
353.0143473508154
 21
213.9086370203915
 31
0.0
 11
352.7380738331602
 21
214.0021631664722
 31
0.0
 11
352.4693567710614
 21
214.12170673191
 31
0.0
 11
352.2126275100615
 21
214.2652077453452
 31
0.0
 11
351.9672102202794
 21
214.433116918052
 31
0.0
 11
351.7377111120267
 21
214.62221118275
 31
0.0
 11
351.5231565529899
 21
214.8333447485796
 31
0.0
 11
351.3277547334905
 21
215.0623261098931
 31
0.0
 11
351.1506513283503
 21
215.3101843458906
 31
0.0
 11
350.9952146915671
 21
215.5721798574228
 31
0.0
 11
350.8609614629441
 21
215.8491275656897
 31
0.0
 11
350.7501950471569
 21
216.1362807772183
 31
0.0
 11
350.6628372916838
 21
216.4338061636657
 31
0.0
 11
350.6001405981691
 21
216.7374889482809
 31
0.0
 11
350.5622581782
 21
217.0464843381534
 31
0.0
 11
350.5496106731054
 21
217.3575369645584
 31
0.0
 11
350.5622581782
 21
217.6685895909637
 31
0.0
 11
350.6001405981691
 21
217.9775849808362
 31
0.0
 11
350.6628372916839
 21
218.2812677654514
 31
0.0
 11
350.7501950471569
 21
218.5787931518986
 31
0.0
 11
350.8609614629441
 21
218.8659463634272
 31
0.0
 11
350.9952146915671
 21
219.1428940716941
 31
0.0
 11
351.1506513283503
 21
219.4048895832262
 31
0.0
 11
351.3277547334905
 21
219.6527478192237
 31
0.0
 11
351.5231565529898
 21
219.8817291805374
 31
0.0
 11
351.7377111120267
 21
220.0928627463671
 31
0.0
 11
351.9672102202794
 21
220.281957011065
 31
0.0
 11
352.2126275100615
 21
220.4498661837717
 31
0.0
 11
352.4693567710615
 21
220.5933671972069
 31
0.0
 11
352.7380738331602
 21
220.7129107626446
 31
0.0
 11
353.0143473508153
 21
220.8064369087254
 31
0.0
 11
353.2980846606839
 21
220.8740040065639
 31
0.0
 11
353.5855965852197
 21
220.9146335659774
 31
0.0
 11
353.8756443470179
 21
220.9282511788298
 31
0.0
 11
354.165692108816
 21
220.9146335659774
 31
0.0
 11
354.4532040333517
 21
220.8740040065639
 31
0.0
 11
354.7369413432203
 21
220.8064369087254
 31
0.0
 11
355.0132148608755
 21
220.7129107626446
 31
0.0
 11
355.2819319229741
 21
220.5933671972069
 31
0.0
 11
355.538661183974
 21
220.4498661837717
 31
0.0
 11
355.7840784737562
 21
220.281957011065
 31
0.0
 11
356.0135775820089
 21
220.0928627463671
 31
0.0
 11
356.2281321410457
 21
219.8817291805374
 31
0.0
 11
356.423533960545
 21
219.6527478192237
 31
0.0
 11
356.6006373656853
 21
219.4048895832262
 31
0.0
 11
356.7560740024685
 21
219.1428940716941
 31
0.0
 11
356.8903272310915
 21
218.8659463634272
 31
0.0
 11
357.0010936468786
 21
218.5787931518986
 31
0.0
 11
357.0884514023516
 21
218.2812677654514
 31
0.0
 11
357.1511480958664
 21
217.9775849808362
 31
0.0
 11
357.1890305158356
 21
217.6685895909637
 31
0.0
 11
357.2016780209302
 21
217.3575369645584
 31
0.0
 11
357.1890305158356
 21
217.0464843381533
 31
0.0
 11
357.1511480958664
 21
216.7374889482809
 31
0.0
 11
357.0884514023516
 21
216.4338061636656
 31
0.0
 11
357.0010936468786
 21
216.1362807772183
 31
0.0
 11
356.8903272310914
 21
215.8491275656898
 31
0.0
 11
356.7560740024685
 21
215.5721798574228
 31
0.0
 11
356.6006373656853
 21
215.3101843458906
 31
0.0
 11
356.423533960545
 21
215.0623261098931
 31
0.0
 11
356.2281321410458
 21
214.8333447485796
 31
0.0
 11
356.0135775820089
 21
214.62221118275
 31
0.0
 11
355.7840784737562
 21
214.433116918052
 31
0.0
 11
355.538661183974
 21
214.2652077453452
 31
0.0
 11
355.2819319229741
 21
214.12170673191
 31
0.0
 11
355.0132148608755
 21
214.0021631664722
 31
0.0
 11
354.7369413432203
 21
213.9086370203915
 31
0.0
 11
354.4532040333517
 21
213.841069922553
 31
0.0
 11
354.165692108816
 21
213.8004403631395
 31
0.0
 11
353.8756443470179
 21
213.786822750287
 31
0.0
  0
SPLINE
  5
148
330
3C
100
AcDbEntity
  8
1
  6
Continuous
 62
     7
100
AcDbSpline
210
0.0
220
0.0
230
1.0
 70
    11
 71
     3
 72
    79
 73
    75
 74
    73
 42
0.0000000001
 43
0.0000000001
 44
0.00000001
 40
0.0
 40
0.0
 40
0.0
 40
0.0
 40
0.3138165586613034
 40
0.6276915431652932
 40
0.9557891732441214
 40
1.283990379472184
 40
1.637439243507434
 40
1.990962301188434
 40
2.375959613643769
 40
2.761002277650518
 40
3.179008718059504
 40
3.597043115300845
 40
4.045648054408319
 40
4.494270508777871
 40
4.968160090451459
 40
5.4420604298368
 40
5.933880453806421
 40
6.425706331114497
 40
6.926807101919682
 40
7.427909733449028
 40
7.929012364978375
 40
8.430113135783561
 40
8.921939013091604
 40
9.413759037061203
 40
9.887659376446537
 40
10.36154895812011
 40
10.81017141248956
 40
11.25877635159703
 40
11.67681074883843
 40
12.09481718924754
 40
12.47985985325431
 40
12.86485716570962
 40
13.21838022339055
 40
13.57182908742574
 40
13.90003029365377
 40
14.22812792373267
 40
14.54200290823671
 40
14.85581946689798
 40
15.16963602555934
 40
15.48351101006341
 40
15.81160864014228
 40
16.13980984637034
 40
16.49325871040555
 40
16.84678176808646
 40
17.23177908054179
 40
17.61682174454855
 40
18.03482818495766
 40
18.45286258219912
 40
18.90146752130655
 40
19.35008997567604
 40
19.82397955734958
 40
20.29787989673491
 40
20.78969992070446
 40
21.28152579801255
 40
21.78262656881778
 40
22.28372920034709
 40
22.78483183187644
 40
23.28593260268163
 40
23.77775847998974
 40
24.26957850395933
 40
24.74347884334471
 40
25.21736842501823
 40
25.66599087938778
 40
26.11459581849525
 40
26.53263021573666
 40
26.95063665614563
 40
27.3356793201524
 40
27.72067663260772
 40
28.07419969028872
 40
28.42764855432397
 40
28.755849760552
 40
29.08394739063086
 40
29.39782237513492
 40
29.71163893379627
 40
29.71163893379627
 40
29.71163893379627
 40
29.71163893379627
 10
140.0269064183694
 20
217.3575369645585
 30
0.0
 10
140.0225277513092
 20
217.4622214944408
 30
0.0
 10
140.0137696019761
 20
217.6716100441964
 30
0.0
 10
139.9445777774981
 20
217.9841681000746
 30
0.0
 10
139.835013297218
 20
218.2892155341314
 30
0.0
 10
139.6810154615222
 20
218.5895038918064
 30
0.0
 10
139.4878840933965
 20
218.8763755491049
 30
0.0
 10
139.2524368385514
 20
219.1547856053027
 30
0.0
 10
138.9827861343887
 20
219.4155778107287
 30
0.0
 10
138.6736074929024
 20
219.6638044444747
 30
0.0
 10
138.3355613463207
 20
219.8913577778282
 30
0.0
 10
137.9623993536893
 20
220.1021725984673
 30
0.0
 10
137.5658418791687
 20
220.2900089312931
 30
0.0
 10
137.1401809710767
 20
220.4572920368543
 30
0.0
 10
136.6967567471824
 20
220.5998624269214
 30
0.0
 10
136.231570173339
 20
220.718765910453
 30
0.0
 10
135.7544230272451
 20
220.811729644724
 30
0.0
 10
135.2638264653144
 20
220.8788414157791
 30
0.0
 10
134.7672110957036
 20
220.919277305367
 30
0.0
 10
134.2660471074672
 20
220.9327381238919
 30
0.0
 10
133.7648831192354
 20
220.919277305367
 30
0.0
 10
133.268267749611
 20
220.8788414157791
 30
0.0
 10
132.7776711877299
 20
220.8117296447242
 30
0.0
 10
132.3005240414536
 20
220.7187659104529
 30
0.0
 10
131.8353374682676
 20
220.5998624269215
 30
0.0
 10
131.3919132419825
 20
220.4572920368544
 30
0.0
 10
130.9662523423581
 20
220.290008931293
 30
0.0
 10
130.5696948373162
 20
220.1021725984673
 30
0.0
 10
130.1965329511867
 20
219.8913577778282
 30
0.0
 10
129.8584864234566
 20
219.6638044444746
 30
0.0
 10
129.5493090976098
 20
219.4155778107288
 30
0.0
 10
129.2796537021125
 20
219.1547856053027
 30
0.0
 10
129.0442225935964
 20
218.8763755491049
 30
0.0
 10
128.8510334927986
 20
218.5895038918064
 30
0.0
 10
128.6972364689758
 20
218.2892155341313
 30
0.0
 10
128.5869453242167
 20
217.9841681000747
 30
0.0
 10
128.5203536573033
 20
217.6716100441964
 30
0.0
 10
128.4976055720212
 20
217.3575369645584
 30
0.0
 10
128.5203536573033
 20
217.0434638849206
 30
0.0
 10
128.5869453242167
 20
216.7309058290423
 30
0.0
 10
128.6972364689759
 20
216.4258583949855
 30
0.0
 10
128.8510334927986
 20
216.1255700373106
 30
0.0
 10
129.0442225935964
 20
215.838698380012
 30
0.0
 10
129.2796537021126
 20
215.5602883238142
 30
0.0
 10
129.5493090976097
 20
215.299496118388
 30
0.0
 10
129.8584864234566
 20
215.0512694846423
 30
0.0
 10
130.1965329511868
 20
214.8237161512888
 30
0.0
 10
130.5696948373162
 20
214.6129013306494
 30
0.0
 10
130.9662523423581
 20
214.4250649978239
 30
0.0
 10
131.3919132419825
 20
214.2577818922624
 30
0.0
 10
131.8353374682676
 20
214.1152115021954
 30
0.0
 10
132.3005240414536
 20
213.996308018664
 30
0.0
 10
132.77767118773
 20
213.9033442843929
 30
0.0
 10
133.268267749611
 20
213.8362325133379
 30
0.0
 10
133.7648831192355
 20
213.7957966237497
 30
0.0
 10
134.2660471074673
 20
213.7823358052249
 30
0.0
 10
134.7672110957036
 20
213.7957966237497
 30
0.0
 10
135.2638264653144
 20
213.8362325133379
 30
0.0
 10
135.7544230272451
 20
213.9033442843928
 30
0.0
 10
136.231570173339
 20
213.9963080186641
 30
0.0
 10
136.6967567471824
 20
214.1152115021954
 30
0.0
 10
137.1401809710767
 20
214.2577818922624
 30
0.0
 10
137.5658418791687
 20
214.4250649978238
 30
0.0
 10
137.9623993536893
 20
214.6129013306494
 30
0.0
 10
138.3355613463207
 20
214.8237161512887
 30
0.0
 10
138.6736074929024
 20
215.0512694846423
 30
0.0
 10
138.9827861343888
 20
215.2994961183882
 30
0.0
 10
139.2524368385513
 20
215.5602883238141
 30
0.0
 10
139.4878840933965
 20
215.8386983800121
 30
0.0
 10
139.6810154615222
 20
216.1255700373105
 30
0.0
 10
139.835013297218
 20
216.4258583949856
 30
0.0
 10
139.9445777774982
 20
216.7309058290423
 30
0.0
 10
140.0137696019762
 20
217.0434638849206
 30
0.0
 10
140.0225277513093
 20
217.2528524346762
 30
0.0
 10
140.0269064183694
 20
217.3575369645585
 30
0.0
 11
140.0269064183694
 21
217.3575369645585
 31
0.0
 11
140.0046016451371
 21
217.6705598544261
 31
0.0
 11
139.9393860208564
 21
217.9775849808361
 31
0.0
 11
139.828533234851
 21
218.2863886639394
 31
0.0
 11
139.679484091308
 21
218.5787931518986
 31
0.0
 11
139.4827649890207
 21
218.8724386767804
 31
0.0
 11
139.2550976183368
 21
219.1428940716942
 31
0.0
 11
138.9789000837002
 21
219.4111063988876
 31
0.0
 11
138.6791213701742
 21
219.6527478192238
 31
0.0
 11
138.3327189263894
 21
219.8867023685776
 31
0.0
 11
137.9690560936629
 21
220.092862746367
 31
0.0
 11
137.5638411085575
 21
220.2853392572395
 31
0.0
 11
137.1464767629188
 21
220.4498661837717
 31
0.0
 11
136.6954360282051
 21
220.5952401540955
 31
0.0
 11
136.2363770346616
 21
220.7129107626447
 31
0.0
 11
135.7536721869865
 21
220.8071602507515
 31
0.0
 11
135.2664098286016
 21
220.8740040065639
 31
0.0
 11
134.7669675443841
 21
220.9147395836084
 31
0.0
 11
134.266047107468
 21
220.9282511788299
 31
0.0
 11
133.7651266705519
 21
220.9147395836084
 31
0.0
 11
133.2656843863344
 21
220.8740040065639
 31
0.0
 11
132.7784220279496
 21
220.8071602507516
 31
0.0
 11
132.2957171802745
 21
220.7129107626447
 31
0.0
 11
131.836658186731
 21
220.5952401540955
 31
0.0
 11
131.3856174520173
 21
220.4498661837717
 31
0.0
 11
130.9682531063787
 21
220.2853392572395
 31
0.0
 11
130.5630381212733
 21
220.092862746367
 31
0.0
 11
130.1993752885468
 21
219.8867023685775
 31
0.0
 11
129.8529728447618
 21
219.6527478192238
 31
0.0
 11
129.5531941312358
 21
219.4111063988876
 31
0.0
 11
129.2769965965992
 21
219.1428940716942
 31
0.0
 11
129.0493292259154
 21
218.8724386767804
 31
0.0
 11
128.8526101236282
 21
218.5787931518986
 31
0.0
 11
128.7035609800853
 21
218.2863886639395
 31
0.0
 11
128.5927081940797
 21
217.9775849808361
 31
0.0
 11
128.5274925697989
 21
217.6705598544261
 31
0.0
 11
128.5051877965666
 21
217.3575369645585
 31
0.0
 11
128.5274925697989
 21
217.0445140746908
 31
0.0
 11
128.5927081940797
 21
216.7374889482808
 31
0.0
 11
128.7035609800853
 21
216.4286852651775
 31
0.0
 11
128.8526101236282
 21
216.1362807772183
 31
0.0
 11
129.0493292259154
 21
215.8426352523366
 31
0.0
 11
129.2769965965992
 21
215.5721798574227
 31
0.0
 11
129.5531941312358
 21
215.3039675302293
 31
0.0
 11
129.8529728447618
 21
215.0623261098931
 31
0.0
 11
130.1993752885468
 21
214.8283715605394
 31
0.0
 11
130.5630381212733
 21
214.6222111827498
 31
0.0
 11
130.9682531063787
 21
214.4297346718773
 31
0.0
 11
131.3856174520173
 21
214.2652077453451
 31
0.0
 11
131.836658186731
 21
214.1198337750214
 31
0.0
 11
132.2957171802745
 21
214.0021631664722
 31
0.0
 11
132.7784220279496
 21
213.9079136783654
 31
0.0
 11
133.2656843863344
 21
213.841069922553
 31
0.0
 11
133.765126670552
 21
213.8003343455084
 31
0.0
 11
134.266047107468
 21
213.7868227502869
 31
0.0
 11
134.7669675443841
 21
213.8003343455084
 31
0.0
 11
135.2664098286016
 21
213.841069922553
 31
0.0
 11
135.7536721869865
 21
213.9079136783654
 31
0.0
 11
136.2363770346616
 21
214.0021631664722
 31
0.0
 11
136.6954360282052
 21
214.1198337750214
 31
0.0
 11
137.1464767629188
 21
214.2652077453451
 31
0.0
 11
137.5638411085575
 21
214.4297346718772
 31
0.0
 11
137.9690560936629
 21
214.6222111827498
 31
0.0
 11
138.3327189263894
 21
214.8283715605394
 31
0.0
 11
138.6791213701742
 21
215.0623261098931
 31
0.0
 11
138.9789000837002
 21
215.3039675302293
 31
0.0
 11
139.2550976183368
 21
215.5721798574227
 31
0.0
 11
139.4827649890207
 21
215.8426352523366
 31
0.0
 11
139.679484091308
 21
216.1362807772183
 31
0.0
 11
139.828533234851
 21
216.4286852651775
 31
0.0
 11
139.9393860208564
 21
216.7374889482808
 31
0.0
 11
140.0046016451372
 21
217.0445140746908
 31
0.0
 11
140.0269064183694
 21
217.3575369645585
 31
0.0
  0
SPLINE
  5
149
330
3C
100
AcDbEntity
  8
1
  6
Continuous
 62
     7
100
AcDbSpline
210
0.0
220
0.0
230
1.0
 70
    11
 71
     3
 72
    79
 73
    75
 74
    73
 42
0.0000000001
 43
0.0000000001
 44
0.00000001
 40
0.0
 40
0.0
 40
0.0
 40
0.0
 40
0.3138165586613024
 40
0.6276915431653158
 40
0.9557891732441728
 40
1.283990379472241
 40
1.637439243507484
 40
1.990962301188429
 40
2.375959613643762
 40
2.761002277650499
 40
3.17900871805959
 40
3.597043115301018
 40
4.04564805440844
 40
4.49427050877786
 40
4.968160090451448
 40
5.442060429836761
 40
5.933880453806396
 40
6.425706331114485
 40
6.926807101919656
 40
7.427909733449017
 40
7.929012364978378
 40
8.430113135783548
 40
8.921939013091595
 40
9.413759037061174
 40
9.887659376446543
 40
10.36154895812017
 40
10.81017141248959
 40
11.25877635159693
 40
11.67681074883842
 40
12.09481718924753
 40
12.47985985325425
 40
12.86485716570961
 40
13.21838022339051
 40
13.57182908742573
 40
13.9000302936538
 40
14.2281279237327
 40
14.54200290823673
 40
14.855819466898
 40
15.16963602555936
 40
15.48351101006341
 40
15.81160864014229
 40
16.13980984637039
 40
16.4932587104056
 40
16.84678176808651
 40
17.23177908054182
 40
17.61682174454859
 40
18.03482818495766
 40
18.45286258219916
 40
18.90146752130655
 40
19.35008997567601
 40
19.82397955734962
 40
20.29787989673497
 40
20.78969992070455
 40
21.2815257980126
 40
21.78262656881778
 40
22.28372920034714
 40
22.78483183187649
 40
23.28593260268168
 40
23.77775847998978
 40
24.26957850395941
 40
24.74347884334472
 40
25.21736842501828
 40
25.66599087938774
 40
26.11459581849512
 40
26.53263021573664
 40
26.95063665614569
 40
27.33567932015241
 40
27.72067663260776
 40
28.0741996902887
 40
28.42764855432395
 40
28.75584976055199
 40
29.08394739063087
 40
29.39782237513494
 40
29.7116389337963
 40
29.7116389337963
 40
29.7116389337963
 40
29.7116389337963
 10
114.5051877965665
 20
217.3575369645585
 30
0.0
 10
114.5095664636266
 20
217.4622214944409
 30
0.0
 10
114.5183246129598
 20
217.6716100441964
 30
0.0
 10
114.5875164374379
 20
217.9841681000746
 30
0.0
 10
114.6970809177181
 20
218.2892155341313
 30
0.0
 10
114.8510787534139
 20
218.5895038918063
 30
0.0
 10
115.0442101215396
 20
218.8763755491049
 30
0.0
 10
115.2796573763847
 20
219.1547856053027
 30
0.0
 10
115.5493080805472
 20
219.4155778107289
 30
0.0
 10
115.8584867220336
 20
219.6638044444746
 30
0.0
 10
116.1965328686154
 20
219.8913577778283
 30
0.0
 10
116.5696948612469
 20
220.1021725984673
 30
0.0
 10
116.9662523357675
 20
220.290008931293
 30
0.0
 10
117.3919132438593
 20
220.4572920368543
 30
0.0
 10
117.8353374677537
 20
220.5998624269215
 30
0.0
 10
118.300524041597
 20
220.7187659104529
 30
0.0
 10
118.7776711876909
 20
220.8117296447241
 30
0.0
 10
119.2682677496216
 20
220.8788414157791
 30
0.0
 10
119.7648831192324
 20
220.919277305367
 30
0.0
 10
120.2660471074688
 20
220.932738123892
 30
0.0
 10
120.7672110957006
 20
220.919277305367
 30
0.0
 10
121.263826465325
 20
220.8788414157791
 30
0.0
 10
121.7544230272061
 20
220.8117296447241
 30
0.0
 10
122.2315701734824
 20
220.7187659104529
 30
0.0
 10
122.6967567466684
 20
220.5998624269215
 30
0.0
 10
123.1401809729535
 20
220.4572920368544
 30
0.0
 10
123.565841872578
 20
220.290008931293
 30
0.0
 10
123.9623993776198
 20
220.1021725984674
 30
0.0
 10
124.3355612637492
 20
219.8913577778282
 30
0.0
 10
124.6736077914794
 20
219.6638044444747
 30
0.0
 10
124.9827851173263
 20
219.4155778107289
 30
0.0
 10
125.2524405128234
 20
219.1547856053027
 30
0.0
 10
125.4878716213396
 20
218.8763755491049
 30
0.0
 10
125.6810607221374
 20
218.5895038918063
 30
0.0
 10
125.8348577459603
 20
218.2892155341314
 30
0.0
 10
125.9451488907194
 20
217.9841681000747
 30
0.0
 10
126.0117405576328
 20
217.6716100441964
 30
0.0
 10
126.0344886429148
 20
217.3575369645585
 30
0.0
 10
126.0117405576328
 20
217.0434638849206
 30
0.0
 10
125.9451488907194
 20
216.7309058290423
 30
0.0
 10
125.8348577459603
 20
216.4258583949855
 30
0.0
 10
125.6810607221374
 20
216.1255700373106
 30
0.0
 10
125.4878716213396
 20
215.838698380012
 30
0.0
 10
125.2524405128234
 20
215.5602883238142
 30
0.0
 10
124.9827851173263
 20
215.299496118388
 30
0.0
 10
124.6736077914794
 20
215.0512694846422
 30
0.0
 10
124.3355612637493
 20
214.8237161512888
 30
0.0
 10
123.9623993776199
 20
214.6129013306494
 30
0.0
 10
123.5658418725781
 20
214.4250649978238
 30
0.0
 10
123.1401809729535
 20
214.2577818922623
 30
0.0
 10
122.6967567466685
 20
214.1152115021955
 30
0.0
 10
122.2315701734824
 20
213.996308018664
 30
0.0
 10
121.7544230272061
 20
213.9033442843929
 30
0.0
 10
121.2638264653251
 20
213.8362325133378
 30
0.0
 10
120.7672110957006
 20
213.7957966237497
 30
0.0
 10
120.2660471074688
 20
213.7823358052249
 30
0.0
 10
119.7648831192323
 20
213.7957966237497
 30
0.0
 10
119.2682677496217
 20
213.8362325133378
 30
0.0
 10
118.7776711876908
 20
213.9033442843929
 30
0.0
 10
118.3005240415971
 20
213.996308018664
 30
0.0
 10
117.8353374677536
 20
214.1152115021954
 30
0.0
 10
117.3919132438593
 20
214.2577818922624
 30
0.0
 10
116.9662523357675
 20
214.4250649978239
 30
0.0
 10
116.5696948612468
 20
214.6129013306495
 30
0.0
 10
116.1965328686155
 20
214.8237161512888
 30
0.0
 10
115.8584867220336
 20
215.0512694846422
 30
0.0
 10
115.5493080805473
 20
215.2994961183881
 30
0.0
 10
115.2796573763847
 20
215.5602883238142
 30
0.0
 10
115.0442101215396
 20
215.838698380012
 30
0.0
 10
114.851078753414
 20
216.1255700373106
 30
0.0
 10
114.6970809177181
 20
216.4258583949855
 30
0.0
 10
114.5875164374379
 20
216.7309058290422
 30
0.0
 10
114.5183246129598
 20
217.0434638849206
 30
0.0
 10
114.5095664636266
 20
217.2528524346762
 30
0.0
 10
114.5051877965665
 20
217.3575369645585
 30
0.0
 11
114.5051877965665
 21
217.3575369645585
 31
0.0
 11
114.5274925697988
 21
217.6705598544261
 31
0.0
 11
114.5927081940796
 21
217.9775849808361
 31
0.0
 11
114.7035609800851
 21
218.2863886639394
 31
0.0
 11
114.8526101236281
 21
218.5787931518986
 31
0.0
 11
115.0493292259154
 21
218.8724386767804
 31
0.0
 11
115.2769965965992
 21
219.1428940716942
 31
0.0
 11
115.5531941312358
 21
219.4111063988876
 31
0.0
 11
115.8529728447618
 21
219.6527478192238
 31
0.0
 11
116.1993752885467
 21
219.8867023685776
 31
0.0
 11
116.5630381212733
 21
220.092862746367
 31
0.0
 11
116.9682531063786
 21
220.2853392572395
 31
0.0
 11
117.3856174520172
 21
220.4498661837717
 31
0.0
 11
117.8366581867309
 21
220.5952401540955
 31
0.0
 11
118.2957171802744
 21
220.7129107626447
 31
0.0
 11
118.7784220279496
 21
220.8071602507515
 31
0.0
 11
119.2656843863344
 21
220.8740040065639
 31
0.0
 11
119.7651266705519
 21
220.9147395836084
 31
0.0
 11
120.266047107468
 21
220.9282511788299
 31
0.0
 11
120.7669675443841
 21
220.9147395836084
 31
0.0
 11
121.2664098286016
 21
220.8740040065639
 31
0.0
 11
121.7536721869864
 21
220.8071602507515
 31
0.0
 11
122.2363770346615
 21
220.7129107626447
 31
0.0
 11
122.6954360282051
 21
220.5952401540955
 31
0.0
 11
123.1464767629188
 21
220.4498661837717
 31
0.0
 11
123.5638411085574
 21
220.2853392572395
 31
0.0
 11
123.9690560936626
 21
220.092862746367
 31
0.0
 11
124.3327189263892
 21
219.8867023685775
 31
0.0
 11
124.6791213701742
 21
219.6527478192238
 31
0.0
 11
124.9789000837002
 21
219.4111063988876
 31
0.0
 11
125.2550976183368
 21
219.1428940716942
 31
0.0
 11
125.4827649890206
 21
218.8724386767804
 31
0.0
 11
125.6794840913078
 21
218.5787931518986
 31
0.0
 11
125.8285332348508
 21
218.2863886639395
 31
0.0
 11
125.9393860208564
 21
217.9775849808361
 31
0.0
 11
126.0046016451372
 21
217.6705598544261
 31
0.0
 11
126.0269064183694
 21
217.3575369645585
 31
0.0
 11
126.0046016451372
 21
217.0445140746908
 31
0.0
 11
125.9393860208564
 21
216.7374889482808
 31
0.0
 11
125.8285332348508
 21
216.4286852651775
 31
0.0
 11
125.6794840913078
 21
216.1362807772183
 31
0.0
 11
125.4827649890206
 21
215.8426352523366
 31
0.0
 11
125.2550976183368
 21
215.5721798574227
 31
0.0
 11
124.9789000837002
 21
215.3039675302293
 31
0.0
 11
124.6791213701742
 21
215.0623261098931
 31
0.0
 11
124.3327189263893
 21
214.8283715605394
 31
0.0
 11
123.9690560936627
 21
214.6222111827498
 31
0.0
 11
123.5638411085574
 21
214.4297346718772
 31
0.0
 11
123.1464767629188
 21
214.2652077453451
 31
0.0
 11
122.6954360282051
 21
214.1198337750214
 31
0.0
 11
122.2363770346615
 21
214.0021631664722
 31
0.0
 11
121.7536721869864
 21
213.9079136783654
 31
0.0
 11
121.2664098286016
 21
213.841069922553
 31
0.0
 11
120.7669675443841
 21
213.8003343455084
 31
0.0
 11
120.266047107468
 21
213.7868227502869
 31
0.0
 11
119.7651266705519
 21
213.8003343455084
 31
0.0
 11
119.2656843863344
 21
213.841069922553
 31
0.0
 11
118.7784220279496
 21
213.9079136783654
 31
0.0
 11
118.2957171802744
 21
214.0021631664722
 31
0.0
 11
117.8366581867309
 21
214.1198337750214
 31
0.0
 11
117.3856174520172
 21
214.2652077453451
 31
0.0
 11
116.9682531063786
 21
214.4297346718773
 31
0.0
 11
116.5630381212733
 21
214.6222111827498
 31
0.0
 11
116.1993752885467
 21
214.8283715605394
 31
0.0
 11
115.8529728447618
 21
215.0623261098931
 31
0.0
 11
115.5531941312358
 21
215.3039675302293
 31
0.0
 11
115.2769965965992
 21
215.5721798574227
 31
0.0
 11
115.0493292259154
 21
215.8426352523366
 31
0.0
 11
114.8526101236281
 21
216.1362807772183
 31
0.0
 11
114.7035609800851
 21
216.4286852651775
 31
0.0
 11
114.5927081940796
 21
216.7374889482808
 31
0.0
 11
114.5274925697988
 21
217.0445140746908
 31
0.0
 11
114.5051877965665
 21
217.3575369645585
 31
0.0
  0
ARC
  5
14A
330
3C
100
AcDbEntity
  8
1
  6
Continuous
 62
     7
100
AcDbCircle
 10
138.8240681691985
 20
213.5
 30
0.0
 40
1.0
100
AcDbArc
 50
-90.0
 51
-74.66244233044952
  0
ARC
  5
14B
330
3C
100
AcDbEntity
  8
1
  6
Continuous
 62
     7
100
AcDbCircle
 10
138.766047107468
 20
211.5
 30
0.0
 40
1.0
100
AcDbArc
 50
90.0
 51
150.0000000000019
  0
ARC
  5
14C
330
3C
100
AcDbEntity
  8
1
  6
Continuous
 62
     7
100
AcDbCircle
 10
137.0339962998991
 20
212.5
 30
0.0
 40
0.9999999999999544
100
AcDbArc
 50
-42.94140286487311
 51
-30.00000000000054
  0
ARC
  5
14D
330
3C
100
AcDbEntity
  8
1
  6
Continuous
 62
     7
100
AcDbCircle
 10
137.0339962998991
 20
212.5
 30
0.0
 40
1.0
100
AcDbArc
 50
-90.0
 51
-42.94140286487311
  0
ARC
  5
14E
330
3C
100
AcDbEntity
  8
1
  6
Continuous
 62
     7
100
AcDbCircle
 10
117.4980979150368
 20
212.5
 30
0.0
 40
0.9999999999999589
100
AcDbArc
 50
-149.9999999999987
 51
-90.0
  0
ARC
  5
14F
330
3C
100
AcDbEntity
  8
1
  6
Continuous
 62
     7
100
AcDbCircle
 10
115.766047107468
 20
211.5
 30
0.0
 40
0.9999999999999713
100
AcDbArc
 50
30.00000000000095
 51
90.0
  0
ARC
  5
150
330
3C
100
AcDbEntity
  8
1
  6
Continuous
 62
     7
100
AcDbCircle
 10
115.7080260457375
 20
213.5
 30
0.0
 40
0.9999999999999989
100
AcDbArc
 50
-105.3375576695521
 51
-90.0
  0
ARC
  5
151
330
3C
100
AcDbEntity
  8
1
  6
Continuous
 62
     7
100
AcDbCircle
 10
354.5
 20
211.5
 30
0.0
 40
0.9999999999999836
100
AcDbArc
 50
30.00000000000054
 51
90.0
  0
ARC
  5
152
330
3C
100
AcDbEntity
  8
1
  6
Continuous
 62
     7
100
AcDbCircle
 10
356.2320508075688
 20
212.5
 30
0.0
 40
0.9999999999999344
100
AcDbArc
 50
-149.9999999999978
 51
-90.0
  0
ARC
  5
153
330
3C
100
AcDbEntity
  8
1
  6
Continuous
 62
     7
100
AcDbCircle
 10
354.4419789382695
 20
213.5
 30
0.0
 40
1.000000000000014
100
AcDbArc
 50
-105.3375576695552
 51
-90.0
  0
ARC
  5
154
330
3C
100
AcDbEntity
  8
1
  6
Continuous
 62
     7
100
AcDbCircle
 10
377.5
 20
211.5
 30
0.0
 40
1.0
100
AcDbArc
 50
90.0
 51
150.0000000000011
  0
ARC
  5
155
330
3C
100
AcDbEntity
  8
1
  6
Continuous
 62
     7
100
AcDbCircle
 10
375.7679491924312
 20
212.5
 30
0.0
 40
1.0
100
AcDbArc
 50
-90.0
 51
-30.0000000000038
  0
ARC
  5
156
330
3C
100
AcDbEntity
  8
1
  6
Continuous
 62
     7
100
AcDbCircle
 10
377.5580210617306
 20
213.5
 30
0.0
 40
1.0
100
AcDbArc
 50
-90.0
 51
-74.66244233044166
  0
ENDBLK
  5
3E
330
3C
100
AcDbEntity
  8
0
100
AcDbBlockEnd
  0
BLOCK
  5
40
330
3F
100
AcDbEntity
  8
0
100
AcDbBlockBegin
  2
88-59
 70
     0
 71
     0
 10
188.7301806428929
 20
59.16951659537463
 30
0.0
  3
88-59
  1

  0
LINE
  5
157
102
{ACAD_REACTORS
330
16E
330
16E
102
}
330
3F
100
AcDbEntity
  8
0
  6
Continuous
 62
     7
100
AcDbLine
 10
238.25
 20
187.25
 30
0.0
 11
238.2516685226453
 21
187.25
 31
0.0
  0
LINE
  5
158
102
{ACAD_REACTORS
330
16E
330
16E
102
}
330
3F
100
AcDbEntity
  8
0
  6
Continuous
 62
     7
100
AcDbLine
 10
237.5
 20
188.0
 30
0.0
 11
237.5
 21
190.9
 31
0.0
  0
LINE
  5
159
102
{ACAD_REACTORS
330
16E
330
16E
102
}
330
3F
100
AcDbEntity
  8
0
  6
Continuous
 62
     7
100
AcDbLine
 10
237.5
 20
190.9
 30
0.0
 11
239.0
 21
190.9
 31
0.0
  0
LINE
  5
15A
102
{ACAD_REACTORS
330
16E
330
16E
102
}
330
3F
100
AcDbEntity
  8
0
  6
Continuous
 62
     7
100
AcDbLine
 10
239.0
 20
190.9
 30
0.0
 11
239.0
 21
189.15
 31
0.0
  0
LINE
  5
15B
102
{ACAD_REACTORS
330
16E
330
16E
102
}
330
3F
100
AcDbEntity
  8
0
  6
Continuous
 62
     7
100
AcDbLine
 10
241.0
 20
189.15
 30
0.0
 11
239.0
 21
189.15
 31
0.0
  0
LINE
  5
15C
102
{ACAD_REACTORS
330
16E
330
16E
102
}
330
3F
100
AcDbEntity
  8
0
  6
Continuous
 62
     7
100
AcDbLine
 10
241.5
 20
188.65
 30
0.0
 11
241.5
 21
187.9500000000001
 31
0.0
  0
LINE
  5
15D
102
{ACAD_REACTORS
330
16E
330
16E
102
}
330
3F
100
AcDbEntity
  8
0
  6
Continuous
 62
     7
100
AcDbLine
 10
239.3741657386774
 20
187.9500000000001
 30
0.0
 11
241.5
 21
187.9500000000001
 31
0.0
  0
LINE
  5
15E
102
{ACAD_REACTORS
330
16D
330
16D
102
}
330
3F
100
AcDbEntity
  8
0
  6
Continuous
 62
     7
100
AcDbLine
 10
238.2516685226453
 20
172.75
 30
0.0
 11
238.25
 21
172.75
 31
0.0
  0
LINE
  5
15F
102
{ACAD_REACTORS
330
16D
330
16D
102
}
330
3F
100
AcDbEntity
  8
0
  6
Continuous
 62
     7
100
AcDbLine
 10
241.5
 20
172.05
 30
0.0
 11
239.3741657386774
 21
172.05
 31
0.0
  0
LINE
  5
160
102
{ACAD_REACTORS
330
16D
330
16D
102
}
330
3F
100
AcDbEntity
  8
0
  6
Continuous
 62
     7
100
AcDbLine
 10
241.5
 20
172.05
 30
0.0
 11
241.5
 21
171.3500000000001
 31
0.0
  0
LINE
  5
161
102
{ACAD_REACTORS
330
16D
330
16D
102
}
330
3F
100
AcDbEntity
  8
0
  6
Continuous
 62
     7
100
AcDbLine
 10
239.0
 20
170.8500000000001
 30
0.0
 11
241.0
 21
170.8500000000001
 31
0.0
  0
LINE
  5
162
102
{ACAD_REACTORS
330
16D
330
16D
102
}
330
3F
100
AcDbEntity
  8
0
  6
Continuous
 62
     7
100
AcDbLine
 10
239.0
 20
170.8500000000001
 30
0.0
 11
239.0
 21
169.1000000000001
 31
0.0
  0
LINE
  5
163
102
{ACAD_REACTORS
330
16D
330
16D
102
}
330
3F
100
AcDbEntity
  8
0
  6
Continuous
 62
     7
100
AcDbLine
 10
239.0
 20
169.1000000000001
 30
0.0
 11
237.5
 21
169.1000000000001
 31
0.0
  0
LINE
  5
164
102
{ACAD_REACTORS
330
16D
330
16D
102
}
330
3F
100
AcDbEntity
  8
0
  6
Continuous
 62
     7
100
AcDbLine
 10
237.5
 20
169.1000000000001
 30
0.0
 11
237.5
 21
172.0
 31
0.0
  0
ARC
  5
165
102
{ACAD_REACTORS
330
16E
330
16E
102
}
330
3F
100
AcDbEntity
  8
0
  6
Continuous
 62
     7
100
AcDbCircle
 10
238.2516685226453
 20
188.0
 30
0.0
 40
0.75
100
AcDbArc
 50
-90.0
 51
-26.1038811373442
  0
ARC
  5
166
102
{ACAD_REACTORS
330
16E
330
16E
102
}
330
3F
100
AcDbEntity
  8
0
  6
Continuous
 62
     7
100
AcDbCircle
 10
238.25
 20
188.0
 30
0.0
 40
0.75
100
AcDbArc
 50
180.0
 51
-90.0
  0
ARC
  5
167
102
{ACAD_REACTORS
330
16D
330
16D
102
}
330
3F
100
AcDbEntity
  8
0
  6
Continuous
 62
     7
100
AcDbCircle
 10
238.25
 20
172.0
 30
0.0
 40
0.75
100
AcDbArc
 50
90.0
 51
180.0
  0
ARC
  5
168
102
{ACAD_REACTORS
330
16D
330
16D
102
}
330
3F
100
AcDbEntity
  8
0
  6
Continuous
 62
     7
100
AcDbCircle
 10
238.2516685226453
 20
172.0
 30
0.0
 40
0.749999999999951
100
AcDbArc
 50
26.10388113735005
 51
90.0
  0
ARC
  5
169
102
{ACAD_REACTORS
330
16E
330
16E
102
}
330
3F
100
AcDbEntity
  8
0
  6
Continuous
 62
     7
100
AcDbCircle
 10
239.3741657386774
 20
187.4500000000001
 30
0.0
 40
0.5
100
AcDbArc
 50
90.0
 51
153.8961188626723
  0
ARC
  5
16A
102
{ACAD_REACTORS
330
16E
330
16E
102
}
330
3F
100
AcDbEntity
  8
0
  6
Continuous
 62
     7
100
AcDbCircle
 10
241.0
 20
188.65
 30
0.0
 40
0.5
100
AcDbArc
 50
0.0
 51
90.0
  0
ARC
  5
16B
102
{ACAD_REACTORS
330
16D
330
16D
102
}
330
3F
100
AcDbEntity
  8
0
  6
Continuous
 62
     7
100
AcDbCircle
 10
239.3741657386774
 20
172.55
 30
0.0
 40
0.4999999999999687
100
AcDbArc
 50
-153.8961188626694
 51
-90.0
  0
ARC
  5
16C
102
{ACAD_REACTORS
330
16D
330
16D
102
}
330
3F
100
AcDbEntity
  8
0
  6
Continuous
 62
     7
100
AcDbCircle
 10
241.0
 20
171.3500000000001
 30
0.0
 40
0.5
100
AcDbArc
 50
-90.0
 51
0.0
  0
HATCH
  5
16D
330
3F
100
AcDbEntity
  8
1
  6
Continuous
 62
     2
100
AcDbHatch
 10
0.0
 20
0.0
 30
0.0
210
0.0
220
0.0
230
1.0
  2
CUSTOM0
 70
     0
 71
     1
 91
        1
 92
        1
 93
       11
 72
     1
 10
237.5
 20
172.0
 11
237.5
 21
169.1000000000001
 72
     1
 10
237.5
 20
169.1000000000001
 11
239.0
 21
169.1000000000001
 72
     1
 10
239.0
 20
169.1000000000001
 11
239.0
 21
170.8500000000001
 72
     1
 10
239.0
 20
170.8500000000001
 11
241.0
 21
170.8500000000001
 72
     2
 10
241.0
 20
171.3500000000001
 40
0.5
 50
270.0
 51
360.0
 73
     1
 72
     1
 10
241.5
 20
171.3500000000001
 11
241.5
 21
172.05
 72
     1
 10
241.5
 20
172.05
 11
239.3741657386774
 21
172.05
 72
     2
 10
239.3741657386774
 20
172.55
 40
0.4999999999999687
 50
90.0
 51
153.8961188626694
 73
     0
 72
     2
 10
238.2516685226453
 20
172.0
 40
0.749999999999951
 50
26.10388113735005
 51
90.0
 73
     1
 72
     1
 10
238.2516685226453
 20
172.75
 11
238.25
 21
172.75
 72
     2
 10
238.25
 20
172.0
 40
0.75
 50
90.0
 51
180.0
 73
     1
 97
       11
330
15E
330
168
330
16B
330
15F
330
160
330
16C
330
161
330
162
330
163
330
164
330
167
 75
     1
 76
     2
 52
45.0
 41
4.0
 77
     0
 78
     2
 53
45.0
 43
0.0
 44
0.0
 45
-5.65685424949238
 46
0.0000000000000004
 79
     0
 53
45.0
 43
1.414213562373095
 44
-1.414213562373095
 45
-5.65685424949238
 46
0.0000000000000004
 79
     2
 49
48.0
 49
-12.0
 98
        1
 10
0.0
 20
0.0
  0
HATCH
  5
16E
330
3F
100
AcDbEntity
  8
1
  6
Continuous
 62
     2
100
AcDbHatch
 10
0.0
 20
0.0
 30
0.0
210
0.0
220
0.0
230
1.0
  2
CUSTOM1
 70
     0
 71
     1
 91
        1
 92
        1
 93
       11
 72
     1
 10
239.0
 20
190.9
 11
239.0
 21
189.15
 72
     1
 10
239.0
 20
189.15
 11
241.0
 21
189.15
 72
     2
 10
241.0
 20
188.65
 40
0.5
 50
270.0
 51
360.0
 73
     0
 72
     1
 10
241.5
 20
188.65
 11
241.5
 21
187.9500000000001
 72
     1
 10
241.5
 20
187.9500000000001
 11
239.3741657386774
 21
187.9500000000001
 72
     2
 10
239.3741657386774
 20
187.4500000000001
 40
0.5
 50
90.0
 51
153.8961188626723
 73
     1
 72
     2
 10
238.2516685226453
 20
188.0
 40
0.75
 50
26.1038811373442
 51
90.0
 73
     0
 72
     1
 10
238.2516685226453
 20
187.25
 11
238.25
 21
187.25
 72
     2
 10
238.25
 20
188.0
 40
0.75
 50
90.0
 51
180.0
 73
     0
 72
     1
 10
237.5
 20
188.0
 11
237.5
 21
190.9
 72
     1
 10
237.5
 20
190.9
 11
239.0
 21
190.9
 97
       11
330
15A
330
15B
330
16A
330
15C
330
15D
330
169
330
165
330
157
330
166
330
158
330
159
 75
     1
 76
     2
 52
45.0
 41
4.0
 77
     0
 78
     2
 53
45.0
 43
0.0
 44
0.0
 45
-5.65685424949238
 46
0.0000000000000004
 79
     0
 53
45.0
 43
1.414213562373095
 44
-1.414213562373095
 45
-5.65685424949238
 46
0.0000000000000004
 79
     2
 49
48.0
 49
-12.0
 98
        1
 10
0.0
 20
0.0
  0
ENDBLK
  5
41
330
3F
100
AcDbEntity
  8
0
100
AcDbBlockEnd
  0
BLOCK
  5
43
330
42
100
AcDbEntity
  8
0
100
AcDbBlockBegin
  2
84-54
 70
     0
 71
     0
 10
242.7000179155993
 20
187.6089449312106
 30
0.0
  3
84-54
  1

  0
LINE
  5
16F
330
42
100
AcDbEntity
  8
1
  6
Continuous
 62
     7
100
AcDbLine
 10
141.266047107468
 20
412.856091817197
 30
0.0
 11
113.266047107468
 21
412.856091817197
 31
0.0
  0
LINE
  5
170
330
42
100
AcDbEntity
  8
1
  6
Continuous
 62
     7
100
AcDbLine
 10
141.266047107468
 20
422.2914318509464
 30
0.0
 11
141.266047107468
 21
412.856091817197
 31
0.0
  0
LINE
  5
171
330
42
100
AcDbEntity
  8
1
  6
Continuous
 62
     2
100
AcDbLine
 10
127.766047107468
 20
426.356091817197
 30
0.0
 11
127.766047107468
 21
435.5138285511342
 31
0.0
  0
LINE
  5
172
330
42
100
AcDbEntity
  8
1
  6
Continuous
 62
     7
100
AcDbLine
 10
113.266047107468
 20
412.856091817197
 30
0.0
 11
113.266047107468
 21
422.2914318509464
 31
0.0
  0
LINE
  5
173
330
42
100
AcDbEntity
  8
1
  6
Continuous
 62
     2
100
AcDbLine
 10
126.766047107468
 20
435.5138285511342
 30
0.0
 11
126.766047107468
 21
426.356091817197
 31
0.0
  0
LINE
  5
174
330
42
100
AcDbEntity
  8
1
  6
Continuous
 62
     7
100
AcDbLine
 10
118.3849344659429
 20
435.856091817197
 30
0.0
 11
136.147159748993
 21
435.856091817197
 31
0.0
  0
LINE
  5
175
330
42
100
AcDbEntity
  8
1
  6
Continuous
 62
     7
100
AcDbLine
 10
233.9353400337494
 20
165.0
 30
0.0
 11
224.5
 21
165.0
 31
0.0
  0
LINE
  5
176
330
42
100
AcDbEntity
  8
1
  6
Continuous
 62
     2
100
AcDbLine
 10
238.0
 20
178.5
 30
0.0
 11
247.1577367339372
 21
178.5
 31
0.0
  0
LINE
  5
177
330
42
100
AcDbEntity
  8
1
  6
Continuous
 62
     7
100
AcDbLine
 10
224.5
 20
193.0
 30
0.0
 11
233.9353400337494
 21
193.0
 31
0.0
  0
LINE
  5
178
330
42
100
AcDbEntity
  8
1
  6
Continuous
 62
     2
100
AcDbLine
 10
247.1577367339372
 20
179.5
 30
0.0
 11
238.0
 21
179.5
 31
0.0
  0
LINE
  5
179
330
42
100
AcDbEntity
  8
1
  6
Continuous
 62
     7
100
AcDbLine
 10
247.5
 20
187.881112641525
 30
0.0
 11
247.5
 21
170.1188873584752
 31
0.0
  0
ARC
  5
17A
330
42
100
AcDbEntity
  8
1
  6
Continuous
 62
     7
100
AcDbCircle
 10
116.266047107468
 20
422.2914318509464
 30
0.0
 40
25.00000000000001
100
AcDbArc
 50
0.0
 51
30.18616925233348
  0
ARC
  5
17B
330
42
100
AcDbEntity
  8
1
  6
Continuous
 62
     2
100
AcDbCircle
 10
127.266047107468
 20
426.356091817197
 30
0.0
 40
0.5
100
AcDbArc
 50
-90.0
 51
0.0
  0
ARC
  5
17C
330
42
100
AcDbEntity
  8
1
  6
Continuous
 62
     2
100
AcDbCircle
 10
49.43246134890521
 20
424.9720696085437
 30
0.0
 40
79.72776060994659
100
AcDbArc
 50
0.99466752830949
 51
7.59800848546261
  0
ARC
  5
17D
330
42
100
AcDbEntity
  8
1
  6
Continuous
 62
     2
100
AcDbCircle
 10
50.41776704530552
 20
424.9637514858355
 30
0.0
 40
79.72840330833924
100
AcDbArc
 50
1.00063812632938
 51
7.6039775760959
  0
ARC
  5
17E
330
42
100
AcDbEntity
  8
1
  6
Continuous
 62
     2
100
AcDbCircle
 10
89.89801035708965
 20
424.9090276112044
 30
0.0
 40
41.59507519750657
100
AcDbArc
 50
1.99368326238526
 51
14.77081691323965
  0
ARC
  5
17F
330
42
100
AcDbEntity
  8
1
  6
Continuous
 62
     2
100
AcDbCircle
 10
90.83505259334905
 20
424.9318205247794
 30
0.0
 40
41.59163965497422
100
AcDbArc
 50
1.9624302427958
 51
14.73959487856664
  0
ARC
  5
180
330
42
100
AcDbEntity
  8
1
  6
Continuous
 62
     2
100
AcDbCircle
 10
104.0763534751974
 20
424.7795941826788
 30
0.0
 40
29.62775852419907
100
AcDbArc
 50
3.05015781573726
 51
21.24171645407003
  0
ARC
  5
181
330
42
100
AcDbEntity
  8
1
  6
Continuous
 62
     2
100
AcDbCircle
 10
104.9429251508159
 20
424.7763128056056
 30
0.0
 40
29.62847880271842
100
AcDbArc
 50
3.05643816799198
 51
21.24798324982692
  0
ARC
  5
182
330
42
100
AcDbEntity
  8
1
  6
Continuous
 62
     2
100
AcDbCircle
 10
111.2293915928418
 20
424.4929591921728
 30
0.0
 40
24.51726190194433
100
AcDbArc
 50
4.35826190462331
 51
26.71255116402108
  0
ARC
  5
183
330
42
100
AcDbEntity
  8
1
  6
Continuous
 62
     2
100
AcDbCircle
 10
112.2573178270893
 20
424.5959195668694
 30
0.0
 40
24.23750500376154
100
AcDbArc
 50
4.16459114011954
 51
26.77288973639126
  0
ARC
  5
184
330
42
100
AcDbEntity
  8
1
  6
Continuous
 62
     2
100
AcDbCircle
 10
116.0709097233275
 20
424.4127318907986
 30
0.0
 40
21.42189443980362
100
AcDbArc
 50
5.04126066053844
 51
31.21243570294438
  0
ARC
  5
185
330
42
100
AcDbEntity
  8
1
  6
Continuous
 62
     2
100
AcDbCircle
 10
116.8527118412146
 20
424.4356917420492
 30
0.0
 40
21.29218223918176
100
AcDbArc
 50
5.30712298261041
 51
31.35179219383364
  0
ARC
  5
186
330
42
100
AcDbEntity
  8
1
  6
Continuous
 62
     2
100
AcDbCircle
 10
119.1165994397074
 20
424.2410131720804
 30
0.0
 40
19.83572962119147
100
AcDbArc
 50
5.8854817684542
 51
34.63236207530434
  0
ARC
  5
187
330
42
100
AcDbEntity
  8
1
  6
Continuous
 62
     2
100
AcDbCircle
 10
119.8144327492541
 20
424.2805057814692
 30
0.0
 40
19.65241405187582
100
AcDbArc
 50
6.30044163416645
 51
34.86188444329668
  0
ARC
  5
188
330
42
100
AcDbEntity
  8
1
  6
Continuous
 62
     2
100
AcDbCircle
 10
118.1726628919134
 20
423.2271488613447
 30
0.0
 40
21.96753826552553
100
AcDbArc
 50
7.73839172985405
 51
34.00814297607855
  0
ARC
  5
189
330
42
100
AcDbEntity
  8
1
  6
Continuous
 62
     2
100
AcDbCircle
 10
119.7564239944327
 20
423.7185380104885
 30
0.0
 40
20.70470563233667
100
AcDbArc
 50
7.72574966076656
 51
34.72870154120627
  0
ARC
  5
18A
330
42
100
AcDbEntity
  8
1
  6
Continuous
 62
     2
100
AcDbCircle
 10
118.9632501328306
 20
423.2937117708077
 30
0.0
 40
21.86563478919931
100
AcDbArc
 50
7.45244206550881
 51
33.97790618887951
  0
ARC
  5
18B
330
42
100
AcDbEntity
  8
1
  6
Continuous
 62
     7
100
AcDbCircle
 10
138.266047107468
 20
422.2914318509464
 30
0.0
 40
25.00000000000012
100
AcDbArc
 50
149.8138307476669
 51
180.0
  0
ARC
  5
18C
330
42
100
AcDbEntity
  8
1
  6
Continuous
 62
     2
100
AcDbCircle
 10
127.266047107468
 20
426.356091817197
 30
0.0
 40
0.5
100
AcDbArc
 50
180.0
 51
-90.0
  0
ARC
  5
18D
330
42
100
AcDbEntity
  8
1
  6
Continuous
 62
     2
100
AcDbCircle
 10
205.0996328660306
 20
424.9720696085437
 30
0.0
 40
79.72776060994659
100
AcDbArc
 50
172.4019915145374
 51
179.0053324716905
  0
ARC
  5
18E
330
42
100
AcDbEntity
  8
1
  6
Continuous
 62
     2
100
AcDbCircle
 10
204.1143271696303
 20
424.9637514858355
 30
0.0
 40
79.72840330833905
100
AcDbArc
 50
172.3960224239041
 51
178.9993618736706
  0
ARC
  5
18F
330
42
100
AcDbEntity
  8
1
  6
Continuous
 62
     2
100
AcDbCircle
 10
164.6340838578463
 20
424.9090276112044
 30
0.0
 40
41.59507519750668
100
AcDbArc
 50
165.2291830867604
 51
178.0063167376148
  0
ARC
  5
190
330
42
100
AcDbEntity
  8
1
  6
Continuous
 62
     2
100
AcDbCircle
 10
163.6970416215869
 20
424.9318205247794
 30
0.0
 40
41.5916396549741
100
AcDbArc
 50
165.2604051214333
 51
178.0375697572042
  0
ARC
  5
191
330
42
100
AcDbEntity
  8
1
  6
Continuous
 62
     2
100
AcDbCircle
 10
150.4557407397386
 20
424.7795941826788
 30
0.0
 40
29.62775852419913
100
AcDbArc
 50
158.75828354593
 51
176.9498421842627
  0
ARC
  5
192
330
42
100
AcDbEntity
  8
1
  6
Continuous
 62
     2
100
AcDbCircle
 10
149.5891690641201
 20
424.7763128056056
 30
0.0
 40
29.6284788027185
100
AcDbArc
 50
158.7520167501732
 51
176.943561832008
  0
ARC
  5
193
330
42
100
AcDbEntity
  8
1
  6
Continuous
 62
     2
100
AcDbCircle
 10
143.3027026220942
 20
424.4929591921728
 30
0.0
 40
24.51726190194447
100
AcDbArc
 50
153.2874488359791
 51
175.6417380953767
  0
ARC
  5
194
330
42
100
AcDbEntity
  8
1
  6
Continuous
 62
     2
100
AcDbCircle
 10
142.2747763878467
 20
424.5959195668694
 30
0.0
 40
24.23750500376184
100
AcDbArc
 50
153.2271102636089
 51
175.8354088598805
  0
ARC
  5
195
330
42
100
AcDbEntity
  8
1
  6
Continuous
 62
     2
100
AcDbCircle
 10
138.4611844916085
 20
424.4127318907986
 30
0.0
 40
21.42189443980352
100
AcDbArc
 50
148.7875642970556
 51
174.9587393394616
  0
ARC
  5
196
330
42
100
AcDbEntity
  8
1
  6
Continuous
 62
     2
100
AcDbCircle
 10
137.6793823737214
 20
424.4356917420492
 30
0.0
 40
21.29218223918204
100
AcDbArc
 50
148.6482078061664
 51
174.6928770173896
  0
ARC
  5
197
330
42
100
AcDbEntity
  8
1
  6
Continuous
 62
     2
100
AcDbCircle
 10
135.4154947752283
 20
424.2410131720804
 30
0.0
 40
19.83572962119117
100
AcDbArc
 50
145.3676379246952
 51
174.1145182315457
  0
ARC
  5
198
330
42
100
AcDbEntity
  8
1
  6
Continuous
 62
     2
100
AcDbCircle
 10
134.7176614656817
 20
424.2805057814692
 30
0.0
 40
19.65241405187567
100
AcDbArc
 50
145.1381155567031
 51
173.6995583658335
  0
ARC
  5
199
330
42
100
AcDbEntity
  8
1
  6
Continuous
 62
     2
100
AcDbCircle
 10
136.3594313230226
 20
423.2271488613447
 30
0.0
 40
21.9675382655258
100
AcDbArc
 50
145.9918570239218
 51
172.261608270146
  0
ARC
  5
19A
330
42
100
AcDbEntity
  8
1
  6
Continuous
 62
     2
100
AcDbCircle
 10
134.7756702205032
 20
423.7185380104885
 30
0.0
 40
20.70470563233667
100
AcDbArc
 50
145.2712984587939
 51
172.2742503392334
  0
ARC
  5
19B
330
42
100
AcDbEntity
  8
1
  6
Continuous
 62
     2
100
AcDbCircle
 10
135.5688440821053
 20
423.2937117708077
 30
0.0
 40
21.86563478919949
100
AcDbArc
 50
146.0220938111208
 51
172.5475579344912
  0
ARC
  5
19C
330
42
100
AcDbEntity
  8
1
  6
Continuous
 62
     7
100
AcDbCircle
 10
233.9353400337494
 20
190.0
 30
0.0
 40
25.0
100
AcDbArc
 50
-90.0
 51
-59.81383074766664
  0
ARC
  5
19D
330
42
100
AcDbEntity
  8
1
  6
Continuous
 62
     2
100
AcDbCircle
 10
238.0
 20
179.0
 30
0.0
 40
0.5
100
AcDbArc
 50
180.0
 51
-90.0
  0
ARC
  5
19E
330
42
100
AcDbEntity
  8
1
  6
Continuous
 62
     2
100
AcDbCircle
 10
236.6159777913468
 20
256.8335857585628
 30
0.0
 40
79.72776060994656
100
AcDbArc
 50
-89.00533247169061
 51
-82.40199151453747
  0
ARC
  5
19F
330
42
100
AcDbEntity
  8
1
  6
Continuous
 62
     2
100
AcDbCircle
 10
236.6076596686385
 20
255.8482800621626
 30
0.0
 40
79.72840330833932
100
AcDbArc
 50
-88.99936187367065
 51
-82.39602242390413
  0
ARC
  5
1A0
330
42
100
AcDbEntity
  8
1
  6
Continuous
 62
     2
100
AcDbCircle
 10
236.5529357940074
 20
216.3680367503785
 30
0.0
 40
41.59507519750683
100
AcDbArc
 50
-88.00631673761475
 51
-75.22918308676042
  0
ARC
  5
1A1
330
42
100
AcDbEntity
  8
1
  6
Continuous
 62
     2
100
AcDbCircle
 10
236.5757287075824
 20
215.4309945141191
 30
0.0
 40
41.59163965497425
100
AcDbArc
 50
-88.03756975720421
 51
-75.26040512143341
  0
ARC
  5
1A2
330
42
100
AcDbEntity
  8
1
  6
Continuous
 62
     2
100
AcDbCircle
 10
236.4235023654818
 20
202.1896936322708
 30
0.0
 40
29.62775852419925
100
AcDbArc
 50
-86.94984218426276
 51
-68.75828354593004
  0
ARC
  5
1A3
330
42
100
AcDbEntity
  8
1
  6
Continuous
 62
     2
100
AcDbCircle
 10
236.4202209884087
 20
201.3231219566522
 30
0.0
 40
29.62847880271829
100
AcDbArc
 50
-86.94356183200823
 51
-68.75201675017328
  0
ARC
  5
1A4
330
42
100
AcDbEntity
  8
1
  6
Continuous
 62
     2
100
AcDbCircle
 10
236.1368673749758
 20
195.0366555146262
 30
0.0
 40
24.51726190194432
100
AcDbArc
 50
-85.6417380953767
 51
-63.28744883597904
  0
ARC
  5
1A5
330
42
100
AcDbEntity
  8
1
  6
Continuous
 62
     2
100
AcDbCircle
 10
236.2398277496724
 20
194.0087292803787
 30
0.0
 40
24.23750500376152
100
AcDbArc
 50
-85.83540885988053
 51
-63.22711026360858
  0
ARC
  5
1A6
330
42
100
AcDbEntity
  8
1
  6
Continuous
 62
     2
100
AcDbCircle
 10
236.0566400736016
 20
190.1951373841407
 30
0.0
 40
21.42189443980373
100
AcDbArc
 50
-84.95873933946159
 51
-58.78756429705579
  0
ARC
  5
1A7
330
42
100
AcDbEntity
  8
1
  6
Continuous
 62
     2
100
AcDbCircle
 10
236.0795999248523
 20
189.4133352662534
 30
0.0
 40
21.29218223918186
100
AcDbArc
 50
-84.69287701738962
 51
-58.64820780616645
  0
ARC
  5
1A8
330
42
100
AcDbEntity
  8
1
  6
Continuous
 62
     2
100
AcDbCircle
 10
235.8849213548835
 20
187.1494476677605
 30
0.0
 40
19.83572962119137
100
AcDbArc
 50
-84.11451823154577
 51
-55.36763792469564
  0
ARC
  5
1A9
330
42
100
AcDbEntity
  8
1
  6
Continuous
 62
     2
100
AcDbCircle
 10
235.9244139642722
 20
186.4516143582139
 30
0.0
 40
19.6524140518758
100
AcDbArc
 50
-83.69955836583355
 51
-55.13811555670337
  0
ARC
  5
1AA
330
42
100
AcDbEntity
  8
1
  6
Continuous
 62
     2
100
AcDbCircle
 10
234.8710570441478
 20
188.0933842155548
 30
0.0
 40
21.9675382655257
100
AcDbArc
 50
-82.26160827014661
 51
-55.99185702392186
  0
ARC
  5
1AB
330
42
100
AcDbEntity
  8
1
  6
Continuous
 62
     2
100
AcDbCircle
 10
235.3624461932915
 20
186.5096231130355
 30
0.0
 40
20.70470563233677
100
AcDbArc
 50
-82.27425033923348
 51
-55.27129845879409
  0
ARC
  5
1AC
330
42
100
AcDbEntity
  8
1
  6
Continuous
 62
     2
100
AcDbCircle
 10
234.9376199536107
 20
187.3027969746375
 30
0.0
 40
21.86563478919939
100
AcDbArc
 50
-82.54755793449115
 51
-56.02209381112077
  0
ARC
  5
1AD
330
42
100
AcDbEntity
  8
1
  6
Continuous
 62
     7
100
AcDbCircle
 10
233.9353400337494
 20
168.0
 30
0.0
 40
25.00000000000003
100
AcDbArc
 50
59.81383074766676
 51
90.0
  0
ARC
  5
1AE
330
42
100
AcDbEntity
  8
1
  6
Continuous
 62
     2
100
AcDbCircle
 10
238.0
 20
179.0
 30
0.0
 40
0.5
100
AcDbArc
 50
90.0
 51
180.0
  0
ARC
  5
1AF
330
42
100
AcDbEntity
  8
1
  6
Continuous
 62
     2
100
AcDbCircle
 10
236.6159777913468
 20
101.1664142414374
 30
0.0
 40
79.72776060994657
100
AcDbArc
 50
82.40199151453747
 51
89.00533247169061
  0
ARC
  5
1B0
330
42
100
AcDbEntity
  8
1
  6
Continuous
 62
     2
100
AcDbCircle
 10
236.6076596686385
 20
102.1517199378376
 30
0.0
 40
79.72840330833938
100
AcDbArc
 50
82.39602242390413
 51
88.99936187367065
  0
ARC
  5
1B1
330
42
100
AcDbEntity
  8
1
  6
Continuous
 62
     2
100
AcDbCircle
 10
236.5529357940074
 20
141.6319632496217
 30
0.0
 40
41.5950751975067
100
AcDbArc
 50
75.22918308676037
 51
88.00631673761475
  0
ARC
  5
1B2
330
42
100
AcDbEntity
  8
1
  6
Continuous
 62
     2
100
AcDbCircle
 10
236.5757287075824
 20
142.5690054858812
 30
0.0
 40
41.59163965497409
100
AcDbArc
 50
75.26040512143334
 51
88.0375697572042
  0
ARC
  5
1B3
330
42
100
AcDbEntity
  8
1
  6
Continuous
 62
     2
100
AcDbCircle
 10
236.4235023654818
 20
155.8103063677295
 30
0.0
 40
29.62775852419903
100
AcDbArc
 50
68.7582835459299
 51
86.94984218426274
  0
ARC
  5
1B4
330
42
100
AcDbEntity
  8
1
  6
Continuous
 62
     2
100
AcDbCircle
 10
236.4202209884087
 20
156.6768780433479
 30
0.0
 40
29.62847880271845
100
AcDbArc
 50
68.75201675017344
 51
86.94356183200826
  0
ARC
  5
1B5
330
42
100
AcDbEntity
  8
1
  6
Continuous
 62
     2
100
AcDbCircle
 10
236.1368673749758
 20
162.9633444853739
 30
0.0
 40
24.51726190194438
100
AcDbArc
 50
63.28744883597899
 51
85.6417380953767
  0
ARC
  5
1B6
330
42
100
AcDbEntity
  8
1
  6
Continuous
 62
     2
100
AcDbCircle
 10
236.2398277496724
 20
163.9912707196213
 30
0.0
 40
24.23750500376182
100
AcDbArc
 50
63.22711026360891
 51
85.83540885988055
  0
ARC
  5
1B7
330
42
100
AcDbEntity
  8
1
  6
Continuous
 62
     2
100
AcDbCircle
 10
236.0566400736016
 20
167.8048626158596
 30
0.0
 40
21.42189443980362
100
AcDbArc
 50
58.78756429705579
 51
84.95873933946155
  0
ARC
  5
1B8
330
42
100
AcDbEntity
  8
1
  6
Continuous
 62
     2
100
AcDbCircle
 10
236.0795999248523
 20
168.5866647337466
 30
0.0
 40
21.29218223918197
100
AcDbArc
 50
58.64820780616661
 51
84.69287701738965
  0
ARC
  5
1B9
330
42
100
AcDbEntity
  8
1
  6
Continuous
 62
     2
100
AcDbCircle
 10
235.8849213548835
 20
170.8505523322396
 30
0.0
 40
19.83572962119136
100
AcDbArc
 50
55.36763792469596
 51
84.11451823154577
  0
ARC
  5
1BA
330
42
100
AcDbEntity
  8
1
  6
Continuous
 62
     2
100
AcDbCircle
 10
235.9244139642722
 20
171.5483856417864
 30
0.0
 40
19.65241405187558
100
AcDbArc
 50
55.13811555670304
 51
83.69955836583348
  0
ARC
  5
1BB
330
42
100
AcDbEntity
  8
1
  6
Continuous
 62
     2
100
AcDbCircle
 10
234.8710570441478
 20
169.9066157844455
 30
0.0
 40
21.96753826552566
100
AcDbArc
 50
55.99185702392186
 51
82.26160827014654
  0
ARC
  5
1BC
330
42
100
AcDbEntity
  8
1
  6
Continuous
 62
     2
100
AcDbCircle
 10
235.3624461932915
 20
171.4903768869648
 30
0.0
 40
20.70470563233655
100
AcDbArc
 50
55.27129845879373
 51
82.27425033923339
  0
ARC
  5
1BD
330
42
100
AcDbEntity
  8
1
  6
Continuous
 62
     2
100
AcDbCircle
 10
234.9376199536107
 20
170.6972030253626
 30
0.0
 40
21.8656347891995
100
AcDbArc
 50
56.02209381112081
 51
82.54755793449115
  0
SPLINE
  5
1BE
330
42
100
AcDbEntity
  8
1
  6
Continuous
 62
     2
100
AcDbSpline
210
0.0
220
0.0
230
1.0
 70
     8
 71
     3
 72
    15
 73
    11
 74
     9
 42
0.0000000001
 43
0.0000000001
 44
0.00000001
 40
0.0
 40
0.0
 40
0.0
 40
0.0
 40
0.2166452639585941
 40
0.4183049870031695
 40
0.5821631410584777
 40
0.7541602470377035
 40
0.9707079677950877
 40
1.176959496391814
 40
1.344849309348537
 40
1.521912864132441
 40
1.521912864132441
 40
1.521912864132441
 40
1.521912864132441
 10
238.0
 20
180.8821610823401
 30
0.0
 10
237.9305737598958
 20
180.9016213044763
 30
0.0
 10
237.7965235529638
 20
180.9391956682958
 30
0.0
 10
237.6232147210254
 20
181.0409598804599
 30
0.0
 10
237.5315313293423
 20
181.2015863918891
 30
0.0
 10
237.4998007612817
 20
181.3861279642357
 30
0.0
 10
237.5401683701816
 20
181.5854244303935
 30
0.0
 10
237.6582837972679
 20
181.7543506781468
 30
0.0
 10
237.829837243326
 20
181.832503237503
 30
0.0
 10
237.9422822876262
 20
181.8559364979913
 30
0.0
 10
238.0
 20
181.8679647220652
 30
0.0
 11
238.0
 21
180.8821610823401
 31
0.0
 11
237.7942752951495
 21
180.9500765902147
 31
0.0
 11
237.6261053416977
 21
181.0613667993727
 31
0.0
 11
237.5419634486642
 21
181.2019713387275
 31
0.0
 11
237.5119005564522
 21
181.3713207614518
 31
0.0
 11
237.5555177925082
 21
181.5834302899602
 31
0.0
 11
237.6786061951569
 21
181.748926326716
 31
0.0
 11
237.8281863614121
 21
181.8251678059627
 31
0.0
 11
238.0
 21
181.8679647220652
 31
0.0
  0
SPLINE
  5
1BF
330
42
100
AcDbEntity
  8
1
  6
Continuous
 62
     2
100
AcDbSpline
210
0.0
220
0.0
230
1.0
 70
     8
 71
     3
 72
    15
 73
    11
 74
     9
 42
0.0000000001
 43
0.0000000001
 44
0.00000001
 40
0.0
 40
0.0
 40
0.0
 40
0.0
 40
0.2268062960555555
 40
0.4375851034962165
 40
0.5966922393517319
 40
0.7616434016634491
 40
0.9665497420497945
 40
1.165280251957917
 40
1.331731956840549
 40
1.50548991076967
 40
1.50548991076967
 40
1.50548991076967
 40
1.50548991076967
 10
238.0
 20
183.2018596395572
 30
0.0
 10
237.9267351771405
 20
183.2200647553036
 30
0.0
 10
237.7853828617454
 20
183.2551885044965
 30
0.0
 10
237.6060135311156
 20
183.3580596017517
 30
0.0
 10
237.5145217221731
 20
183.5174801424549
 30
0.0
 10
237.4849532968491
 20
183.6951910261977
 30
0.0
 10
237.5362679807329
 20
183.8840941089143
 30
0.0
 10
237.6610796251538
 20
184.0377304332948
 30
0.0
 10
237.8311958903067
 20
184.1076056161077
 30
0.0
 10
237.9429320914625
 20
184.1265671288239
 30
0.0
 10
238.0
 20
184.1362514912976
 30
0.0
 11
238.0
 21
183.2018596395572
 31
0.0
 11
237.7828413971124
 21
183.2673060842456
 31
0.0
 11
237.6060401628671
 21
183.3820624750717
 31
0.0
 11
237.5245180820014
 21
183.5186978695033
 31
0.0
 11
237.4979382425054
 21
183.6814934409429
 31
0.0
 11
237.5502111993881
 21
183.8796200325687
 31
0.0
 11
237.6786061951569
 21
184.0313056964591
 31
0.0
 11
237.8299307634144
 21
184.1006385537493
 31
0.0
 11
238.0
 21
184.1362514912976
 31
0.0
  0
SPLINE
  5
1C0
330
42
100
AcDbEntity
  8
1
  6
Continuous
 62
     2
100
AcDbSpline
210
0.0
220
0.0
230
1.0
 70
     8
 71
     3
 72
    31
 73
    27
 74
    25
 42
0.0000000001
 43
0.0000000001
 44
0.00000001
 40
0.0
 40
0.0
 40
0.0
 40
0.0
 40
0.0335406648520835
 40
0.0670632270714846
 40
0.1034594855922378
 40
0.139912406187003
 40
0.1774583735251304
 40
0.2147930067143856
 40
0.2409750008518983
 40
0.2678807300243674
 40
0.2809929299765956
 40
0.293104841555437
 40
0.3049433873617934
 40
0.31752688770444
 40
0.3376634668903579
 40
0.3580191160499263
 40
0.3956695233486596
 40
0.432881307942642
 40
0.4740535112083131
 40
0.5153778855950156
 40
0.5601110296304217
 40
0.6047951877257152
 40
0.6360520923574745
 40
0.6673148520811411
 40
0.6851513816307687
 40
0.7029870901108705
 40
0.7029870901108705
 40
0.7029870901108705
 40
0.7029870901108705
 10
237.7736628856151
 20
192.3781357825683
 30
0.0
 10
237.7625537234721
 20
192.3793945294632
 30
0.0
 10
237.7403413950446
 20
192.38191134388
 30
0.0
 10
237.7061279047093
 20
192.3862600926721
 30
0.0
 10
237.6710876907602
 20
192.3917295456497
 30
0.0
 10
237.6349621997141
 20
192.3987840302283
 30
0.0
 10
237.598887334553
 20
192.4075786391601
 30
0.0
 10
237.5666490940959
 20
192.417378813491
 30
0.0
 10
237.5382837532666
 20
192.4277147600286
 30
0.0
 10
237.5191329959863
 20
192.4391256330121
 30
0.0
 10
237.5060506377365
 20
192.4505793047134
 30
0.0
 10
237.499526494158
 20
192.4618279570852
 30
0.0
 10
237.5012525459878
 20
192.4745175812392
 30
0.0
 10
237.508278150379
 20
192.4877923156185
 30
0.0
 10
237.5222277367616
 20
192.4995306315236
 30
0.0
 10
237.5462028981994
 20
192.5098412936618
 30
0.0
 10
237.5759246689594
 20
192.5209927919029
 30
0.0
 10
237.613090739012
 20
192.5318484318733
 30
0.0
 10
237.6520959024805
 20
192.5403761522124
 30
0.0
 10
237.6939329344197
 20
192.5473785659221
 30
0.0
 10
237.7371069031413
 20
192.5533531799025
 30
0.0
 10
237.7770913730236
 20
192.5577871468478
 30
0.0
 10
237.8126834785183
 20
192.5609911083806
 30
0.0
 10
237.8393994872914
 20
192.5629386513921
 30
0.0
 10
237.8616720031806
 20
192.5642627935287
 30
0.0
 10
237.8735450881321
 20
192.5649107168036
 30
0.0
 10
237.8794814939661
 20
192.5652346709844
 30
0.0
 11
237.7736628856151
 21
192.3781357825683
 31
0.0
 11
237.7403441247038
 21
192.3819875834528
 31
0.0
 11
237.7070988214953
 21
192.3862901399405
 31
0.0
 11
237.6711459019402
 21
192.3919536379561
 31
0.0
 11
237.6353775800659
 21
192.3989851790522
 31
0.0
 11
237.5989135964645
 21
192.4079337858304
 31
0.0
 11
237.563207670269
 21
192.4188407409463
 31
0.0
 11
237.5388260034426
 21
192.4283817649891
 31
0.0
 11
237.5158360864802
 21
192.4423596754324
 31
0.0
 11
237.5063103178212
 21
192.4513701981166
 31
0.0
 11
237.5008459516786
 21
192.4621794119989
 31
0.0
 11
237.5018510532629
 21
192.4739752136933
 31
0.0
 11
237.5075961234941
 21
192.4851706881769
 31
0.0
 11
237.5226106537127
 21
192.4985887992074
 31
0.0
 11
237.5409347339763
 21
192.5074533654799
 31
0.0
 11
237.576216043628
 21
192.5205980358455
 31
0.0
 11
237.6119199483974
 21
192.5310836496514
 31
0.0
 11
237.6521078766408
 21
192.54003243422
 31
0.0
 11
237.6928396650708
 21
192.5470056207042
 31
0.0
 11
237.7371481179067
 21
192.5531550257637
 31
0.0
 11
237.7815577895599
 21
192.5581002303434
 31
0.0
 11
237.8126888127492
 21
192.5609026368712
 31
0.0
 11
237.8438688497584
 21
192.5631753967892
 31
0.0
 11
237.861673077302
 21
192.5642483683409
 31
0.0
 11
237.8794814939661
 21
192.5652346709844
 31
0.0
  0
SPLINE
  5
1C1
330
42
100
AcDbEntity
  8
1
  6
Continuous
 62
     2
100
AcDbSpline
210
0.0
220
0.0
230
1.0
 70
     8
 71
     3
 72
    29
 73
    25
 74
    23
 42
0.0000000001
 43
0.0000000001
 44
0.00000001
 40
0.0
 40
0.0
 40
0.0
 40
0.0
 40
0.0319888617818919
 40
0.0640416823855768
 40
0.1253722282247477
 40
0.1862532549377828
 40
0.2244756361379528
 40
0.2636872295148981
 40
0.3188048395755426
 40
0.3707009750920802
 40
0.3864546921400606
 40
0.4021975916843503
 40
0.4263426987894236
 40
0.4509919171337206
 40
0.4973701195425122
 40
0.5437933574587811
 40
0.6143187691742743
 40
0.6847041707329525
 40
0.7470287847525789
 40
0.8093789723583381
 40
0.8714784627670358
 40
0.9335287656848905
 40
1.01517106953019
 40
1.096918169075138
 40
1.096918169075138
 40
1.096918169075138
 40
1.096918169075138
 10
237.8289899283372
 20
191.6741000327448
 30
0.0
 10
237.8184357117478
 20
191.6756196152333
 30
0.0
 10
237.7973061763723
 20
191.6786618184773
 30
0.0
 10
237.7560518380851
 20
191.6853594706356
 30
0.0
 10
237.7057378475238
 20
191.6962069585938
 30
0.0
 10
237.6544347970569
 20
191.7115211861854
 30
0.0
 10
237.6113380262367
 20
191.7280282471518
 30
0.0
 10
237.5716368666585
 20
191.7475415000535
 30
0.0
 10
237.5301565150985
 20
191.7734030203379
 30
0.0
 10
237.5042824554512
 20
191.8082697344526
 30
0.0
 10
237.4997611549277
 20
191.8359452856213
 30
0.0
 10
237.5007746375631
 20
191.8546539143869
 30
0.0
 10
237.5092436076939
 20
191.874962052644
 30
0.0
 10
237.5288943057603
 20
191.9000848536958
 30
0.0
 10
237.5598359674322
 20
191.924856589088
 30
0.0
 10
237.6085138564587
 20
191.9495496466114
 30
0.0
 10
237.6671247450595
 20
191.9715004046683
 30
0.0
 10
237.7328248160753
 20
191.9883941481944
 30
0.0
 10
237.796803717158
 20
192.0001699128927
 30
0.0
 10
237.8585847289114
 20
192.0080657546725
 30
0.0
 10
237.9205562177544
 20
192.0132310943169
 30
0.0
 10
237.9891549147778
 20
192.0154776090735
 30
0.0
 10
238.0643070416392
 20
192.0129538572144
 30
0.0
 10
238.1186317812068
 20
192.0090811175049
 30
0.0
 10
238.1458115725583
 20
192.0071435056893
 30
0.0
 11
237.8289899283372
 21
191.6741000327448
 31
0.0
 11
237.7973413279479
 21
191.6787533510766
 31
0.0
 11
237.7657177266429
 21
191.6839812712325
 31
0.0
 11
237.7057875222662
 21
191.6970122518673
 31
0.0
 11
237.647495492759
 21
191.7145775218498
 31
0.0
 11
237.6118739635681
 21
191.7284359879524
 31
0.0
 11
237.5766591530628
 21
191.7456831957331
 31
0.0
 11
237.5313126788848
 21
191.7770144615617
 31
0.0
 11
237.5028972038849
 21
191.8204399110364
 31
0.0
 11
237.5003312961537
 21
191.8359832606864
 31
0.0
 11
237.5013237793772
 21
191.8516948444103
 31
0.0
 11
237.5100765094649
 21
191.8741976423059
 31
0.0
 11
237.5248951540466
 21
191.8938951481821
 31
0.0
 11
237.5606259593067
 21
191.9234628199561
 31
0.0
 11
237.6016037110922
 21
191.9452788891996
 31
0.0
 11
237.6675357326924
 21
191.9703149077598
 31
0.0
 11
237.7356070151206
 21
191.9882147753895
 31
0.0
 11
237.7968820461784
 21
191.9996045989861
 31
0.0
 11
237.8587147562428
 21
192.0076209485646
 31
0.0
 11
237.9206052693603
 21
192.0127112427672
 31
0.0
 11
237.9826246083332
 21
192.0146712645949
 31
0.0
 11
238.0642365470222
 21
192.0124447784419
 31
0.0
 11
238.1458115725583
 21
192.0071435056893
 31
0.0
  0
SPLINE
  5
1C2
330
42
100
AcDbEntity
  8
1
  6
Continuous
 62
     2
100
AcDbSpline
210
0.0
220
0.0
230
1.0
 70
     8
 71
     3
 72
    21
 73
    17
 74
    15
 42
0.0000000001
 43
0.0000000001
 44
0.00000001
 40
0.0
 40
0.0
 40
0.0
 40
0.0
 40
0.0697852492278602
 40
0.139329993804793
 40
0.2454207664847077
 40
0.3538878261167459
 40
0.435635055133912
 40
0.5116501758991456
 40
0.5762260057662119
 40
0.6439656769719455
 40
0.7163359331646337
 40
0.7883678493931311
 40
0.8617613222486156
 40
0.9347754253480366
 40
1.072520845090001
 40
1.211674418442501
 40
1.211674418442501
 40
1.211674418442501
 40
1.211674418442501
 10
237.9188866867225
 20
190.5817244878386
 30
0.0
 10
237.8958230342875
 20
190.5847766882052
 30
0.0
 10
237.8497752149208
 20
190.5908705699764
 30
0.0
 10
237.7691953183458
 20
190.6050386277097
 30
0.0
 10
237.6776396958677
 20
190.6313023189298
 30
0.0
 10
237.5909117172513
 20
190.6811868384283
 30
0.0
 10
237.526356352997
 20
190.7428654417494
 30
0.0
 10
237.4932392364403
 20
190.8140208298842
 30
0.0
 10
237.508740502119
 20
190.8849510619835
 30
0.0
 10
237.5456727336982
 20
190.9433206722939
 30
0.0
 10
237.6007236266889
 20
190.989396453692
 30
0.0
 10
237.6659182889298
 20
191.0219237134456
 30
0.0
 10
237.7339745865651
 20
191.0480338807523
 30
0.0
 10
237.8257344914061
 20
191.0724213358434
 30
0.0
 10
237.9424465108171
 20
191.0835775559844
 30
0.0
 10
238.0347314982361
 20
191.0825950286107
 30
0.0
 10
238.0811086468946
 20
191.0821012666312
 30
0.0
 11
237.9188866867225
 21
190.5817244878386
 31
0.0
 11
237.8497712629196
 21
190.5913701709318
 31
0.0
 11
237.7813617888815
 21
190.6038847768029
 31
0.0
 11
237.6799563643769
 21
190.6350647692477
 31
0.0
 11
237.5861969479828
 21
190.6896016820927
 31
0.0
 11
237.5289282788701
 21
190.7479361400918
 31
0.0
 11
237.5007153245419
 21
190.8185217462238
 31
0.0
 11
237.5118466156432
 21
190.882130960662
 31
0.0
 11
237.5474266857996
 21
190.9397740145603
 31
0.0
 11
237.6022563571867
 21
190.9870091827825
 31
0.0
 11
237.665946647585
 21
191.0206565283617
 31
0.0
 11
237.7345110144738
 21
191.0468391457048
 31
0.0
 11
237.8050998409568
 21
191.0655013220826
 31
0.0
 11
237.9419586411778
 21
191.0811048300842
 31
0.0
 11
238.0811086468946
 21
191.0821012666312
 31
0.0
  0
SPLINE
  5
1C3
330
42
100
AcDbEntity
  8
1
  6
Continuous
 62
     2
100
AcDbSpline
210
0.0
220
0.0
230
1.0
 70
     8
 71
     3
 72
    21
 73
    17
 74
    15
 42
0.0000000001
 43
0.0000000001
 44
0.00000001
 40
0.0
 40
0.0
 40
0.0
 40
0.0
 40
0.1006292545709402
 40
0.2010132966937605
 40
0.3100967744869109
 40
0.4197366466286846
 40
0.4984983172884361
 40
0.5757409429736127
 40
0.6697692545527363
 40
0.7652427275789087
 40
0.8691374587693486
 40
0.9743773519240501
 40
1.08208652774026
 40
1.188642505001886
 40
1.260712284645433
 40
1.33308982194031
 40
1.33308982194031
 40
1.33308982194031
 40
1.33308982194031
 10
237.9782234127169
 20
189.1348278412361
 30
0.0
 10
237.9450285091246
 20
189.1396660936659
 30
0.0
 10
237.8787195909777
 20
189.149330808716
 30
0.0
 10
237.7776898179585
 20
189.1722123333346
 30
0.0
 10
237.6783889580015
 20
189.2121822641428
 30
0.0
 10
237.596055914564
 20
189.26938938952
 30
0.0
 10
237.5366868620172
 20
189.3359873772133
 30
0.0
 10
237.4999720778739
 20
189.4129143271817
 30
0.0
 10
237.5003081741569
 20
189.5047598669163
 30
0.0
 10
237.5358705706759
 20
189.598094804862
 30
0.0
 10
237.6071789649983
 20
189.6736552833471
 30
0.0
 10
237.6990919452276
 20
189.7270693120435
 30
0.0
 10
237.7988845317008
 20
189.7654360107138
 30
0.0
 10
237.8930630488528
 20
189.7840266440181
 30
0.0
 10
237.9767324025389
 20
189.788180170052
 30
0.0
 10
238.0248812774912
 20
189.7877748749758
 30
0.0
 10
238.0490070076636
 20
189.7875717956793
 30
0.0
 11
237.9782234127169
 21
189.1348278412361
 31
0.0
 11
237.8788438585558
 21
189.1506376827991
 31
0.0
 11
237.7812273162057
 21
189.1740463686342
 31
0.0
 11
237.6804346246413
 21
189.2157601368007
 31
0.0
 11
237.5909090027696
 21
189.2790536166525
 31
0.0
 11
237.5393953386263
 21
189.3386333377969
 31
0.0
 11
237.5075961234941
 21
189.4090267546746
 31
0.0
 11
237.5059026642202
 21
189.5030398153317
 31
0.0
 11
237.5400111820601
 21
189.5922126422603
 31
0.0
 11
237.6097539118651
 21
189.6692195692765
 31
0.0
 11
237.6995326259454
 21
189.7241305664383
 31
0.0
 11
237.8001421815798
 21
189.7625881257739
 31
0.0
 11
237.9046874618829
 21
189.7831905687488
 31
0.0
 11
237.9766295296495
 21
189.7874791609816
 31
0.0
 11
238.0490070076636
 21
189.7875717956793
 31
0.0
  0
SPLINE
  5
1C4
330
42
100
AcDbEntity
  8
1
  6
Continuous
 62
     2
100
AcDbSpline
210
0.0
220
0.0
230
1.0
 70
     8
 71
     3
 72
    17
 73
    13
 74
    11
 42
0.0000000001
 43
0.0000000001
 44
0.00000001
 40
0.0
 40
0.0
 40
0.0
 40
0.0
 40
0.1479624758027988
 40
0.2958571514408447
 40
0.4915379553527045
 40
0.6781708749173182
 40
0.826737441615907
 40
0.9816578439331936
 40
1.109133748266263
 40
1.234736446554004
 40
1.303876103675963
 40
1.373178552272486
 40
1.373178552272486
 40
1.373178552272486
 40
1.373178552272486
 10
238.0
 20
187.4097116590482
 30
0.0
 10
237.950897535775
 20
187.4146204830114
 30
0.0
 10
237.8527151073215
 20
187.4244358815899
 30
0.0
 10
237.694176548994
 20
187.4751362289321
 30
0.0
 10
237.5563797264238
 20
187.5935500932966
 30
0.0
 10
237.4801646536969
 20
187.7673310269462
 30
0.0
 10
237.5294976422777
 20
187.9321063240371
 30
0.0
 10
237.6227526499875
 20
188.0448504576223
 30
0.0
 10
237.7395222559336
 20
188.118120449828
 30
0.0
 10
237.8434826095169
 20
188.1493026574022
 30
0.0
 10
237.9308898869662
 20
188.1602768654363
 30
0.0
 10
237.9769452437788
 20
188.16327628375
 30
0.0
 10
238.0
 20
188.1647777563867
 30
0.0
 11
238.0
 21
187.4097116590482
 31
0.0
 11
237.8533824041422
 21
187.4296158000888
 31
0.0
 11
237.7135773451328
 21
187.4778587328092
 31
0.0
 11
237.5656792153346
 21
187.6059880433583
 31
0.0
 11
237.5000773819297
 21
187.7807113850134
 31
0.0
 11
237.537275109074
 21
187.9245458518004
 31
0.0
 11
237.6346245860823
 21
188.0450589646984
 31
0.0
 11
237.7423980962346
 21
188.1131396278487
 31
0.0
 11
237.862379689753
 21
188.150294103137
 31
0.0
 11
237.9308925123312
 21
188.1595830928186
 31
0.0
 11
238.0
 21
188.1647777563867
 31
0.0
  0
SPLINE
  5
1C5
330
42
100
AcDbEntity
  8
1
  6
Continuous
 62
     2
100
AcDbSpline
210
0.0
220
0.0
230
1.0
 70
     8
 71
     3
 72
    17
 73
    13
 74
    11
 42
0.0000000001
 43
0.0000000001
 44
0.00000001
 40
0.0
 40
0.0
 40
0.0
 40
0.0
 40
0.1124355680657067
 40
0.2242233720790197
 40
0.4135401667703033
 40
0.6030845072171228
 40
0.7378410366784474
 40
0.8724650030213167
 40
1.037871678851303
 40
1.20260984755568
 40
1.338585256307047
 40
1.476680209402612
 40
1.476680209402612
 40
1.476680209402612
 40
1.476680209402612
 10
238.017428658763
 20
185.3963548459414
 30
0.0
 10
237.9800605833813
 20
185.3992730372084
 30
0.0
 10
237.9055397176595
 20
185.4050926074521
 30
0.0
 10
237.7698345972482
 20
185.4343985477008
 30
0.0
 10
237.6268014449311
 20
185.5230761107129
 30
0.0
 10
237.5233516381847
 20
185.6667788587901
 30
0.0
 10
237.4928243547548
 20
185.8199213507841
 30
0.0
 10
237.5142518069465
 20
185.9663768364567
 30
0.0
 10
237.5971957775183
 20
186.102252893218
 30
0.0
 10
237.7226785223706
 20
186.2001990915466
 30
0.0
 10
237.8638945358654
 20
186.2444965433892
 30
0.0
 10
237.9543982062432
 20
186.2569402808079
 30
0.0
 10
238.0
 20
186.2632102668202
 30
0.0
 11
238.017428658763
 21
185.3963548459414
 31
0.0
 11
237.9055610257212
 21
185.4076415480231
 31
0.0
 11
237.7967965833407
 21
185.4334641969921
 31
0.0
 11
237.6353917827667
 21
185.5324052860494
 31
0.0
 11
237.5272606798207
 21
185.6880803372654
 31
0.0
 11
237.5006218979583
 21
185.8201776405435
 31
0.0
 11
237.5205379989621
 21
185.9533202754682
 31
0.0
 11
237.6048351050553
 21
186.095634597704
 31
0.0
 11
237.7351695878422
 21
186.1963896810733
 31
0.0
 11
237.8637793561945
 21
186.2405353407632
 31
0.0
 11
238.0
 21
186.2632102668202
 31
0.0
  0
SPLINE
  5
1C6
330
42
100
AcDbEntity
  8
1
  6
Continuous
 62
     2
100
AcDbSpline
210
0.0
220
0.0
230
1.0
 70
     8
 71
     3
 72
    15
 73
    11
 74
     9
 42
0.0000000001
 43
0.0000000001
 44
0.00000001
 40
0.0
 40
0.0
 40
0.0
 40
0.0
 40
0.2166452639586124
 40
0.4183049870030934
 40
0.582163141058426
 40
0.7541602470378197
 40
0.970707967795204
 40
1.17695949639193
 40
1.34484930934864
 40
1.521912864132503
 40
1.521912864132503
 40
1.521912864132503
 40
1.521912864132503
 10
238.0
 20
177.11783891766
 30
0.0
 10
237.9305737598957
 20
177.0983786955239
 30
0.0
 10
237.7965235529637
 20
177.0608043317045
 30
0.0
 10
237.6232147210255
 20
176.9590401195405
 30
0.0
 10
237.5315313293422
 20
176.7984136081111
 30
0.0
 10
237.4998007612817
 20
176.6138720357644
 30
0.0
 10
237.5401683701816
 20
176.4145755696067
 30
0.0
 10
237.6582837972678
 20
176.2456493218533
 30
0.0
 10
237.829837243326
 20
176.1674967624971
 30
0.0
 10
237.9422822876262
 20
176.144063502009
 30
0.0
 10
238.0
 20
176.1320352779351
 30
0.0
 11
238.0
 21
177.11783891766
 31
0.0
 11
237.7942752951495
 21
177.0499234097855
 31
0.0
 11
237.6261053416977
 21
176.9386332006276
 31
0.0
 11
237.5419634486642
 21
176.7980286612728
 31
0.0
 11
237.5119005564522
 21
176.6286792385483
 31
0.0
 11
237.5555177925082
 21
176.4165697100399
 31
0.0
 11
237.6786061951569
 21
176.2510736732841
 31
0.0
 11
237.8281863614121
 21
176.1748321940375
 31
0.0
 11
238.0
 21
176.1320352779351
 31
0.0
  0
SPLINE
  5
1C7
330
42
100
AcDbEntity
  8
1
  6
Continuous
 62
     2
100
AcDbSpline
210
0.0
220
0.0
230
1.0
 70
     8
 71
     3
 72
    15
 73
    11
 74
     9
 42
0.0000000001
 43
0.0000000001
 44
0.00000001
 40
0.0
 40
0.0
 40
0.0
 40
0.0
 40
0.2268062960555227
 40
0.4375851034961218
 40
0.5966922393517541
 40
0.7616434016635978
 40
0.9665497420499432
 40
1.165280251958044
 40
1.331731956840664
 40
1.505489910769791
 40
1.505489910769791
 40
1.505489910769791
 40
1.505489910769791
 10
238.0
 20
174.7981403604429
 30
0.0
 10
237.9267351771405
 20
174.7799352446966
 30
0.0
 10
237.7853828617456
 20
174.7448114955037
 30
0.0
 10
237.6060135311155
 20
174.6419403982486
 30
0.0
 10
237.5145217221729
 20
174.4825198575453
 30
0.0
 10
237.4849532968493
 20
174.3048089738025
 30
0.0
 10
237.5362679807328
 20
174.1159058910857
 30
0.0
 10
237.6610796251539
 20
173.9622695667053
 30
0.0
 10
237.8311958903066
 20
173.8923943838924
 30
0.0
 10
237.9429320914626
 20
173.8734328711762
 30
0.0
 10
238.0
 20
173.8637485087025
 30
0.0
 11
238.0
 21
174.7981403604429
 31
0.0
 11
237.7828413971124
 21
174.7326939157546
 31
0.0
 11
237.6060401628671
 21
174.6179375249286
 31
0.0
 11
237.5245180820013
 21
174.481302130497
 31
0.0
 11
237.4979382425054
 21
174.3185065590572
 31
0.0
 11
237.5502111993881
 21
174.1203799674314
 31
0.0
 11
237.6786061951569
 21
173.968694303541
 31
0.0
 11
237.8299307634144
 21
173.8993614462509
 31
0.0
 11
238.0
 21
173.8637485087025
 31
0.0
  0
SPLINE
  5
1C8
330
42
100
AcDbEntity
  8
1
  6
Continuous
 62
     2
100
AcDbSpline
210
0.0
220
0.0
230
1.0
 70
     8
 71
     3
 72
    31
 73
    27
 74
    25
 42
0.0000000001
 43
0.0000000001
 44
0.00000001
 40
0.0
 40
0.0
 40
0.0
 40
0.0
 40
0.0335406648520835
 40
0.0670632270714846
 40
0.1034594855922201
 40
0.1399124061869689
 40
0.1774583735251102
 40
0.2147930067143549
 40
0.2409750008518986
 40
0.2678807300244268
 40
0.280992929976655
 40
0.2931048415554964
 40
0.3049433873617396
 40
0.3175268877043104
 40
0.3376634668902449
 40
0.3580191160499007
 40
0.3956695233485943
 40
0.4328813079425526
 40
0.4740535112082423
 40
0.5153778855949688
 40
0.5601110296303866
 40
0.6047951877256707
 40
0.6360520923574198
 40
0.6673148520810781
 40
0.6851513816307109
 40
0.702987090110819
 40
0.702987090110819
 40
0.702987090110819
 40
0.702987090110819
 10
237.7736628856151
 20
165.6218642174318
 30
0.0
 10
237.762553723472
 20
165.6206054705368
 30
0.0
 10
237.7403413950446
 20
165.6180886561202
 30
0.0
 10
237.7061279047094
 20
165.613739907328
 30
0.0
 10
237.6710876907602
 20
165.6082704543505
 30
0.0
 10
237.6349621997141
 20
165.6012159697721
 30
0.0
 10
237.5988873345529
 20
165.5924213608403
 30
0.0
 10
237.5666490940959
 20
165.5826211865092
 30
0.0
 10
237.5382837532666
 20
165.5722852399717
 30
0.0
 10
237.5191329959863
 20
165.560874366988
 30
0.0
 10
237.5060506377365
 20
165.5494206952867
 30
0.0
 10
237.4995264941581
 20
165.538172042915
 30
0.0
 10
237.5012525459877
 20
165.525482418761
 30
0.0
 10
237.5082781503791
 20
165.5122076843818
 30
0.0
 10
237.5222277367615
 20
165.5004693684766
 30
0.0
 10
237.5462028981994
 20
165.4901587063382
 30
0.0
 10
237.5759246689593
 20
165.4790072080974
 30
0.0
 10
237.6130907390122
 20
165.468151568127
 30
0.0
 10
237.6520959024803
 20
165.4596238477879
 30
0.0
 10
237.6939329344198
 20
165.4526214340779
 30
0.0
 10
237.7371069031413
 20
165.4466468200975
 30
0.0
 10
237.7770913730236
 20
165.4422128531523
 30
0.0
 10
237.8126834785184
 20
165.4390088916196
 30
0.0
 10
237.8393994872914
 20
165.4370613486082
 30
0.0
 10
237.8616720031807
 20
165.4357372064715
 30
0.0
 10
237.8735450881321
 20
165.4350892831965
 30
0.0
 10
237.8794814939661
 20
165.4347653290157
 30
0.0
 11
237.7736628856151
 21
165.6218642174318
 31
0.0
 11
237.7403441247038
 21
165.6180124165473
 31
0.0
 11
237.7070988214953
 21
165.6137098600596
 31
0.0
 11
237.6711459019402
 21
165.6080463620441
 31
0.0
 11
237.6353775800659
 21
165.6010148209481
 31
0.0
 11
237.5989135964644
 21
165.59206621417
 31
0.0
 11
237.563207670269
 21
165.581159259054
 31
0.0
 11
237.5388260034426
 21
165.5716182350112
 31
0.0
 11
237.5158360864802
 21
165.5576403245677
 31
0.0
 11
237.5063103178212
 21
165.5486298018835
 31
0.0
 11
237.5008459516786
 21
165.5378205880012
 31
0.0
 11
237.5018510532629
 21
165.5260247863069
 31
0.0
 11
237.5075961234941
 21
165.5148293118234
 31
0.0
 11
237.5226106537126
 21
165.5014112007929
 31
0.0
 11
237.5409347339763
 21
165.4925466345202
 31
0.0
 11
237.576216043628
 21
165.4794019641547
 31
0.0
 11
237.6119199483974
 21
165.4689163503489
 31
0.0
 11
237.6521078766408
 21
165.4599675657802
 31
0.0
 11
237.6928396650708
 21
165.4529943792959
 31
0.0
 11
237.7371481179067
 21
165.4468449742363
 31
0.0
 11
237.7815577895599
 21
165.4418997696567
 31
0.0
 11
237.8126888127492
 21
165.439097363129
 31
0.0
 11
237.8438688497584
 21
165.4368246032111
 31
0.0
 11
237.861673077302
 21
165.4357516316593
 31
0.0
 11
237.8794814939661
 21
165.4347653290157
 31
0.0
  0
SPLINE
  5
1C9
330
42
100
AcDbEntity
  8
1
  6
Continuous
 62
     2
100
AcDbSpline
210
0.0
220
0.0
230
1.0
 70
     8
 71
     3
 72
    29
 73
    25
 74
    23
 42
0.0000000001
 43
0.0000000001
 44
0.00000001
 40
0.0
 40
0.0
 40
0.0
 40
0.0
 40
0.0319888617818919
 40
0.0640416823855768
 40
0.1253722282247477
 40
0.1862532549377828
 40
0.2244756361379528
 40
0.2636872295148981
 40
0.3188048395755588
 40
0.3707009750920726
 40
0.3864546921399969
 40
0.4021975916843433
 40
0.4263426987894431
 40
0.4509919171337174
 40
0.497370119542509
 40
0.5437933574587779
 40
0.6143187691742711
 40
0.6847041707329493
 40
0.7470287847525862
 40
0.809378972358338
 40
0.871478462767024
 40
0.933528765684877
 40
1.015171069530232
 40
1.096918169075112
 40
1.096918169075112
 40
1.096918169075112
 40
1.096918169075112
 10
237.8289899283372
 20
166.3258999672553
 30
0.0
 10
237.8184357117478
 20
166.3243803847668
 30
0.0
 10
237.7973061763723
 20
166.3213381815228
 30
0.0
 10
237.7560518380851
 20
166.3146405293646
 30
0.0
 10
237.7057378475238
 20
166.3037930414063
 30
0.0
 10
237.6544347970569
 20
166.2884788138148
 30
0.0
 10
237.6113380262367
 20
166.2719717528483
 30
0.0
 10
237.5716368666584
 20
166.2524584999467
 30
0.0
 10
237.5301565150986
 20
166.2265969796622
 30
0.0
 10
237.5042824554513
 20
166.1917302655475
 30
0.0
 10
237.4997611549276
 20
166.1640547143788
 30
0.0
 10
237.5007746375631
 20
166.1453460856132
 30
0.0
 10
237.5092436076939
 20
166.1250379473561
 30
0.0
 10
237.5288943057603
 20
166.0999151463042
 30
0.0
 10
237.5598359674323
 20
166.0751434109121
 30
0.0
 10
237.6085138564587
 20
166.0504503533887
 30
0.0
 10
237.6671247450595
 20
166.0284995953318
 30
0.0
 10
237.7328248160753
 20
166.0116058518057
 30
0.0
 10
237.7968037171581
 20
165.9998300871074
 30
0.0
 10
237.8585847289113
 20
165.9919342453276
 30
0.0
 10
237.9205562177544
 20
165.9867689056834
 30
0.0
 10
237.9891549147779
 20
165.9845223909269
 30
0.0
 10
238.0643070416392
 20
165.9870461427858
 30
0.0
 10
238.1186317812069
 20
165.9909188824953
 30
0.0
 10
238.1458115725583
 20
165.9928564943108
 30
0.0
 11
237.8289899283372
 21
166.3258999672553
 31
0.0
 11
237.7973413279479
 21
166.3212466489235
 31
0.0
 11
237.7657177266429
 21
166.3160187287676
 31
0.0
 11
237.7057875222662
 21
166.3029877481329
 31
0.0
 11
237.647495492759
 21
166.2854224781503
 31
0.0
 11
237.6118739635681
 21
166.2715640120477
 31
0.0
 11
237.5766591530628
 21
166.254316804267
 31
0.0
 11
237.5313126788848
 21
166.2229855384384
 31
0.0
 11
237.5028972038849
 21
166.1795600889637
 31
0.0
 11
237.5003312961537
 21
166.1640167393138
 31
0.0
 11
237.5013237793772
 21
166.1483051555898
 31
0.0
 11
237.5100765094649
 21
166.1258023576942
 31
0.0
 11
237.5248951540466
 21
166.106104851818
 31
0.0
 11
237.5606259593067
 21
166.076537180044
 31
0.0
 11
237.6016037110922
 21
166.0547211108005
 31
0.0
 11
237.6675357326924
 21
166.0296850922403
 31
0.0
 11
237.7356070151206
 21
166.0117852246106
 31
0.0
 11
237.7968820461784
 21
166.0003954010139
 31
0.0
 11
237.8587147562428
 21
165.9923790514355
 31
0.0
 11
237.9206052693603
 21
165.9872887572331
 31
0.0
 11
237.9826246083332
 21
165.9853287354054
 31
0.0
 11
238.0642365470223
 21
165.9875552215584
 31
0.0
 11
238.1458115725583
 21
165.9928564943108
 31
0.0
  0
SPLINE
  5
1CA
330
42
100
AcDbEntity
  8
1
  6
Continuous
 62
     2
100
AcDbSpline
210
0.0
220
0.0
230
1.0
 70
     8
 71
     3
 72
    21
 73
    17
 74
    15
 42
0.0000000001
 43
0.0000000001
 44
0.00000001
 40
0.0
 40
0.0
 40
0.0
 40
0.0
 40
0.0697852492278641
 40
0.1393299938047969
 40
0.2454207664847116
 40
0.3538878261167355
 40
0.4356350551338408
 40
0.5116501758989689
 40
0.5762260057661373
 40
0.6439656769719733
 40
0.7163359331646615
 40
0.7883678493931589
 40
0.8617613222486433
 40
0.9347754253480644
 40
1.072520845090031
 40
1.211674418442532
 40
1.211674418442532
 40
1.211674418442532
 40
1.211674418442532
 10
237.9188866867225
 20
167.4182755121615
 30
0.0
 10
237.8958230342875
 20
167.4152233117949
 30
0.0
 10
237.8497752149209
 20
167.4091294300237
 30
0.0
 10
237.7691953183457
 20
167.3949613722904
 30
0.0
 10
237.6776396958679
 20
167.3686976810703
 30
0.0
 10
237.5909117172512
 20
167.3188131615718
 30
0.0
 10
237.5263563529971
 20
167.2571345582508
 30
0.0
 10
237.4932392364402
 20
167.185979170116
 30
0.0
 10
237.508740502119
 20
167.1150489380168
 30
0.0
 10
237.5456727336982
 20
167.0566793277062
 30
0.0
 10
237.600723626689
 20
167.0106035463081
 30
0.0
 10
237.6659182889297
 20
166.9780762865546
 30
0.0
 10
237.7339745865652
 20
166.9519661192479
 30
0.0
 10
237.8257344914061
 20
166.9275786641566
 30
0.0
 10
237.9424465108171
 20
166.9164224440157
 30
0.0
 10
238.0347314982361
 20
166.9174049713894
 30
0.0
 10
238.0811086468946
 20
166.9178987333689
 30
0.0
 11
237.9188866867225
 21
167.4182755121615
 31
0.0
 11
237.8497712629196
 21
167.4086298290683
 31
0.0
 11
237.7813617888815
 21
167.3961152231972
 31
0.0
 11
237.6799563643769
 21
167.3649352307524
 31
0.0
 11
237.5861969479828
 21
167.3103983179074
 31
0.0
 11
237.5289282788701
 21
167.2520638599084
 31
0.0
 11
237.5007153245419
 21
167.1814782537765
 31
0.0
 11
237.5118466156432
 21
167.1178690393383
 31
0.0
 11
237.5474266857996
 21
167.0602259854398
 31
0.0
 11
237.6022563571867
 21
167.0129908172176
 31
0.0
 11
237.665946647585
 21
166.9793434716384
 31
0.0
 11
237.7345110144738
 21
166.9531608542953
 31
0.0
 11
237.8050998409568
 21
166.9344986779175
 31
0.0
 11
237.9419586411778
 21
166.9188951699159
 31
0.0
 11
238.0811086468946
 21
166.9178987333689
 31
0.0
  0
SPLINE
  5
1CB
330
42
100
AcDbEntity
  8
1
  6
Continuous
 62
     2
100
AcDbSpline
210
0.0
220
0.0
230
1.0
 70
     8
 71
     3
 72
    21
 73
    17
 74
    15
 42
0.0000000001
 43
0.0000000001
 44
0.00000001
 40
0.0
 40
0.0
 40
0.0
 40
0.0
 40
0.1006292545709268
 40
0.2010132966937206
 40
0.3100967744868709
 40
0.4197366466286446
 40
0.4984983172884978
 40
0.5757409429737546
 40
0.6697692545528498
 40
0.7652427275790487
 40
0.8691374587694675
 40
0.9743773519241838
 40
1.082086527740404
 40
1.188642505002025
 40
1.260712284645569
 40
1.333089821940447
 40
1.333089821940447
 40
1.333089821940447
 40
1.333089821940447
 10
237.9782234127169
 20
168.865172158764
 30
0.0
 10
237.9450285091245
 20
168.8603339063343
 30
0.0
 10
237.8787195909777
 20
168.8506691912842
 30
0.0
 10
237.7776898179584
 20
168.8277876666657
 30
0.0
 10
237.6783889580016
 20
168.7878177358576
 30
0.0
 10
237.596055914564
 20
168.7306106104802
 30
0.0
 10
237.5366868620171
 20
168.664012622787
 30
0.0
 10
237.4999720778739
 20
168.5870856728184
 30
0.0
 10
237.5003081741569
 20
168.4952401330839
 30
0.0
 10
237.5358705706759
 20
168.4019051951381
 30
0.0
 10
237.6071789649984
 20
168.3263447166532
 30
0.0
 10
237.6990919452275
 20
168.2729306879566
 30
0.0
 10
237.7988845317008
 20
168.2345639892862
 30
0.0
 10
237.8930630488529
 20
168.215973355982
 30
0.0
 10
237.9767324025389
 20
168.2118198299481
 30
0.0
 10
238.0248812774913
 20
168.2122251250244
 30
0.0
 10
238.0490070076636
 20
168.2124282043208
 30
0.0
 11
237.9782234127169
 21
168.865172158764
 31
0.0
 11
237.8788438585558
 21
168.8493623172011
 31
0.0
 11
237.7812273162057
 21
168.8259536313661
 31
0.0
 11
237.6804346246413
 21
168.7842398631996
 31
0.0
 11
237.5909090027696
 21
168.7209463833478
 31
0.0
 11
237.5393953386262
 21
168.6613666622033
 31
0.0
 11
237.5075961234941
 21
168.5909732453255
 31
0.0
 11
237.5059026642202
 21
168.4969601846685
 31
0.0
 11
237.5400111820601
 21
168.4077873577398
 31
0.0
 11
237.6097539118651
 21
168.3307804307236
 31
0.0
 11
237.6995326259454
 21
168.2758694335618
 31
0.0
 11
237.8001421815798
 21
168.2374118742262
 31
0.0
 11
237.9046874618829
 21
168.2168094312513
 31
0.0
 11
237.9766295296495
 21
168.2125208390185
 31
0.0
 11
238.0490070076636
 21
168.2124282043208
 31
0.0
  0
SPLINE
  5
1CC
330
42
100
AcDbEntity
  8
1
  6
Continuous
 62
     2
100
AcDbSpline
210
0.0
220
0.0
230
1.0
 70
     8
 71
     3
 72
    17
 73
    13
 74
    11
 42
0.0000000001
 43
0.0000000001
 44
0.00000001
 40
0.0
 40
0.0
 40
0.0
 40
0.0
 40
0.1479624758027835
 40
0.2958571514408015
 40
0.4915379553526985
 40
0.6781708749174452
 40
0.826737441616034
 40
0.9816578439333428
 40
1.109133748266397
 40
1.234736446554138
 40
1.303876103676098
 40
1.37317855227262
 40
1.37317855227262
 40
1.37317855227262
 40
1.37317855227262
 10
238.0
 20
170.5902883409519
 30
0.0
 10
237.9508975357751
 20
170.5853795169888
 30
0.0
 10
237.8527151073214
 20
170.5755641184103
 30
0.0
 10
237.6941765489941
 20
170.5248637710682
 30
0.0
 10
237.5563797264237
 20
170.4064499067036
 30
0.0
 10
237.4801646536968
 20
170.2326689730539
 30
0.0
 10
237.5294976422777
 20
170.067893675963
 30
0.0
 10
237.6227526499875
 20
169.9551495423777
 30
0.0
 10
237.7395222559336
 20
169.8818795501721
 30
0.0
 10
237.843482609517
 20
169.8506973425979
 30
0.0
 10
237.9308898869662
 20
169.8397231345638
 30
0.0
 10
237.9769452437788
 20
169.8367237162501
 30
0.0
 10
238.0
 20
169.8352222436134
 30
0.0
 11
238.0
 21
170.5902883409519
 31
0.0
 11
237.8533824041422
 21
170.5703841999114
 31
0.0
 11
237.7135773451328
 21
170.5221412671911
 31
0.0
 11
237.5656792153346
 21
170.394011956642
 31
0.0
 11
237.5000773819297
 21
170.2192886149867
 31
0.0
 11
237.537275109074
 21
170.0754541481997
 31
0.0
 11
237.6346245860823
 21
169.9549410353017
 31
0.0
 11
237.7423980962346
 21
169.8868603721514
 31
0.0
 11
237.862379689753
 21
169.8497058968631
 31
0.0
 11
237.9308925123312
 21
169.8404169071815
 31
0.0
 11
238.0
 21
169.8352222436134
 31
0.0
  0
SPLINE
  5
1CD
330
42
100
AcDbEntity
  8
1
  6
Continuous
 62
     2
100
AcDbSpline
210
0.0
220
0.0
230
1.0
 70
     8
 71
     3
 72
    17
 73
    13
 74
    11
 42
0.0000000001
 43
0.0000000001
 44
0.00000001
 40
0.0
 40
0.0
 40
0.0
 40
0.0
 40
0.1124355680657152
 40
0.2242233720790545
 40
0.4135401667702935
 40
0.6030845072170197
 40
0.7378410366784
 40
0.8724650030214098
 40
1.037871678851445
 40
1.202609847555804
 40
1.338585256307135
 40
1.476680209402681
 40
1.476680209402681
 40
1.476680209402681
 40
1.476680209402681
 10
238.017428658763
 20
172.6036451540589
 30
0.0
 10
237.9800605833813
 20
172.6007269627919
 30
0.0
 10
237.9055397176595
 20
172.5949073925481
 30
0.0
 10
237.7698345972484
 20
172.5656014522993
 30
0.0
 10
237.6268014449309
 20
172.4769238892873
 30
0.0
 10
237.5233516381846
 20
172.3332211412102
 30
0.0
 10
237.4928243547548
 20
172.1800786492162
 30
0.0
 10
237.5142518069464
 20
172.0336231635434
 30
0.0
 10
237.5971957775183
 20
171.8977471067821
 30
0.0
 10
237.7226785223706
 20
171.7998009084535
 30
0.0
 10
237.8638945358655
 20
171.755503456611
 30
0.0
 10
237.9543982062432
 20
171.7430597191924
 30
0.0
 10
238.0
 20
171.7367897331801
 30
0.0
 11
238.017428658763
 21
172.6036451540589
 31
0.0
 11
237.9055610257212
 21
172.5923584519771
 31
0.0
 11
237.7967965833407
 21
172.566535803008
 31
0.0
 11
237.6353917827667
 21
172.4675947139508
 31
0.0
 11
237.5272606798207
 21
172.3119196627349
 31
0.0
 11
237.5006218979583
 21
172.1798223594568
 31
0.0
 11
237.5205379989621
 21
172.0466797245319
 31
0.0
 11
237.6048351050553
 21
171.9043654022961
 31
0.0
 11
237.7351695878422
 21
171.8036103189268
 31
0.0
 11
237.8637793561945
 21
171.759464659237
 31
0.0
 11
238.0
 21
171.7367897331801
 31
0.0
  0
SPLINE
  5
1CE
330
42
100
AcDbEntity
  8
1
  6
Continuous
 62
     2
100
AcDbSpline
210
0.0
220
0.0
230
1.0
 70
     8
 71
     3
 72
    15
 73
    11
 74
     9
 42
0.0000000001
 43
0.0000000001
 44
0.00000001
 40
0.0
 40
0.0
 40
0.0
 40
0.0
 40
0.2166452639585359
 40
0.418304987003096
 40
0.5821631410584164
 40
0.754160247037741
 40
0.9707079677952613
 40
1.176959496392066
 40
1.34484930934884
 40
1.521912864132761
 40
1.521912864132761
 40
1.521912864132761
 40
1.521912864132761
 10
125.3838860251279
 20
426.356091817197
 30
0.0
 10
125.3644258029918
 20
426.2866655770929
 30
0.0
 10
125.3268514391723
 20
426.152615370161
 30
0.0
 10
125.2250872270084
 20
425.9793065382223
 30
0.0
 10
125.064460715579
 20
425.8876231465394
 30
0.0
 10
124.8799191432324
 20
425.8558925784786
 30
0.0
 10
124.6806226770744
 20
425.8962601873783
 30
0.0
 10
124.5116964293211
 20
426.0143756144647
 30
0.0
 10
124.4335438699649
 20
426.185929060523
 30
0.0
 10
124.4101106094768
 20
426.2983741048233
 30
0.0
 10
124.3980823854029
 20
426.356091817197
 30
0.0
 11
125.3838860251279
 21
426.356091817197
 31
0.0
 11
125.3159705172534
 21
426.1503671123465
 31
0.0
 11
125.2046803080955
 21
425.9821971588947
 31
0.0
 11
125.0640757687408
 21
425.8980552658612
 31
0.0
 11
124.8947263460163
 21
425.8679923736491
 31
0.0
 11
124.6826168175078
 21
425.911609609705
 31
0.0
 11
124.5171207807519
 21
426.0346980123538
 31
0.0
 11
124.4408793015053
 21
426.184278178609
 31
0.0
 11
124.3980823854029
 21
426.356091817197
 31
0.0
  0
SPLINE
  5
1CF
330
42
100
AcDbEntity
  8
1
  6
Continuous
 62
     2
100
AcDbSpline
210
0.0
220
0.0
230
1.0
 70
     8
 71
     3
 72
    15
 73
    11
 74
     9
 42
0.0000000001
 43
0.0000000001
 44
0.00000001
 40
0.0
 40
0.0
 40
0.0
 40
0.0
 40
0.2268062960555976
 40
0.4375851034962676
 40
0.5966922393518562
 40
0.7616434016636999
 40
0.9665497420499758
 40
1.165280251958019
 40
1.331731956840658
 40
1.505489910769899
 40
1.505489910769899
 40
1.505489910769899
 40
1.505489910769899
 10
123.0641874679108
 20
426.356091817197
 30
0.0
 10
123.0459823521644
 20
426.2828269943375
 30
0.0
 10
123.0108586029715
 20
426.1414746789425
 30
0.0
 10
122.9079875057165
 20
425.9621053483125
 30
0.0
 10
122.7485669650131
 20
425.8706135393699
 30
0.0
 10
122.5708560812703
 20
425.8410451140462
 30
0.0
 10
122.3819529985536
 20
425.8923597979297
 30
0.0
 10
122.2283166741731
 20
426.0171714423508
 30
0.0
 10
122.1584414913604
 20
426.1872877075036
 30
0.0
 10
122.1394799786441
 20
426.2990239086595
 30
0.0
 10
122.1297956161704
 20
426.356091817197
 30
0.0
 11
123.0641874679108
 21
426.356091817197
 31
0.0
 11
122.9987410232225
 21
426.1389332143094
 31
0.0
 11
122.8839846323964
 21
425.962131980064
 31
0.0
 11
122.7473492379648
 21
425.8806098991983
 31
0.0
 11
122.584553666525
 21
425.8540300597024
 31
0.0
 11
122.3864270748992
 21
425.906303016585
 31
0.0
 11
122.2347414110089
 21
426.0346980123538
 31
0.0
 11
122.1654085537188
 21
426.1860225806113
 31
0.0
 11
122.1297956161704
 21
426.356091817197
 31
0.0
  0
SPLINE
  5
1D0
330
42
100
AcDbEntity
  8
1
  6
Continuous
 62
     2
100
AcDbSpline
210
0.0
220
0.0
230
1.0
 70
     8
 71
     3
 72
    31
 73
    27
 74
    25
 42
0.0000000001
 43
0.0000000001
 44
0.00000001
 40
0.0
 40
0.0
 40
0.0
 40
0.0
 40
0.0335406648521182
 40
0.0670632270714966
 40
0.1034594855922492
 40
0.1399124061869367
 40
0.1774583735251948
 40
0.2147930067144016
 40
0.2409750008518194
 40
0.2678807300242103
 40
0.2809929299765711
 40
0.2931048415554759
 40
0.3049433873617664
 40
0.3175268877043491
 40
0.337663466890359
 40
0.3580191160499327
 40
0.3956695233486579
 40
0.4328813079425264
 40
0.4740535112082716
 40
0.5153778855949397
 40
0.5601110296303273
 40
0.6047951877256412
 40
0.6360520923575074
 40
0.6673148520810858
 40
0.6851513816307117
 40
0.7029870901107866
 40
0.7029870901107866
 40
0.7029870901107866
 40
0.7029870901107866
 10
113.8879113248997
 20
426.1297547028121
 30
0.0
 10
113.8866525780047
 20
426.118645540669
 30
0.0
 10
113.8841357635881
 20
426.0964332122416
 30
0.0
 10
113.8797870147957
 20
426.0622197219064
 30
0.0
 10
113.8743175618184
 20
426.0271795079572
 30
0.0
 10
113.86726307724
 20
425.9910540169109
 30
0.0
 10
113.8584684683081
 20
425.9549791517499
 30
0.0
 10
113.8486682939769
 20
425.922740911293
 30
0.0
 10
113.8383323474395
 20
425.8943755704636
 30
0.0
 10
113.826921474456
 20
425.8752248131835
 30
0.0
 10
113.8154678027547
 20
425.8621424549334
 30
0.0
 10
113.8042191503828
 20
425.855618311355
 30
0.0
 10
113.7915295262289
 20
425.8573443631848
 30
0.0
 10
113.7782547918495
 20
425.8643699675761
 30
0.0
 10
113.7665164759446
 20
425.8783195539585
 30
0.0
 10
113.7562058138061
 20
425.9022947153966
 30
0.0
 10
113.7450543155653
 20
425.9320164861563
 30
0.0
 10
113.7341986755948
 20
425.9691825562092
 30
0.0
 10
113.7256709552558
 20
426.0081877196774
 30
0.0
 10
113.7186685415457
 20
426.0500247516167
 30
0.0
 10
113.7126939275654
 20
426.0931987203383
 30
0.0
 10
113.7082599606203
 20
426.1331831902206
 30
0.0
 10
113.7050559990874
 20
426.1687752957154
 30
0.0
 10
113.703108456076
 20
426.1954913044884
 30
0.0
 10
113.7017843139394
 20
426.2177638203777
 30
0.0
 10
113.7011363906645
 20
426.2296369053291
 30
0.0
 10
113.7008124364837
 20
426.2355733111631
 30
0.0
 11
113.8879113248997
 21
426.1297547028121
 31
0.0
 11
113.8840595240152
 21
426.0964359419007
 31
0.0
 11
113.8797569675274
 21
426.0631906386923
 31
0.0
 11
113.874093469512
 21
426.0272377191371
 31
0.0
 11
113.867061928416
 21
425.9914693972629
 31
0.0
 11
113.8581133216378
 21
425.9550054136614
 31
0.0
 11
113.8472063665217
 21
425.919299487466
 31
0.0
 11
113.837665342479
 21
425.8949178206397
 31
0.0
 11
113.8236874320357
 21
425.8719279036773
 31
0.0
 11
113.8146769093515
 21
425.8624021350182
 31
0.0
 11
113.8038676954691
 21
425.8569377688756
 31
0.0
 11
113.7920718937747
 21
425.85794287046
 31
0.0
 11
113.7808764192912
 21
425.8636879406911
 31
0.0
 11
113.7674583082607
 21
425.8787024709097
 31
0.0
 11
113.7585937419881
 21
425.8970265511733
 31
0.0
 11
113.7454490716226
 21
425.9323078608251
 31
0.0
 11
113.7349634578168
 21
425.9680117655944
 31
0.0
 11
113.7260146732481
 21
426.0081996938378
 31
0.0
 11
113.7190414867638
 21
426.0489314822678
 31
0.0
 11
113.7128920817042
 21
426.0932399351036
 31
0.0
 11
113.7079468771246
 21
426.1376496067569
 31
0.0
 11
113.7051444705969
 21
426.1687806299463
 31
0.0
 11
113.7028717106789
 21
426.1999606669554
 31
0.0
 11
113.7017987391273
 21
426.217764894499
 31
0.0
 11
113.7008124364837
 21
426.2355733111631
 31
0.0
  0
SPLINE
  5
1D1
330
42
100
AcDbEntity
  8
1
  6
Continuous
 62
     2
100
AcDbSpline
210
0.0
220
0.0
230
1.0
 70
     8
 71
     3
 72
    29
 73
    25
 74
    23
 42
0.0000000001
 43
0.0000000001
 44
0.00000001
 40
0.0
 40
0.0
 40
0.0
 40
0.0
 40
0.0319888617820304
 40
0.0640416823857995
 40
0.1253722282249179
 40
0.1862532549378985
 40
0.2244756361380103
 40
0.2636872295150067
 40
0.3188048395756045
 40
0.3707009750921851
 40
0.3864546921401468
 40
0.4021975916844435
 40
0.4263426987895271
 40
0.4509919171337786
 40
0.4973701195425596
 40
0.5437933574588719
 40
0.6143187691744371
 40
0.6847041707331059
 40
0.7470287847527856
 40
0.8093789723584492
 40
0.8714784627672001
 40
0.9335287656851414
 40
1.0151710695303
 40
1.096918169075245
 40
1.096918169075245
 40
1.096918169075245
 40
1.096918169075245
 10
114.5919470747232
 20
426.1850817455343
 30
0.0
 10
114.5904274922347
 20
426.1745275289449
 30
0.0
 10
114.5873852889907
 20
426.1533979935693
 30
0.0
 10
114.5806876368324
 20
426.1121436552818
 30
0.0
 10
114.5698401488742
 20
426.0618296647207
 30
0.0
 10
114.5545259212826
 20
426.0105266142538
 30
0.0
 10
114.5380188603162
 20
425.9674298434337
 30
0.0
 10
114.5185056074145
 20
425.9277286838554
 30
0.0
 10
114.4926440871301
 20
425.8862483322957
 30
0.0
 10
114.4577773730153
 20
425.860374272648
 30
0.0
 10
114.4301018218468
 20
425.8558529721248
 30
0.0
 10
114.4113931930811
 20
425.8568664547598
 30
0.0
 10
114.3910850548241
 20
425.865335424891
 30
0.0
 10
114.3659622537721
 20
425.8849861229571
 30
0.0
 10
114.3411905183801
 20
425.9159277846292
 30
0.0
 10
114.3164974608567
 20
425.9646056736558
 30
0.0
 10
114.2945467027997
 20
426.0232165622565
 30
0.0
 10
114.2776529592735
 20
426.0889166332723
 30
0.0
 10
114.2658771945752
 20
426.152895534355
 30
0.0
 10
114.2579813527956
 20
426.2146765461084
 30
0.0
 10
114.2528160131512
 20
426.2766480349515
 30
0.0
 10
114.2505694983946
 20
426.3452467319748
 30
0.0
 10
114.2530932502536
 20
426.4203988588363
 30
0.0
 10
114.2569659899632
 20
426.474723598404
 30
0.0
 10
114.2589036017787
 20
426.5019033897553
 30
0.0
 11
114.5919470747232
 21
426.1850817455343
 31
0.0
 11
114.5872937563914
 21
426.1534331451449
 31
0.0
 11
114.5820658362355
 21
426.1218095438398
 31
0.0
 11
114.5690348556008
 21
426.0618793394632
 31
0.0
 11
114.5514695856182
 21
426.003587309956
 31
0.0
 11
114.5376111195156
 21
425.9679657807652
 31
0.0
 11
114.5203639117349
 21
425.9327509702598
 31
0.0
 11
114.4890326459064
 21
425.8874044960818
 31
0.0
 11
114.4456071964316
 21
425.8589890210819
 31
0.0
 11
114.4300638467816
 21
425.8564231133507
 31
0.0
 11
114.4143522630577
 21
425.8574155965741
 31
0.0
 11
114.3918494651621
 21
425.8661683266618
 31
0.0
 11
114.3721519592859
 21
425.8809869712435
 31
0.0
 11
114.342584287512
 21
425.9167177765037
 31
0.0
 11
114.3207682182685
 21
425.9576955282892
 31
0.0
 11
114.2957321997081
 21
426.0236275498895
 31
0.0
 11
114.2778323320784
 21
426.0916988323176
 31
0.0
 11
114.2664425084818
 21
426.1529738633755
 31
0.0
 11
114.2584261589034
 21
426.2148065734398
 31
0.0
 11
114.2533358647009
 21
426.2766970865574
 31
0.0
 11
114.2513758428731
 21
426.3387164255303
 31
0.0
 11
114.2536023290262
 21
426.4203283642192
 31
0.0
 11
114.2589036017787
 21
426.5019033897553
 31
0.0
  0
SPLINE
  5
1D2
330
42
100
AcDbEntity
  8
1
  6
Continuous
 62
     2
100
AcDbSpline
210
0.0
220
0.0
230
1.0
 70
     8
 71
     3
 72
    21
 73
    17
 74
    15
 42
0.0000000001
 43
0.0000000001
 44
0.00000001
 40
0.0
 40
0.0
 40
0.0
 40
0.0
 40
0.0697852492278078
 40
0.1393299938046847
 40
0.2454207664846558
 40
0.3538878261167369
 40
0.4356350551338317
 40
0.5116501758990072
 40
0.5762260057660776
 40
0.6439656769719705
 40
0.7163359331646435
 40
0.788367849393211
 40
0.8617613222487169
 40
0.9347754253481162
 40
1.0725208450901
 40
1.211674418442544
 40
1.211674418442544
 40
1.211674418442544
 40
1.211674418442544
 10
115.6843226196295
 20
426.2749785039194
 30
0.0
 10
115.6812704192629
 20
426.2519148514843
 30
0.0
 10
115.6751765374917
 20
426.2058670321177
 30
0.0
 10
115.6610084797584
 20
426.1252871355426
 30
0.0
 10
115.6347447885382
 20
426.0337315130648
 30
0.0
 10
115.5848602690396
 20
425.9470035344482
 30
0.0
 10
115.5231816657186
 20
425.8824481701939
 30
0.0
 10
115.4520262775839
 20
425.8493310536372
 30
0.0
 10
115.3810960454845
 20
425.8648323193157
 30
0.0
 10
115.3227264351742
 20
425.9017645508953
 30
0.0
 10
115.2766506537759
 20
425.9568154438858
 30
0.0
 10
115.2441233940224
 20
426.0220101061267
 30
0.0
 10
115.2180132267156
 20
426.0900664037621
 30
0.0
 10
115.1936257716247
 20
426.1818263086033
 30
0.0
 10
115.1824695514837
 20
426.2985383280141
 30
0.0
 10
115.1834520788574
 20
426.3908233154331
 30
0.0
 10
115.1839458408369
 20
426.4372004640916
 30
0.0
 11
115.6843226196295
 21
426.2749785039194
 31
0.0
 11
115.6746769365363
 21
426.2058630801165
 31
0.0
 11
115.6621623306652
 21
426.1374536060785
 31
0.0
 11
115.6309823382203
 21
426.0360481815739
 31
0.0
 11
115.5764454253752
 21
425.9422887651798
 31
0.0
 11
115.5181109673762
 21
425.8850200960671
 31
0.0
 11
115.4475253612443
 21
425.8568071417388
 31
0.0
 11
115.3839161468061
 21
425.8679384328401
 31
0.0
 11
115.3262730929077
 21
425.9035185029966
 31
0.0
 11
115.2790379246855
 21
425.9583481743836
 31
0.0
 11
115.2453905791062
 21
426.022038464782
 31
0.0
 11
115.2192079617632
 21
426.0906028316708
 31
0.0
 11
115.2005457853854
 21
426.1611916581538
 31
0.0
 11
115.1849422773839
 21
426.2980504583749
 31
0.0
 11
115.1839458408369
 21
426.4372004640916
 31
0.0
  0
SPLINE
  5
1D3
330
42
100
AcDbEntity
  8
1
  6
Continuous
 62
     2
100
AcDbSpline
210
0.0
220
0.0
230
1.0
 70
     8
 71
     3
 72
    21
 73
    17
 74
    15
 42
0.0000000001
 43
0.0000000001
 44
0.00000001
 40
0.0
 40
0.0
 40
0.0
 40
0.0
 40
0.100629254570864
 40
0.2010132966936368
 40
0.31009677448674
 40
0.4197366466284359
 40
0.4984983172883234
 40
0.5757409429735387
 40
0.6697692545526633
 40
0.765242727578949
 40
0.8691374587693336
 40
0.9743773519241766
 40
1.082086527740349
 40
1.18864250500202
 40
1.260712284645534
 40
1.333089821940354
 40
1.333089821940354
 40
1.333089821940354
 40
1.333089821940354
 10
117.1312192662319
 20
426.3343152299138
 30
0.0
 10
117.1263810138022
 20
426.3011203263215
 30
0.0
 10
117.1167162987521
 20
426.2348114081745
 30
0.0
 10
117.0938347741336
 20
426.1337816351554
 30
0.0
 10
117.0538648433254
 20
426.0344807751985
 30
0.0
 10
116.9966577179481
 20
425.9521477317613
 30
0.0
 10
116.930059730255
 20
425.8927786792142
 30
0.0
 10
116.8531327802864
 20
425.856063895071
 30
0.0
 10
116.7612872405518
 20
425.8563999913537
 30
0.0
 10
116.6679523026061
 20
425.891962387873
 30
0.0
 10
116.5923918241209
 20
425.9632707821951
 30
0.0
 10
116.5389777954244
 20
426.0551837624245
 30
0.0
 10
116.5006110967541
 20
426.1549763488978
 30
0.0
 10
116.4820204634497
 20
426.2491548660497
 30
0.0
 10
116.4778669374159
 20
426.3328242197359
 30
0.0
 10
116.4782722324922
 20
426.3809730946882
 30
0.0
 10
116.4784753117887
 20
426.4050988248605
 30
0.0
 11
117.1312192662319
 21
426.3343152299138
 31
0.0
 11
117.1154094246691
 21
426.2349356757528
 31
0.0
 11
117.092000738834
 21
426.1373191334027
 31
0.0
 11
117.0502869706675
 21
426.0365264418383
 31
0.0
 11
116.9869934908157
 21
425.9470008199667
 31
0.0
 11
116.9274137696712
 21
425.8954871558233
 31
0.0
 11
116.8570203527935
 21
425.8636879406911
 31
0.0
 11
116.7630072921364
 21
425.8619944814171
 31
0.0
 11
116.6738344652077
 21
425.8961029992571
 31
0.0
 11
116.5968275381915
 21
425.965845729062
 31
0.0
 11
116.5419165410296
 21
426.0556244431424
 31
0.0
 11
116.503458981694
 21
426.1562339987768
 31
0.0
 11
116.4828565387191
 21
426.2607792790799
 31
0.0
 11
116.4785679464864
 21
426.3327213468464
 31
0.0
 11
116.4784753117887
 21
426.4050988248605
 31
0.0
  0
SPLINE
  5
1D4
330
42
100
AcDbEntity
  8
1
  6
Continuous
 62
     2
100
AcDbSpline
210
0.0
220
0.0
230
1.0
 70
     8
 71
     3
 72
    17
 73
    13
 74
    11
 42
0.0000000001
 43
0.0000000001
 44
0.00000001
 40
0.0
 40
0.0
 40
0.0
 40
0.0
 40
0.1479624758028026
 40
0.2958571514408985
 40
0.4915379553527554
 40
0.6781708749173557
 40
0.8267374416159588
 40
0.9816578439331918
 40
1.109133748266244
 40
1.234736446554047
 40
1.303876103676076
 40
1.373178552272536
 40
1.373178552272536
 40
1.373178552272536
 40
1.373178552272536
 10
118.8563354484199
 20
426.356091817197
 30
0.0
 10
118.8514266244567
 20
426.3069893529722
 30
0.0
 10
118.8416112258782
 20
426.2088069245185
 30
0.0
 10
118.7909108785359
 20
426.0502683661912
 30
0.0
 10
118.6724970141714
 20
425.9124715436208
 30
0.0
 10
118.4987160805218
 20
425.8362564708937
 30
0.0
 10
118.333940783431
 20
425.8855894594749
 30
0.0
 10
118.2211966498457
 20
425.9788444671844
 30
0.0
 10
118.1479266576399
 20
426.0956140731305
 30
0.0
 10
118.1167444500656
 20
426.199574426714
 30
0.0
 10
118.1057702420317
 20
426.2869817041632
 30
0.0
 10
118.1027708237181
 20
426.3330370609758
 30
0.0
 10
118.1012693510814
 20
426.356091817197
 30
0.0
 11
118.8563354484199
 21
426.356091817197
 31
0.0
 11
118.8364313073793
 21
426.2094742213392
 31
0.0
 11
118.7881883746588
 21
426.0696691623298
 31
0.0
 11
118.6600590641097
 21
425.9217710325316
 31
0.0
 11
118.4853357224546
 21
425.8561691991267
 31
0.0
 11
118.3415012556676
 21
425.8933669262711
 31
0.0
 11
118.2209881427696
 21
425.9907164032793
 31
0.0
 11
118.1529074796192
 21
426.0984899134315
 31
0.0
 11
118.1157530043309
 21
426.21847150695
 31
0.0
 11
118.1064640146494
 21
426.2869843295283
 31
0.0
 11
118.1012693510814
 21
426.356091817197
 31
0.0
  0
SPLINE
  5
1D5
330
42
100
AcDbEntity
  8
1
  6
Continuous
 62
     2
100
AcDbSpline
210
0.0
220
0.0
230
1.0
 70
     8
 71
     3
 72
    17
 73
    13
 74
    11
 42
0.0000000001
 43
0.0000000001
 44
0.00000001
 40
0.0
 40
0.0
 40
0.0
 40
0.0
 40
0.1124355680656558
 40
0.2242233720789431
 40
0.4135401667701969
 40
0.6030845072169653
 40
0.7378410366783319
 40
0.8724650030212996
 40
1.037871678851339
 40
1.202609847555743
 40
1.338585256307124
 40
1.476680209402677
 40
1.476680209402677
 40
1.476680209402677
 40
1.476680209402677
 10
120.8696922615268
 20
426.3735204759599
 30
0.0
 10
120.8667740702598
 20
426.3361524005783
 30
0.0
 10
120.860954500016
 20
426.2616315348564
 30
0.0
 10
120.8316485597672
 20
426.1259264144452
 30
0.0
 10
120.7429709967552
 20
425.982893262128
 30
0.0
 10
120.5992682486781
 20
425.8794434553819
 30
0.0
 10
120.446125756684
 20
425.8489161719515
 30
0.0
 10
120.2996702710114
 20
425.8703436241434
 30
0.0
 10
120.1637942142499
 20
425.9532875947152
 30
0.0
 10
120.0658480159214
 20
426.0787703395675
 30
0.0
 10
120.0215505640788
 20
426.2199863530626
 30
0.0
 10
120.0091068266602
 20
426.3104900234403
 30
0.0
 10
120.0028368406479
 20
426.356091817197
 30
0.0
 11
120.8696922615268
 21
426.3735204759599
 31
0.0
 11
120.8584055594451
 21
426.2616528429181
 31
0.0
 11
120.8325829104759
 21
426.1528884005377
 31
0.0
 11
120.7336418214187
 21
425.9914835999637
 31
0.0
 11
120.5779667702027
 21
425.8833524970177
 31
0.0
 11
120.4458694669246
 21
425.8567137151551
 31
0.0
 11
120.3127268319998
 21
425.876629816159
 31
0.0
 11
120.170412509764
 21
425.9609269222523
 31
0.0
 11
120.0696574263947
 21
426.0912614050392
 31
0.0
 11
120.0255117667048
 21
426.2198711733915
 31
0.0
 11
120.0028368406479
 21
426.356091817197
 31
0.0
  0
SPLINE
  5
1D6
330
42
100
AcDbEntity
  8
1
  6
Continuous
 62
     2
100
AcDbSpline
210
0.0
220
0.0
230
1.0
 70
     8
 71
     3
 72
    15
 73
    11
 74
     9
 42
0.0000000001
 43
0.0000000001
 44
0.00000001
 40
0.0
 40
0.0
 40
0.0
 40
0.0
 40
0.2166452639585315
 40
0.4183049870031073
 40
0.5821631410585226
 40
0.7541602470378834
 40
0.9707079677952063
 40
1.176959496391886
 40
1.344849309348711
 40
1.521912864132636
 40
1.521912864132636
 40
1.521912864132636
 40
1.521912864132636
 10
129.148208189808
 20
426.356091817197
 30
0.0
 10
129.1676684119441
 20
426.2866655770928
 30
0.0
 10
129.2052427757635
 20
426.1526153701608
 30
0.0
 10
129.3070069879277
 20
425.9793065382225
 30
0.0
 10
129.4676334993569
 20
425.8876231465392
 30
0.0
 10
129.6521750717035
 20
425.8558925784787
 30
0.0
 10
129.8514715378614
 20
425.8962601873784
 30
0.0
 10
130.0203977856145
 20
426.0143756144647
 30
0.0
 10
130.0985503449709
 20
426.185929060523
 30
0.0
 10
130.1219836054591
 20
426.2983741048233
 30
0.0
 10
130.1340118295329
 20
426.356091817197
 30
0.0
 11
129.148208189808
 21
426.356091817197
 31
0.0
 11
129.2161236976825
 21
426.1503671123465
 31
0.0
 11
129.3274139068404
 21
425.9821971588947
 31
0.0
 11
129.4680184461952
 21
425.8980552658611
 31
0.0
 11
129.6373678689197
 21
425.8679923736491
 31
0.0
 11
129.8494773974281
 21
425.9116096097051
 31
0.0
 11
130.0149734341838
 21
426.0346980123538
 31
0.0
 11
130.0912149134305
 21
426.184278178609
 31
0.0
 11
130.1340118295329
 21
426.356091817197
 31
0.0
  0
SPLINE
  5
1D7
330
42
100
AcDbEntity
  8
1
  6
Continuous
 62
     2
100
AcDbSpline
210
0.0
220
0.0
230
1.0
 70
     8
 71
     3
 72
    15
 73
    11
 74
     9
 42
0.0000000001
 43
0.0000000001
 44
0.00000001
 40
0.0
 40
0.0
 40
0.0
 40
0.0
 40
0.2268062960556345
 40
0.4375851034963432
 40
0.5966922393518587
 40
0.7616434016635902
 40
0.9665497420500036
 40
1.16528025195809
 40
1.331731956840747
 40
1.50548991076998
 40
1.50548991076998
 40
1.50548991076998
 40
1.50548991076998
 10
131.467906747025
 20
426.356091817197
 30
0.0
 10
131.4861118627715
 20
426.2828269943375
 30
0.0
 10
131.5212356119645
 20
426.1414746789424
 30
0.0
 10
131.6241067092195
 20
425.9621053483126
 30
0.0
 10
131.7835272499228
 20
425.8706135393698
 30
0.0
 10
131.9612381336656
 20
425.8410451140462
 30
0.0
 10
132.1501412163823
 20
425.8923597979298
 30
0.0
 10
132.3037775407629
 20
426.0171714423507
 30
0.0
 10
132.3736527235757
 20
426.1872877075037
 30
0.0
 10
132.3926142362919
 20
426.2990239086594
 30
0.0
 10
132.4022985987656
 20
426.356091817197
 30
0.0
 11
131.467906747025
 21
426.356091817197
 31
0.0
 11
131.5333531917135
 21
426.1389332143094
 31
0.0
 11
131.6481095825396
 21
425.962131980064
 31
0.0
 11
131.7847449769712
 21
425.8806098991983
 31
0.0
 11
131.9475405484108
 21
425.8540300597024
 31
0.0
 11
132.1456671400367
 21
425.906303016585
 31
0.0
 11
132.2973528039271
 21
426.0346980123538
 31
0.0
 11
132.3666856612173
 21
426.1860225806113
 31
0.0
 11
132.4022985987656
 21
426.356091817197
 31
0.0
  0
SPLINE
  5
1D8
330
42
100
AcDbEntity
  8
1
  6
Continuous
 62
     2
100
AcDbSpline
210
0.0
220
0.0
230
1.0
 70
     8
 71
     3
 72
    31
 73
    27
 74
    25
 42
0.0000000001
 43
0.0000000001
 44
0.00000001
 40
0.0
 40
0.0
 40
0.0
 40
0.0
 40
0.0335406648521019
 40
0.0670632270714712
 40
0.1034594855921831
 40
0.1399124061869483
 40
0.1774583735250959
 40
0.2147930067144115
 40
0.2409750008518551
 40
0.2678807300242609
 40
0.280992929976551
 40
0.2931048415554181
 40
0.3049433873617793
 40
0.3175268877044
 40
0.3376634668903815
 40
0.3580191160499243
 40
0.3956695233486445
 40
0.432881307942521
 40
0.4740535112082847
 40
0.5153778855949551
 40
0.5601110296303448
 40
0.6047951877256571
 40
0.6360520923575271
 40
0.6673148520811024
 40
0.6851513816307266
 40
0.7029870901108032
 40
0.7029870901108032
 40
0.7029870901108032
 40
0.7029870901108032
 10
140.6441828900362
 20
426.1297547028121
 30
0.0
 10
140.6454416369311
 20
426.118645540669
 30
0.0
 10
140.6479584513477
 20
426.0964332122414
 30
0.0
 10
140.65230720014
 20
426.0622197219064
 30
0.0
 10
140.6577766531174
 20
426.0271795079572
 30
0.0
 10
140.664831137696
 20
425.9910540169112
 30
0.0
 10
140.6736257466279
 20
425.9549791517499
 30
0.0
 10
140.6834259209589
 20
425.9227409112931
 30
0.0
 10
140.6937618674965
 20
425.8943755704635
 30
0.0
 10
140.70517274048
 20
425.8752248131836
 30
0.0
 10
140.7166264121813
 20
425.8621424549334
 30
0.0
 10
140.7278750645531
 20
425.8556183113548
 30
0.0
 10
140.7405646887071
 20
425.857344363185
 30
0.0
 10
140.7538394230865
 20
425.864369967576
 30
0.0
 10
140.7655777389915
 20
425.8783195539587
 30
0.0
 10
140.7758884011299
 20
425.9022947153965
 30
0.0
 10
140.7870398993706
 20
425.9320164861564
 30
0.0
 10
140.7978955393411
 20
425.969182556209
 30
0.0
 10
140.8064232596802
 20
426.0081877196774
 30
0.0
 10
140.8134256733902
 20
426.0500247516168
 30
0.0
 10
140.8194002873706
 20
426.0931987203383
 30
0.0
 10
140.8238342543157
 20
426.1331831902205
 30
0.0
 10
140.8270382158486
 20
426.1687752957155
 30
0.0
 10
140.82898575886
 20
426.1954913044884
 30
0.0
 10
140.8303099009966
 20
426.2177638203777
 30
0.0
 10
140.8309578242715
 20
426.229636905329
 30
0.0
 10
140.8312817784523
 20
426.2355733111631
 30
0.0
 11
140.6441828900362
 21
426.1297547028121
 31
0.0
 11
140.6480346909206
 21
426.0964359419007
 31
0.0
 11
140.6523372474083
 21
426.0631906386923
 31
0.0
 11
140.6580007454238
 21
426.0272377191372
 31
0.0
 11
140.6650322865199
 21
425.9914693972629
 31
0.0
 11
140.6739808932981
 21
425.9550054136615
 31
0.0
 11
140.6848878484142
 21
425.919299487466
 31
0.0
 11
140.694428872457
 21
425.8949178206397
 31
0.0
 11
140.7084067829003
 21
425.8719279036773
 31
0.0
 11
140.7174173055845
 21
425.8624021350182
 31
0.0
 11
140.7282265194668
 21
425.8569377688756
 31
0.0
 11
140.7400223211612
 21
425.85794287046
 31
0.0
 11
140.7512177956448
 21
425.8636879406911
 31
0.0
 11
140.7646359066753
 21
425.8787024709097
 31
0.0
 11
140.7735004729478
 21
425.8970265511733
 31
0.0
 11
140.7866451433133
 21
425.9323078608251
 31
0.0
 11
140.7971307571191
 21
425.9680117655944
 31
0.0
 11
140.8060795416879
 21
426.0081996938378
 31
0.0
 11
140.8130527281722
 21
426.0489314822678
 31
0.0
 11
140.8192021332318
 21
426.0932399351036
 31
0.0
 11
140.8241473378114
 21
426.1376496067569
 31
0.0
 11
140.8269497443392
 21
426.1687806299463
 31
0.0
 11
140.8292225042571
 21
426.1999606669554
 31
0.0
 11
140.8302954758087
 21
426.217764894499
 31
0.0
 11
140.8312817784523
 21
426.2355733111631
 31
0.0
  0
SPLINE
  5
1D9
330
42
100
AcDbEntity
  8
1
  6
Continuous
 62
     2
100
AcDbSpline
210
0.0
220
0.0
230
1.0
 70
     8
 71
     3
 72
    29
 73
    25
 74
    23
 42
0.0000000001
 43
0.0000000001
 44
0.00000001
 40
0.0
 40
0.0
 40
0.0
 40
0.0
 40
0.0319888617820325
 40
0.0640416823858016
 40
0.1253722282249169
 40
0.1862532549378976
 40
0.2244756361380146
 40
0.263687229515011
 40
0.3188048395755925
 40
0.370700975092185
 40
0.3864546921401793
 40
0.4021975916845541
 40
0.4263426987896377
 40
0.4509919171338324
 40
0.4973701195426678
 40
0.5437933574589868
 40
0.6143187691744434
 40
0.6847041707331274
 40
0.7470287847528253
 40
0.8093789723585035
 40
0.8714784627672578
 40
0.9335287656851978
 40
1.015171069530354
 40
1.096918169075299
 40
1.096918169075299
 40
1.096918169075299
 40
1.096918169075299
 10
139.9401471402127
 20
426.1850817455343
 30
0.0
 10
139.9416667227012
 20
426.174527528945
 30
0.0
 10
139.9447089259452
 20
426.1533979935692
 30
0.0
 10
139.9514065781034
 20
426.112143655282
 30
0.0
 10
139.9622540660617
 20
426.0618296647207
 30
0.0
 10
139.9775682936533
 20
426.0105266142539
 30
0.0
 10
139.9940753546198
 20
425.9674298434338
 30
0.0
 10
140.0135886075213
 20
425.9277286838556
 30
0.0
 10
140.0394501278059
 20
425.8862483322956
 30
0.0
 10
140.0743168419206
 20
425.8603742726482
 30
0.0
 10
140.1019923930892
 20
425.8558529721246
 30
0.0
 10
140.1207010218549
 20
425.8568664547601
 30
0.0
 10
140.1410091601119
 20
425.8653354248908
 30
0.0
 10
140.1661319611638
 20
425.8849861229572
 30
0.0
 10
140.190903696556
 20
425.9159277846292
 30
0.0
 10
140.2155967540793
 20
425.9646056736558
 30
0.0
 10
140.2375475121362
 20
426.0232165622564
 30
0.0
 10
140.2544412556621
 20
426.0889166332723
 30
0.0
 10
140.2662170203606
 20
426.152895534355
 30
0.0
 10
140.2741128621404
 20
426.2146765461084
 30
0.0
 10
140.2792782017848
 20
426.2766480349515
 30
0.0
 10
140.2815247165413
 20
426.3452467319748
 30
0.0
 10
140.2790009646824
 20
426.4203988588362
 30
0.0
 10
140.2751282249729
 20
426.4747235984038
 30
0.0
 10
140.2731906131573
 20
426.5019033897553
 30
0.0
 11
139.9401471402127
 21
426.1850817455343
 31
0.0
 11
139.9448004585445
 21
426.1534331451449
 31
0.0
 11
139.9500283787004
 21
426.1218095438398
 31
0.0
 11
139.9630593593352
 21
426.0618793394632
 31
0.0
 11
139.9806246293177
 21
426.003587309956
 31
0.0
 11
139.9944830954203
 21
425.9679657807652
 31
0.0
 11
140.011730303201
 21
425.9327509702598
 31
0.0
 11
140.0430615690295
 21
425.8874044960818
 31
0.0
 11
140.0864870185043
 21
425.8589890210819
 31
0.0
 11
140.1020303681543
 21
425.8564231133506
 31
0.0
 11
140.1177419518783
 21
425.8574155965741
 31
0.0
 11
140.1402447497738
 21
425.8661683266618
 31
0.0
 11
140.15994225565
 21
425.8809869712435
 31
0.0
 11
140.189509927424
 21
425.9167177765037
 31
0.0
 11
140.2113259966675
 21
425.9576955282892
 31
0.0
 11
140.2363620152277
 21
426.0236275498894
 31
0.0
 11
140.2542618828573
 21
426.0916988323176
 31
0.0
 11
140.265651706454
 21
426.1529738633755
 31
0.0
 11
140.2736680560325
 21
426.2148065734398
 31
0.0
 11
140.2787583502351
 21
426.2766970865574
 31
0.0
 11
140.2807183720628
 21
426.3387164255303
 31
0.0
 11
140.2784918859098
 21
426.4203283642192
 31
0.0
 11
140.2731906131573
 21
426.5019033897553
 31
0.0
  0
SPLINE
  5
1DA
330
42
100
AcDbEntity
  8
1
  6
Continuous
 62
     2
100
AcDbSpline
210
0.0
220
0.0
230
1.0
 70
     8
 71
     3
 72
    21
 73
    17
 74
    15
 42
0.0000000001
 43
0.0000000001
 44
0.00000001
 40
0.0
 40
0.0
 40
0.0
 40
0.0
 40
0.0697852492278078
 40
0.1393299938046847
 40
0.2454207664846015
 40
0.3538878261166254
 40
0.4356350551338318
 40
0.5116501758991393
 40
0.5762260057662797
 40
0.6439656769721122
 40
0.7163359331646831
 40
0.7883678493931776
 40
0.8617613222487089
 40
0.9347754253481445
 40
1.07252084509014
 40
1.211674418442583
 40
1.211674418442583
 40
1.211674418442583
 40
1.211674418442583
 10
138.8477715953065
 20
426.2749785039194
 30
0.0
 10
138.8508237956731
 20
426.2519148514845
 30
0.0
 10
138.8569176774443
 20
426.2058670321178
 30
0.0
 10
138.8710857351776
 20
426.1252871355428
 30
0.0
 10
138.8973494263976
 20
426.0337315130647
 30
0.0
 10
138.9472339458961
 20
425.9470035344481
 30
0.0
 10
139.0089125492173
 20
425.882448170194
 30
0.0
 10
139.080067937352
 20
425.8493310536372
 30
0.0
 10
139.1509981694515
 20
425.8648323193158
 30
0.0
 10
139.2093677797618
 20
425.9017645508952
 30
0.0
 10
139.25544356116
 20
425.9568154438859
 30
0.0
 10
139.2879708209133
 20
426.0220101061267
 30
0.0
 10
139.3140809882201
 20
426.0900664037622
 30
0.0
 10
139.3384684433114
 20
426.181826308603
 30
0.0
 10
139.3496246634523
 20
426.2985383280142
 30
0.0
 10
139.3486421360786
 20
426.3908233154331
 30
0.0
 10
139.3481483740991
 20
426.4372004640916
 30
0.0
 11
138.8477715953065
 21
426.2749785039194
 31
0.0
 11
138.8574172783997
 21
426.2058630801165
 31
0.0
 11
138.8699318842708
 21
426.1374536060785
 31
0.0
 11
138.9011118767155
 21
426.0360481815739
 31
0.0
 11
138.9556487895605
 21
425.9422887651798
 31
0.0
 11
139.0139832475596
 21
425.8850200960671
 31
0.0
 11
139.0845688536917
 21
425.8568071417388
 31
0.0
 11
139.1481780681299
 21
425.8679384328401
 31
0.0
 11
139.2058211220283
 21
425.9035185029966
 31
0.0
 11
139.2530562902504
 21
425.9583481743836
 31
0.0
 11
139.2867036358295
 21
426.022038464782
 31
0.0
 11
139.3128862531726
 21
426.0906028316708
 31
0.0
 11
139.3315484295505
 21
426.1611916581538
 31
0.0
 11
139.3471519375522
 21
426.2980504583749
 31
0.0
 11
139.3481483740991
 21
426.4372004640916
 31
0.0
  0
SPLINE
  5
1DB
330
42
100
AcDbEntity
  8
1
  6
Continuous
 62
     2
100
AcDbSpline
210
0.0
220
0.0
230
1.0
 70
     8
 71
     3
 72
    21
 73
    17
 74
    15
 42
0.0000000001
 43
0.0000000001
 44
0.00000001
 40
0.0
 40
0.0
 40
0.0
 40
0.0
 40
0.1006292545708751
 40
0.2010132966936545
 40
0.3100967744867741
 40
0.4197366466284453
 40
0.4984983172883328
 40
0.5757409429735612
 40
0.6697692545526573
 40
0.7652427275788766
 40
0.8691374587692533
 40
0.97437735192394
 40
1.08208652774016
 40
1.188642505001781
 40
1.260712284645301
 40
1.333089821940121
 40
1.333089821940121
 40
1.333089821940121
 40
1.333089821940121
 10
137.400874948704
 20
426.3343152299138
 30
0.0
 10
137.4057132011337
 20
426.3011203263216
 30
0.0
 10
137.4153779161838
 20
426.2348114081746
 30
0.0
 10
137.4382594408024
 20
426.1337816351553
 30
0.0
 10
137.4782293716106
 20
426.0344807751986
 30
0.0
 10
137.5354364969879
 20
425.9521477317611
 30
0.0
 10
137.602034484681
 20
425.8927786792141
 30
0.0
 10
137.6789614346497
 20
425.856063895071
 30
0.0
 10
137.7708069743841
 20
425.8563999913537
 30
0.0
 10
137.8641419123299
 20
425.891962387873
 30
0.0
 10
137.9397023908149
 20
425.9632707821953
 30
0.0
 10
137.9931164195113
 20
426.0551837624248
 30
0.0
 10
138.0314831181816
 20
426.1549763488977
 30
0.0
 10
138.0500737514859
 20
426.2491548660498
 30
0.0
 10
138.0542272775199
 20
426.3328242197359
 30
0.0
 10
138.0538219824436
 20
426.3809730946882
 30
0.0
 10
138.0536189031471
 20
426.4050988248605
 30
0.0
 11
137.400874948704
 21
426.3343152299138
 31
0.0
 11
137.4166847902669
 21
426.2349356757528
 31
0.0
 11
137.440093476102
 21
426.1373191334027
 31
0.0
 11
137.4818072442685
 21
426.0365264418383
 31
0.0
 11
137.5451007241203
 21
425.9470008199667
 31
0.0
 11
137.6046804452648
 21
425.8954871558233
 31
0.0
 11
137.6750738621425
 21
425.8636879406911
 31
0.0
 11
137.7690869227995
 21
425.8619944814171
 31
0.0
 11
137.8582597497282
 21
425.8961029992571
 31
0.0
 11
137.9352666767443
 21
425.9658457290621
 31
0.0
 11
137.9901776739061
 21
426.0556244431424
 31
0.0
 11
138.0286352332417
 21
426.1562339987768
 31
0.0
 11
138.0492376762166
 21
426.2607792790799
 31
0.0
 11
138.0535262684495
 21
426.3327213468464
 31
0.0
 11
138.0536189031471
 21
426.4050988248605
 31
0.0
  0
SPLINE
  5
1DC
330
42
100
AcDbEntity
  8
1
  6
Continuous
 62
     2
100
AcDbSpline
210
0.0
220
0.0
230
1.0
 70
     8
 71
     3
 72
    17
 73
    13
 74
    11
 42
0.0000000001
 43
0.0000000001
 44
0.00000001
 40
0.0
 40
0.0
 40
0.0
 40
0.0
 40
0.1479624758028026
 40
0.295857151440866
 40
0.4915379553527229
 40
0.67817087491731
 40
0.826737441615913
 40
0.9816578439330796
 40
1.109133748266116
 40
1.234736446553928
 40
1.303876103675972
 40
1.373178552272438
 40
1.373178552272438
 40
1.373178552272438
 40
1.373178552272438
 10
135.6757587665161
 20
426.356091817197
 30
0.0
 10
135.6806675904793
 20
426.3069893529721
 30
0.0
 10
135.6904829890578
 20
426.2088069245185
 30
0.0
 10
135.7411833364
 20
426.050268366191
 30
0.0
 10
135.8595972007645
 20
425.9124715436208
 30
0.0
 10
136.0333781344141
 20
425.8362564708938
 30
0.0
 10
136.198153431505
 20
425.8855894594748
 30
0.0
 10
136.3108975650902
 20
425.9788444671846
 30
0.0
 10
136.3841675572958
 20
426.0956140731304
 30
0.0
 10
136.4153497648701
 20
426.199574426714
 30
0.0
 10
136.4263239729042
 20
426.2869817041633
 30
0.0
 10
136.4293233912179
 20
426.3330370609758
 30
0.0
 10
136.4308248638546
 20
426.356091817197
 30
0.0
 11
135.6757587665161
 21
426.356091817197
 31
0.0
 11
135.6956629075567
 21
426.2094742213392
 31
0.0
 11
135.7439058402771
 21
426.0696691623298
 31
0.0
 11
135.8720351508262
 21
425.9217710325316
 31
0.0
 11
136.0467584924813
 21
425.8561691991267
 31
0.0
 11
136.1905929592683
 21
425.8933669262711
 31
0.0
 11
136.3111060721662
 21
425.9907164032793
 31
0.0
 11
136.3791867353166
 21
426.0984899134315
 31
0.0
 11
136.4163412106049
 21
426.21847150695
 31
0.0
 11
136.4256302002865
 21
426.2869843295283
 31
0.0
 11
136.4308248638546
 21
426.356091817197
 31
0.0
  0
SPLINE
  5
1DD
330
42
100
AcDbEntity
  8
1
  6
Continuous
 62
     2
100
AcDbSpline
210
0.0
220
0.0
230
1.0
 70
     8
 71
     3
 72
    17
 73
    13
 74
    11
 42
0.0000000001
 43
0.0000000001
 44
0.00000001
 40
0.0
 40
0.0
 40
0.0
 40
0.0
 40
0.1124355680656615
 40
0.2242233720789389
 40
0.4135401667701889
 40
0.6030845072170014
 40
0.7378410366784097
 40
0.8724650030213352
 40
1.037871678851228
 40
1.202609847555615
 40
1.338585256307028
 40
1.476680209402597
 40
1.476680209402597
 40
1.476680209402597
 40
1.476680209402597
 10
133.6624019534091
 20
426.3735204759599
 30
0.0
 10
133.6653201446761
 20
426.3361524005783
 30
0.0
 10
133.67113971492
 20
426.2616315348565
 30
0.0
 10
133.7004456551687
 20
426.1259264144452
 30
0.0
 10
133.7891232181808
 20
425.9828932621281
 30
0.0
 10
133.932825966258
 20
425.8794434553817
 30
0.0
 10
134.085968458252
 20
425.8489161719517
 30
0.0
 10
134.2324239439246
 20
425.8703436241432
 30
0.0
 10
134.3683000006859
 20
425.9532875947153
 30
0.0
 10
134.4662461990144
 20
426.0787703395675
 30
0.0
 10
134.5105436508571
 20
426.2199863530626
 30
0.0
 10
134.5229873882758
 20
426.3104900234402
 30
0.0
 10
134.5292573742881
 20
426.356091817197
 30
0.0
 11
133.6624019534091
 21
426.3735204759599
 31
0.0
 11
133.6736886554909
 21
426.2616528429181
 31
0.0
 11
133.69951130446
 21
426.1528884005377
 31
0.0
 11
133.7984523935173
 21
425.9914835999637
 31
0.0
 11
133.9541274447333
 21
425.8833524970177
 31
0.0
 11
134.0862247480115
 21
425.8567137151551
 31
0.0
 11
134.2193673829362
 21
425.876629816159
 31
0.0
 11
134.3616817051719
 21
425.9609269222523
 31
0.0
 11
134.4624367885411
 21
426.0912614050392
 31
0.0
 11
134.5065824482311
 21
426.2198711733915
 31
0.0
 11
134.5292573742881
 21
426.356091817197
 31
0.0
  0
ARC
  5
1DE
330
42
100
AcDbEntity
  8
1
  6
Continuous
 62
     7
100
AcDbCircle
 10
136.147159748993
 20
433.856091817197
 30
0.0
 40
1.999999999999999
100
AcDbArc
 50
55.982666817716
 51
90.0
  0
ARC
  5
1DF
330
42
100
AcDbEntity
  8
1
  6
Continuous
 62
     7
100
AcDbCircle
 10
136.147159748993
 20
433.856091817197
 30
0.0
 40
1.999999999999746
100
AcDbArc
 50
30.18616925233661
 51
55.982666817716
  0
ARC
  5
1E0
330
42
100
AcDbEntity
  8
1
  6
Continuous
 62
     7
100
AcDbCircle
 10
118.3849344659429
 20
433.856091817197
 30
0.0
 40
2.0
100
AcDbArc
 50
90.0
 51
124.0173331822817
  0
ARC
  5
1E1
330
42
100
AcDbEntity
  8
1
  6
Continuous
 62
     7
100
AcDbCircle
 10
118.3849344659429
 20
433.856091817197
 30
0.0
 40
1.999999999999944
100
AcDbArc
 50
124.0173331822817
 51
149.8138307476667
  0
ARC
  5
1E2
330
42
100
AcDbEntity
  8
1
  6
Continuous
 62
     7
100
AcDbCircle
 10
245.5
 20
170.1188873584752
 30
0.0
 40
2.000000000000111
100
AcDbArc
 50
-34.01733318228872
 51
0.0
  0
ARC
  5
1E3
330
42
100
AcDbEntity
  8
1
  6
Continuous
 62
     7
100
AcDbCircle
 10
245.5
 20
170.1188873584752
 30
0.0
 40
2.000000000000016
100
AcDbArc
 50
-59.8138307476679
 51
-34.01733318228872
  0
ARC
  5
1E4
330
42
100
AcDbEntity
  8
1
  6
Continuous
 62
     7
100
AcDbCircle
 10
245.5
 20
187.8811126415251
 30
0.0
 40
2.0
100
AcDbArc
 50
-0.00000000000326
 51
34.0173331822813
  0
ARC
  5
1E5
330
42
100
AcDbEntity
  8
1
  6
Continuous
 62
     7
100
AcDbCircle
 10
245.5
 20
187.8811126415251
 30
0.0
 40
1.999999999999936
100
AcDbArc
 50
34.0173331822813
 51
59.81383074766504
  0
ENDBLK
  5
44
330
42
100
AcDbEntity
  8
0
100
AcDbBlockEnd
  0
BLOCK
  5
46
330
45
100
AcDbEntity
  8
0
100
AcDbBlockBegin
  2
30-18A
 70
     0
 71
     0
 10
346.181940491869
 20
338.7503168157755
 30
0.0
  3
30-18A
  1

  0
LINE
  5
1E6
330
45
100
AcDbEntity
  8
0
  6
Continuous
 62
     7
100
AcDbLine
 10
184.5
 20
166.0000000000001
 30
0.0
 11
207.5
 21
166.0000000000001
 31
0.0
  0
LINE
  5
1E7
330
45
100
AcDbEntity
  8
0
  6
Continuous
 62
     7
100
AcDbLine
 10
115.766047107468
 20
166.0000000000001
 30
0.0
 11
138.766047107468
 21
166.0000000000001
 31
0.0
  0
LINE
  5
1E8
330
45
100
AcDbEntity
  8
1
  6
Continuous
 62
     7
100
AcDbLine
 10
138.766047107468
 20
172.5000000000001
 30
0.0
 11
115.766047107468
 21
172.5000000000001
 31
0.0
  0
LINE
  5
1E9
330
45
100
AcDbEntity
  8
1
  6
Continuous
 62
     7
100
AcDbLine
 10
116.5203485202224
 20
162.5000000000001
 30
0.0
 11
138.0117456947137
 21
162.5000000000001
 31
0.0
  0
LINE
  5
1EA
330
45
100
AcDbEntity
  8
1
  6
Continuous
 62
     7
100
AcDbLine
 10
114.766047107468
 20
171.5000000000001
 30
0.0
 11
114.766047107468
 21
166.0000000000001
 31
0.0
  0
LINE
  5
1EB
330
45
100
AcDbEntity
  8
1
  6
Continuous
 62
     7
100
AcDbLine
 10
115.5588245725818
 20
163.2252788721027
 30
0.0
 11
114.766047107468
 21
166.0000000000001
 31
0.0
  0
LINE
  5
1EC
330
45
100
AcDbEntity
  8
1
  6
Continuous
 62
     7
100
AcDbLine
 10
139.766047107468
 20
166.0000000000001
 30
0.0
 11
138.9732696423546
 21
163.2252788721027
 31
0.0
  0
LINE
  5
1ED
330
45
100
AcDbEntity
  8
1
  6
Continuous
 62
     7
100
AcDbLine
 10
139.766047107468
 20
166.0000000000001
 30
0.0
 11
139.766047107468
 21
171.5000000000001
 31
0.0
  0
LINE
  5
1EE
330
45
100
AcDbEntity
  8
1
  6
Continuous
 62
     7
100
AcDbLine
 10
185.2543014127543
 20
162.5
 30
0.0
 11
206.7456985872457
 21
162.5
 31
0.0
  0
LINE
  5
1EF
330
45
100
AcDbEntity
  8
1
  6
Continuous
 62
     7
100
AcDbLine
 10
183.5
 20
171.5
 30
0.0
 11
183.5
 21
166.0
 31
0.0
  0
LINE
  5
1F0
330
45
100
AcDbEntity
  8
1
  6
Continuous
 62
     7
100
AcDbLine
 10
184.2927774651137
 20
163.2252788721027
 30
0.0
 11
183.5
 21
166.0
 31
0.0
  0
LINE
  5
1F1
330
45
100
AcDbEntity
  8
1
  6
Continuous
 62
     7
100
AcDbLine
 10
208.5
 20
166.0
 30
0.0
 11
207.7072225348866
 21
163.2252788721027
 31
0.0
  0
LINE
  5
1F2
330
45
100
AcDbEntity
  8
1
  6
Continuous
 62
     7
100
AcDbLine
 10
208.5
 20
166.0
 30
0.0
 11
208.5
 21
171.5
 31
0.0
  0
ARC
  5
1F3
330
45
100
AcDbEntity
  8
1
  6
Continuous
 62
     7
100
AcDbCircle
 10
115.766047107468
 20
171.5000000000001
 30
0.0
 40
1.0
100
AcDbArc
 50
90.0
 51
180.0
  0
ARC
  5
1F4
330
45
100
AcDbEntity
  8
1
  6
Continuous
 62
     7
100
AcDbCircle
 10
116.5203485202224
 20
163.5000000000001
 30
0.0
 40
0.9999999999997938
100
AcDbArc
 50
-164.054604099072
 51
-138.9643661455327
  0
ARC
  5
1F5
330
45
100
AcDbEntity
  8
1
  6
Continuous
 62
     7
100
AcDbCircle
 10
116.5203485202224
 20
163.5000000000001
 30
0.0
 40
1.000000000000074
100
AcDbArc
 50
-138.9643661455327
 51
-90.0
  0
ARC
  5
1F6
330
45
100
AcDbEntity
  8
1
  6
Continuous
 62
     7
100
AcDbCircle
 10
138.0117456947137
 20
163.5000000000001
 30
0.0
 40
1.0
100
AcDbArc
 50
-90.0
 51
-41.03563385447105
  0
ARC
  5
1F7
330
45
100
AcDbEntity
  8
1
  6
Continuous
 62
     7
100
AcDbCircle
 10
138.0117456947137
 20
163.5000000000001
 30
0.0
 40
0.9999999999999992
100
AcDbArc
 50
-41.03563385447105
 51
-15.9453959009233
  0
ARC
  5
1F8
330
45
100
AcDbEntity
  8
1
  6
Continuous
 62
     7
100
AcDbCircle
 10
138.766047107468
 20
171.5000000000001
 30
0.0
 40
1.0
100
AcDbArc
 50
0.0
 51
90.0
  0
ARC
  5
1F9
330
45
100
AcDbEntity
  8
1
  6
Continuous
 62
     7
100
AcDbCircle
 10
184.5
 20
171.5
 30
0.0
 40
1.0
100
AcDbArc
 50
90.0
 51
180.0
  0
ARC
  5
1FA
330
45
100
AcDbEntity
  8
1
  6
Continuous
 62
     7
100
AcDbCircle
 10
185.2543014127543
 20
163.5
 30
0.0
 40
0.9999999999997763
100
AcDbArc
 50
-164.0546040990785
 51
-90.0
  0
ARC
  5
1FB
330
45
100
AcDbEntity
  8
1
  6
Continuous
 62
     7
100
AcDbCircle
 10
206.7456985872457
 20
163.5
 30
0.0
 40
1.0
100
AcDbArc
 50
-90.0
 51
-15.94539590091704
  0
ARC
  5
1FC
330
45
100
AcDbEntity
  8
1
  6
Continuous
 62
     7
100
AcDbCircle
 10
207.5
 20
171.5
 30
0.0
 40
1.0
100
AcDbArc
 50
0.0
 51
90.0
  0
ENDBLK
  5
47
330
45
100
AcDbEntity
  8
0
100
AcDbBlockEnd
  0
BLOCK
  5
49
330
48
100
AcDbEntity
  8
0
100
AcDbBlockBegin
  2
62-6A
 70
     0
 71
     0
 10
309.6639670844033
 20
189.4652474290864
 30
0.0
  3
62-6A
  1

  0
LINE
  5
1FD
330
48
100
AcDbEntity
  8
1
  6
Continuous
 62
     7
100
AcDbLine
 10
135.266047107468
 20
211.5
 30
0.0
 11
135.266047107468
 21
190.4891252930763
 31
0.0
  0
LINE
  5
1FE
330
48
100
AcDbEntity
  8
1
  6
Continuous
 62
     7
100
AcDbLine
 10
119.266047107468
 20
190.4891252930763
 30
0.0
 11
119.266047107468
 21
211.5
 31
0.0
  0
LINE
  5
1FF
330
48
100
AcDbEntity
  8
1
  6
Continuous
 62
     7
100
AcDbLine
 10
358.0
 20
206.0
 30
0.0
 11
358.0
 21
211.5
 31
0.0
  0
LINE
  5
200
330
48
100
AcDbEntity
  8
1
  6
Continuous
 62
     7
100
AcDbLine
 10
247.5
 20
171.0
 30
0.0
 11
339.0000000000002
 21
171.0
 31
0.0
  0
LINE
  5
201
330
48
100
AcDbEntity
  8
1
  6
Continuous
 62
     7
100
AcDbLine
 10
374.0000000000002
 20
211.5
 30
0.0
 11
374.0
 21
206.0
 31
0.0
  0
LINE
  5
202
330
48
100
AcDbEntity
  8
1
  6
Continuous
 62
     7
100
AcDbLine
 10
247.5
 20
187.0
 30
0.0
 11
339.0000000000002
 21
187.0
 31
0.0
  0
LINE
  5
203
330
48
100
AcDbEntity
  8
1
  6
Continuous
 62
     7
100
AcDbLine
 10
119.266047107468
 20
435.856091817197
 30
0.0
 11
119.266047107468
 21
542.8090864334045
 31
0.0
  0
LINE
  5
204
330
48
100
AcDbEntity
  8
1
  6
Continuous
 62
     7
100
AcDbLine
 10
135.266047107468
 20
435.856091817197
 30
0.0
 11
135.266047107468
 21
542.8090864334045
 31
0.0
  0
ARC
  5
205
330
48
100
AcDbEntity
  8
1
  6
Continuous
 62
     7
100
AcDbCircle
 10
339.0000000000002
 20
206.0
 30
0.0
 40
19.0
100
AcDbArc
 50
-90.0
 51
0.0
  0
ARC
  5
206
330
48
100
AcDbEntity
  8
1
  6
Continuous
 62
     7
100
AcDbCircle
 10
339.0000000000002
 20
206.0
 30
0.0
 40
35.0
100
AcDbArc
 50
-90.0
 51
0.0
  0
ENDBLK
  5
4A
330
48
100
AcDbEntity
  8
0
100
AcDbBlockEnd
  0
BLOCK
  5
4E
330
4B
100
AcDbEntity
  8
0
100
AcDbBlockBegin
  2
80-29
 70
     0
 71
     0
 10
165.0674616816241
 20
220.7917400941898
 30
0.0
  3
80-29
  1

  0
INSERT
  5
4C
330
4B
100
AcDbEntity
  8
1
100
AcDbBlockReference
  2
30-18A
 10
346.181940491869
 20
338.7503168157755
 30
0.0
  0
INSERT
  5
4D
330
4B
100
AcDbEntity
  8
0
100
AcDbBlockReference
  2
62-6A
 10
309.6639670844033
 20
189.4652474290864
 30
0.0
  0
LINE
  5
207
330
4B
100
AcDbEntity
  8
1
  6
Continuous
 62
     7
100
AcDbLine
 10
113.9233278251409
 20
179.5
 30
0.0
 11
113.9233278251409
 21
175.0
 31
0.0
  0
LINE
  5
208
330
4B
100
AcDbEntity
  8
1
  6
Continuous
 62
     7
100
AcDbLine
 10
139.1087663897953
 20
181.0
 30
0.0
 11
115.4233278251409
 21
181.0
 31
0.0
  0
LINE
  5
209
330
4B
100
AcDbEntity
  8
1
  6
Continuous
 62
     7
100
AcDbLine
 10
140.6087663897953
 20
175.0
 30
0.0
 11
140.6087663897953
 21
179.5
 31
0.0
  0
LINE
  5
20A
330
4B
100
AcDbEntity
  8
1
  6
Continuous
 62
     7
100
AcDbLine
 10
139.1087663897953
 20
173.5
 30
0.0
 11
115.423327825141
 21
173.5
 31
0.0
  0
LINE
  5
20B
330
4B
100
AcDbEntity
  8
1
  6
Continuous
 62
     7
100
AcDbLine
 10
185.677
 20
172.5
 30
0.0
 11
208.5
 21
172.5
 31
0.0
  0
LINE
  5
20C
330
4B
100
AcDbEntity
  8
1
  6
Continuous
 62
     7
100
AcDbLine
 10
224.5
 20
193.0
 30
0.0
 11
224.5
 21
165.0
 31
0.0
  0
LINE
  5
20D
330
4B
100
AcDbEntity
  8
1
  6
Continuous
 62
     7
100
AcDbLine
 10
224.5
 20
192.5
 30
0.0
 11
224.5
 21
191.5
 31
0.0
  0
LINE
  5
20E
330
4B
100
AcDbEntity
  8
1
  6
Continuous
 62
     7
100
AcDbLine
 10
221.8489733260909
 20
193.0
 30
0.0
 11
224.5
 21
193.0
 31
0.0
  0
LINE
  5
20F
330
4B
100
AcDbEntity
  8
1
  6
Continuous
 62
     7
100
AcDbLine
 10
224.5
 20
165.0
 30
0.0
 11
221.8652306326201
 21
165.0
 31
0.0
  0
LINE
  5
210
330
4B
100
AcDbEntity
  8
1
  6
Continuous
 62
     7
100
AcDbLine
 10
221.8489733260909
 20
193.0
 30
0.0
 11
182.1730879325489
 21
181.6231229375066
 31
0.0
  0
LINE
  5
211
330
4B
100
AcDbEntity
  8
1
  6
Continuous
 62
     7
100
AcDbLine
 10
180.0
 20
175.0
 30
0.0
 11
180.0
 21
178.7393378496917
 31
0.0
  0
LINE
  5
212
330
4B
100
AcDbEntity
  8
1
  6
Continuous
 62
     7
100
AcDbLine
 10
214.366337059813
 20
171.7139380484327
 30
0.0
 11
218.8010528601441
 21
166.4288495612539
 31
0.0
  0
LINE
  5
213
330
4B
100
AcDbEntity
  8
1
  6
Continuous
 62
     7
100
AcDbLine
 10
209.5
 20
173.5
 30
0.0
 11
181.5
 21
173.5
 31
0.0
  0
LINE
  5
214
330
4B
100
AcDbEntity
  8
1
  6
Continuous
 62
     7
100
AcDbLine
 10
209.5
 20
173.5
 30
0.0
 11
210.5361148442181
 21
173.5
 31
0.0
  0
LINE
  5
215
330
4B
100
AcDbEntity
  8
1
  6
Continuous
 62
     7
100
AcDbLine
 10
185.677
 20
172.5
 30
0.0
 11
183.5
 21
172.5
 31
0.0
  0
LINE
  5
216
330
4B
100
AcDbEntity
  8
1
  6
Continuous
 62
     7
100
AcDbLine
 10
114.7036476727512
 20
380.6260097243662
 30
0.0
 11
114.7036476727512
 21
376.01086414205
 31
0.0
  0
LINE
  5
217
330
4B
100
AcDbEntity
  8
1
  6
Continuous
 62
     7
100
AcDbLine
 10
113.266047107468
 20
412.856091817197
 30
0.0
 11
113.2660471074679
 21
376.856091817197
 31
0.0
  0
LINE
  5
218
330
4B
100
AcDbEntity
  8
1
  6
Continuous
 62
     7
100
AcDbLine
 10
132.7660471074679
 20
368.356091817197
 30
0.0
 11
121.7660471074679
 21
368.356091817197
 31
0.0
  0
LINE
  5
219
330
4B
100
AcDbEntity
  8
1
  6
Continuous
 62
     7
100
AcDbLine
 10
134.8284465421847
 20
371.01086414205
 30
0.0
 11
119.7036476727512
 21
371.01086414205
 31
0.0
  0
LINE
  5
21A
330
4B
100
AcDbEntity
  8
1
  6
Continuous
 62
     7
100
AcDbLine
 10
139.8284465421847
 20
376.01086414205
 30
0.0
 11
139.8284465421847
 21
380.6260097243662
 31
0.0
  0
LINE
  5
21B
330
4B
100
AcDbEntity
  8
1
  6
Continuous
 62
     7
100
AcDbLine
 10
141.2660471074679
 20
376.856091817197
 30
0.0
 11
141.266047107468
 21
412.856091817197
 31
0.0
  0
ARC
  5
21C
330
4B
100
AcDbEntity
  8
0
  6
Continuous
 62
     7
100
AcDbCircle
 10
113.8081446114751
 20
173.0918115432976
 30
0.0
 40
0.9999999999999923
100
AcDbArc
 50
11.77648118230615
 51
49.75380549941339
  0
ARC
  5
21D
330
4B
100
AcDbEntity
  8
0
  6
Continuous
 62
     7
100
AcDbCircle
 10
115.766047107468
 20
173.5000000000001
 30
0.0
 40
1.000000000000105
100
AcDbArc
 50
-168.2235188176869
 51
-90.0
  0
ARC
  5
21E
330
4B
100
AcDbEntity
  8
0
  6
Continuous
 62
     7
100
AcDbCircle
 10
138.766047107468
 20
173.5000000000001
 30
0.0
 40
1.0
100
AcDbArc
 50
-90.0
 51
-11.77648118231312
  0
ARC
  5
21F
330
4B
100
AcDbEntity
  8
1
  6
Continuous
 62
     7
100
AcDbCircle
 10
139.1087663897953
 20
175.0
 30
0.0
 40
1.5
100
AcDbArc
 50
-90.0
 51
-49.75380549941783
  0
ARC
  5
220
330
4B
100
AcDbEntity
  8
0
  6
Continuous
 62
     7
100
AcDbCircle
 10
140.7239496034609
 20
173.0918115432976
 30
0.0
 40
1.000000000000089
100
AcDbArc
 50
130.246194500591
 51
168.2235188176938
  0
ARC
  5
221
330
4B
100
AcDbEntity
  8
1
  6
Continuous
 62
     7
100
AcDbCircle
 10
127.266047107468
 20
179.0000000000001
 30
0.0
 40
13.99999999999996
100
AcDbArc
 50
-29.13190267008983
 51
-150.8680973299101
  0
ARC
  5
222
330
4B
100
AcDbEntity
  8
1
  6
Continuous
 62
     7
100
AcDbCircle
 10
115.4233278251409
 20
179.5
 30
0.0
 40
1.5
100
AcDbArc
 50
90.0
 51
180.0
  0
ARC
  5
223
330
4B
100
AcDbEntity
  8
1
  6
Continuous
 62
     7
100
AcDbCircle
 10
139.1087663897953
 20
179.5
 30
0.0
 40
1.5
100
AcDbArc
 50
0.0
 51
90.0
  0
ARC
  5
224
330
4B
100
AcDbEntity
  8
1
  6
Continuous
 62
     7
100
AcDbCircle
 10
139.1087663897953
 20
175.0
 30
0.0
 40
1.49999999999979
100
AcDbArc
 50
-49.75380549941783
 51
0.0
  0
ARC
  5
225
330
4B
100
AcDbEntity
  8
1
  6
Continuous
 62
     7
100
AcDbCircle
 10
115.423327825141
 20
175.0
 30
0.0
 40
1.5000000000001
100
AcDbArc
 50
180.0
 51
-90.0
  0
SPLINE
  5
226
330
4B
100
AcDbEntity
  8
1
  6
Continuous
 62
     7
100
AcDbSpline
210
0.0
220
0.0
230
1.0
 70
     8
 71
     3
 72
    25
 73
    21
 74
    19
 42
0.0000000001
 43
0.0000000001
 44
0.00000001
 40
0.0
 40
0.0
 40
0.0
 40
0.0
 40
5.158072574662542
 40
10.27785803990793
 40
16.95055234580299
 40
23.76574939925366
 40
27.77228348775
 40
31.65081470356094
 40
32.63300795899827
 40
33.58014337915676
 40
35.56834762620608
 40
37.74808565240352
 40
40.75241284927235
 40
43.65094329924978
 40
47.7063313699348
 40
51.79848947239015
 40
55.23734279776205
 40
58.66558975896798
 40
62.90197321717779
 40
67.14705482526027
 40
67.14705482526027
 40
67.14705482526027
 40
67.14705482526027
 10
114.7036476727512
 20
380.6260097243662
 30
0.0
 10
114.9046435629999
 20
382.3335997471318
 30
0.0
 10
115.3051434002314
 20
385.7361047701436
 30
0.0
 10
116.2262183361886
 20
391.3155029371786
 30
0.0
 10
117.9069183617064
 20
397.3057081479218
 30
0.0
 10
120.1640313496387
 20
402.6925442281638
 30
0.0
 10
122.3705104112494
 20
407.0751768723993
 30
0.0
 10
124.5445682762253
 20
409.2519795840088
 30
0.0
 10
126.3104659765627
 20
410.0583337228655
 30
0.0
 10
127.6120154843842
 20
410.3426793806106
 30
0.0
 10
129.3099815698566
 20
409.6753857920294
 30
0.0
 10
131.0546287954317
 20
408.0361139339054
 30
0.0
 10
132.7031583665641
 20
405.8811450151692
 30
0.0
 10
134.241585827065
 20
402.9323854887179
 30
0.0
 10
135.7109262171436
 20
399.5537706920864
 30
0.0
 10
136.989658964528
 20
395.9057323424338
 30
0.0
 10
137.9859654322436
 20
392.3893341779353
 30
0.0
 10
138.7823712640973
 20
388.7722293291306
 30
0.0
 10
139.3657474617745
 20
384.8428526887528
 30
0.0
 10
139.6741081024978
 20
382.0325847340924
 30
0.0
 10
139.8284465421847
 20
380.6260097243662
 30
0.0
 11
114.7036476727512
 21
380.6260097243662
 31
0.0
 11
115.3464271620318
 21
385.7438752182656
 31
0.0
 11
116.2218198008962
 21
390.7882672468415
 31
0.0
 11
118.0217865305162
 21
397.2136052980405
 31
0.0
 11
120.6168731407574
 21
403.5153857101708
 31
0.0
 11
122.5832864202155
 21
407.0061641644205
 31
0.0
 11
125.4368936185207
 21
409.6329360140109
 31
0.0
 11
126.3352179673992
 21
410.0300719545132
 31
0.0
 11
127.266047107468
 21
410.2050651432879
 31
0.0
 11
129.1622726120469
 21
409.6073319555113
 31
0.0
 11
130.8180398825521
 21
408.1896956803071
 31
0.0
 11
132.649088788289
 21
405.8078388813695
 31
0.0
 11
134.0369278494405
 21
403.2631617879471
 31
0.0
 11
135.6603065578501
 21
399.546871436947
 31
0.0
 11
137.0185014124863
 21
395.6866817172142
 31
0.0
 11
137.9538927741669
 21
392.3774891882255
 31
0.0
 11
138.6895338629851
 21
389.0291001105554
 31
0.0
 11
139.3386040481132
 21
384.842735016614
 31
0.0
 11
139.8284465421847
 21
380.6260097243662
 31
0.0
  0
SPLINE
  5
227
330
4B
100
AcDbEntity
  8
1
  6
Continuous
 62
     7
100
AcDbSpline
210
0.0
220
0.0
230
1.0
 70
     8
 71
     3
 72
    17
 73
    13
 74
    11
 42
0.0000000001
 43
0.0000000001
 44
0.00000001
 40
0.0
 40
0.0
 40
0.0
 40
0.0
 40
0.6203587915818088
 40
1.240235083911892
 40
2.289306993010579
 40
3.339762935819723
 40
4.393560353230134
 40
5.447589180164044
 40
6.508716190760351
 40
7.567819872053763
 40
8.632375625023055
 40
9.699782186271607
 40
9.699782186271607
 40
9.699782186271607
 40
9.699782186271607
 10
114.8496283862558
 20
181.8537496998442
 30
0.0
 10
114.8714991959497
 20
182.0593773492118
 30
0.0
 10
114.9152238047793
 20
182.4704727160041
 30
0.0
 10
115.020299872544
 20
183.2266146647362
 30
0.0
 10
115.2225940654364
 20
184.1121025150973
 30
0.0
 10
115.5549405983009
 20
185.110715546084
 30
0.0
 10
115.973119068617
 20
186.0782815000957
 30
0.0
 10
116.4741871340063
 20
187.0096100886185
 30
0.0
 10
117.0528316825735
 20
187.8970278063423
 30
0.0
 10
117.7169602854443
 20
188.7280079103153
 30
0.0
 10
118.470013433507
 20
189.4812774409439
 30
0.0
 10
118.9995195993514
 20
189.9552367696282
 30
0.0
 10
119.2646267036725
 20
190.1925333174277
 30
0.0
 11
114.8496283862558
 21
181.8537496998442
 31
0.0
 11
114.9185435059656
 21
182.4702687478616
 31
0.0
 11
115.0071598326951
 21
183.0837781320032
 31
0.0
 11
115.2387443663402
 21
184.1069694504947
 31
0.0
 11
115.5687530153818
 21
185.104241719908
 31
0.0
 11
115.9866339863525
 21
186.0716426145951
 31
0.0
 11
116.4857625599404
 21
187.0
 31
0.0
 11
117.0671351718906
 21
187.887691623646
 31
0.0
 11
117.7303255953881
 21
188.7134513162385
 31
0.0
 11
118.475920228897
 21
189.473298401949
 31
0.0
 11
119.2646267036725
 21
190.1925333174277
 31
0.0
  0
SPLINE
  5
228
330
4B
100
AcDbEntity
  8
1
  6
Continuous
 62
     7
100
AcDbSpline
210
0.0
220
0.0
230
1.0
 70
     8
 71
     3
 72
    17
 73
    13
 74
    11
 42
0.0000000001
 43
0.0000000001
 44
0.00000001
 40
0.0
 40
0.0
 40
0.0
 40
0.0
 40
0.6203587915818214
 40
1.240235083911921
 40
2.289306993010552
 40
3.33976293581971
 40
4.393560353230082
 40
5.447589180163944
 40
6.508716190760237
 40
7.56781987205367
 40
8.632375625023073
 40
9.699782186271596
 40
9.699782186271596
 40
9.699782186271596
 40
9.699782186271596
 10
139.6824658286803
 20
181.8537496998442
 30
0.0
 10
139.6605950189864
 20
182.0593773492118
 30
0.0
 10
139.6168704101567
 20
182.470472716004
 30
0.0
 10
139.5117943423918
 20
183.2266146647362
 30
0.0
 10
139.3095001494995
 20
184.1121025150973
 30
0.0
 10
138.9771536166352
 20
185.110715546084
 30
0.0
 10
138.5589751463191
 20
186.0782815000957
 30
0.0
 10
138.0579070809299
 20
187.0096100886185
 30
0.0
 10
137.4792625323628
 20
187.8970278063424
 30
0.0
 10
136.8151339294919
 20
188.7280079103153
 30
0.0
 10
136.0620807814292
 20
189.4812774409439
 30
0.0
 10
135.5325746155847
 20
189.9552367696282
 30
0.0
 10
135.2674675112636
 20
190.1925333174277
 30
0.0
 11
139.6824658286803
 21
181.8537496998442
 31
0.0
 11
139.6135507089704
 21
182.4702687478616
 31
0.0
 11
139.5249343822408
 21
183.0837781320032
 31
0.0
 11
139.2933498485957
 21
184.1069694504946
 31
0.0
 11
138.9633411995542
 21
185.104241719908
 31
0.0
 11
138.5454602285836
 21
186.0716426145951
 31
0.0
 11
138.0463316549958
 21
187.0
 31
0.0
 11
137.4649590430457
 21
187.8876916236461
 31
0.0
 11
136.8017686195481
 21
188.7134513162385
 31
0.0
 11
136.0561739860391
 21
189.4732984019491
 31
0.0
 11
135.2674675112636
 21
190.1925333174277
 31
0.0
  0
ARC
  5
229
330
4B
100
AcDbEntity
  8
1
  6
Continuous
 62
     7
100
AcDbCircle
 10
183.0
 20
178.7393378496917
 30
0.0
 40
2.999999999999961
100
AcDbArc
 50
106.0000000000023
 51
180.0
  0
ARC
  5
22A
330
4B
100
AcDbEntity
  8
1
  6
Continuous
 62
     7
100
AcDbCircle
 10
182.5
 20
172.5
 30
0.0
 40
1.0
100
AcDbArc
 50
0.0
 51
90.0
  0
ARC
  5
22B
330
4B
100
AcDbEntity
  8
1
  6
Continuous
 62
     7
100
AcDbCircle
 10
209.5
 20
172.5
 30
0.0
 40
1.0
100
AcDbArc
 50
90.0
 51
180.0
  0
ARC
  5
22C
330
4B
100
AcDbEntity
  8
1
  6
Continuous
 62
     7
100
AcDbCircle
 10
181.5
 20
175.0
 30
0.0
 40
1.5
100
AcDbArc
 50
180.0
 51
-90.0
  0
ARC
  5
22D
330
4B
100
AcDbEntity
  8
1
  6
Continuous
 62
     7
100
AcDbCircle
 10
210.5361148442181
 20
168.5
 30
0.0
 40
5.000000000000005
100
AcDbArc
 50
40.00000000000014
 51
90.0
  0
ARC
  5
22E
330
4B
100
AcDbEntity
  8
1
  6
Continuous
 62
     7
100
AcDbCircle
 10
221.8652306326201
 20
169.0
 30
0.0
 40
4.000000000000023
100
AcDbArc
 50
-140.0000000000016
 51
-90.0
  0
ARC
  5
22F
330
4B
100
AcDbEntity
  8
1
  6
Continuous
 62
     7
100
AcDbCircle
 10
119.7036476727512
 20
376.01086414205
 30
0.0
 40
5.0
100
AcDbArc
 50
180.0
 51
-90.0
  0
ARC
  5
230
330
4B
100
AcDbEntity
  8
1
  6
Continuous
 62
     7
100
AcDbCircle
 10
121.7660471074679
 20
376.856091817197
 30
0.0
 40
8.5
100
AcDbArc
 50
180.0
 51
-90.0
  0
ARC
  5
231
330
4B
100
AcDbEntity
  8
1
  6
Continuous
 62
     7
100
AcDbCircle
 10
134.8284465421847
 20
376.01086414205
 30
0.0
 40
5.0
100
AcDbArc
 50
-90.0
 51
0.0
  0
ARC
  5
232
330
4B
100
AcDbEntity
  8
1
  6
Continuous
 62
     7
100
AcDbCircle
 10
132.7660471074679
 20
376.856091817197
 30
0.0
 40
8.5
100
AcDbArc
 50
-90.0
 51
0.0
  0
ENDBLK
  5
4F
330
4B
100
AcDbEntity
  8
0
100
AcDbBlockEnd
  0
BLOCK
  5
55
330
50
100
AcDbEntity
  8
0
100
AcDbBlockBegin
  2
A13D-60X
 70
     0
 71
     0
 10
175.2427694488695
 20
163.5
 30
0.0
  3
A13D-60X
  1

  0
INSERT
  5
51
330
50
100
AcDbEntity
  8
0
100
AcDbBlockReference
  2
32-1-16
 10
416.0103514310853
 20
223.5774701513785
 30
0.0
  0
INSERT
  5
52
330
50
100
AcDbEntity
  8
0
100
AcDbBlockReference
  2
88-59
 10
188.7301806428929
 20
59.16951659537463
 30
0.0
  0
INSERT
  5
53
330
50
100
AcDbEntity
  8
0
100
AcDbBlockReference
  2
84-54
 10
242.7000179155993
 20
187.6089449312106
 30
0.0
  0
INSERT
  5
54
330
50
100
AcDbEntity
  8
0
100
AcDbBlockReference
  2
80-29
 10
165.0674616816241
 20
220.7917400941898
 30
0.0
  0
ENDBLK
  5
56
330
50
100
AcDbEntity
  8
0
100
AcDbBlockEnd
  0
BLOCK
  5
58
330
57
100
AcDbEntity
  8
0
100
AcDbBlockBegin
  2
84-34
 70
     0
 71
     0
 10
339.7832607479354
 20
313.8147267736413
 30
0.0
  3
84-34
  1

  0
LINE
  5
233
330
57
100
AcDbEntity
  8
1
  6
Continuous
 62
     7
100
AcDbLine
 10
114.766047107468
 20
308.2296593303428
 30
0.0
 11
127.266047107468
 21
308.2296593303428
 31
0.0
  0
LINE
  5
234
330
57
100
AcDbEntity
  8
1
  6
Continuous
 62
     7
100
AcDbLine
 10
117.266047107468
 20
308.3000000000001
 30
0.0
 11
127.2660471074679
 21
308.3000000000001
 31
0.0
  0
LINE
  5
235
330
57
100
AcDbEntity
  8
1
  6
Continuous
 62
     7
100
AcDbLine
 10
114.766047107468
 20
306.8000000000001
 30
0.0
 11
114.766047107468
 21
308.2296593303428
 31
0.0
  0
LINE
  5
236
330
57
100
AcDbEntity
  8
1
  6
Continuous
 62
     7
100
AcDbLine
 10
413.5000000000001
 20
308.2296593303428
 30
0.0
 11
413.5000000000001
 21
306.8000000000001
 31
0.0
  0
LINE
  5
237
330
57
100
AcDbEntity
  8
1
  6
Continuous
 62
     7
100
AcDbLine
 10
401.0
 20
308.3000000000001
 30
0.0
 11
411.0000000000001
 21
308.3000000000001
 31
0.0
  0
LINE
  5
238
330
57
100
AcDbEntity
  8
1
  6
Continuous
 62
     7
100
AcDbLine
 10
388.5
 20
306.8000000000001
 30
0.0
 11
388.5
 21
308.2296593303428
 31
0.0
  0
LINE
  5
239
330
57
100
AcDbEntity
  8
1
  6
Continuous
 62
     7
100
AcDbLine
 10
391.0
 20
308.3000000000001
 30
0.0
 11
401.0
 21
308.3000000000001
 31
0.0
  0
LINE
  5
23A
330
57
100
AcDbEntity
  8
1
  6
Continuous
 62
     7
100
AcDbLine
 10
127.266047107468
 20
308.2296593303428
 30
0.0
 11
139.7660471074679
 21
308.2296593303428
 31
0.0
  0
LINE
  5
23B
330
57
100
AcDbEntity
  8
1
  6
Continuous
 62
     7
100
AcDbLine
 10
127.2660471074679
 20
308.3000000000001
 30
0.0
 11
137.2660471074679
 21
308.3000000000001
 31
0.0
  0
LINE
  5
23C
330
57
100
AcDbEntity
  8
1
  6
Continuous
 62
     7
100
AcDbLine
 10
139.7660471074679
 20
308.2296593303428
 30
0.0
 11
139.7660471074679
 21
306.8000000000001
 31
0.0
  0
ARC
  5
23D
330
57
100
AcDbEntity
  8
1
  6
Continuous
 62
     7
100
AcDbCircle
 10
127.266047107468
 20
-91.57498046264405
 30
0.0
 40
400.0000000000001
100
AcDbArc
 50
91.43254373756652
 51
91.79078465932896
  0
ARC
  5
23E
330
57
100
AcDbEntity
  8
1
  6
Continuous
 62
     7
100
AcDbCircle
 10
401.0
 20
-91.57498046264405
 30
0.0
 40
400.0
100
AcDbArc
 50
88.20921534067104
 51
88.56745626243347
  0
ARC
  5
23F
330
57
100
AcDbEntity
  8
1
  6
Continuous
 62
     7
100
AcDbCircle
 10
401.0
 20
-91.57498046264405
 30
0.0
 40
400.0000000000001
100
AcDbArc
 50
91.43254373756652
 51
91.79078465932896
  0
ARC
  5
240
330
57
100
AcDbEntity
  8
1
  6
Continuous
 62
     7
100
AcDbCircle
 10
127.266047107468
 20
-91.57498046264405
 30
0.0
 40
400.0
100
AcDbArc
 50
88.20921534067107
 51
88.56745626243351
  0
CIRCLE
  5
241
330
57
100
AcDbEntity
  8
1
  6
Continuous
 62
     7
100
AcDbCircle
 10
127.2660471074679
 20
589.356091817197
 30
0.0
 40
12.5
  0
ENDBLK
  5
59
330
57
100
AcDbEntity
  8
0
100
AcDbBlockEnd
  0
BLOCK
  5
5B
330
5A
100
AcDbEntity
  8
0
100
AcDbBlockBegin
  2
84-35
 70
     0
 71
     0
 10
261.1786740143932
 20
338.6794429852719
 30
0.0
  3
84-35
  1

  0
CIRCLE
  5
242
330
5A
100
AcDbEntity
  8
1
  6
Continuous
 62
     7
100
AcDbCircle
 10
127.2660471074678
 20
589.356091817197
 30
0.0
 40
9.999999999999931
  0
ENDBLK
  5
5C
330
5A
100
AcDbEntity
  8
0
100
AcDbBlockEnd
  0
BLOCK
  5
60
330
5D
100
AcDbEntity
  8
0
100
AcDbBlockBegin
  2
84-34X
 70
     0
 71
     0
 10
388.5
 20
301.3000000000001
 30
0.0
  3
84-34X
  1

  0
INSERT
  5
5E
330
5D
100
AcDbEntity
  8
0
100
AcDbBlockReference
  2
84-34
 10
339.7832607479354
 20
313.8147267736413
 30
0.0
  0
INSERT
  5
5F
330
5D
100
AcDbEntity
  8
1
100
AcDbBlockReference
  2
84-35
 10
261.1786740143932
 20
338.6794429852719
 30
0.0
  0
ENDBLK
  5
61
330
5D
100
AcDbEntity
  8
0
100
AcDbBlockEnd
  0
BLOCK
  5
63
330
62
100
AcDbEntity
  8
0
100
AcDbBlockBegin
  2
81-8-I
 70
     0
 71
     0
 10
433.506516706648
 20
259.0
 30
0.0
  3
81-8-I
  1

  0
LINE
  5
243
330
62
100
AcDbEntity
  8
1
  6
Continuous
 62
     7
100
AcDbLine
 10
127.2617909754733
 20
306.8000000000001
 30
0.0
 11
109.266047107468
 21
306.8000000000001
 31
0.0
  0
LINE
  5
244
330
62
100
AcDbEntity
  8
1
  6
DASH_CENTER
 62
     7
100
AcDbLine
 10
127.266047107468
 20
306.7953186960821
 30
0.0
 11
127.266047107468
 21
306.8000000000001
 31
0.0
  0
LINE
  5
245
330
62
100
AcDbEntity
  8
1
  6
Continuous
 62
     7
100
AcDbLine
 10
116.0357019814551
 20
304.2474878219271
 30
0.0
 11
115.6758019891682
 21
275.4874289246932
 31
0.0
  0
LINE
  5
246
330
62
100
AcDbEntity
  8
1
  6
Continuous
 62
     7
100
AcDbLine
 10
150.7431836867926
 20
304.3000000000001
 30
0.0
 11
150.7415003723333
 21
304.5643682325908
 31
0.0
  0
LINE
  5
247
330
62
100
AcDbEntity
  8
1
  6
Continuous
 62
     7
100
AcDbLine
 10
152.5051775422506
 20
268.8000000000001
 30
0.0
 11
152.6313612762577
 21
264.9303654904489
 31
0.0
  0
LINE
  5
248
330
62
100
AcDbEntity
  8
1
  6
Continuous
 62
     7
100
AcDbLine
 10
150.7431836867926
 20
304.3000000000001
 30
0.0
 11
150.9276485633799
 21
275.3293860245273
 31
0.0
  0
LINE
  5
249
330
62
100
AcDbEntity
  8
1
  6
Continuous
 62
     7
100
AcDbLine
 10
146.472633442412
 20
304.3000000000001
 30
0.0
 11
150.7431836867926
 21
304.3000000000001
 31
0.0
  0
LINE
  5
24A
330
62
100
AcDbEntity
  8
1
  6
Continuous
 62
     7
100
AcDbLine
 10
146.472633442412
 20
304.3000000000001
 30
0.0
 11
147.0826871070262
 21
275.7968091160666
 31
0.0
  0
LINE
  5
24B
330
62
100
AcDbEntity
  8
1
  6
Continuous
 62
     7
100
AcDbLine
 10
136.6422399199783
 20
304.3000000000001
 30
0.0
 11
136.944937260425
 21
275.3293860245273
 31
0.0
  0
LINE
  5
24C
330
62
100
AcDbEntity
  8
1
  6
Continuous
 62
     7
100
AcDbLine
 10
128.2946593316626
 20
304.3000000000001
 30
0.0
 11
136.6422399199783
 21
304.3000000000001
 31
0.0
  0
LINE
  5
24D
330
62
100
AcDbEntity
  8
1
  6
Continuous
 62
     7
100
AcDbLine
 10
128.2946593316626
 20
304.3000000000001
 30
0.0
 11
128.3277839494216
 21
275.4015321379638
 31
0.0
  0
LINE
  5
24E
330
62
100
AcDbEntity
  8
1
  6
Continuous
 62
     7
100
AcDbLine
 10
109.3421192362291
 20
304.3000000000001
 30
0.0
 11
116.0348029872443
 21
304.3000000000001
 31
0.0
  0
LINE
  5
24F
330
62
100
AcDbEntity
  8
1
  6
Continuous
 62
     7
100
AcDbLine
 10
109.3421192362291
 20
304.3000000000001
 30
0.0
 11
108.7639801281332
 21
275.3549179952501
 31
0.0
  0
LINE
  5
250
330
62
100
AcDbEntity
  8
1
  6
Continuous
 62
     7
100
AcDbLine
 10
103.4300605298091
 20
304.3000000000001
 30
0.0
 11
103.1345762601089
 21
275.5902418586613
 31
0.0
  0
LINE
  5
251
330
62
100
AcDbEntity
  8
1
  6
Continuous
 62
     7
100
AcDbLine
 10
127.266047107468
 20
260.8000000000001
 30
0.0
 11
105.8986079791092
 21
260.8000000000001
 31
0.0
  0
LINE
  5
252
330
62
100
AcDbEntity
  8
1
  6
Continuous
 62
     7
100
AcDbLine
 10
127.266047107468
 20
306.8000000000001
 30
0.0
 11
127.2617909754733
 21
306.8000000000001
 31
0.0
  0
LINE
  5
253
330
62
100
AcDbEntity
  8
1
  6
Continuous
 62
     7
100
AcDbLine
 10
149.8859838917331
 20
305.5620916695733
 30
0.0
 11
145.266047107468
 21
306.8000000000001
 31
0.0
  0
LINE
  5
254
330
62
100
AcDbEntity
  8
1
  6
Continuous
 62
     7
100
AcDbLine
 10
127.266047107468
 20
306.8000000000001
 30
0.0
 11
145.266047107468
 21
306.8000000000001
 31
0.0
  0
LINE
  5
255
330
62
100
AcDbEntity
  8
1
  6
Continuous
 62
     7
100
AcDbLine
 10
127.266047107468
 20
260.8000000000001
 30
0.0
 11
148.6334862358269
 21
260.8000000000001
 31
0.0
  0
LINE
  5
256
330
62
100
AcDbEntity
  8
1
  6
Continuous
 62
     7
100
AcDbLine
 10
109.266047107468
 20
306.8000000000001
 30
0.0
 11
104.6461103232029
 21
305.5620916695733
 31
0.0
  0
LINE
  5
257
330
62
100
AcDbEntity
  8
1
  6
Continuous
 62
     7
100
AcDbLine
 10
101.9007329386783
 20
264.9303654904489
 30
0.0
 11
103.1648108931927
 21
303.6954227622197
 31
0.0
  0
LINE
  5
258
330
62
100
AcDbEntity
  8
1
  6
Continuous
 62
     7
100
AcDbLine
 10
149.8117139775061
 20
599.0349819701539
 30
0.0
 11
149.1066214211995
 21
598.7322846297072
 31
0.0
  0
LINE
  5
259
330
62
100
AcDbEntity
  8
1
  6
Continuous
 62
     7
100
AcDbLine
 10
141.2671441848166
 20
608.562678152141
 30
0.0
 11
141.7191501251164
 21
609.1827360710536
 31
0.0
  0
LINE
  5
25A
330
62
100
AcDbEntity
  8
1
  6
Continuous
 62
     7
100
AcDbLine
 10
151.7785041135444
 20
590.4179113560065
 30
0.0
 11
151.0119022174285
 21
590.3847040413916
 31
0.0
  0
LINE
  5
25B
330
62
100
AcDbEntity
  8
1
  6
Continuous
 62
     7
100
AcDbLine
 10
148.2140251853284
 20
578.1264038224003
 30
0.0
 11
148.8903015139727
 21
577.7638689686444
 31
0.0
  0
LINE
  5
25C
330
62
100
AcDbEntity
  8
1
  6
Continuous
 62
     7
100
AcDbLine
 10
143.3794780133981
 20
570.8535148710644
 30
0.0
 11
142.8755470250702
 21
571.4321639459581
 31
0.0
  0
LINE
  5
25D
330
62
100
AcDbEntity
  8
1
  6
Continuous
 62
     7
100
AcDbLine
 10
131.5471741959491
 20
565.9767071190645
 30
0.0
 11
131.6853844279387
 21
565.2219362103472
 31
0.0
  0
LINE
  5
25E
330
62
100
AcDbEntity
  8
1
  6
Continuous
 62
     7
100
AcDbLine
 10
122.8467097869973
 20
565.2219362103472
 30
0.0
 11
122.9849200189869
 21
565.9767071190645
 31
0.0
  0
LINE
  5
25F
330
62
100
AcDbEntity
  8
1
  6
Continuous
 62
     7
100
AcDbLine
 10
111.6565471898657
 20
571.4321639459581
 30
0.0
 11
111.1526162015377
 21
570.8535148710644
 31
0.0
  0
LINE
  5
260
330
62
100
AcDbEntity
  8
1
  6
Continuous
 62
     7
100
AcDbLine
 10
105.6417927009634
 20
577.7638689686444
 30
0.0
 11
106.3180690296075
 21
578.1264038224003
 31
0.0
  0
LINE
  5
261
330
62
100
AcDbEntity
  8
1
  6
Continuous
 62
     7
100
AcDbLine
 10
103.5201919975075
 20
590.3847040413915
 30
0.0
 11
102.7535901013916
 21
590.4179113560065
 31
0.0
  0
LINE
  5
262
330
62
100
AcDbEntity
  8
1
  6
Continuous
 62
     7
100
AcDbLine
 10
112.8129440898194
 20
609.1827360710536
 30
0.0
 11
113.3587089242853
 21
608.356091817197
 31
0.0
  0
LINE
  5
263
330
62
100
AcDbEntity
  8
1
  6
Continuous
 62
     7
100
AcDbLine
 10
105.4254727937364
 20
598.7322846297072
 30
0.0
 11
104.7203802374299
 21
599.0349819701539
 31
0.0
  0
LINE
  5
264
330
62
100
AcDbEntity
  8
1
  6
Continuous
 62
     7
100
AcDbLine
 10
133.7557794401094
 20
613.0176932731089
 30
0.0
 11
133.5528197323064
 21
612.2777010097162
 31
0.0
  0
LINE
  5
265
330
62
100
AcDbEntity
  8
1
  6
Continuous
 62
     7
100
AcDbLine
 10
120.9792744826295
 20
612.2777010097162
 30
0.0
 11
120.7763147748266
 21
613.0176932731089
 31
0.0
  0
LINE
  5
266
330
62
100
AcDbEntity
  8
1
  6
Continuous
 62
     7
100
AcDbLine
 10
375.6346858312104
 20
264.9303654904488
 30
0.0
 11
376.8987637857247
 21
303.6954227622197
 31
0.0
  0
LINE
  5
267
330
62
100
AcDbEntity
  8
1
  6
Continuous
 62
     7
100
AcDbLine
 10
383.0
 20
306.7999999999998
 30
0.0
 11
378.3800632157349
 21
305.5620916695733
 31
0.0
  0
LINE
  5
268
330
62
100
AcDbEntity
  8
1
  6
Continuous
 62
     7
100
AcDbLine
 10
423.6199367842651
 20
305.5620916695733
 30
0.0
 11
419.0000000000001
 21
306.8000000000001
 31
0.0
  0
LINE
  5
269
330
62
100
AcDbEntity
  8
1
  6
Continuous
 62
     7
100
AcDbLine
 10
422.3674391283589
 20
260.8
 30
0.0
 11
379.6325608716412
 21
260.8
 31
0.0
  0
LINE
  5
26A
330
62
100
AcDbEntity
  8
1
  6
Continuous
 62
     7
100
AcDbLine
 10
383.0760721287611
 20
304.2999999999998
 30
0.0
 11
382.4979330206652
 21
275.3549179952498
 31
0.0
  0
LINE
  5
26B
330
62
100
AcDbEntity
  8
1
  6
Continuous
 62
     7
100
AcDbLine
 10
402.0286122241946
 20
304.2999999999998
 30
0.0
 11
410.3761928125103
 21
304.2999999999998
 31
0.0
  0
LINE
  5
26C
330
62
100
AcDbEntity
  8
1
  6
Continuous
 62
     7
100
AcDbLine
 10
410.3761928125103
 20
304.2999999999998
 30
0.0
 11
410.6788901529571
 21
275.3293860245271
 31
0.0
  0
LINE
  5
26D
330
62
100
AcDbEntity
  8
1
  6
Continuous
 62
     7
100
AcDbLine
 10
420.206586334944
 20
304.2999999999998
 30
0.0
 11
424.4771365793245
 21
304.2999999999998
 31
0.0
  0
LINE
  5
26E
330
62
100
AcDbEntity
  8
1
  6
Continuous
 62
     7
100
AcDbLine
 10
426.2391304347825
 20
268.8
 30
0.0
 11
426.3653141687896
 21
264.9303654904488
 31
0.0
  0
LINE
  5
26F
330
62
100
AcDbEntity
  8
1
  6
Continuous
 62
     7
100
AcDbLine
 10
420.206586334944
 20
304.2999999999998
 30
0.0
 11
420.8266442538566
 21
275.3293860245271
 31
0.0
  0
LINE
  5
270
330
62
100
AcDbEntity
  8
1
  6
Continuous
 62
     7
100
AcDbLine
 10
382.4979330206652
 20
275.3549179952498
 30
0.0
 11
382.4974230538674
 21
275.3293860245271
 31
0.0
  0
LINE
  5
271
330
62
100
AcDbEntity
  8
1
  6
Continuous
 62
     7
100
AcDbLine
 10
377.1640134223411
 20
304.2999999999998
 30
0.0
 11
376.8658443931502
 21
275.3293860245271
 31
0.0
  0
LINE
  5
272
330
62
100
AcDbEntity
  8
1
  6
Continuous
 62
     7
100
AcDbLine
 10
402.0286122241946
 20
304.2999999999998
 30
0.0
 11
402.0618195388095
 21
275.3293860245271
 31
0.0
  0
LINE
  5
273
330
62
100
AcDbEntity
  8
1
  6
Continuous
 62
     7
100
AcDbLine
 10
410.7166273186604
 20
274.534464542307
 30
0.0
 11
410.6788901529571
 21
275.3293860245271
 31
0.0
  0
LINE
  5
274
330
62
100
AcDbEntity
  8
1
  6
Continuous
 62
     7
100
AcDbLine
 10
424.6616014559118
 20
275.3293860245271
 30
0.0
 11
424.4754532648653
 21
304.5643682325908
 31
0.0
  0
LINE
  5
275
330
62
100
AcDbEntity
  8
1
  6
Continuous
 62
     7
100
AcDbLine
 10
383.0760721287611
 20
304.2999999999998
 30
0.0
 11
389.7703120052034
 21
304.2999999999998
 31
0.0
  0
LINE
  5
276
330
62
100
AcDbEntity
  8
1
  6
Continuous
 62
     7
100
AcDbLine
 10
389.4231920342954
 20
274.8740374551813
 30
0.0
 11
389.4077771514474
 21
275.5777101697264
 31
0.0
  0
LINE
  5
277
330
62
100
AcDbEntity
  8
1
  6
Continuous
 62
     7
100
AcDbLine
 10
389.7703120052034
 20
304.2999999999998
 30
0.0
 11
389.4077771514474
 21
275.3293860245271
 31
0.0
  0
LINE
  5
278
330
62
100
AcDbEntity
  8
1
  6
Continuous
 62
     7
100
AcDbLine
 10
419.0000000000001
 20
306.8000000000001
 30
0.0
 11
383.0
 21
306.7999999999998
 31
0.0
  0
ARC
  5
279
330
62
100
AcDbEntity
  8
1
  6
Continuous
 62
     7
100
AcDbCircle
 10
122.165509222167
 20
297.0068604375515
 30
0.0
 40
9.526613550579404
100
AcDbArc
 50
49.95632643948386
 51
57.62903590470966
  0
ARC
  5
27A
330
62
100
AcDbEntity
  8
1
  6
Continuous
 62
     7
100
AcDbCircle
 10
123.8751614213396
 20
303.7166802058753
 30
0.0
 40
4.579969507515664
100
AcDbArc
 50
42.23680230798434
 51
42.31595193877249
  0
ARC
  5
27B
330
62
100
AcDbEntity
  8
1
  6
Continuous
 62
     7
100
AcDbCircle
 10
123.8751614213396
 20
303.7166802058753
 30
0.0
 40
4.579969507515709
100
AcDbArc
 50
42.31595193877249
 51
42.66618215493125
  0
ARC
  5
27C
330
62
100
AcDbEntity
  8
1
  6
Continuous
 62
     7
100
AcDbCircle
 10
122.165509222167
 20
297.0068604375515
 30
0.0
 40
9.526613550579295
100
AcDbArc
 50
57.62903590470966
 51
130.0436735605162
  0
ARC
  5
27D
330
62
100
AcDbEntity
  8
1
  6
Continuous
 62
     7
100
AcDbCircle
 10
164.6025127877884
 20
275.1780325636667
 30
0.0
 40
13.67570178916323
100
AcDbArc
 50
179.365875938477
 51
-152.2006254120273
  0
ARC
  5
27E
330
62
100
AcDbEntity
  8
1
  6
Continuous
 62
     7
100
AcDbCircle
 10
127.266047107468
 20
620.6258056704561
 30
0.0
 40
9.999999999999975
100
AcDbArc
 50
-130.4642327231712
 51
-49.53576727682882
  0
ARC
  5
27F
330
62
100
AcDbEntity
  8
1
  6
Continuous
 62
     7
100
AcDbCircle
 10
151.7136938457126
 20
608.8524395117448
 30
0.0
 40
10.00000000000001
100
AcDbArc
 50
178.1071958482573
 51
-100.9643387053998
  0
ARC
  5
280
330
62
100
AcDbEntity
  8
1
  6
Continuous
 62
     7
100
AcDbCircle
 10
157.7517639489489
 20
582.3979258860231
 30
0.0
 40
10.00000000000004
100
AcDbArc
 50
126.6786244196858
 51
-152.392910133971
  0
ARC
  5
281
330
62
100
AcDbEntity
  8
1
  6
Continuous
 62
     7
100
AcDbCircle
 10
140.8334674752562
 20
561.1830531271936
 30
0.0
 40
9.999999999999876
100
AcDbArc
 50
75.2500529911149
 51
156.1785184374582
  0
ARC
  5
282
330
62
100
AcDbEntity
  8
1
  6
Continuous
 62
     7
100
AcDbCircle
 10
113.6986267396797
 20
561.1830531271936
 30
0.0
 40
10.00000000000019
100
AcDbArc
 50
23.82148156254162
 51
104.7499470088857
  0
ARC
  5
283
330
62
100
AcDbEntity
  8
1
  6
Continuous
 62
     7
100
AcDbCircle
 10
96.78033026598715
 20
582.3979258860231
 30
0.0
 40
10.00000000000007
100
AcDbArc
 50
-27.60708986602884
 51
53.32137558031458
  0
ARC
  5
284
330
62
100
AcDbEntity
  8
1
  6
Continuous
 62
     7
100
AcDbCircle
 10
102.8184003692232
 20
608.8524395117448
 30
0.0
 40
10.00000000000018
100
AcDbArc
 50
-79.03566129459924
 51
1.89280415174266
  0
ARC
  5
285
330
62
100
AcDbEntity
  8
1
  6
Continuous
 62
     7
100
AcDbCircle
 10
127.2660471074679
 20
589.356091817197
 30
0.0
 40
24.53544393744983
100
AcDbArc
 50
23.23392363789293
 51
53.90893350496367
  0
ARC
  5
286
330
62
100
AcDbEntity
  8
1
  6
Continuous
 62
     7
100
AcDbCircle
 10
127.2660471074679
 20
589.356091817197
 30
0.0
 40
24.53544393744993
100
AcDbArc
 50
-28.19464779067809
 51
2.48036207639254
  0
ARC
  5
287
330
62
100
AcDbEntity
  8
1
  6
Continuous
 62
     7
100
AcDbCircle
 10
127.2660471074679
 20
589.356091817197
 30
0.0
 40
24.53544393744991
100
AcDbArc
 50
-79.62321921924966
 51
-48.94820935217909
  0
ARC
  5
288
330
62
100
AcDbEntity
  8
1
  6
Continuous
 62
     7
100
AcDbCircle
 10
127.2660471074679
 20
589.356091817197
 30
0.0
 40
24.53544393744988
100
AcDbArc
 50
-131.0517906478209
 51
-100.3767807807499
  0
ARC
  5
289
330
62
100
AcDbEntity
  8
1
  6
Continuous
 62
     7
100
AcDbCircle
 10
127.2660471074679
 20
589.356091817197
 30
0.0
 40
24.53544393744969
100
AcDbArc
 50
177.5196379236074
 51
-151.8053522093216
  0
ARC
  5
28A
330
62
100
AcDbEntity
  8
1
  6
Continuous
 62
     7
100
AcDbCircle
 10
106.9384285632991
 20
605.5668266655241
 30
0.0
 40
7.000000000000058
100
AcDbArc
 50
-102.4822140563758
 51
23.48234382472145
  0
ARC
  5
28B
330
62
100
AcDbEntity
  8
1
  6
Continuous
 62
     7
100
AcDbCircle
 10
127.2660471074679
 20
589.356091817197
 30
0.0
 40
24.53544393744983
100
AcDbArc
 50
126.0910664950363
 51
156.7660763621069
  0
ARC
  5
28C
330
62
100
AcDbEntity
  8
1
  6
Continuous
 62
     7
100
AcDbCircle
 10
127.2660471074679
 20
589.356091817197
 30
0.0
 40
24.53544393744982
100
AcDbArc
 50
74.66249506646462
 51
105.3375049335349
  0
ARC
  5
28D
330
62
100
AcDbEntity
  8
1
  6
Continuous
 62
     7
100
AcDbCircle
 10
127.2660471074679
 20
589.356091817197
 30
0.0
 40
23.7681231486838
100
AcDbArc
 50
105.3375049335352
 51
126.091066495036
  0
ARC
  5
28E
330
62
100
AcDbEntity
  8
1
  6
Continuous
 62
     7
100
AcDbCircle
 10
127.2660471074679
 20
589.356091817197
 30
0.0
 40
23.76812314868381
100
AcDbArc
 50
-100.3767807807503
 51
-79.62321921924918
  0
ARC
  5
28F
330
62
100
AcDbEntity
  8
1
  6
Continuous
 62
     7
100
AcDbCircle
 10
138.5470243245245
 20
565.9309012517341
 30
0.0
 40
7.000000000000021
100
AcDbArc
 50
51.80350022933803
 51
179.6250711992335
  0
ARC
  5
290
330
62
100
AcDbEntity
  8
1
  6
Continuous
 62
     7
100
AcDbCircle
 10
127.2660471074679
 20
589.356091817197
 30
0.0
 40
23.76812314868385
100
AcDbArc
 50
-48.9482093521788
 51
-28.19464779067826
  0
ARC
  5
291
330
62
100
AcDbEntity
  8
1
  6
Continuous
 62
     7
100
AcDbCircle
 10
152.6141728241954
 20
583.5705475343327
 30
0.0
 40
7.000000000000162
100
AcDbArc
 50
103.2320716579087
 51
-128.9463573721951
  0
ARC
  5
292
330
62
100
AcDbEntity
  8
1
  6
Continuous
 62
     7
100
AcDbCircle
 10
127.2660471074679
 20
589.356091817197
 30
0.0
 40
23.76812314868394
100
AcDbArc
 50
2.48036207639257
 51
23.23392363789309
  0
ARC
  5
293
330
62
100
AcDbEntity
  8
1
  6
Continuous
 62
     7
100
AcDbCircle
 10
147.5936656516368
 20
605.5668266655241
 30
0.0
 40
7.000000000000086
100
AcDbArc
 50
154.6606430864815
 51
-77.51778594362419
  0
ARC
  5
294
330
62
100
AcDbEntity
  8
1
  6
Continuous
 62
     7
100
AcDbCircle
 10
127.2660471074679
 20
589.356091817197
 30
0.0
 40
23.76812314868379
100
AcDbArc
 50
53.90893350496383
 51
74.6624950664645
  0
ARC
  5
295
330
62
100
AcDbEntity
  8
1
  6
Continuous
 62
     7
100
AcDbCircle
 10
127.266047107468
 20
615.356091817197
 30
0.0
 40
7.000000000000061
100
AcDbArc
 50
-153.9107854849482
 51
-26.08921451505217
  0
ARC
  5
296
330
62
100
AcDbEntity
  8
1
  6
Continuous
 62
     7
100
AcDbCircle
 10
106.9384285632991
 20
605.5668266655241
 30
0.0
 40
7.000000000000139
100
AcDbArc
 50
23.48234382472145
 51
25.33935691351853
  0
ARC
  5
297
330
62
100
AcDbEntity
  8
1
  6
Continuous
 62
     7
100
AcDbCircle
 10
127.2660471074679
 20
589.356091817197
 30
0.0
 40
23.76812314868375
100
AcDbArc
 50
156.7660763621068
 51
177.5196379236077
  0
ARC
  5
298
330
62
100
AcDbEntity
  8
1
  6
Continuous
 62
     7
100
AcDbCircle
 10
101.9179213907406
 20
583.5705475343327
 30
0.0
 40
6.999999999999917
100
AcDbArc
 50
-51.05364262780554
 51
76.76792834209113
  0
ARC
  5
299
330
62
100
AcDbEntity
  8
1
  6
Continuous
 62
     7
100
AcDbCircle
 10
127.2660471074679
 20
589.356091817197
 30
0.0
 40
23.76812314868384
100
AcDbArc
 50
-151.8053522093216
 51
-131.051790647821
  0
ARC
  5
29A
330
62
100
AcDbEntity
  8
1
  6
Continuous
 62
     7
100
AcDbCircle
 10
115.9850698904116
 20
565.9309012517341
 30
0.0
 40
6.999999999999828
100
AcDbArc
 50
0.37492880076647
 51
128.1964997706632
  0
ARC
  5
29B
330
62
100
AcDbEntity
  8
1
  6
Continuous
 62
     7
100
AcDbCircle
 10
438.3364656803204
 20
275.1780325636665
 30
0.0
 40
13.67570178916328
100
AcDbArc
 50
179.365875938477
 51
-152.2006254120278
  0
ARC
  5
29C
330
62
100
AcDbEntity
  8
1
  6
Continuous
 62
     7
100
AcDbCircle
 10
379.6818583319395
 20
269.9796461430524
 30
0.0
 40
1.179646164435498
100
AcDbArc
 50
-94.87981091992037
 51
-90.0109093011005
  0
ARC
  5
29D
330
62
100
AcDbEntity
  8
1
  6
Continuous
 62
     7
100
AcDbCircle
 10
379.6883572104764
 20
270.0557674425513
 30
0.0
 40
1.256044382082671
100
AcDbArc
 50
-99.45742566889429
 51
-94.87981091992238
  0
ARC
  5
29E
330
62
100
AcDbEntity
  8
1
  6
Continuous
 62
     7
100
AcDbCircle
 10
379.6966720469225
 20
270.105682766621
 30
0.0
 40
1.306647505327194
100
AcDbArc
 50
-103.8630635302768
 51
-99.45742566888873
  0
ARC
  5
29F
330
62
100
AcDbEntity
  8
1
  6
Continuous
 62
     7
100
AcDbCircle
 10
379.713755282578
 20
270.1749042514506
 30
0.0
 40
1.377945828606723
100
AcDbArc
 50
-108.0426630895101
 51
-103.8630635302788
  0
ARC
  5
2A0
330
62
100
AcDbEntity
  8
1
  6
Continuous
 62
     7
100
AcDbCircle
 10
379.723244929754
 20
270.2040365543618
 30
0.0
 40
1.408584765866918
100
AcDbArc
 50
-112.1274028445697
 51
-108.0426630895084
  0
ARC
  5
2A1
330
62
100
AcDbEntity
  8
1
  6
Continuous
 62
     7
100
AcDbCircle
 10
379.7484179253439
 20
270.2659452089738
 30
0.0
 40
1.4754156062241
100
AcDbArc
 50
-114.3048869208662
 51
-112.1274028445667
  0
ARC
  5
2A2
330
62
100
AcDbEntity
  8
1
  6
Continuous
 62
     7
100
AcDbCircle
 10
379.7602910858232
 20
270.2922353655704
 30
0.0
 40
1.504262517213564
100
AcDbArc
 50
-116.4387108610585
 51
-114.3048869208607
  0
ARC
  5
2A3
330
62
100
AcDbEntity
  8
1
  6
Continuous
 62
     7
100
AcDbCircle
 10
379.8054626505505
 20
270.383078730738
 30
0.0
 40
1.605716877666484
100
AcDbArc
 50
-118.4370774959036
 51
-116.4387108610651
  0
ARC
  5
2A4
330
62
100
AcDbEntity
  8
1
  6
Continuous
 62
     7
100
AcDbCircle
 10
379.8229847243267
 20
270.4154350642141
 30
0.0
 40
1.64251301041763
100
AcDbArc
 50
-120.3908610882814
 51
-118.4370774959014
  0
ARC
  5
2A5
330
62
100
AcDbEntity
  8
1
  6
Continuous
 62
     7
100
AcDbCircle
 10
379.884761225161
 20
270.5207690512101
 30
0.0
 40
1.764626010838456
100
AcDbArc
 50
-122.210053401823
 51
-120.3908610882809
  0
ARC
  5
2A6
330
62
100
AcDbEntity
  8
1
  6
Continuous
 62
     7
100
AcDbCircle
 10
379.9075372944008
 20
270.5569227653366
 30
0.0
 40
1.807355864280147
100
AcDbArc
 50
-123.9870066516682
 51
-122.2100534018231
  0
ARC
  5
2A7
330
62
100
AcDbEntity
  8
1
  6
Continuous
 62
     7
100
AcDbCircle
 10
379.9884061898022
 20
270.6768745014171
 30
0.0
 40
1.952021676524225
100
AcDbArc
 50
-125.6328944128562
 51
-123.9870066516721
  0
ARC
  5
2A8
330
62
100
AcDbEntity
  8
1
  6
Continuous
 62
     7
100
AcDbCircle
 10
380.0153759751281
 20
270.7144998427856
 30
0.0
 40
1.998314609393103
100
AcDbArc
 50
-127.2409784036322
 51
-125.6328944128553
  0
ARC
  5
2A9
330
62
100
AcDbEntity
  8
1
  6
Continuous
 62
     7
100
AcDbCircle
 10
380.1180144521507
 20
270.8495204112727
 30
0.0
 40
2.167917707478336
100
AcDbArc
 50
-128.7230983784933
 51
-127.2409784036337
  0
ARC
  5
2AA
330
62
100
AcDbEntity
  8
1
  6
Continuous
 62
     7
100
AcDbCircle
 10
380.147453682925
 20
270.8862362341739
 30
0.0
 40
2.214978518774948
100
AcDbArc
 50
-130.1729699884877
 51
-128.7230983784914
  0
ARC
  5
2AB
330
62
100
AcDbEntity
  8
1
  6
Continuous
 62
     7
100
AcDbCircle
 10
380.2612570723644
 20
271.0210332991219
 30
0.0
 40
2.391391273887708
100
AcDbArc
 50
-131.7477561572385
 51
-130.1729699884843
  0
ARC
  5
2AC
330
62
100
AcDbEntity
  8
1
  6
Continuous
 62
     7
100
AcDbCircle
 10
380.2751156028805
 20
271.0365616948163
 30
0.0
 40
2.412204489422872
100
AcDbArc
 50
-133.3077361678665
 51
-131.7477561572406
  0
ARC
  5
2AD
330
62
100
AcDbEntity
  8
1
  6
Continuous
 62
     7
100
AcDbCircle
 10
380.4052134229942
 20
271.1745808063715
 30
0.0
 40
2.601874513287495
100
AcDbArc
 50
-134.7533770174141
 51
-133.3077361678649
  0
ARC
  5
2AE
330
62
100
AcDbEntity
  8
1
  6
Continuous
 62
     7
100
AcDbCircle
 10
380.4250463572078
 20
271.1945852168354
 30
0.0
 40
2.630044030811301
100
AcDbArc
 50
-136.1833058852976
 51
-134.7533770174175
  0
ARC
  5
2AF
330
62
100
AcDbEntity
  8
1
  6
Continuous
 62
     7
100
AcDbCircle
 10
380.5902983310219
 20
271.353148615562
 30
0.0
 40
2.859064916900766
100
AcDbArc
 50
-137.4987150412011
 51
-136.1833058852945
  0
ARC
  5
2B0
330
62
100
AcDbEntity
  8
1
  6
Continuous
 62
     7
100
AcDbCircle
 10
380.6153263232452
 20
271.3760835776772
 30
0.0
 40
2.893012124178334
100
AcDbArc
 50
-138.7988437608871
 51
-137.4987150412036
  0
ARC
  5
2B1
330
62
100
AcDbEntity
  8
1
  6
Continuous
 62
     7
100
AcDbCircle
 10
380.824026442023
 20
271.5587941599497
 30
0.0
 40
3.170390739886646
100
AcDbArc
 50
-139.9853867850638
 51
-138.7988437608849
  0
ARC
  5
2B2
330
62
100
AcDbEntity
  8
1
  6
Continuous
 62
     7
100
AcDbCircle
 10
380.8531280728926
 20
271.5832259786976
 30
0.0
 40
3.208388354109085
100
AcDbArc
 50
-141.1579820246298
 51
-139.9853867850653
  0
ARC
  5
2B3
330
62
100
AcDbEntity
  8
1
  6
Continuous
 62
     7
100
AcDbCircle
 10
381.1168005280681
 20
271.7955426286262
 30
0.0
 40
3.546916821826755
100
AcDbArc
 50
-142.2186262745541
 51
-141.1579820246318
  0
ARC
  5
2B4
330
62
100
AcDbEntity
  8
1
  6
Continuous
 62
     7
100
AcDbCircle
 10
381.1485438918462
 20
271.8201487812528
 30
0.0
 40
3.587080286456123
100
AcDbArc
 50
-143.2671709845687
 51
-142.2186262745528
  0
ARC
  5
2B5
330
62
100
AcDbEntity
  8
1
  6
Continuous
 62
     7
100
AcDbCircle
 10
381.4283421783543
 20
272.0289534905513
 30
0.0
 40
3.936202740271292
100
AcDbArc
 50
-145.5022799162107
 51
-143.2671709845656
  0
ARC
  5
2B6
330
62
100
AcDbEntity
  8
1
  6
Continuous
 62
     7
100
AcDbCircle
 10
381.6500990628581
 20
272.1813497827678
 30
0.0
 40
4.205276606906953
100
AcDbArc
 50
-146.5479762871841
 51
-145.5022799162131
  0
ARC
  5
2B7
330
62
100
AcDbEntity
  8
1
  6
Continuous
 62
     7
100
AcDbCircle
 10
381.70221463846
 20
272.2157816080703
 30
0.0
 40
4.267739266264202
100
AcDbArc
 50
-147.5783152545779
 51
-146.5479762871854
  0
ARC
  5
2B8
330
62
100
AcDbEntity
  8
1
  6
Continuous
 62
     7
100
AcDbCircle
 10
381.9565653393632
 20
272.3773325374044
 30
0.0
 40
4.569058004179062
100
AcDbArc
 50
-148.540731816264
 51
-147.5783152545756
  0
ARC
  5
2B9
330
62
100
AcDbEntity
  8
1
  6
Continuous
 62
     7
100
AcDbCircle
 10
382.0190118568044
 20
272.4155387747315
 30
0.0
 40
4.642265135739062
100
AcDbArc
 50
-149.4880376548084
 51
-148.5407318162654
  0
ARC
  5
2BA
330
62
100
AcDbEntity
  8
1
  6
Continuous
 62
     7
100
AcDbCircle
 10
382.3262252734871
 20
272.596587713327
 30
0.0
 40
4.998858463714287
100
AcDbArc
 50
-150.3678328110483
 51
-149.4880376548084
  0
ARC
  5
2BB
330
62
100
AcDbEntity
  8
1
  6
Continuous
 62
     7
100
AcDbCircle
 10
382.3995739333936
 20
272.6383100377433
 30
0.0
 40
5.083243167688272
100
AcDbArc
 50
-151.2330632396095
 51
-150.3678328110473
  0
ARC
  5
2BC
330
62
100
AcDbEntity
  8
1
  6
Continuous
 62
     7
100
AcDbCircle
 10
382.7726551618891
 20
272.8431329090091
 30
0.0
 40
5.508850982054129
100
AcDbArc
 50
-152.0314342605433
 51
-151.23306323961
  0
ARC
  5
2BD
330
62
100
AcDbEntity
  8
1
  6
Continuous
 62
     7
100
AcDbCircle
 10
382.85792761516
 20
272.888413084736
 30
0.0
 40
5.605399858798984
100
AcDbArc
 50
-152.8159700181136
 51
-152.0314342605435
  0
ARC
  5
2BE
330
62
100
AcDbEntity
  8
1
  6
Continuous
 62
     7
100
AcDbCircle
 10
383.2453535512983
 20
273.0873864808584
 30
0.0
 40
6.040933173663759
100
AcDbArc
 50
-154.4798427663425
 51
-152.8159700181134
  0
ARC
  5
2BF
330
62
100
AcDbEntity
  8
1
  6
Continuous
 62
     7
100
AcDbCircle
 10
383.5849397990781
 20
273.2495074868507
 30
0.0
 40
6.41723363907009
100
AcDbArc
 50
-156.0458559647333
 51
-154.4798427663422
  0
ARC
  5
2C0
330
62
100
AcDbEntity
  8
1
  6
Continuous
 62
     7
100
AcDbCircle
 10
384.0338638555606
 20
273.448950995091
 30
0.0
 40
6.908467312048664
100
AcDbArc
 50
-156.7731798148752
 51
-156.0458559647339
  0
ARC
  5
2C1
330
62
100
AcDbEntity
  8
1
  6
Continuous
 62
     7
100
AcDbCircle
 10
383.9856708804507
 20
273.4282687509756
 30
0.0
 40
6.856023837034305
100
AcDbArc
 50
-157.5060883558044
 51
-156.7731798148757
  0
ARC
  5
2C2
330
62
100
AcDbEntity
  8
1
  6
Continuous
 62
     7
100
AcDbCircle
 10
384.5185883135678
 20
273.6489440375575
 30
0.0
 40
7.432824125373549
100
AcDbArc
 50
-158.1821432555365
 51
-157.5060883558041
  0
ARC
  5
2C3
330
62
100
AcDbEntity
  8
1
  6
Continuous
 62
     7
100
AcDbCircle
 10
384.4598171536331
 20
273.6254160012321
 30
0.0
 40
7.369518377345099
100
AcDbArc
 50
-158.8640192722132
 51
-158.1821432555356
  0
ARC
  5
2C4
330
62
100
AcDbEntity
  8
1
  6
Continuous
 62
     7
100
AcDbCircle
 10
385.0816764519934
 20
273.8658203049489
 30
0.0
 40
8.036229121373582
100
AcDbArc
 50
-159.4893188010359
 51
-158.8640192722135
  0
ARC
  5
2C5
330
62
100
AcDbEntity
  8
1
  6
Continuous
 62
     7
100
AcDbCircle
 10
385.0082081387523
 20
273.8383360164189
 30
0.0
 40
7.957788193494758
100
AcDbArc
 50
-160.1207491500448
 51
-159.4893188010357
  0
ARC
  5
2C6
330
62
100
AcDbEntity
  8
1
  6
Continuous
 62
     7
100
AcDbCircle
 10
385.6036964933926
 20
274.0536559137605
 30
0.0
 40
8.591009354467273
100
AcDbArc
 50
-161.4204248541984
 51
-160.1207491500451
  0
ARC
  5
2C7
330
62
100
AcDbEntity
  8
1
  6
Continuous
 62
     7
100
AcDbCircle
 10
385.8976314810413
 20
274.1524593304239
 30
0.0
 40
8.901105939595755
100
AcDbArc
 50
-162.6747189694489
 51
-161.420424854198
  0
ARC
  5
2C8
330
62
100
AcDbEntity
  8
1
  6
Continuous
 62
     7
100
AcDbCircle
 10
386.4917359613332
 20
274.3377898811109
 30
0.0
 40
9.52344631794274
100
AcDbArc
 50
-163.8470569374481
 51
-162.6747189694491
  0
ARC
  5
2C9
330
62
100
AcDbEntity
  8
1
  6
Continuous
 62
     7
100
AcDbCircle
 10
386.8546918042262
 20
274.4429151222621
 30
0.0
 40
9.901319656797446
100
AcDbArc
 50
-164.9746888389621
 51
-163.847056937448
  0
ARC
  5
2CA
330
62
100
AcDbEntity
  8
1
  6
Continuous
 62
     7
100
AcDbCircle
 10
387.5940318176274
 20
274.6413707861522
 30
0.0
 40
10.66683145027041
100
AcDbArc
 50
-166.0213801173797
 51
-164.9746888389617
  0
ARC
  5
2CB
330
62
100
AcDbEntity
  8
1
  6
Continuous
 62
     7
100
AcDbCircle
 10
387.9473395593839
 20
274.7293202791766
 30
0.0
 40
11.03092137557503
100
AcDbArc
 50
-167.1147736794104
 51
-166.0213801173804
  0
ARC
  5
2CC
330
62
100
AcDbEntity
  8
1
  6
Continuous
 62
     7
100
AcDbCircle
 10
388.4504081080814
 20
274.8444018456589
 30
0.0
 40
11.54698506508678
100
AcDbArc
 50
-168.1592547758879
 51
-167.1147736794098
  0
ARC
  5
2CD
330
62
100
AcDbEntity
  8
1
  6
Continuous
 62
     7
100
AcDbCircle
 10
388.756274019911
 20
274.9085276036109
 30
0.0
 40
11.85950077485567
100
AcDbArc
 50
-169.1762164863477
 51
-168.1592547758876
  0
ARC
  5
2CE
330
62
100
AcDbEntity
  8
1
  6
Continuous
 62
     7
100
AcDbCircle
 10
389.338913875044
 20
275.0199227751674
 30
0.0
 40
12.45269390110998
100
AcDbArc
 50
-170.1447494000439
 51
-169.1762164863482
  0
ARC
  5
2CF
330
62
100
AcDbEntity
  8
1
  6
Continuous
 62
     7
100
AcDbCircle
 10
389.6891635978745
 20
275.080769289742
 30
0.0
 40
12.80818956448546
100
AcDbArc
 50
-171.0863941081746
 51
-170.1447494000435
  0
ARC
  5
2D0
330
62
100
AcDbEntity
  8
1
  6
Continuous
 62
     7
100
AcDbCircle
 10
390.2640124860282
 20
275.1709280840142
 30
0.0
 40
13.39006571315986
100
AcDbArc
 50
-172.5074189736185
 51
-171.0863941081749
  0
ARC
  5
2D1
330
62
100
AcDbEntity
  8
1
  6
Continuous
 62
     7
100
AcDbCircle
 10
390.6348906574671
 20
275.2197062667067
 30
0.0
 40
13.76413780401505
100
AcDbArc
 50
-173.8898039173177
 51
-172.5074189736184
  0
ARC
  5
2D2
330
62
100
AcDbEntity
  8
1
  6
Continuous
 62
     7
100
AcDbCircle
 10
391.1788517165758
 20
275.2779368420376
 30
0.0
 40
14.31120675189086
100
AcDbArc
 50
-175.2193581916119
 51
-173.8898039173176
  0
ARC
  5
2D3
330
62
100
AcDbEntity
  8
1
  6
Continuous
 62
     7
100
AcDbCircle
 10
391.6058412499779
 20
275.3136468773345
 30
0.0
 40
14.73968693609532
100
AcDbArc
 50
-177.8554285436827
 51
-175.2193581916117
  0
ARC
  5
2D4
330
62
100
AcDbEntity
  8
1
  6
Continuous
 62
     7
100
AcDbCircle
 10
373.6313527788045
 20
274.393620327731
 30
0.0
 40
8.791915769813077
100
AcDbArc
 50
-10.54320243878244
 51
-9.17137269973269
  0
ARC
  5
2D5
330
62
100
AcDbEntity
  8
1
  6
Continuous
 62
     7
100
AcDbCircle
 10
361.6868111251914
 20
276.6167274321172
 30
0.0
 40
20.94157751458919
100
AcDbArc
 50
-11.11912178003685
 51
-10.54320243878228
  0
ARC
  5
2D6
330
62
100
AcDbEntity
  8
1
  6
Continuous
 62
     7
100
AcDbCircle
 10
374.059447994536
 20
274.1850241461217
 30
0.0
 40
8.332242719613149
100
AcDbArc
 50
-12.56660082417099
 51
-11.11912178003627
  0
ARC
  5
2D7
330
62
100
AcDbEntity
  8
1
  6
Continuous
 62
     7
100
AcDbCircle
 10
364.1408592861612
 20
276.3960215041676
 30
0.0
 40
18.49427555183663
100
AcDbArc
 50
-13.21873037239532
 51
-12.56660082417126
  0
ARC
  5
2D8
330
62
100
AcDbEntity
  8
1
  6
Continuous
 62
     7
100
AcDbCircle
 10
374.5260277762631
 20
273.9566202027554
 30
0.0
 40
7.826454627339385
100
AcDbArc
 50
-14.70257036760823
 51
-13.21873037239483
  0
ARC
  5
2D9
330
62
100
AcDbEntity
  8
1
  6
Continuous
 62
     7
100
AcDbCircle
 10
365.9854384348967
 20
276.1976113899037
 30
0.0
 40
16.65616061331323
100
AcDbArc
 50
-15.37289078944837
 51
-14.70257036760803
  0
ARC
  5
2DA
330
62
100
AcDbEntity
  8
1
  6
Continuous
 62
     7
100
AcDbCircle
 10
375.1740789547528
 20
273.6713149173939
 30
0.0
 40
7.12655996742267
100
AcDbArc
 50
-16.93957213147017
 51
-15.37289078944835
  0
ARC
  5
2DB
330
62
100
AcDbEntity
  8
1
  6
Continuous
 62
     7
100
AcDbCircle
 10
368.582900484445
 20
275.6788415989354
 30
0.0
 40
14.01668311614423
100
AcDbArc
 50
-17.73608398752334
 51
-16.93957213147042
  0
ARC
  5
2DC
330
62
100
AcDbEntity
  8
1
  6
Continuous
 62
     7
100
AcDbCircle
 10
375.6546886162766
 20
273.4170378159696
 30
0.0
 40
6.591998359593945
100
AcDbArc
 50
-19.42981342019567
 51
-17.73608398752261
  0
ARC
  5
2DD
330
62
100
AcDbEntity
  8
1
  6
Continuous
 62
     7
100
AcDbCircle
 10
370.2171061657226
 20
275.3350937456531
 30
0.0
 40
12.35795374061853
100
AcDbArc
 50
-20.28817918890434
 51
-19.42981342019602
  0
ARC
  5
2DE
330
62
100
AcDbEntity
  8
1
  6
Continuous
 62
     7
100
AcDbCircle
 10
377.4046336519086
 20
272.6780322490637
 30
0.0
 40
4.695021719431361
100
AcDbArc
 50
-21.35848273784474
 51
-20.28817918890453
  0
ARC
  5
2DF
330
62
100
AcDbEntity
  8
1
  6
Continuous
 62
     7
100
AcDbCircle
 10
362.0199071905753
 20
278.6943841668224
 30
0.0
 40
21.21429224474099
100
AcDbArc
 50
-21.59535473440468
 51
-21.35848273784668
  0
ARC
  5
2E0
330
62
100
AcDbEntity
  8
1
  6
Continuous
 62
     7
100
AcDbCircle
 10
377.5773151490348
 20
272.5362296077748
 30
0.0
 40
4.482412196191263
100
AcDbArc
 50
-22.7164136542591
 51
-21.59535473440567
  0
ARC
  5
2E1
330
62
100
AcDbEntity
  8
1
  6
Continuous
 62
     7
100
AcDbCircle
 10
365.6128502869379
 20
277.5451013955682
 30
0.0
 40
17.45304117180013
100
AcDbArc
 50
-23.00431817506484
 51
-22.71641365425795
  0
ARC
  5
2E2
330
62
100
AcDbEntity
  8
1
  6
Continuous
 62
     7
100
AcDbCircle
 10
377.7326702699786
 20
272.3994649941949
 30
0.0
 40
4.286127699142716
100
AcDbArc
 50
-24.17664604532469
 51
-23.00431817506395
  0
ARC
  5
2E3
330
62
100
AcDbEntity
  8
1
  6
Continuous
 62
     7
100
AcDbCircle
 10
368.1353799627576
 20
276.7079571420547
 30
0.0
 40
14.8061602955392
100
AcDbArc
 50
-24.51600660339515
 51
-24.17664604532566
  0
ARC
  5
2E4
330
62
100
AcDbEntity
  8
1
  6
Continuous
 62
     7
100
AcDbCircle
 10
377.105291258122
 20
272.6171063214127
 30
0.0
 40
4.947439836805527
100
AcDbArc
 50
-26.54741418884952
 51
-24.5160066033928
  0
ARC
  5
2E5
330
62
100
AcDbEntity
  8
1
  6
Continuous
 62
     7
100
AcDbCircle
 10
371.3718312894437
 20
275.4816305279289
 30
0.0
 40
11.3566568047475
100
AcDbArc
 50
-26.98997870179855
 51
-26.5474141888517
  0
ARC
  5
2E6
330
62
100
AcDbEntity
  8
1
  6
Continuous
 62
     7
100
AcDbCircle
 10
378.149799210627
 20
272.0295765157704
 30
0.0
 40
3.750243323779535
100
AcDbArc
 50
-28.16261701958385
 51
-26.98997870179733
  0
ARC
  5
2E7
330
62
100
AcDbEntity
  8
1
  6
Continuous
 62
     7
100
AcDbCircle
 10
372.0051747626638
 20
275.3191353067067
 30
0.0
 40
10.72000706766169
100
AcDbArc
 50
-28.57288548022689
 51
-28.16261701958358
  0
ARC
  5
2E8
330
62
100
AcDbEntity
  8
1
  6
Continuous
 62
     7
100
AcDbCircle
 10
378.3377548723081
 20
271.8703872014013
 30
0.0
 40
3.509221095320566
100
AcDbArc
 50
-29.82621846911554
 51
-28.57288548022585
  0
ARC
  5
2E9
330
62
100
AcDbEntity
  8
1
  6
Continuous
 62
     7
100
AcDbCircle
 10
373.6224488820183
 20
274.5737345861651
 30
0.0
 40
8.944494562660813
100
AcDbArc
 50
-30.3179110650653
 51
-29.82621846911732
  0
ARC
  5
2EA
330
62
100
AcDbEntity
  8
1
  6
Continuous
 62
     7
100
AcDbCircle
 10
378.5009068524474
 20
271.7209477522406
 30
0.0
 40
3.293145618465602
100
AcDbArc
 50
-31.65331946382633
 51
-30.31791106506585
  0
ARC
  5
2EB
330
62
100
AcDbEntity
  8
1
  6
Continuous
 62
     7
100
AcDbCircle
 10
374.7865479176969
 20
274.0108041633232
 30
0.0
 40
7.656619541790582
100
AcDbArc
 50
-32.22763346536907
 51
-31.6533194638256
  0
ARC
  5
2EC
330
62
100
AcDbEntity
  8
1
  6
Continuous
 62
     7
100
AcDbCircle
 10
378.6410956634732
 20
271.5808688592656
 30
0.0
 40
3.100072174937625
100
AcDbArc
 50
-33.64607499287035
 51
-32.22763346536706
  0
ARC
  5
2ED
330
62
100
AcDbEntity
  8
1
  6
Continuous
 62
     7
100
AcDbCircle
 10
375.654968563377
 20
273.5683101426249
 30
0.0
 40
6.687115234719649
100
AcDbArc
 50
-34.30366880372561
 51
-33.64607499287223
  0
ARC
  5
2EE
330
62
100
AcDbEntity
  8
1
  6
Continuous
 62
     7
100
AcDbCircle
 10
378.7596437045464
 20
271.4501530323377
 30
0.0
 40
2.928711680541886
100
AcDbArc
 50
-35.80543944799264
 51
-34.30366880372635
  0
ARC
  5
2EF
330
62
100
AcDbEntity
  8
1
  6
Continuous
 62
     7
100
AcDbCircle
 10
376.3178961458999
 20
273.211549326034
 30
0.0
 40
5.93946707472505
100
AcDbArc
 50
-36.54618074241769
 51
-35.80543944799118
  0
ARC
  5
2F0
330
62
100
AcDbEntity
  8
1
  6
Continuous
 62
     7
100
AcDbCircle
 10
378.9643200664312
 20
271.2499957063085
 30
0.0
 40
2.645343189650589
100
AcDbArc
 50
-37.96802199846628
 51
-36.54618074241771
  0
ARC
  5
2F1
330
62
100
AcDbEntity
  8
1
  6
Continuous
 62
     7
100
AcDbCircle
 10
376.7349736592271
 20
272.989749141201
 30
0.0
 40
5.473191738907371
100
AcDbArc
 50
-38.65536970239142
 51
-37.96802199846628
  0
ARC
  5
2F2
330
62
100
AcDbEntity
  8
1
  6
Continuous
 62
     7
100
AcDbCircle
 10
379.1085890186298
 20
271.0911583943721
 30
0.0
 40
2.433669293137741
100
AcDbArc
 50
-40.20126148787863
 51
-38.6553697023939
  0
ARC
  5
2F3
330
62
100
AcDbEntity
  8
1
  6
Continuous
 62
     7
100
AcDbCircle
 10
377.4344167382411
 20
272.5060068472019
 30
0.0
 40
4.625620243523578
100
AcDbArc
 50
-41.01450796617307
 51
-40.20126148787393
  0
ARC
  5
2F4
330
62
100
AcDbEntity
  8
1
  6
Continuous
 62
     7
100
AcDbCircle
 10
379.2286684323913
 20
270.9454898284138
 30
0.0
 40
2.24768994431627
100
AcDbArc
 50
-42.68793323173845
 51
-41.01450796617555
  0
ARC
  5
2F5
330
62
100
AcDbEntity
  8
1
  6
Continuous
 62
     7
100
AcDbCircle
 10
377.9465890445002
 20
272.1280588036872
 30
0.0
 40
3.991879423167272
100
AcDbArc
 50
-43.63004584176585
 51
-42.68793323173678
  0
ARC
  5
2F6
330
62
100
AcDbEntity
  8
1
  6
Continuous
 62
     7
100
AcDbCircle
 10
379.3263627282981
 20
270.8127376872581
 30
0.0
 40
2.085614735925386
100
AcDbArc
 50
-45.43327125552236
 51
-43.63004584176421
  0
ARC
  5
2F7
330
62
100
AcDbEntity
  8
1
  6
Continuous
 62
     7
100
AcDbCircle
 10
378.3285150392242
 20
271.8257921281357
 30
0.0
 40
3.507577924890485
100
AcDbArc
 50
-46.50561555919616
 51
-45.43327125552374
  0
ARC
  5
2F8
330
62
100
AcDbEntity
  8
1
  6
Continuous
 62
     7
100
AcDbCircle
 10
379.2626342987664
 20
270.8412425795118
 30
0.0
 40
2.150405642259003
100
AcDbArc
 50
-50.00688665208173
 51
-46.50561555919521
  0
ARC
  5
2F9
330
62
100
AcDbEntity
  8
1
  6
Continuous
 62
     7
100
AcDbCircle
 10
378.7514326982362
 20
271.4506176556616
 30
0.0
 40
2.945808093736974
100
AcDbArc
 50
-51.09704498094228
 51
-50.0068866520823
  0
ARC
  5
2FA
330
62
100
AcDbEntity
  8
1
  6
Continuous
 62
     7
100
AcDbCircle
 10
379.5058291095866
 20
270.515782594283
 30
0.0
 40
1.744546033468177
100
AcDbArc
 50
-52.93887823697451
 51
-51.09704498094404
  0
ARC
  5
2FB
330
62
100
AcDbEntity
  8
1
  6
Continuous
 62
     7
100
AcDbCircle
 10
379.0058919507378
 20
271.1777511683906
 30
0.0
 40
2.574087808127037
100
AcDbArc
 50
-54.18724894651049
 51
-52.93887823697148
  0
ARC
  5
2FC
330
62
100
AcDbEntity
  8
1
  6
Continuous
 62
     7
100
AcDbCircle
 10
379.5747299259058
 20
270.389407717415
 30
0.0
 40
1.601944794630704
100
AcDbArc
 50
-56.19284998896802
 51
-54.18724894651094
  0
ARC
  5
2FD
330
62
100
AcDbEntity
  8
1
  6
Continuous
 62
     7
100
AcDbCircle
 10
379.2052209088301
 20
270.9412247209742
 30
0.0
 40
2.266052405728071
100
AcDbArc
 50
-57.61008995753735
 51
-56.19284998896564
  0
ARC
  5
2FE
330
62
100
AcDbEntity
  8
1
  6
Continuous
 62
     7
100
AcDbCircle
 10
379.6298635392357
 20
270.2718344723187
 30
0.0
 40
1.473332613775821
100
AcDbArc
 50
-59.7889955523613
 51
-57.61008995754084
  0
ARC
  5
2FF
330
62
100
AcDbEntity
  8
1
  6
Continuous
 62
     7
100
AcDbCircle
 10
379.3582475427292
 20
270.7383113755448
 30
0.0
 40
2.013125120950215
100
AcDbArc
 50
-61.3830658634637
 51
-59.78899555236093
  0
ARC
  5
300
330
62
100
AcDbEntity
  8
1
  6
Continuous
 62
     7
100
AcDbCircle
 10
379.6706795865542
 20
270.1656732326848
 30
0.0
 40
1.360799876408169
100
AcDbArc
 50
-63.741145779567
 51
-61.38306586346115
  0
ARC
  5
301
330
62
100
AcDbEntity
  8
1
  6
Continuous
 62
     7
100
AcDbCircle
 10
379.4722818967819
 20
270.5678272682759
 30
0.0
 40
1.809229928533618
100
AcDbArc
 50
-65.51525643849901
 51
-63.74114577956973
  0
ARC
  5
302
330
62
100
AcDbEntity
  8
1
  6
Continuous
 62
     7
100
AcDbCircle
 10
379.6656259695808
 20
270.1432728768365
 30
0.0
 40
1.342723377907624
100
AcDbArc
 50
-70.04962738611663
 51
-65.51525643849963
  0
ARC
  5
303
330
62
100
AcDbEntity
  8
1
  6
Continuous
 62
     7
100
AcDbCircle
 10
379.6105622712082
 20
270.2949678362738
 30
0.0
 40
1.504102966447098
100
AcDbArc
 50
-73.87752845379201
 51
-70.04962738611822
  0
ARC
  5
304
330
62
100
AcDbEntity
  8
1
  6
Continuous
 62
     7
100
AcDbCircle
 10
379.6795755091312
 20
270.0562173501555
 30
0.0
 40
1.255578075077297
100
AcDbArc
 50
-78.46420818880976
 51
-73.87752845379552
  0
ARC
  5
305
330
62
100
AcDbEntity
  8
1
  6
Continuous
 62
     7
100
AcDbCircle
 10
379.6559828492966
 20
270.1718093235543
 30
0.0
 40
1.373553148344026
100
AcDbArc
 50
-82.65276214343636
 51
-78.46420818881376
  0
ARC
  5
306
330
62
100
AcDbEntity
  8
1
  6
Continuous
 62
     7
100
AcDbCircle
 10
379.6852232941442
 20
269.9450355410403
 30
0.0
 40
1.14490199035306
100
AcDbArc
 50
-87.67188303364476
 51
-82.65276214342676
  0
ARC
  5
307
330
62
100
AcDbEntity
  8
1
  6
Continuous
 62
     7
100
AcDbCircle
 10
379.6784619660084
 20
270.1113426222745
 30
0.0
 40
1.311346458049646
100
AcDbArc
 50
-89.86141839596523
 51
-87.67188303364299
  0
ARC
  5
308
330
62
100
AcDbEntity
  8
1
  6
Continuous
 62
     7
100
AcDbCircle
 10
395.7350830408856
 20
274.9761004779336
 30
0.0
 40
6.176100484495425
100
AcDbArc
 50
-130.149000010245
 51
-90.00264112693446
  0
ARC
  5
309
330
62
100
AcDbEntity
  8
1
  6
Continuous
 62
     7
100
AcDbCircle
 10
396.0119491845138
 20
275.3043194760952
 30
0.0
 40
6.605498402797081
100
AcDbArc
 50
-150.6302373371278
 51
-130.1490000102461
  0
ARC
  5
30A
330
62
100
AcDbEntity
  8
1
  6
Continuous
 62
     7
100
AcDbCircle
 10
395.9880800584322
 20
275.2908865059997
 30
0.0
 40
6.578108991239268
100
AcDbArc
 50
-176.3667818461612
 51
-150.6302373371263
  0
ARC
  5
30B
330
62
100
AcDbEntity
  8
1
  6
Continuous
 62
     7
100
AcDbCircle
 10
395.3307636062204
 20
275.3202179186201
 30
0.0
 40
6.731528228500978
100
AcDbArc
 50
32.62772620543304
 51
32.9342578388674
  0
ARC
  5
30C
330
62
100
AcDbEntity
  8
1
  6
Continuous
 62
     7
100
AcDbCircle
 10
395.7610336388959
 20
274.9242206520698
 30
0.0
 40
6.120152712017559
100
AcDbArc
 50
-80.94134660033495
 51
-48.68274440452898
  0
ARC
  5
30D
330
62
100
AcDbEntity
  8
1
  6
Continuous
 62
     7
100
AcDbCircle
 10
395.7090319780239
 20
275.2503848673031
 30
0.0
 40
6.4504363295832
100
AcDbArc
 50
-89.77113051907014
 51
-80.94134660033483
  0
ARC
  5
30E
330
62
100
AcDbEntity
  8
1
  6
Continuous
 62
     7
100
AcDbCircle
 10
415.7530105768726
 20
272.7517465654213
 30
0.0
 40
3.951746572915548
100
AcDbArc
 50
-99.02097169911446
 51
-90.00352863529632
  0
ARC
  5
30F
330
62
100
AcDbEntity
  8
1
  6
Continuous
 62
     7
100
AcDbCircle
 10
415.7729481048978
 20
272.8773296440282
 30
0.0
 40
4.078902440480376
100
AcDbArc
 50
-109.1238567171105
 51
-99.02097169911548
  0
ARC
  5
310
330
62
100
AcDbEntity
  8
1
  6
Continuous
 62
     7
100
AcDbCircle
 10
415.8644192472218
 20
273.1411272580242
 30
0.0
 40
4.358108728067196
100
AcDbArc
 50
-115.0755106919947
 51
-109.1238567171092
  0
ARC
  5
311
330
62
100
AcDbEntity
  8
1
  6
Continuous
 62
     7
100
AcDbCircle
 10
415.8797432608842
 20
273.1738769562252
 30
0.0
 40
4.394266273987426
100
AcDbArc
 50
-118.7382803170659
 51
-115.075510691995
  0
ARC
  5
312
330
62
100
AcDbEntity
  8
1
  6
Continuous
 62
     7
100
AcDbCircle
 10
416.0365051171666
 20
273.4597547408057
 30
0.0
 40
4.720303675679035
100
AcDbArc
 50
-122.1480382599418
 51
-118.7382803170668
  0
ARC
  5
313
330
62
100
AcDbEntity
  8
1
  6
Continuous
 62
     7
100
AcDbCircle
 10
416.0553494184561
 20
273.4897392552501
 30
0.0
 40
4.755718062551421
100
AcDbArc
 50
-126.6607016086451
 51
-122.1480382599408
  0
ARC
  5
314
330
62
100
AcDbEntity
  8
1
  6
Continuous
 62
     7
100
AcDbCircle
 10
416.3028063477448
 20
273.822203852012
 30
0.0
 40
5.170166660031554
100
AcDbArc
 50
-129.9075011746985
 51
-126.6607016086456
  0
ARC
  5
315
330
62
100
AcDbEntity
  8
1
  6
Continuous
 62
     7
100
AcDbCircle
 10
416.2743857133613
 20
273.7882221963047
 30
0.0
 40
5.125866712137961
100
AcDbArc
 50
-133.1823414855963
 51
-129.9075011746978
  0
ARC
  5
316
330
62
100
AcDbEntity
  8
1
  6
Continuous
 62
     7
100
AcDbCircle
 10
416.5987819669399
 20
274.1338825437729
 30
0.0
 40
5.599906800260984
100
AcDbArc
 50
-137.1792411131281
 51
-133.182341485596
  0
ARC
  5
317
330
62
100
AcDbEntity
  8
1
  6
Continuous
 62
     7
100
AcDbCircle
 10
416.6746242141837
 20
274.2041642930213
 30
0.0
 40
5.703306852216365
100
AcDbArc
 50
-141.2797868927221
 51
-137.1792411131291
  0
ARC
  5
318
330
62
100
AcDbEntity
  8
1
  6
Continuous
 62
     7
100
AcDbCircle
 10
417.1090839296533
 20
274.5524838772466
 30
0.0
 40
6.260156721679313
100
AcDbArc
 50
-144.0816144404651
 51
-141.2797868927214
  0
ARC
  5
319
330
62
100
AcDbEntity
  8
1
  6
Continuous
 62
     7
100
AcDbCircle
 10
417.0030511775785
 20
274.4756770996472
 30
0.0
 40
6.129228399312678
100
AcDbArc
 50
-146.9433317509503
 51
-144.0816144404655
  0
ARC
  5
31A
330
62
100
AcDbEntity
  8
1
  6
Continuous
 62
     7
100
AcDbCircle
 10
417.4935870153216
 20
274.7949250122254
 30
0.0
 40
6.714501530248898
100
AcDbArc
 50
-150.5697905567996
 51
-146.9433317509493
  0
ARC
  5
31B
330
62
100
AcDbEntity
  8
1
  6
Continuous
 62
     7
100
AcDbCircle
 10
417.527984198568
 20
274.8143307302541
 30
0.0
 40
6.753995176668047
100
AcDbArc
 50
-154.1751101405438
 51
-150.5697905568001
  0
ARC
  5
31C
330
62
100
AcDbEntity
  8
1
  6
Continuous
 62
     7
100
AcDbCircle
 10
418.0655318283557
 20
275.0744795555822
 30
0.0
 40
7.351184313885244
100
AcDbArc
 50
-157.5430824948293
 51
-154.1751101405442
  0
ARC
  5
31D
330
62
100
AcDbEntity
  8
1
  6
Continuous
 62
     7
100
AcDbCircle
 10
418.0193413365518
 20
275.0553875059256
 30
0.0
 40
7.301203638687976
100
AcDbArc
 50
-160.9900280688038
 51
-157.5430824948296
  0
ARC
  5
31E
330
62
100
AcDbEntity
  8
1
  6
Continuous
 62
     7
100
AcDbCircle
 10
418.5777791993575
 20
275.2477818043874
 30
0.0
 40
7.891854476912764
100
AcDbArc
 50
-164.1790139531194
 51
-160.9900280688032
  0
ARC
  5
31F
330
62
100
AcDbEntity
  8
1
  6
Continuous
 62
     7
100
AcDbCircle
 10
418.5270959321196
 20
275.2334198327864
 30
0.0
 40
7.83917564049643
100
AcDbArc
 50
-169.1075420612181
 51
-164.1790139531186
  0
ARC
  5
320
330
62
100
AcDbEntity
  8
1
  6
Continuous
 62
     7
100
AcDbCircle
 10
419.0435816822101
 20
275.3328088051674
 30
0.0
 40
8.365137329098765
100
AcDbArc
 50
-174.5235231651749
 51
-169.107542061218
  0
ARC
  5
321
330
62
100
AcDbEntity
  8
1
  6
Continuous
 62
     7
100
AcDbCircle
 10
413.9375658504732
 20
274.8456455325761
 30
0.0
 40
6.803739692556746
100
AcDbArc
 50
-26.81033889346486
 51
-23.20129833447449
  0
ARC
  5
322
330
62
100
AcDbEntity
  8
1
  6
Continuous
 62
     7
100
AcDbCircle
 10
413.5283600290161
 20
275.052442956839
 30
0.0
 40
7.262231327154646
100
AcDbArc
 50
-29.32503805671776
 51
-26.81033889346454
  0
ARC
  5
323
330
62
100
AcDbEntity
  8
1
  6
Continuous
 62
     7
100
AcDbCircle
 10
414.32672545482
 20
274.6039623105165
 30
0.0
 40
6.346522725444894
100
AcDbArc
 50
-33.16183963553252
 51
-29.32503805671774
  0
ARC
  5
324
330
62
100
AcDbEntity
  8
1
  6
Continuous
 62
     7
100
AcDbCircle
 10
414.1016538887507
 20
274.7510310157288
 30
0.0
 40
6.615384053838803
100
AcDbArc
 50
-35.8132141730526
 51
-33.16183963553242
  0
ARC
  5
325
330
62
100
AcDbEntity
  8
1
  6
Continuous
 62
     7
100
AcDbCircle
 10
414.7441445385693
 20
274.2874268524612
 30
0.0
 40
5.823094299201493
100
AcDbArc
 50
-38.82538449375814
 51
-35.81321417305226
  0
ARC
  5
326
330
62
100
AcDbEntity
  8
1
  6
Continuous
 62
     7
100
AcDbCircle
 10
414.5323696406319
 20
274.4578527757739
 30
0.0
 40
6.094928076965311
100
AcDbArc
 50
-41.70306950928938
 51
-38.82538449375914
  0
ARC
  5
327
330
62
100
AcDbEntity
  8
1
  6
Continuous
 62
     7
100
AcDbCircle
 10
415.0287071781463
 20
274.0155844602391
 30
0.0
 40
5.430133210805927
100
AcDbArc
 50
-45.87129040375613
 51
-41.70306950928865
  0
ARC
  5
328
330
62
100
AcDbEntity
  8
1
  6
Continuous
 62
     7
100
AcDbCircle
 10
415.0224087314978
 20
274.0220774396445
 30
0.0
 40
5.439179160824775
100
AcDbArc
 50
-49.98620487583469
 51
-45.87129040375631
  0
ARC
  5
329
330
62
100
AcDbEntity
  8
1
  6
Continuous
 62
     7
100
AcDbCircle
 10
415.3996045405673
 20
273.5727727196495
 30
0.0
 40
4.852534967305906
100
AcDbArc
 50
-53.44559234082049
 51
-49.98620487583384
  0
ARC
  5
32A
330
62
100
AcDbEntity
  8
1
  6
Continuous
 62
     7
100
AcDbCircle
 10
415.3173074114409
 20
273.6837703143777
 30
0.0
 40
4.990713415328272
100
AcDbArc
 50
-57.74566779059612
 51
-53.44559234081991
  0
ARC
  5
32B
330
62
100
AcDbEntity
  8
1
  6
Continuous
 62
     7
100
AcDbCircle
 10
415.6094164089775
 20
273.2208831309303
 30
0.0
 40
4.443363243096927
100
AcDbArc
 50
-61.36801363239086
 51
-57.74566779059713
  0
ARC
  5
32C
330
62
100
AcDbEntity
  8
1
  6
Continuous
 62
     7
100
AcDbCircle
 10
415.503242862664
 20
273.4153607846591
 30
0.0
 40
4.664935758848887
100
AcDbArc
 50
-64.81819535854733
 51
-61.36801363239004
  0
ARC
  5
32D
330
62
100
AcDbEntity
  8
1
  6
Continuous
 62
     7
100
AcDbCircle
 10
415.6976878782471
 20
273.0018032462381
 30
0.0
 40
4.207947026307441
100
AcDbArc
 50
-70.98243723234845
 51
-64.81819535854886
  0
ARC
  5
32E
330
62
100
AcDbEntity
  8
1
  6
Continuous
 62
     7
100
AcDbCircle
 10
415.6810983857195
 20
273.0499346980521
 30
0.0
 40
4.258857220925415
100
AcDbArc
 50
-75.85448365097125
 51
-70.98243723234666
  0
ARC
  5
32F
330
62
100
AcDbEntity
  8
1
  6
Continuous
 62
     7
100
AcDbCircle
 10
415.7530113682637
 20
272.7645966753217
 30
0.0
 40
3.964596682840278
100
AcDbArc
 50
-90.00352863530063
 51
-75.85448365097111
  0
ARC
  5
330
330
62
100
AcDbEntity
  8
1
  6
Continuous
 62
     7
100
AcDbCircle
 10
412.8981134090722
 20
275.2911832993696
 30
0.0
 40
7.934653163859414
100
AcDbArc
 50
-23.20129833447433
 51
3.6535771969978
  0
ARC
  5
331
330
62
100
AcDbEntity
  8
1
  6
Continuous
 62
     7
100
AcDbCircle
 10
367.8631668479865
 20
275.324905206193
 30
0.0
 40
14.63479694756608
100
AcDbArc
 50
-9.17137269973231
 51
0.11750127835016
  0
ARC
  5
332
330
62
100
AcDbEntity
  8
1
  6
Continuous
 62
     7
100
AcDbCircle
 10
391.7467913654147
 20
275.3189250817488
 30
0.0
 40
14.88073584422104
100
AcDbArc
 50
178.9552823317368
 51
-177.8554285436832
  0
ARC
  5
333
330
62
100
AcDbEntity
  8
1
  6
Continuous
 62
     7
100
AcDbCircle
 10
395.4093263724468
 20
275.3243175521167
 30
0.0
 40
6.652858569597878
100
AcDbArc
 50
-48.68274440452898
 51
2.98715088743592
  0
ARC
  5
334
330
62
100
AcDbEntity
  8
1
  6
Continuous
 62
     7
100
AcDbCircle
 10
398.7205255283689
 20
304.3002357947154
 30
0.0
 40
3.308086704229119
100
AcDbArc
 50
-8.20094580508342
 51
-0.0040839443625
  0
ARC
  5
335
330
62
100
AcDbEntity
  8
1
  6
Continuous
 62
     7
100
AcDbCircle
 10
398.6023314901086
 20
304.3172698074112
 30
0.0
 40
3.427501897017955
100
AcDbArc
 50
-18.87930146771067
 51
-8.20094580508375
  0
ARC
  5
336
330
62
100
AcDbEntity
  8
1
  6
Continuous
 62
     7
100
AcDbCircle
 10
398.3201490593042
 20
304.4137685716004
 30
0.0
 40
3.725728213336467
100
AcDbArc
 50
-22.60833429667684
 51
-18.87930146771007
  0
ARC
  5
337
330
62
100
AcDbEntity
  8
1
  6
Continuous
 62
     7
100
AcDbCircle
 10
398.3662125899836
 20
304.3945863124982
 30
0.0
 40
3.675830238197813
100
AcDbArc
 50
-27.70304462905381
 51
-22.60833429667808
  0
ARC
  5
338
330
62
100
AcDbEntity
  8
1
  6
Continuous
 62
     7
100
AcDbCircle
 10
398.01390323493
 20
304.5795767413422
 30
0.0
 40
4.073754025401104
100
AcDbArc
 50
-31.26255722433591
 51
-27.70304462905235
  0
ARC
  5
339
330
62
100
AcDbEntity
  8
1
  6
Continuous
 62
     7
100
AcDbCircle
 10
398.0796897529547
 20
304.5396367724139
 30
0.0
 40
3.996792560551377
100
AcDbArc
 50
-34.89099171670674
 51
-31.2625572243358
  0
ARC
  5
33A
330
62
100
AcDbEntity
  8
1
  6
Continuous
 62
     7
100
AcDbCircle
 10
397.6839231925716
 20
304.8156348532262
 30
0.0
 40
4.479292416436898
100
AcDbArc
 50
-38.12846294756755
 51
-34.89099171670674
  0
ARC
  5
33B
330
62
100
AcDbEntity
  8
1
  6
Continuous
 62
     7
100
AcDbCircle
 10
397.7761872426006
 20
304.7432165544823
 30
0.0
 40
4.362001901386898
100
AcDbArc
 50
-41.63241390760251
 51
-38.12846294756938
  0
ARC
  5
33C
330
62
100
AcDbEntity
  8
1
  6
Continuous
 62
     7
100
AcDbCircle
 10
397.4389176020183
 20
305.032738441563
 30
0.0
 40
4.806221635651784
100
AcDbArc
 50
-47.90105868077828
 51
-44.72085786462818
  0
ARC
  5
33D
330
62
100
AcDbEntity
  8
1
  6
Continuous
 62
     7
100
AcDbCircle
 10
396.9898535890374
 20
305.5297458933229
 30
0.0
 40
5.476053625675776
100
AcDbArc
 50
-50.79488567602846
 51
-47.9010586807779
  0
ARC
  5
33E
330
62
100
AcDbEntity
  8
1
  6
Continuous
 62
     7
100
AcDbCircle
 10
397.1156430197314
 20
305.3755409185111
 30
0.0
 40
5.277050723357498
100
AcDbArc
 50
-53.85106107193982
 51
-50.79488567602925
  0
ARC
  5
33F
330
62
100
AcDbEntity
  8
1
  6
Continuous
 62
     7
100
AcDbCircle
 10
396.6641018122882
 20
305.9936487856586
 30
0.0
 40
6.042522341021522
100
AcDbArc
 50
-56.52019470947258
 51
-53.85106107193796
  0
ARC
  5
340
330
62
100
AcDbEntity
  8
1
  6
Continuous
 62
     7
100
AcDbCircle
 10
396.8074540548913
 20
305.7769012245268
 30
0.0
 40
5.782658202064289
100
AcDbArc
 50
-59.35556977330246
 51
-56.52019470947308
  0
ARC
  5
341
330
62
100
AcDbEntity
  8
1
  6
Continuous
 62
     7
100
AcDbCircle
 10
396.3840753474487
 20
306.4915301751286
 30
0.0
 40
6.613286919936519
100
AcDbArc
 50
-61.91557534034398
 51
-59.35556977330312
  0
ARC
  5
342
330
62
100
AcDbEntity
  8
1
  6
Continuous
 62
     7
100
AcDbCircle
 10
396.5513256227548
 20
306.1780932035906
 30
0.0
 40
6.258018866606522
100
AcDbArc
 50
-64.6210072704837
 51
-61.9155753403438
  0
ARC
  5
343
330
62
100
AcDbEntity
  8
1
  6
Continuous
 62
     7
100
AcDbCircle
 10
396.1485328994912
 20
307.0271760142979
 30
0.0
 40
7.197797349735782
100
AcDbArc
 50
-66.97318287053182
 51
-64.6210072704832
  0
ARC
  5
344
330
62
100
AcDbEntity
  8
1
  6
Continuous
 62
     7
100
AcDbCircle
 10
396.2903933397427
 20
306.6934081870625
 30
0.0
 40
6.835133115207801
100
AcDbArc
 50
-70.40769061526767
 51
-66.9731828705329
  0
ARC
  5
345
330
62
100
AcDbEntity
  8
1
  6
Continuous
 62
     7
100
AcDbCircle
 10
395.9893652507963
 20
307.5391524856401
 30
0.0
 40
7.732853187898144
100
AcDbArc
 50
-73.44340940465102
 51
-70.40769061526719
  0
ARC
  5
346
330
62
100
AcDbEntity
  8
1
  6
Continuous
 62
     7
100
AcDbCircle
 10
396.0896176815127
 20
307.2019294047992
 30
0.0
 40
7.38104364266613
100
AcDbArc
 50
-76.66774650651151
 51
-73.44340940465055
  0
ARC
  5
347
330
62
100
AcDbEntity
  8
1
  6
Continuous
 62
     7
100
AcDbCircle
 10
395.9000547366464
 20
308.0018255418686
 30
0.0
 40
8.203094699574919
100
AcDbArc
 50
-80.34343319794709
 51
-76.66774650651172
  0
ARC
  5
348
330
62
100
AcDbEntity
  8
1
  6
Continuous
 62
     7
100
AcDbCircle
 10
395.9359452977963
 20
307.790894469236
 30
0.0
 40
7.989131969685883
100
AcDbArc
 50
-85.66965580710424
 51
-80.34343319794741
  0
ARC
  5
349
330
62
100
AcDbEntity
  8
1
  6
Continuous
 62
     7
100
AcDbCircle
 10
395.9151793940528
 20
308.0651295624016
 30
0.0
 40
8.264152167274721
100
AcDbArc
 50
-109.0593715282393
 51
-85.66965580710411
  0
ARC
  5
34A
330
62
100
AcDbEntity
  8
1
  6
Continuous
 62
     7
100
AcDbCircle
 10
394.92009062808
 20
305.1848809834169
 30
0.0
 40
5.216852784393574
100
AcDbArc
 50
-113.5597549859634
 51
-109.0593715282404
  0
ARC
  5
34B
330
62
100
AcDbEntity
  8
1
  6
Continuous
 62
     7
100
AcDbCircle
 10
398.0956123559631
 20
312.467301851722
 30
0.0
 40
13.16151086057169
100
AcDbArc
 50
-114.8460548730233
 51
-113.5597549859618
  0
ARC
  5
34C
330
62
100
AcDbEntity
  8
1
  6
Continuous
 62
     7
100
AcDbCircle
 10
394.4518865392964
 20
304.5981746955831
 30
0.0
 40
4.48972326939262
100
AcDbArc
 50
-118.6173625161495
 51
-114.8460548730241
  0
ARC
  5
34D
330
62
100
AcDbEntity
  8
1
  6
Continuous
 62
     7
100
AcDbCircle
 10
397.7282935208118
 20
310.6031997331448
 30
0.0
 40
11.33042267882919
100
AcDbArc
 50
-120.1114923702032
 51
-118.6173625161505
  0
ARC
  5
34E
330
62
100
AcDbEntity
  8
1
  6
Continuous
 62
     7
100
AcDbCircle
 10
394.152647492007
 20
304.4377372140692
 30
0.0
 40
4.203139002881388
100
AcDbArc
 50
-124.0127431470259
 51
-120.111492370201
  0
ARC
  5
34F
330
62
100
AcDbEntity
  8
1
  6
Continuous
 62
     7
100
AcDbCircle
 10
397.4283514399609
 20
309.2918389097429
 30
0.0
 40
10.0591222360013
100
AcDbArc
 50
-125.6160010715587
 51
-124.0127431470266
  0
ARC
  5
350
330
62
100
AcDbEntity
  8
1
  6
Continuous
 62
     7
100
AcDbCircle
 10
393.8490966790674
 20
304.2953373899485
 30
0.0
 40
3.912896395643024
100
AcDbArc
 50
-129.7380521804713
 51
-125.6160010715582
  0
ARC
  5
351
330
62
100
AcDbEntity
  8
1
  6
Continuous
 62
     7
100
AcDbCircle
 10
396.8893028989889
 20
307.9523389325933
 30
0.0
 40
8.668578696066005
100
AcDbArc
 50
-131.5660034627186
 51
-129.738052180472
  0
ARC
  5
352
330
62
100
AcDbEntity
  8
1
  6
Continuous
 62
     7
100
AcDbCircle
 10
393.5264543040967
 20
304.1601416955624
 30
0.0
 40
3.600096619870877
100
AcDbArc
 50
-135.8120799918778
 51
-131.566003462721
  0
ARC
  5
353
330
62
100
AcDbEntity
  8
1
  6
Continuous
 62
     7
100
AcDbCircle
 10
396.3629996382227
 20
306.9173981405107
 30
0.0
 40
7.555909119947232
100
AcDbArc
 50
-137.8346482358947
 51
-135.8120799918745
  0
ARC
  5
354
330
62
100
AcDbEntity
  8
1
  6
Continuous
 62
     7
100
AcDbCircle
 10
393.2418029593057
 20
304.0907072470022
 30
0.0
 40
3.344965031511961
100
AcDbArc
 50
-142.4044749089328
 51
-137.8346482358965
  0
ARC
  5
355
330
62
100
AcDbEntity
  8
1
  6
Continuous
 62
     7
100
AcDbCircle
 10
395.8821816224157
 20
306.1237440530809
 30
0.0
 40
6.677357286256052
100
AcDbArc
 50
-144.5760704267905
 51
-142.4044749089345
  0
ARC
  5
356
330
62
100
AcDbEntity
  8
1
  6
Continuous
 62
     7
100
AcDbCircle
 10
392.9586025749611
 20
304.0442263185125
 30
0.0
 40
3.089640957572825
100
AcDbArc
 50
-149.2703806321687
 51
-144.5760704267933
  0
ARC
  5
357
330
62
100
AcDbEntity
  8
1
  6
Continuous
 62
     7
100
AcDbCircle
 10
395.3009074716753
 20
305.4366234498428
 30
0.0
 40
5.814556002213193
100
AcDbArc
 50
-151.7640175144445
 51
-149.2703806321678
  0
ARC
  5
358
330
62
100
AcDbEntity
  8
1
  6
Continuous
 62
     7
100
AcDbCircle
 10
392.8567860002571
 20
304.1241201062584
 30
0.0
 40
3.040318306202512
100
AcDbArc
 50
-157.924603559828
 51
-151.764017514441
  0
ARC
  5
359
330
62
100
AcDbEntity
  8
1
  6
Continuous
 62
     7
100
AcDbCircle
 10
394.8733632264039
 20
304.9419586561426
 30
0.0
 40
5.216425749021225
100
AcDbArc
 50
-160.5877606757826
 51
-157.9246035598268
  0
ARC
  5
35A
330
62
100
AcDbEntity
  8
1
  6
Continuous
 62
     7
100
AcDbCircle
 10
392.5084179203477
 20
304.1085620612274
 30
0.0
 40
2.708933738055976
100
AcDbArc
 50
-165.716678574499
 51
-160.5877606757838
  0
ARC
  5
35B
330
62
100
AcDbEntity
  8
1
  6
Continuous
 62
     7
100
AcDbCircle
 10
393.5086639323306
 20
304.3632115101387
 30
0.0
 40
3.741086065146641
100
AcDbArc
 50
-176.6149870025615
 51
-165.7166785745012
  0
ARC
  5
35C
330
62
100
AcDbEntity
  8
1
  6
Continuous
 62
     7
100
AcDbCircle
 10
392.9031474886089
 20
304.3273961478113
 30
0.0
 40
3.134511334551829
100
AcDbArc
 50
-179.4992190289057
 51
-176.6149870025603
  0
ARC
  5
35D
330
62
100
AcDbEntity
  8
1
  6
Continuous
 62
     7
100
AcDbCircle
 10
397.6091143138716
 20
303.7166802058753
 30
0.0
 40
4.579969507515433
100
AcDbArc
 50
42.23680230798118
 51
42.66618215493084
  0
ARC
  5
35E
330
62
100
AcDbEntity
  8
1
  6
Continuous
 62
     7
100
AcDbCircle
 10
397.3377688925808
 20
305.1329063389301
 30
0.0
 40
4.948575662935359
100
AcDbArc
 50
-44.72085786462883
 51
-41.63241390760273
  0
ARC
  5
35F
330
62
100
AcDbEntity
  8
1
  6
Continuous
 62
     7
100
AcDbCircle
 10
395.899462114699
 20
297.0068604375514
 30
0.0
 40
9.52661355057923
100
AcDbArc
 50
49.95632643948298
 51
130.0436735605173
  0
CIRCLE
  5
360
330
62
100
AcDbEntity
  8
1
  6
Continuous
 62
     7
100
AcDbCircle
 10
127.2660471074679
 20
589.356091817197
 30
0.0
 40
25.3653141687896
  0
CIRCLE
  5
361
330
62
100
AcDbEntity
  8
1
  6
Continuous
 62
     7
100
AcDbCircle
 10
127.2660471074679
 20
589.356091817197
 30
0.0
 40
17.9999999999999
  0
SPLINE
  5
362
330
62
100
AcDbEntity
  8
1
  6
Continuous
 62
     7
100
AcDbSpline
210
0.0
220
0.0
230
1.0
 70
     8
 71
     3
 72
    13
 73
     9
 74
     7
 42
0.0000000001
 43
0.0000000001
 44
0.00000001
 40
0.0
 40
0.0
 40
0.0
 40
0.0
 40
1.971401393750311
 40
3.933742210497657
 40
5.060587158797217
 40
6.183054079535022
 40
6.632348125212112
 40
7.082272531065601
 40
7.082272531065601
 40
7.082272531065601
 40
7.082272531065601
 10
377.1640134223411
 20
304.2999999999998
 30
0.0
 10
377.624438877795
 20
303.8311794241436
 30
0.0
 10
378.5431736695266
 20
302.8956929756497
 30
0.0
 10
379.849595863915
 20
301.815986364395
 30
0.0
 10
381.0646663917651
 20
301.1052136449406
 30
0.0
 10
381.9054794442809
 20
300.771007558581
 30
0.0
 10
382.5600933396061
 20
300.6093075450033
 30
0.0
 10
382.8536565706453
 20
300.5487610479571
 30
0.0
 10
383.0005410813903
 20
300.5184665776161
 30
0.0
 11
377.1640134223411
 21
304.2999999999998
 31
0.0
 11
378.5695977144003
 21
302.9176989281644
 31
0.0
 11
380.1031115070698
 21
301.6933146221702
 31
0.0
 11
381.0789535066029
 21
301.1298326531105
 31
0.0
 11
382.1250200462511
 21
300.7227985233632
 31
0.0
 11
382.5604883351632
 21
300.6121978505223
 31
0.0
 11
383.0005410813903
 21
300.5184665776161
 31
0.0
  0
SPLINE
  5
363
330
62
100
AcDbEntity
  8
1
  6
Continuous
 62
     7
100
AcDbSpline
210
0.0
220
0.0
230
1.0
 70
     8
 71
     3
 72
    15
 73
    11
 74
     9
 42
0.0000000001
 43
0.0000000001
 44
0.00000001
 40
0.0
 40
0.0
 40
0.0
 40
0.0
 40
2.086347154217019
 40
4.221283420764333
 40
6.388358410959445
 40
8.392895529137558
 40
9.59989477708125
 40
10.85330284932934
 40
12.53016050689391
 40
14.20427175684475
 40
14.20427175684475
 40
14.20427175684475
 40
14.20427175684475
 10
420.206586334944
 20
304.2999999999998
 30
0.0
 10
419.8392901036835
 20
303.7088694693642
 30
0.0
 10
419.0961436486963
 20
302.5128415200193
 30
0.0
 10
417.641881435746
 20
300.9257011329834
 30
0.0
 10
415.8288782640647
 20
299.8147289153591
 30
0.0
 10
413.9184915669965
 20
299.5650734394309
 30
0.0
 10
412.58435055027
 20
300.3282975446691
 30
0.0
 10
411.6292030752609
 20
301.3378728974066
 30
0.0
 10
410.8992274667942
 20
302.7085131996025
 30
0.0
 10
410.5504424108077
 20
303.7697943369648
 30
0.0
 10
410.3761928125103
 20
304.2999999999998
 30
0.0
 11
420.206586334944
 21
304.2999999999998
 31
0.0
 11
419.0514945865082
 21
302.5625859731757
 31
0.0
 11
417.5858007548738
 21
301.0102669163682
 31
0.0
 11
415.7059353270772
 21
299.9321574662175
 31
0.0
 11
413.7057594692395
 21
299.7999999999998
 31
0.0
 11
412.6384454742342
 21
300.3636382000913
 31
0.0
 11
411.7657388264221
 21
301.2633130871706
 31
0.0
 11
410.9444858276235
 21
302.7252963687772
 31
0.0
 11
410.3761928125103
 21
304.2999999999998
 31
0.0
  0
SPLINE
  5
364
330
62
100
AcDbEntity
  8
1
  6
Continuous
 62
     7
100
AcDbSpline
210
0.0
220
0.0
230
1.0
 70
     8
 71
     3
 72
    21
 73
    17
 74
    15
 42
0.0000000001
 43
0.0000000001
 44
0.00000001
 40
0.0
 40
0.0
 40
0.0
 40
0.0
 40
0.9014959766613456
 40
1.787678468032608
 40
2.405717806302028
 40
3.011352689802712
 40
3.50118662461783
 40
4.001527321123375
 40
4.976471576665659
 40
5.937126715177755
 40
7.117763697463875
 40
8.320230785428397
 40
9.244308290014233
 40
10.16222395538245
 40
10.84866160567178
 40
11.53659549265722
 40
11.53659549265722
 40
11.53659549265722
 40
11.53659549265722
 10
410.3761928125103
 20
304.2999999999998
 30
0.0
 10
410.4696952153484
 20
304.5855812836055
 30
0.0
 10
410.655111719238
 20
305.15189275342
 30
0.0
 10
411.0643078886023
 20
305.858561763197
 30
0.0
 10
411.6030798047262
 20
306.3237127363649
 30
0.0
 10
412.1396020899352
 20
306.5595565449337
 30
0.0
 10
412.6777608563381
 20
306.5721422822771
 30
0.0
 10
413.3292525544946
 20
306.5085463142567
 30
0.0
 10
414.1418898887877
 20
306.546639591175
 30
0.0
 10
415.1845369047649
 20
306.5731193102974
 30
0.0
 10
416.2784322476285
 20
306.2974063568198
 30
0.0
 10
417.290649249844
 20
305.8607123579082
 30
0.0
 10
418.2080444176182
 20
305.4262781100547
 30
0.0
 10
418.9549128968758
 20
305.0351043853177
 30
0.0
 10
419.6169851097056
 20
304.6534640916565
 30
0.0
 10
420.0099100047175
 20
304.4179068452336
 30
0.0
 10
420.206586334944
 20
304.2999999999998
 30
0.0
 11
410.3761928125103
 21
304.2999999999998
 31
0.0
 11
410.6868742551661
 21
305.1462694825678
 31
0.0
 11
411.1544327754006
 21
305.8990698798638
 31
0.0
 11
411.6242753991997
 21
306.3005926469768
 31
0.0
 11
412.1839366646168
 21
306.5320508075688
 31
0.0
 11
412.67283531225
 21
306.5623063201066
 31
0.0
 11
413.1722603982646
 21
306.5320508075688
 31
0.0
 11
414.1471391002098
 21
306.5433564658208
 31
0.0
 11
415.1077277099909
 21
306.5320508075688
 31
0.0
 11
416.258961281537
 21
306.2702017142215
 31
0.0
 11
417.3726362662665
 21
305.8167095687264
 31
0.0
 11
418.2071454159189
 21
305.4198295948955
 31
0.0
 11
419.0198424890123
 21
304.9931064573534
 31
0.0
 11
419.615547804707
 21
304.6520319426388
 31
0.0
 11
420.206586334944
 21
304.2999999999998
 31
0.0
  0
SPLINE
  5
365
330
62
100
AcDbEntity
  8
1
  6
Continuous
 62
     7
100
AcDbSpline
210
0.0
220
0.0
230
1.0
 70
     8
 71
     3
 72
    17
 73
    13
 74
    11
 42
0.0000000001
 43
0.0000000001
 44
0.00000001
 40
0.0
 40
0.0
 40
0.0
 40
0.0
 40
2.526810755374939
 40
4.916223913914273
 40
5.656990473130719
 40
6.487595215566676
 40
7.308171367825118
 40
7.912932530933948
 40
8.573410735086664
 40
9.449107164354219
 40
9.992043392423593
 40
10.49152112989815
 40
10.49152112989815
 40
10.49152112989815
 40
10.49152112989815
 10
377.1640134223411
 20
304.2999999999998
 30
0.0
 10
377.9100039015345
 20
304.6901029063189
 30
0.0
 10
379.3614209598011
 20
305.4490965242042
 30
0.0
 10
381.1188413610303
 20
306.1646533001526
 30
0.0
 10
382.4025109456298
 20
306.4700260204849
 30
0.0
 10
383.2102092803241
 20
306.5376481541065
 30
0.0
 10
383.922297728528
 20
306.5635922595593
 30
0.0
 10
384.7304930503923
 20
306.2915165886524
 30
0.0
 10
384.4682583692323
 20
305.4372475884301
 30
0.0
 10
384.0513830006922
 20
304.9266833491043
 30
0.0
 10
383.536184085045
 20
304.5286347210444
 30
0.0
 10
383.2251200018767
 20
304.3740635369861
 30
0.0
 10
383.0760721287611
 20
304.2999999999998
 30
0.0
 11
377.1640134223411
 21
304.2999999999998
 31
0.0
 11
379.4220284889187
 21
305.4340813694733
 31
0.0
 11
381.6555136932711
 21
306.2831037979992
 31
0.0
 11
382.3781368080028
 21
306.4460483570028
 31
0.0
 11
383.2043935869517
 21
306.530924580988
 31
0.0
 11
384.024349251886
 21
306.4990195782845
 31
0.0
 11
384.5614933527411
 21
306.2211486022519
 31
0.0
 11
384.4724638940627
 21
305.5666982881346
 31
0.0
 11
383.9478559359186
 21
304.8655344510153
 31
0.0
 11
383.5160813262515
 21
304.5363681796615
 31
0.0
 11
383.0760721287611
 21
304.2999999999998
 31
0.0
  0
SPLINE
  5
366
330
62
100
AcDbEntity
  8
1
  6
Continuous
 62
     7
100
AcDbSpline
210
0.0
220
0.0
230
1.0
 70
     8
 71
     3
 72
    17
 73
    13
 74
    11
 42
0.0000000001
 43
0.0000000001
 44
0.00000001
 40
0.0
 40
0.0
 40
0.0
 40
0.0
 40
2.5268107553749
 40
4.916223913914154
 40
5.656990473130684
 40
6.487595215566633
 40
7.308171367824862
 40
7.912932530933691
 40
8.573410735086407
 40
9.449107164354128
 40
9.992043392423319
 40
10.49152112989771
 40
10.49152112989771
 40
10.49152112989771
 40
10.49152112989771
 10
103.4300605298091
 20
304.3000000000001
 30
0.0
 10
104.1760510090025
 20
304.6901029063191
 30
0.0
 10
105.6274680672692
 20
305.4490965242042
 30
0.0
 10
107.3848884684984
 20
306.1646533001528
 30
0.0
 10
108.668558053098
 20
306.4700260204848
 30
0.0
 10
109.4762563877922
 20
306.5376481541068
 30
0.0
 10
110.1883448359957
 20
306.5635922595591
 30
0.0
 10
110.9965401578603
 20
306.2915165886526
 30
0.0
 10
110.7343054767
 20
305.43724758843
 30
0.0
 10
110.3174301081601
 20
304.9266833491045
 30
0.0
 10
109.8022311925128
 20
304.5286347210445
 30
0.0
 10
109.4911671093448
 20
304.3740635369865
 30
0.0
 10
109.3421192362291
 20
304.3000000000001
 30
0.0
 11
103.4300605298091
 21
304.3000000000001
 31
0.0
 11
105.6880755963868
 21
305.4340813694734
 31
0.0
 11
107.9215608007391
 21
306.2831037979992
 31
0.0
 11
108.6441839154709
 21
306.4460483570028
 31
0.0
 11
109.4704406944198
 21
306.5309245809881
 31
0.0
 11
110.2903963593538
 21
306.4990195782845
 31
0.0
 11
110.827540460209
 21
306.221148602252
 31
0.0
 11
110.7385110015306
 21
305.5666982881347
 31
0.0
 11
110.2139030433864
 21
304.8655344510153
 31
0.0
 11
109.7821284337194
 21
304.5363681796616
 31
0.0
 11
109.3421192362291
 21
304.3000000000001
 31
0.0
  0
SPLINE
  5
367
330
62
100
AcDbEntity
  8
1
  6
Continuous
 62
     7
100
AcDbSpline
210
0.0
220
0.0
230
1.0
 70
     8
 71
     3
 72
    21
 73
    17
 74
    15
 42
0.0000000001
 43
0.0000000001
 44
0.00000001
 40
0.0
 40
0.0
 40
0.0
 40
0.0
 40
0.9014959766612009
 40
1.787678468032306
 40
2.405717806301699
 40
3.011352689802405
 40
3.501186624617381
 40
4.00152732112287
 40
4.976471576665182
 40
5.937126715177334
 40
7.11776369746344
 40
8.320230785428066
 40
9.24430829001393
 40
10.16222395538217
 40
10.8486616056714
 40
11.53659549265675
 40
11.53659549265675
 40
11.53659549265675
 40
11.53659549265675
 10
136.6422399199783
 20
304.3000000000001
 30
0.0
 10
136.7357423228165
 20
304.5855812836057
 30
0.0
 10
136.9211588267062
 20
305.1518927534202
 30
0.0
 10
137.3303549960705
 20
305.858561763197
 30
0.0
 10
137.8691269121942
 20
306.3237127363651
 30
0.0
 10
138.4056491974033
 20
306.5595565449337
 30
0.0
 10
138.9438079638061
 20
306.5721422822774
 30
0.0
 10
139.5952996619623
 20
306.5085463142567
 30
0.0
 10
140.4079369962555
 20
306.5466395911751
 30
0.0
 10
141.4505840122327
 20
306.5731193102977
 30
0.0
 10
142.5444793550965
 20
306.2974063568198
 30
0.0
 10
143.556696357312
 20
305.8607123579082
 30
0.0
 10
144.4740915250862
 20
305.4262781100548
 30
0.0
 10
145.2209600043439
 20
305.0351043853179
 30
0.0
 10
145.8830322171736
 20
304.6534640916566
 30
0.0
 10
146.2759571121856
 20
304.4179068452339
 30
0.0
 10
146.472633442412
 20
304.3000000000001
 30
0.0
 11
136.6422399199783
 21
304.3000000000001
 31
0.0
 11
136.9529213626343
 21
305.1462694825679
 31
0.0
 11
137.4204798828687
 21
305.8990698798638
 31
0.0
 11
137.8903225066677
 21
306.3005926469769
 31
0.0
 11
138.4499837720848
 21
306.5320508075689
 31
0.0
 11
138.9388824197178
 21
306.5623063201067
 31
0.0
 11
139.4383075057324
 21
306.5320508075689
 31
0.0
 11
140.4131862076777
 21
306.5433564658209
 31
0.0
 11
141.3737748174588
 21
306.5320508075689
 31
0.0
 11
142.5250083890049
 21
306.2702017142215
 31
0.0
 11
143.6386833737345
 21
305.8167095687265
 31
0.0
 11
144.4731925233869
 21
305.4198295948956
 31
0.0
 11
145.2858895964804
 21
304.9931064573535
 31
0.0
 11
145.8815949121751
 21
304.652031942639
 31
0.0
 11
146.472633442412
 21
304.3000000000001
 31
0.0
  0
SPLINE
  5
368
330
62
100
AcDbEntity
  8
1
  6
Continuous
 62
     7
100
AcDbSpline
210
0.0
220
0.0
230
1.0
 70
     8
 71
     3
 72
    15
 73
    11
 74
     9
 42
0.0000000001
 43
0.0000000001
 44
0.00000001
 40
0.0
 40
0.0
 40
0.0
 40
0.0
 40
2.086347154216925
 40
4.221283420764383
 40
6.388358410959692
 40
8.392895529137906
 40
9.599894777081394
 40
10.85330284932928
 40
12.530160506894
 40
14.20427175684502
 40
14.20427175684502
 40
14.20427175684502
 40
14.20427175684502
 10
146.472633442412
 20
304.3000000000001
 30
0.0
 10
146.1053372111515
 20
303.7088694693645
 30
0.0
 10
145.3621907561643
 20
302.5128415200194
 30
0.0
 10
143.9079285432141
 20
300.9257011329835
 30
0.0
 10
142.0949253715326
 20
299.8147289153592
 30
0.0
 10
140.1845386744644
 20
299.5650734394313
 30
0.0
 10
138.8503976577381
 20
300.3282975446694
 30
0.0
 10
137.8952501827289
 20
301.3378728974067
 30
0.0
 10
137.165274574262
 20
302.7085131996026
 30
0.0
 10
136.8164895182757
 20
303.7697943369651
 30
0.0
 10
136.6422399199783
 20
304.3000000000001
 30
0.0
 11
146.472633442412
 21
304.3000000000001
 31
0.0
 11
145.3175416939764
 21
302.5625859731761
 31
0.0
 11
143.8518478623419
 21
301.0102669163684
 31
0.0
 11
141.9719824345451
 21
299.9321574662176
 31
0.0
 11
139.9718065767073
 21
299.8000000000001
 31
0.0
 11
138.9044925817021
 21
300.3636382000915
 31
0.0
 11
138.0317859338901
 21
301.2633130871706
 31
0.0
 11
137.2105329350914
 21
302.7252963687773
 31
0.0
 11
136.6422399199783
 21
304.3000000000001
 31
0.0
  0
SPLINE
  5
369
330
62
100
AcDbEntity
  8
1
  6
Continuous
 62
     7
100
AcDbSpline
210
0.0
220
0.0
230
1.0
 70
     8
 71
     3
 72
    13
 73
     9
 74
     7
 42
0.0000000001
 43
0.0000000001
 44
0.00000001
 40
0.0
 40
0.0
 40
0.0
 40
0.0
 40
1.971401393750291
 40
3.933742210497723
 40
5.060587158797438
 40
6.183054079535322
 40
6.632348125212357
 40
7.08227253106579
 40
7.08227253106579
 40
7.08227253106579
 40
7.08227253106579
 10
103.4300605298091
 20
304.3000000000001
 30
0.0
 10
103.890485985263
 20
303.831179424144
 30
0.0
 10
104.8092207769946
 20
302.8956929756499
 30
0.0
 10
106.115642971383
 20
301.8159863643953
 30
0.0
 10
107.330713499233
 20
301.1052136449406
 30
0.0
 10
108.171526551749
 20
300.7710075585808
 30
0.0
 10
108.8261404470741
 20
300.6093075450034
 30
0.0
 10
109.1197036781134
 20
300.5487610479573
 30
0.0
 10
109.2665881888583
 20
300.5184665776162
 30
0.0
 11
103.4300605298091
 21
304.3000000000001
 31
0.0
 11
104.8356448218683
 21
302.9176989281648
 31
0.0
 11
106.3691586145377
 21
301.6933146221703
 31
0.0
 11
107.345000614071
 21
301.1298326531105
 31
0.0
 11
108.3910671537192
 21
300.7227985233632
 31
0.0
 11
108.8265354426313
 21
300.6121978505224
 31
0.0
 11
109.2665881888583
 21
300.5184665776162
 31
0.0
  0
SPLINE
  5
36A
330
62
100
AcDbEntity
  8
1
  6
Continuous
 62
     7
100
AcDbSpline
210
0.0
220
0.0
230
1.0
 70
     8
 71
     3
 72
    33
 73
    29
 74
    27
 42
0.0000000001
 43
0.0000000001
 44
0.00000001
 40
0.0
 40
0.0
 40
0.0
 40
0.0
 40
1.291512534609007
 40
2.580878646701041
 40
3.742804428038361
 40
4.905003658701072
 40
5.551205723627705
 40
6.197325416233319
 40
6.647216363177857
 40
7.094117014734213
 40
7.373260247082678
 40
7.651150632534904
 40
8.065663423283739
 40
8.485467777655595
 40
8.925798409736645
 40
9.365658961499102
 40
9.924663035694303
 40
10.48345928137207
 40
10.84403682518118
 40
11.20447587952798
 40
11.9096144566185
 40
12.61517591015415
 40
13.323802812109
 40
14.03227831368603
 40
14.37138235736689
 40
14.71041787158267
 40
15.00635542471578
 40
15.30233969591025
 40
15.30233969591025
 40
15.30233969591025
 40
15.30233969591025
 10
108.7639801281332
 20
275.3549179952501
 30
0.0
 10
108.7442096659003
 20
274.9248647036793
 30
0.0
 10
108.7047015988511
 20
274.0654728453611
 30
0.0
 10
108.5712419828521
 20
272.8231264665517
 30
0.0
 10
108.3048541633749
 20
271.6454296908693
 30
0.0
 10
107.9602135552112
 20
270.71343202865
 30
0.0
 10
107.5847208033965
 20
269.9848525272013
 30
0.0
 10
107.2450993871799
 20
269.5100065598089
 30
0.0
 10
106.878902503447
 20
269.1458637578324
 30
0.0
 10
106.5449519546712
 20
268.9316375515184
 30
0.0
 10
106.2264718916975
 20
268.8225482381065
 30
0.0
 10
105.9020443479757
 20
268.78259870789
 30
0.0
 10
105.5307885437059
 20
268.8543739673976
 30
0.0
 10
105.1481627703999
 20
269.0481703749853
 30
0.0
 10
104.814645499611
 20
269.3300669693916
 30
0.0
 10
104.5080165471422
 20
269.7008523055478
 30
0.0
 10
104.2274974344128
 20
270.1392705591247
 30
0.0
 10
104.0087378086952
 20
270.5817130511762
 30
0.0
 10
103.8459574067675
 20
270.9761892775135
 30
0.0
 10
103.6853730743127
 20
271.4237831908992
 30
0.0
 10
103.5192679105371
 20
271.9909194265227
 30
0.0
 10
103.3669709697229
 20
272.6811947443905
 30
0.0
 10
103.2543344025664
 20
273.3800760419641
 30
0.0
 10
103.1912845503135
 20
273.9623256891532
 30
0.0
 10
103.1572929708451
 20
274.423308673497
 30
0.0
 10
103.1416129552512
 20
274.7476689742203
 30
0.0
 10
103.1348868930238
 20
275.0579350633888
 30
0.0
 10
103.1330581520019
 20
275.2552338668712
 30
0.0
 10
103.1321437093232
 20
275.3538910546215
 30
0.0
 11
108.7639801281332
 21
275.3549179952501
 31
0.0
 11
108.6915168917813
 21
274.065439920047
 31
0.0
 11
108.5408836583821
 21
272.7849030794965
 31
0.0
 11
108.2802981358257
 21
271.6525750763232
 31
0.0
 11
107.8727436606337
 21
270.5641788242606
 31
0.0
 11
107.5711510611927
 21
269.9926729076877
 31
0.0
 11
107.190695229364
 21
269.4704430567596
 31
0.0
 11
106.8676650354334
 21
269.1573083286444
 31
0.0
 11
106.4881660269946
 21
268.9212983819144
 31
0.0
 11
106.2237387746991
 21
268.8318602893062
 31
0.0
 11
105.9476808309769
 21
268.8000000000001
 31
0.0
 11
105.5394784871721
 21
268.8720534538148
 31
0.0
 11
105.1632636489944
 21
269.0583276911224
 31
0.0
 11
104.8241064979957
 21
269.3391541365925
 31
0.0
 11
104.5397861657976
 21
269.6747718561716
 31
0.0
 11
104.2364385087008
 21
270.1443096649801
 31
0.0
 11
103.9864651623832
 21
270.6440761807796
 31
0.0
 11
103.848570945993
 21
270.9772448320443
 31
0.0
 11
103.7264800191335
 21
271.3163762482785
 31
0.0
 11
103.5270347617556
 21
271.9927208366436
 31
0.0
 11
103.3738081767291
 21
272.6814432613957
 31
0.0
 11
103.2604079646319
 21
273.3809377060273
 31
0.0
 11
103.18347969971
 21
274.08522428008
 31
0.0
 11
103.1587185148797
 21
274.4234230916783
 31
0.0
 11
103.1425253106112
 21
274.7620716706434
 31
0.0
 11
103.1354990908836
 21
275.0579258029295
 31
0.0
 11
103.1321437093232
 21
275.3538910546215
 31
0.0
  0
SPLINE
  5
36B
330
62
100
AcDbEntity
  8
1
  6
Continuous
 62
     7
100
AcDbSpline
210
0.0
220
0.0
230
1.0
 70
     8
 71
     3
 72
    25
 73
    21
 74
    19
 42
0.0000000001
 43
0.0000000001
 44
0.00000001
 40
0.0
 40
0.0
 40
0.0
 40
0.0
 40
1.849756111608067
 40
3.647012557952931
 40
4.666948155284146
 40
5.697695750717273
 40
6.620534545252794
 40
7.539862145284587
 40
8.833260095553699
 40
10.13086265831234
 40
11.39982669219793
 40
12.66728381971512
 40
14.10274712667293
 40
15.5411112797019
 40
16.97875518607845
 40
18.41330630456118
 40
19.08587351519119
 40
19.75670873135555
 40
20.06340613124493
 40
20.3702986569654
 40
20.3702986569654
 40
20.3702986569654
 40
20.3702986569654
 10
128.3277839494216
 20
275.4015321379638
 30
0.0
 10
128.2386138380097
 20
274.7917011081819
 30
0.0
 10
128.0628044358552
 20
273.5893472357515
 30
0.0
 10
127.5595083286271
 20
272.0917171350593
 30
0.0
 10
126.8131267612416
 20
271.0374942574004
 30
0.0
 10
126.1100219950509
 20
270.3337376646367
 30
0.0
 10
125.3423274283408
 20
269.7562107168064
 30
0.0
 10
124.4214693310523
 20
269.2537032698996
 30
0.0
 10
123.299136300962
 20
268.8911547298646
 30
0.0
 10
122.010430869055
 20
268.7552280981491
 30
0.0
 10
120.7302457458765
 20
268.8877640363228
 30
0.0
 10
119.4594498083611
 20
269.2915915923079
 30
0.0
 10
118.2587725722091
 20
269.997949811784
 30
0.0
 10
117.2040431446799
 20
270.9915902455247
 30
0.0
 10
116.3953018986336
 20
272.1927766281397
 30
0.0
 10
115.9547505046013
 20
273.2997873238185
 30
0.0
 10
115.7524679967243
 20
274.2047351362128
 30
0.0
 10
115.6902943348664
 20
274.7525698391178
 30
0.0
 10
115.6772346746816
 20
275.1806003277112
 30
0.0
 10
115.6762796522406
 20
275.3851310449726
 30
0.0
 10
115.6758019891682
 20
275.4874289246932
 30
0.0
 11
128.3277839494216
 21
275.4015321379638
 31
0.0
 11
128.0043233721755
 21
273.5802768215957
 31
0.0
 11
127.3769292367128
 21
271.8960834441253
 31
0.0
 11
126.7936716652697
 21
271.0593760711103
 31
0.0
 11
126.0677762821187
 21
270.3275861434594
 31
0.0
 11
125.3291550391812
 21
269.7743501177153
 31
0.0
 11
124.5213803357931
 21
269.3354158803328
 31
0.0
 11
123.2913501826527
 21
268.935535798151
 31
0.0
 11
122.0008454525965
 21
268.8000000000001
 31
0.0
 11
120.738600990925
 21
268.9304171701691
 31
0.0
 11
119.5310445483565
 21
269.3154561397623
 31
0.0
 11
118.2920907406665
 21
270.0404032882033
 31
0.0
 11
117.2448811326391
 21
271.0264273617298
 31
0.0
 11
116.4402981703823
 21
272.217840916457
 31
0.0
 11
115.9103133792259
 21
273.5509024426751
 31
0.0
 11
115.7641735693585
 21
274.2074005834086
 31
0.0
 11
115.6892391417634
 21
274.8740374551816
 31
0.0
 11
115.6785567638942
 21
275.1805487631328
 31
0.0
 11
115.6758019891682
 21
275.4874289246932
 31
0.0
  0
SPLINE
  5
36C
330
62
100
AcDbEntity
  8
1
  6
Continuous
 62
     7
100
AcDbSpline
210
0.0
220
0.0
230
1.0
 70
     8
 71
     3
 72
    27
 73
    23
 74
    21
 42
0.0000000001
 43
0.0000000001
 44
0.00000001
 40
0.0
 40
0.0
 40
0.0
 40
0.0
 40
1.21847695474604
 40
2.427193702073048
 40
3.440893712528366
 40
4.459168724033997
 40
5.32807883231315
 40
6.195994924258383
 40
7.23107663019424
 40
8.26418938807949
 40
8.934319719482048
 40
9.603991735655205
 40
10.95593099988874
 40
12.31958906270808
 40
13.53022066864438
 40
14.73793706648642
 40
15.38612213271471
 40
16.03376774678434
 40
16.59092491941323
 40
17.14725608089149
 40
17.93853330320652
 40
18.73249024891209
 40
18.73249024891209
 40
18.73249024891209
 40
18.73249024891209
 10
147.0826871070262
 20
275.7968091160666
 30
0.0
 10
147.072637882296
 20
275.3908010831731
 30
0.0
 10
147.0526199288327
 20
274.5820372107076
 30
0.0
 10
146.9124888512905
 20
273.4387279263792
 30
0.0
 10
146.5892926597311
 20
272.4028226412075
 30
0.0
 10
146.1680058126797
 20
271.5291284808056
 30
0.0
 10
145.6661390245685
 20
270.7571315411217
 30
0.0
 10
145.0555306262289
 20
270.0588627209451
 30
0.0
 10
144.2845258083059
 20
269.4452060451915
 30
0.0
 10
143.4584160631483
 20
269.0370669802049
 30
0.0
 10
142.6895991597461
 20
268.8370023250022
 30
0.0
 10
141.7911483089183
 20
268.7599949259717
 30
0.0
 10
140.6602729324809
 20
268.9757754274509
 30
0.0
 10
139.4883065340673
 20
269.5977120828214
 30
0.0
 10
138.5648735807992
 20
270.473346340642
 30
0.0
 10
137.9861960736932
 20
271.3239271052429
 30
0.0
 10
137.6125031110226
 20
272.0710374359248
 30
0.0
 10
137.3853029163853
 20
272.6462392562542
 30
0.0
 10
137.2106979189913
 20
273.207183700784
 30
0.0
 10
137.0696758175621
 20
273.8271165708091
 30
0.0
 10
136.9869376945152
 20
274.537459769864
 30
0.0
 10
136.9589531737227
 20
275.0651132863059
 30
0.0
 10
136.944937260425
 20
275.3293860245273
 30
0.0
 11
147.0826871070262
 21
275.7968091160666
 31
0.0
 11
147.0326731213501
 21
274.5793590388626
 31
0.0
 11
146.865757140172
 21
273.3822227765699
 31
0.0
 11
146.5667410046954
 21
272.4136273698485
 31
0.0
 11
146.1260222321226
 21
271.4956671514519
 31
0.0
 11
145.6493846998356
 21
270.7691539450441
 31
0.0
 11
145.0756069601754
 21
270.1179570100636
 31
0.0
 11
144.2637586248111
 21
269.4758538888056
 31
0.0
 11
143.3349280497515
 21
269.0235312900558
 31
0.0
 11
142.6861713702641
 21
268.8556342028682
 31
0.0
 11
142.0188143108748
 21
268.8000000000001
 31
0.0
 11
140.6881221241906
 21
269.0387427034992
 31
0.0
 11
139.4818757856499
 21
269.6747718561716
 31
0.0
 11
138.5977715232064
 21
270.5018078520153
 31
0.0
 11
137.9116063896271
 21
271.4956671514519
 31
0.0
 11
137.6210640659529
 21
272.0750884474321
 31
0.0
 11
137.3823785911044
 21
272.6771466551828
 31
0.0
 11
137.2176154993967
 21
273.2093846081914
 31
0.0
 11
137.0952011580571
 21
273.7520807388816
 31
0.0
 11
136.9953281543124
 21
274.5370297981699
 31
0.0
 11
136.944937260425
 21
275.3293860245273
 31
0.0
  0
SPLINE
  5
36D
330
62
100
AcDbEntity
  8
1
  6
Continuous
 62
     7
100
AcDbSpline
210
0.0
220
0.0
230
1.0
 70
     8
 71
     3
 72
    27
 73
    23
 74
    21
 42
0.0000000001
 43
0.0000000001
 44
0.00000001
 40
0.0
 40
0.0
 40
0.0
 40
0.0
 40
0.6526821237879954
 40
1.296422866426429
 40
2.230975535595393
 40
3.180816137800743
 40
3.893169215597312
 40
4.601058469573532
 40
5.887302562753271
 40
7.177936383064765
 40
7.756910216552178
 40
8.335094694286369
 40
9.494071020531768
 40
10.65410206830828
 40
11.50640749652184
 40
12.35903687661678
 40
13.44680886698592
 40
14.53329808389378
 40
14.95145207980041
 40
15.36634263183539
 40
16.03549179815985
 40
16.71465091786459
 40
16.71465091786459
 40
16.71465091786459
 40
16.71465091786459
 10
116.0357019814551
 20
304.2474878219271
 30
0.0
 10
116.0651789704635
 20
304.0319648949823
 30
0.0
 10
116.1237291301678
 20
303.6038715850125
 30
0.0
 10
116.3060872555948
 20
302.878467615315
 30
0.0
 10
116.7350000053071
 20
302.137928835063
 30
0.0
 10
117.3316870481783
 20
301.50447283907
 30
0.0
 10
117.9533314890499
 20
301.0138117608702
 30
0.0
 10
118.7265017447517
 20
300.5450654291366
 30
0.0
 10
119.7467502715963
 20
300.1290069948066
 30
0.0
 10
120.7786922115917
 20
299.9023759073003
 30
0.0
 10
121.5904903245413
 20
299.815421762153
 30
0.0
 10
122.3625813746696
 20
299.7870742300746
 30
0.0
 10
123.3294517373485
 20
299.8540462485778
 30
0.0
 10
124.3665958316091
 20
300.0773634716083
 30
0.0
 10
125.2682033823648
 20
300.3985558252908
 30
0.0
 10
126.1012087433675
 20
300.8200371258597
 30
0.0
 10
126.9224812713108
 20
301.4163048117824
 30
0.0
 10
127.5090545152925
 20
302.0618694122791
 30
0.0
 10
127.8548026156372
 20
302.6012973081153
 30
0.0
 10
128.0727470432228
 20
303.0542815622756
 30
0.0
 10
128.2148548293814
 20
303.629033595133
 30
0.0
 10
128.2679264947427
 20
304.0752403064079
 30
0.0
 10
128.2946593316626
 20
304.3000000000001
 30
0.0
 11
116.0357019814551
 21
304.2474878219271
 31
0.0
 11
116.1361516315316
 21
303.6025817648057
 31
0.0
 11
116.3054002292346
 21
302.9814883290746
 31
0.0
 11
116.7602741665278
 21
302.1651070501233
 31
0.0
 11
117.4039007067364
 21
301.4665785637056
 31
0.0
 11
117.9628576654086
 21
301.0249746395856
 31
0.0
 11
118.5675452457454
 21
300.6569255585089
 31
0.0
 11
119.7559116967744
 21
300.1647781768145
 31
0.0
 11
121.0155447711003
 21
299.8836017620923
 31
0.0
 11
121.5912469581566
 21
299.8221388327632
 31
0.0
 11
122.1690443826726
 21
299.8009863739126
 31
0.0
 11
123.3252262566587
 21
299.8814201918207
 31
0.0
 11
124.4589834067675
 21
300.1269130764073
 31
0.0
 11
125.2611044288978
 21
300.4150561117541
 31
0.0
 11
126.0209725204944
 21
300.8018084138474
 31
0.0
 11
126.8983071874961
 21
301.4448727847378
 31
0.0
 11
127.6240732681119
 21
302.2534038074479
 31
0.0
 11
127.8480363498857
 21
302.6065231956087
 31
0.0
 11
128.0256182150995
 21
302.9814883290746
 31
0.0
 11
128.200354334178
 21
303.6274201331237
 31
0.0
 11
128.2946593316626
 21
304.3000000000001
 31
0.0
  0
ARC
  5
36E
330
62
100
AcDbEntity
  8
1
  6
Continuous
 62
     7
100
AcDbCircle
 10
149.7415206430345
 20
304.5580010517809
 30
0.0
 40
0.9999999999999704
100
AcDbArc
 50
0.36481505282889
 51
68.08844826161733
  0
ARC
  5
36F
330
62
100
AcDbEntity
  8
1
  6
Continuous
 62
     7
100
AcDbCircle
 10
149.368345801528
 20
303.6302400169952
 30
0.0
 40
2.000000000000038
100
AcDbArc
 50
68.08844826161658
 51
74.99999999999805
  0
ARC
  5
370
330
62
100
AcDbEntity
  8
1
  6
Continuous
 62
     7
100
AcDbCircle
 10
105.163748413408
 20
303.6302400169952
 30
0.0
 40
2.00000000000001
100
AcDbArc
 50
105.0000000000016
 51
178.132321160562
  0
ARC
  5
371
330
62
100
AcDbEntity
  8
1
  6
Continuous
 62
     7
100
AcDbCircle
 10
105.8986079791092
 20
264.8000000000001
 30
0.0
 40
4.000000000000037
100
AcDbArc
 50
178.132321160567
 51
-90.0
  0
ARC
  5
372
330
62
100
AcDbEntity
  8
1
  6
Continuous
 62
     7
100
AcDbCircle
 10
148.6334862358269
 20
264.8000000000001
 30
0.0
 40
4.0
100
AcDbArc
 50
-90.0
 51
1.86767883943306
  0
ARC
  5
373
330
62
100
AcDbEntity
  8
1
  6
Continuous
 62
     7
100
AcDbCircle
 10
422.3674391283589
 20
264.8
 30
0.0
 40
4.0
100
AcDbArc
 50
-90.0
 51
1.86767883943392
  0
ARC
  5
374
330
62
100
AcDbEntity
  8
1
  6
Continuous
 62
     7
100
AcDbCircle
 10
379.6325608716411
 20
264.8
 30
0.0
 40
3.99999999999984
100
AcDbArc
 50
178.1323211605661
 51
-89.99999999999837
  0
ARC
  5
375
330
62
100
AcDbEntity
  8
1
  6
Continuous
 62
     7
100
AcDbCircle
 10
378.8977013059401
 20
303.6302400169952
 30
0.0
 40
2.000000000000036
100
AcDbArc
 50
105.0000000000043
 51
178.132321160562
  0
ARC
  5
376
330
62
100
AcDbEntity
  8
1
  6
Continuous
 62
     7
100
AcDbCircle
 10
423.10229869406
 20
303.6302400169952
 30
0.0
 40
2.000000000000049
100
AcDbArc
 50
68.08844826161582
 51
74.99999999999727
  0
ARC
  5
377
330
62
100
AcDbEntity
  8
1
  6
Continuous
 62
     7
100
AcDbCircle
 10
423.4754735355665
 20
304.5580010517809
 30
0.0
 40
0.9999999999999704
100
AcDbArc
 50
0.36481505282889
 51
68.08844826161582
  0
ENDBLK
  5
64
330
62
100
AcDbEntity
  8
0
100
AcDbBlockEnd
  0
BLOCK
  5
68
330
65
100
AcDbEntity
  8
0
100
AcDbBlockBegin
  2
81-8-2WC
 70
     0
 71
     0
 10
375.6325608716412
 20
260.8
 30
0.0
  3
81-8-2WC
  1

  0
INSERT
  5
66
330
65
100
AcDbEntity
  8
1
100
AcDbBlockReference
  2
84-34X
 10
388.5
 20
301.3000000000001
 30
0.0
  0
INSERT
  5
67
330
65
100
AcDbEntity
  8
0
100
AcDbBlockReference
  2
81-8-I
 10
433.506516706648
 20
259.0
 30
0.0
  0
ENDBLK
  5
69
330
65
100
AcDbEntity
  8
0
100
AcDbBlockEnd
  0
BLOCK
  5
6C
330
6A
100
AcDbEntity
  8
0
100
AcDbBlockBegin
  2
R281F
 70
     0
 71
     0
 10
345.5133891361909
 20
208.0
 30
0.0
  3
R281F
  1

  0
INSERT
  5
6B
330
6A
100
AcDbEntity
  8
1
100
AcDbBlockReference
  2
81-8-2WC
 10
375.6325608716412
 20
260.8
 30
0.0
  0
LINE
  5
378
330
6A
100
AcDbEntity
  8
1
  6
PHANTOM
 62
     4
100
AcDbLine
 10
98.90073293867832
 20
589.3560918171968
 30
0.0
 11
155.6313612762577
 21
589.3560918171968
 31
0.0
  0
ENDBLK
  5
6D
330
6A
100
AcDbEntity
  8
0
100
AcDbBlockEnd
  0
BLOCK
  5
39E
330
397
100
AcDbEntity
  8
0
100
AcDbBlockBegin
  2
*D016
 70
     1
 71
     0
 10
0.0
 20
0.0
 30
0.0
  3
*D016
  1

  0
LINE
  5
398
330
397
100
AcDbEntity
  8
1
  6
Continuous
 62
     2
100
AcDbLine
 10
485.0
 20
217.5000000000001
 30
0.0
 11
485.0
 21
263.5000000000001
 31
0.0
  0
LINE
  5
399
330
397
100
AcDbEntity
  8
1
  6
Continuous
 62
     2
100
AcDbLine
 10
446.0
 20
217.5000000000001
 30
0.0
 11
487.5
 21
217.5000000000001
 31
0.0
  0
LINE
  5
39A
330
397
100
AcDbEntity
  8
1
  6
Continuous
 62
     2
100
AcDbLine
 10
446.0
 20
263.5000000000001
 30
0.0
 11
487.5
 21
263.5000000000001
 31
0.0
  0
SOLID
  5
39B
330
397
100
AcDbEntity
  8
1
 62
     2
100
AcDbTrace
 10
483.8480406461103
 20
226.2500000000001
 30
0.0
 11
486.1519593538897
 21
226.2500000000001
 31
0.0
 12
485.0
 22
217.5000000000001
 32
0.0
 13
485.0
 23
217.5000000000001
 33
0.0
  0
SOLID
  5
39C
330
397
100
AcDbEntity
  8
1
 62
     2
100
AcDbTrace
 10
486.1519593538897
 20
254.7500000000001
 30
0.0
 11
483.8480406461103
 21
254.7500000000001
 31
0.0
 12
485.0
 22
263.5000000000001
 32
0.0
 13
485.0
 23
263.5000000000001
 33
0.0
  0
MTEXT
  5
39D
330
397
100
AcDbEntity
  8
1
 62
     7
100
AcDbMText
 10
482.5
 20
224.8375000000001
 30
0.0
 40
8.75
 41
0.0
 71
     7
 72
     1
  1
\C7;{\Fgdt;n}\C7;46
  7
CONVERTER_2
 11
0.0
 21
1.0
 31
0.0
 73
     1
 44
0.60024009603842
  0
ENDBLK
  5
39F
330
397
100
AcDbEntity
  8
0
100
AcDbBlockEnd
  0
BLOCK
  5
3A9
330
3A2
100
AcDbEntity
  8
0
100
AcDbBlockBegin
  2
*D117
 70
     1
 71
     0
 10
0.0
 20
0.0
 30
0.0
  3
*D117
  1

  0
LINE
  5
3A3
330
3A2
100
AcDbEntity
  8
1
  6
Continuous
 62
     2
100
AcDbLine
 10
313.9823990463881
 20
240.5
 30
0.0
 11
313.9823990463881
 21
308.3000000000001
 31
0.0
  0
LINE
  5
3A4
330
3A2
100
AcDbEntity
  8
1
  6
Continuous
 62
     2
100
AcDbLine
 10
359.3080591407294
 20
240.5
 30
0.0
 11
311.4823990463881
 21
240.5
 31
0.0
  0
LINE
  5
3A5
330
3A2
100
AcDbEntity
  8
1
  6
Continuous
 62
     2
100
AcDbLine
 10
401.0
 20
308.3000000000001
 30
0.0
 11
311.4823990463881
 21
308.3000000000001
 31
0.0
  0
SOLID
  5
3A6
330
3A2
100
AcDbEntity
  8
1
 62
     2
100
AcDbTrace
 10
312.8304396924984
 20
249.25
 30
0.0
 11
315.1343584002778
 21
249.25
 31
0.0
 12
313.9823990463881
 22
240.5
 32
0.0
 13
313.9823990463881
 23
240.5
 33
0.0
  0
SOLID
  5
3A7
330
3A2
100
AcDbEntity
  8
1
 62
     2
100
AcDbTrace
 10
315.1343584002778
 20
299.5500000000001
 30
0.0
 11
312.8304396924984
 21
299.5500000000001
 31
0.0
 12
313.9823990463881
 22
308.3000000000001
 32
0.0
 13
313.9823990463881
 23
308.3000000000001
 33
0.0
  0
MTEXT
  5
3A8
330
3A2
100
AcDbEntity
  8
1
 62
     7
100
AcDbMText
 10
311.4823990463881
 20
249.5701591212843
 30
0.0
 40
8.75
 41
0.0
 71
     7
 72
     1
  1
68リフト5
  7
CONVERTER_1
 11
0.0
 21
1.0
 31
0.0
 73
     1
 44
0.60024009603842
  0
ENDBLK
  5
3AA
330
3A2
100
AcDbEntity
  8
0
100
AcDbBlockEnd
  0
BLOCK
  5
3B4
330
3AD
100
AcDbEntity
  8
0
100
AcDbBlockBegin
  2
*D218
 70
     1
 71
     0
 10
0.0
 20
0.0
 30
0.0
  3
*D218
  1

  0
LINE
  5
3AE
330
3AD
100
AcDbEntity
  8
1
  6
Continuous
 62
     2
100
AcDbLine
 10
313.9823990463881
 20
162.5
 30
0.0
 11
313.9823990463881
 21
240.5
 31
0.0
  0
LINE
  5
3AF
330
3AD
100
AcDbEntity
  8
1
  6
Continuous
 62
     2
100
AcDbLine
 10
206.7456985872458
 20
162.5
 30
0.0
 11
316.4823990463881
 21
162.5
 31
0.0
  0
LINE
  5
3B0
330
3AD
100
AcDbEntity
  8
1
  6
Continuous
 62
     2
100
AcDbLine
 10
359.3080591407294
 20
240.5
 30
0.0
 11
311.4823990463881
 21
240.5
 31
0.0
  0
SOLID
  5
3B1
330
3AD
100
AcDbEntity
  8
1
 62
     2
100
AcDbTrace
 10
312.8304396924984
 20
171.25
 30
0.0
 11
315.1343584002778
 21
171.25
 31
0.0
 12
313.9823990463881
 22
162.5
 32
0.0
 13
313.9823990463881
 23
162.5
 33
0.0
  0
SOLID
  5
3B2
330
3AD
100
AcDbEntity
  8
1
 62
     2
100
AcDbTrace
 10
315.1343584002778
 20
231.75
 30
0.0
 11
312.8304396924984
 21
231.75
 31
0.0
 12
313.9823990463881
 22
240.5
 32
0.0
 13
313.9823990463881
 23
240.5
 33
0.0
  0
MTEXT
  5
3B3
330
3AD
100
AcDbEntity
  8
1
 62
     7
100
AcDbMText
 10
311.4823990463881
 20
202.678347937012
 30
0.0
 40
8.75
 41
0.0
 71
     7
 72
     1
  1
78
  7
CONVERTER_2
 11
0.0
 21
1.0
 31
0.0
 73
     1
 44
0.60024009603842
  0
ENDBLK
  5
3B5
330
3AD
100
AcDbEntity
  8
0
100
AcDbBlockEnd
  0
BLOCK
  5
3BF
330
3B8
100
AcDbEntity
  8
0
100
AcDbBlockBegin
  2
*D319
 70
     1
 71
     0
 10
0.0
 20
0.0
 30
0.0
  3
*D319
  1

  0
LINE
  5
3B9
330
3B8
100
AcDbEntity
  8
1
  6
Continuous
 62
     2
100
AcDbLine
 10
196.0
 20
137.5
 30
0.0
 11
366.0
 21
137.5
 31
0.0
  0
LINE
  5
3BA
330
3B8
100
AcDbEntity
  8
1
  6
Continuous
 62
     2
100
AcDbLine
 10
196.0
 20
160.5
 30
0.0
 11
196.0
 21
135.0
 31
0.0
  0
LINE
  5
3BB
330
3B8
100
AcDbEntity
  8
1
  6
Continuous
 62
     2
100
AcDbLine
 10
366.0
 20
207.0
 30
0.0
 11
366.0
 21
135.0
 31
0.0
  0
SOLID
  5
3BC
330
3B8
100
AcDbEntity
  8
1
 62
     2
100
AcDbTrace
 10
204.75
 20
138.6519593538897
 30
0.0
 11
204.75
 21
136.3480406461103
 31
0.0
 12
196.0
 22
137.5
 32
0.0
 13
196.0
 23
137.5
 33
0.0
  0
SOLID
  5
3BD
330
3B8
100
AcDbEntity
  8
1
 62
     2
100
AcDbTrace
 10
357.25
 20
136.3480406461103
 30
0.0
 11
357.25
 21
138.6519593538897
 31
0.0
 12
366.0
 22
137.5
 32
0.0
 13
366.0
 23
137.5
 33
0.0
  0
MTEXT
  5
3BE
330
3B8
100
AcDbEntity
  8
1
 62
     7
100
AcDbMText
 10
271.8125000000001
 20
140.0
 30
0.0
 40
8.75
 41
0.0
 71
     7
 72
     1
  1
170
  7
CONVERTER_2
 11
0.9999999999970621
 21
2.424068405545307E-6
 31
0.0
 73
     1
 44
0.60024009603842
  0
ENDBLK
  5
3C0
330
3B8
100
AcDbEntity
  8
0
100
AcDbBlockEnd
  0
BLOCK
  5
3CA
330
3C3
100
AcDbEntity
  8
0
100
AcDbBlockBegin
  2
*D420
 70
     1
 71
     0
 10
0.0
 20
0.0
 30
0.0
  3
*D420
  1

  0
LINE
  5
3C4
330
3C3
100
AcDbEntity
  8
1
  6
Continuous
 62
     2
100
AcDbLine
 10
366.0000000000001
 20
137.5
 30
0.0
 11
401.0
 21
137.5
 31
0.0
  0
LINE
  5
3C5
330
3C3
100
AcDbEntity
  8
1
  6
Continuous
 62
     2
100
AcDbLine
 10
366.0
 20
207.0
 30
0.0
 11
366.0
 21
135.0
 31
0.0
  0
LINE
  5
3C6
330
3C3
100
AcDbEntity
  8
1
  6
Continuous
 62
     2
100
AcDbLine
 10
401.0
 20
222.596667389088
 30
0.0
 11
401.0
 21
135.0
 31
0.0
  0
SOLID
  5
3C7
330
3C3
100
AcDbEntity
  8
1
 62
     2
100
AcDbTrace
 10
374.7500000000001
 20
138.6519593538897
 30
0.0
 11
374.7500000000001
 21
136.3480406461103
 31
0.0
 12
366.0000000000001
 22
137.5
 32
0.0
 13
366.0000000000001
 23
137.5
 33
0.0
  0
SOLID
  5
3C8
330
3C3
100
AcDbEntity
  8
1
 62
     2
100
AcDbTrace
 10
392.25
 20
136.3480406461103
 30
0.0
 11
392.25
 21
138.6519593538897
 31
0.0
 12
401.0
 22
137.5
 32
0.0
 13
401.0
 23
137.5
 33
0.0
  0
MTEXT
  5
3C9
330
3C3
100
AcDbEntity
  8
1
 62
     7
100
AcDbMText
 10
376.9375
 20
140.0
 30
0.0
 40
8.75
 41
0.0
 71
     7
 72
     1
  1
35
  7
CONVERTER_2
 11
0.9999999999970621
 21
2.424068405545307E-6
 31
0.0
 73
     1
 44
0.60024009603842
  0
ENDBLK
  5
3CB
330
3C3
100
AcDbEntity
  8
0
100
AcDbBlockEnd
  0
BLOCK
  5
3D5
330
3CE
100
AcDbEntity
  8
0
100
AcDbBlockBegin
  2
*D521
 70
     1
 71
     0
 10
0.0
 20
0.0
 30
0.0
  3
*D521
  1

  0
LINE
  5
3CF
330
3CE
100
AcDbEntity
  8
1
  6
Continuous
 62
     2
100
AcDbLine
 10
401.0
 20
137.5
 30
0.0
 11
446.0
 21
137.5
 31
0.0
  0
LINE
  5
3D0
330
3CE
100
AcDbEntity
  8
1
  6
Continuous
 62
     2
100
AcDbLine
 10
401.0
 20
222.596667389088
 30
0.0
 11
401.0
 21
135.0
 31
0.0
  0
LINE
  5
3D1
330
3CE
100
AcDbEntity
  8
1
  6
Continuous
 62
     2
100
AcDbLine
 10
446.0
 20
217.5
 30
0.0
 11
446.0
 21
135.0
 31
0.0
  0
SOLID
  5
3D2
330
3CE
100
AcDbEntity
  8
1
 62
     2
100
AcDbTrace
 10
409.75
 20
138.6519593538897
 30
0.0
 11
409.75
 21
136.3480406461103
 31
0.0
 12
401.0
 22
137.5
 32
0.0
 13
401.0
 23
137.5
 33
0.0
  0
SOLID
  5
3D3
330
3CE
100
AcDbEntity
  8
1
 62
     2
100
AcDbTrace
 10
437.25
 20
136.3480406461103
 30
0.0
 11
437.25
 21
138.6519593538897
 31
0.0
 12
446.0
 22
137.5
 32
0.0
 13
446.0
 23
137.5
 33
0.0
  0
MTEXT
  5
3D4
330
3CE
100
AcDbEntity
  8
1
 62
     7
100
AcDbMText
 10
416.9375
 20
140.0
 30
0.0
 40
8.75
 41
0.0
 71
     7
 72
     1
  1
45
  7
CONVERTER_2
 11
0.9999999999970621
 21
2.424068405545307E-6
 31
0.0
 73
     1
 44
0.60024009603842
  0
ENDBLK
  5
3D6
330
3CE
100
AcDbEntity
  8
0
100
AcDbBlockEnd
  0
BLOCK
  5
3E0
330
3D9
100
AcDbEntity
  8
0
100
AcDbBlockBegin
  2
*D622
 70
     1
 71
     0
 10
0.0
 20
0.0
 30
0.0
  3
*D622
  1

  0
LINE
  5
3DA
330
3D9
100
AcDbEntity
  8
1
  6
Continuous
 62
     2
100
AcDbLine
 10
459.9999999999999
 20
137.5
 30
0.0
 11
477.4999999999999
 21
137.5
 31
0.0
  0
LINE
  5
3DB
330
3D9
100
AcDbEntity
  8
1
  6
Continuous
 62
     2
100
AcDbLine
 10
446.0000000000001
 20
137.5
 30
0.0
 11
459.9999999999999
 21
137.5
 31
0.0
  0
LINE
  5
3DC
330
3D9
100
AcDbEntity
  8
1
  6
Continuous
 62
     2
100
AcDbLine
 10
446.0000000000001
 20
217.5
 30
0.0
 11
446.0000000000001
 21
135.0
 31
0.0
  0
LINE
  5
3DD
330
3D9
100
AcDbEntity
  8
1
  6
Continuous
 62
     2
100
AcDbLine
 10
459.9999999999999
 20
231.0
 30
0.0
 11
459.9999999999999
 21
135.0
 31
0.0
  0
SOLID
  5
3DE
330
3D9
100
AcDbEntity
  8
1
 62
     2
100
AcDbTrace
 10
468.7499999999999
 20
138.6519593538897
 30
0.0
 11
468.7499999999999
 21
136.3480406461103
 31
0.0
 12
459.9999999999999
 22
137.5
 32
0.0
 13
459.9999999999999
 23
137.5
 33
0.0
  0
MTEXT
  5
3DF
330
3D9
100
AcDbEntity
  8
1
 62
     7
100
AcDbMText
 10
466.2854756036101
 20
140.0
 30
0.0
 40
8.75
 41
0.0
 71
     7
 72
     1
  1
14
  7
CONVERTER_2
 11
0.9999999999970621
 21
2.424068405545307E-6
 31
0.0
 73
     1
 44
0.60024009603842
  0
ENDBLK
  5
3E1
330
3D9
100
AcDbEntity
  8
0
100
AcDbBlockEnd
  0
BLOCK
  5
3E3
330
3E2
100
AcDbEntity
  8
0
100
AcDbBlockBegin
  2
_None
 70
     0
 71
     0
 10
0.0
 20
0.0
 30
0.0
  3
_None
  1

  0
ENDBLK
  5
3E4
330
3E2
100
AcDbEntity
  8
0
100
AcDbBlockEnd
  0
ENDSEC
  0
SECTION
  2
ENTITIES
  0
INSERT
  5
6E
330
1F
100
AcDbEntity
  8
1
100
AcDbBlockReference
  2
_J__A4
 10
0.0
 20
0.0
 30
0.0
 41
2.5
 42
2.5
 43
2.5
  0
INSERT
  5
6F
330
1F
100
AcDbEntity
  8
1
100
AcDbBlockReference
  2
A10-0A-13
 10
401.0
 20
240.5
 30
0.0
  0
INSERT
  5
70
330
1F
100
AcDbEntity
  8
0
100
AcDbBlockReference
  2
A13D-60X
 10
175.2427694488695
 20
163.5
 30
0.0
  0
INSERT
  5
71
330
1F
100
AcDbEntity
  8
1
100
AcDbBlockReference
  2
R281F
 10
345.5133891361909
 20
208.0
 30
0.0
  0
LINE
  5
379
330
1F
100
AcDbEntity
  8
1
  6
DASH_CENTER
 62
     2
100
AcDbLine
 10
196.0
 20
192.9058930436513
 30
0.0
 11
196.0
 21
160.5
 31
0.0
  0
LINE
  5
37A
330
1F
100
AcDbEntity
  8
1
  6
DASH_CENTER
 62
     2
100
AcDbLine
 10
339.0000000000002
 20
180.0
 30
0.0
 11
175.2427694488695
 21
180.0
 31
0.0
  0
LINE
  5
37B
330
1F
100
AcDbEntity
  8
1
  6
DASH_CENTER
 62
     2
100
AcDbLine
 10
366.0
 20
207.0
 30
0.0
 11
366.0
 21
232.8060936259991
 31
0.0
  0
LINE
  5
37C
330
1F
100
AcDbEntity
  8
1
  6
DASH_CENTER
 62
     2
100
AcDbLine
 10
110.2660471074682
 20
180.0000000000001
 30
0.0
 11
144.266047107468
 21
180.0000000000001
 31
0.0
  0
LINE
  5
37D
330
1F
100
AcDbEntity
  8
1
  6
DASH_CENTER
 62
     2
100
AcDbLine
 10
101.266047107468
 20
240.5
 30
0.0
 11
153.266047107468
 21
240.5
 31
0.0
  0
LINE
  5
37E
330
1F
100
AcDbEntity
  8
1
  6
DASH_CENTER
 62
     2
100
AcDbLine
 10
127.266047107468
 20
312.7000000000001
 30
0.0
 11
127.266047107468
 21
160.5
 31
0.0
  0
LINE
  5
37F
330
1F
100
AcDbEntity
  8
1
  6
DASH_CENTER
 62
     2
100
AcDbLine
 10
127.266047107468
 20
651.0779100113407
 30
0.0
 11
127.2660471074679
 21
363.0988612660664
 31
0.0
  0
LINE
  5
380
330
1F
100
AcDbEntity
  8
1
  6
DASH_CENTER
 62
     2
100
AcDbLine
 10
463.0378065317531
 20
240.5
 30
0.0
 11
359.3080591407294
 21
240.5
 31
0.0
  0
LINE
  5
381
330
1F
100
AcDbEntity
  8
1
  6
DASH_CENTER
 62
     2
100
AcDbLine
 10
109.1462502352356
 20
384.3560918171968
 30
0.0
 11
145.4259693451717
 21
384.3560918171968
 31
0.0
  0
LINE
  5
382
330
1F
100
AcDbEntity
  8
1
  6
DASH_CENTER
 62
     2
100
AcDbLine
 10
143.266047107468
 20
554.3560918171969
 30
0.0
 11
111.266047107468
 21
554.3560918171969
 31
0.0
  0
LINE
  5
383
330
1F
100
AcDbEntity
  8
1
  6
DASH_CENTER
 62
     2
100
AcDbLine
 10
401.0
 20
222.596667389088
 30
0.0
 11
401.0
 21
257.6814921645243
 31
0.0
  0
LINE
  5
384
330
1F
100
AcDbEntity
  8
1
  6
DASH_CENTER
 62
     2
100
AcDbLine
 10
98.90073293867829
 20
589.3560918171968
 30
0.0
 11
155.6313612762577
 21
589.3560918171968
 31
0.0
  0
LINE
  5
385
330
1F
100
AcDbEntity
  8
1
  6
DASH_CENTER
 62
     2
100
AcDbLine
 10
401.0
 20
257.6814921645243
 30
0.0
 11
401.0
 21
314.7663169399606
 31
0.0
  0
ARC
  5
386
330
1F
100
AcDbEntity
  8
1
  6
DASH_CENTER
 62
     2
100
AcDbCircle
 10
339.0000000000002
 20
207.0
 30
0.0
 40
27.0
100
AcDbArc
 50
-90.0
 51
0.0
  0
ARC
  5
387
330
1F
100
AcDbEntity
  8
0
  6
Continuous
 62
     2
100
AcDbCircle
 10
127.266047107468
 20
176.0000000000001
 30
0.0
 40
22.47663556989232
100
AcDbArc
 50
-90.0
 51
29.18860290658487
  0
ARC
  5
388
330
1F
100
AcDbEntity
  8
0
  6
Continuous
 62
     2
100
AcDbCircle
 10
127.266047107468
 20
176.0000000000001
 30
0.0
 40
22.47663556989208
100
AcDbArc
 50
150.8113970934149
 51
-90.0
  0
SOLID
  5
389
330
1F
100
AcDbEntity
  8
1
 62
     2
100
AcDbTrace
 10
141.1434210428724
 20
649.0097937772557
 30
0.0
 11
143.1386731720636
 21
647.8578344233659
 31
0.0
 12
137.7660471074679
 22
640.856091817197
 32
0.0
 13
137.7660471074679
 23
640.856091817197
 33
0.0
  0
LEADER
  5
38A
330
1F
100
AcDbEntity
  8
1
  6
Continuous
 62
     2
100
AcDbLeader
  3
Standard
 71
     0
 76
     3
 10
137.7660471074679
 20
640.856091817197
 30
0.0
 10
150.2266003676621
 20
662.4384031542713
 30
0.0
 10
188.009730984133
 20
662.4384031542713
 30
0.0
  0
SOLID
  5
38B
330
1F
100
AcDbEntity
  8
0
 62
     2
100
AcDbTrace
 10
151.0322429703433
 20
183.3699695608708
 30
0.0
 11
149.1595777906402
 21
182.0278941021935
 31
0.0
 12
144.998872788074
 22
189.8110839517754
 32
0.0
 13
144.998872788074
 23
189.8110839517754
 33
0.0
  0
LEADER
  5
38C
330
1F
100
AcDbEntity
  8
0
  6
Continuous
 62
     2
100
AcDbLeader
  3
Standard
 71
     0
 76
     2
 10
144.998872788074
 20
189.8110839517754
 30
0.0
 10
146.0429658991083
 20
188.354208482695
 30
0.0
  0
SOLID
  5
38D
330
1F
100
AcDbEntity
  8
0
 62
     2
100
AcDbTrace
 10
105.3725164242956
 20
182.0278941021937
 30
0.0
 11
103.4998512445926
 21
183.369969560871
 31
0.0
 12
109.5332214268621
 22
189.8110839517754
 32
0.0
 13
109.5332214268621
 23
189.8110839517754
 33
0.0
  0
LEADER
  5
38E
330
1F
100
AcDbEntity
  8
0
  6
Continuous
 62
     2
100
AcDbLeader
  3
Standard
 71
     0
 76
     2
 10
109.5332214268621
 20
189.8110839517754
 30
0.0
 10
108.4891283158277
 20
188.354208482695
 30
0.0
  0
MTEXT
  5
390
330
1F
100
AcDbEntity
  8
1
 62
     7
100
AcDbMText
 10
234.375
 20
42.5
 30
0.0
 40
8.75
 41
0.0
 71
     5
 72
     1
  1
2,5
  7
CONVERTER_2
 73
     1
 44
0.7202881152461
  0
MTEXT
  5
391
330
1F
100
AcDbEntity
  8
1
 62
     7
100
AcDbMText
 10
213.125
 20
42.5
 30
0.0
 40
8.75
 41
0.0
 71
     5
 72
     1
  1
1
  7
CONVERTER_2
 73
     1
 44
0.7202881152461
  0
MTEXT
  5
392
330
1F
100
AcDbEntity
  8
1
 62
     7
100
AcDbMText
 10
85.0
 20
93.75000000000001
 30
0.0
 40
8.75
 41
0.0
 71
     4
 72
     1
  1
JIS
  7
CONVERTER_2
 73
     1
 44
0.7202881152461
  0
MTEXT
  5
393
330
1F
100
AcDbEntity
  8
0
 62
     7
100
AcDbMText
 10
142.5
 20
35.625
 30
0.0
 40
8.75
 41
0.0
 71
     5
 72
     1
  1
A13D-13
  7
CONVERTER_2
 73
     1
 44
1.32052821128451
  0
MTEXT
  5
394
330
1F
100
AcDbEntity
  8
0
 62
     7
100
AcDbMText
 10
142.5
 20
56.87500000000004
 30
0.0
 40
8.75
 41
0.0
 71
     5
 72
     1
  1
断熱回転自在水栓
  7
CONVERTER_1
 73
     1
 44
1.32052821128451
  0
MTEXT
  5
395
330
1F
100
AcDbEntity
  8
0
 62
     7
100
AcDbMText
 10
84.99999999999999
 20
76.25
 30
0.0
 40
8.75
 41
0.0
 71
     4
 72
     1
  1
吐水口先端部分は360°回転します。
  7
CONVERTER_1
 73
     1
 44
1.32052821128451
  0
MTEXT
  5
396
330
1F
100
AcDbEntity
  8
1
 62
     7
100
AcDbMText
 10
169.1181656758976
 20
669.9384031542713
 30
0.0
 40
8.75
 41
0.0
 71
     5
 72
     1
  1
PJ1/2
  7
CONVERTER_2
 73
     1
 44
1.32052821128451
  0
DIMENSION
  5
3A1
330
1F
100
AcDbEntity
  8
1
100
AcDbDimension
  2
*D016
 10
485.0
 20
217.5000000000001
 30
0.0
 11
478.125
 21
240.5000000000001
 31
0.0
  1
<>
 71
     5
 42
0.0
 53
90.0
  3
ME10_DIM_0
100
AcDbAlignedDimension
 13
446.0
 23
263.5
 33
0.0
 14
446.0
 24
217.5
 34
0.0
 50
90.0
100
AcDbRotatedDimension
  0
DIMENSION
  5
3AC
330
1F
100
AcDbEntity
  8
1
100
AcDbDimension
  2
*D117
 10
313.9823990463881
 20
240.5
 30
0.0
 11
307.1073990463881
 21
273.1951591212843
 31
0.0
  1
68リフト5
 71
     5
 42
0.0
 53
90.0
  3
ME10_DIM_1
100
AcDbAlignedDimension
 13
401.0
 23
308.3000000000001
 33
0.0
 14
359.3080591407294
 24
240.5
 34
0.0
 50
90.0
100
AcDbRotatedDimension
  0
DIMENSION
  5
3B7
330
1F
100
AcDbEntity
  8
1
100
AcDbDimension
  2
*D218
 10
313.9823990463881
 20
162.5
 30
0.0
 11
307.1073990463881
 21
209.240847937012
 31
0.0
  1
<>
 71
     5
 42
0.0
 53
90.0
  3
ME10_DIM_2
100
AcDbAlignedDimension
 13
359.3080591407294
 23
240.5
 33
0.0
 14
206.7456985872457
 24
162.5
 34
0.0
 50
90.0
100
AcDbRotatedDimension
  0
DIMENSION
  5
3C2
330
1F
100
AcDbEntity
  8
1
100
AcDbDimension
  2
*D319
 10
196.0
 20
137.5
 30
0.0
 11
281.0000000000001
 21
144.375
 31
0.0
  1
<>
 71
     5
 42
0.0
 53
0.00013888888889
  3
ME10_DIM_3
100
AcDbAlignedDimension
 13
366.0
 23
207.0
 33
0.0
 14
196.0
 24
160.5
 34
0.0
100
AcDbRotatedDimension
  0
DIMENSION
  5
3CD
330
1F
100
AcDbEntity
  8
1
100
AcDbDimension
  2
*D420
 10
366.0000000000001
 20
137.5
 30
0.0
 11
383.5
 21
144.375
 31
0.0
  1
<>
 71
     5
 42
0.0
 53
0.00013888888889
  3
ME10_DIM_4
100
AcDbAlignedDimension
 13
401.0
 23
222.596667389088
 33
0.0
 14
366.0
 24
207.0
 34
0.0
100
AcDbRotatedDimension
  0
DIMENSION
  5
3D8
330
1F
100
AcDbEntity
  8
1
100
AcDbDimension
  2
*D521
 10
401.0
 20
137.5
 30
0.0
 11
423.5
 21
144.375
 31
0.0
  1
<>
 71
     5
 42
0.0
 53
0.00013888888889
  3
ME10_DIM_5
100
AcDbAlignedDimension
 13
446.0
 23
217.5
 33
0.0
 14
401.0
 24
222.596667389088
 34
0.0
100
AcDbRotatedDimension
  0
DIMENSION
  5
3E6
330
1F
100
AcDbEntity
  8
1
100
AcDbDimension
  2
*D622
 10
446.0000000000001
 20
137.5
 30
0.0
 11
471.5354756036101
 21
144.375
 31
0.0
  1
<>
 71
     5
 42
0.0
 53
0.00013888888889
  3
ME10_DIM_6
100
AcDbAlignedDimension
 13
459.9999999999999
 23
231.0
 33
0.0
 14
446.0
 24
217.5
 34
0.0
100
AcDbRotatedDimension
  0
ENDSEC
  0
SECTION
  2
OBJECTS
  0
DICTIONARY
  5
C
330
0
100
AcDbDictionary
281
     1
  3
ACAD_GROUP
350
D
  3
ACAD_LAYOUT
350
1A
  3
ACAD_MLINESTYLE
350
17
  3
ACAD_PLOTSETTINGS
350
19
  3
ACAD_PLOTSTYLENAME
350
E
  3
ACAD_TABLESTYLE
350
2A
  3
AcDbVariableDictionary
350
2C
  0
DICTIONARY
  5
D
102
{ACAD_REACTORS
330
C
102
}
330
C
100
AcDbDictionary
281
     1
  0
DICTIONARY
  5
1A
102
{ACAD_REACTORS
330
C
102
}
330
C
100
AcDbDictionary
281
     1
  3
Layout1
350
1E
  3
Layout2
350
26
  3
Model
350
22
  0
DICTIONARY
  5
17
102
{ACAD_REACTORS
330
C
102
}
330
C
100
AcDbDictionary
281
     1
  3
Standard
350
18
  0
DICTIONARY
  5
19
102
{ACAD_REACTORS
330
C
102
}
330
C
100
AcDbDictionary
281
     1
  0
ACDBDICTIONARYWDFLT
  5
E
102
{ACAD_REACTORS
330
C
102
}
330
C
100
AcDbDictionary
281
     1
  3
Normal
350
F
100
AcDbDictionaryWithDefault
340
F
  0
DICTIONARY
  5
2A
102
{ACAD_REACTORS
330
C
102
}
330
C
100
AcDbDictionary
281
     1
  3
Standard
350
2B
  0
DICTIONARY
  5
2C
102
{ACAD_REACTORS
330
C
102
}
330
C
100
AcDbDictionary
281
     1
  3
CTABLESTYLE
350
2D
  0
LAYOUT
  5
1E
102
{ACAD_REACTORS
330
1A
102
}
330
1A
100
AcDbPlotSettings
  1

  2

  4

  6

 40
0.0
 41
0.0
 42
0.0
 43
0.0
 44
0.0
 45
0.0
 46
0.0
 47
0.0
 48
0.0
 49
0.0
140
0.0
141
0.0
142
1.0
143
1.0
 70
   688
 72
     0
 73
     0
 74
     5
  7

 75
    16
147
1.0
148
0.0
149
0.0
100
AcDbLayout
  1
Layout1
 70
     1
 71
     1
 10
0.0
 20
0.0
 11
12.0
 21
9.0
 12
0.0
 22
0.0
 32
0.0
 14
1.00000000000000E+20
 24
1.00000000000000E+20
 34
1.00000000000000E+20
 15
-1.00000000000000E+20
 25
-1.00000000000000E+20
 35
-1.00000000000000E+20
146
0.0
 13
0.0
 23
0.0
 33
0.0
 16
1.0
 26
0.0
 36
0.0
 17
0.0
 27
1.0
 37
0.0
 76
     0
330
1B
  0
LAYOUT
  5
26
102
{ACAD_REACTORS
330
1A
102
}
330
1A
100
AcDbPlotSettings
  1

  2

  4

  6

 40
0.0
 41
0.0
 42
0.0
 43
0.0
 44
0.0
 45
0.0
 46
0.0
 47
0.0
 48
0.0
 49
0.0
140
0.0
141
0.0
142
1.0
143
1.0
 70
   688
 72
     0
 73
     0
 74
     5
  7

 75
    16
147
1.0
148
0.0
149
0.0
100
AcDbLayout
  1
Layout2
 70
     1
 71
     2
 10
0.0
 20
0.0
 11
0.0
 21
0.0
 12
0.0
 22
0.0
 32
0.0
 14
0.0
 24
0.0
 34
0.0
 15
0.0
 25
0.0
 35
0.0
146
0.0
 13
0.0
 23
0.0
 33
0.0
 16
1.0
 26
0.0
 36
0.0
 17
0.0
 27
1.0
 37
0.0
 76
     0
330
23
  0
LAYOUT
  5
22
102
{ACAD_REACTORS
330
1A
102
}
330
1A
100
AcDbPlotSettings
  1

  2

  4

  6

 40
0.0
 41
0.0
 42
0.0
 43
0.0
 44
0.0
 45
0.0
 46
0.0
 47
0.0
 48
0.0
 49
0.0
140
0.0
141
0.0
142
1.0
143
1.0
 70
  1712
 72
     0
 73
     0
 74
     0
  7

 75
     0
147
1.0
148
0.0
149
0.0
100
AcDbLayout
  1
Model
 70
     1
 71
     0
 10
0.0
 20
0.0
 11
0.0
 21
0.0
 12
0.0
 22
0.0
 32
0.0
 14
0.0
 24
0.0
 34
0.0
 15
525.0
 25
742.5
 35
0.0
146
0.0
 13
0.0
 23
0.0
 33
0.0
 16
1.0
 26
0.0
 36
0.0
 17
0.0
 27
1.0
 37
0.0
 76
     0
330
1F
  0
MLINESTYLE
  5
18
102
{ACAD_REACTORS
330
17
102
}
330
17
100
AcDbMlineStyle
  2
Standard
 70
     0
  3

 62
   256
 51
90.0
 52
90.0
 71
     2
 49
0.5
 62
   256
  6
BYLAYER
 49
-0.5
 62
   256
  6
BYLAYER
  0
ACDBPLACEHOLDER
  5
F
102
{ACAD_REACTORS
330
E
102
}
330
E
  0
TABLESTYLE
  5
2B
102
{ACAD_REACTORS
330
2A
102
}
330
2A
100
AcDbTableStyle
  3
Standard
 70
     0
 71
     0
 40
0.06
 41
0.06
280
     0
281
     0
  7
Standard
140
0.18
170
     2
 62
     0
 63
     7
283
     0
274
    -2
284
     1
 64
     0
275
    -2
285
     1
 65
     0
276
    -2
286
     1
 66
     0
277
    -2
287
     1
 67
     0
278
    -2
288
     1
 68
     0
279
    -2
289
     1
 69
     0
  7
Standard
140
0.25
170
     5
 62
     0
 63
     7
283
     0
274
    -2
284
     1
 64
     0
275
    -2
285
     1
 65
     0
276
    -2
286
     1
 66
     0
277
    -2
287
     1
 67
     0
278
    -2
288
     1
 68
     0
279
    -2
289
     1
 69
     0
  7
Standard
140
0.18
170
     5
 62
     0
 63
     7
283
     0
274
    -2
284
     1
 64
     0
275
    -2
285
     1
 65
     0
276
    -2
286
     1
 66
     0
277
    -2
287
     1
 67
     0
278
    -2
288
     1
 68
     0
279
    -2
289
     1
 69
     0
  0
DICTIONARYVAR
  5
2D
102
{ACAD_REACTORS
330
2C
102
}
330
2C
100
DictionaryVariables
280
     0
  1
Standard
  0
ENDSEC
  0
EOF
