  0
SECTION
  2
HEADER
  9
$ACADVER
  1
AC1015
  9
$ACADMAINTVER
 70
     6
  9
$DWGCODEPAGE
  3
DOS932
  9
$INSBASE
 10
0.0
 20
0.0
 30
0.0
  9
$EXTMIN
 10
0.0
 20
0.0
 30
0.0
  9
$EXTMAX
 10
735.0
 20
1039.5
 30
0.0
  9
$LIMMIN
 10
0.0
 20
0.0
  9
$LIMMAX
 10
12.0
 20
9.0
  9
$ORTHOMODE
 70
     0
  9
$REGENMODE
 70
     1
  9
$FILLMODE
 70
     1
  9
$QTEXTMODE
 70
     0
  9
$MIRRTEXT
 70
     1
  9
$LTSCALE
 40
1.0
  9
$ATTMODE
 70
     1
  9
$TEXTSIZE
 40
0.2
  9
$TRACEWID
 40
0.05
  9
$TEXTSTYLE
  7
Standard
  9
$CLAYER
  8
0
  9
$CELTYPE
  6
ByLayer
  9
$CECOLOR
 62
   256
  9
$CELTSCALE
 40
1.0
  9
$DISPSILH
 70
     0
  9
$DIMSCALE
 40
1.0
  9
$DIMASZ
 40
0.18
  9
$DIMEXO
 40
0.0625
  9
$DIMDLI
 40
0.38
  9
$DIMRND
 40
0.0
  9
$DIMDLE
 40
0.0
  9
$DIMEXE
 40
0.18
  9
$DIMTP
 40
0.0
  9
$DIMTM
 40
0.0
  9
$DIMTXT
 40
0.18
  9
$DIMCEN
 40
0.09
  9
$DIMTSZ
 40
0.0
  9
$DIMTOL
 70
     0
  9
$DIMLIM
 70
     0
  9
$DIMTIH
 70
     1
  9
$DIMTOH
 70
     1
  9
$DIMSE1
 70
     0
  9
$DIMSE2
 70
     0
  9
$DIMTAD
 70
     0
  9
$DIMZIN
 70
     0
  9
$DIMBLK
  1

  9
$DIMASO
 70
     1
  9
$DIMSHO
 70
     1
  9
$DIMPOST
  1

  9
$DIMAPOST
  1

  9
$DIMALT
 70
     0
  9
$DIMALTD
 70
     2
  9
$DIMALTF
 40
25.4
  9
$DIMLFAC
 40
1.0
  9
$DIMTOFL
 70
     0
  9
$DIMTVP
 40
0.0
  9
$DIMTIX
 70
     0
  9
$DIMSOXD
 70
     0
  9
$DIMSAH
 70
     0
  9
$DIMBLK1
  1

  9
$DIMBLK2
  1

  9
$DIMSTYLE
  2
Standard
  9
$DIMCLRD
 70
     0
  9
$DIMCLRE
 70
     0
  9
$DIMCLRT
 70
     0
  9
$DIMTFAC
 40
1.0
  9
$DIMGAP
 40
0.09
  9
$DIMJUST
 70
     0
  9
$DIMSD1
 70
     0
  9
$DIMSD2
 70
     0
  9
$DIMTOLJ
 70
     1
  9
$DIMTZIN
 70
     0
  9
$DIMALTZ
 70
     0
  9
$DIMALTTZ
 70
     0
  9
$DIMUPT
 70
     0
  9
$DIMDEC
 70
     4
  9
$DIMTDEC
 70
     4
  9
$DIMALTU
 70
     2
  9
$DIMALTTD
 70
     2
  9
$DIMTXSTY
  7
Standard
  9
$DIMAUNIT
 70
     0
  9
$DIMADEC
 70
     0
  9
$DIMALTRND
 40
0.0
  9
$DIMAZIN
 70
     0
  9
$DIMDSEP
 70
    46
  9
$DIMATFIT
 70
     3
  9
$DIMFRAC
 70
     0
  9
$DIMLDRBLK
  1

  9
$DIMLUNIT
 70
     2
  9
$DIMLWD
 70
    -2
  9
$DIMLWE
 70
    -2
  9
$DIMTMOVE
 70
     0
  9
$LUNITS
 70
     2
  9
$LUPREC
 70
     4
  9
$SKETCHINC
 40
0.1
  9
$FILLETRAD
 40
0.5
  9
$AUNITS
 70
     0
  9
$AUPREC
 70
     0
  9
$MENU
  1
.
  9
$ELEVATION
 40
0.0
  9
$PELEVATION
 40
0.0
  9
$THICKNESS
 40
0.0
  9
$LIMCHECK
 70
     0
  9
$CHAMFERA
 40
0.5
  9
$CHAMFERB
 40
0.5
  9
$CHAMFERC
 40
1.0
  9
$CHAMFERD
 40
0.0
  9
$SKPOLY
 70
     0
  9
$TDCREATE
 40
2456142.470261493
  9
$TDUCREATE
 40
2456142.095261493
  9
$TDUPDATE
 40
2456142.470261504
  9
$TDUUPDATE
 40
2456142.095261504
  9
$TDINDWG
 40
0.0000000116
  9
$TDUSRTIMER
 40
0.0000000116
  9
$USRTIMER
 70
     1
  9
$ANGBASE
 50
0.0
  9
$ANGDIR
 70
     0
  9
$PDMODE
 70
     0
  9
$PDSIZE
 40
0.0
  9
$PLINEWID
 40
0.0
  9
$SPLFRAME
 70
     0
  9
$SPLINETYPE
 70
     6
  9
$SPLINESEGS
 70
     8
  9
$HANDSEED
  5
2CB
  9
$SURFTAB1
 70
     6
  9
$SURFTAB2
 70
     6
  9
$SURFTYPE
 70
     6
  9
$SURFU
 70
     6
  9
$SURFV
 70
     6
  9
$UCSBASE
  2

  9
$UCSNAME
  2

  9
$UCSORG
 10
0.0
 20
0.0
 30
0.0
  9
$UCSXDIR
 10
1.0
 20
0.0
 30
0.0
  9
$UCSYDIR
 10
0.0
 20
1.0
 30
0.0
  9
$UCSORTHOREF
  2

  9
$UCSORTHOVIEW
 70
     0
  9
$UCSORGTOP
 10
0.0
 20
0.0
 30
0.0
  9
$UCSORGBOTTOM
 10
0.0
 20
0.0
 30
0.0
  9
$UCSORGLEFT
 10
0.0
 20
0.0
 30
0.0
  9
$UCSORGRIGHT
 10
0.0
 20
0.0
 30
0.0
  9
$UCSORGFRONT
 10
0.0
 20
0.0
 30
0.0
  9
$UCSORGBACK
 10
0.0
 20
0.0
 30
0.0
  9
$PUCSBASE
  2

  9
$PUCSNAME
  2

  9
$PUCSORG
 10
0.0
 20
0.0
 30
0.0
  9
$PUCSXDIR
 10
1.0
 20
0.0
 30
0.0
  9
$PUCSYDIR
 10
0.0
 20
1.0
 30
0.0
  9
$PUCSORTHOREF
  2

  9
$PUCSORTHOVIEW
 70
     0
  9
$PUCSORGTOP
 10
0.0
 20
0.0
 30
0.0
  9
$PUCSORGBOTTOM
 10
0.0
 20
0.0
 30
0.0
  9
$PUCSORGLEFT
 10
0.0
 20
0.0
 30
0.0
  9
$PUCSORGRIGHT
 10
0.0
 20
0.0
 30
0.0
  9
$PUCSORGFRONT
 10
0.0
 20
0.0
 30
0.0
  9
$PUCSORGBACK
 10
0.0
 20
0.0
 30
0.0
  9
$USERI1
 70
     0
  9
$USERI2
 70
     0
  9
$USERI3
 70
     0
  9
$USERI4
 70
     0
  9
$USERI5
 70
     0
  9
$USERR1
 40
13.2
  9
$USERR2
 40
0.0
  9
$USERR3
 40
0.0
  9
$USERR4
 40
0.0
  9
$USERR5
 40
0.0
  9
$WORLDVIEW
 70
     1
  9
$SHADEDGE
 70
     3
  9
$SHADEDIF
 70
    70
  9
$TILEMODE
 70
     1
  9
$MAXACTVP
 70
    64
  9
$PINSBASE
 10
0.0
 20
0.0
 30
0.0
  9
$PLIMCHECK
 70
     0
  9
$PEXTMIN
 10
1.00000000000000E+20
 20
1.00000000000000E+20
 30
1.00000000000000E+20
  9
$PEXTMAX
 10
-1.00000000000000E+20
 20
-1.00000000000000E+20
 30
-1.00000000000000E+20
  9
$PLIMMIN
 10
0.0
 20
0.0
  9
$PLIMMAX
 10
12.0
 20
9.0
  9
$UNITMODE
 70
     0
  9
$VISRETAIN
 70
     1
  9
$PLINEGEN
 70
     0
  9
$PSLTSCALE
 70
     1
  9
$TREEDEPTH
 70
  3020
  9
$CMLSTYLE
  2
Standard
  9
$CMLJUST
 70
     0
  9
$CMLSCALE
 40
1.0
  9
$PROXYGRAPHICS
 70
     1
  9
$MEASUREMENT
 70
     1
  9
$CELWEIGHT
370
    -1
  9
$ENDCAPS
280
     0
  9
$JOINSTYLE
280
     0
  9
$LWDISPLAY
290
     0
  9
$INSUNITS
 70
     1
  9
$HYPERLINKBASE
  1

  9
$STYLESHEET
  1

  9
$XEDIT
290
     1
  9
$CEPSNTYPE
380
     0
  9
$PSTYLEMODE
290
     0
  9
$FINGERPRINTGUID
  2
{FAEB1C30-E019-11D5-929B-00C0DF256EC4}
  9
$VERSIONGUID
  2
{FAEB1C32-E019-11D5-929B-00C0DF256EC4}
  9
$EXTNAMES
290
     1
  9
$PSVPSCALE
 40
0.0
  9
$OLESTARTUP
290
     0
  0
ENDSEC
  0
SECTION
  2
CLASSES
  0
CLASS
  1
ACDBDICTIONARYWDFLT
  2
AcDbDictionaryWithDefault
  3
ObjectDBX Classes
 90
        0
280
     0
281
     0
  0
CLASS
  1
TABLESTYLE
  2
AcDbTableStyle
  3
ObjectDBX Classes
 90
     2047
280
     0
281
     0
  0
CLASS
  1
DICTIONARYVAR
  2
AcDbDictionaryVar
  3
ObjectDBX Classes
 90
        0
280
     0
281
     0
  0
CLASS
  1

  2
exOdDbSpline
  3

 90
        0
280
     0
281
     1
  0
CLASS
  1

  2
exOdDbCircle
  3

 90
        0
280
     0
281
     1
  0
CLASS
  1
ACDBPLACEHOLDER
  2
AcDbPlaceHolder
  3
ObjectDBX Classes
 90
        0
280
     0
281
     0
  0
CLASS
  1
LAYOUT
  2
AcDbLayout
  3
ObjectDBX Classes
 90
        0
280
     0
281
     0
  0
ENDSEC
  0
SECTION
  2
TABLES
  0
TABLE
  2
VPORT
  5
8
330
0
100
AcDbSymbolTable
 70
     2
  0
VPORT
  5
29
330
8
100
AcDbSymbolTableRecord
100
AcDbViewportTableRecord
  2
*Active
 70
     0
 10
0.0
 20
0.0
 11
1.0
 21
1.0
 12
367.5
 22
519.75
 13
0.0
 23
0.0
 14
0.5
 24
0.5
 15
0.5
 25
0.5
 16
0.0
 26
0.0
 36
1.0
 17
0.0
 27
0.0
 37
0.0
 40
1143.45
 41
1.60267857142857
 42
50.0
 43
0.0
 44
0.0
 50
0.0
 51
0.0
 71
     0
 72
   100
 73
     1
 74
     3
 75
     0
 76
     0
 77
     0
 78
     0
281
     0
 65
     1
110
0.0
120
0.0
130
0.0
111
1.0
121
0.0
131
0.0
112
0.0
122
1.0
132
0.0
 79
     0
146
0.0
  0
ENDTAB
  0
TABLE
  2
LTYPE
  5
5
330
0
100
AcDbSymbolTable
 70
     8
  0
LTYPE
  5
14
330
5
100
AcDbSymbolTableRecord
100
AcDbLinetypeTableRecord
  2
ByBlock
 70
     0
  3

 72
    65
 73
     0
 40
0.0
  0
LTYPE
  5
15
330
5
100
AcDbSymbolTableRecord
100
AcDbLinetypeTableRecord
  2
ByLayer
 70
     0
  3

 72
    65
 73
     0
 40
0.0
  0
LTYPE
  5
16
330
5
100
AcDbSymbolTableRecord
100
AcDbLinetypeTableRecord
  2
Continuous
 70
     0
  3
Solid line
 72
    65
 73
     0
 40
0.0
  0
LTYPE
  5
2E
330
5
100
AcDbSymbolTableRecord
100
AcDbLinetypeTableRecord
  2
DASHED
 70
     0
  3
Dashed
 72
    65
 73
     2
 40
15.0
 49
7.0
 74
     0
 49
-8.0
 74
     0
  0
LTYPE
  5
2F
330
5
100
AcDbSymbolTableRecord
100
AcDbLinetypeTableRecord
  2
DOTTED
 70
     0
  3
Dotted
 72
    65
 73
     2
 40
1.0
 49
0.0
 74
     0
 49
-1.0
 74
     0
  0
LTYPE
  5
30
330
5
100
AcDbSymbolTableRecord
100
AcDbLinetypeTableRecord
  2
DOT_CENTER
 70
     0
  3
Dot_Center
 72
    65
 73
     4
 40
14.0
 49
12.0
 74
     0
 49
-1.0
 74
     0
 49
0.0
 74
     0
 49
-1.0
 74
     0
  0
LTYPE
  5
31
330
5
100
AcDbSymbolTableRecord
100
AcDbLinetypeTableRecord
  2
LONG_DASHED
 70
     0
  3
Long_Dashed
 72
    65
 73
     2
 40
15.0
 49
10.0
 74
     0
 49
-5.0
 74
     0
  0
LTYPE
  5
32
330
5
100
AcDbSymbolTableRecord
100
AcDbLinetypeTableRecord
  2
DASH_CENTER
 70
     0
  3
Dash_Center
 72
    65
 73
     4
 40
14.0
 49
11.0
 74
     0
 49
-1.0
 74
     0
 49
1.0
 74
     0
 49
-1.0
 74
     0
  0
LTYPE
  5
33
330
5
100
AcDbSymbolTableRecord
100
AcDbLinetypeTableRecord
  2
PHANTOM
 70
     0
  3
Phantom
 72
    65
 73
     6
 40
13.0
 49
10.0
 74
     0
 49
-1.0
 74
     0
 49
0.0
 74
     0
 49
-1.0
 74
     0
 49
0.0
 74
     0
 49
-1.0
 74
     0
  0
LTYPE
  5
34
330
5
100
AcDbSymbolTableRecord
100
AcDbLinetypeTableRecord
  2
CENTER_DASH_DASH
 70
     0
  3
Center_Dash_Dash
 72
    65
 73
     6
 40
14.0
 49
9.0
 74
     0
 49
-1.0
 74
     0
 49
1.0
 74
     0
 49
-1.0
 74
     0
 49
1.0
 74
     0
 49
-1.0
 74
     0
  0
ENDTAB
  0
TABLE
  2
LAYER
  5
2
330
0
100
AcDbSymbolTable
 70
     2
  0
LAYER
  5
10
330
2
100
AcDbSymbolTableRecord
100
AcDbLayerTableRecord
  2
0
 70
     0
 62
     7
  6
Continuous
370
    -3
390
F
  0
LAYER
  5
35
330
2
100
AcDbSymbolTableRecord
100
AcDbLayerTableRecord
  2
1
 70
     0
 62
     7
  6
Continuous
370
    -3
390
F
  0
ENDTAB
  0
TABLE
  2
STYLE
  5
3
330
0
100
AcDbSymbolTable
 70
     3
  0
STYLE
  5
11
330
3
100
AcDbSymbolTableRecord
100
AcDbTextStyleTableRecord
  2
Standard
 70
     0
 40
0.0
 41
1.0
 50
0.0
 71
     0
 42
0.2
  3
txt
  4

  0
STYLE
  5
1D0
330
3
100
AcDbSymbolTableRecord
100
AcDbTextStyleTableRecord
  2
CONVERTER_1
 70
     0
 40
0.0
 41
0.89
 50
0.0
 71
     0
 42
0.2
  3
msmincho.ttc
  4

1001
ACAD
1000
MS Mincho
1071
    32785
  0
STYLE
  5
26B
330
3
100
AcDbSymbolTableRecord
100
AcDbTextStyleTableRecord
  2
CONVERTER_2
 70
     0
 40
0.0
 41
0.9
 50
0.0
 71
     0
 42
0.2
  3
txt.shx
  4

  0
ENDTAB
  0
TABLE
  2
VIEW
  5
6
330
0
100
AcDbSymbolTable
 70
     0
  0
ENDTAB
  0
TABLE
  2
UCS
  5
7
330
0
100
AcDbSymbolTable
 70
     0
  0
ENDTAB
  0
TABLE
  2
APPID
  5
9
330
0
100
AcDbSymbolTable
 70
     1
  0
APPID
  5
12
330
9
100
AcDbSymbolTableRecord
100
AcDbRegAppTableRecord
  2
ACAD
 70
     0
  0
ENDTAB
  0
TABLE
  2
DIMSTYLE
  5
A
330
0
100
AcDbSymbolTable
 70
     9
100
AcDbDimStyleTable
  0
DIMSTYLE
105
27
330
A
100
AcDbSymbolTableRecord
100
AcDbDimStyleTableRecord
  2
Standard
 70
     0
340
11
  0
DIMSTYLE
105
27A
102
{ACAD_REACTORS
330
27B
102
}
330
A
100
AcDbSymbolTableRecord
100
AcDbDimStyleTableRecord
  2
ME10_DIM_0
 70
     0
  3
最小<>
 41
12.25
 42
0.0
 44
3.5
 73
     0
 74
     0
 77
     1
 78
     8
140
12.25
147
0.625
172
     1
173
     1
176
     2
177
     2
178
     7
271
     2
340
1D0
  0
DIMSTYLE
105
285
102
{ACAD_REACTORS
330
286
102
}
330
A
100
AcDbSymbolTableRecord
100
AcDbDimStyleTableRecord
  2
ME10_DIM_1
 70
     0
  3
{\Fgdt;n}<>
 41
12.25
 42
0.0
 44
3.5
 73
     0
 74
     0
 77
     1
 78
     8
140
12.25
147
0.625
172
     1
173
     1
176
     2
177
     2
178
     7
271
     2
340
26B
  0
DIMSTYLE
105
290
102
{ACAD_REACTORS
330
291
102
}
330
A
100
AcDbSymbolTableRecord
100
AcDbDimStyleTableRecord
  2
ME10_DIM_2
 70
     0
 41
12.25
 42
0.0
 44
3.5
 73
     0
 74
     0
 77
     1
 78
     8
140
12.25
147
0.625
172
     1
173
     1
176
     2
177
     2
178
     7
271
     2
340
1D0
  0
DIMSTYLE
105
29B
102
{ACAD_REACTORS
330
29C
102
}
330
A
100
AcDbSymbolTableRecord
100
AcDbDimStyleTableRecord
  2
ME10_DIM_3
 70
     0
  3
最大<>
 41
12.25
 42
0.0
 44
3.5
 73
     0
 74
     0
 77
     1
 78
     8
140
12.25
147
0.625
172
     1
173
     1
176
     2
177
     2
178
     7
271
     2
340
1D0
  0
DIMSTYLE
105
2A6
102
{ACAD_REACTORS
330
2A7
102
}
330
A
100
AcDbSymbolTableRecord
100
AcDbDimStyleTableRecord
  2
ME10_DIM_4
 70
     0
 41
12.25
 42
0.0
 44
3.5
 73
     0
 74
     0
 77
     1
 78
     8
140
12.25
147
0.625
172
     1
173
     1
176
     2
177
     2
178
     7
271
     2
340
26B
  0
DIMSTYLE
105
2B3
102
{ACAD_REACTORS
330
2B4
102
}
330
A
100
AcDbSymbolTableRecord
100
AcDbDimStyleTableRecord
  2
ME10_DIM_5
 70
     0
 41
12.25
 42
0.0
 44
3.5
 73
     0
 74
     0
 77
     1
 78
     8
140
12.25
147
0.625
172
     1
173
     1
176
     2
177
     2
178
     7
271
     2
340
26B
  0
DIMSTYLE
105
2BE
102
{ACAD_REACTORS
330
2BF
102
}
330
A
100
AcDbSymbolTableRecord
100
AcDbDimStyleTableRecord
  2
ME10_DIM_6
 70
     0
 41
12.25
 42
0.0
 44
3.5
 73
     0
 74
     0
 77
     1
 78
     8
140
12.25
147
0.625
172
     1
173
     1
176
     2
177
     2
178
     7
271
     2
340
26B
  0
DIMSTYLE
105
2C9
102
{ACAD_REACTORS
330
2CA
102
}
330
A
100
AcDbSymbolTableRecord
100
AcDbDimStyleTableRecord
  2
ME10_DIM_7
 70
     0
 41
12.25
 42
0.0
 44
3.5
 73
     0
 74
     0
 77
     1
 78
     8
140
12.25
147
0.625
172
     1
173
     1
176
     2
177
     2
178
     7
271
     2
340
26B
  0
ENDTAB
  0
TABLE
  2
BLOCK_RECORD
  5
1
330
0
100
AcDbSymbolTable
 70
    20
  0
BLOCK_RECORD
  5
1F
330
1
100
AcDbSymbolTableRecord
100
AcDbBlockTableRecord
  2
*Model_Space
340
22
  0
BLOCK_RECORD
  5
1B
330
1
100
AcDbSymbolTableRecord
100
AcDbBlockTableRecord
  2
*Paper_Space
340
1E
  0
BLOCK_RECORD
  5
23
330
1
100
AcDbSymbolTableRecord
100
AcDbBlockTableRecord
  2
*Paper_Space0
340
26
  0
BLOCK_RECORD
  5
36
330
1
100
AcDbSymbolTableRecord
100
AcDbBlockTableRecord
  2
32-1-16
340
0
102
{BLKREFS
331
5B
102
}
  0
BLOCK_RECORD
  5
39
330
1
100
AcDbSymbolTableRecord
100
AcDbBlockTableRecord
  2
A10-0A-13
340
0
102
{BLKREFS
331
5C
102
}
  0
BLOCK_RECORD
  5
3C
330
1
100
AcDbSymbolTableRecord
100
AcDbBlockTableRecord
  2
21-1A
340
0
102
{BLKREFS
331
49
102
}
  0
BLOCK_RECORD
  5
3F
330
1
100
AcDbSymbolTableRecord
100
AcDbBlockTableRecord
  2
36-1A-13-M11
340
0
102
{BLKREFS
331
4A
102
}
  0
BLOCK_RECORD
  5
42
330
1
100
AcDbSymbolTableRecord
100
AcDbBlockTableRecord
  2
42-1
340
0
102
{BLKREFS
331
4B
102
}
  0
BLOCK_RECORD
  5
45
330
1
100
AcDbSymbolTableRecord
100
AcDbBlockTableRecord
  2
37-1-13
340
0
102
{BLKREFS
331
4C
102
}
  0
BLOCK_RECORD
  5
48
330
1
100
AcDbSymbolTableRecord
100
AcDbBlockTableRecord
  2
R10A-13-B
340
0
102
{BLKREFS
331
5D
102
}
  0
BLOCK_RECORD
  5
4F
330
1
100
AcDbSymbolTableRecord
100
AcDbBlockTableRecord
  2
_J__A4
340
0
102
{BLKREFS
331
5E
102
}
  0
BLOCK_RECORD
  5
52
330
1
100
AcDbSymbolTableRecord
100
AcDbBlockTableRecord
  2
32-2
340
0
102
{BLKREFS
331
5F
102
}
  0
BLOCK_RECORD
  5
55
330
1
100
AcDbSymbolTableRecord
100
AcDbBlockTableRecord
  2
62-3A
340
0
102
{BLKREFS
331
60
102
}
  0
BLOCK_RECORD
  5
58
330
1
100
AcDbSymbolTableRecord
100
AcDbBlockTableRecord
  2
64-1
340
0
102
{BLKREFS
331
61
102
}
  0
BLOCK_RECORD
  5
271
330
1
100
AcDbSymbolTableRecord
100
AcDbBlockTableRecord
  2
*D012
340
0
  0
BLOCK_RECORD
  5
27C
330
1
100
AcDbSymbolTableRecord
100
AcDbBlockTableRecord
  2
*D113
340
0
  0
BLOCK_RECORD
  5
287
330
1
100
AcDbSymbolTableRecord
100
AcDbBlockTableRecord
  2
*D214
340
0
  0
BLOCK_RECORD
  5
292
330
1
100
AcDbSymbolTableRecord
100
AcDbBlockTableRecord
  2
*D315
340
0
  0
BLOCK_RECORD
  5
29D
330
1
100
AcDbSymbolTableRecord
100
AcDbBlockTableRecord
  2
*D416
340
0
  0
BLOCK_RECORD
  5
2A8
330
1
100
AcDbSymbolTableRecord
100
AcDbBlockTableRecord
  2
*D517
340
0
  0
BLOCK_RECORD
  5
2B5
330
1
100
AcDbSymbolTableRecord
100
AcDbBlockTableRecord
  2
*D618
340
0
  0
BLOCK_RECORD
  5
2C0
330
1
100
AcDbSymbolTableRecord
100
AcDbBlockTableRecord
  2
*D719
340
0
  0
ENDTAB
  0
ENDSEC
  0
SECTION
  2
BLOCKS
  0
BLOCK
  5
20
330
1F
100
AcDbEntity
  8
0
100
AcDbBlockBegin
  2
*Model_Space
 70
     0
 71
     0
 10
0.0
 20
0.0
 30
0.0
  3
*Model_Space
  1

  0
ENDBLK
  5
21
330
1F
100
AcDbEntity
  8
0
100
AcDbBlockEnd
  0
BLOCK
  5
1C
330
1B
100
AcDbEntity
 67
     1
  8
0
100
AcDbBlockBegin
  2
*Paper_Space
 70
     0
 71
     0
 10
0.0
 20
0.0
 30
0.0
  3
*Paper_Space
  1

  0
ENDBLK
  5
1D
330
1B
100
AcDbEntity
 67
     1
  8
0
100
AcDbBlockEnd
  0
BLOCK
  5
24
330
23
100
AcDbEntity
  8
0
100
AcDbBlockBegin
  2
*Paper_Space0
 70
     0
 71
     0
 10
0.0
 20
0.0
 30
0.0
  3
*Paper_Space0
  1

  0
ENDBLK
  5
25
330
23
100
AcDbEntity
  8
0
100
AcDbBlockEnd
  0
BLOCK
  5
37
330
36
100
AcDbEntity
  8
0
100
AcDbBlockBegin
  2
32-1-16
 70
     0
 71
     0
 10
245.5899691503856
 20
513.0121740169149
 30
0.0
  3
32-1-16
  1

  0
LINE
  5
62
330
36
100
AcDbEntity
  8
1
  6
Continuous
 62
     7
100
AcDbLine
 10
170.8696503699023
 20
802.4448909931818
 30
0.0
 11
174.8802133316616
 21
800.1293913876082
 31
0.0
  0
LINE
  5
63
330
36
100
AcDbEntity
  8
1
  6
Continuous
 62
     7
100
AcDbLine
 10
153.369057671618
 20
802.4448909931818
 30
0.0
 11
149.3584947098588
 21
800.1293913876082
 31
0.0
  0
LINE
  5
64
330
36
100
AcDbEntity
  8
1
  6
Continuous
 62
     7
100
AcDbLine
 10
176.1193540207601
 20
305.8131646370928
 30
0.0
 11
176.1193540207601
 21
312.9545930656357
 31
0.0
  0
LINE
  5
65
330
36
100
AcDbEntity
  8
1
  6
Continuous
 62
     7
100
AcDbLine
 10
175.41935402076
 20
313.5263418868058
 30
0.0
 11
162.1193540207598
 21
313.5263418868058
 31
0.0
  0
LINE
  5
66
330
36
100
AcDbEntity
  8
1
  6
Continuous
 62
     7
100
AcDbLine
 10
173.6773750824907
 20
304.5263418868058
 30
0.0
 11
173.6193540207601
 21
304.5263418868058
 31
0.0
  0
LINE
  5
67
330
36
100
AcDbEntity
  8
1
  6
Continuous
 62
     7
100
AcDbLine
 10
162.1193540207598
 20
303.5263418868058
 30
0.0
 11
171.8873032131912
 21
303.5263418868058
 31
0.0
  0
LINE
  5
68
330
36
100
AcDbEntity
  8
1
  6
Continuous
 62
     7
100
AcDbLine
 10
170.9176759998297
 20
304.5263418868058
 30
0.0
 11
162.1193540207598
 21
304.5263418868058
 31
0.0
  0
LINE
  5
69
330
36
100
AcDbEntity
  8
1
  6
Continuous
 62
     7
100
AcDbLine
 10
148.1193540207601
 20
312.9545930656357
 30
0.0
 11
148.1193540207601
 21
305.8131646370928
 31
0.0
  0
LINE
  5
6A
330
36
100
AcDbEntity
  8
1
  6
Continuous
 62
     7
100
AcDbLine
 10
162.1193540207598
 20
313.5263418868058
 30
0.0
 11
148.81935402076
 21
313.5263418868058
 31
0.0
  0
LINE
  5
6B
330
36
100
AcDbEntity
  8
1
  6
Continuous
 62
     7
100
AcDbLine
 10
150.6193540207598
 20
304.5263418868058
 30
0.0
 11
150.5613329590294
 21
304.5263418868058
 31
0.0
  0
LINE
  5
6C
330
36
100
AcDbEntity
  8
1
  6
Continuous
 62
     7
100
AcDbLine
 10
152.3514048283287
 20
303.5263418868058
 30
0.0
 11
162.1193540207598
 21
303.5263418868058
 31
0.0
  0
LINE
  5
6D
330
36
100
AcDbEntity
  8
1
  6
Continuous
 62
     7
100
AcDbLine
 10
162.1193540207598
 20
304.5263418868058
 30
0.0
 11
153.3210320416904
 21
304.5263418868058
 31
0.0
  0
LINE
  5
6E
330
36
100
AcDbEntity
  8
1
  6
Continuous
 62
     7
100
AcDbLine
 10
555.4357089860546
 20
313.5263418868058
 30
0.0
 11
542.1357089860545
 21
313.5263418868058
 31
0.0
  0
LINE
  5
6F
330
36
100
AcDbEntity
  8
1
  6
Continuous
 62
     7
100
AcDbLine
 10
555.3227089860545
 20
313.5263418868058
 30
0.0
 11
555.4357089860546
 21
313.5263418868058
 31
0.0
  0
LINE
  5
70
330
36
100
AcDbEntity
  8
1
  6
Continuous
 62
     7
100
AcDbLine
 10
553.693730047785
 20
304.5263418868058
 30
0.0
 11
553.6357089860545
 21
304.5263418868058
 31
0.0
  0
LINE
  5
71
330
36
100
AcDbEntity
  8
1
  6
Continuous
 62
     7
100
AcDbLine
 10
542.1357089860545
 20
303.5263418868058
 30
0.0
 11
551.9036581784856
 21
303.5263418868058
 31
0.0
  0
LINE
  5
72
330
36
100
AcDbEntity
  8
1
  6
Continuous
 62
     7
100
AcDbLine
 10
550.9340309651241
 20
304.5263418868058
 30
0.0
 11
542.1357089860545
 21
304.5263418868058
 31
0.0
  0
LINE
  5
73
330
36
100
AcDbEntity
  8
1
  6
Continuous
 62
     7
100
AcDbLine
 10
163.3584947098588
 20
775.880680081644
 30
0.0
 11
174.8802133316616
 21
782.5327474294688
 31
0.0
  0
LINE
  5
74
330
36
100
AcDbEntity
  8
1
  6
Continuous
 62
     7
100
AcDbLine
 10
149.3584947098588
 20
782.5327474294688
 30
0.0
 11
160.8802133316616
 21
775.880680081644
 31
0.0
  0
LINE
  5
75
330
36
100
AcDbEntity
  8
1
  6
Continuous
 62
     7
100
AcDbLine
 10
148.1193540207602
 20
797.9831367563636
 30
0.0
 11
148.1193540207602
 21
784.6790020607135
 31
0.0
  0
LINE
  5
76
330
36
100
AcDbEntity
  8
1
  6
Continuous
 62
     7
100
AcDbLine
 10
176.1193540207601
 20
797.9831367563636
 30
0.0
 11
176.1193540207601
 21
784.6790020607135
 31
0.0
  0
LINE
  5
77
330
36
100
AcDbEntity
  8
1
  6
Continuous
 62
     7
100
AcDbLine
 10
542.1357089860545
 20
313.5263418868058
 30
0.0
 11
528.8357089860544
 21
313.5263418868058
 31
0.0
  0
LINE
  5
78
330
36
100
AcDbEntity
  8
1
  6
Continuous
 62
     7
100
AcDbLine
 10
528.8357089860544
 20
313.5263418868058
 30
0.0
 11
528.9487089860544
 21
313.5263418868058
 31
0.0
  0
LINE
  5
79
330
36
100
AcDbEntity
  8
1
  6
Continuous
 62
     7
100
AcDbLine
 10
530.6357089860545
 20
304.5263418868058
 30
0.0
 11
530.577687924324
 21
304.5263418868058
 31
0.0
  0
LINE
  5
7A
330
36
100
AcDbEntity
  8
1
  6
Continuous
 62
     7
100
AcDbLine
 10
532.3677597936232
 20
303.5263418868058
 30
0.0
 11
542.1357089860545
 21
303.5263418868058
 31
0.0
  0
LINE
  5
7B
330
36
100
AcDbEntity
  8
1
  6
Continuous
 62
     7
100
AcDbLine
 10
542.1357089860545
 20
304.5263418868058
 30
0.0
 11
533.3373870069847
 21
304.5263418868058
 31
0.0
  0
ARC
  5
7C
330
36
100
AcDbEntity
  8
1
  6
Continuous
 62
     7
100
AcDbCircle
 10
172.6193540207601
 20
309.3838788513642
 30
0.0
 40
5.000000000000057
100
AcDbArc
 50
45.57299599919494
 51
55.94420225743315
  0
ARC
  5
7D
330
36
100
AcDbEntity
  8
1
  6
Continuous
 62
     7
100
AcDbCircle
 10
172.6193540207601
 20
309.3838788513642
 30
0.0
 40
4.999999999999955
100
AcDbArc
 50
-74.66244233044715
 51
-45.57299599919402
  0
ARC
  5
7E
330
36
100
AcDbEntity
  8
1
  6
Continuous
 62
     7
100
AcDbCircle
 10
151.6193540207598
 20
309.3838788513642
 30
0.0
 40
4.999999999999905
100
AcDbArc
 50
124.0557977425661
 51
134.4270040008025
  0
ARC
  5
7F
330
36
100
AcDbEntity
  8
1
  6
Continuous
 62
     7
100
AcDbCircle
 10
151.6193540207598
 20
309.3838788513642
 30
0.0
 40
4.999999999999757
100
AcDbArc
 50
-134.4270040008034
 51
-105.3375576695532
  0
ARC
  5
80
330
36
100
AcDbEntity
  8
1
  6
Continuous
 62
     7
100
AcDbCircle
 10
552.6357089860545
 20
309.3838788513642
 30
0.0
 40
5.0
100
AcDbArc
 50
-74.66244233044527
 51
55.94420225743153
  0
ARC
  5
81
330
36
100
AcDbEntity
  8
1
  6
Continuous
 62
     7
100
AcDbCircle
 10
162.1193540207601
 20
791.3310694085386
 30
0.0
 40
15.5
100
AcDbArc
 50
-90.0
 51
-85.41462091516044
  0
ARC
  5
82
330
36
100
AcDbEntity
  8
1
  6
Continuous
 62
     7
100
AcDbCircle
 10
162.1193540207601
 20
791.3310694085386
 30
0.0
 40
15.50000000000011
100
AcDbArc
 50
-34.58537908483946
 51
-25.41462091516118
  0
ARC
  5
83
330
36
100
AcDbEntity
  8
1
  6
Continuous
 62
     7
100
AcDbCircle
 10
162.1193540207601
 20
791.3310694085386
 30
0.0
 40
15.49999999999999
100
AcDbArc
 50
-94.58537908483893
 51
-90.0
  0
ARC
  5
84
330
36
100
AcDbEntity
  8
1
  6
Continuous
 62
     7
100
AcDbCircle
 10
162.1193540207601
 20
791.3310694085386
 30
0.0
 40
15.49999999999995
100
AcDbArc
 50
-154.5853790848387
 51
-145.4146209151602
  0
ARC
  5
85
330
36
100
AcDbEntity
  8
1
  6
Continuous
 62
     7
100
AcDbCircle
 10
162.1193540207601
 20
791.3310694085386
 30
0.0
 40
15.49999999999984
100
AcDbArc
 50
145.4146209151609
 51
154.5853790848391
  0
ARC
  5
86
330
36
100
AcDbEntity
  8
1
  6
Continuous
 62
     7
100
AcDbCircle
 10
162.1193540207601
 20
791.3310694085386
 30
0.0
 40
15.49999999999998
100
AcDbArc
 50
25.4146209151608
 51
34.58537908483877
  0
ARC
  5
87
330
36
100
AcDbEntity
  8
1
  6
Continuous
 62
     7
100
AcDbCircle
 10
531.6357089860545
 20
309.3838788513642
 30
0.0
 40
5.000000000000048
100
AcDbArc
 50
124.0557977425685
 51
-105.3375576695547
  0
SPLINE
  5
88
330
36
100
AcDbEntity
  8
1
  6
Continuous
 62
     7
100
AcDbSpline
210
0.0
220
0.0
230
1.0
 70
    11
 71
     3
 72
    79
 73
    75
 74
    73
 42
0.0000000001
 43
0.0000000001
 44
0.00000001
 40
0.0
 40
0.0
 40
0.0
 40
0.0
 40
0.2910229153817728
 40
0.5820342278737654
 40
0.8749339334363822
 40
1.167812547519249
 40
1.463561188767283
 40
1.759282806464701
 40
2.058487811140666
 40
2.357663885605811
 40
2.660503341347491
 40
2.963315625194651
 40
3.269530826276406
 40
3.575723468843726
 40
3.884662744191316
 40
4.193586027919032
 40
4.504289085610676
 40
4.814983882015262
 40
5.12629443097108
 40
5.437604979926903
 40
5.748299776331531
 40
6.059002834023119
 40
6.367926117750748
 40
6.676865393098219
 40
6.983058035665538
 40
7.289273236747448
 40
7.592085520594542
 40
7.894924976336235
 40
8.194101050801379
 40
8.49330605547722
 40
8.789027673174793
 40
9.084776314422772
 40
9.377654928505743
 40
9.67055463406836
 40
9.961565946560269
 40
10.25258886194216
 40
10.54295309984909
 40
10.83331733775613
 40
11.12434025313802
 40
11.4153515656298
 40
11.70825127119252
 40
12.00112988527539
 40
12.29687852652339
 40
12.592600144221
 40
12.89180514889675
 40
13.19098122336194
 40
13.49382067910363
 40
13.79663296295063
 40
14.10284816403244
 40
14.40904080659981
 40
14.71798008194735
 40
15.02690336567501
 40
15.33760642336668
 40
15.6483012197713
 40
15.95961176872707
 40
16.27092231768283
 40
16.58161711408752
 40
16.89232017177922
 40
17.20124345550693
 40
17.51018273085442
 40
17.81637537342154
 40
18.12259057450351
 40
18.42540285835062
 40
18.7282423140922
 40
19.02741838855738
 40
19.32662339323326
 40
19.62234501093084
 40
19.91809365217894
 40
20.21097226626183
 40
20.5038719718245
 40
20.79488328431629
 40
21.08590619969817
 40
21.37627043760521
 40
21.66663467551225
 40
21.66663467551225
 40
21.66663467551225
 40
21.66663467551225
 10
553.9700211842862
 20
312.9409481027653
 30
0.0
 10
553.8736461255693
 20
312.929272434964
 30
0.0
 10
553.6808998505451
 20
312.9059215648624
 30
0.0
 10
553.3969633412797
 20
312.8365655714119
 30
0.0
 10
553.1196990754213
 20
312.7431228138364
 30
0.0
 10
552.850946691571
 20
312.6232158278592
 30
0.0
 10
552.5933013080512
 20
312.4791703226719
 30
0.0
 10
552.3480743608167
 20
312.3111037218264
 30
0.0
 10
552.1178110047597
 20
312.1212689887526
 30
0.0
 10
551.9035787962434
 20
311.9101328600852
 30
0.0
 10
551.7076243674807
 20
311.6803532564516
 30
0.0
 10
551.5308670238599
 20
311.4326247242271
 30
0.0
 10
551.375096189893
 20
311.1698924843934
 30
0.0
 10
551.2411277725239
 20
310.8931414727514
 30
0.0
 10
551.1302047412386
 20
310.6054094949878
 30
0.0
 10
551.0430279488669
 20
310.308056048565
 30
0.0
 10
550.9802799387744
 20
310.0040100524219
 30
0.0
 10
550.9424795595618
 20
309.6950684566679
 30
0.0
 10
550.9298024860734
 20
309.3838788513651
 30
0.0
 10
550.9424795595617
 20
309.0726892460568
 30
0.0
 10
550.9802799387757
 20
308.7637476503197
 30
0.0
 10
551.0430279488621
 20
308.4597016541147
 30
0.0
 10
551.1302047412555
 20
308.1623482079212
 30
0.0
 10
551.2411277724606
 20
307.8746162293062
 30
0.0
 10
551.3750961901264
 20
307.5978652208144
 30
0.0
 10
551.5308670229936
 20
307.33513296929
 30
0.0
 10
551.7076243706749
 20
307.0874044802318
 30
0.0
 10
551.9035787843781
 20
306.8576247165109
 30
0.0
 10
552.1178110484489
 20
306.646489178403
 30
0.0
 10
552.3480741984835
 20
306.4566522552755
 30
0.0
 10
552.5933019060785
 20
306.2885937371806
 30
0.0
 10
552.8509444677582
 20
306.1445182353879
 30
0.0
 10
553.1197072856494
 20
306.024722164908
 30
0.0
 10
553.3969327713418
 20
305.9308671680668
 30
0.0
 10
553.6810131248444
 20
305.863040261477
 30
0.0
 10
553.9693806053572
 20
305.8223452998532
 30
0.0
 10
554.260064639037
 20
305.8085795062885
 30
0.0
 10
554.5507486727163
 20
305.8223452998533
 30
0.0
 10
554.8391161532293
 20
305.8630402614771
 30
0.0
 10
555.1231965067318
 20
305.9308671680668
 30
0.0
 10
555.400421992424
 20
306.024722164908
 30
0.0
 10
555.6691848103155
 20
306.1445182353879
 30
0.0
 10
555.9268273719946
 20
306.2885937371807
 30
0.0
 10
556.1720550795901
 20
306.4566522552756
 30
0.0
 10
556.4023182296241
 20
306.6464891784033
 30
0.0
 10
556.6165504936955
 20
306.8576247165109
 30
0.0
 10
556.8125049073988
 20
307.0874044802318
 30
0.0
 10
556.9892622550798
 20
307.3351329692899
 30
0.0
 10
557.1450330879471
 20
307.5978652208142
 30
0.0
 10
557.279001505613
 20
307.8746162293063
 30
0.0
 10
557.3899245368177
 20
308.162348207921
 30
0.0
 10
557.4771013292111
 20
308.4597016541149
 30
0.0
 10
557.5398493392981
 20
308.7637476503197
 30
0.0
 10
557.577649718512
 20
309.0726892460572
 30
0.0
 10
557.5903267919998
 20
309.3838788513643
 30
0.0
 10
557.5776497185118
 20
309.695068456671
 30
0.0
 10
557.5398493392979
 20
310.0040100524097
 30
0.0
 10
557.4771013292113
 20
310.3080560486102
 30
0.0
 10
557.3899245368167
 20
310.6054094948204
 30
0.0
 10
557.2790015056172
 20
310.8931414733741
 30
0.0
 10
557.1450330879308
 20
311.1698924820922
 30
0.0
 10
556.9892622551421
 20
311.4326247327779
 30
0.0
 10
556.8125049071696
 20
311.6803532249318
 30
0.0
 10
556.6165504945466
 20
311.910132977172
 30
0.0
 10
556.4023182264913
 20
312.1212685576316
 30
0.0
 10
556.1720550912315
 20
312.3111053237
 30
0.0
 10
555.9268273291077
 20
312.4791644214477
 30
0.0
 10
555.6691849697954
 20
312.6232377720412
 30
0.0
 10
555.4004214036297
 20
312.7430417967984
 30
0.0
 10
555.1231986990472
 20
312.8368672300032
 30
0.0
 10
554.8391080297912
 20
312.9048037946756
 30
0.0
 10
554.5507789687201
 20
312.9450903515919
 30
0.0
 10
554.2599518560542
 20
312.9603770972762
 30
0.0
 10
554.0666647415422
 20
312.947424434269
 30
0.0
 10
553.9700211842862
 20
312.9409481027653
 30
0.0
 11
553.9700211842862
 21
312.9409481027653
 31
0.0
 11
553.6818616880114
 21
312.9002241296789
 31
0.0
 11
553.3987794816288
 21
312.8327552596136
 31
0.0
 11
553.1213554390851
 21
312.7388077309748
 31
0.0
 11
552.8537936869677
 21
312.6196918571754
 31
0.0
 11
552.5956613182525
 21
312.4753487277181
 31
0.0
 11
552.3516486656415
 21
312.3082885573024
 31
0.0
 11
552.1207691601106
 21
312.1179775257016
 31
0.0
 11
551.9075938651594
 21
311.9080665513462
 31
0.0
 11
551.711059541151
 21
311.6776625682198
 31
0.0
 11
551.5350860053513
 21
311.431230845532
 31
0.0
 11
551.3788888648786
 21
311.1678486086942
 31
0.0
 11
551.2453931769144
 21
310.8922894759163
 31
0.0
 11
551.1342432513574
 21
310.604037555019
 31
0.0
 11
551.0472665973309
 21
310.3076110769786
 31
0.0
 11
550.9844615230095
 21
310.0033218844357
 31
0.0
 11
550.9466861613378
 21
309.6949320685152
 31
0.0
 11
550.9340309651242
 21
309.3838788513642
 31
0.0
 11
550.9466861613379
 21
309.0728256342133
 31
0.0
 11
550.9844615230095
 21
308.7644358182927
 31
0.0
 11
551.0472665973309
 21
308.4601466257499
 31
0.0
 11
551.1342432513573
 21
308.1637201477095
 31
0.0
 11
551.2453931769144
 21
307.8754682268124
 31
0.0
 11
551.3788888648787
 21
307.5999090940345
 31
0.0
 11
551.5350860053516
 21
307.3365268571966
 31
0.0
 11
551.7110595411511
 21
307.0900951345088
 31
0.0
 11
551.9075938651594
 21
306.8596911513823
 31
0.0
 11
552.1207691601105
 21
306.6497801770268
 31
0.0
 11
552.3516486656413
 21
306.4594691454261
 31
0.0
 11
552.5956613182525
 21
306.2924089750104
 31
0.0
 11
552.8537936869677
 21
306.1480658455532
 31
0.0
 11
553.1213554390852
 21
306.0289499717538
 31
0.0
 11
553.3987794816289
 21
305.935002443115
 31
0.0
 11
553.6818616880114
 21
305.8675335730496
 31
0.0
 11
553.9700211842863
 21
305.8268095999631
 31
0.0
 11
554.2600646390367
 21
305.8131646370929
 31
0.0
 11
554.5501080937872
 21
305.8268095999632
 31
0.0
 11
554.8382675900622
 21
305.8675335730497
 31
0.0
 11
555.1213497964445
 21
305.935002443115
 31
0.0
 11
555.3987738389884
 21
306.0289499717538
 31
0.0
 11
555.6663355911057
 21
306.1480658455532
 31
0.0
 11
555.924467959821
 21
306.2924089750105
 31
0.0
 11
556.1684806124322
 21
306.4594691454262
 31
0.0
 11
556.3993601179628
 21
306.6497801770269
 31
0.0
 11
556.6125354129141
 21
306.8596911513823
 31
0.0
 11
556.8090697369223
 21
307.0900951345088
 31
0.0
 11
556.9850432727219
 21
307.3365268571965
 31
0.0
 11
557.1412404131947
 21
307.5999090940343
 31
0.0
 11
557.2747361011591
 21
307.8754682268123
 31
0.0
 11
557.3858860267161
 21
308.1637201477095
 31
0.0
 11
557.4728626807425
 21
308.4601466257499
 31
0.0
 11
557.5356677550641
 21
308.7644358182928
 31
0.0
 11
557.5734431167357
 21
309.0728256342133
 31
0.0
 11
557.5860983129493
 21
309.3838788513642
 31
0.0
 11
557.5734431167356
 21
309.6949320685151
 31
0.0
 11
557.535667755064
 21
310.0033218844357
 31
0.0
 11
557.4728626807425
 21
310.3076110769787
 31
0.0
 11
557.3858860267161
 21
310.6040375550192
 31
0.0
 11
557.2747361011591
 21
310.8922894759163
 31
0.0
 11
557.141240413195
 21
311.167848608694
 31
0.0
 11
556.985043272722
 21
311.431230845532
 31
0.0
 11
556.8090697369223
 21
311.6776625682197
 31
0.0
 11
556.6125354129142
 21
311.9080665513462
 31
0.0
 11
556.3993601179629
 21
312.1179775257016
 31
0.0
 11
556.1684806124322
 21
312.3082885573024
 31
0.0
 11
555.9244679598211
 21
312.4753487277182
 31
0.0
 11
555.6663355911057
 21
312.6196918571754
 31
0.0
 11
555.3987738389884
 21
312.7388077309749
 31
0.0
 11
555.1213497964445
 21
312.8327552596136
 31
0.0
 11
554.8382675900622
 21
312.9002241296789
 31
0.0
 11
554.5501080937872
 21
312.9409481027653
 31
0.0
 11
554.2600646390367
 21
312.9545930656356
 31
0.0
 11
553.9700211842862
 21
312.9409481027653
 31
0.0
  0
SPLINE
  5
89
330
36
100
AcDbEntity
  8
1
  6
Continuous
 62
     7
100
AcDbSpline
210
0.0
220
0.0
230
1.0
 70
    11
 71
     3
 72
    79
 73
    75
 74
    73
 42
0.0000000001
 43
0.0000000001
 44
0.00000001
 40
0.0
 40
0.0
 40
0.0
 40
0.0
 40
0.2910229153818854
 40
0.5820342278737674
 40
0.8749339334362765
 40
1.167812547519248
 40
1.463561188767282
 40
1.7592828064647
 40
2.058487811140576
 40
2.357663885605803
 40
2.660503341347483
 40
2.963315625194642
 40
3.269530826276397
 40
3.575723468843717
 40
3.884662744191348
 40
4.193586027919032
 40
4.504289085610653
 40
4.814983882015238
 40
5.126294430971061
 40
5.43760497992688
 40
5.748299776331535
 40
6.059002834023146
 40
6.367926117750711
 40
6.676865393098183
 40
6.983058035665452
 40
7.28927323674742
 40
7.592085520594514
 40
7.894924976336281
 40
8.194101050801345
 40
8.493306055477273
 40
8.789027673174752
 40
9.084776314422731
 40
9.377654928505702
 40
9.670554634068319
 40
9.961565946560228
 40
10.25258886194212
 40
10.54295309984905
 40
10.83331733775609
 40
11.12434025313787
 40
11.41535156562975
 40
11.70825127119237
 40
12.00112988527534
 40
12.29687852652325
 40
12.59260014422076
 40
12.89180514889678
 40
13.19098122336188
 40
13.49382067910365
 40
13.79663296295065
 40
14.10284816403252
 40
14.40904080659979
 40
14.71798008194741
 40
15.02690336567501
 40
15.33760642336665
 40
15.64830121977129
 40
15.95961176872705
 40
16.27092231768281
 40
16.58161711408751
 40
16.89232017177921
 40
17.20124345550693
 40
17.51018273085441
 40
17.81637537342153
 40
18.1225905745035
 40
18.42540285835061
 40
18.72824231409226
 40
19.02741838855729
 40
19.32662339323334
 40
19.62234501093091
 40
19.91809365217892
 40
20.21097226626192
 40
20.50387197182437
 40
20.79488328431627
 40
21.08590619969815
 40
21.37627043760519
 40
21.66663467551224
 40
21.66663467551224
 40
21.66663467551224
 40
21.66663467551224
 10
530.3013967878228
 20
312.9409481027653
 30
0.0
 10
530.3977718465397
 20
312.929272434964
 30
0.0
 10
530.5905181215642
 20
312.9059215648624
 30
0.0
 10
530.8744546308292
 20
312.8365655714121
 30
0.0
 10
531.1517188966878
 20
312.7431228138364
 30
0.0
 10
531.4204712805378
 20
312.6232158278593
 30
0.0
 10
531.6781166640576
 20
312.479170322672
 30
0.0
 10
531.9233436112924
 20
312.3111037218265
 30
0.0
 10
532.1536069673493
 20
312.1212689887525
 30
0.0
 10
532.3678391758655
 20
311.9101328600854
 30
0.0
 10
532.5637936046285
 20
311.6803532564515
 30
0.0
 10
532.7405509482492
 20
311.4326247242272
 30
0.0
 10
532.8963217822161
 20
311.1698924843933
 30
0.0
 10
533.0302901995854
 20
310.8931414727514
 30
0.0
 10
533.1412132308706
 20
310.6054094949878
 30
0.0
 10
533.228390023242
 20
310.3080560485649
 30
0.0
 10
533.2911380333345
 20
310.0040100524218
 30
0.0
 10
533.328938412547
 20
309.6950684566677
 30
0.0
 10
533.3416154860356
 20
309.3838788513652
 30
0.0
 10
533.3289384125475
 20
309.0726892460568
 30
0.0
 10
533.2911380333335
 20
308.7637476503197
 30
0.0
 10
533.2283900232463
 20
308.4597016541148
 30
0.0
 10
533.1412132308539
 20
308.1623482079211
 30
0.0
 10
533.0302901996481
 20
307.8746162293063
 30
0.0
 10
532.8963217819828
 20
307.5978652208142
 30
0.0
 10
532.7405509491155
 20
307.33513296929
 30
0.0
 10
532.5637936014341
 20
307.0874044802317
 30
0.0
 10
532.3678391877309
 20
306.8576247165111
 30
0.0
 10
532.1536069236599
 20
306.646489178403
 30
0.0
 10
531.9233437736255
 20
306.4566522552756
 30
0.0
 10
531.6781160660304
 20
306.2885937371806
 30
0.0
 10
531.4204735043509
 20
306.1445182353878
 30
0.0
 10
531.1517106864596
 20
306.0247221649081
 30
0.0
 10
530.8744852007673
 20
305.9308671680668
 30
0.0
 10
530.5904048472648
 20
305.863040261477
 30
0.0
 10
530.3020373667517
 20
305.8223452998532
 30
0.0
 10
530.0113533330723
 20
305.8085795062885
 30
0.0
 10
529.7206692993929
 20
305.8223452998533
 30
0.0
 10
529.4323018188796
 20
305.863040261477
 30
0.0
 10
529.1482214653775
 20
305.9308671680669
 30
0.0
 10
528.870995979685
 20
306.024722164908
 30
0.0
 10
528.6022331617937
 20
306.1445182353878
 30
0.0
 10
528.3445906001143
 20
306.2885937371808
 30
0.0
 10
528.0993628925191
 20
306.4566522552757
 30
0.0
 10
527.8690997424847
 20
306.646489178403
 30
0.0
 10
527.6548674784135
 20
306.857624716511
 30
0.0
 10
527.4589130647103
 20
307.0874044802317
 30
0.0
 10
527.2821557170291
 20
307.33513296929
 30
0.0
 10
527.1263848841614
 20
307.5978652208141
 30
0.0
 10
526.9924164664964
 20
307.8746162293063
 30
0.0
 10
526.8814934352907
 20
308.1623482079211
 30
0.0
 10
526.7943166428979
 20
308.4597016541149
 30
0.0
 10
526.7315686328111
 20
308.7637476503197
 30
0.0
 10
526.693768253597
 20
309.0726892460571
 30
0.0
 10
526.6810911801092
 20
309.3838788513643
 30
0.0
 10
526.693768253597
 20
309.695068456671
 30
0.0
 10
526.7315686328113
 20
310.0040100524099
 30
0.0
 10
526.7943166428973
 20
310.3080560486102
 30
0.0
 10
526.8814934352923
 20
310.6054094948204
 30
0.0
 10
526.9924164664917
 20
310.8931414733741
 30
0.0
 10
527.1263848841784
 20
311.1698924820921
 30
0.0
 10
527.2821557169668
 20
311.4326247327779
 30
0.0
 10
527.4589130649397
 20
311.6803532249318
 30
0.0
 10
527.6548674775625
 20
311.9101329771719
 30
0.0
 10
527.8690997456179
 20
312.1212685576317
 30
0.0
 10
528.0993628808773
 20
312.3111053237
 30
0.0
 10
528.3445906430014
 20
312.4791644214475
 30
0.0
 10
528.6022330023136
 20
312.6232377720413
 30
0.0
 10
528.8709965684793
 20
312.7430417967984
 30
0.0
 10
529.1482192730618
 20
312.8368672300034
 30
0.0
 10
529.4323099423177
 20
312.9048037946756
 30
0.0
 10
529.720639003389
 20
312.945090351592
 30
0.0
 10
530.0114661160549
 20
312.9603770972763
 30
0.0
 10
530.2047532305669
 20
312.947424434269
 30
0.0
 10
530.3013967878228
 20
312.9409481027653
 30
0.0
 11
530.3013967878228
 21
312.9409481027653
 31
0.0
 11
530.5895562840977
 21
312.9002241296789
 31
0.0
 11
530.8726384904802
 21
312.8327552596136
 31
0.0
 11
531.1500625330239
 21
312.7388077309748
 31
0.0
 11
531.4176242851413
 21
312.6196918571754
 31
0.0
 11
531.6757566538565
 21
312.4753487277181
 31
0.0
 11
531.9197693064675
 21
312.3082885573024
 31
0.0
 11
532.1506488119983
 21
312.1179775257016
 31
0.0
 11
532.3638241069497
 21
311.9080665513462
 31
0.0
 11
532.560358430958
 21
311.6776625682198
 31
0.0
 11
532.7363319667577
 21
311.431230845532
 31
0.0
 11
532.8925291072304
 21
311.1678486086942
 31
0.0
 11
533.0260247951946
 21
310.8922894759163
 31
0.0
 11
533.1371747207518
 21
310.604037555019
 31
0.0
 11
533.2241513747781
 21
310.3076110769786
 31
0.0
 11
533.2869564490994
 21
310.0033218844357
 31
0.0
 11
533.3247318107711
 21
309.6949320685152
 31
0.0
 11
533.3373870069848
 21
309.3838788513642
 31
0.0
 11
533.3247318107713
 21
309.0728256342133
 31
0.0
 11
533.2869564490994
 21
308.7644358182927
 31
0.0
 11
533.2241513747779
 21
308.4601466257499
 31
0.0
 11
533.1371747207518
 21
308.1637201477095
 31
0.0
 11
533.0260247951946
 21
307.8754682268124
 31
0.0
 11
532.8925291072304
 21
307.5999090940345
 31
0.0
 11
532.7363319667575
 21
307.3365268571966
 31
0.0
 11
532.5603584309579
 21
307.0900951345088
 31
0.0
 11
532.3638241069496
 21
306.8596911513823
 31
0.0
 11
532.1506488119985
 21
306.6497801770268
 31
0.0
 11
531.9197693064676
 21
306.4594691454261
 31
0.0
 11
531.6757566538565
 21
306.2924089750104
 31
0.0
 11
531.4176242851413
 21
306.1480658455532
 31
0.0
 11
531.1500625330239
 21
306.0289499717538
 31
0.0
 11
530.8726384904801
 21
305.935002443115
 31
0.0
 11
530.5895562840976
 21
305.8675335730496
 31
0.0
 11
530.3013967878227
 21
305.8268095999631
 31
0.0
 11
530.0113533330723
 21
305.8131646370929
 31
0.0
 11
529.7213098783218
 21
305.8268095999632
 31
0.0
 11
529.433150382047
 21
305.8675335730497
 31
0.0
 11
529.1500681756645
 21
305.935002443115
 31
0.0
 11
528.8726441331207
 21
306.0289499717538
 31
0.0
 11
528.6050823810033
 21
306.1480658455532
 31
0.0
 11
528.3469500122882
 21
306.2924089750105
 31
0.0
 11
528.1029373596771
 21
306.4594691454262
 31
0.0
 11
527.8720578541461
 21
306.6497801770269
 31
0.0
 11
527.6588825591949
 21
306.8596911513823
 31
0.0
 11
527.4623482351866
 21
307.0900951345088
 31
0.0
 11
527.286374699387
 21
307.3365268571965
 31
0.0
 11
527.1301775589141
 21
307.5999090940343
 31
0.0
 11
526.9966818709499
 21
307.8754682268123
 31
0.0
 11
526.8855319453927
 21
308.1637201477095
 31
0.0
 11
526.7985552913665
 21
308.4601466257499
 31
0.0
 11
526.7357502170451
 21
308.7644358182928
 31
0.0
 11
526.6979748553733
 21
309.0728256342133
 31
0.0
 11
526.6853196591598
 21
309.3838788513642
 31
0.0
 11
526.6979748553733
 21
309.6949320685151
 31
0.0
 11
526.7357502170451
 21
310.0033218844357
 31
0.0
 11
526.7985552913665
 21
310.3076110769787
 31
0.0
 11
526.8855319453929
 21
310.6040375550192
 31
0.0
 11
526.9966818709499
 21
310.8922894759163
 31
0.0
 11
527.1301775589141
 21
311.167848608694
 31
0.0
 11
527.286374699387
 21
311.431230845532
 31
0.0
 11
527.4623482351867
 21
311.6776625682197
 31
0.0
 11
527.6588825591949
 21
311.9080665513462
 31
0.0
 11
527.872057854146
 21
312.1179775257016
 31
0.0
 11
528.102937359677
 21
312.3082885573024
 31
0.0
 11
528.3469500122881
 21
312.4753487277182
 31
0.0
 11
528.6050823810033
 21
312.6196918571754
 31
0.0
 11
528.8726441331207
 21
312.7388077309749
 31
0.0
 11
529.1500681756644
 21
312.8327552596136
 31
0.0
 11
529.4331503820469
 21
312.9002241296789
 31
0.0
 11
529.7213098783218
 21
312.9409481027653
 31
0.0
 11
530.0113533330723
 21
312.9545930656356
 31
0.0
 11
530.3013967878228
 21
312.9409481027653
 31
0.0
  0
SPLINE
  5
8A
330
36
100
AcDbEntity
  8
1
  6
Continuous
 62
     7
100
AcDbSpline
210
0.0
220
0.0
230
1.0
 70
    11
 71
     3
 72
    79
 73
    75
 74
    73
 42
0.0000000001
 43
0.0000000001
 44
0.00000001
 40
0.0
 40
0.0
 40
0.0
 40
0.0
 40
0.326118988163973
 40
0.6517242273663668
 40
1.007570734071947
 40
1.362786578155939
 40
1.759886314710522
 40
2.156516714717159
 40
2.599210008268928
 40
3.041603627004256
 40
3.528307206464694
 40
4.014826849024984
 40
4.539616314404018
 40
5.064295509496603
 40
5.618233632287882
 40
6.172109437578923
 40
6.744280968665964
 40
7.316424323670572
 40
7.894787044418073
 40
8.47314976516569
 40
9.045293120170411
 40
9.617464651257221
 40
10.17134045654825
 40
10.72527857933953
 40
11.24995777443223
 40
11.77474723981113
 40
12.26126688237153
 40
12.74797046183199
 40
13.19036408056732
 40
13.63305737411918
 40
14.02968777412586
 40
14.42678751068032
 40
14.78200335476431
 40
15.13784986146989
 40
15.4634551006723
 40
15.78957408883624
 40
16.10448972240907
 40
16.41940535598192
 40
16.74552434414575
 40
17.0711295833482
 40
17.42697609005379
 40
17.78219193413775
 40
18.17929167069233
 40
18.57592207069901
 40
19.01861536425084
 40
19.46100898298614
 40
19.94771256244652
 40
20.43423220500694
 40
20.95902167038597
 40
21.48370086547865
 40
22.03763898826982
 40
22.59151479356085
 40
23.16368632464778
 40
23.7358296796525
 40
24.3141924004
 40
24.8925551211475
 40
25.46469847615222
 40
26.03687000723914
 40
26.59074581253007
 40
27.14468393532136
 40
27.66936313041408
 40
28.19415259579314
 40
28.6806722383534
 40
29.16737581781389
 40
29.60976943654919
 40
30.05246273010093
 40
30.4490931301076
 40
30.84619286666211
 40
31.20140871074614
 40
31.55725521745168
 40
31.88286045665426
 40
32.20897944481807
 40
32.52389507839092
 40
32.83881071196387
 40
32.83881071196387
 40
32.83881071196387
 40
32.83881071196387
 10
548.7614881429442
 20
309.6976953380025
 30
0.0
 10
548.7389308689494
 20
309.8042850962745
 30
0.0
 10
548.6938518563821
 20
310.0172966974882
 30
0.0
 10
548.5593240848109
 20
310.3271151922036
 30
0.0
 10
548.3825799946269
 20
310.6248990380869
 30
0.0
 10
548.1536985818722
 20
310.9160450816756
 30
0.0
 10
547.8844806720907
 20
311.1894372987621
 30
0.0
 10
547.5672105561681
 20
311.4533970258735
 30
0.0
 10
547.2151581354787
 20
311.6964032269575
 30
0.0
 10
546.8192847676885
 20
311.9260574775852
 30
0.0
 10
546.394576353031
 20
312.1326084366867
 30
0.0
 10
545.9320589796841
 20
312.3216111918645
 30
0.0
 10
545.4468184779009
 20
312.4859249865046
 30
0.0
 10
544.9315769898728
 20
312.6289404883428
 30
0.0
 10
544.3999117291148
 20
312.7460929239871
 30
0.0
 10
543.8474626795157
 20
312.8390668150141
 30
0.0
 10
543.2850718395806
 20
312.9053858739788
 30
0.0
 10
542.7120551893319
 20
312.9457321320231
 30
0.0
 10
542.135708986058
 20
312.9590224638011
 30
0.0
 10
541.559362782762
 20
312.9457321320252
 30
0.0
 10
540.9863461325798
 20
312.9053858739701
 30
0.0
 10
540.4239552924039
 20
312.8390668150458
 30
0.0
 10
539.8715062436742
 20
312.7460929238724
 30
0.0
 10
539.3398409797505
 20
312.6289404887619
 30
0.0
 10
538.8245995029413
 20
312.4859249850321
 30
0.0
 10
538.3393589607704
 20
312.3216111972014
 30
0.0
 10
537.8768417276951
 20
312.1326084183738
 30
0.0
 10
537.4521328134911
 20
311.9260575434965
 30
0.0
 10
537.0562611491305
 20
311.6964030056677
 30
0.0
 10
536.7042027143631
 20
311.4533978185674
 30
0.0
 10
536.386952837676
 20
311.1894346790869
 30
0.0
 10
536.1176637085123
 20
310.9160544697071
 30
0.0
 10
535.889021716393
 20
310.6248680593998
 30
0.0
 10
535.7114289911449
 20
310.327227294805
 30
0.0
 10
535.5798159195106
 20
310.0169173768142
 30
0.0
 10
535.502390943434
 20
309.7027587997882
 30
0.0
 10
535.4744308263212
 20
309.3838788513642
 30
0.0
 10
535.5023909434343
 20
309.0649989029404
 30
0.0
 10
535.5798159195103
 20
308.7508403259143
 30
0.0
 10
535.7114289911451
 20
308.4405304079235
 30
0.0
 10
535.8890217163931
 20
308.1428896433289
 30
0.0
 10
536.1176637085122
 20
307.8517032330212
 30
0.0
 10
536.3869528376761
 20
307.5783230236415
 30
0.0
 10
536.7042027143632
 20
307.314359884161
 30
0.0
 10
537.0562611491307
 20
307.0713546970608
 30
0.0
 10
537.4521328134912
 20
306.841700159232
 30
0.0
 10
537.8768417276951
 20
306.6351492843548
 30
0.0
 10
538.3393589607705
 20
306.4461465055269
 30
0.0
 10
538.8245995029412
 20
306.2818327176962
 30
0.0
 10
539.3398409797508
 20
306.1388172139667
 30
0.0
 10
539.8715062436741
 20
306.0216647788559
 30
0.0
 10
540.4239552924041
 20
305.9286908876826
 30
0.0
 10
540.9863461325797
 20
305.8623718287583
 30
0.0
 10
541.5593627827628
 20
305.8220255707031
 30
0.0
 10
542.1357089860546
 20
305.8087352389282
 30
0.0
 10
542.7120551893448
 20
305.8220255707027
 30
0.0
 10
543.2850718395328
 20
305.8623718287589
 30
0.0
 10
543.8474626796915
 20
305.9286908876801
 30
0.0
 10
544.3999117284825
 20
306.0216647788639
 30
0.0
 10
544.9315769921827
 20
306.1388172139369
 30
0.0
 10
545.4468184697835
 20
306.2818327178001
 30
0.0
 10
545.9320590091056
 20
306.4461465051508
 30
0.0
 10
546.394576252075
 20
306.6351492856465
 30
0.0
 10
546.819285131043
 20
306.8417001545829
 30
0.0
 10
547.2151569155567
 20
307.0713547126696
 30
0.0
 10
547.5672149261151
 20
307.3143598282477
 30
0.0
 10
547.8844662303964
 20
307.5783232084228
 30
0.0
 10
548.1537503360325
 20
307.8517025708275
 30
0.0
 10
548.3824092159154
 20
308.1428918284402
 30
0.0
 10
548.5599420818777
 20
308.4405225006594
 30
0.0
 10
548.6917607446598
 20
308.7508670816607
 30
0.0
 10
548.7684406062178
 20
309.064900031135
 30
0.0
 10
548.799092506526
 20
309.3842338186996
 30
0.0
 10
548.7740229308049
 20
309.5932081649016
 30
0.0
 10
548.7614881429441
 20
309.6976953380025
 30
0.0
 11
548.7614881429442
 21
309.6976953380025
 31
0.0
 11
548.6833154803903
 21
310.0143065021618
 31
0.0
 11
548.5576092253137
 21
310.3146674670535
 31
0.0
 11
548.3760528418786
 21
310.6207132413562
 31
0.0
 11
548.1576907819837
 21
310.9008851648009
 31
0.0
 11
547.8799432326084
 21
311.1846887933679
 31
0.0
 11
547.575643680429
 21
311.4390850526817
 31
0.0
 11
547.21199605511
 21
311.6915484297397
 31
0.0
 11
546.8296630482311
 21
311.9141098499109
 31
0.0
 11
546.3923944874559
 21
312.1278306491263
 31
0.0
 11
545.9421990597568
 21
312.3122905078376
 31
0.0
 11
545.4453593381422
 21
312.4812706072539
 31
0.0
 11
544.9398726702229
 21
312.6218817245913
 31
0.0
 11
544.3990148632158
 21
312.7415490822164
 31
0.0
 11
543.852844555099
 21
312.8336164609036
 31
0.0
 11
543.2846445880596
 21
312.9009147405467
 31
0.0
 11
542.713914910009
 21
312.9411099301615
 31
0.0
 11
542.1357089860544
 21
312.9545764165002
 31
0.0
 11
541.5575030620997
 21
312.9411099301614
 31
0.0
 11
540.986773384049
 21
312.9009147405466
 31
0.0
 11
540.4185734170098
 21
312.8336164609035
 31
0.0
 11
539.872403108893
 21
312.7415490822164
 31
0.0
 11
539.3315453018859
 21
312.6218817245913
 31
0.0
 11
538.8260586339665
 21
312.4812706072539
 31
0.0
 11
538.329218912352
 21
312.3122905078377
 31
0.0
 11
537.8790234846528
 21
312.1278306491263
 31
0.0
 11
537.4417549238776
 21
311.9141098499109
 31
0.0
 11
537.0594219169986
 21
311.6915484297397
 31
0.0
 11
536.6957742916795
 21
311.4390850526817
 31
0.0
 11
536.3914747395002
 21
311.1846887933678
 31
0.0
 11
536.113727190125
 21
310.9008851648009
 31
0.0
 11
535.8953651302301
 21
310.6207132413562
 31
0.0
 11
535.7138087467949
 21
310.3146674670535
 31
0.0
 11
535.5881024917185
 21
310.0143065021617
 31
0.0
 11
535.5099298291647
 21
309.6976953380024
 31
0.0
 11
535.4836416382295
 21
309.3838788513642
 31
0.0
 11
535.5099298291648
 21
309.070062364726
 31
0.0
 11
535.5881024917184
 21
308.7534512005668
 31
0.0
 11
535.7138087467949
 21
308.453090235675
 31
0.0
 11
535.8953651302302
 21
308.1470444613724
 31
0.0
 11
536.113727190125
 21
307.8668725379276
 31
0.0
 11
536.3914747395003
 21
307.5830689093606
 31
0.0
 11
536.6957742916796
 21
307.3286726500468
 31
0.0
 11
537.0594219169988
 21
307.0762092729888
 31
0.0
 11
537.4417549238777
 21
306.8536478528176
 31
0.0
 11
537.8790234846528
 21
306.6399270536022
 31
0.0
 11
538.329218912352
 21
306.4554671948907
 31
0.0
 11
538.8260586339666
 21
306.2864870954745
 31
0.0
 11
539.331545301886
 21
306.1458759781372
 31
0.0
 11
539.872403108893
 21
306.026208620512
 31
0.0
 11
540.4185734170098
 21
305.9341412418249
 31
0.0
 11
540.9867733840491
 21
305.8668429621818
 31
0.0
 11
541.5575030620998
 21
305.826647772567
 31
0.0
 11
542.1357089860544
 21
305.8131812862283
 31
0.0
 11
542.713914910009
 21
305.8266477725668
 31
0.0
 11
543.2846445880597
 21
305.8668429621817
 31
0.0
 11
543.852844555099
 21
305.9341412418247
 31
0.0
 11
544.3990148632157
 21
306.0262086205119
 31
0.0
 11
544.9398726702228
 21
306.145875978137
 31
0.0
 11
545.4453593381422
 21
306.2864870954745
 31
0.0
 11
545.9421990597568
 21
306.4554671948908
 31
0.0
 11
546.3923944874559
 21
306.6399270536022
 31
0.0
 11
546.8296630482311
 21
306.8536478528176
 31
0.0
 11
547.21199605511
 21
307.0762092729888
 31
0.0
 11
547.575643680429
 21
307.3286726500468
 31
0.0
 11
547.8799432326084
 21
307.5830689093606
 31
0.0
 11
548.1576907819836
 21
307.8668725379276
 31
0.0
 11
548.3760528418785
 21
308.1470444613724
 31
0.0
 11
548.5576092253136
 21
308.453090235675
 31
0.0
 11
548.6833154803904
 21
308.7534512005668
 31
0.0
 11
548.7614881429441
 21
309.070062364726
 31
0.0
 11
548.7877763338794
 21
309.3838788513642
 31
0.0
 11
548.7614881429441
 21
309.6976953380025
 31
0.0
  0
SPLINE
  5
8B
330
36
100
AcDbEntity
  8
1
  6
Continuous
 62
     7
100
AcDbSpline
210
0.0
220
0.0
230
1.0
 70
    11
 71
     3
 72
    79
 73
    75
 74
    73
 42
0.0000000001
 43
0.0000000001
 44
0.00000001
 40
0.0
 40
0.0
 40
0.0
 40
0.0
 40
0.3210813131182333
 40
0.641895145134018
 40
0.9828988941044179
 40
1.323531056220985
 40
1.692967059529091
 40
2.062075182676663
 40
2.463733858567334
 40
2.865152866614829
 40
3.298564783375496
 40
3.731815227792708
 40
4.19313126461892
 40
4.654344171660687
 40
5.137240970539681
 40
5.620077103492198
 40
6.116559529336318
 40
6.613013907632015
 40
7.114121234392165
 40
7.615228561152399
 40
8.111682939448233
 40
8.60816536529239
 40
9.091001498244957
 40
9.573898297123938
 40
10.03511120416571
 40
10.49642724099192
 40
10.9296776854091
 40
11.36308960216982
 40
11.76450861021729
 40
12.16616728610803
 40
12.53527540925554
 40
12.90471141256363
 40
13.24534357468021
 40
13.58634732365063
 40
13.90716115566637
 40
14.22824246878459
 40
14.54200445402326
 40
14.85576643926198
 40
15.17684775238029
 40
15.49766158439599
 40
15.83866533336635
 40
16.17929749548295
 40
16.5487334987911
 40
16.91784162193864
 40
17.31950029782928
 40
17.72091930587678
 40
18.15433122263744
 40
18.58758166705465
 40
19.04889770388091
 40
19.51011061092265
 40
19.99300740980162
 40
20.47584354275417
 40
20.97232596859836
 40
21.46878034689419
 40
21.96988767365443
 40
22.47099500041458
 40
22.96744937871024
 40
23.46393180455439
 40
23.94676793750691
 40
24.42966473638591
 40
24.89087764342767
 40
25.35219368025398
 40
25.78544412467127
 40
26.21885604143189
 40
26.62027504947928
 40
27.02193372537
 40
27.39104184851761
 40
27.76047785182567
 40
28.10111001394213
 40
28.44211376291254
 40
28.76292759492836
 40
29.08400890804661
 40
29.39777089328528
 40
29.71153287852394
 40
29.71153287852394
 40
29.71153287852394
 40
29.71153287852394
 10
174.8577223498596
 20
309.0709239997985
 30
0.0
 10
174.8384424986628
 20
308.9654629142866
 30
0.0
 10
174.7998988576083
 20
308.7546285990372
 30
0.0
 10
174.684845545532
 20
308.446288974758
 30
0.0
 10
174.5324570791954
 20
308.1482008813108
 30
0.0
 10
174.3353804347984
 20
307.8575287974877
 30
0.0
 10
174.1021939248866
 20
307.5827632193924
 30
0.0
 10
173.8280254583162
 20
307.3187342744015
 30
0.0
 10
173.5224822582079
 20
307.0743502985097
 30
0.0
 10
173.1798646673025
 20
306.8444787242528
 30
0.0
 10
172.8111684505269
 20
306.6369114721201
 30
0.0
 10
172.4106137083847
 20
306.4476945125447
 30
0.0
 10
171.9895092112322
 20
306.2827298973913
 30
0.0
 10
171.543150905271
 20
306.1395458757597
 30
0.0
 10
171.0819550474379
 20
306.0220186488224
 30
0.0
 10
170.603259951082
 20
305.9289348423212
 30
0.0
 10
170.1155926420851
 20
305.8624320437602
 30
0.0
 10
169.6189748363343
 20
305.8220464813026
 30
0.0
 10
169.1193540207627
 20
305.8087030011001
 30
0.0
 10
168.6197332051752
 20
305.8220464813012
 30
0.0
 10
168.1231153994717
 20
305.8624320437653
 30
0.0
 10
167.6354480903021
 20
305.9289348423015
 30
0.0
 10
167.1567529945732
 20
306.0220186488932
 30
0.0
 10
166.6955571344486
 20
306.1395458755004
 30
0.0
 10
166.2491988366723
 20
306.2827298983112
 30
0.0
 10
165.8280943098788
 20
306.4476945091942
 30
0.0
 10
165.427539671951
 20
306.6369114837831
 30
0.0
 10
165.0588430807633
 20
306.8444786819773
 30
0.0
 10
164.7162267892858
 20
307.0743504434319
 30
0.0
 10
164.4106789456467
 20
307.3187337503697
 30
0.0
 10
164.1365264799685
 20
307.5827650004728
 30
0.0
 10
163.9032828149866
 20
307.8575223447242
 30
0.0
 10
163.7064037815182
 20
308.1482228966694
 30
0.0
 10
163.553304239303
 20
308.4462085514763
 30
0.0
 10
163.4407567687931
 20
308.7549091709888
 30
0.0
 10
163.374205258432
 20
309.0674798082255
 30
0.0
 10
163.3507300017448
 20
309.3838788513642
 30
0.0
 10
163.3742052584321
 20
309.7002778945031
 30
0.0
 10
163.4407567687933
 20
310.0128485317396
 30
0.0
 10
163.553304239303
 20
310.3215491512522
 30
0.0
 10
163.7064037815183
 20
310.6195348060592
 30
0.0
 10
163.9032828149865
 20
310.9102353580043
 30
0.0
 10
164.1365264799686
 20
311.1849927022558
 30
0.0
 10
164.4106789456467
 20
311.4490239523589
 30
0.0
 10
164.7162267892858
 20
311.6934072592967
 30
0.0
 10
165.0588430807633
 20
311.9232790207513
 30
0.0
 10
165.427539671951
 20
312.1308462189454
 30
0.0
 10
165.8280943098789
 20
312.3200631935342
 30
0.0
 10
166.2491988366722
 20
312.4850278044174
 30
0.0
 10
166.6955571344486
 20
312.6282118272281
 30
0.0
 10
167.1567529945732
 20
312.7457390538352
 30
0.0
 10
167.6354480903021
 20
312.8388228604271
 30
0.0
 10
168.1231153994716
 20
312.9053256589633
 30
0.0
 10
168.6197332051758
 20
312.9457112214276
 30
0.0
 10
169.1193540207603
 20
312.959054701628
 30
0.0
 10
169.6189748363435
 20
312.9457112214276
 30
0.0
 10
170.1155926420509
 20
312.9053256589627
 30
0.0
 10
170.6032599512081
 20
312.8388228604286
 30
0.0
 10
171.0819550469815
 20
312.7457390538301
 30
0.0
 10
171.5431509069435
 20
312.6282118272466
 30
0.0
 10
171.9895092053008
 20
312.4850278043521
 30
0.0
 10
172.4106137299908
 20
312.3200631937721
 30
0.0
 10
172.8111683753141
 20
312.1308462181177
 30
0.0
 10
173.179864939932
 20
311.9232790237513
 30
0.0
 10
173.5224813236221
 20
311.6934072490124
 30
0.0
 10
173.8280288377374
 20
311.4490239895463
 30
0.0
 10
174.1021824389039
 20
311.1849925758629
 30
0.0
 10
174.3354220479299
 20
310.9102358159186
 30
0.0
 10
174.5323151046721
 20
310.6195332437599
 30
0.0
 10
174.685364186056
 20
310.3215548584149
 30
0.0
 10
174.7980894812569
 20
310.0128286212148
 30
0.0
 10
174.8639904272438
 20
309.7003517052418
 30
0.0
 10
174.889841936408
 20
309.3836103356651
 30
0.0
 10
174.8684288787091
 20
309.1751527784207
 30
0.0
 10
174.8577223498596
 20
309.0709239997985
 30
0.0
 11
174.8577223498596
 21
309.0709239997985
 31
0.0
 11
174.7907268081568
 21
308.7569099761855
 31
0.0
 11
174.6817719760124
 21
308.4551644553156
 31
0.0
 11
174.526347109435
 21
308.15164070392
 31
0.0
 11
174.3361113853293
 21
307.869079844737
 31
0.0
 11
174.097618088774
 21
307.5869381993912
 31
0.0
 11
173.8322809596691
 21
307.3303509540109
 31
0.0
 11
173.5191196024474
 21
307.0788362302643
 31
0.0
 11
173.1860924832665
 21
306.854715374671
 31
0.0
 11
172.8087641205482
 21
306.6414803018557
 31
0.0
 11
172.4171964513547
 21
306.4560599469049
 31
0.0
 11
171.9878630996157
 21
306.287283885458
 31
0.0
 11
171.5487740111152
 21
306.1461523227877
 31
0.0
 11
171.0809281207144
 21
306.0265298282365
 31
0.0
 11
170.6069960932156
 21
305.9342305075705
 31
0.0
 11
170.1150993865219
 21
305.8669071897973
 31
0.0
 11
169.6202798345397
 21
305.8266510013902
 31
0.0
 11
169.1193540207601
 21
305.8131646370928
 31
0.0
 11
168.6184282069804
 21
305.8266510013901
 31
0.0
 11
168.123608654998
 21
305.8669071897972
 31
0.0
 11
167.6317119483043
 21
305.9342305075704
 31
0.0
 11
167.1577799208055
 21
306.0265298282365
 31
0.0
 11
166.6899340304047
 21
306.1461523227877
 31
0.0
 11
166.2508449419042
 21
306.287283885458
 31
0.0
 11
165.8215115901652
 21
306.4560599469049
 31
0.0
 11
165.4299439209717
 21
306.6414803018557
 31
0.0
 11
165.0526155582534
 21
306.854715374671
 31
0.0
 11
164.7195884390725
 21
307.0788362302643
 31
0.0
 11
164.4064270818508
 21
307.330350954011
 31
0.0
 11
164.1410899527459
 21
307.5869381993913
 31
0.0
 11
163.9025966561906
 21
307.869079844737
 31
0.0
 11
163.7123609320848
 21
308.15164070392
 31
0.0
 11
163.5569360655075
 21
308.4551644553156
 31
0.0
 11
163.4479812333631
 21
308.7569099761855
 31
0.0
 11
163.3809856916603
 21
309.0709239997985
 31
0.0
 11
163.3584947098584
 21
309.3838788513642
 31
0.0
 11
163.3809856916604
 21
309.69683370293
 31
0.0
 11
163.4479812333633
 21
310.0108477265431
 31
0.0
 11
163.5569360655076
 21
310.3125932474129
 31
0.0
 11
163.7123609320849
 21
310.6161169988085
 31
0.0
 11
163.9025966561906
 21
310.8986778579915
 31
0.0
 11
164.1410899527459
 21
311.1808195033374
 31
0.0
 11
164.4064270818508
 21
311.4374067487177
 31
0.0
 11
164.7195884390725
 21
311.6889214724642
 31
0.0
 11
165.0526155582534
 21
311.9130423280576
 31
0.0
 11
165.4299439209717
 21
312.1262774008728
 31
0.0
 11
165.8215115901652
 21
312.3116977558236
 31
0.0
 11
166.2508449419043
 21
312.4804738172706
 31
0.0
 11
166.6899340304047
 21
312.6216053799409
 31
0.0
 11
167.1577799208055
 21
312.741227874492
 31
0.0
 11
167.6317119483043
 21
312.8335271951581
 31
0.0
 11
168.123608654998
 21
312.9008505129314
 31
0.0
 11
168.6184282069804
 21
312.9411067013385
 31
0.0
 11
169.1193540207601
 21
312.9545930656357
 31
0.0
 11
169.6202798345397
 21
312.9411067013384
 31
0.0
 11
170.1150993865219
 21
312.9008505129313
 31
0.0
 11
170.6069960932156
 21
312.8335271951581
 31
0.0
 11
171.0809281207144
 21
312.741227874492
 31
0.0
 11
171.5487740111152
 21
312.6216053799409
 31
0.0
 11
171.9878630996157
 21
312.4804738172706
 31
0.0
 11
172.4171964513548
 21
312.3116977558236
 31
0.0
 11
172.8087641205484
 21
312.1262774008727
 31
0.0
 11
173.1860924832666
 21
311.9130423280575
 31
0.0
 11
173.5191196024474
 21
311.6889214724642
 31
0.0
 11
173.8322809596691
 21
311.4374067487175
 31
0.0
 11
174.097618088774
 21
311.1808195033372
 31
0.0
 11
174.3361113853293
 21
310.8986778579914
 31
0.0
 11
174.526347109435
 21
310.6161169988086
 31
0.0
 11
174.6817719760123
 21
310.3125932474129
 31
0.0
 11
174.7907268081567
 21
310.010847726543
 31
0.0
 11
174.8577223498595
 21
309.6968337029299
 31
0.0
 11
174.8802133316615
 21
309.3838788513642
 31
0.0
 11
174.8577223498596
 21
309.0709239997985
 31
0.0
  0
SPLINE
  5
8C
330
36
100
AcDbEntity
  8
1
  6
Continuous
 62
     7
100
AcDbSpline
210
0.0
220
0.0
230
1.0
 70
    11
 71
     3
 72
    79
 73
    75
 74
    73
 42
0.0000000001
 43
0.0000000001
 44
0.00000001
 40
0.0
 40
0.0
 40
0.0
 40
0.0
 40
0.3210813131182155
 40
0.6418951451339906
 40
0.9828988941043904
 40
1.323531056220942
 40
1.692967059529048
 40
2.06207518267662
 40
2.463733858567291
 40
2.865152866614785
 40
3.298564783375428
 40
3.73181522779264
 40
4.193131264618958
 40
4.654344171660807
 40
5.137240970539857
 40
5.620077103492318
 40
6.116559529336326
 40
6.613013907631993
 40
7.114121234392144
 40
7.615228561152406
 40
8.111682939448212
 40
8.608165365292368
 40
9.091001498244935
 40
9.573898297123888
 40
10.03511120416566
 40
10.49642724099195
 40
10.92967768540924
 40
11.36308960216985
 40
11.76450861021728
 40
12.166167286108
 40
12.53527540925553
 40
12.90471141256359
 40
13.24534357468015
 40
13.58634732365061
 40
13.90716115566633
 40
14.22824246878457
 40
14.54200445402324
 40
14.85576643926196
 40
15.17684775238026
 40
15.49766158439598
 40
15.83866533336638
 40
16.17929749548299
 40
16.54873349879116
 40
16.91784162193867
 40
17.31950029782932
 40
17.72091930587674
 40
18.15433122263736
 40
18.58758166705459
 40
19.04889770388093
 40
19.5101106109227
 40
19.99300740980166
 40
20.47584354275421
 40
20.97232596859835
 40
21.46878034689407
 40
21.96988767365419
 40
22.47099500041442
 40
22.96744937871026
 40
23.46393180455443
 40
23.94676793750701
 40
24.42966473638595
 40
24.89087764342772
 40
25.35219368025398
 40
25.78544412467121
 40
26.21885604143183
 40
26.62027504947927
 40
27.02193372537003
 40
27.39104184851762
 40
27.76047785182567
 40
28.10111001394211
 40
28.44211376291254
 40
28.76292759492836
 40
29.08400890804659
 40
29.39777089328526
 40
29.71153287852392
 40
29.71153287852392
 40
29.71153287852392
 40
29.71153287852392
 10
149.3809856916604
 20
309.0709239997985
 30
0.0
 10
149.4002655428572
 20
308.9654629142866
 30
0.0
 10
149.4388091839116
 20
308.7546285990372
 30
0.0
 10
149.5538624959879
 20
308.4462889747579
 30
0.0
 10
149.7062509623246
 20
308.1482008813109
 30
0.0
 10
149.9033276067215
 20
307.8575287974876
 30
0.0
 10
150.1365141166333
 20
307.5827632193925
 30
0.0
 10
150.4106825832037
 20
307.3187342744014
 30
0.0
 10
150.7162257833119
 20
307.0743502985098
 30
0.0
 10
151.0588433742174
 20
306.8444787242528
 30
0.0
 10
151.427539590993
 20
306.6369114721202
 30
0.0
 10
151.8280943331353
 20
306.4476945125447
 30
0.0
 10
152.2491988302878
 20
306.2827298973914
 30
0.0
 10
152.695557136249
 20
306.1395458757598
 30
0.0
 10
153.1567529940822
 20
306.0220186488223
 30
0.0
 10
153.6354480904381
 20
305.9289348423212
 30
0.0
 10
154.1231153994348
 20
305.8624320437602
 30
0.0
 10
154.6197332051857
 20
305.8220464813026
 30
0.0
 10
155.1193540207572
 20
305.8087030011001
 30
0.0
 10
155.6189748363447
 20
305.822046481301
 30
0.0
 10
156.1155926420482
 20
305.8624320437655
 30
0.0
 10
156.6032599512178
 20
305.9289348423014
 30
0.0
 10
157.0819550469467
 20
306.0220186488933
 30
0.0
 10
157.5431509070713
 20
306.1395458755004
 30
0.0
 10
157.9895092048477
 20
306.2827298983111
 30
0.0
 10
158.4106137316412
 20
306.4476945091944
 30
0.0
 10
158.8111683695691
 20
306.636911483783
 30
0.0
 10
159.1798649607567
 20
306.8444786819772
 30
0.0
 10
159.5224812522341
 20
307.0743504434319
 30
0.0
 10
159.8280290958732
 20
307.3187337503697
 30
0.0
 10
160.1021815615514
 20
307.5827650004729
 30
0.0
 10
160.3354252265333
 20
307.8575223447243
 30
0.0
 10
160.5323042600016
 20
308.1482228966693
 30
0.0
 10
160.6854038022169
 20
308.4462085514763
 30
0.0
 10
160.7979512727268
 20
308.7549091709889
 30
0.0
 10
160.8645027830879
 20
309.0674798082255
 30
0.0
 10
160.8879780397751
 20
309.3838788513642
 30
0.0
 10
160.8645027830879
 20
309.700277894503
 30
0.0
 10
160.7979512727268
 20
310.0128485317397
 30
0.0
 10
160.685403802217
 20
310.3215491512523
 30
0.0
 10
160.5323042600016
 20
310.6195348060591
 30
0.0
 10
160.3354252265333
 20
310.9102353580043
 30
0.0
 10
160.1021815615513
 20
311.1849927022557
 30
0.0
 10
159.8280290958733
 20
311.449023952359
 30
0.0
 10
159.5224812522341
 20
311.6934072592966
 30
0.0
 10
159.1798649607568
 20
311.9232790207514
 30
0.0
 10
158.811168369569
 20
312.1308462189454
 30
0.0
 10
158.4106137316412
 20
312.3200631935342
 30
0.0
 10
157.9895092048477
 20
312.4850278044175
 30
0.0
 10
157.5431509070713
 20
312.6282118272281
 30
0.0
 10
157.0819550469468
 20
312.7457390538353
 30
0.0
 10
156.6032599512177
 20
312.8388228604271
 30
0.0
 10
156.1155926420483
 20
312.9053256589632
 30
0.0
 10
155.6189748363443
 20
312.9457112214277
 30
0.0
 10
155.1193540207599
 20
312.959054701628
 30
0.0
 10
154.6197332051765
 20
312.9457112214276
 30
0.0
 10
154.123115399469
 20
312.9053256589627
 30
0.0
 10
153.6354480903117
 20
312.8388228604284
 30
0.0
 10
153.1567529945384
 20
312.7457390538302
 30
0.0
 10
152.6955571345763
 20
312.6282118272466
 30
0.0
 10
152.2491988362192
 20
312.4850278043523
 30
0.0
 10
151.8280943115291
 20
312.3200631937719
 30
0.0
 10
151.4275396662059
 20
312.1308462181177
 30
0.0
 10
151.058843101588
 20
311.9232790237513
 30
0.0
 10
150.7162267178978
 20
311.6934072490123
 30
0.0
 10
150.4106792037825
 20
311.4490239895463
 30
0.0
 10
150.1365256026161
 20
311.1849925758628
 30
0.0
 10
149.90328599359
 20
310.9102358159186
 30
0.0
 10
149.7063929368479
 20
310.61953324376
 30
0.0
 10
149.5533438554639
 20
310.3215548584147
 30
0.0
 10
149.4406185602631
 20
310.0128286212148
 30
0.0
 10
149.3747176142761
 20
309.7003517052419
 30
0.0
 10
149.3488661051122
 20
309.383610335665
 30
0.0
 10
149.370279162811
 20
309.1751527784207
 30
0.0
 10
149.3809856916604
 20
309.0709239997985
 30
0.0
 11
149.3809856916604
 21
309.0709239997985
 31
0.0
 11
149.4479812333631
 21
308.7569099761855
 31
0.0
 11
149.5569360655075
 21
308.4551644553156
 31
0.0
 11
149.7123609320849
 21
308.15164070392
 31
0.0
 11
149.9025966561906
 21
307.869079844737
 31
0.0
 11
150.1410899527459
 21
307.5869381993912
 31
0.0
 11
150.4064270818508
 21
307.3303509540109
 31
0.0
 11
150.7195884390725
 21
307.0788362302643
 31
0.0
 11
151.0526155582534
 21
306.854715374671
 31
0.0
 11
151.4299439209717
 21
306.6414803018557
 31
0.0
 11
151.8215115901651
 21
306.4560599469049
 31
0.0
 11
152.2508449419043
 21
306.287283885458
 31
0.0
 11
152.6899340304049
 21
306.1461523227877
 31
0.0
 11
153.1577799208057
 21
306.0265298282365
 31
0.0
 11
153.6317119483045
 21
305.9342305075705
 31
0.0
 11
154.123608654998
 21
305.8669071897973
 31
0.0
 11
154.6184282069802
 21
305.8266510013902
 31
0.0
 11
155.1193540207598
 21
305.8131646370928
 31
0.0
 11
155.6202798345395
 21
305.8266510013901
 31
0.0
 11
156.1150993865219
 21
305.8669071897972
 31
0.0
 11
156.6069960932156
 21
305.9342305075704
 31
0.0
 11
157.0809281207144
 21
306.0265298282365
 31
0.0
 11
157.5487740111152
 21
306.1461523227877
 31
0.0
 11
157.9878630996157
 21
306.287283885458
 31
0.0
 11
158.4171964513548
 21
306.4560599469049
 31
0.0
 11
158.8087641205484
 21
306.6414803018557
 31
0.0
 11
159.1860924832666
 21
306.854715374671
 31
0.0
 11
159.5191196024474
 21
307.0788362302643
 31
0.0
 11
159.8322809596691
 21
307.330350954011
 31
0.0
 11
160.097618088774
 21
307.5869381993913
 31
0.0
 11
160.3361113853293
 21
307.869079844737
 31
0.0
 11
160.526347109435
 21
308.15164070392
 31
0.0
 11
160.6817719760124
 21
308.4551644553156
 31
0.0
 11
160.7907268081568
 21
308.7569099761855
 31
0.0
 11
160.8577223498596
 21
309.0709239997985
 31
0.0
 11
160.8802133316615
 21
309.3838788513642
 31
0.0
 11
160.8577223498596
 21
309.69683370293
 31
0.0
 11
160.7907268081568
 21
310.0108477265431
 31
0.0
 11
160.6817719760124
 21
310.3125932474129
 31
0.0
 11
160.526347109435
 21
310.6161169988085
 31
0.0
 11
160.3361113853293
 21
310.8986778579915
 31
0.0
 11
160.097618088774
 21
311.1808195033374
 31
0.0
 11
159.8322809596691
 21
311.4374067487177
 31
0.0
 11
159.5191196024474
 21
311.6889214724642
 31
0.0
 11
159.1860924832666
 21
311.9130423280576
 31
0.0
 11
158.8087641205484
 21
312.1262774008728
 31
0.0
 11
158.4171964513548
 21
312.3116977558236
 31
0.0
 11
157.9878630996157
 21
312.4804738172706
 31
0.0
 11
157.5487740111152
 21
312.6216053799409
 31
0.0
 11
157.0809281207144
 21
312.741227874492
 31
0.0
 11
156.6069960932156
 21
312.8335271951581
 31
0.0
 11
156.1150993865219
 21
312.9008505129314
 31
0.0
 11
155.6202798345396
 21
312.9411067013385
 31
0.0
 11
155.1193540207601
 21
312.9545930656357
 31
0.0
 11
154.6184282069804
 21
312.9411067013384
 31
0.0
 11
154.123608654998
 21
312.9008505129313
 31
0.0
 11
153.6317119483043
 21
312.8335271951581
 31
0.0
 11
153.1577799208055
 21
312.741227874492
 31
0.0
 11
152.6899340304047
 21
312.6216053799409
 31
0.0
 11
152.2508449419042
 21
312.4804738172706
 31
0.0
 11
151.8215115901651
 21
312.3116977558236
 31
0.0
 11
151.4299439209717
 21
312.1262774008727
 31
0.0
 11
151.0526155582534
 21
311.9130423280575
 31
0.0
 11
150.7195884390725
 21
311.6889214724642
 31
0.0
 11
150.4064270818508
 21
311.4374067487175
 31
0.0
 11
150.1410899527459
 21
311.1808195033372
 31
0.0
 11
149.9025966561906
 21
310.8986778579914
 31
0.0
 11
149.712360932085
 21
310.6161169988086
 31
0.0
 11
149.5569360655077
 21
310.3125932474129
 31
0.0
 11
149.4479812333633
 21
310.010847726543
 31
0.0
 11
149.3809856916605
 21
309.6968337029299
 31
0.0
 11
149.3584947098586
 21
309.3838788513642
 31
0.0
 11
149.3809856916604
 21
309.0709239997985
 31
0.0
  0
ARC
  5
8D
330
36
100
AcDbEntity
  8
1
  6
Continuous
 62
     7
100
AcDbCircle
 10
173.6773750824907
 20
305.5263418868058
 30
0.0
 40
1.0
100
AcDbArc
 50
-90.0
 51
-74.66244233045423
  0
ARC
  5
8E
330
36
100
AcDbEntity
  8
1
  6
Continuous
 62
     7
100
AcDbCircle
 10
171.8873032131912
 20
304.5263418868058
 30
0.0
 40
1.0
100
AcDbArc
 50
-90.0
 51
-30.0000000000038
  0
ARC
  5
8F
330
36
100
AcDbEntity
  8
1
  6
Continuous
 62
     7
100
AcDbCircle
 10
173.6193540207601
 20
303.5263418868058
 30
0.0
 40
1.0
100
AcDbArc
 50
90.0
 51
150.0000000000052
  0
ARC
  5
90
330
36
100
AcDbEntity
  8
1
  6
Continuous
 62
     7
100
AcDbCircle
 10
150.5613329590294
 20
305.5263418868058
 30
0.0
 40
1.000000000000021
100
AcDbArc
 50
-105.3375576695568
 51
-90.0
  0
ARC
  5
91
330
36
100
AcDbEntity
  8
1
  6
Continuous
 62
     7
100
AcDbCircle
 10
152.3514048283287
 20
304.5263418868058
 30
0.0
 40
0.9999999999998851
100
AcDbArc
 50
-149.9999999999962
 51
-90.0
  0
ARC
  5
92
330
36
100
AcDbEntity
  8
1
  6
Continuous
 62
     7
100
AcDbCircle
 10
150.6193540207598
 20
303.5263418868058
 30
0.0
 40
1.000000000000131
100
AcDbArc
 50
29.99999999999566
 51
90.0
  0
ARC
  5
93
330
36
100
AcDbEntity
  8
1
  6
Continuous
 62
     7
100
AcDbCircle
 10
553.693730047785
 20
305.5263418868058
 30
0.0
 40
1.0
100
AcDbArc
 50
-90.0
 51
-74.66244233044166
  0
ARC
  5
94
330
36
100
AcDbEntity
  8
1
  6
Continuous
 62
     7
100
AcDbCircle
 10
551.9036581784856
 20
304.5263418868058
 30
0.0
 40
1.0
100
AcDbArc
 50
-90.0
 51
-30.00000000000054
  0
ARC
  5
95
330
36
100
AcDbEntity
  8
1
  6
Continuous
 62
     7
100
AcDbCircle
 10
553.6357089860545
 20
303.5263418868058
 30
0.0
 40
1.0
100
AcDbArc
 50
90.0
 51
150.0000000000027
  0
ARC
  5
96
330
36
100
AcDbEntity
  8
1
  6
Continuous
 62
     7
100
AcDbCircle
 10
530.577687924324
 20
305.5263418868058
 30
0.0
 40
1.000000000000029
100
AcDbArc
 50
-105.3375576695584
 51
-90.0
  0
ARC
  5
97
330
36
100
AcDbEntity
  8
1
  6
Continuous
 62
     7
100
AcDbCircle
 10
532.3677597936232
 20
304.5263418868058
 30
0.0
 40
0.9999999999998851
100
AcDbArc
 50
-149.9999999999962
 51
-90.0
  0
ARC
  5
98
330
36
100
AcDbEntity
  8
1
  6
Continuous
 62
     7
100
AcDbCircle
 10
530.6357089860545
 20
303.5263418868058
 30
0.0
 40
0.9999999999999836
100
AcDbArc
 50
30.00000000000054
 51
90.0
  0
ENDBLK
  5
38
330
36
100
AcDbEntity
  8
0
100
AcDbBlockEnd
  0
BLOCK
  5
3A
330
39
100
AcDbEntity
  8
0
100
AcDbBlockBegin
  2
A10-0A-13
 70
     0
 71
     0
 10
577.1357089860545
 20
332.5263418868058
 30
0.0
  3
A10-0A-13
  1

  0
LINE
  5
99
330
39
100
AcDbEntity
  8
0
  6
PHANTOM
 62
     4
100
AcDbLine
 10
136.1193540207601
 20
332.5263418868058
 30
0.0
 11
188.1193540207601
 21
332.5263418868058
 31
0.0
  0
LINE
  5
9A
330
39
100
AcDbEntity
  8
1
  6
Continuous
 62
     7
100
AcDbLine
 10
175.1193540207602
 20
316.8862869421657
 30
0.0
 11
174.1405483035792
 21
320.3121069522986
 31
0.0
  0
LINE
  5
9B
330
39
100
AcDbEntity
  8
1
  6
Continuous
 62
     2
100
AcDbLine
 10
174.1193540207601
 20
315.0263418868058
 30
0.0
 11
175.1193540207601
 21
316.7583926943746
 31
0.0
  0
LINE
  5
9C
330
39
100
AcDbEntity
  8
1
  6
Continuous
 62
     7
100
AcDbLine
 10
175.1193540207601
 20
316.7583926943746
 30
0.0
 11
175.1193540207601
 21
313.5263418868058
 31
0.0
  0
LINE
  5
9D
330
39
100
AcDbEntity
  8
1
  6
Continuous
 62
     2
100
AcDbLine
 10
174.1193540207601
 20
315.0263418868058
 30
0.0
 11
174.1193540207601
 21
313.5263418868058
 31
0.0
  0
LINE
  5
9E
330
39
100
AcDbEntity
  8
1
  6
Continuous
 62
     7
100
AcDbLine
 10
175.1193540207602
 20
316.8862869421657
 30
0.0
 11
175.1193540207601
 21
316.7583926943746
 31
0.0
  0
LINE
  5
9F
330
39
100
AcDbEntity
  8
1
  6
Continuous
 62
     7
100
AcDbLine
 10
149.119363350929
 20
332.5107667685284
 30
0.0
 11
149.826776821111
 21
354.7942910792372
 31
0.0
  0
LINE
  5
A0
330
39
100
AcDbEntity
  8
1
  6
Continuous
 62
     7
100
AcDbLine
 10
174.1193540207598
 20
354.7942910792372
 30
0.0
 11
150.1193540207598
 21
354.7942910792372
 31
0.0
  0
LINE
  5
A1
330
39
100
AcDbEntity
  8
1
  6
Continuous
 62
     7
100
AcDbLine
 10
174.1193540207598
 20
356.5263418868058
 30
0.0
 11
150.1193540207601
 21
356.5263418868058
 31
0.0
  0
LINE
  5
A2
330
39
100
AcDbEntity
  8
1
  6
Continuous
 62
     7
100
AcDbLine
 10
175.1193540207601
 20
315.0263418868058
 30
0.0
 11
149.1193540207599
 21
315.0263418868058
 31
0.0
  0
LINE
  5
A3
330
39
100
AcDbEntity
  8
1
  6
Continuous
 62
     7
100
AcDbLine
 10
150.0981597379409
 20
320.3121069522986
 30
0.0
 11
149.1193540207599
 21
316.8862869421657
 31
0.0
  0
LINE
  5
A4
330
39
100
AcDbEntity
  8
1
  6
Continuous
 62
     7
100
AcDbLine
 10
174.4119312204091
 20
354.7942910792372
 30
0.0
 11
175.1193446905909
 21
332.5107667685284
 31
0.0
  0
LINE
  5
A5
330
39
100
AcDbEntity
  8
1
  6
Continuous
 62
     2
100
AcDbLine
 10
173.1193540207598
 20
358.0263418868058
 30
0.0
 11
173.1193540207598
 21
356.5263418868058
 31
0.0
  0
LINE
  5
A6
330
39
100
AcDbEntity
  8
1
  6
Continuous
 62
     2
100
AcDbLine
 10
149.1193540207598
 20
316.7583926943746
 30
0.0
 11
150.1193540207598
 21
315.0263418868058
 31
0.0
  0
LINE
  5
A7
330
39
100
AcDbEntity
  8
1
  6
Continuous
 62
     7
100
AcDbLine
 10
149.1193540207598
 20
313.5263418868058
 30
0.0
 11
149.1193540207598
 21
316.7583926943746
 31
0.0
  0
LINE
  5
A8
330
39
100
AcDbEntity
  8
1
  6
Continuous
 62
     2
100
AcDbLine
 10
150.1193540207598
 20
313.5263418868058
 30
0.0
 11
150.1193540207598
 21
315.0263418868058
 31
0.0
  0
LINE
  5
A9
330
39
100
AcDbEntity
  8
1
  6
Continuous
 62
     7
100
AcDbLine
 10
149.826776821111
 20
354.7942910792372
 30
0.0
 11
150.1193540207598
 21
354.7942910792372
 31
0.0
  0
LINE
  5
AA
330
39
100
AcDbEntity
  8
1
  6
Continuous
 62
     7
100
AcDbLine
 10
174.1193540207598
 20
354.7942910792372
 30
0.0
 11
174.4119312204091
 21
354.7942910792372
 31
0.0
  0
LINE
  5
AB
330
39
100
AcDbEntity
  8
1
  6
Continuous
 62
     2
100
AcDbLine
 10
173.1193540207598
 20
356.5263418868058
 30
0.0
 11
174.1193540207598
 21
354.7942910792372
 31
0.0
  0
LINE
  5
AC
330
39
100
AcDbEntity
  8
1
  6
Continuous
 62
     7
100
AcDbLine
 10
174.1193540207598
 20
354.7942910792372
 30
0.0
 11
174.1193540207598
 21
358.0263418868058
 31
0.0
  0
LINE
  5
AD
330
39
100
AcDbEntity
  8
1
  6
Continuous
 62
     2
100
AcDbLine
 10
150.1193540207598
 20
354.7942910792372
 30
0.0
 11
151.1193540207598
 21
356.5263418868058
 31
0.0
  0
LINE
  5
AE
330
39
100
AcDbEntity
  8
1
  6
Continuous
 62
     2
100
AcDbLine
 10
151.1193540207598
 20
356.5263418868058
 30
0.0
 11
151.1193540207601
 21
358.0263418868058
 31
0.0
  0
LINE
  5
AF
330
39
100
AcDbEntity
  8
1
  6
Continuous
 62
     7
100
AcDbLine
 10
150.1193540207598
 20
358.0263418868058
 30
0.0
 11
150.1193540207598
 21
354.7942910792372
 31
0.0
  0
LINE
  5
B0
330
39
100
AcDbEntity
  8
1
  6
Continuous
 62
     7
100
AcDbLine
 10
149.1193540207598
 20
316.7583926943746
 30
0.0
 11
149.1193540207599
 21
316.8862869421657
 31
0.0
  0
LINE
  5
B1
330
39
100
AcDbEntity
  8
1
  6
PHANTOM
 62
     4
100
AcDbLine
 10
178.1193540207601
 20
791.3310694085386
 30
0.0
 11
146.1193540207602
 21
791.3310694085386
 31
0.0
  0
LINE
  5
B2
330
39
100
AcDbEntity
  8
1
  6
Continuous
 62
     7
100
AcDbLine
 10
139.5801244728963
 20
868.7948059875012
 30
0.0
 11
184.6585835686241
 21
868.7948059875012
 31
0.0
  0
LINE
  5
B3
330
39
100
AcDbEntity
  8
1
  6
Continuous
 62
     7
100
AcDbLine
 10
172.6193540207601
 20
884.3310694085385
 30
0.0
 11
151.6193540207601
 21
884.3310694085385
 31
0.0
  0
LINE
  5
B4
330
39
100
AcDbEntity
  8
1
  6
Continuous
 62
     7
100
AcDbLine
 10
151.6193540207601
 20
873.0631202161073
 30
0.0
 11
172.6193540207601
 21
873.0631202161073
 31
0.0
  0
LINE
  5
B5
330
39
100
AcDbEntity
  8
1
  6
Continuous
 62
     7
100
AcDbLine
 10
170.8693540207601
 20
793.3310694085386
 30
0.0
 11
170.8693540207601
 21
802.3115460993636
 31
0.0
  0
LINE
  5
B6
330
39
100
AcDbEntity
  8
1
  6
Continuous
 62
     7
100
AcDbLine
 10
153.3693540207601
 20
793.3310694085386
 30
0.0
 11
153.3693540207601
 21
802.3115460993636
 31
0.0
  0
LINE
  5
B7
330
39
100
AcDbEntity
  8
1
  6
Continuous
 62
     7
100
AcDbLine
 10
152.6193540207601
 20
885.3310694085385
 30
0.0
 11
171.6193540207601
 21
885.3310694085385
 31
0.0
  0
LINE
  5
B8
330
39
100
AcDbEntity
  8
1
  6
Continuous
 62
     7
100
AcDbLine
 10
172.6193540207601
 20
884.3310694085385
 30
0.0
 11
171.6193540207601
 21
885.3310694085385
 31
0.0
  0
LINE
  5
B9
330
39
100
AcDbEntity
  8
1
  6
Continuous
 62
     7
100
AcDbLine
 10
172.6193540207601
 20
884.3310694085385
 30
0.0
 11
172.6193540207601
 21
871.3310694085385
 31
0.0
  0
LINE
  5
BA
330
39
100
AcDbEntity
  8
1
  6
Continuous
 62
     7
100
AcDbLine
 10
152.6193540207601
 20
885.3310694085385
 30
0.0
 11
151.6193540207601
 21
884.3310694085385
 31
0.0
  0
LINE
  5
BB
330
39
100
AcDbEntity
  8
1
  6
Continuous
 62
     7
100
AcDbLine
 10
151.6193540207601
 20
871.3310694085385
 30
0.0
 11
151.6193540207601
 21
884.3310694085385
 31
0.0
  0
LINE
  5
BC
330
39
100
AcDbEntity
  8
1
  6
Continuous
 62
     7
100
AcDbLine
 10
153.3693540207601
 20
864.7948059875012
 30
0.0
 11
153.3693540207601
 21
850.3505927177135
 31
0.0
  0
LINE
  5
BD
330
39
100
AcDbEntity
  8
1
  6
Continuous
 62
     2
100
AcDbLine
 10
152.6193540207601
 20
873.0631202161073
 30
0.0
 11
152.6193540207601
 21
885.3310694085385
 31
0.0
  0
LINE
  5
BE
330
39
100
AcDbEntity
  8
1
  6
Continuous
 62
     2
100
AcDbLine
 10
151.6193540207601
 20
871.3310694085385
 30
0.0
 11
152.6193540207601
 21
873.0631202161073
 31
0.0
  0
LINE
  5
BF
330
39
100
AcDbEntity
  8
1
  6
Continuous
 62
     7
100
AcDbLine
 10
139.1193540207602
 20
871.3310694085385
 30
0.0
 11
139.1193540207602
 21
869.2932646543677
 31
0.0
  0
LINE
  5
C0
330
39
100
AcDbEntity
  8
1
  6
Continuous
 62
     7
100
AcDbLine
 10
170.8693540207601
 20
864.7948059875012
 30
0.0
 11
170.8693540207601
 21
850.3505927177135
 31
0.0
  0
LINE
  5
C1
330
39
100
AcDbEntity
  8
1
  6
Continuous
 62
     7
100
AcDbLine
 10
185.1193540207602
 20
869.2932646543677
 30
0.0
 11
185.1193540207602
 21
871.3310694085385
 31
0.0
  0
LINE
  5
C2
330
39
100
AcDbEntity
  8
1
  6
Continuous
 62
     7
100
AcDbLine
 10
185.1193540207602
 20
871.3310694085385
 30
0.0
 11
139.1193540207602
 21
871.3310694085385
 31
0.0
  0
LINE
  5
C3
330
39
100
AcDbEntity
  8
1
  6
Continuous
 62
     2
100
AcDbLine
 10
171.6193540207601
 20
873.0631202161073
 30
0.0
 11
172.6193540207601
 21
871.3310694085385
 31
0.0
  0
LINE
  5
C4
330
39
100
AcDbEntity
  8
1
  6
Continuous
 62
     2
100
AcDbLine
 10
171.6193540207601
 20
873.0631202161073
 30
0.0
 11
171.6193540207601
 21
885.3310694085385
 31
0.0
  0
LINE
  5
C5
330
39
100
AcDbEntity
  8
1
  6
PHANTOM
 62
     4
100
AcDbLine
 10
179.1193540207601
 20
826.3310694085386
 30
0.0
 11
145.1193540207602
 21
826.3310694085386
 31
0.0
  0
LINE
  5
C6
330
39
100
AcDbEntity
  8
1
  6
Continuous
 62
     7
100
AcDbLine
 10
635.1357089860544
 20
343.0263418868058
 30
0.0
 11
635.1357089860544
 21
322.0263418868058
 31
0.0
  0
LINE
  5
C7
330
39
100
AcDbEntity
  8
1
  6
Continuous
 62
     7
100
AcDbLine
 10
619.6357089860544
 20
345.2763418868058
 30
0.0
 11
619.6357089860544
 21
319.7763418868058
 31
0.0
  0
LINE
  5
C8
330
39
100
AcDbEntity
  8
1
  6
Continuous
 62
     7
100
AcDbLine
 10
622.1357089860544
 20
322.0263418868058
 30
0.0
 11
622.1357089860544
 21
343.0263418868058
 31
0.0
  0
LINE
  5
C9
330
39
100
AcDbEntity
  8
1
  6
Continuous
 62
     7
100
AcDbLine
 10
623.8677597936235
 20
343.0263418868058
 30
0.0
 11
623.8677597936235
 21
322.0263418868058
 31
0.0
  0
LINE
  5
CA
330
39
100
AcDbEntity
  8
1
  6
Continuous
 62
     7
100
AcDbLine
 10
589.1357089860544
 20
354.7942910792372
 30
0.0
 11
565.1357089860543
 21
354.7942910792372
 31
0.0
  0
LINE
  5
CB
330
39
100
AcDbEntity
  8
1
  6
Continuous
 62
     7
100
AcDbLine
 10
589.1357089860544
 20
356.5263418868058
 30
0.0
 11
565.1357089860545
 21
356.5263418868058
 31
0.0
  0
LINE
  5
CC
330
39
100
AcDbEntity
  8
1
  6
Continuous
 62
     7
100
AcDbLine
 10
555.1357089860545
 20
315.0263418868058
 30
0.0
 11
529.1357089860543
 21
315.0263418868058
 31
0.0
  0
LINE
  5
CD
330
39
100
AcDbEntity
  8
1
  6
Continuous
 62
     7
100
AcDbLine
 10
564.6813527587893
 20
349.6982517093176
 30
0.0
 11
564.8431317864065
 21
354.7942910792372
 31
0.0
  0
LINE
  5
CE
330
39
100
AcDbEntity
  8
1
  6
Continuous
 62
     7
100
AcDbLine
 10
530.1145147032353
 20
320.3121069522986
 30
0.0
 11
529.1357089860543
 21
316.8862869421657
 31
0.0
  0
LINE
  5
CF
330
39
100
AcDbEntity
  8
1
  6
Continuous
 62
     7
100
AcDbLine
 10
615.6357089860544
 20
341.2763418868058
 30
0.0
 11
599.3153730953234
 21
341.276341886806
 31
0.0
  0
LINE
  5
D0
330
39
100
AcDbEntity
  8
1
  6
Continuous
 62
     7
100
AcDbLine
 10
589.4282861857034
 20
354.7942910792372
 30
0.0
 11
589.5803841782445
 21
350.003204314199
 31
0.0
  0
LINE
  5
D1
330
39
100
AcDbEntity
  8
1
  6
Continuous
 62
     7
100
AcDbLine
 10
599.3153730953225
 20
323.7763418868057
 30
0.0
 11
615.6357089860544
 21
323.7763418868058
 31
0.0
  0
LINE
  5
D2
330
39
100
AcDbEntity
  8
1
  6
Continuous
 62
     7
100
AcDbLine
 10
558.7034003948875
 20
324.0263418868058
 30
0.0
 11
557.8771828760814
 21
324.0263418868058
 31
0.0
  0
LINE
  5
D3
330
39
100
AcDbEntity
  8
1
  6
Continuous
 62
     7
100
AcDbLine
 10
554.1168558031754
 20
320.4522730822437
 30
0.0
 11
555.1357089860543
 21
316.8862869421657
 31
0.0
  0
LINE
  5
D4
330
39
100
AcDbEntity
  8
1
  6
Continuous
 62
     2
100
AcDbLine
 10
588.1357089860543
 20
357.9560331749906
 30
0.0
 11
588.1357089860543
 21
356.5263418868058
 31
0.0
  0
LINE
  5
D5
330
39
100
AcDbEntity
  8
1
  6
Continuous
 62
     7
100
AcDbLine
 10
635.1357089860544
 20
322.0263418868058
 30
0.0
 11
622.1357089860544
 21
322.0263418868058
 31
0.0
  0
LINE
  5
D6
330
39
100
AcDbEntity
  8
1
  6
Continuous
 62
     2
100
AcDbLine
 10
623.8677597936235
 20
323.0263418868058
 30
0.0
 11
622.1357089860544
 21
322.0263418868058
 31
0.0
  0
LINE
  5
D7
330
39
100
AcDbEntity
  8
1
  6
Continuous
 62
     2
100
AcDbLine
 10
636.1357089860544
 20
323.0263418868058
 30
0.0
 11
623.8677597936235
 21
323.0263418868058
 31
0.0
  0
LINE
  5
D8
330
39
100
AcDbEntity
  8
1
  6
Continuous
 62
     7
100
AcDbLine
 10
635.1357089860544
 20
322.0263418868058
 30
0.0
 11
636.1357089860544
 21
323.0263418868058
 31
0.0
  0
LINE
  5
D9
330
39
100
AcDbEntity
  8
1
  6
Continuous
 62
     7
100
AcDbLine
 10
619.6357089860544
 20
319.7763418868058
 30
0.0
 11
619.6357089860544
 21
310.0263418868058
 31
0.0
  0
LINE
  5
DA
330
39
100
AcDbEntity
  8
1
  6
Continuous
 62
     7
100
AcDbLine
 10
622.1357089860544
 20
309.5263418868058
 30
0.0
 11
620.1357089860544
 21
309.5263418868058
 31
0.0
  0
LINE
  5
DB
330
39
100
AcDbEntity
  8
1
  6
Continuous
 62
     7
100
AcDbLine
 10
622.1357089860544
 20
322.0263418868058
 30
0.0
 11
622.1357089860544
 21
309.5263418868058
 31
0.0
  0
LINE
  5
DC
330
39
100
AcDbEntity
  8
1
  6
Continuous
 62
     2
100
AcDbLine
 10
623.8677597936235
 20
342.0263418868058
 30
0.0
 11
636.1357089860544
 21
342.0263418868058
 31
0.0
  0
LINE
  5
DD
330
39
100
AcDbEntity
  8
1
  6
Continuous
 62
     7
100
AcDbLine
 10
622.1357089860544
 20
343.0263418868058
 30
0.0
 11
635.1357089860544
 21
343.0263418868058
 31
0.0
  0
LINE
  5
DE
330
39
100
AcDbEntity
  8
1
  6
Continuous
 62
     7
100
AcDbLine
 10
636.1357089860544
 20
342.0263418868058
 30
0.0
 11
635.1357089860544
 21
343.0263418868058
 31
0.0
  0
LINE
  5
DF
330
39
100
AcDbEntity
  8
1
  6
Continuous
 62
     2
100
AcDbLine
 10
622.1357089860544
 20
343.0263418868058
 30
0.0
 11
623.8677597936235
 21
342.0263418868058
 31
0.0
  0
LINE
  5
E0
330
39
100
AcDbEntity
  8
1
  6
Continuous
 62
     7
100
AcDbLine
 10
622.1357089860544
 20
355.5263418868058
 30
0.0
 11
622.1357089860544
 21
343.0263418868058
 31
0.0
  0
LINE
  5
E1
330
39
100
AcDbEntity
  8
1
  6
Continuous
 62
     7
100
AcDbLine
 10
622.1357089860544
 20
355.5263418868058
 30
0.0
 11
620.1357089860544
 21
355.5263418868058
 31
0.0
  0
LINE
  5
E2
330
39
100
AcDbEntity
  8
1
  6
Continuous
 62
     7
100
AcDbLine
 10
619.6357089860544
 20
345.2763418868058
 30
0.0
 11
619.6357089860544
 21
355.0263418868058
 31
0.0
  0
LINE
  5
E3
330
39
100
AcDbEntity
  8
1
  6
Continuous
 62
     7
100
AcDbLine
 10
555.1357089860543
 20
316.8862869421657
 30
0.0
 11
555.1357089860543
 21
313.5263418868058
 31
0.0
  0
LINE
  5
E4
330
39
100
AcDbEntity
  8
1
  6
Continuous
 62
     2
100
AcDbLine
 10
529.1357089860543
 20
316.7583926943746
 30
0.0
 11
530.1357089860543
 21
315.0263418868058
 31
0.0
  0
LINE
  5
E5
330
39
100
AcDbEntity
  8
1
  6
Continuous
 62
     7
100
AcDbLine
 10
529.1357089860543
 20
313.5263418868058
 30
0.0
 11
529.1357089860543
 21
316.7583926943746
 31
0.0
  0
LINE
  5
E6
330
39
100
AcDbEntity
  8
1
  6
Continuous
 62
     2
100
AcDbLine
 10
554.1357089860543
 20
315.0263418868058
 30
0.0
 11
555.1357089860543
 21
316.7583926943747
 31
0.0
  0
LINE
  5
E7
330
39
100
AcDbEntity
  8
1
  6
Continuous
 62
     2
100
AcDbLine
 10
554.1357089860543
 20
315.0263418868058
 30
0.0
 11
554.1357089860543
 21
313.5263418868058
 31
0.0
  0
LINE
  5
E8
330
39
100
AcDbEntity
  8
1
  6
Continuous
 62
     2
100
AcDbLine
 10
530.1357089860543
 20
313.5263418868058
 30
0.0
 11
530.1357089860543
 21
315.0263418868058
 31
0.0
  0
LINE
  5
E9
330
39
100
AcDbEntity
  8
1
  6
Continuous
 62
     7
100
AcDbLine
 10
564.8431317864065
 20
354.7942910792372
 30
0.0
 11
565.1357089860543
 21
354.7942910792372
 31
0.0
  0
LINE
  5
EA
330
39
100
AcDbEntity
  8
1
  6
Continuous
 62
     7
100
AcDbLine
 10
589.1357089860544
 20
354.7942910792372
 30
0.0
 11
589.4282861857034
 21
354.7942910792372
 31
0.0
  0
LINE
  5
EB
330
39
100
AcDbEntity
  8
1
  6
Continuous
 62
     2
100
AcDbLine
 10
588.1357089860543
 20
356.5263418868058
 30
0.0
 11
589.1357089860544
 21
354.7942910792372
 31
0.0
  0
LINE
  5
EC
330
39
100
AcDbEntity
  8
1
  6
Continuous
 62
     7
100
AcDbLine
 10
589.1357089860544
 20
354.7942910792372
 30
0.0
 11
589.1357089860544
 21
357.9560331749906
 31
0.0
  0
LINE
  5
ED
330
39
100
AcDbEntity
  8
1
  6
Continuous
 62
     2
100
AcDbLine
 10
565.1357089860543
 20
354.7942910792372
 30
0.0
 11
566.1357089860543
 21
356.5263418868058
 31
0.0
  0
LINE
  5
EE
330
39
100
AcDbEntity
  8
1
  6
Continuous
 62
     2
100
AcDbLine
 10
566.1357089860543
 20
356.5263418868058
 30
0.0
 11
566.1357089860545
 21
357.9560331749906
 31
0.0
  0
LINE
  5
EF
330
39
100
AcDbEntity
  8
1
  6
Continuous
 62
     7
100
AcDbLine
 10
565.1357089860543
 20
357.9560331749906
 30
0.0
 11
565.1357089860543
 21
354.7942910792372
 31
0.0
  0
LINE
  5
F0
330
39
100
AcDbEntity
  8
1
  6
Continuous
 62
     7
100
AcDbLine
 10
529.1357089860543
 20
316.7583926943746
 30
0.0
 11
529.1357089860543
 21
316.8862869421657
 31
0.0
  0
LINE
  5
F1
330
39
100
AcDbEntity
  8
1
  6
Continuous
 62
     7
100
AcDbLine
 10
636.1357089860544
 20
323.0263418868058
 30
0.0
 11
636.1357089860544
 21
342.0263418868058
 31
0.0
  0
ARC
  5
F2
330
39
100
AcDbEntity
  8
1
  6
Continuous
 62
     7
100
AcDbCircle
 10
162.1193540207601
 20
332.5263418868058
 30
0.0
 40
23.00000000000005
100
AcDbArc
 50
122.5778011728609
 51
-124.4173887104423
  0
ARC
  5
F3
330
39
100
AcDbEntity
  8
1
  6
Continuous
 62
     7
100
AcDbCircle
 10
162.1193540207601
 20
332.5263418868058
 30
0.0
 40
23.0
100
AcDbArc
 50
0.0
 51
57.42219882713935
  0
ARC
  5
F4
330
39
100
AcDbEntity
  8
1
  6
Continuous
 62
     7
100
AcDbCircle
 10
162.1193540207601
 20
332.5263418868058
 30
0.0
 40
23.00000000000005
100
AcDbArc
 50
-55.58261128955852
 51
0.0
  0
ARC
  5
F5
330
39
100
AcDbEntity
  8
1
  6
Continuous
 62
     7
100
AcDbCircle
 10
162.1193540207601
 20
332.5263418868058
 30
0.0
 40
8.351995935905926
100
AcDbArc
 50
0.19057502307833
 51
90.0
  0
ARC
  5
F6
330
39
100
AcDbEntity
  8
1
  6
Continuous
 62
     7
100
AcDbCircle
 10
162.1193540207601
 20
332.5263418868058
 30
0.0
 40
8.351995935906189
100
AcDbArc
 50
90.0
 51
179.8094249769217
  0
ARC
  5
F7
330
39
100
AcDbEntity
  8
1
  6
Continuous
 62
     7
100
AcDbCircle
 10
135.1193540207602
 20
826.3310694085386
 30
0.0
 40
39.99999999999984
100
AcDbArc
 50
-20.06805462081919
 51
-8.44840117492193
  0
ARC
  5
F8
330
39
100
AcDbEntity
  8
1
  6
Continuous
 62
     7
100
AcDbCircle
 10
162.1193540207601
 20
332.5263418868058
 30
0.0
 40
13.0000000000002
100
AcDbArc
 50
-179.9313547110613
 51
-145.6899072066107
  0
ARC
  5
F9
330
39
100
AcDbEntity
  8
1
  6
Continuous
 62
     7
100
AcDbCircle
 10
150.4149234467677
 20
316.6934435037408
 30
0.0
 40
24.00000000000169
100
AcDbArc
 50
8.67199482596338
 51
27.87011739414522
  0
ARC
  5
FA
330
39
100
AcDbEntity
  8
1
  6
Continuous
 62
     7
100
AcDbCircle
 10
162.1193540207601
 20
332.5263418868058
 30
0.0
 40
13.0
100
AcDbArc
 50
180.0
 51
-179.9313547110613
  0
ARC
  5
FB
330
39
100
AcDbEntity
  8
1
  6
Continuous
 62
     7
100
AcDbCircle
 10
162.1193540207601
 20
332.5263418868058
 30
0.0
 40
12.99999999999998
100
AcDbArc
 50
-34.31009279338959
 51
-0.06864528893873
  0
ARC
  5
FC
330
39
100
AcDbEntity
  8
1
  6
Continuous
 62
     7
100
AcDbCircle
 10
173.8237845947522
 20
316.6934435037408
 30
0.0
 40
24.0000000000015
100
AcDbArc
 50
152.1298826058545
 51
171.3280051740366
  0
ARC
  5
FD
330
39
100
AcDbEntity
  8
1
  6
Continuous
 62
     7
100
AcDbCircle
 10
174.8693540207601
 20
864.7948059875012
 30
0.0
 40
4.0
100
AcDbArc
 50
90.0
 51
180.0
  0
ARC
  5
FE
330
39
100
AcDbEntity
  8
1
  6
Continuous
 62
     7
100
AcDbCircle
 10
149.3693540207602
 20
864.7948059875012
 30
0.0
 40
3.999999999999915
100
AcDbArc
 50
0.0
 51
90.0
  0
ARC
  5
FF
330
39
100
AcDbEntity
  8
1
  6
Continuous
 62
     7
100
AcDbCircle
 10
189.1193540207602
 20
826.3310694085386
 30
0.0
 40
40.00000000000017
100
AcDbArc
 50
-171.5515988250778
 51
-159.931945379181
  0
ARC
  5
100
330
39
100
AcDbEntity
  8
1
  6
Continuous
 62
     7
100
AcDbCircle
 10
162.1193540207601
 20
791.3310694085386
 30
0.0
 40
12.99999999999998
100
AcDbArc
 50
132.3049897071829
 51
47.69501029281709
  0
ARC
  5
101
330
39
100
AcDbEntity
  8
1
  6
Continuous
 62
     7
100
AcDbCircle
 10
577.1357089860543
 20
348.5263418868058
 30
0.0
 40
29.0
100
AcDbArc
 50
-117.439240150681
 51
-68.30528397761425
  0
ARC
  5
102
330
39
100
AcDbEntity
  8
1
  6
Continuous
 62
     7
100
AcDbCircle
 10
558.0947436104755
 20
320.032262853182
 30
0.0
 40
3.999999999997961
100
AcDbArc
 50
93.11786651757254
 51
173.9726861048941
  0
ARC
  5
103
330
39
100
AcDbEntity
  8
1
  6
Continuous
 62
     7
100
AcDbCircle
 10
615.6357089860544
 20
319.7763418868058
 30
0.0
 40
4.0
100
AcDbArc
 50
0.0
 51
90.0
  0
ARC
  5
104
330
39
100
AcDbEntity
  8
1
  6
Continuous
 62
     7
100
AcDbCircle
 10
615.6357089860544
 20
345.2763418868058
 30
0.0
 40
4.0
100
AcDbArc
 50
-90.0
 51
0.0
  0
ARC
  5
105
330
39
100
AcDbEntity
  8
1
  6
Continuous
 62
     7
100
AcDbCircle
 10
553.8401395600467
 20
316.6934435037408
 30
0.0
 40
24.00000000000235
100
AcDbArc
 50
99.36066212030308
 51
171.3280051740366
  0
ARC
  5
106
330
39
100
AcDbEntity
  8
1
  6
Continuous
 62
     7
100
AcDbCircle
 10
557.9063537477157
 20
292.0263418863465
 30
0.0
 40
49.00000000045964
100
AcDbArc
 50
92.19404509977882
 51
99.36066212030437
  0
ARC
  5
107
330
39
100
AcDbEntity
  8
1
  6
Continuous
 62
     7
100
AcDbCircle
 10
555.6858844811277
 20
349.9838221308318
 30
0.0
 40
9.000000000003894
100
AcDbArc
 50
-87.8059549002254
 51
-1.818302964459
  0
ARC
  5
108
330
39
100
AcDbEntity
  8
1
  6
Continuous
 62
     7
100
AcDbCircle
 10
180.471248439472
 20
332.5873834788714
 30
0.0
 40
10.00000000000007
100
AcDbArc
 50
-179.8094249769235
 51
-152.1298826058554
  0
ARC
  5
109
330
39
100
AcDbEntity
  8
1
  6
Continuous
 62
     7
100
AcDbCircle
 10
143.7674596020481
 20
332.5873834788714
 30
0.0
 40
10.00000000000003
100
AcDbArc
 50
-27.87011739414457
 51
-0.19057502307644
  0
ARC
  5
10A
330
39
100
AcDbEntity
  8
1
  6
Continuous
 62
     7
100
AcDbCircle
 10
200.8693540207602
 20
850.3505927177135
 30
0.0
 40
30.00000000000009
100
AcDbArc
 50
180.0
 51
-163.6603718092954
  0
ARC
  5
10B
330
39
100
AcDbEntity
  8
1
  6
Continuous
 62
     7
100
AcDbCircle
 10
172.8693540207601
 20
793.3310694085386
 30
0.0
 40
2.0
100
AcDbArc
 50
180.0
 51
-90.0
  0
ARC
  5
10C
330
39
100
AcDbEntity
  8
1
  6
Continuous
 62
     7
100
AcDbCircle
 10
151.3693540207601
 20
793.3310694085386
 30
0.0
 40
2.0
100
AcDbArc
 50
-90.0
 51
0.0
  0
ARC
  5
10D
330
39
100
AcDbEntity
  8
1
  6
Continuous
 62
     7
100
AcDbCircle
 10
123.3693540207602
 20
850.3505927177135
 30
0.0
 40
29.9999999999999
100
AcDbArc
 50
-16.33962819070474
 51
0.0
  0
ARC
  5
10E
330
39
100
AcDbEntity
  8
1
  6
Continuous
 62
     7
100
AcDbCircle
 10
123.3693540207602
 20
802.3115460993636
 30
0.0
 40
29.99999999999992
100
AcDbArc
 50
0.0
 51
20.06805462081945
  0
ARC
  5
10F
330
39
100
AcDbEntity
  8
1
  6
Continuous
 62
     7
100
AcDbCircle
 10
200.8693540207602
 20
802.3115460993636
 30
0.0
 40
30.00000000000019
100
AcDbArc
 50
159.9319453791808
 51
180.0
  0
ARC
  5
110
330
39
100
AcDbEntity
  8
1
  6
Continuous
 62
     7
100
AcDbCircle
 10
139.6193540207602
 20
869.2932646543677
 30
0.0
 40
0.5
100
AcDbArc
 50
180.0
 51
-94.49999999999719
  0
ARC
  5
111
330
39
100
AcDbEntity
  8
1
  6
Continuous
 62
     7
100
AcDbCircle
 10
184.6193540207602
 20
869.2932646543677
 30
0.0
 40
0.4999999999999883
100
AcDbArc
 50
-85.50000000000281
 51
0.0
  0
ARC
  5
112
330
39
100
AcDbEntity
  8
1
  6
Continuous
 62
     7
100
AcDbCircle
 10
599.3153730953234
 20
372.2763418868061
 30
0.0
 40
31.00000000000009
100
AcDbArc
 50
-91.9263361402062
 51
-90.0
  0
ARC
  5
113
330
39
100
AcDbEntity
  8
1
  6
Continuous
 62
     7
100
AcDbCircle
 10
598.5758524559014
 20
350.288774735712
 30
0.0
 40
8.999999999998678
100
AcDbArc
 50
-178.1816970355477
 51
-91.92633614020326
  0
ARC
  5
114
330
39
100
AcDbEntity
  8
1
  6
Continuous
 62
     7
100
AcDbCircle
 10
599.3153730953234
 20
292.7763418868057
 30
0.0
 40
31.0
100
AcDbArc
 50
90.00000000000168
 51
111.6947160223879
  0
ARC
  5
115
330
39
100
AcDbEntity
  8
1
  6
Continuous
 62
     7
100
AcDbCircle
 10
558.7034003948875
 20
313.0263418868058
 30
0.0
 40
11.00000000000003
100
AcDbArc
 50
62.5607598493185
 51
90.0
  0
ARC
  5
116
330
39
100
AcDbEntity
  8
1
  6
Continuous
 62
     7
100
AcDbCircle
 10
620.1357089860544
 20
310.0263418868058
 30
0.0
 40
0.5
100
AcDbArc
 50
180.0
 51
-90.0
  0
ARC
  5
117
330
39
100
AcDbEntity
  8
1
  6
Continuous
 62
     7
100
AcDbCircle
 10
620.1357089860544
 20
355.0263418868058
 30
0.0
 40
0.5
100
AcDbArc
 50
90.0
 51
180.0
  0
ENDBLK
  5
3B
330
39
100
AcDbEntity
  8
0
100
AcDbBlockEnd
  0
BLOCK
  5
3D
330
3C
100
AcDbEntity
  8
0
100
AcDbBlockBegin
  2
21-1A
 70
     0
 71
     0
 10
622.1357089860544
 20
332.5263418868058
 30
0.0
  3
21-1A
  1

  0
LINE
  5
118
330
3C
100
AcDbEntity
  8
1
  6
PHANTOM
 62
     4
100
AcDbLine
 10
170.7796080586046
 20
821.3310694085386
 30
0.0
 11
132.6744902920892
 21
843.3310694085386
 31
0.0
  0
LINE
  5
119
330
3C
100
AcDbEntity
  8
1
  6
PHANTOM
 62
     4
100
AcDbLine
 10
153.4590999829158
 20
821.3310694085386
 30
0.0
 11
191.5642177494311
 21
843.3310694085387
 31
0.0
  0
LINE
  5
11A
330
3C
100
AcDbEntity
  8
1
  6
Continuous
 62
     7
100
AcDbLine
 10
168.5898301483232
 20
380.3114216421565
 30
0.0
 11
168.5898301483232
 21
378.3812332580992
 31
0.0
  0
LINE
  5
11B
330
3C
100
AcDbEntity
  8
1
  6
Continuous
 62
     7
100
AcDbLine
 10
155.6488778931973
 20
378.5340724194447
 30
0.0
 11
155.6488778931973
 21
380.3114216421565
 31
0.0
  0
LINE
  5
11C
330
3C
100
AcDbEntity
  8
1
  6
Continuous
 62
     7
100
AcDbLine
 10
134.9254929907709
 20
380.3114216421565
 30
0.0
 11
134.4735848917785
 21
377.0959284372859
 31
0.0
  0
LINE
  5
11D
330
3C
100
AcDbEntity
  8
1
  6
Continuous
 62
     7
100
AcDbLine
 10
189.7651231497421
 20
377.0959284372859
 30
0.0
 11
189.3132150507495
 21
380.3114216421565
 31
0.0
  0
LINE
  5
11E
330
3C
100
AcDbEntity
  8
1
  6
Continuous
 62
     7
100
AcDbLine
 10
134.9687189261492
 20
376.5263418868058
 30
0.0
 11
189.2699891153711
 21
376.5263418868058
 31
0.0
  0
LINE
  5
11F
330
3C
100
AcDbEntity
  8
1
  6
Continuous
 62
     7
100
AcDbLine
 10
156.3237990630256
 20
799.7781551379235
 30
0.0
 11
152.6723898515553
 21
813.4053998343563
 31
0.0
  0
LINE
  5
120
330
3C
100
AcDbEntity
  8
1
  6
Continuous
 62
     7
100
AcDbLine
 10
136.2260782390298
 20
834.5884287214194
 30
0.0
 11
146.2019137239922
 21
824.6125932364571
 31
0.0
  0
LINE
  5
121
330
3C
100
AcDbEntity
  8
1
  6
Continuous
 62
     7
100
AcDbLine
 10
142.0216331967642
 20
844.6266243662731
 30
0.0
 11
155.648877893197
 21
840.9752151548025
 31
0.0
  0
LINE
  5
122
330
3C
100
AcDbEntity
  8
1
  6
Continuous
 62
     7
100
AcDbLine
 10
182.9775797473764
 20
844.8304010407701
 30
0.0
 11
168.5898301483231
 21
840.9752151548025
 31
0.0
  0
LINE
  5
123
330
3C
100
AcDbEntity
  8
1
  6
Continuous
 62
     7
100
AcDbLine
 10
188.0126298024903
 20
834.5884287214194
 30
0.0
 11
178.036794317528
 21
824.6125932364571
 31
0.0
  0
LINE
  5
124
330
3C
100
AcDbEntity
  8
1
  6
Continuous
 62
     7
100
AcDbLine
 10
167.9149089784945
 20
799.7781551379235
 30
0.0
 11
171.5663181899649
 21
813.4053998343563
 31
0.0
  0
LINE
  5
125
330
3C
100
AcDbEntity
  8
1
  6
Continuous
 62
     7
100
AcDbLine
 10
546.7108931896651
 20
375.0263418868058
 30
0.0
 11
577.1357089860545
 21
375.0263418868058
 31
0.0
  0
LINE
  5
126
330
3C
100
AcDbEntity
  8
1
  6
Continuous
 62
     7
100
AcDbLine
 10
594.9383948404056
 20
379.9854184925495
 30
0.0
 11
595.5556123344132
 21
375.5959638195183
 31
0.0
  0
LINE
  5
127
330
3C
100
AcDbEntity
  8
1
  6
Continuous
 62
     7
100
AcDbLine
 10
546.6676672542866
 20
378.8114216421565
 30
0.0
 11
546.2157591552942
 21
375.5959284372859
 31
0.0
  0
LINE
  5
128
330
3C
100
AcDbEntity
  8
1
  6
Continuous
 62
     7
100
AcDbLine
 10
595.0604832739801
 20
375.0263418868058
 30
0.0
 11
577.1357089860545
 21
375.0263418868058
 31
0.0
  0
ARC
  5
129
330
3C
100
AcDbEntity
  8
1
  6
Continuous
 62
     7
100
AcDbCircle
 10
162.1193540207601
 20
381.1058858815804
 30
0.0
 40
6.295027727184275
100
AcDbArc
 50
15.00953379391352
 51
164.9904662060868
  0
ARC
  5
12A
330
3C
100
AcDbEntity
  8
1
  6
Continuous
 62
     7
100
AcDbCircle
 10
163.7564443716494
 20
260.1561893464815
 30
0.0
 40
127.4948334081408
100
AcDbArc
 50
92.53411689479738
 51
100.8094932463522
  0
ARC
  5
12B
330
3C
100
AcDbEntity
  8
1
  6
Continuous
 62
     7
100
AcDbCircle
 10
160.4822636698709
 20
260.1561893464815
 30
0.0
 40
127.494833408141
100
AcDbArc
 50
79.19050675364785
 51
87.46588310520265
  0
ARC
  5
12C
330
3C
100
AcDbEntity
  8
1
  6
Continuous
 62
     7
100
AcDbCircle
 10
162.1193540207601
 20
801.3310694085386
 30
0.0
 40
6.000000000000099
100
AcDbArc
 50
-165.0000000000002
 51
-90.0
  0
ARC
  5
12D
330
3C
100
AcDbEntity
  8
1
  6
Continuous
 62
     7
100
AcDbCircle
 10
140.4687189261491
 20
838.8310694085386
 30
0.0
 40
6.000000000000036
100
AcDbArc
 50
75.0000000000003
 51
-135.0000000000008
  0
ARC
  5
12E
330
3C
100
AcDbEntity
  8
1
  6
Continuous
 62
     7
100
AcDbCircle
 10
183.769989115371
 20
838.8310694085386
 30
0.0
 40
5.999999999999948
100
AcDbArc
 50
-44.99999999999942
 51
97.52424107894032
  0
ARC
  5
12F
330
3C
100
AcDbEntity
  8
1
  6
Continuous
 62
     7
100
AcDbCircle
 10
162.1193540207601
 20
801.3310694085386
 30
0.0
 40
6.0
100
AcDbArc
 50
-90.0
 51
-15.00000000000012
  0
ARC
  5
130
330
3C
100
AcDbEntity
  8
1
  6
Continuous
 62
     7
100
AcDbCircle
 10
577.4999046513012
 20
311.1145208781067
 30
0.0
 40
74.99999999999979
100
AcDbArc
 50
80.40850751733484
 51
87.22136103403739
  0
ARC
  5
131
330
3C
100
AcDbEntity
  8
1
  6
Continuous
 62
     7
100
AcDbCircle
 10
577.1357089860545
 20
236.0263418868057
 30
0.0
 40
150.0533238552217
100
AcDbArc
 50
91.52752544221293
 51
99.80290179376779
  0
ARC
  5
132
330
3C
100
AcDbEntity
  8
1
  6
Continuous
 62
     7
100
AcDbCircle
 10
140.8671014032202
 20
379.4763830363962
 30
0.0
 40
6.000000000000037
100
AcDbArc
 50
99.80290179376887
 51
172.0000000000007
  0
ARC
  5
133
330
3C
100
AcDbEntity
  8
1
  6
Continuous
 62
     7
100
AcDbCircle
 10
134.9687189261492
 20
377.0263418868058
 30
0.0
 40
0.4999999999999177
100
AcDbArc
 50
171.9999999999913
 51
-90.0
  0
ARC
  5
134
330
3C
100
AcDbEntity
  8
1
  6
Continuous
 62
     7
100
AcDbCircle
 10
189.2699891153711
 20
377.0263418868058
 30
0.0
 40
0.5
100
AcDbArc
 50
-90.0
 51
8.0000000000037
  0
ARC
  5
135
330
3C
100
AcDbEntity
  8
1
  6
Continuous
 62
     7
100
AcDbCircle
 10
183.3716066383001
 20
379.4763830363962
 30
0.0
 40
5.999999999999964
100
AcDbArc
 50
7.99999999999919
 51
80.19709820623328
  0
ARC
  5
136
330
3C
100
AcDbEntity
  8
1
  6
Continuous
 62
     7
100
AcDbCircle
 10
128.5242441943286
 20
806.9349237067934
 30
0.0
 40
24.99999999999999
100
AcDbArc
 50
14.99999999999987
 51
45.00000000000019
  0
ARC
  5
137
330
3C
100
AcDbEntity
  8
1
  6
Continuous
 62
     7
100
AcDbCircle
 10
162.1193540207601
 20
865.1233608120292
 30
0.0
 40
24.99999999999999
100
AcDbArc
 50
-105.0000000000002
 51
-75.00000000000006
  0
ARC
  5
138
330
3C
100
AcDbEntity
  8
1
  6
Continuous
 62
     7
100
AcDbCircle
 10
195.7144638471917
 20
806.9349237067934
 30
0.0
 40
25.00000000000002
100
AcDbArc
 50
134.9999999999999
 51
165.0000000000002
  0
ARC
  5
139
330
3C
100
AcDbEntity
  8
1
  6
Continuous
 62
     7
100
AcDbCircle
 10
595.0604832739801
 20
375.5263418868058
 30
0.0
 40
0.5
100
AcDbArc
 50
-90.0
 51
8.00409437168694
  0
ARC
  5
13A
330
3C
100
AcDbEntity
  8
1
  6
Continuous
 62
     7
100
AcDbCircle
 10
546.7108931896651
 20
375.5263418868058
 30
0.0
 40
0.5000000000000584
100
AcDbArc
 50
171.9999999999936
 51
-90.0
  0
ARC
  5
13B
330
3C
100
AcDbEntity
  8
1
  6
Continuous
 62
     7
100
AcDbCircle
 10
588.9968461152084
 20
379.1499552999981
 30
0.0
 40
6.000000000000063
100
AcDbArc
 50
8.00409437170091
 51
80.40850751733291
  0
ARC
  5
13C
330
3C
100
AcDbEntity
  8
1
  6
Continuous
 62
     7
100
AcDbCircle
 10
552.609275666736
 20
377.976383036396
 30
0.0
 40
6.000000000000136
100
AcDbArc
 50
99.80290179376787
 51
171.9999999999988
  0
ENDBLK
  5
3E
330
3C
100
AcDbEntity
  8
0
100
AcDbBlockEnd
  0
BLOCK
  5
40
330
3F
100
AcDbEntity
  8
0
100
AcDbBlockBegin
  2
36-1A-13-M11
 70
     0
 71
     0
 10
331.3218505641062
 20
233.9572158773696
 30
0.0
  3
36-1A-13-M11
  1

  0
LINE
  5
13D
330
3F
100
AcDbEntity
  8
1
  6
Continuous
 62
     7
100
AcDbLine
 10
166.8693540207601
 20
376.5263418868058
 30
0.0
 11
166.8693540207601
 21
372.0263418868058
 31
0.0
  0
LINE
  5
13E
330
3F
100
AcDbEntity
  8
1
  6
Continuous
 62
     7
100
AcDbLine
 10
157.3693540207601
 20
372.0263418868058
 30
0.0
 11
157.3693540207601
 21
376.5263418868058
 31
0.0
  0
LINE
  5
13F
330
3F
100
AcDbEntity
  8
1
  6
Continuous
 62
     7
100
AcDbLine
 10
581.8857089860544
 20
375.0263418868058
 30
0.0
 11
581.8857089860545
 21
372.0263418868058
 31
0.0
  0
LINE
  5
140
330
3F
100
AcDbEntity
  8
1
  6
Continuous
 62
     7
100
AcDbLine
 10
572.3857089860544
 20
372.0263418868058
 30
0.0
 11
572.3857089860544
 21
375.0263418868058
 31
0.0
  0
ENDBLK
  5
41
330
3F
100
AcDbEntity
  8
0
100
AcDbBlockEnd
  0
BLOCK
  5
43
330
42
100
AcDbEntity
  8
0
100
AcDbBlockBegin
  2
42-1
 70
     0
 71
     0
 10
489.031448899451
 20
180.236692877221
 30
0.0
  3
42-1
  1

  0
LINE
  5
141
330
42
100
AcDbEntity
  8
1
  6
Continuous
 62
     2
100
AcDbLine
 10
163.1193540207598
 20
388.5034408983666
 30
0.0
 11
163.1193540207598
 21
389.7686799889771
 31
0.0
  0
LINE
  5
142
330
42
100
AcDbEntity
  8
1
  6
Continuous
 62
     2
100
AcDbLine
 10
164.1193540207598
 20
388.2439046746516
 30
0.0
 11
164.1193540207598
 21
390.0119951987098
 31
0.0
  0
LINE
  5
143
330
42
100
AcDbEntity
  8
1
  6
Continuous
 62
     2
100
AcDbLine
 10
165.1193540207598
 20
387.8870423670436
 30
0.0
 11
165.1193540207598
 21
390.2228683804782
 31
0.0
  0
LINE
  5
144
330
42
100
AcDbEntity
  8
1
  6
Continuous
 62
     2
100
AcDbLine
 10
166.1193540207598
 20
387.6923901992574
 30
0.0
 11
166.1193540207598
 21
390.3364154783535
 31
0.0
  0
LINE
  5
145
330
42
100
AcDbEntity
  8
1
  6
Continuous
 62
     2
100
AcDbLine
 10
167.1193540207598
 20
387.5263418868058
 30
0.0
 11
167.1193540207598
 21
390.5263418868058
 31
0.0
  0
LINE
  5
146
330
42
100
AcDbEntity
  8
1
  6
Continuous
 62
     2
100
AcDbLine
 10
168.1193540207601
 20
387.5263418868058
 30
0.0
 11
168.1193540207601
 21
390.5263418868058
 31
0.0
  0
LINE
  5
147
330
42
100
AcDbEntity
  8
1
  6
Continuous
 62
     7
100
AcDbLine
 10
168.1193540207601
 20
390.795664085829
 30
0.0
 11
169.1193540207601
 21
390.5263418868058
 31
0.0
  0
LINE
  5
148
330
42
100
AcDbEntity
  8
1
  6
Continuous
 62
     7
100
AcDbLine
 10
169.1193540207601
 20
390.5263418868058
 30
0.0
 11
169.1193540207601
 21
387.5263418868058
 31
0.0
  0
LINE
  5
149
330
42
100
AcDbEntity
  8
1
  6
Continuous
 62
     7
100
AcDbLine
 10
155.1193540207601
 20
387.5263418868058
 30
0.0
 11
155.1193540207601
 21
390.5263418868058
 31
0.0
  0
LINE
  5
14A
330
42
100
AcDbEntity
  8
1
  6
Continuous
 62
     7
100
AcDbLine
 10
155.1193540207601
 20
390.5263418868058
 30
0.0
 11
156.1193540207598
 21
390.795664085829
 31
0.0
  0
LINE
  5
14B
330
42
100
AcDbEntity
  8
1
  6
Continuous
 62
     2
100
AcDbLine
 10
156.1193540207601
 20
390.5263418868058
 30
0.0
 11
156.1193540207601
 21
387.5263418868058
 31
0.0
  0
LINE
  5
14C
330
42
100
AcDbEntity
  8
1
  6
Continuous
 62
     7
100
AcDbLine
 10
155.1193540207601
 20
387.5263418868058
 30
0.0
 11
169.1193540207601
 21
387.5263418868058
 31
0.0
  0
LINE
  5
14D
330
42
100
AcDbEntity
  8
1
  6
Continuous
 62
     2
100
AcDbLine
 10
157.1193540207601
 20
390.5263418868058
 30
0.0
 11
157.1193540207601
 21
387.5263418868058
 31
0.0
  0
LINE
  5
14E
330
42
100
AcDbEntity
  8
1
  6
Continuous
 62
     2
100
AcDbLine
 10
158.1193540207601
 20
390.3364154783535
 30
0.0
 11
158.1193540207601
 21
387.6923901992574
 31
0.0
  0
LINE
  5
14F
330
42
100
AcDbEntity
  8
1
  6
Continuous
 62
     2
100
AcDbLine
 10
159.1193540207601
 20
390.2228683804782
 30
0.0
 11
159.1193540207601
 21
387.8870423670436
 31
0.0
  0
LINE
  5
150
330
42
100
AcDbEntity
  8
1
  6
Continuous
 62
     2
100
AcDbLine
 10
160.1193540207601
 20
390.0119951987098
 30
0.0
 11
160.1193540207601
 21
388.2439046746516
 31
0.0
  0
LINE
  5
151
330
42
100
AcDbEntity
  8
1
  6
Continuous
 62
     2
100
AcDbLine
 10
161.1193540207601
 20
389.7686799889771
 30
0.0
 11
161.1193540207601
 21
388.5034408983666
 31
0.0
  0
LINE
  5
152
330
42
100
AcDbEntity
  8
1
  6
Continuous
 62
     7
100
AcDbLine
 10
156.3693540207601
 20
390.8561076070096
 30
0.0
 11
167.8693540207598
 21
390.8561076070096
 31
0.0
  0
LINE
  5
153
330
42
100
AcDbEntity
  8
1
  6
Continuous
 62
     7
100
AcDbLine
 10
155.1193540207601
 20
390.5263418868058
 30
0.0
 11
169.1193540207601
 21
390.5263418868058
 31
0.0
  0
LINE
  5
154
330
42
100
AcDbEntity
  8
1
  6
Continuous
 62
     2
100
AcDbLine
 10
578.1357089860544
 20
387.0034408983667
 30
0.0
 11
578.1357089860544
 21
388.2686799889772
 31
0.0
  0
LINE
  5
155
330
42
100
AcDbEntity
  8
1
  6
Continuous
 62
     2
100
AcDbLine
 10
579.1357089860544
 20
386.7439046746517
 30
0.0
 11
579.1357089860544
 21
388.5119951987099
 31
0.0
  0
LINE
  5
156
330
42
100
AcDbEntity
  8
1
  6
Continuous
 62
     2
100
AcDbLine
 10
580.1357089860544
 20
386.3870423670437
 30
0.0
 11
580.1357089860544
 21
388.7228683804783
 31
0.0
  0
LINE
  5
157
330
42
100
AcDbEntity
  8
1
  6
Continuous
 62
     2
100
AcDbLine
 10
581.1357089860544
 20
386.1923901992575
 30
0.0
 11
581.1357089860544
 21
388.8364154783536
 31
0.0
  0
LINE
  5
158
330
42
100
AcDbEntity
  8
1
  6
Continuous
 62
     2
100
AcDbLine
 10
582.1357089860544
 20
386.0263418868059
 30
0.0
 11
582.1357089860544
 21
389.0263418868059
 31
0.0
  0
LINE
  5
159
330
42
100
AcDbEntity
  8
1
  6
Continuous
 62
     2
100
AcDbLine
 10
583.1357089860545
 20
386.0263418868059
 30
0.0
 11
583.1357089860545
 21
389.0263418868059
 31
0.0
  0
LINE
  5
15A
330
42
100
AcDbEntity
  8
1
  6
Continuous
 62
     7
100
AcDbLine
 10
583.1357089860545
 20
389.2956640858291
 30
0.0
 11
584.1357089860545
 21
389.0263418868059
 31
0.0
  0
LINE
  5
15B
330
42
100
AcDbEntity
  8
1
  6
Continuous
 62
     7
100
AcDbLine
 10
584.1357089860545
 20
389.0263418868059
 30
0.0
 11
584.1357089860545
 21
386.0263418868059
 31
0.0
  0
LINE
  5
15C
330
42
100
AcDbEntity
  8
1
  6
Continuous
 62
     7
100
AcDbLine
 10
570.1357089860545
 20
386.0263418868059
 30
0.0
 11
570.1357089860545
 21
389.0263418868059
 31
0.0
  0
LINE
  5
15D
330
42
100
AcDbEntity
  8
1
  6
Continuous
 62
     7
100
AcDbLine
 10
570.1357089860545
 20
389.0263418868059
 30
0.0
 11
571.1357089860544
 21
389.2956640858291
 31
0.0
  0
LINE
  5
15E
330
42
100
AcDbEntity
  8
1
  6
Continuous
 62
     2
100
AcDbLine
 10
571.1357089860545
 20
389.0263418868059
 30
0.0
 11
571.1357089860545
 21
386.0263418868059
 31
0.0
  0
LINE
  5
15F
330
42
100
AcDbEntity
  8
1
  6
Continuous
 62
     7
100
AcDbLine
 10
570.1357089860545
 20
386.0263418868059
 30
0.0
 11
584.1357089860545
 21
386.0263418868059
 31
0.0
  0
LINE
  5
160
330
42
100
AcDbEntity
  8
1
  6
Continuous
 62
     2
100
AcDbLine
 10
572.1357089860545
 20
389.0263418868059
 30
0.0
 11
572.1357089860545
 21
386.0263418868059
 31
0.0
  0
LINE
  5
161
330
42
100
AcDbEntity
  8
1
  6
Continuous
 62
     2
100
AcDbLine
 10
573.1357089860545
 20
388.8364154783536
 30
0.0
 11
573.1357089860545
 21
386.1923901992575
 31
0.0
  0
LINE
  5
162
330
42
100
AcDbEntity
  8
1
  6
Continuous
 62
     2
100
AcDbLine
 10
574.1357089860545
 20
388.7228683804783
 30
0.0
 11
574.1357089860545
 21
386.3870423670437
 31
0.0
  0
LINE
  5
163
330
42
100
AcDbEntity
  8
1
  6
Continuous
 62
     2
100
AcDbLine
 10
575.1357089860545
 20
388.5119951987099
 30
0.0
 11
575.1357089860545
 21
386.7439046746517
 31
0.0
  0
LINE
  5
164
330
42
100
AcDbEntity
  8
1
  6
Continuous
 62
     2
100
AcDbLine
 10
576.1357089860545
 20
388.2686799889772
 30
0.0
 11
576.1357089860545
 21
387.0034408983667
 31
0.0
  0
LINE
  5
165
330
42
100
AcDbEntity
  8
1
  6
Continuous
 62
     7
100
AcDbLine
 10
571.3857089860545
 20
389.3561076070097
 30
0.0
 11
582.8857089860544
 21
389.3561076070097
 31
0.0
  0
LINE
  5
166
330
42
100
AcDbEntity
  8
1
  6
Continuous
 62
     7
100
AcDbLine
 10
570.1357089860545
 20
389.0263418868059
 30
0.0
 11
584.1357089860545
 21
389.0263418868059
 31
0.0
  0
ARC
  5
167
330
42
100
AcDbEntity
  8
1
  6
Continuous
 62
     7
100
AcDbCircle
 10
162.1193540207601
 20
366.5263418868058
 30
0.0
 40
24.99999999999999
100
AcDbArc
 50
76.11345963737101
 51
90.0
  0
ARC
  5
168
330
42
100
AcDbEntity
  8
1
  6
Continuous
 62
     7
100
AcDbCircle
 10
162.1193540207601
 20
366.5263418868058
 30
0.0
 40
25.0
100
AcDbArc
 50
90.0
 51
103.8865403626297
  0
ARC
  5
169
330
42
100
AcDbEntity
  8
1
  6
Continuous
 62
     7
100
AcDbCircle
 10
577.1357089860545
 20
365.0263418868059
 30
0.0
 40
25.00000000000004
100
AcDbArc
 50
76.11345963737104
 51
90.0
  0
ARC
  5
16A
330
42
100
AcDbEntity
  8
1
  6
Continuous
 62
     7
100
AcDbCircle
 10
577.1357089860545
 20
365.0263418868059
 30
0.0
 40
25.0
100
AcDbArc
 50
90.0
 51
103.8865403626292
  0
CIRCLE
  5
16B
330
42
100
AcDbEntity
  8
1
  6
Continuous
 62
     7
100
AcDbCircle
 10
162.1193540207601
 20
826.3310694085388
 30
0.0
 40
6.999999999999801
  0
CIRCLE
  5
16C
330
42
100
AcDbEntity
  8
1
  6
Continuous
 62
     7
100
AcDbCircle
 10
162.1193540207601
 20
826.3310694085388
 30
0.0
 40
5.749999999999801
  0
ENDBLK
  5
44
330
42
100
AcDbEntity
  8
0
100
AcDbBlockEnd
  0
BLOCK
  5
46
330
45
100
AcDbEntity
  8
0
100
AcDbBlockBegin
  2
37-1-13
 70
     0
 71
     0
 10
485.3344787692835
 20
216.0306359966612
 30
0.0
  3
37-1-13
  1

  0
LINE
  5
16D
330
45
100
AcDbEntity
  8
1
  6
Continuous
 62
     7
100
AcDbLine
 10
149.1193540207601
 20
358.0263418868058
 30
0.0
 11
149.1193540207601
 21
365.0970561010773
 31
0.0
  0
LINE
  5
16E
330
45
100
AcDbEntity
  8
1
  6
Continuous
 62
     7
100
AcDbLine
 10
175.1193540207601
 20
365.0970561010773
 30
0.0
 11
175.1193540207601
 21
358.0263418868058
 31
0.0
  0
LINE
  5
16F
330
45
100
AcDbEntity
  8
1
  6
Continuous
 62
     7
100
AcDbLine
 10
162.1193540207601
 20
358.0263418868058
 30
0.0
 11
149.1193540207601
 21
358.0263418868058
 31
0.0
  0
LINE
  5
170
330
45
100
AcDbEntity
  8
1
  6
Continuous
 62
     7
100
AcDbLine
 10
162.1193540207601
 20
358.0263418868058
 30
0.0
 11
175.1193540207601
 21
358.0263418868058
 31
0.0
  0
LINE
  5
171
330
45
100
AcDbEntity
  8
1
  6
Continuous
 62
     7
100
AcDbLine
 10
157.1193540207601
 20
372.0263418868058
 30
0.0
 11
156.1193540207601
 21
372.0263418868058
 31
0.0
  0
LINE
  5
172
330
45
100
AcDbEntity
  8
1
  6
Continuous
 62
     7
100
AcDbLine
 10
162.1193540207601
 20
372.0263418868058
 30
0.0
 11
168.1193540207601
 21
372.0263418868058
 31
0.0
  0
LINE
  5
173
330
45
100
AcDbEntity
  8
1
  6
Continuous
 62
     7
100
AcDbLine
 10
162.1193540207601
 20
372.0263418868058
 30
0.0
 11
157.1193540207601
 21
372.0263418868058
 31
0.0
  0
LINE
  5
174
330
45
100
AcDbEntity
  8
1
  6
Continuous
 62
     7
100
AcDbLine
 10
577.1357089860545
 20
365.4560331749906
 30
0.0
 11
589.6357089860543
 21
365.4560331749906
 31
0.0
  0
LINE
  5
175
330
45
100
AcDbEntity
  8
1
  6
Continuous
 62
     7
100
AcDbLine
 10
564.6357089860546
 20
365.4560331749906
 30
0.0
 11
577.1357089860545
 21
365.4560331749906
 31
0.0
  0
LINE
  5
176
330
45
100
AcDbEntity
  8
1
  6
Continuous
 62
     7
100
AcDbLine
 10
590.2064232003258
 20
357.9560331749906
 30
0.0
 11
564.064994771783
 21
357.9560331749906
 31
0.0
  0
LINE
  5
177
330
45
100
AcDbEntity
  8
1
  6
Continuous
 62
     7
100
AcDbLine
 10
583.1357089860545
 20
371.9560331749906
 30
0.0
 11
571.1357089860545
 21
371.9560331749906
 31
0.0
  0
ARC
  5
178
330
45
100
AcDbEntity
  8
1
  6
Continuous
 62
     7
100
AcDbCircle
 10
152.6193540207601
 20
361.5263418868058
 30
0.0
 40
4.999999999999926
100
AcDbArc
 50
126.8698976458418
 51
134.4270040008051
  0
ARC
  5
179
330
45
100
AcDbEntity
  8
1
  6
Continuous
 62
     7
100
AcDbCircle
 10
136.2128988156453
 20
385.4327970919207
 30
0.0
 40
23.99999999999995
100
AcDbArc
 50
-56.04080749990219
 51
-33.95919250009754
  0
ARC
  5
17A
330
45
100
AcDbEntity
  8
1
  6
Continuous
 62
     7
100
AcDbCircle
 10
171.6193540207601
 20
361.5263418868058
 30
0.0
 40
5.000000000000057
100
AcDbArc
 50
45.57299599919494
 51
53.13010235415637
  0
ARC
  5
17B
330
45
100
AcDbEntity
  8
1
  6
Continuous
 62
     7
100
AcDbCircle
 10
188.025809225875
 20
385.4327970919207
 30
0.0
 40
23.99999999999995
100
AcDbArc
 50
-146.0408074999026
 51
-123.9591925000976
  0
ARC
  5
17C
330
45
100
AcDbEntity
  8
1
  6
Continuous
 62
     7
100
AcDbCircle
 10
603.0421641911694
 20
385.3624883801056
 30
0.0
 40
24.00000000000002
100
AcDbArc
 50
-146.0408074999022
 51
-123.9591925000977
  0
ARC
  5
17D
330
45
100
AcDbEntity
  8
1
  6
Continuous
 62
     7
100
AcDbCircle
 10
586.6357089860545
 20
361.4560331749906
 30
0.0
 40
4.999999999999934
100
AcDbArc
 50
-44.42700400080643
 51
53.13010235415806
  0
ARC
  5
17E
330
45
100
AcDbEntity
  8
1
  6
Continuous
 62
     7
100
AcDbCircle
 10
551.2292537809395
 20
385.3624883801056
 30
0.0
 40
24.00000000000019
100
AcDbArc
 50
-56.04080749990232
 51
-33.95919250009765
  0
ARC
  5
17F
330
45
100
AcDbEntity
  8
1
  6
Continuous
 62
     7
100
AcDbCircle
 10
567.6357089860545
 20
361.4560331749906
 30
0.0
 40
4.999999999999932
100
AcDbArc
 50
126.869897645843
 51
-135.5729959991954
  0
SPLINE
  5
180
330
45
100
AcDbEntity
  8
1
  6
Continuous
 62
     7
100
AcDbSpline
210
0.0
220
0.0
230
1.0
 70
    11
 71
     3
 72
    79
 73
    75
 74
    73
 42
0.0000000001
 43
0.0000000001
 44
0.00000001
 40
0.0
 40
0.0
 40
0.0
 40
0.0
 40
0.2811775426109208
 40
0.5623408931993041
 40
0.845746663136827
 40
1.129126830422988
 40
1.415908903032467
 40
1.70265853905482
 40
1.993527432940374
 40
2.284362055943382
 40
2.579517800564284
 40
2.874641782101814
 40
3.173769982296631
 40
3.472872122788089
 40
3.775199692337367
 40
4.07750895785968
 40
4.381905225139415
 40
4.68629209140546
 40
4.99140045951903
 40
5.296508827632657
 40
5.600895693898589
 40
5.905291961178435
 40
6.207601226700803
 40
6.509928796249974
 40
6.809030936741329
 40
7.108159136936146
 40
7.403283118473629
 40
7.698438863094662
 40
7.98927348609779
 40
8.280142379983483
 40
8.566892016005555
 40
8.853674088615133
 40
9.137054255901269
 40
9.420460025838773
 40
9.701623376427227
 40
9.982800919038171
 40
10.26319552186826
 40
10.54359012469858
 40
10.8247676673093
 40
11.10593101789775
 40
11.38933678783513
 40
11.67271695512137
 40
11.95949902773098
 40
12.24624866375324
 40
12.53711755763872
 40
12.82795218064185
 40
13.12310792526276
 40
13.4182319068004
 40
13.71736010699522
 40
14.01646224748658
 40
14.31878981703573
 40
14.62109908255813
 40
14.92549534983803
 40
15.22988221610393
 40
15.5349905842175
 40
15.84009895233113
 40
16.1444858185972
 40
16.44888208587691
 40
16.75119135139923
 40
17.05351892094855
 40
17.35262106144006
 40
17.65174926163483
 40
17.94687324317236
 40
18.24202898779323
 40
18.53286361079623
 40
18.82373250468184
 40
19.11048214070413
 40
19.39726421331371
 40
19.6806443805998
 40
19.96405015053734
 40
20.2452135011258
 40
20.52639104373652
 40
20.80678564656683
 40
21.08718024939703
 40
21.08718024939703
 40
21.08718024939703
 40
21.08718024939703
 10
588.1139641406545
 20
364.9426512961092
 30
0.0
 10
588.020868065564
 20
364.9312001740193
 30
0.0
 10
587.8346806142703
 20
364.9082985078181
 30
0.0
 10
587.5604431609643
 20
364.8402612167692
 30
0.0
 10
587.2927164936572
 20
364.7486390877956
 30
0.0
 10
587.0331560054889
 20
364.6310281000109
 30
0.0
 10
586.7844217131221
 20
364.4898097767916
 30
0.0
 10
586.5476076083311
 20
364.3249878060471
 30
0.0
 10
586.3253492442647
 20
364.1389105088821
 30
0.0
 10
586.1184938571294
 20
363.9318856592711
 30
0.0
 10
585.929380053616
 20
363.7066868615569
 30
0.0
 10
585.7587316694652
 20
363.4638219560277
 30
0.0
 10
585.6084143522155
 20
363.2063533250174
 30
0.0
 10
585.4790910168547
 20
362.935075427746
 30
0.0
 10
585.3720580894164
 20
362.6531222738384
 30
0.0
 10
585.2879109517546
 20
362.361685120469
 30
0.0
 10
585.2273664430467
 20
362.0637471770112
 30
0.0
 10
585.1908792463075
 20
361.7609815122108
 30
0.0
 10
585.1786521899563
 20
361.4560331749916
 30
0.0
 10
585.1908792463071
 20
361.1510848377667
 30
0.0
 10
585.2273664430479
 20
360.8483191729833
 30
0.0
 10
585.2879109517498
 20
360.5503812294638
 30
0.0
 10
585.3720580894337
 20
360.258944076323
 30
0.0
 10
585.4790910167906
 20
359.9769909215654
 30
0.0
 10
585.6084143524516
 20
359.7057130274343
 30
0.0
 10
585.7587316685888
 20
359.4482443847822
 30
0.0
 10
585.9293800568379
 20
359.2053795221456
 30
0.0
 10
586.1184938451734
 20
358.9801805655686
 30
0.0
 10
586.3253492881615
 20
358.773156300565
 30
0.0
 10
586.5476074453842
 20
358.5870768383811
 30
0.0
 10
586.7844223117171
 20
358.4222628386272
 30
0.0
 10
587.0331537813589
 20
358.2810149702133
 30
0.0
 10
587.2927246852453
 20
358.1635130027592
 30
0.0
 10
587.560412676516
 20
358.0714860553894
 30
0.0
 10
587.8347933873986
 20
358.0049482277692
 30
0.0
 10
588.1132843988625
 20
357.9650454441569
 30
0.0
 10
588.3940392352522
 20
357.9515333228272
 30
0.0
 10
588.6747940716421
 20
357.9650454441568
 30
0.0
 10
588.9532850831055
 20
358.0049482277693
 30
0.0
 10
589.2276657939887
 20
358.0714860553894
 30
0.0
 10
589.4953537852589
 20
358.1635130027591
 30
0.0
 10
589.7549246891454
 20
358.2810149702132
 30
0.0
 10
590.0036561587874
 20
358.4222628386273
 30
0.0
 10
590.2404710251203
 20
358.5870768383808
 30
0.0
 10
590.4627291823429
 20
358.7731563005651
 30
0.0
 10
590.6695846253311
 20
358.9801805655685
 30
0.0
 10
590.8586984136664
 20
359.2053795221455
 30
0.0
 10
591.0293468019154
 20
359.4482443847822
 30
0.0
 10
591.1796641180529
 20
359.7057130274343
 30
0.0
 10
591.3089874537136
 20
359.9769909215656
 30
0.0
 10
591.4160203810709
 20
360.2589440763229
 30
0.0
 10
591.5001675187546
 20
360.5503812294638
 30
0.0
 10
591.5607120274565
 20
360.8483191729831
 30
0.0
 10
591.5971992241975
 20
361.151084837767
 30
0.0
 10
591.6094262805482
 20
361.4560331749906
 30
0.0
 10
591.5971992241975
 20
361.7609815122141
 30
0.0
 10
591.5607120274564
 20
362.0637471769991
 30
0.0
 10
591.5001675187549
 20
362.361685120514
 30
0.0
 10
591.4160203810696
 20
362.6531222736711
 30
0.0
 10
591.3089874537182
 20
362.9350754283678
 30
0.0
 10
591.179664118036
 20
363.2063533227242
 30
0.0
 10
591.0293468019784
 20
363.4638219645416
 30
0.0
 10
590.8586984134356
 20
363.7066868302535
 30
0.0
 10
590.6695846261881
 20
363.9318857754406
 30
0.0
 10
590.4627291791958
 20
364.1389100823579
 30
0.0
 10
590.240471036803
 20
364.3249893893192
 30
0.0
 10
590.0036561158705
 20
364.4898039605598
 30
0.0
 10
589.7549248486065
 20
364.6310497107062
 30
0.0
 10
589.4953531979561
 20
364.7485594944646
 30
0.0
 10
589.227667979597
 20
364.8405574180383
 30
0.0
 10
588.9532769977409
 20
364.9072027509532
 30
0.0
 10
588.6748242208533
 20
364.9467053369002
 30
0.0
 10
588.3939270636429
 20
364.9617071167176
 30
0.0
 10
588.2072851149839
 20
364.9490032363119
 30
0.0
 10
588.1139641406545
 20
364.9426512961092
 30
0.0
 11
588.1139641406545
 21
364.9426512961092
 31
0.0
 11
587.8356373869208
 21
364.9027134866454
 31
0.0
 11
587.5623633523719
 21
364.8365762675062
 31
0.0
 11
587.2943586815427
 21
364.7444224458404
 31
0.0
 11
587.0361370435251
 21
364.6276923945656
 31
0.0
 11
586.7867504001747
 21
364.4860934564035
 31
0.0
 11
586.5513040223184
 21
364.3224158558795
 31
0.0
 11
586.3282521734943
 21
364.1357273823029
 31
0.0
 11
586.1225841168991
 21
363.9300931720322
 31
0.0
 11
585.9327327121547
 21
363.7040990179058
 31
0.0
 11
585.7629597807832
 21
363.4626962087837
 31
0.0
 11
585.6120980983499
 21
363.2043970935603
 31
0.0
 11
585.4832982314183
 21
362.9344476821422
 31
0.0
 11
585.3759659994047
 21
362.6518140831477
 31
0.0
 11
585.2920379778423
 21
362.3613885690873
 31
0.0
 11
585.2314033271466
 21
362.0630925304464
 31
0.0
 11
585.1949449762305
 21
361.7608969762042
 31
0.0
 11
585.182731090586
 21
361.4560331749906
 31
0.0
 11
585.1949449762305
 21
361.151169373777
 31
0.0
 11
585.2314033271466
 21
360.8489738195349
 31
0.0
 11
585.2920379778423
 21
360.5506777808939
 31
0.0
 11
585.3759659994047
 21
360.2602522668335
 31
0.0
 11
585.4832982314183
 21
359.9776186678391
 31
0.0
 11
585.6120980983499
 21
359.7076692564211
 31
0.0
 11
585.7629597807832
 21
359.4493701411977
 31
0.0
 11
585.9327327121547
 21
359.2079673320756
 31
0.0
 11
586.1225841168991
 21
358.9819731779491
 31
0.0
 11
586.3282521734943
 21
358.7763389676782
 31
0.0
 11
586.5513040223186
 21
358.5896504941017
 31
0.0
 11
586.7867504001746
 21
358.4259728935776
 31
0.0
 11
587.0361370435251
 21
358.2843739554156
 31
0.0
 11
587.2943586815427
 21
358.1676439041408
 31
0.0
 11
587.5623633523719
 21
358.0754900824751
 31
0.0
 11
587.8356373869209
 21
358.0093528633361
 31
0.0
 11
588.1139641406546
 21
357.9694150538721
 31
0.0
 11
588.3940392352522
 21
357.9560331749905
 31
0.0
 11
588.67411432985
 21
357.9694150538721
 31
0.0
 11
588.9524410835835
 21
358.0093528633361
 31
0.0
 11
589.2257151181325
 21
358.0754900824751
 31
0.0
 11
589.4937197889616
 21
358.1676439041407
 31
0.0
 11
589.7519414269793
 21
358.2843739554155
 31
0.0
 11
590.0013280703298
 21
358.4259728935776
 31
0.0
 11
590.236774448186
 21
358.5896504941017
 31
0.0
 11
590.4598262970101
 21
358.7763389676782
 31
0.0
 11
590.6654943536053
 21
358.981973177949
 31
0.0
 11
590.8553457583496
 21
359.2079673320755
 31
0.0
 11
591.0251186897212
 21
359.4493701411977
 31
0.0
 11
591.1759803721545
 21
359.7076692564211
 31
0.0
 11
591.3047802390861
 21
359.9776186678391
 31
0.0
 11
591.4121124710998
 21
360.2602522668334
 31
0.0
 11
591.4960404926621
 21
360.5506777808939
 31
0.0
 11
591.5566751433578
 21
360.848973819535
 31
0.0
 11
591.5931334942741
 21
361.151169373777
 31
0.0
 11
591.6053473799186
 21
361.4560331749906
 31
0.0
 11
591.5931334942741
 21
361.7608969762042
 31
0.0
 11
591.5566751433578
 21
362.0630925304464
 31
0.0
 11
591.4960404926623
 21
362.3613885690873
 31
0.0
 11
591.4121124710998
 21
362.6518140831477
 31
0.0
 11
591.3047802390861
 21
362.9344476821422
 31
0.0
 11
591.1759803721545
 21
363.2043970935603
 31
0.0
 11
591.0251186897212
 21
363.4626962087837
 31
0.0
 11
590.8553457583497
 21
363.7040990179058
 31
0.0
 11
590.6654943536054
 21
363.9300931720322
 31
0.0
 11
590.4598262970102
 21
364.135727382303
 31
0.0
 11
590.236774448186
 21
364.3224158558795
 31
0.0
 11
590.0013280703298
 21
364.4860934564036
 31
0.0
 11
589.7519414269793
 21
364.6276923945657
 31
0.0
 11
589.4937197889617
 21
364.7444224458403
 31
0.0
 11
589.2257151181325
 21
364.8365762675061
 31
0.0
 11
588.9524410835835
 21
364.9027134866452
 31
0.0
 11
588.67411432985
 21
364.9426512961092
 31
0.0
 11
588.3940392352522
 21
364.9560331749906
 31
0.0
 11
588.1139641406545
 21
364.9426512961092
 31
0.0
  0
SPLINE
  5
181
330
45
100
AcDbEntity
  8
1
  6
Continuous
 62
     7
100
AcDbSpline
210
0.0
220
0.0
230
1.0
 70
    11
 71
     3
 72
    79
 73
    75
 74
    73
 42
0.0000000001
 43
0.0000000001
 44
0.00000001
 40
0.0
 40
0.0
 40
0.0
 40
0.0
 40
0.2811775426110333
 40
0.5623408931993063
 40
0.8457466631368291
 40
1.12912683042299
 40
1.415908903032567
 40
1.702658539054734
 40
1.993527432940375
 40
2.284362055943383
 40
2.579517800564358
 40
2.874641782101822
 40
3.173769982296639
 40
3.472872122788097
 40
3.775199692337415
 40
4.077508957859696
 40
4.381905225139431
 40
4.686292091405476
 40
4.991400459519046
 40
5.296508827632673
 40
5.600895693898618
 40
5.905291961178442
 40
6.207601226700779
 40
6.509928796249991
 40
6.809030936741346
 40
7.108159136936163
 40
7.40328311847358
 40
7.698438863094686
 40
7.989273486097815
 40
8.28014237998342
 40
8.566892016005587
 40
8.853674088615165
 40
9.137054255901301
 40
9.420460025838805
 40
9.701623376427259
 40
9.982800919038091
 40
10.2631955218683
 40
10.5435901246985
 40
10.82476766730945
 40
11.10593101789779
 40
11.38933678783538
 40
11.67271695512141
 40
11.95949902773102
 40
12.24624866375328
 40
12.53711755763885
 40
12.8279521806419
 40
13.12310792526296
 40
13.41823190680047
 40
13.71736010699534
 40
14.01646224748665
 40
14.31878981703581
 40
14.62109908255823
 40
14.92549534983813
 40
15.22988221610402
 40
15.53499058421759
 40
15.84009895233122
 40
16.14448581859726
 40
16.448882085877
 40
16.75119135139934
 40
17.05351892094862
 40
17.35262106144018
 40
17.651749261635
 40
17.94687324317247
 40
18.24202898779342
 40
18.53286361079642
 40
18.82373250468194
 40
19.11048214070432
 40
19.3972642133138
 40
19.68064438059989
 40
19.96405015053744
 40
20.24521350112578
 40
20.52639104373662
 40
20.80678564656682
 40
21.08718024939713
 40
21.08718024939713
 40
21.08718024939713
 40
21.08718024939713
 10
566.1574538314545
 20
364.9426512961092
 30
0.0
 10
566.2505499065451
 20
364.9312001740194
 30
0.0
 10
566.4367373578386
 20
364.9082985078182
 30
0.0
 10
566.7109748111446
 20
364.8402612167691
 30
0.0
 10
566.9787014784517
 20
364.7486390877957
 30
0.0
 10
567.23826196662
 20
364.6310281000108
 30
0.0
 10
567.486996258987
 20
364.4898097767917
 30
0.0
 10
567.7238103637778
 20
364.324987806047
 30
0.0
 10
567.9460687278443
 20
364.1389105088821
 30
0.0
 10
568.1529241149798
 20
363.931885659271
 30
0.0
 10
568.3420379184929
 20
363.7066868615569
 30
0.0
 10
568.5126863026441
 20
363.4638219560277
 30
0.0
 10
568.6630036198935
 20
363.2063533250174
 30
0.0
 10
568.7923269552541
 20
362.9350754277459
 30
0.0
 10
568.8993598826928
 20
362.6531222738386
 30
0.0
 10
568.9835070203544
 20
362.3616851204689
 30
0.0
 10
569.0440515290626
 20
362.0637471770112
 30
0.0
 10
569.0805387258015
 20
361.7609815122108
 30
0.0
 10
569.0927657821527
 20
361.4560331749916
 30
0.0
 10
569.0805387258018
 20
361.1510848377666
 30
0.0
 10
569.0440515290612
 20
360.8483191729833
 30
0.0
 10
568.983507020359
 20
360.5503812294637
 30
0.0
 10
568.8993598826755
 20
360.258944076323
 30
0.0
 10
568.7923269553182
 20
359.9769909215654
 30
0.0
 10
568.6630036196574
 20
359.7057130274342
 30
0.0
 10
568.5126863035204
 20
359.4482443847824
 30
0.0
 10
568.342037915271
 20
359.2053795221455
 30
0.0
 10
568.1529241269354
 20
358.9801805655685
 30
0.0
 10
567.9460686839476
 20
358.7731563005651
 30
0.0
 10
567.7238105267247
 20
358.5870768383809
 30
0.0
 10
567.4869956603922
 20
358.4222628386272
 30
0.0
 10
567.2382641907501
 20
358.2810149702133
 30
0.0
 10
566.9786932868638
 20
358.1635130027592
 30
0.0
 10
566.7110052955932
 20
358.0714860553894
 30
0.0
 10
566.4366245847102
 20
358.0049482277694
 30
0.0
 10
566.1581335732467
 20
357.9650454441568
 30
0.0
 10
565.8773787368568
 20
357.9515333228273
 30
0.0
 10
565.596623900467
 20
357.9650454441568
 30
0.0
 10
565.3181328890034
 20
358.0049482277693
 30
0.0
 10
565.0437521781203
 20
358.0714860553895
 30
0.0
 10
564.77606418685
 20
358.163513002759
 30
0.0
 10
564.5164932829634
 20
358.2810149702132
 30
0.0
 10
564.2677618133217
 20
358.4222628386273
 30
0.0
 10
564.0309469469885
 20
358.5870768383809
 30
0.0
 10
563.8086887897662
 20
358.773156300565
 30
0.0
 10
563.6018333467781
 20
358.9801805655686
 30
0.0
 10
563.4127195584423
 20
359.2053795221453
 30
0.0
 10
563.2420711701939
 20
359.4482443847824
 30
0.0
 10
563.0917538540559
 20
359.7057130274342
 30
0.0
 10
562.9624305183955
 20
359.9769909215655
 30
0.0
 10
562.8553975910381
 20
360.2589440763231
 30
0.0
 10
562.7712504533545
 20
360.5503812294637
 30
0.0
 10
562.7107059446524
 20
360.8483191729832
 30
0.0
 10
562.6742187479115
 20
361.1510848377669
 30
0.0
 10
562.6619916915608
 20
361.4560331749906
 30
0.0
 10
562.6742187479115
 20
361.760981512214
 30
0.0
 10
562.7107059446523
 20
362.063747176999
 30
0.0
 10
562.7712504533538
 20
362.3616851205141
 30
0.0
 10
562.8553975910396
 20
362.6531222736711
 30
0.0
 10
562.9624305183907
 20
362.9350754283678
 30
0.0
 10
563.0917538540731
 20
363.2063533227243
 30
0.0
 10
563.2420711701308
 20
363.4638219645415
 30
0.0
 10
563.4127195586735
 20
363.7066868302536
 30
0.0
 10
563.6018333459208
 20
363.9318857754406
 30
0.0
 10
563.8086887929136
 20
364.1389100823579
 30
0.0
 10
564.0309469353058
 20
364.3249893893192
 30
0.0
 10
564.2677618562386
 20
364.4898039605598
 30
0.0
 10
564.5164931235024
 20
364.6310497107061
 30
0.0
 10
564.7760647741529
 20
364.7485594944646
 30
0.0
 10
565.0437499925122
 20
364.8405574180384
 30
0.0
 10
565.3181409743679
 20
364.9072027509532
 30
0.0
 10
565.5965937512558
 20
364.9467053369002
 30
0.0
 10
565.8774909084661
 20
364.9617071167174
 30
0.0
 10
566.0641328571251
 20
364.9490032363119
 30
0.0
 10
566.1574538314545
 20
364.9426512961092
 30
0.0
 11
566.1574538314545
 21
364.9426512961092
 31
0.0
 11
566.4357805851884
 21
364.9027134866454
 31
0.0
 11
566.7090546197371
 21
364.8365762675062
 31
0.0
 11
566.9770592905663
 21
364.7444224458404
 31
0.0
 11
567.235280928584
 21
364.6276923945656
 31
0.0
 11
567.4846675719344
 21
364.4860934564035
 31
0.0
 11
567.7201139497905
 21
364.3224158558795
 31
0.0
 11
567.9431657986147
 21
364.1357273823029
 31
0.0
 11
568.1488338552099
 21
363.9300931720322
 31
0.0
 11
568.3386852599545
 21
363.7040990179058
 31
0.0
 11
568.5084581913259
 21
363.4626962087837
 31
0.0
 11
568.6593198737592
 21
363.2043970935603
 31
0.0
 11
568.7881197406907
 21
362.9344476821422
 31
0.0
 11
568.8954519727045
 21
362.6518140831477
 31
0.0
 11
568.9793799942668
 21
362.3613885690873
 31
0.0
 11
569.0400146449624
 21
362.0630925304464
 31
0.0
 11
569.0764729958785
 21
361.7608969762042
 31
0.0
 11
569.088686881523
 21
361.4560331749906
 31
0.0
 11
569.0764729958785
 21
361.151169373777
 31
0.0
 11
569.0400146449623
 21
360.8489738195349
 31
0.0
 11
568.9793799942668
 21
360.5506777808939
 31
0.0
 11
568.8954519727045
 21
360.2602522668335
 31
0.0
 11
568.7881197406907
 21
359.9776186678391
 31
0.0
 11
568.6593198737592
 21
359.7076692564211
 31
0.0
 11
568.5084581913259
 21
359.4493701411977
 31
0.0
 11
568.3386852599545
 21
359.2079673320756
 31
0.0
 11
568.1488338552099
 21
358.9819731779491
 31
0.0
 11
567.9431657986147
 21
358.7763389676782
 31
0.0
 11
567.7201139497905
 21
358.5896504941017
 31
0.0
 11
567.4846675719344
 21
358.4259728935776
 31
0.0
 11
567.235280928584
 21
358.2843739554156
 31
0.0
 11
566.9770592905663
 21
358.1676439041408
 31
0.0
 11
566.7090546197371
 21
358.0754900824751
 31
0.0
 11
566.4357805851881
 21
358.0093528633361
 31
0.0
 11
566.1574538314545
 21
357.9694150538721
 31
0.0
 11
565.8773787368568
 21
357.9560331749905
 31
0.0
 11
565.5973036422591
 21
357.9694150538721
 31
0.0
 11
565.3189768885254
 21
358.0093528633361
 31
0.0
 11
565.0457028539765
 21
358.0754900824751
 31
0.0
 11
564.7776981831472
 21
358.1676439041407
 31
0.0
 11
564.5194765451297
 21
358.2843739554155
 31
0.0
 11
564.2700899017792
 21
358.4259728935776
 31
0.0
 11
564.034643523923
 21
358.5896504941017
 31
0.0
 11
563.8115916750988
 21
358.7763389676782
 31
0.0
 11
563.6059236185038
 21
358.981973177949
 31
0.0
 11
563.4160722137592
 21
359.2079673320755
 31
0.0
 11
563.2462992823878
 21
359.4493701411977
 31
0.0
 11
563.0954375999544
 21
359.7076692564211
 31
0.0
 11
562.9666377330229
 21
359.9776186678391
 31
0.0
 11
562.8593055010092
 21
360.2602522668334
 31
0.0
 11
562.7753774794468
 21
360.5506777808939
 31
0.0
 11
562.7147428287511
 21
360.848973819535
 31
0.0
 11
562.678284477835
 21
361.151169373777
 31
0.0
 11
562.6660705921904
 21
361.4560331749906
 31
0.0
 11
562.678284477835
 21
361.7608969762042
 31
0.0
 11
562.714742828751
 21
362.0630925304464
 31
0.0
 11
562.7753774794467
 21
362.3613885690873
 31
0.0
 11
562.8593055010092
 21
362.6518140831477
 31
0.0
 11
562.9666377330228
 21
362.9344476821422
 31
0.0
 11
563.0954375999545
 21
363.2043970935603
 31
0.0
 11
563.2462992823879
 21
363.4626962087837
 31
0.0
 11
563.4160722137593
 21
363.7040990179058
 31
0.0
 11
563.6059236185038
 21
363.9300931720322
 31
0.0
 11
563.811591675099
 21
364.135727382303
 31
0.0
 11
564.034643523923
 21
364.3224158558795
 31
0.0
 11
564.2700899017793
 21
364.4860934564036
 31
0.0
 11
564.5194765451297
 21
364.6276923945657
 31
0.0
 11
564.7776981831473
 21
364.7444224458403
 31
0.0
 11
565.0457028539765
 21
364.8365762675061
 31
0.0
 11
565.3189768885254
 21
364.9027134866452
 31
0.0
 11
565.597303642259
 21
364.9426512961092
 31
0.0
 11
565.8773787368567
 21
364.9560331749906
 31
0.0
 11
566.1574538314545
 21
364.9426512961092
 31
0.0
  0
SPLINE
  5
182
330
45
100
AcDbEntity
  8
1
  6
Continuous
 62
     7
100
AcDbSpline
210
0.0
220
0.0
230
1.0
 70
    11
 71
     3
 72
    79
 73
    75
 74
    73
 42
0.0000000001
 43
0.0000000001
 44
0.00000001
 40
0.0
 40
0.0
 40
0.0
 40
0.0
 40
0.3165105491713426
 40
0.6328929319854804
 40
0.9617431660632481
 40
1.290395356804264
 40
1.637286321305474
 40
1.983975457781472
 40
2.351816485593067
 40
2.71948875902641
 40
3.108422409521816
 40
3.49722980923161
 40
3.905017581393547
 40
4.312718388939102
 40
4.73526762854427
 40
5.157763077150304
 40
5.589677248610141
 40
6.021565830283944
 40
6.456678185770228
 40
6.891790541256398
 40
7.323679122930331
 40
7.755593294390038
 40
8.178088742996048
 40
8.600637982601342
 40
9.008338790146684
 40
9.416126562308886
 40
9.80493396201868
 40
10.19386761251396
 40
10.56153988594734
 40
10.92938091375901
 40
11.27607005023482
 40
11.62296101473609
 40
11.95161320547722
 40
12.28046343955484
 40
12.59684582236907
 40
12.91335637154033
 40
13.22542041382583
 40
13.53748445611134
 40
13.85399500528268
 40
14.17037738809682
 40
14.49922762217459
 40
14.82787981291566
 40
15.17477077741681
 40
15.52145991389268
 40
15.88930094170432
 40
16.25697321513781
 40
16.64590686563327
 40
17.03471426534289
 40
17.44250203750498
 40
17.85020284505037
 40
18.27275208465552
 40
18.69524753326178
 40
19.1271617047215
 40
19.55905028639531
 40
19.99416264188159
 40
20.42927499736765
 40
20.86116357904168
 40
21.29307775050141
 40
21.71557319910734
 40
22.13812243871271
 40
22.54582324625801
 40
22.9536110184201
 40
23.34241841812995
 40
23.73135206862535
 40
24.09902434205873
 40
24.46686536987028
 40
24.81355450634624
 40
25.16044547084745
 40
25.48909766158852
 40
25.81794789566629
 40
26.13433027848048
 40
26.45084082765181
 40
26.76290486993725
 40
27.07496891222281
 40
27.07496891222281
 40
27.07496891222281
 40
27.07496891222281
 10
582.1155923050892
 20
361.2059607996829
 30
0.0
 10
582.099026973875
 20
361.1016285149919
 30
0.0
 10
582.0659030193377
 20
360.893006193456
 30
0.0
 10
581.967143883131
 20
360.5868220953779
 30
0.0
 10
581.8354416853443
 20
360.2895333390767
 30
0.0
 10
581.6654842595623
 20
360.0002734267729
 30
0.0
 10
581.4632629493688
 20
359.7253052375187
 30
0.0
 10
581.2260625306965
 20
359.462075292723
 30
0.0
 10
580.9605263312955
 20
359.2171653416361
 30
0.0
 10
580.6635721157973
 20
358.9877562035701
 30
0.0
 10
580.3429130852968
 20
358.7797320379033
 30
0.0
 10
579.9954099685398
 20
358.5908038458659
 30
0.0
 10
579.629171489038
 20
358.4255582071953
 30
0.0
 10
579.241719640966
 20
358.2825587700516
 30
0.0
 10
578.8407263644472
 20
358.1648972092173
 30
0.0
 10
578.4250524663084
 20
358.0719232154377
 30
0.0
 10
578.0011888087614
 20
358.0053672276281
 30
0.0
 10
577.569819371894
 20
357.9650382333222
 30
0.0
 10
577.1357089860564
 20
357.9516621016334
 30
0.0
 10
576.7015986002069
 20
357.9650382333213
 30
0.0
 10
576.2702291633743
 20
358.0053672276316
 30
0.0
 10
575.8463655057024
 20
358.0719232154256
 30
0.0
 10
575.4306916080185
 20
358.1648972092615
 30
0.0
 10
575.0296983298307
 20
358.2825587698885
 30
0.0
 10
574.6422464877765
 20
358.42555820778
 30
0.0
 10
574.2760079863298
 20
358.5908038437241
 30
0.0
 10
573.9285049478373
 20
358.7797320454843
 30
0.0
 10
573.6078456333863
 20
358.9877561758763
 30
0.0
 10
573.3108924225459
 20
359.2171654387504
 30
0.0
 10
573.0453525880054
 20
359.4620749382455
 30
0.0
 10
572.8081649960437
 20
359.7253064764974
 30
0.0
 10
572.6058972225667
 20
360.0002688936406
 30
0.0
 10
572.4361045709891
 20
360.289549275763
 30
0.0
 10
572.3038018246086
 20
360.5867634262075
 30
0.0
 10
572.2072037133323
 20
360.8932159873501
 30
0.0
 10
572.1497822985912
 20
361.2037154096074
 30
0.0
 10
572.1298863045913
 20
361.5174250522118
 30
0.0
 10
572.1497822985912
 20
361.8311346948165
 30
0.0
 10
572.2072037133326
 20
362.1416341170735
 30
0.0
 10
572.3038018246086
 20
362.4480866782164
 30
0.0
 10
572.436104570989
 20
362.7453008286609
 30
0.0
 10
572.6058972225669
 20
363.0345812107831
 30
0.0
 10
572.8081649960436
 20
363.3095436279266
 30
0.0
 10
573.0453525880055
 20
363.5727751661783
 30
0.0
 10
573.3108924225456
 20
363.8176846656735
 30
0.0
 10
573.6078456333866
 20
364.0470939285475
 30
0.0
 10
573.9285049478376
 20
364.2551180589393
 30
0.0
 10
574.2760079863301
 20
364.4440462606996
 30
0.0
 10
574.642246487776
 20
364.6092918966443
 30
0.0
 10
575.029698329831
 20
364.7522913345352
 30
0.0
 10
575.4306916080179
 20
364.8699528951622
 30
0.0
 10
575.8463655057027
 20
364.9629268889984
 30
0.0
 10
576.2702291633741
 20
365.0294828767924
 30
0.0
 10
576.7015986002076
 20
365.0698118711027
 30
0.0
 10
577.1357089860544
 20
365.0831880027901
 30
0.0
 10
577.5698193719009
 20
365.0698118711027
 30
0.0
 10
578.0011888087367
 20
365.0294828767923
 30
0.0
 10
578.4250524663993
 20
364.962926888999
 30
0.0
 10
578.8407263641161
 20
364.8699528951591
 30
0.0
 10
579.2417196421843
 20
364.7522913345467
 30
0.0
 10
579.6291714846683
 20
364.6092918966027
 30
0.0
 10
579.9954099845498
 20
364.4440462608521
 30
0.0
 10
580.3429130286216
 20
364.2551180583989
 30
0.0
 10
580.6635723228312
 20
364.0470939305218
 30
0.0
 10
580.9605256052889
 20
363.8176846587504
 30
0.0
 10
581.2260651806973
 20
363.5727751914473
 30
0.0
 10
581.4632536870158
 20
363.3095435396055
 30
0.0
 10
581.6655181483408
 20
363.0345815339292
 30
0.0
 10
581.8353225459073
 20
362.7452996926085
 30
0.0
 10
581.9675824819638
 20
362.4480908604695
 30
0.0
 10
582.0643346426857
 20
362.1416191618396
 30
0.0
 10
582.1211882803848
 20
361.8311902742453
 30
0.0
 10
582.1431753993237
 20
361.5172208522178
 30
0.0
 10
582.124786669834
 20
361.3097141505278
 30
0.0
 10
582.1155923050892
 20
361.2059607996829
 30
0.0
 11
582.1155923050892
 21
361.2059607996829
 31
0.0
 11
582.0579265027276
 21
360.8947477167723
 31
0.0
 11
581.9633751378239
 21
360.5928241311583
 31
0.0
 11
581.8298260306669
 21
360.2923127130215
 31
0.0
 11
581.663996197653
 21
360.0085650628789
 31
0.0
 11
581.4587726567793
 21
359.7288926839713
 31
0.0
 11
581.2271068965183
 21
359.4709695697043
 31
0.0
 11
580.9570406548598
 21
359.2212272087442
 31
0.0
 11
580.6663530609012
 21
358.9960969722805
 31
0.0
 11
580.3403161453489
 21
358.7840372774189
 31
0.0
 11
579.9988880600304
 21
358.5980317489397
 31
0.0
 11
579.6273411297448
 21
358.4299729921903
 31
0.0
 11
579.2449380558205
 21
358.2885946433296
 31
0.0
 11
578.8395624741178
 21
358.1693533012956
 31
0.0
 11
578.4272820394472
 21
358.0770102058275
 31
0.0
 11
578.0006236845541
 21
358.0098350637901
 31
0.0
 11
577.5706126017875
 21
357.9696080122185
 31
0.0
 11
577.1357089860544
 21
357.9561318510777
 31
0.0
 11
576.7008053703214
 21
357.9696080122185
 31
0.0
 11
576.2707942875547
 21
358.0098350637903
 31
0.0
 11
575.8441359326617
 21
358.0770102058276
 31
0.0
 11
575.4318554979911
 21
358.1693533012955
 31
0.0
 11
575.0264799162883
 21
358.2885946433296
 31
0.0
 11
574.6440768423643
 21
358.4299729921903
 31
0.0
 11
574.2725299120783
 21
358.5980317489396
 31
0.0
 11
573.9311018267598
 21
358.7840372774188
 31
0.0
 11
573.6050649112077
 21
358.9960969722805
 31
0.0
 11
573.3143773172491
 21
359.2212272087442
 31
0.0
 11
573.0443110755905
 21
359.4709695697044
 31
0.0
 11
572.8126453153298
 21
359.7288926839713
 31
0.0
 11
572.6074217744559
 21
360.0085650628789
 31
0.0
 11
572.4415919414419
 21
360.2923127130215
 31
0.0
 11
572.3080428342852
 21
360.5928241311583
 31
0.0
 11
572.2134914693813
 21
360.8947477167723
 31
0.0
 11
572.1558256670198
 21
361.2059607996829
 31
0.0
 11
572.1364869523748
 21
361.5174250522119
 31
0.0
 11
572.1558256670198
 21
361.8288893047409
 31
0.0
 11
572.2134914693814
 21
362.1401023876515
 31
0.0
 11
572.3080428342852
 21
362.4420259732655
 31
0.0
 11
572.441591941442
 21
362.7425373914023
 31
0.0
 11
572.607421774456
 21
363.0262850415449
 31
0.0
 11
572.8126453153296
 21
363.3059574204525
 31
0.0
 11
573.0443110755905
 21
363.5638805347194
 31
0.0
 11
573.314377317249
 21
363.8136228956797
 31
0.0
 11
573.6050649112078
 21
364.0387531321433
 31
0.0
 11
573.9311018267601
 21
364.250812827005
 31
0.0
 11
574.2725299120784
 21
364.4368183554843
 31
0.0
 11
574.6440768423641
 21
364.6048771122337
 31
0.0
 11
575.0264799162883
 21
364.7462554610943
 31
0.0
 11
575.431855497991
 21
364.8654968031282
 31
0.0
 11
575.8441359326619
 21
364.9578398985963
 31
0.0
 11
576.2707942875549
 21
365.0250150406337
 31
0.0
 11
576.7008053703214
 21
365.0652420922054
 31
0.0
 11
577.1357089860545
 21
365.0787182533462
 31
0.0
 11
577.5706126017874
 21
365.0652420922054
 31
0.0
 11
578.0006236845542
 21
365.0250150406338
 31
0.0
 11
578.4272820394472
 21
364.9578398985963
 31
0.0
 11
578.8395624741177
 21
364.8654968031282
 31
0.0
 11
579.2449380558206
 21
364.7462554610943
 31
0.0
 11
579.6273411297447
 21
364.6048771122337
 31
0.0
 11
579.9988880600304
 21
364.4368183554842
 31
0.0
 11
580.3403161453489
 21
364.2508128270049
 31
0.0
 11
580.6663530609012
 21
364.0387531321433
 31
0.0
 11
580.9570406548598
 21
363.8136228956795
 31
0.0
 11
581.2271068965183
 21
363.5638805347194
 31
0.0
 11
581.4587726567793
 21
363.3059574204525
 31
0.0
 11
581.663996197653
 21
363.0262850415449
 31
0.0
 11
581.8298260306671
 21
362.7425373914023
 31
0.0
 11
581.963375137824
 21
362.4420259732655
 31
0.0
 11
582.0579265027277
 21
362.1401023876515
 31
0.0
 11
582.1155923050892
 21
361.8288893047409
 31
0.0
 11
582.1349310197343
 21
361.5174250522119
 31
0.0
 11
582.1155923050892
 21
361.2059607996829
 31
0.0
  0
SPLINE
  5
183
330
45
100
AcDbEntity
  8
1
  6
Continuous
 62
     7
100
AcDbSpline
210
0.0
220
0.0
230
1.0
 70
    11
 71
     3
 72
    79
 73
    75
 74
    73
 42
0.0000000001
 43
0.0000000001
 44
0.00000001
 40
0.0
 40
0.0
 40
0.0
 40
0.0
 40
0.3160436465961982
 40
0.6318966345052707
 40
0.963939131883966
 40
1.295702698074428
 40
1.650847227467451
 40
2.005727789197521
 40
2.387357022599029
 40
2.7687807147052
 40
3.176769171733973
 40
3.584612394008035
 40
4.015944751163362
 40
4.44718117242796
 40
4.896666773394708
 40
5.346094681847033
 40
5.807047420514752
 40
6.267973152330029
 40
6.732835060374426
 40
7.197696968418856
 40
7.658622700234049
 40
8.119575438901695
 40
8.569003347353924
 40
9.018488948320684
 40
9.449725369585364
 40
9.881057726740687
 40
10.28890094901467
 40
10.69688940604354
 40
11.07831309814961
 40
11.45994233155114
 40
11.81482289328118
 40
12.16996742267422
 40
12.50173098886464
 40
12.83377348624335
 40
13.14962647415247
 40
13.46567012074872
 40
13.77589255555603
 40
14.08611499036346
 40
14.40215863695982
 40
14.71801162486888
 40
15.05005412224752
 40
15.38181768843808
 40
15.73696221783109
 40
16.09184277956116
 40
16.47347201296264
 40
16.85489570506869
 40
17.26288416209754
 40
17.67072738437155
 40
18.10205974152693
 40
18.5332961627916
 40
18.98278176375839
 40
19.43220967221064
 40
19.89316241087828
 40
20.35408814269347
 40
20.81895005073781
 40
21.28381195878226
 40
21.74473769059751
 40
22.20569042926522
 40
22.65511833771754
 40
23.10460393868433
 40
23.5358403599489
 40
23.96717271710413
 40
24.37501593937809
 40
24.783004396407
 40
25.16442808851315
 40
25.54605732191473
 40
25.90093788364476
 40
26.25608241303785
 40
26.58784597922839
 40
26.91988847660701
 40
27.23574146451606
 40
27.55178511111236
 40
27.86200754591973
 40
28.1722299807271
 40
28.1722299807271
 40
28.1722299807271
 40
28.1722299807271
 10
163.0779680455296
 20
361.8712258287279
 30
0.0
 10
163.0957599548818
 20
361.9752198557126
 30
0.0
 10
163.1313330403154
 20
362.1831451735224
 30
0.0
 10
163.2374737632058
 20
362.4877908978922
 30
0.0
 10
163.3785271018109
 20
362.7829491879161
 30
0.0
 10
163.5607770204844
 20
363.0704606368148
 30
0.0
 10
163.7769922692881
 20
363.3429838619567
 30
0.0
 10
164.0309311658456
 20
363.6043719305394
 30
0.0
 10
164.3145199854466
 20
363.8469053764891
 30
0.0
 10
164.6321174680307
 20
364.0745780378352
 30
0.0
 10
164.974422151751
 20
364.2805588447469
 30
0.0
 10
165.3458778446403
 20
364.4680009392524
 30
0.0
 10
165.736821419373
 20
364.6316562000592
 30
0.0
 10
166.1508454287049
 20
364.7735087717636
 30
0.0
 10
166.5789425780926
 20
364.8900688694685
 30
0.0
 10
167.0230268863671
 20
364.982290242579
 30
0.0
 10
167.4756201359958
 20
365.0482341822788
 30
0.0
 10
167.9363900069884
 20
365.0882414648868
 30
0.0
 10
168.4000074850761
 20
365.1014821577902
 30
0.0
 10
168.8636249631774
 20
365.0882414648877
 30
0.0
 10
169.3243948341295
 20
365.0482341822743
 30
0.0
 10
169.776988083905
 20
364.9822902425944
 30
0.0
 10
170.221072391645
 20
364.8900688694122
 30
0.0
 10
170.6491695429899
 20
364.7735087719702
 30
0.0
 10
171.0631935453014
 20
364.631656199323
 30
0.0
 10
171.4541371455386
 20
364.4680009419417
 30
0.0
 10
171.8255927481799
 20
364.2805588353143
 30
0.0
 10
172.1678977575814
 20
364.074578072148
 30
0.0
 10
172.4854940998669
 20
363.846905257637
 30
0.0
 10
172.7690870179677
 20
363.604372362199
 30
0.0
 10
173.0230116342419
 20
363.342982375483
 30
0.0
 10
173.2392782334119
 20
363.0704660477424
 30
0.0
 10
173.4213484330933
 20
362.7829304589179
 30
0.0
 10
173.5630525103343
 20
362.4878595763657
 30
0.0
 10
173.6668762981067
 20
362.1829026403512
 30
0.0
 10
173.7284212058011
 20
361.8740415100151
 30
0.0
 10
173.7499372473294
 20
361.5616989939416
 30
0.0
 10
173.728421205801
 20
361.2493564778679
 30
0.0
 10
173.6668762981068
 20
360.9404953475319
 30
0.0
 10
173.5630525103342
 20
360.6355384115174
 30
0.0
 10
173.4213484330933
 20
360.3404675289651
 30
0.0
 10
173.2392782334119
 20
360.0529319401406
 30
0.0
 10
173.0230116342418
 20
359.7804156124
 30
0.0
 10
172.7690870179678
 20
359.519025625684
 30
0.0
 10
172.4854940998667
 20
359.2764927302462
 30
0.0
 10
172.1678977575816
 20
359.0488199157348
 30
0.0
 10
171.82559274818
 20
358.842839152569
 30
0.0
 10
171.4541371455387
 20
358.655397045941
 30
0.0
 10
171.0631935453013
 20
358.4917417885601
 30
0.0
 10
170.6491695429898
 20
358.3498892159126
 30
0.0
 10
170.221072391645
 20
358.2333291184709
 30
0.0
 10
169.7769880839049
 20
358.1411077452885
 30
0.0
 10
169.3243948341296
 20
358.0751638056089
 30
0.0
 10
168.8636249631768
 20
358.0351565229951
 30
0.0
 10
168.4000074850782
 20
358.0219158300934
 30
0.0
 10
167.9363900069806
 20
358.0351565229952
 30
0.0
 10
167.4756201360248
 20
358.0751638056089
 30
0.0
 10
167.0230268862599
 20
358.1411077452877
 30
0.0
 10
166.5789425784817
 20
358.2333291184748
 30
0.0
 10
166.1508454272761
 20
358.3498892158983
 30
0.0
 10
165.7368214244654
 20
358.4917417886126
 30
0.0
 10
165.3458778260421
 20
358.6553970457498
 30
0.0
 10
164.974422216982
 20
358.8428391532397
 30
0.0
 10
164.6321172307445
 20
359.0488199132945
 30
0.0
 10
164.3145208073552
 20
359.2764927386995
 30
0.0
 10
164.0309281807605
 20
359.5190255949823
 30
0.0
 10
163.7770025487997
 20
359.7804157181257
 30
0.0
 10
163.56073960193
 20
360.0529315552877
 30
0.0
 10
163.3786566197153
 20
360.3404688610676
 30
0.0
 10
163.2369988263327
 20
360.6355335267531
 30
0.0
 10
163.1330102462897
 20
360.9405125977311
 30
0.0
 10
163.072070444188
 20
361.2492924500436
 30
0.0
 10
163.0483349956097
 20
361.5619330777531
 30
0.0
 10
163.0680903622229
 20
361.7681282450695
 30
0.0
 10
163.0779680455296
 20
361.8712258287279
 30
0.0
 11
163.0779680455296
 21
361.8712258287279
 31
0.0
 11
163.1398503948159
 21
362.1811518866847
 31
0.0
 11
163.2409065217454
 21
362.4804022320163
 31
0.0
 11
163.3843602412139
 21
362.7798571542269
 31
0.0
 11
163.561190954609
 21
363.0605669022792
 31
0.0
 11
163.7815015254454
 21
363.3391183142942
 31
0.0
 11
164.028309071569
 21
363.5941207618712
 31
0.0
 11
164.3179193600946
 21
363.8426499403729
 31
0.0
 11
164.6276216790234
 21
364.0652897987767
 31
0.0
 11
164.9768982611723
 21
364.2761462670936
 31
0.0
 11
165.3408420624323
 21
364.4602141987909
 31
0.0
 11
165.7385385545057
 21
364.6272025292863
 31
0.0
 11
166.1464143876607
 21
364.7672102281934
 31
0.0
 11
166.5800227690214
 21
364.8856208573203
 31
0.0
 11
167.020035526474
 21
364.9771316117416
 31
0.0
 11
167.4761414098366
 21
365.04380132336
 31
0.0
 11
167.9353377069763
 21
365.0836923115987
 31
0.0
 11
168.4000074850784
 21
365.0970561010774
 31
0.0
 11
168.8646772631805
 21
365.0836923115986
 31
0.0
 11
169.3238735603201
 21
365.0438013233598
 31
0.0
 11
169.7799794436826
 21
364.9771316117416
 31
0.0
 11
170.2199922011352
 21
364.8856208573203
 31
0.0
 11
170.6536005824959
 21
364.7672102281935
 31
0.0
 11
171.0614764156509
 21
364.6272025292864
 31
0.0
 11
171.4591729077243
 21
364.4602141987909
 31
0.0
 11
171.8231167089843
 21
364.2761462670937
 31
0.0
 11
172.1723932911332
 21
364.0652897987766
 31
0.0
 11
172.482095610062
 21
363.842649940373
 31
0.0
 11
172.7717058985875
 21
363.5941207618712
 31
0.0
 11
173.0185134447111
 21
363.3391183142942
 31
0.0
 11
173.2388240155476
 21
363.0605669022792
 31
0.0
 11
173.4156547289427
 21
362.779857154227
 31
0.0
 11
173.5591084484113
 21
362.4804022320164
 31
0.0
 11
173.6601645753407
 21
362.1811518866848
 31
0.0
 11
173.7220469246271
 21
361.8712258287279
 31
0.0
 11
173.7428098147184
 21
361.5616989939416
 31
0.0
 11
173.722046924627
 21
361.2521721591552
 31
0.0
 11
173.6601645753407
 21
360.9422461011982
 31
0.0
 11
173.5591084484113
 21
360.6429957558666
 31
0.0
 11
173.4156547289427
 21
360.3435408336561
 31
0.0
 11
173.2388240155475
 21
360.0628310856038
 31
0.0
 11
173.0185134447111
 21
359.7842796735889
 31
0.0
 11
172.7717058985874
 21
359.5292772260118
 31
0.0
 11
172.4820956100619
 21
359.28074804751
 31
0.0
 11
172.1723932911333
 21
359.0581081891063
 31
0.0
 11
171.8231167089843
 21
358.8472517207893
 31
0.0
 11
171.4591729077244
 21
358.663183789092
 31
0.0
 11
171.0614764156509
 21
358.4961954585966
 31
0.0
 11
170.6536005824959
 21
358.3561877596895
 31
0.0
 11
170.2199922011351
 21
358.2377771305627
 31
0.0
 11
169.7799794436826
 21
358.1462663761414
 31
0.0
 11
169.32387356032
 21
358.0795966645233
 31
0.0
 11
168.8646772631804
 21
358.0397056762845
 31
0.0
 11
168.4000074850784
 21
358.0263418868058
 31
0.0
 11
167.9353377069762
 21
358.0397056762845
 31
0.0
 11
167.4761414098366
 21
358.0795966645232
 31
0.0
 11
167.020035526474
 21
358.1462663761415
 31
0.0
 11
166.5800227690214
 21
358.2377771305629
 31
0.0
 11
166.1464143876606
 21
358.3561877596897
 31
0.0
 11
165.7385385545057
 21
358.4961954585967
 31
0.0
 11
165.3408420624323
 21
358.6631837890921
 31
0.0
 11
164.9768982611724
 21
358.8472517207893
 31
0.0
 11
164.6276216790234
 21
359.0581081891064
 31
0.0
 11
164.3179193600946
 21
359.28074804751
 31
0.0
 11
164.0283090715691
 21
359.5292772260119
 31
0.0
 11
163.7815015254455
 21
359.7842796735889
 31
0.0
 11
163.561190954609
 21
360.0628310856039
 31
0.0
 11
163.3843602412138
 21
360.3435408336562
 31
0.0
 11
163.2409065217452
 21
360.6429957558667
 31
0.0
 11
163.1398503948158
 21
360.9422461011983
 31
0.0
 11
163.0779680455295
 21
361.2521721591552
 31
0.0
 11
163.0572051554382
 21
361.5616989939416
 31
0.0
 11
163.0779680455296
 21
361.8712258287279
 31
0.0
  0
SPLINE
  5
184
330
45
100
AcDbEntity
  8
1
  6
Continuous
 62
     7
100
AcDbSpline
210
0.0
220
0.0
230
1.0
 70
    11
 71
     3
 72
    79
 73
    75
 74
    73
 42
0.0000000001
 43
0.0000000001
 44
0.00000001
 40
0.0
 40
0.0
 40
0.0
 40
0.0
 40
0.3160436465962093
 40
0.6318966345052819
 40
0.963939131883965
 40
1.295702698074427
 40
1.65084722746745
 40
2.005727789197521
 40
2.387357022599071
 40
2.768780714705196
 40
3.176769171734017
 40
3.584612394008028
 40
4.015944751163382
 40
4.44718117242798
 40
4.896666773394701
 40
5.346094681847026
 40
5.807047420514772
 40
6.267973152330022
 40
6.732835060374447
 40
7.197696968418877
 40
7.65862270023407
 40
8.119575438901688
 40
8.569003347353917
 40
9.018488948320677
 40
9.449725369585275
 40
9.881057726740623
 40
10.28890094901458
 40
10.69688940604347
 40
11.07831309814949
 40
11.45994233155107
 40
11.81482289328114
 40
12.16996742267422
 40
12.50173098886463
 40
12.83377348624333
 40
13.14962647415245
 40
13.46567012074869
 40
13.77589255555601
 40
14.08611499036344
 40
14.40215863695979
 40
14.71801162486886
 40
15.05005412224753
 40
15.38181768843804
 40
15.73696221783109
 40
16.09184277956118
 40
16.47347201296268
 40
16.8548957050687
 40
17.26288416209749
 40
17.67072738437152
 40
18.10205974152687
 40
18.53329616279157
 40
18.9827817637583
 40
19.4322096722106
 40
19.89316241087824
 40
20.3540881426934
 40
20.81895005073777
 40
21.2838119587822
 40
21.74473769059747
 40
22.20569042926518
 40
22.65511833771751
 40
23.1046039386843
 40
23.53584035994887
 40
23.9671727171041
 40
24.37501593937803
 40
24.78300439640697
 40
25.16442808851314
 40
25.54605732191474
 40
25.90093788364479
 40
26.25608241303787
 40
26.58784597922839
 40
26.91988847660698
 40
27.23574146451605
 40
27.55178511111236
 40
27.86200754591972
 40
28.1722299807271
 40
28.1722299807271
 40
28.1722299807271
 40
28.1722299807271
 10
161.1607399959906
 20
361.8712258287279
 30
0.0
 10
161.1429480866383
 20
361.9752198557126
 30
0.0
 10
161.1073750012047
 20
362.1831451735224
 30
0.0
 10
161.0012342783142
 20
362.4877908978921
 30
0.0
 10
160.8601809397092
 20
362.7829491879163
 30
0.0
 10
160.6779310210358
 20
363.0704606368146
 30
0.0
 10
160.4617157722319
 20
363.3429838619567
 30
0.0
 10
160.2077768756746
 20
363.6043719305394
 30
0.0
 10
159.9241880560734
 20
363.8469053764891
 30
0.0
 10
159.6065905734894
 20
364.0745780378352
 30
0.0
 10
159.264285889769
 20
364.2805588447467
 30
0.0
 10
158.8928301968798
 20
364.4680009392525
 30
0.0
 10
158.5018866221471
 20
364.6316562000592
 30
0.0
 10
158.0878626128152
 20
364.7735087717636
 30
0.0
 10
157.6597654634275
 20
364.8900688694684
 30
0.0
 10
157.2156811551531
 20
364.982290242579
 30
0.0
 10
156.7630879055244
 20
365.0482341822787
 30
0.0
 10
156.3023180345316
 20
365.0882414648868
 30
0.0
 10
155.838700556444
 20
365.1014821577902
 30
0.0
 10
155.3750830783428
 20
365.0882414648877
 30
0.0
 10
154.9143132073906
 20
365.0482341822742
 30
0.0
 10
154.4617199576151
 20
364.9822902425946
 30
0.0
 10
154.0176356498751
 20
364.8900688694122
 30
0.0
 10
153.5895384985303
 20
364.7735087719702
 30
0.0
 10
153.1755144962189
 20
364.631656199323
 30
0.0
 10
152.7845708959816
 20
364.4680009419417
 30
0.0
 10
152.4131152933403
 20
364.2805588353143
 30
0.0
 10
152.0708102839387
 20
364.074578072148
 30
0.0
 10
151.7532139416533
 20
363.8469052576368
 30
0.0
 10
151.4696210235524
 20
363.6043723621989
 30
0.0
 10
151.2156964072783
 20
363.3429823754831
 30
0.0
 10
150.9994298081081
 20
363.0704660477426
 30
0.0
 10
150.8173596084268
 20
362.7829304589178
 30
0.0
 10
150.6756555311859
 20
362.4878595763657
 30
0.0
 10
150.5718317434133
 20
362.1829026403512
 30
0.0
 10
150.5102868357191
 20
361.8740415100151
 30
0.0
 10
150.4887707941906
 20
361.5616989939416
 30
0.0
 10
150.5102868357191
 20
361.2493564778679
 30
0.0
 10
150.5718317434133
 20
360.9404953475317
 30
0.0
 10
150.6756555311858
 20
360.6355384115174
 30
0.0
 10
150.817359608427
 20
360.3404675289652
 30
0.0
 10
150.9994298081081
 20
360.0529319401405
 30
0.0
 10
151.2156964072784
 20
359.7804156124001
 30
0.0
 10
151.4696210235524
 20
359.519025625684
 30
0.0
 10
151.7532139416534
 20
359.2764927302462
 30
0.0
 10
152.0708102839386
 20
359.0488199157349
 30
0.0
 10
152.4131152933402
 20
358.8428391525688
 30
0.0
 10
152.7845708959814
 20
358.6553970459411
 30
0.0
 10
153.1755144962189
 20
358.4917417885602
 30
0.0
 10
153.5895384985302
 20
358.3498892159126
 30
0.0
 10
154.0176356498751
 20
358.2333291184708
 30
0.0
 10
154.4617199576152
 20
358.1411077452886
 30
0.0
 10
154.9143132073905
 20
358.0751638056088
 30
0.0
 10
155.3750830783434
 20
358.0351565229952
 30
0.0
 10
155.8387005564419
 20
358.0219158300935
 30
0.0
 10
156.3023180345395
 20
358.0351565229951
 30
0.0
 10
156.7630879054953
 20
358.075163805609
 30
0.0
 10
157.2156811552603
 20
358.1411077452876
 30
0.0
 10
157.6597654630383
 20
358.2333291184748
 30
0.0
 10
158.0878626142441
 20
358.3498892158983
 30
0.0
 10
158.5018866170547
 20
358.4917417886126
 30
0.0
 10
158.892830215478
 20
358.6553970457499
 30
0.0
 10
159.2642858245381
 20
358.8428391532397
 30
0.0
 10
159.6065908107756
 20
359.0488199132944
 30
0.0
 10
159.924187234165
 20
359.2764927386995
 30
0.0
 10
160.2077798607596
 20
359.5190255949823
 30
0.0
 10
160.4617054927205
 20
359.7804157181257
 30
0.0
 10
160.6779684395902
 20
360.0529315552878
 30
0.0
 10
160.8600514218049
 20
360.3404688610675
 30
0.0
 10
161.0017092151873
 20
360.6355335267532
 30
0.0
 10
161.1056977952305
 20
360.9405125977309
 30
0.0
 10
161.1666375973322
 20
361.2492924500437
 30
0.0
 10
161.1903730459104
 20
361.561933077753
 30
0.0
 10
161.1706176792972
 20
361.7681282450697
 30
0.0
 10
161.1607399959906
 20
361.8712258287279
 30
0.0
 11
161.1607399959906
 21
361.8712258287279
 31
0.0
 11
161.0988576467042
 21
362.1811518866847
 31
0.0
 11
160.9978015197747
 21
362.4804022320163
 31
0.0
 11
160.8543478003062
 21
362.7798571542269
 31
0.0
 11
160.6775170869112
 21
363.0605669022792
 31
0.0
 11
160.4572065160748
 21
363.3391183142942
 31
0.0
 11
160.2103989699511
 21
363.5941207618712
 31
0.0
 11
159.9207886814254
 21
363.8426499403729
 31
0.0
 11
159.6110863624967
 21
364.0652897987767
 31
0.0
 11
159.2618097803478
 21
364.2761462670936
 31
0.0
 11
158.8978659790878
 21
364.4602141987909
 31
0.0
 11
158.5001694870144
 21
364.6272025292863
 31
0.0
 11
158.0922936538594
 21
364.7672102281934
 31
0.0
 11
157.6586852724988
 21
364.8856208573203
 31
0.0
 11
157.2186725150461
 21
364.9771316117416
 31
0.0
 11
156.7625666316835
 21
365.04380132336
 31
0.0
 11
156.3033703345438
 21
365.0836923115987
 31
0.0
 11
155.8387005564417
 21
365.0970561010774
 31
0.0
 11
155.3740307783396
 21
365.0836923115986
 31
0.0
 11
154.9148344812
 21
365.0438013233598
 31
0.0
 11
154.4587285978375
 21
364.9771316117416
 31
0.0
 11
154.0187158403849
 21
364.8856208573203
 31
0.0
 11
153.5851074590242
 21
364.7672102281935
 31
0.0
 11
153.1772316258693
 21
364.6272025292864
 31
0.0
 11
152.7795351337958
 21
364.4602141987909
 31
0.0
 11
152.4155913325359
 21
364.2761462670937
 31
0.0
 11
152.066314750387
 21
364.0652897987766
 31
0.0
 11
151.7566124314583
 21
363.842649940373
 31
0.0
 11
151.4670021429327
 21
363.5941207618712
 31
0.0
 11
151.220194596809
 21
363.3391183142942
 31
0.0
 11
150.9998840259725
 21
363.0605669022792
 31
0.0
 11
150.8230533125774
 21
362.779857154227
 31
0.0
 11
150.6795995931088
 21
362.4804022320164
 31
0.0
 11
150.5785434661794
 21
362.1811518866848
 31
0.0
 11
150.5166611168931
 21
361.8712258287279
 31
0.0
 11
150.4958982268017
 21
361.5616989939416
 31
0.0
 11
150.5166611168931
 21
361.2521721591552
 31
0.0
 11
150.5785434661794
 21
360.9422461011982
 31
0.0
 11
150.6795995931088
 21
360.6429957558666
 31
0.0
 11
150.8230533125774
 21
360.3435408336561
 31
0.0
 11
150.9998840259726
 21
360.0628310856038
 31
0.0
 11
151.2201945968091
 21
359.7842796735889
 31
0.0
 11
151.4670021429327
 21
359.5292772260118
 31
0.0
 11
151.7566124314583
 21
359.28074804751
 31
0.0
 11
152.0663147503869
 21
359.0581081891063
 31
0.0
 11
152.4155913325357
 21
358.8472517207893
 31
0.0
 11
152.7795351337957
 21
358.663183789092
 31
0.0
 11
153.1772316258692
 21
358.4961954585966
 31
0.0
 11
153.5851074590242
 21
358.3561877596895
 31
0.0
 11
154.0187158403849
 21
358.2377771305627
 31
0.0
 11
154.4587285978375
 21
358.1462663761414
 31
0.0
 11
154.9148344812001
 21
358.0795966645233
 31
0.0
 11
155.3740307783397
 21
358.0397056762845
 31
0.0
 11
155.8387005564417
 21
358.0263418868058
 31
0.0
 11
156.3033703345438
 21
358.0397056762845
 31
0.0
 11
156.7625666316835
 21
358.0795966645232
 31
0.0
 11
157.2186725150461
 21
358.1462663761415
 31
0.0
 11
157.6586852724988
 21
358.2377771305629
 31
0.0
 11
158.0922936538595
 21
358.3561877596897
 31
0.0
 11
158.5001694870144
 21
358.4961954585967
 31
0.0
 11
158.8978659790878
 21
358.6631837890921
 31
0.0
 11
159.2618097803477
 21
358.8472517207893
 31
0.0
 11
159.6110863624967
 21
359.0581081891064
 31
0.0
 11
159.9207886814255
 21
359.28074804751
 31
0.0
 11
160.2103989699511
 21
359.5292772260119
 31
0.0
 11
160.4572065160747
 21
359.7842796735889
 31
0.0
 11
160.6775170869112
 21
360.0628310856039
 31
0.0
 11
160.8543478003064
 21
360.3435408336562
 31
0.0
 11
160.9978015197749
 21
360.6429957558667
 31
0.0
 11
161.0988576467044
 21
360.9422461011983
 31
0.0
 11
161.1607399959907
 21
361.2521721591552
 31
0.0
 11
161.181502886082
 21
361.5616989939416
 31
0.0
 11
161.1607399959906
 21
361.8712258287279
 31
0.0
  0
ENDBLK
  5
47
330
45
100
AcDbEntity
  8
0
100
AcDbBlockEnd
  0
BLOCK
  5
4D
330
48
100
AcDbEntity
  8
0
100
AcDbBlockBegin
  2
R10A-13-B
 70
     0
 71
     0
 10
622.1357089860544
 20
333.5263418868058
 30
0.0
  3
R10A-13-B
  1

  0
INSERT
  5
49
330
48
100
AcDbEntity
  8
0
100
AcDbBlockReference
  2
21-1A
 10
622.1357089860544
 20
332.5263418868058
 30
0.0
  0
INSERT
  5
4A
330
48
100
AcDbEntity
  8
0
100
AcDbBlockReference
  2
36-1A-13-M11
 10
331.3218505641062
 20
233.9572158773696
 30
0.0
  0
INSERT
  5
4B
330
48
100
AcDbEntity
  8
0
100
AcDbBlockReference
  2
42-1
 10
489.031448899451
 20
180.236692877221
 30
0.0
  0
INSERT
  5
4C
330
48
100
AcDbEntity
  8
0
100
AcDbBlockReference
  2
37-1-13
 10
485.3344787692835
 20
216.0306359966612
 30
0.0
  0
ENDBLK
  5
4E
330
48
100
AcDbEntity
  8
0
100
AcDbBlockEnd
  0
BLOCK
  5
50
330
4F
100
AcDbEntity
  8
0
100
AcDbBlockBegin
  2
_J__A4
 70
     0
 71
     0
 10
0.0
 20
0.0
 30
0.0
  3
_J__A4
  1

  0
POINT
  5
185
330
4F
100
AcDbEntity
  8
1
 62
     4
100
AcDbPoint
 10
93.75
 20
17.0
 30
0.0
  0
POINT
  5
186
330
4F
100
AcDbEntity
  8
1
 62
     4
100
AcDbPoint
 10
85.25
 20
17.0
 30
0.0
  0
POINT
  5
187
330
4F
100
AcDbEntity
  8
1
 62
     4
100
AcDbPoint
 10
106.5
 20
19.00000000000001
 30
0.0
  0
POINT
  5
188
330
4F
100
AcDbEntity
  8
1
 62
     4
100
AcDbPoint
 10
106.5
 20
12.5
 30
0.0
  0
POINT
  5
189
330
4F
100
AcDbEntity
  8
1
 62
     4
100
AcDbPoint
 10
112.25
 20
12.5
 30
0.0
  0
POINT
  5
18A
330
4F
100
AcDbEntity
  8
1
 62
     4
100
AcDbPoint
 10
100.75
 20
12.5
 30
0.0
  0
POINT
  5
18B
330
4F
100
AcDbEntity
  8
1
 62
     4
100
AcDbPoint
 10
123.5
 20
19.00000000000001
 30
0.0
  0
POINT
  5
18C
330
4F
100
AcDbEntity
  8
1
 62
     4
100
AcDbPoint
 10
123.5
 20
12.5
 30
0.0
  0
POINT
  5
18D
330
4F
100
AcDbEntity
  8
1
 62
     4
100
AcDbPoint
 10
129.25
 20
12.5
 30
0.0
  0
POINT
  5
18E
330
4F
100
AcDbEntity
  8
1
 62
     4
100
AcDbPoint
 10
117.75
 20
12.5
 30
0.0
  0
POINT
  5
18F
330
4F
100
AcDbEntity
  8
1
 62
     4
100
AcDbPoint
 10
140.5
 20
19.00000000000001
 30
0.0
  0
POINT
  5
190
330
4F
100
AcDbEntity
  8
1
 62
     4
100
AcDbPoint
 10
140.5
 20
12.5
 30
0.0
  0
POINT
  5
191
330
4F
100
AcDbEntity
  8
1
 62
     4
100
AcDbPoint
 10
146.25
 20
12.5
 30
0.0
  0
POINT
  5
192
330
4F
100
AcDbEntity
  8
1
 62
     4
100
AcDbPoint
 10
134.75
 20
12.5
 30
0.0
  0
POINT
  5
193
330
4F
100
AcDbEntity
  8
1
 62
     4
100
AcDbPoint
 10
151.75
 20
12.5
 30
0.0
  0
POINT
  5
194
330
4F
100
AcDbEntity
  8
1
 62
     4
100
AcDbPoint
 10
163.25
 20
12.5
 30
0.0
  0
POINT
  5
195
330
4F
100
AcDbEntity
  8
1
 62
     4
100
AcDbPoint
 10
157.5
 20
12.5
 30
0.0
  0
POINT
  5
196
330
4F
100
AcDbEntity
  8
1
 62
     4
100
AcDbPoint
 10
57.0
 20
14.25
 30
0.0
  0
POINT
  5
197
330
4F
100
AcDbEntity
  8
1
 62
     4
100
AcDbPoint
 10
57.0
 20
22.75000000000001
 30
0.0
  0
POINT
  5
198
330
4F
100
AcDbEntity
  8
1
 62
     4
100
AcDbPoint
 10
47.5
 20
282.0000000000003
 30
0.0
  0
POINT
  5
199
330
4F
100
AcDbEntity
  8
1
 62
     4
100
AcDbPoint
 10
157.5
 20
19.00000000000001
 30
0.0
  0
POINT
  5
19A
330
4F
100
AcDbEntity
  8
1
 62
     4
100
AcDbPoint
 10
57.0
 20
16.25
 30
0.0
  0
POINT
  5
19B
330
4F
100
AcDbEntity
  8
1
 62
     4
100
AcDbPoint
 10
57.0
 20
24.75000000000001
 30
0.0
  0
POINT
  5
19C
330
4F
100
AcDbEntity
  8
1
 62
     4
100
AcDbPoint
 10
57.0
 20
20.75000000000001
 30
0.0
  0
POINT
  5
19D
330
4F
100
AcDbEntity
  8
1
 62
     4
100
AcDbPoint
 10
57.0
 20
12.25
 30
0.0
  0
POINT
  5
19E
330
4F
100
AcDbEntity
  8
1
 62
     4
100
AcDbPoint
 10
34.0
 20
34.00000000000001
 30
0.0
  0
LINE
  5
19F
330
4F
100
AcDbEntity
  8
1
  6
Continuous
 62
     7
100
AcDbLine
 10
105.0
 20
10.0
 30
0.0
 11
200.0
 21
10.0
 31
0.0
  0
LINE
  5
1A0
330
4F
100
AcDbEntity
  8
1
  6
Continuous
 62
     2
100
AcDbLine
 10
105.0
 20
10.0
 30
0.0
 11
105.0
 21
5.0
 31
0.0
  0
LINE
  5
1A1
330
4F
100
AcDbEntity
  8
1
  6
Continuous
 62
     7
100
AcDbLine
 10
200.0
 20
148.5
 30
0.0
 11
200.0
 21
287.0000000000003
 31
0.0
  0
LINE
  5
1A2
330
4F
100
AcDbEntity
  8
1
  6
Continuous
 62
     2
100
AcDbLine
 10
200.0
 20
148.5
 30
0.0
 11
205.0
 21
148.5
 31
0.0
  0
LINE
  5
1A3
330
4F
100
AcDbEntity
  8
1
  6
Continuous
 62
     7
100
AcDbLine
 10
25.0
 20
148.5
 30
0.0
 11
25.0
 21
287.0000000000003
 31
0.0
  0
LINE
  5
1A4
330
4F
100
AcDbEntity
  8
1
  6
Continuous
 62
     2
100
AcDbLine
 10
25.0
 20
148.5
 30
0.0
 11
20.0
 21
148.5
 31
0.0
  0
LINE
  5
1A5
330
4F
100
AcDbEntity
  8
1
  6
Continuous
 62
     7
100
AcDbLine
 10
105.0
 20
287.0000000000003
 30
0.0
 11
25.0
 21
287.0000000000003
 31
0.0
  0
LINE
  5
1A6
330
4F
100
AcDbEntity
  8
1
  6
Continuous
 62
     2
100
AcDbLine
 10
105.0
 20
287.0000000000003
 30
0.0
 11
105.0
 21
292.0000000000003
 31
0.0
  0
LINE
  5
1A7
330
4F
100
AcDbEntity
  8
1
  6
Continuous
 62
     2
100
AcDbLine
 10
166.0
 20
20.00000000000001
 30
0.0
 11
200.0
 21
20.00000000000001
 31
0.0
  0
LINE
  5
1A8
330
4F
100
AcDbEntity
  8
1
  6
Continuous
 62
     2
100
AcDbLine
 10
98.0
 20
27.00000000000001
 30
0.0
 11
98.0
 21
9.99999999999999
 31
0.0
  0
LINE
  5
1A9
330
4F
100
AcDbEntity
  8
1
  6
Continuous
 62
     2
100
AcDbLine
 10
115.0
 20
27.00000000000001
 30
0.0
 11
115.0
 21
9.99999999999999
 31
0.0
  0
LINE
  5
1AA
330
4F
100
AcDbEntity
  8
1
  6
Continuous
 62
     2
100
AcDbLine
 10
149.0
 20
27.00000000000001
 30
0.0
 11
149.0
 21
10.0
 31
0.0
  0
LINE
  5
1AB
330
4F
100
AcDbEntity
  8
1
  6
Continuous
 62
     2
100
AcDbLine
 10
132.0
 20
27.00000000000001
 30
0.0
 11
132.0
 21
9.99999999999999
 31
0.0
  0
LINE
  5
1AC
330
4F
100
AcDbEntity
  8
1
  6
Continuous
 62
     2
100
AcDbLine
 10
166.0
 20
27.00000000000001
 30
0.0
 11
166.0
 21
10.0
 31
0.0
  0
LINE
  5
1AD
330
4F
100
AcDbEntity
  8
1
  6
Continuous
 62
     2
100
AcDbLine
 10
55.0
 20
277.0000000000003
 30
0.0
 11
25.0
 21
277.0000000000003
 31
0.0
  0
LINE
  5
1AE
330
4F
100
AcDbEntity
  8
1
  6
Continuous
 62
     7
100
AcDbLine
 10
25.0
 20
10.0
 30
0.0
 11
25.0
 21
148.5
 31
0.0
  0
LINE
  5
1AF
330
4F
100
AcDbEntity
  8
1
  6
Continuous
 62
     2
100
AcDbLine
 10
40.0
 20
287.0000000000003
 30
0.0
 11
40.0
 21
277.0000000000003
 31
0.0
  0
LINE
  5
1B0
330
4F
100
AcDbEntity
  8
1
  6
Continuous
 62
     2
100
AcDbLine
 10
55.0
 20
287.0000000000003
 30
0.0
 11
55.0
 21
277.0000000000003
 31
0.0
  0
LINE
  5
1B1
330
4F
100
AcDbEntity
  8
1
  6
Continuous
 62
     2
100
AcDbLine
 10
33.0
 20
41.00000000000001
 30
0.0
 11
33.0
 21
27.0
 31
0.0
  0
LINE
  5
1B2
330
4F
100
AcDbEntity
  8
1
  6
Continuous
 62
     7
100
AcDbLine
 10
200.0
 20
27.00000000000001
 30
0.0
 11
25.0
 21
27.00000000000001
 31
0.0
  0
LINE
  5
1B3
330
4F
100
AcDbEntity
  8
1
  6
Continuous
 62
     7
100
AcDbLine
 10
25.0
 20
41.0
 30
0.0
 11
200.0
 21
41.0
 31
0.0
  0
LINE
  5
1B4
330
4F
100
AcDbEntity
  8
1
  6
PHANTOM
 62
     4
100
AcDbLine
 10
0.0
 20
0.0
 30
0.0
 11
210.0
 21
0.0
 31
0.0
  0
LINE
  5
1B5
330
4F
100
AcDbEntity
  8
1
  6
PHANTOM
 62
     4
100
AcDbLine
 10
210.0
 20
0.0
 30
0.0
 11
210.0
 21
297.0
 31
0.0
  0
LINE
  5
1B6
330
4F
100
AcDbEntity
  8
1
  6
PHANTOM
 62
     4
100
AcDbLine
 10
210.0
 20
297.0
 30
0.0
 11
0.0
 21
297.0
 31
0.0
  0
LINE
  5
1B7
330
4F
100
AcDbEntity
  8
1
  6
PHANTOM
 62
     4
100
AcDbLine
 10
0.0
 20
297.0
 30
0.0
 11
0.0
 21
0.0
 31
0.0
  0
LINE
  5
1B8
330
4F
100
AcDbEntity
  8
1
  6
Continuous
 62
     7
100
AcDbLine
 10
25.0
 20
10.0
 30
0.0
 11
105.0
 21
10.0
 31
0.0
  0
LINE
  5
1B9
330
4F
100
AcDbEntity
  8
1
  6
Continuous
 62
     7
100
AcDbLine
 10
200.0
 20
10.0
 30
0.0
 11
200.0
 21
148.5
 31
0.0
  0
LINE
  5
1BA
330
4F
100
AcDbEntity
  8
1
  6
Continuous
 62
     7
100
AcDbLine
 10
200.0
 20
287.0000000000003
 30
0.0
 11
105.0
 21
287.0000000000003
 31
0.0
  0
LINE
  5
1BB
330
4F
100
AcDbEntity
  8
1
  6
Continuous
 62
     2
100
AcDbLine
 10
25.0
 20
18.50000000000001
 30
0.0
 11
81.0
 21
18.50000000000001
 31
0.0
  0
LINE
  5
1BC
330
4F
100
AcDbEntity
  8
1
  6
Continuous
 62
     2
100
AcDbLine
 10
33.0
 20
27.0
 30
0.0
 11
33.0
 21
10.0
 31
0.0
  0
LINE
  5
1BD
330
4F
100
AcDbEntity
  8
1
  6
Continuous
 62
     7
100
AcDbLine
 10
191.0
 20
24.70000000000001
 30
0.0
 11
191.0
 21
22.30000000000001
 31
0.0
  0
LINE
  5
1BE
330
4F
100
AcDbEntity
  8
1
  6
Continuous
 62
     7
100
AcDbLine
 10
191.0
 20
24.70000000000001
 30
0.0
 11
196.0
 21
25.50000000000001
 31
0.0
  0
LINE
  5
1BF
330
4F
100
AcDbEntity
  8
1
  6
Continuous
 62
     7
100
AcDbLine
 10
196.0
 20
25.50000000000001
 30
0.0
 11
196.0
 21
21.50000000000001
 31
0.0
  0
LINE
  5
1C0
330
4F
100
AcDbEntity
  8
1
  6
Continuous
 62
     7
100
AcDbLine
 10
196.0
 20
21.50000000000001
 30
0.0
 11
191.0
 21
22.30000000000001
 31
0.0
  0
LINE
  5
1C1
330
4F
100
AcDbEntity
  8
1
  6
DOT_CENTER
 62
     2
100
AcDbLine
 10
184.0
 20
23.50000000000001
 30
0.0
 11
197.0
 21
23.50000000000001
 31
0.0
  0
LINE
  5
1C2
330
4F
100
AcDbEntity
  8
1
  6
DOT_CENTER
 62
     2
100
AcDbLine
 10
187.0
 20
26.50000000000001
 30
0.0
 11
187.0
 21
20.50000000000001
 31
0.0
  0
LINE
  5
1C3
330
4F
100
AcDbEntity
  8
1
  6
Continuous
 62
     2
100
AcDbLine
 10
81.0
 20
27.00000000000001
 30
0.0
 11
81.0
 21
10.0
 31
0.0
  0
CIRCLE
  5
1C4
330
4F
100
AcDbEntity
  8
1
  6
Continuous
 62
     7
100
AcDbCircle
 10
103.5
 20
12.5
 30
0.0
 40
0.2999999999999972
  0
CIRCLE
  5
1C5
330
4F
100
AcDbEntity
  8
1
  6
Continuous
 62
     7
100
AcDbCircle
 10
109.5
 20
12.5
 30
0.0
 40
0.2999999999999972
  0
CIRCLE
  5
1C6
330
4F
100
AcDbEntity
  8
1
  6
Continuous
 62
     7
100
AcDbCircle
 10
120.5
 20
12.5
 30
0.0
 40
0.2999999999999972
  0
CIRCLE
  5
1C7
330
4F
100
AcDbEntity
  8
1
  6
Continuous
 62
     7
100
AcDbCircle
 10
126.5
 20
12.5
 30
0.0
 40
0.2999999999999972
  0
CIRCLE
  5
1C8
330
4F
100
AcDbEntity
  8
1
  6
Continuous
 62
     7
100
AcDbCircle
 10
137.5
 20
12.5
 30
0.0
 40
0.3000000000000114
  0
CIRCLE
  5
1C9
330
4F
100
AcDbEntity
  8
1
  6
Continuous
 62
     7
100
AcDbCircle
 10
143.5
 20
12.5
 30
0.0
 40
0.3000000000000114
  0
CIRCLE
  5
1CA
330
4F
100
AcDbEntity
  8
1
  6
Continuous
 62
     7
100
AcDbCircle
 10
160.5
 20
12.5
 30
0.0
 40
0.3000000000000114
  0
CIRCLE
  5
1CB
330
4F
100
AcDbEntity
  8
1
  6
Continuous
 62
     7
100
AcDbCircle
 10
154.5
 20
12.5
 30
0.0
 40
0.3000000000000114
  0
CIRCLE
  5
1CC
330
4F
100
AcDbEntity
  8
1
  6
Continuous
 62
     7
100
AcDbCircle
 10
187.0
 20
23.50000000000001
 30
0.0
 40
1.200000000000102
  0
CIRCLE
  5
1CD
330
4F
100
AcDbEntity
  8
1
  6
Continuous
 62
     7
100
AcDbCircle
 10
187.0
 20
23.50000000000001
 30
0.0
 40
2.0
  0
CIRCLE
  5
1CE
330
4F
100
AcDbEntity
  8
1
  6
DOT_CENTER
 62
     7
100
AcDbCircle
 10
89.5
 20
16.0
 30
0.0
 40
0.1000000000000227
  0
CIRCLE
  5
1CF
330
4F
100
AcDbEntity
  8
1
  6
DOT_CENTER
 62
     7
100
AcDbCircle
 10
89.5
 20
18.0
 30
0.0
 40
0.1000000000000227
  0
MTEXT
  5
1D1
330
4F
100
AcDbEntity
  8
1
 62
     7
100
AcDbMText
 10
188.5
 20
15.0
 30
0.0
 40
3.0
 41
0.0
 71
     5
 72
     1
  1
三栄水栓製作所
  7
CONVERTER_1
 73
     1
 44
1.32052821128451
  0
MTEXT
  5
1D2
330
4F
100
AcDbEntity
  8
1
 62
     7
100
AcDbMText
 10
171.5
 20
15.0
 30
0.0
 40
2.5
 41
0.0
 71
     5
 72
     1
  1
株式会社
  7
CONVERTER_1
 73
     1
 44
1.32052821128451
  0
MTEXT
  5
1D3
330
4F
100
AcDbEntity
  8
1
 62
     2
100
AcDbMText
 10
32.5
 20
282.0000000000003
 30
0.0
 40
5.0
 41
0.0
 71
     5
 72
     1
  1
図番
  7
CONVERTER_1
 73
     1
 44
0.60024009603842
  0
MTEXT
  5
1D4
330
4F
100
AcDbEntity
  8
1
 62
     2
100
AcDbMText
 10
29.0
 20
34.00000000000001
 30
0.0
 40
3.5
 41
0.0
 71
     5
 72
     1
  1
備考
  7
CONVERTER_1
 73
     1
 44
0.60024009603842
  0
MTEXT
  5
1D5
330
4F
100
AcDbEntity
  8
1
 62
     2
100
AcDbMText
 10
29.0
 20
22.75
 30
0.0
 40
3.5
 41
0.0
 71
     5
 72
     1
  1
品名
  7
CONVERTER_1
 73
     1
 44
0.96038415366146
  0
MTEXT
  5
1D6
330
4F
100
AcDbEntity
  8
1
 62
     2
100
AcDbMText
 10
29.0
 20
14.25
 30
0.0
 40
3.5
 41
0.0
 71
     5
 72
     1
  1
品番
  7
CONVERTER_1
 73
     1
 44
0.96038415366146
  0
MTEXT
  5
1D7
330
4F
100
AcDbEntity
  8
1
 62
     2
100
AcDbMText
 10
101.5
 20
25.00000000000001
 30
0.0
 40
3.0
 41
0.0
 71
     5
 72
     1
  1
承認
  7
CONVERTER_1
 73
     1
 44
0.78031212484994
  0
MTEXT
  5
1D8
330
4F
100
AcDbEntity
  8
1
 62
     2
100
AcDbMText
 10
175.0
 20
23.50000000000001
 30
0.0
 40
3.5
 41
0.0
 71
     5
 72
     1
  1
第三角法
  7
CONVERTER_1
 73
     1
 44
0.7202881152461
  0
MTEXT
  5
1D9
330
4F
100
AcDbEntity
  8
1
 62
     2
100
AcDbMText
 10
118.5
 20
25.00000000000001
 30
0.0
 40
3.0
 41
0.0
 71
     5
 72
     1
  1
検図
  7
CONVERTER_1
 73
     1
 44
0.78031212484994
  0
MTEXT
  5
1DA
330
4F
100
AcDbEntity
  8
1
 62
     2
100
AcDbMText
 10
152.5
 20
25.00000000000001
 30
0.0
 40
3.0
 41
0.0
 71
     5
 72
     1
  1
設計
  7
CONVERTER_1
 73
     1
 44
0.78031212484994
  0
MTEXT
  5
1DB
330
4F
100
AcDbEntity
  8
1
 62
     2
100
AcDbMText
 10
135.5
 20
25.00000000000001
 30
0.0
 40
3.0
 41
0.0
 71
     5
 72
     1
  1
製図
  7
CONVERTER_1
 73
     1
 44
0.78031212484994
  0
MTEXT
  5
1DC
330
4F
100
AcDbEntity
  8
1
 62
     2
100
AcDbMText
 10
89.5
 20
24.00000000000001
 30
0.0
 40
3.5
 41
0.0
 71
     5
 72
     1
  1
尺度
  7
CONVERTER_1
 73
     1
 44
0.7202881152461
  0
MTEXT
  5
1DD
330
4F
100
AcDbEntity
  8
1
 62
   250
100
AcDbMText
 10
25.0
 20
5.0
 30
0.0
 40
3.5
 41
0.0
 71
     4
 72
     1
  1
備考欄の文字列 原点位置=4
  7
CONVERTER_1
 73
     1
 44
0.7202881152461
  0
ENDBLK
  5
51
330
4F
100
AcDbEntity
  8
0
100
AcDbBlockEnd
  0
BLOCK
  5
53
330
52
100
AcDbEntity
  8
0
100
AcDbBlockBegin
  2
32-2
 70
     0
 71
     0
 10
458.6326084789281
 20
91.52269679857812
 30
0.0
  3
32-2
  1

  0
LINE
  5
1DE
330
52
100
AcDbEntity
  8
1
  6
Continuous
 62
     7
100
AcDbLine
 10
155.76935402076
 20
264.0248645148682
 30
0.0
 11
152.8044347541255
 21
269.160255325019
 31
0.0
  0
LINE
  5
1DF
330
52
100
AcDbEntity
  8
1
  6
Continuous
 62
     7
100
AcDbLine
 10
390.2470338514593
 20
280.0263418868059
 30
0.0
 11
390.2470338514595
 21
278.1602553250191
 31
0.0
  0
LINE
  5
1E0
330
52
100
AcDbEntity
  8
1
  6
Continuous
 62
     7
100
AcDbLine
 10
378.8243841206491
 20
278.1602553250191
 30
0.0
 11
378.8243841206491
 21
280.0263418868059
 31
0.0
  0
LINE
  5
1E1
330
52
100
AcDbEntity
  8
1
  6
Continuous
 62
     7
100
AcDbLine
 10
378.8243841206491
 20
278.1602553250191
 30
0.0
 11
390.2470338514595
 21
278.1602553250191
 31
0.0
  0
LINE
  5
1E2
330
52
100
AcDbEntity
  8
1
  6
Continuous
 62
     7
100
AcDbLine
 10
378.8243841206491
 20
272.8924284485926
 30
0.0
 11
390.2470338514595
 21
272.8924284485926
 31
0.0
  0
LINE
  5
1E3
330
52
100
AcDbEntity
  8
1
  6
Continuous
 62
     7
100
AcDbLine
 10
378.5357089860543
 20
280.0263418868058
 30
0.0
 11
390.5357089860543
 21
280.0263418868058
 31
0.0
  0
LINE
  5
1E4
330
52
100
AcDbEntity
  8
1
  6
Continuous
 62
     7
100
AcDbLine
 10
390.5357089860543
 20
280.0263418868058
 30
0.0
 11
390.5357089860543
 21
271.0263418868058
 31
0.0
  0
LINE
  5
1E5
330
52
100
AcDbEntity
  8
1
  6
Continuous
 62
     7
100
AcDbLine
 10
378.5357089860543
 20
280.0263418868058
 30
0.0
 11
378.5357089860543
 21
271.0263418868058
 31
0.0
  0
LINE
  5
1E6
330
52
100
AcDbEntity
  8
1
  6
Continuous
 62
     7
100
AcDbLine
 10
390.2470338514595
 20
263.8924284485926
 30
0.0
 11
390.2470338514593
 21
262.0263418868058
 31
0.0
  0
LINE
  5
1E7
330
52
100
AcDbEntity
  8
1
  6
Continuous
 62
     7
100
AcDbLine
 10
390.2470338514595
 20
269.1602553250191
 30
0.0
 11
390.2470338514595
 21
272.8924284485926
 31
0.0
  0
LINE
  5
1E8
330
52
100
AcDbEntity
  8
1
  6
Continuous
 62
     7
100
AcDbLine
 10
378.8243841206491
 20
272.8924284485926
 30
0.0
 11
378.8243841206491
 21
269.1602553250191
 31
0.0
  0
LINE
  5
1E9
330
52
100
AcDbEntity
  8
1
  6
Continuous
 62
     7
100
AcDbLine
 10
152.8044347541255
 20
628.0197445431331
 30
0.0
 11
152.6193540207599
 21
628.0197445431331
 31
0.0
  0
LINE
  5
1EA
330
52
100
AcDbEntity
  8
1
  6
Continuous
 62
     7
100
AcDbLine
 10
152.8044347541255
 20
639.4423942739436
 30
0.0
 11
152.6193540207599
 21
639.4423942739436
 31
0.0
  0
LINE
  5
1EB
330
52
100
AcDbEntity
  8
1
  6
Continuous
 62
     7
100
AcDbLine
 10
159.077972755611
 20
639.4423942739436
 30
0.0
 11
155.8458160192746
 21
639.4423942739436
 31
0.0
  0
LINE
  5
1EC
330
52
100
AcDbEntity
  8
1
  6
Continuous
 62
     7
100
AcDbLine
 10
159.077972755611
 20
628.0197445431331
 30
0.0
 11
155.8458160192746
 21
628.0197445431331
 31
0.0
  0
LINE
  5
1ED
330
52
100
AcDbEntity
  8
1
  6
Continuous
 62
     7
100
AcDbLine
 10
152.8044347541255
 20
628.0197445431331
 30
0.0
 11
152.8044347541255
 21
639.4423942739436
 31
0.0
  0
LINE
  5
1EE
330
52
100
AcDbEntity
  8
1
  6
Continuous
 62
     7
100
AcDbLine
 10
155.8458160192746
 20
628.0198098548224
 30
0.0
 11
155.8458160192746
 21
639.4423942739436
 31
0.0
  0
LINE
  5
1EF
330
52
100
AcDbEntity
  8
1
  6
Continuous
 62
     7
100
AcDbLine
 10
159.077972755611
 20
628.0197445431331
 30
0.0
 11
159.077972755611
 21
639.4423942739436
 31
0.0
  0
LINE
  5
1F0
330
52
100
AcDbEntity
  8
1
  6
Continuous
 62
     7
100
AcDbLine
 10
153.1193540207601
 20
627.7310694085384
 30
0.0
 11
152.6193540207599
 21
628.0197445431331
 31
0.0
  0
LINE
  5
1F1
330
52
100
AcDbEntity
  8
1
  6
Continuous
 62
     7
100
AcDbLine
 10
152.6193540207599
 20
628.0197445431331
 30
0.0
 11
152.6193540207599
 21
639.4423942739436
 31
0.0
  0
LINE
  5
1F2
330
52
100
AcDbEntity
  8
1
  6
Continuous
 62
     7
100
AcDbLine
 10
153.1193540207599
 20
639.7310694085384
 30
0.0
 11
152.6193540207599
 21
639.4423942739436
 31
0.0
  0
LINE
  5
1F3
330
52
100
AcDbEntity
  8
1
  6
Continuous
 62
     7
100
AcDbLine
 10
153.1193540207599
 20
639.7310694085384
 30
0.0
 11
162.1193540207601
 21
639.7310694085384
 31
0.0
  0
LINE
  5
1F4
330
52
100
AcDbEntity
  8
1
  6
Continuous
 62
     7
100
AcDbLine
 10
153.1193540207601
 20
627.7310694085384
 30
0.0
 11
162.1193540207601
 21
627.7310694085384
 31
0.0
  0
LINE
  5
1F5
330
52
100
AcDbEntity
  8
1
  6
Continuous
 62
     7
100
AcDbLine
 10
171.6193540207601
 20
628.0197445431331
 30
0.0
 11
171.4342732873946
 21
628.0197445431331
 31
0.0
  0
LINE
  5
1F6
330
52
100
AcDbEntity
  8
1
  6
Continuous
 62
     7
100
AcDbLine
 10
171.6193540207601
 20
639.4423942739436
 30
0.0
 11
171.4342732873946
 21
639.4423942739436
 31
0.0
  0
LINE
  5
1F7
330
52
100
AcDbEntity
  8
1
  6
Continuous
 62
     7
100
AcDbLine
 10
168.3928920222455
 20
639.4423942739436
 30
0.0
 11
165.1607352859093
 21
639.4423942739436
 31
0.0
  0
LINE
  5
1F8
330
52
100
AcDbEntity
  8
1
  6
Continuous
 62
     7
100
AcDbLine
 10
168.3928920222455
 20
628.0197445431331
 30
0.0
 11
165.1607352859093
 21
628.0197445431331
 31
0.0
  0
LINE
  5
1F9
330
52
100
AcDbEntity
  8
1
  6
Continuous
 62
     7
100
AcDbLine
 10
171.4342732873946
 20
639.4423942739436
 30
0.0
 11
171.4342732873946
 21
628.0197445431331
 31
0.0
  0
LINE
  5
1FA
330
52
100
AcDbEntity
  8
1
  6
Continuous
 62
     7
100
AcDbLine
 10
168.3928920222455
 20
639.4423942739436
 30
0.0
 11
168.3928920222455
 21
628.0198098548224
 31
0.0
  0
LINE
  5
1FB
330
52
100
AcDbEntity
  8
1
  6
Continuous
 62
     7
100
AcDbLine
 10
165.1607352859093
 20
639.4423942739436
 30
0.0
 11
165.1607352859093
 21
628.0197445431331
 31
0.0
  0
LINE
  5
1FC
330
52
100
AcDbEntity
  8
1
  6
Continuous
 62
     7
100
AcDbLine
 10
171.6193540207601
 20
628.0197445431331
 30
0.0
 11
171.1193540207601
 21
627.7310694085384
 31
0.0
  0
LINE
  5
1FD
330
52
100
AcDbEntity
  8
1
  6
Continuous
 62
     7
100
AcDbLine
 10
171.6193540207601
 20
639.4423942739436
 30
0.0
 11
171.6193540207601
 21
628.0197445431331
 31
0.0
  0
LINE
  5
1FE
330
52
100
AcDbEntity
  8
1
  6
Continuous
 62
     7
100
AcDbLine
 10
171.6193540207601
 20
639.4423942739436
 30
0.0
 11
171.1193540207601
 21
639.7310694085384
 31
0.0
  0
LINE
  5
1FF
330
52
100
AcDbEntity
  8
1
  6
Continuous
 62
     7
100
AcDbLine
 10
162.1193540207601
 20
639.7310694085384
 30
0.0
 11
171.1193540207601
 21
639.7310694085384
 31
0.0
  0
LINE
  5
200
330
52
100
AcDbEntity
  8
1
  6
Continuous
 62
     7
100
AcDbLine
 10
162.1193540207601
 20
627.7310694085384
 30
0.0
 11
171.1193540207601
 21
627.7310694085384
 31
0.0
  0
LINE
  5
201
330
52
100
AcDbEntity
  8
1
  6
Continuous
 62
     7
100
AcDbLine
 10
378.8243841206491
 20
262.0263418868058
 30
0.0
 11
378.8243841206491
 21
263.8924284485926
 31
0.0
  0
LINE
  5
202
330
52
100
AcDbEntity
  8
1
  6
Continuous
 62
     7
100
AcDbLine
 10
390.2470338514595
 20
263.8924284485926
 30
0.0
 11
378.8243841206491
 21
263.8924284485926
 31
0.0
  0
LINE
  5
203
330
52
100
AcDbEntity
  8
1
  6
Continuous
 62
     7
100
AcDbLine
 10
390.2470338514595
 20
269.1602553250191
 30
0.0
 11
378.8243841206491
 21
269.1602553250191
 31
0.0
  0
LINE
  5
204
330
52
100
AcDbEntity
  8
1
  6
Continuous
 62
     7
100
AcDbLine
 10
390.5357089860543
 20
262.0263418868058
 30
0.0
 11
378.5357089860543
 21
262.0263418868058
 31
0.0
  0
LINE
  5
205
330
52
100
AcDbEntity
  8
1
  6
Continuous
 62
     7
100
AcDbLine
 10
390.5357089860543
 20
271.0263418868058
 30
0.0
 11
390.5357089860543
 21
262.0263418868058
 31
0.0
  0
LINE
  5
206
330
52
100
AcDbEntity
  8
1
  6
Continuous
 62
     7
100
AcDbLine
 10
378.5357089860543
 20
271.0263418868058
 30
0.0
 11
378.5357089860543
 21
262.0263418868058
 31
0.0
  0
LINE
  5
207
330
52
100
AcDbEntity
  8
1
  6
PHANTOM
 62
     4
100
AcDbLine
 10
173.5304093491592
 20
271.0263418868058
 30
0.0
 11
150.5995341356609
 21
271.0263418868058
 31
0.0
  0
LINE
  5
208
330
52
100
AcDbEntity
  8
1
  6
Continuous
 62
     7
100
AcDbLine
 10
168.3928920222454
 20
278.160255325019
 30
0.0
 11
171.4342732873945
 21
272.8924284485926
 31
0.0
  0
LINE
  5
209
330
52
100
AcDbEntity
  8
1
  6
Continuous
 62
     7
100
AcDbLine
 10
159.077972755611
 20
280.0263418868058
 30
0.0
 11
165.1607352859091
 21
280.0263418868058
 31
0.0
  0
LINE
  5
20A
330
52
100
AcDbEntity
  8
1
  6
Continuous
 62
     7
100
AcDbLine
 10
152.8044347541255
 20
272.8924284485926
 30
0.0
 11
155.8458160192747
 21
278.160255325019
 31
0.0
  0
LINE
  5
20B
330
52
100
AcDbEntity
  8
1
  6
Continuous
 62
     7
100
AcDbLine
 10
171.4342732873945
 20
269.160255325019
 30
0.0
 11
168.46935402076
 21
264.0248645148682
 31
0.0
  0
ARC
  5
20C
330
52
100
AcDbEntity
  8
1
  6
Continuous
 62
     7
100
AcDbCircle
 10
162.1193540207601
 20
271.0263418868058
 30
0.0
 40
9.0
100
AcDbArc
 50
180.0
 51
-134.8744440318311
  0
ARC
  5
20D
330
52
100
AcDbEntity
  8
1
  6
Continuous
 62
     7
100
AcDbCircle
 10
162.1193540207601
 20
271.0263418868058
 30
0.0
 40
7.0
100
AcDbArc
 50
180.0
 51
-155.1134542262608
  0
ARC
  5
20E
330
52
100
AcDbEntity
  8
1
  6
Continuous
 62
     7
100
AcDbCircle
 10
162.1193540207601
 20
271.0263418868058
 30
0.0
 40
8.999999999999929
100
AcDbArc
 50
-45.12555596816942
 51
180.0
  0
ARC
  5
20F
330
52
100
AcDbEntity
  8
1
  6
Continuous
 62
     7
100
AcDbCircle
 10
162.1193540207601
 20
271.0263418868058
 30
0.0
 40
7.00000000000002
100
AcDbArc
 50
-24.88654577373958
 51
180.0
  0
ARC
  5
210
330
52
100
AcDbEntity
  8
1
  6
Continuous
 62
     7
100
AcDbCircle
 10
378.3752689412478
 20
275.5263418868059
 30
0.0
 40
12.16044004480654
100
AcDbArc
 50
-12.50922993552121
 51
12.50922993552094
  0
ARC
  5
211
330
52
100
AcDbEntity
  8
1
  6
Continuous
 62
     7
100
AcDbCircle
 10
390.6961490308605
 20
275.5263418868059
 30
0.0
 40
12.16044004480625
100
AcDbArc
 50
167.4907700644788
 51
-167.4907700644785
  0
ARC
  5
212
330
52
100
AcDbEntity
  8
1
  6
Continuous
 62
     7
100
AcDbCircle
 10
378.3752689412478
 20
266.5263418868058
 30
0.0
 40
12.16044004480652
100
AcDbArc
 50
-12.50922993552094
 51
12.50922993552121
  0
ARC
  5
213
330
52
100
AcDbEntity
  8
1
  6
Continuous
 62
     7
100
AcDbCircle
 10
390.6961490308605
 20
266.5263418868058
 30
0.0
 40
12.16044004480626
100
AcDbArc
 50
167.4907700644785
 51
-167.4907700644788
  0
ARC
  5
214
330
52
100
AcDbEntity
  8
1
  6
Continuous
 62
     7
100
AcDbCircle
 10
162.1193540207601
 20
643.7280226155383
 30
0.0
 40
15.99695320699984
100
AcDbArc
 50
-100.9578223061549
 51
-90.0
  0
ARC
  5
215
330
52
100
AcDbEntity
  8
1
  6
Continuous
 62
     7
100
AcDbCircle
 10
162.146934518796
 20
623.7394813691317
 30
0.0
 40
15.99999999999996
100
AcDbArc
 50
90.09881723838774
 51
101.0584390404496
  0
ARC
  5
216
330
52
100
AcDbEntity
  8
1
  6
Continuous
 62
     7
100
AcDbCircle
 10
154.3251253867001
 20
634.8896478500803
 30
0.0
 40
4.800000000000009
100
AcDbArc
 50
71.57015368025063
 51
108.4701496065291
  0
ARC
  5
217
330
52
100
AcDbEntity
  8
1
  6
Continuous
 62
     7
100
AcDbCircle
 10
154.325027619425
 20
632.5725236216742
 30
0.0
 40
4.800061947008467
100
AcDbArc
 50
-108.4689192212554
 51
-71.52886699784298
  0
ARC
  5
218
330
52
100
AcDbEntity
  8
1
  6
Continuous
 62
     7
100
AcDbCircle
 10
162.1193540207601
 20
643.7280226155383
 30
0.0
 40
15.99695320699993
100
AcDbArc
 50
-90.0
 51
-79.04217769384522
  0
ARC
  5
219
330
52
100
AcDbEntity
  8
1
  6
Continuous
 62
     7
100
AcDbCircle
 10
162.0917735227241
 20
623.7394813691317
 30
0.0
 40
16.00000000000004
100
AcDbArc
 50
78.94156095954969
 51
89.90118276161198
  0
ARC
  5
21A
330
52
100
AcDbEntity
  8
1
  6
Continuous
 62
     7
100
AcDbCircle
 10
169.9135826548201
 20
634.8896478500803
 30
0.0
 40
4.799999999999951
100
AcDbArc
 50
71.52985039347188
 51
108.4298463197494
  0
ARC
  5
21B
330
52
100
AcDbEntity
  8
1
  6
Continuous
 62
     7
100
AcDbCircle
 10
169.9136804220951
 20
632.5725236216742
 30
0.0
 40
4.800061947008469
100
AcDbArc
 50
-108.471133002157
 51
-71.53108077874427
  0
ARC
  5
21C
330
52
100
AcDbEntity
  8
1
  6
Continuous
 62
     7
100
AcDbCircle
 10
162.1193540207601
 20
271.0263418868058
 30
0.0
 40
9.500000000000096
100
AcDbArc
 50
168.6717180640081
 51
180.0
  0
ARC
  5
21D
330
52
100
AcDbEntity
  8
1
  6
Continuous
 62
     7
100
AcDbCircle
 10
162.1193540207601
 20
271.0263418868058
 30
0.0
 40
9.499999999999874
100
AcDbArc
 50
-11.32828193599219
 51
0.0
  0
ARC
  5
21E
330
52
100
AcDbEntity
  8
1
  6
Continuous
 62
     7
100
AcDbCircle
 10
162.1193540207601
 20
271.0263418868058
 30
0.0
 40
9.499999999999943
100
AcDbArc
 50
48.67171806400839
 51
71.32828193599275
  0
ARC
  5
21F
330
52
100
AcDbEntity
  8
1
  6
Continuous
 62
     7
100
AcDbCircle
 10
162.1193540207601
 20
271.0263418868058
 30
0.0
 40
9.5
100
AcDbArc
 50
108.6717180640079
 51
131.3282819359921
  0
ARC
  5
220
330
52
100
AcDbEntity
  8
1
  6
Continuous
 62
     7
100
AcDbCircle
 10
162.1193540207601
 20
271.0263418868058
 30
0.0
 40
9.5
100
AcDbArc
 50
180.0
 51
-168.6717180640081
  0
ARC
  5
221
330
52
100
AcDbEntity
  8
1
  6
Continuous
 62
     7
100
AcDbCircle
 10
162.1193540207601
 20
271.0263418868058
 30
0.0
 40
9.5
100
AcDbArc
 50
0.0
 51
11.32828193599219
  0
ENDBLK
  5
54
330
52
100
AcDbEntity
  8
0
100
AcDbBlockEnd
  0
BLOCK
  5
56
330
55
100
AcDbEntity
  8
0
100
AcDbBlockBegin
  2
62-3A
 70
     0
 71
     0
 10
410.303053233608
 20
-23.03324259702225
 30
0.0
  3
62-3A
  1

  0
LINE
  5
222
330
55
100
AcDbEntity
  8
1
  6
PHANTOM
 62
     4
100
AcDbLine
 10
219.1553205672588
 20
233.0263418868056
 30
0.0
 11
219.1553205672588
 21
243.0552445891623
 31
0.0
  0
LINE
  5
223
330
55
100
AcDbEntity
  8
1
  6
PHANTOM
 62
     5
100
AcDbLine
 10
249.155320567259
 20
264.6763418868057
 30
0.0
 11
342.9479255747003
 21
264.6763418868059
 31
0.0
  0
LINE
  5
224
330
55
100
AcDbEntity
  8
1
  6
Continuous
 62
     7
100
AcDbLine
 10
378.5357089860543
 20
277.3763418868057
 30
0.0
 11
372.1357089860545
 21
277.376341886806
 31
0.0
  0
LINE
  5
225
330
55
100
AcDbEntity
  8
1
  6
PHANTOM
 62
     5
100
AcDbLine
 10
213.4219423186733
 20
236.0263418868057
 30
0.0
 11
224.8528295096969
 21
236.0263418868057
 31
0.0
  0
LINE
  5
226
330
55
100
AcDbEntity
  8
1
  6
PHANTOM
 62
     5
100
AcDbLine
 10
225.5099362732566
 20
241.0263418868057
 30
0.0
 11
212.800704861261
 21
241.0263418868057
 31
0.0
  0
LINE
  5
227
330
55
100
AcDbEntity
  8
1
  6
Continuous
 62
     7
100
AcDbLine
 10
156.4055873533788
 20
238.0263418868058
 30
0.0
 11
167.8364745444025
 21
238.0263418868058
 31
0.0
  0
LINE
  5
228
330
55
100
AcDbEntity
  8
1
  6
Continuous
 62
     7
100
AcDbLine
 10
168.4935813079621
 20
243.0263418868058
 30
0.0
 11
155.7843498959666
 21
243.0263418868058
 31
0.0
  0
LINE
  5
229
330
55
100
AcDbEntity
  8
1
  6
Continuous
 62
     7
100
AcDbLine
 10
155.76935402076
 20
271.0263418868058
 30
0.0
 11
155.76935402076
 21
243.0263418868058
 31
0.0
  0
LINE
  5
22A
330
55
100
AcDbEntity
  8
1
  6
Continuous
 62
     7
100
AcDbLine
 10
168.4693540207599
 20
243.0263418868058
 30
0.0
 11
168.4693540207601
 21
271.0263418868058
 31
0.0
  0
LINE
  5
22B
330
55
100
AcDbEntity
  8
1
  6
PHANTOM
 62
     5
100
AcDbLine
 10
168.4693540207601
 20
468.3310694085385
 30
0.0
 11
168.4693540207601
 21
588.1549869159074
 31
0.0
  0
LINE
  5
22C
330
55
100
AcDbEntity
  8
1
  6
Continuous
 62
     7
100
AcDbLine
 10
155.7693540207603
 20
627.7310694085384
 30
0.0
 11
155.76935402076
 21
591.3310694085385
 31
0.0
  0
LINE
  5
22D
330
55
100
AcDbEntity
  8
1
  6
PHANTOM
 62
     4
100
AcDbLine
 10
151.5915233886982
 20
468.3310694085387
 30
0.0
 11
171.5809833258952
 21
468.3310694085387
 31
0.0
  0
LINE
  5
22E
330
55
100
AcDbEntity
  8
1
  6
Continuous
 62
     7
100
AcDbLine
 10
348.5099362732566
 20
241.026745656659
 30
0.0
 11
335.800704861261
 21
241.026745656659
 31
0.0
  0
LINE
  5
22F
330
55
100
AcDbEntity
  8
1
  6
Continuous
 62
     7
100
AcDbLine
 10
336.4219423186732
 20
236.026745656659
 30
0.0
 11
347.8528295096969
 21
236.026745656659
 31
0.0
  0
LINE
  5
230
330
55
100
AcDbEntity
  8
1
  6
PHANTOM
 62
     4
100
AcDbLine
 10
342.1357089860545
 20
233.0267456566589
 30
0.0
 11
342.1357089860545
 21
241.0263418868059
 31
0.0
  0
LINE
  5
231
330
55
100
AcDbEntity
  8
1
  6
PHANTOM
 62
     4
100
AcDbLine
 10
151.5915233886982
 20
591.3310694085386
 30
0.0
 11
171.5809833258952
 21
591.3310694085386
 31
0.0
  0
LINE
  5
232
330
55
100
AcDbEntity
  8
1
  6
PHANTOM
 62
     5
100
AcDbLine
 10
369.1357089860544
 20
277.3763418868058
 30
0.0
 11
249.155320567259
 21
277.3763418868058
 31
0.0
  0
LINE
  5
233
330
55
100
AcDbEntity
  8
1
  6
Continuous
 62
     7
100
AcDbLine
 10
372.1357089860545
 20
264.6763418868059
 30
0.0
 11
378.5357089860543
 21
264.6763418868059
 31
0.0
  0
LINE
  5
234
330
55
100
AcDbEntity
  8
1
  6
Continuous
 62
     7
100
AcDbLine
 10
168.4693540207601
 20
591.3310694085385
 30
0.0
 11
168.4693540207601
 21
627.7310694085384
 31
0.0
  0
LINE
  5
235
330
55
100
AcDbEntity
  8
1
  6
PHANTOM
 62
     5
100
AcDbLine
 10
155.76935402076
 20
588.1549869159074
 30
0.0
 11
155.76935402076
 21
468.3310694085385
 31
0.0
  0
ARC
  5
236
330
55
100
AcDbEntity
  8
1
  6
PHANTOM
 62
     5
100
AcDbCircle
 10
249.155320567259
 20
241.0263418868057
 30
0.0
 40
23.64999999999998
100
AcDbArc
 50
90.0
 51
180.0
  0
ARC
  5
237
330
55
100
AcDbEntity
  8
1
  6
PHANTOM
 62
     5
100
AcDbCircle
 10
249.155320567259
 20
241.0263418868057
 30
0.0
 40
36.35000000000008
100
AcDbArc
 50
90.0
 51
180.0
  0
ARC
  5
238
330
55
100
AcDbEntity
  8
1
  6
PHANTOM
 62
     4
100
AcDbCircle
 10
372.1357089860545
 20
241.0263418868059
 30
0.0
 40
29.99999999999997
100
AcDbArc
 50
90.0
 51
180.0
  0
ARC
  5
239
330
55
100
AcDbEntity
  8
1
  6
Continuous
 62
     7
100
AcDbCircle
 10
372.1357089860545
 20
241.0263418868059
 30
0.0
 40
23.65000000000001
100
AcDbArc
 50
90.0
 51
180.0
  0
ARC
  5
23A
330
55
100
AcDbEntity
  8
1
  6
Continuous
 62
     7
100
AcDbCircle
 10
372.1357089860545
 20
241.0263418868059
 30
0.0
 40
36.35000000000011
100
AcDbArc
 50
90.0
 51
180.0
  0
ARC
  5
23B
330
55
100
AcDbEntity
  8
1
  6
PHANTOM
 62
     5
100
AcDbCircle
 10
222.6404939179773
 20
238.8602689527938
 30
0.0
 40
3.595215068077183
100
AcDbArc
 50
-52.02223933858593
 51
0.0
  0
ARC
  5
23C
330
55
100
AcDbEntity
  8
1
  6
PHANTOM
 62
     5
100
AcDbCircle
 10
215.5669554350221
 20
238.8314479835582
 30
0.0
 40
3.531246448967643
100
AcDbArc
 50
141.5696003418014
 51
179.5323639240681
  0
ARC
  5
23D
330
55
100
AcDbEntity
  8
1
  6
PHANTOM
 62
     5
100
AcDbCircle
 10
215.5669554350221
 20
238.8314479835582
 30
0.0
 40
3.531246448967702
100
AcDbArc
 50
179.5323639240681
 51
-127.404479984262
  0
ARC
  5
23E
330
55
100
AcDbEntity
  8
1
  6
PHANTOM
 62
     5
100
AcDbCircle
 10
222.6404939179773
 20
238.8602689527938
 30
0.0
 40
3.595215068077096
100
AcDbArc
 50
0.0
 51
37.04827610299253
  0
ARC
  5
23F
330
55
100
AcDbEntity
  8
1
  6
Continuous
 62
     7
100
AcDbCircle
 10
165.6241389526829
 20
240.8602689527939
 30
0.0
 40
3.595215068077183
100
AcDbArc
 50
-52.02223933858593
 51
0.0
  0
ARC
  5
240
330
55
100
AcDbEntity
  8
1
  6
Continuous
 62
     7
100
AcDbCircle
 10
158.5506004697277
 20
240.8314479835583
 30
0.0
 40
3.531246448967643
100
AcDbArc
 50
141.5696003418014
 51
179.5323639240681
  0
ARC
  5
241
330
55
100
AcDbEntity
  8
1
  6
Continuous
 62
     7
100
AcDbCircle
 10
158.5506004697277
 20
240.8314479835583
 30
0.0
 40
3.531246448967702
100
AcDbArc
 50
179.5323639240681
 51
-127.4044799842635
  0
ARC
  5
242
330
55
100
AcDbEntity
  8
1
  6
Continuous
 62
     7
100
AcDbCircle
 10
165.6241389526829
 20
240.8602689527939
 30
0.0
 40
3.595215068077096
100
AcDbArc
 50
0.0
 51
37.04827610299363
  0
ARC
  5
243
330
55
100
AcDbEntity
  8
1
  6
Continuous
 62
     7
100
AcDbCircle
 10
162.1193540207601
 20
271.0263418868058
 30
0.0
 40
6.349999999999994
100
AcDbArc
 50
0.0
 51
180.0
  0
ARC
  5
244
330
55
100
AcDbEntity
  8
1
  6
PHANTOM
 62
     5
100
AcDbCircle
 10
162.1193540207601
 20
468.3310694085385
 30
0.0
 40
6.350000000000108
100
AcDbArc
 50
180.0
 51
0.0
  0
ARC
  5
245
330
55
100
AcDbEntity
  8
1
  6
PHANTOM
 62
     5
100
AcDbCircle
 10
162.1193540207601
 20
468.3310694085385
 30
0.0
 40
7.099999999999996
100
AcDbArc
 50
153.4271355278268
 51
26.57286447217363
  0
ARC
  5
246
330
55
100
AcDbEntity
  8
1
  6
Continuous
 62
     7
100
AcDbCircle
 10
345.6404939179773
 20
238.8606727226471
 30
0.0
 40
3.595215068077096
100
AcDbArc
 50
0.0
 51
37.04827610299272
  0
ARC
  5
247
330
55
100
AcDbEntity
  8
1
  6
Continuous
 62
     7
100
AcDbCircle
 10
338.5669554350221
 20
238.8318517534115
 30
0.0
 40
3.53124644896773
100
AcDbArc
 50
179.5323639240681
 51
-127.4044799842635
  0
ARC
  5
248
330
55
100
AcDbEntity
  8
1
  6
Continuous
 62
     7
100
AcDbCircle
 10
338.5669554350221
 20
238.8318517534115
 30
0.0
 40
3.531246448967648
100
AcDbArc
 50
141.569600341802
 51
179.5323639240681
  0
ARC
  5
249
330
55
100
AcDbEntity
  8
1
  6
Continuous
 62
     7
100
AcDbCircle
 10
345.6404939179773
 20
238.8606727226471
 30
0.0
 40
3.595215068077188
100
AcDbArc
 50
-52.02223933858657
 51
0.0
  0
ARC
  5
24A
330
55
100
AcDbEntity
  8
1
  6
Continuous
 62
     7
100
AcDbCircle
 10
162.1193540207601
 20
591.3310694085385
 30
0.0
 40
7.100000000000021
100
AcDbArc
 50
153.4271355278264
 51
26.57286447217158
  0
ARC
  5
24B
330
55
100
AcDbEntity
  8
1
  6
Continuous
 62
     7
100
AcDbCircle
 10
162.1193540207601
 20
591.3310694085385
 30
0.0
 40
6.350000000000108
100
AcDbArc
 50
180.0
 51
0.0
  0
ENDBLK
  5
57
330
55
100
AcDbEntity
  8
0
100
AcDbBlockEnd
  0
BLOCK
  5
59
330
58
100
AcDbEntity
  8
0
100
AcDbBlockBegin
  2
64-1
 70
     0
 71
     0
 10
227.7697907999232
 20
142.2705494468218
 30
0.0
  3
64-1
  1

  0
LINE
  5
24C
330
58
100
AcDbEntity
  8
1
  6
Continuous
 62
     7
100
AcDbLine
 10
515.1357089860545
 20
263.0263418868058
 30
0.0
 11
390.5357089860543
 21
263.0263418868058
 31
0.0
  0
LINE
  5
24D
330
58
100
AcDbEntity
  8
1
  6
Continuous
 62
     7
100
AcDbLine
 10
390.5357089860543
 20
279.0263418868058
 30
0.0
 11
515.1357089860545
 21
279.0263418868058
 31
0.0
  0
LINE
  5
24E
330
58
100
AcDbEntity
  8
1
  6
Continuous
 62
     7
100
AcDbLine
 10
550.1357089860545
 20
298.0263418868058
 30
0.0
 11
550.1357089860545
 21
303.5263418868058
 31
0.0
  0
LINE
  5
24F
330
58
100
AcDbEntity
  8
1
  6
Continuous
 62
     7
100
AcDbLine
 10
534.1357089860545
 20
303.5263418868058
 30
0.0
 11
534.1357089860545
 21
298.0263418868058
 31
0.0
  0
LINE
  5
250
330
58
100
AcDbEntity
  8
1
  6
Continuous
 62
     7
100
AcDbLine
 10
170.1193540207602
 20
275.1699354262544
 30
0.0
 11
170.1193540207601
 21
303.5263418868058
 31
0.0
  0
LINE
  5
251
330
58
100
AcDbEntity
  8
1
  6
Continuous
 62
     7
100
AcDbLine
 10
154.1193540207601
 20
303.5263418868058
 30
0.0
 11
154.1193540207599
 21
275.1699354262544
 31
0.0
  0
LINE
  5
252
330
58
100
AcDbEntity
  8
1
  6
Continuous
 62
     7
100
AcDbLine
 10
170.1193540207601
 20
779.7840640247459
 30
0.0
 11
170.1193540207601
 21
639.7310694085384
 31
0.0
  0
LINE
  5
253
330
58
100
AcDbEntity
  8
1
  6
Continuous
 62
     7
100
AcDbLine
 10
154.1193540207601
 20
639.7310694085384
 30
0.0
 11
154.1193540207601
 21
779.7843374276388
 31
0.0
  0
ARC
  5
254
330
58
100
AcDbEntity
  8
1
  6
Continuous
 62
     7
100
AcDbCircle
 10
515.1357089860545
 20
298.0263418868058
 30
0.0
 40
35.0
100
AcDbArc
 50
-90.0
 51
0.0
  0
ARC
  5
255
330
58
100
AcDbEntity
  8
1
  6
Continuous
 62
     7
100
AcDbCircle
 10
515.1357089860545
 20
298.0263418868058
 30
0.0
 40
19.0
100
AcDbArc
 50
-90.0
 51
0.0
  0
ENDBLK
  5
5A
330
58
100
AcDbEntity
  8
0
100
AcDbBlockEnd
  0
BLOCK
  5
278
330
271
100
AcDbEntity
  8
0
100
AcDbBlockBegin
  2
*D012
 70
     1
 71
     0
 10
0.0
 20
0.0
 30
0.0
  3
*D012
  1

  0
LINE
  5
272
330
271
100
AcDbEntity
  8
1
  6
Continuous
 62
     2
100
AcDbLine
 10
342.1357089860546
 20
206.5263418868058
 30
0.0
 11
542.1357089860546
 21
206.5263418868058
 31
0.0
  0
LINE
  5
273
330
271
100
AcDbEntity
  8
1
  6
Continuous
 62
     2
100
AcDbLine
 10
342.1357089860546
 20
233.0267456566589
 30
0.0
 11
342.1357089860546
 21
203.0263418868058
 31
0.0
  0
LINE
  5
274
330
271
100
AcDbEntity
  8
1
  6
Continuous
 62
     2
100
AcDbLine
 10
542.1357089860546
 20
298.0263418868059
 30
0.0
 11
542.1357089860546
 21
203.0263418868058
 31
0.0
  0
SOLID
  5
275
330
271
100
AcDbEntity
  8
1
 62
     2
100
AcDbTrace
 10
354.3857089860546
 20
208.1390849822514
 30
0.0
 11
354.3857089860546
 21
204.9135987913602
 31
0.0
 12
342.1357089860546
 22
206.5263418868058
 32
0.0
 13
342.1357089860546
 23
206.5263418868058
 33
0.0
  0
SOLID
  5
276
330
271
100
AcDbEntity
  8
1
 62
     2
100
AcDbTrace
 10
529.8857089860546
 20
204.9135987913602
 30
0.0
 11
529.8857089860546
 21
208.1390849822514
 31
0.0
 12
542.1357089860546
 22
206.5263418868058
 32
0.0
 13
542.1357089860546
 23
206.5263418868058
 33
0.0
  0
MTEXT
  5
277
330
271
100
AcDbEntity
  8
1
 62
     7
100
AcDbMText
 10
404.2919939049176
 20
210.0262444877373
 30
0.0
 40
12.25
 41
0.0
 71
     7
 72
     1
  1
\C7;最小\C7;200
  7
CONVERTER_1
 11
0.9999999999970621
 21
2.424068405545307E-6
 31
0.0
 73
     1
 44
0.60024009603842
  0
ENDBLK
  5
279
330
271
100
AcDbEntity
  8
0
100
AcDbBlockEnd
  0
BLOCK
  5
283
330
27C
100
AcDbEntity
  8
0
100
AcDbBlockBegin
  2
*D113
 70
     1
 71
     0
 10
0.0
 20
0.0
 30
0.0
  3
*D113
  1

  0
LINE
  5
27D
330
27C
100
AcDbEntity
  8
1
  6
Continuous
 62
     2
100
AcDbLine
 10
667.6357089860544
 20
309.5263418868059
 30
0.0
 11
667.6357089860544
 21
355.5263418868059
 31
0.0
  0
LINE
  5
27E
330
27C
100
AcDbEntity
  8
1
  6
Continuous
 62
     2
100
AcDbLine
 10
622.1357089860546
 20
309.5263418868059
 30
0.0
 11
671.1357089860544
 21
309.5263418868059
 31
0.0
  0
LINE
  5
27F
330
27C
100
AcDbEntity
  8
1
  6
Continuous
 62
     2
100
AcDbLine
 10
622.1357089860546
 20
355.5263418868059
 30
0.0
 11
671.1357089860544
 21
355.5263418868059
 31
0.0
  0
SOLID
  5
280
330
27C
100
AcDbEntity
  8
1
 62
     2
100
AcDbTrace
 10
666.0229658906088
 20
321.7763418868059
 30
0.0
 11
669.2484520815
 21
321.7763418868059
 31
0.0
 12
667.6357089860544
 22
309.5263418868059
 32
0.0
 13
667.6357089860544
 23
309.5263418868059
 33
0.0
  0
SOLID
  5
281
330
27C
100
AcDbEntity
  8
1
 62
     2
100
AcDbTrace
 10
669.2484520815
 20
343.2763418868059
 30
0.0
 11
666.0229658906088
 21
343.2763418868059
 31
0.0
 12
667.6357089860544
 22
355.5263418868059
 32
0.0
 13
667.6357089860544
 23
355.5263418868059
 33
0.0
  0
MTEXT
  5
282
330
27C
100
AcDbEntity
  8
1
 62
     7
100
AcDbMText
 10
664.1357089860544
 20
310.6720674326875
 30
0.0
 40
12.25
 41
0.0
 71
     7
 72
     1
  1
\C7;{\Fgdt;n}\C7;46
  7
CONVERTER_2
 11
0.0
 21
1.0
 31
0.0
 73
     1
 44
0.60024009603842
  0
ENDBLK
  5
284
330
27C
100
AcDbEntity
  8
0
100
AcDbBlockEnd
  0
BLOCK
  5
28E
330
287
100
AcDbEntity
  8
0
100
AcDbBlockBegin
  2
*D214
 70
     1
 71
     0
 10
0.0
 20
0.0
 30
0.0
  3
*D214
  1

  0
LINE
  5
288
330
287
100
AcDbEntity
  8
0
  6
Continuous
 62
     2
100
AcDbLine
 10
449.913048406418
 20
332.5263418868059
 30
0.0
 11
449.913048406418
 21
390.026341886806
 31
0.0
  0
LINE
  5
289
330
287
100
AcDbEntity
  8
0
  6
Continuous
 62
     2
100
AcDbLine
 10
527.3404427138653
 20
332.5263418868059
 30
0.0
 11
446.413048406418
 21
332.5263418868059
 31
0.0
  0
LINE
  5
28A
330
287
100
AcDbEntity
  8
0
  6
Continuous
 62
     2
100
AcDbLine
 10
577.1357089860546
 20
390.026341886806
 30
0.0
 11
446.413048406418
 21
390.026341886806
 31
0.0
  0
SOLID
  5
28B
330
287
100
AcDbEntity
  8
0
 62
     2
100
AcDbTrace
 10
448.3003053109724
 20
344.7763418868059
 30
0.0
 11
451.5257915018636
 21
344.7763418868059
 31
0.0
 12
449.913048406418
 22
332.5263418868059
 32
0.0
 13
449.913048406418
 23
332.5263418868059
 33
0.0
  0
SOLID
  5
28C
330
287
100
AcDbEntity
  8
0
 62
     2
100
AcDbTrace
 10
451.5257915018636
 20
377.776341886806
 30
0.0
 11
448.3003053109724
 21
377.776341886806
 31
0.0
 12
449.913048406418
 22
390.026341886806
 32
0.0
 13
449.913048406418
 23
390.026341886806
 33
0.0
  0
MTEXT
  5
28D
330
287
100
AcDbEntity
  8
0
 62
     7
100
AcDbMText
 10
446.413048406418
 20
331.0613105623861
 30
0.0
 40
12.25
 41
0.0
 71
     7
 72
     1
  1
58リフト5
  7
CONVERTER_1
 11
0.0
 21
1.0
 31
0.0
 73
     1
 44
0.60024009603842
  0
ENDBLK
  5
28F
330
287
100
AcDbEntity
  8
0
100
AcDbBlockEnd
  0
BLOCK
  5
299
330
292
100
AcDbEntity
  8
0
100
AcDbBlockBegin
  2
*D315
 70
     1
 71
     0
 10
0.0
 20
0.0
 30
0.0
  3
*D315
  1

  0
LINE
  5
293
330
292
100
AcDbEntity
  8
1
  6
Continuous
 62
     2
100
AcDbLine
 10
219.1553205672589
 20
178.5263418868058
 30
0.0
 11
542.1357089860546
 21
178.5263418868058
 31
0.0
  0
LINE
  5
294
330
292
100
AcDbEntity
  8
1
  6
Continuous
 62
     2
100
AcDbLine
 10
219.1553205672589
 20
233.0263418868057
 30
0.0
 11
219.1553205672589
 21
175.0263418868058
 31
0.0
  0
LINE
  5
295
330
292
100
AcDbEntity
  8
1
  6
Continuous
 62
     2
100
AcDbLine
 10
542.1357089860546
 20
298.0263418868059
 30
0.0
 11
542.1357089860546
 21
175.0263418868058
 31
0.0
  0
SOLID
  5
296
330
292
100
AcDbEntity
  8
1
 62
     2
100
AcDbTrace
 10
231.4053205672589
 20
180.1390849822514
 30
0.0
 11
231.4053205672589
 21
176.9135987913602
 31
0.0
 12
219.1553205672589
 22
178.5263418868058
 32
0.0
 13
219.1553205672589
 23
178.5263418868058
 33
0.0
  0
SOLID
  5
297
330
292
100
AcDbEntity
  8
1
 62
     2
100
AcDbTrace
 10
529.8857089860546
 20
176.9135987913602
 30
0.0
 11
529.8857089860546
 21
180.1390849822514
 31
0.0
 12
542.1357089860546
 22
178.5263418868058
 32
0.0
 13
542.1357089860546
 23
178.5263418868058
 33
0.0
  0
MTEXT
  5
298
330
292
100
AcDbEntity
  8
1
 62
     7
100
AcDbMText
 10
339.9490818521079
 20
182.0262444877373
 30
0.0
 40
12.25
 41
0.0
 71
     7
 72
     1
  1
\C7;最大\C7;323
  7
CONVERTER_1
 11
0.9999999999970621
 21
2.424068405545307E-6
 31
0.0
 73
     1
 44
0.60024009603842
  0
ENDBLK
  5
29A
330
292
100
AcDbEntity
  8
0
100
AcDbBlockEnd
  0
BLOCK
  5
2A4
330
29D
100
AcDbEntity
  8
0
100
AcDbBlockBegin
  2
*D416
 70
     1
 71
     0
 10
0.0
 20
0.0
 30
0.0
  3
*D416
  1

  0
LINE
  5
29E
330
29D
100
AcDbEntity
  8
1
  6
Continuous
 62
     2
100
AcDbLine
 10
577.1357089860546
 20
178.5263418868058
 30
0.0
 11
622.1357089860546
 21
178.5263418868058
 31
0.0
  0
LINE
  5
29F
330
29D
100
AcDbEntity
  8
1
  6
Continuous
 62
     2
100
AcDbLine
 10
577.1357089860546
 20
316.8750569368419
 30
0.0
 11
577.1357089860546
 21
175.0263418868058
 31
0.0
  0
LINE
  5
2A0
330
29D
100
AcDbEntity
  8
1
  6
Continuous
 62
     2
100
AcDbLine
 10
622.1357089860546
 20
309.5263418868059
 30
0.0
 11
622.1357089860546
 21
175.0263418868058
 31
0.0
  0
SOLID
  5
2A1
330
29D
100
AcDbEntity
  8
1
 62
     2
100
AcDbTrace
 10
589.3857089860546
 20
180.1390849822514
 30
0.0
 11
589.3857089860546
 21
176.9135987913602
 31
0.0
 12
577.1357089860546
 22
178.5263418868058
 32
0.0
 13
577.1357089860546
 23
178.5263418868058
 33
0.0
  0
SOLID
  5
2A2
330
29D
100
AcDbEntity
  8
1
 62
     2
100
AcDbTrace
 10
609.8857089860546
 20
176.9135987913602
 30
0.0
 11
609.8857089860546
 21
180.1390849822514
 31
0.0
 12
622.1357089860546
 22
178.5263418868058
 32
0.0
 13
622.1357089860546
 23
178.5263418868058
 33
0.0
  0
MTEXT
  5
2A3
330
29D
100
AcDbEntity
  8
1
 62
     7
100
AcDbMText
 10
591.399510093923
 20
182.0263418868058
 30
0.0
 40
12.25
 41
0.0
 71
     7
 72
     1
  1
45
  7
CONVERTER_2
 11
0.9999999999970621
 21
2.424068405545307E-6
 31
0.0
 73
     1
 44
0.60024009603842
  0
ENDBLK
  5
2A5
330
29D
100
AcDbEntity
  8
0
100
AcDbBlockEnd
  0
BLOCK
  5
2B1
330
2A8
100
AcDbEntity
  8
0
100
AcDbBlockBegin
  2
*D517
 70
     1
 71
     0
 10
0.0
 20
0.0
 30
0.0
  3
*D517
  1

  0
LINE
  5
2A9
330
2A8
100
AcDbEntity
  8
1
  6
Continuous
 62
     2
100
AcDbLine
 10
636.1357089860546
 20
178.5263418868058
 30
0.0
 11
666.742479922161
 21
178.5263418868058
 31
0.0
  0
LINE
  5
2AA
330
2A8
100
AcDbEntity
  8
1
  6
Continuous
 62
     2
100
AcDbLine
 10
622.1357089860546
 20
178.5263418868058
 30
0.0
 11
636.1357089860546
 21
178.5263418868058
 31
0.0
  0
LINE
  5
2AB
330
2A8
100
AcDbEntity
  8
1
  6
Continuous
 62
     2
100
AcDbLine
 10
597.6357089860546
 20
178.5263418868058
 30
0.0
 11
622.1357089860546
 21
178.5263418868058
 31
0.0
  0
LINE
  5
2AC
330
2A8
100
AcDbEntity
  8
1
  6
Continuous
 62
     2
100
AcDbLine
 10
622.1357089860546
 20
309.5263418868059
 30
0.0
 11
622.1357089860546
 21
175.0263418868058
 31
0.0
  0
LINE
  5
2AD
330
2A8
100
AcDbEntity
  8
1
  6
Continuous
 62
     2
100
AcDbLine
 10
636.1357089860546
 20
323.0263418868059
 30
0.0
 11
636.1357089860546
 21
175.0263418868058
 31
0.0
  0
SOLID
  5
2AE
330
2A8
100
AcDbEntity
  8
1
 62
     2
100
AcDbTrace
 10
609.8857089860546
 20
176.9135987913602
 30
0.0
 11
609.8857089860546
 21
180.1390849822514
 31
0.0
 12
622.1357089860546
 22
178.5263418868058
 32
0.0
 13
622.1357089860546
 23
178.5263418868058
 33
0.0
  0
SOLID
  5
2AF
330
2A8
100
AcDbEntity
  8
1
 62
     2
100
AcDbTrace
 10
648.3857089860546
 20
180.1390849822514
 30
0.0
 11
648.3857089860546
 21
176.9135987913602
 31
0.0
 12
636.1357089860546
 22
178.5263418868058
 32
0.0
 13
636.1357089860546
 23
178.5263418868058
 33
0.0
  0
MTEXT
  5
2B0
330
2A8
100
AcDbEntity
  8
1
 62
     7
100
AcDbMText
 10
652.042479922161
 20
182.0263418868058
 30
0.0
 40
12.25
 41
0.0
 71
     7
 72
     1
  1
14
  7
CONVERTER_2
 11
0.9999999999970621
 21
2.424068405545307E-6
 31
0.0
 73
     1
 44
0.60024009603842
  0
ENDBLK
  5
2B2
330
2A8
100
AcDbEntity
  8
0
100
AcDbBlockEnd
  0
BLOCK
  5
2BC
330
2B5
100
AcDbEntity
  8
0
100
AcDbBlockBegin
  2
*D618
 70
     1
 71
     0
 10
0.0
 20
0.0
 30
0.0
  3
*D618
  1

  0
LINE
  5
2B6
330
2B5
100
AcDbEntity
  8
1
  6
Continuous
 62
     2
100
AcDbLine
 10
449.913048406418
 20
236.0267456566591
 30
0.0
 11
449.913048406418
 21
332.5263418868059
 31
0.0
  0
LINE
  5
2B7
330
2B5
100
AcDbEntity
  8
1
  6
Continuous
 62
     2
100
AcDbLine
 10
347.852829509697
 20
236.0267456566591
 30
0.0
 11
453.413048406418
 21
236.0267456566591
 31
0.0
  0
LINE
  5
2B8
330
2B5
100
AcDbEntity
  8
1
  6
Continuous
 62
     2
100
AcDbLine
 10
527.3404427138653
 20
332.5263418868059
 30
0.0
 11
446.413048406418
 21
332.5263418868059
 31
0.0
  0
SOLID
  5
2B9
330
2B5
100
AcDbEntity
  8
1
 62
     2
100
AcDbTrace
 10
448.3003053109724
 20
248.2767456566591
 30
0.0
 11
451.5257915018636
 21
248.2767456566591
 31
0.0
 12
449.913048406418
 22
236.0267456566591
 32
0.0
 13
449.913048406418
 23
236.0267456566591
 33
0.0
  0
SOLID
  5
2BA
330
2B5
100
AcDbEntity
  8
1
 62
     2
100
AcDbTrace
 10
451.5257915018636
 20
320.2763418868059
 30
0.0
 11
448.3003053109724
 21
320.2763418868059
 31
0.0
 12
449.913048406418
 22
332.5263418868059
 32
0.0
 13
449.913048406418
 23
332.5263418868059
 33
0.0
  0
MTEXT
  5
2BB
330
2B5
100
AcDbEntity
  8
1
 62
     7
100
AcDbMText
 10
446.413048406418
 20
292.8034856168032
 30
0.0
 40
12.25
 41
0.0
 71
     7
 72
     1
  1
97
  7
CONVERTER_2
 11
0.0
 21
1.0
 31
0.0
 73
     1
 44
0.60024009603842
  0
ENDBLK
  5
2BD
330
2B5
100
AcDbEntity
  8
0
100
AcDbBlockEnd
  0
BLOCK
  5
2C7
330
2C0
100
AcDbEntity
  8
0
100
AcDbBlockBegin
  2
*D719
 70
     1
 71
     0
 10
0.0
 20
0.0
 30
0.0
  3
*D719
  1

  0
LINE
  5
2C1
330
2C0
100
AcDbEntity
  8
1
  6
Continuous
 62
     2
100
AcDbLine
 10
542.1357089860546
 20
178.5263418868058
 30
0.0
 11
577.1357089860546
 21
178.5263418868058
 31
0.0
  0
LINE
  5
2C2
330
2C0
100
AcDbEntity
  8
1
  6
Continuous
 62
     2
100
AcDbLine
 10
542.1357089860546
 20
298.0263418868059
 30
0.0
 11
542.1357089860546
 21
175.0263418868058
 31
0.0
  0
LINE
  5
2C3
330
2C0
100
AcDbEntity
  8
1
  6
Continuous
 62
     2
100
AcDbLine
 10
577.1357089860546
 20
316.8750569368419
 30
0.0
 11
577.1357089860546
 21
175.0263418868058
 31
0.0
  0
SOLID
  5
2C4
330
2C0
100
AcDbEntity
  8
1
 62
     2
100
AcDbTrace
 10
554.3857089860546
 20
180.1390849822514
 30
0.0
 11
554.3857089860546
 21
176.9135987913602
 31
0.0
 12
542.1357089860546
 22
178.5263418868058
 32
0.0
 13
542.1357089860546
 23
178.5263418868058
 33
0.0
  0
SOLID
  5
2C5
330
2C0
100
AcDbEntity
  8
1
 62
     2
100
AcDbTrace
 10
564.8857089860546
 20
176.9135987913602
 30
0.0
 11
564.8857089860546
 21
180.1390849822514
 31
0.0
 12
577.1357089860546
 22
178.5263418868058
 32
0.0
 13
577.1357089860546
 23
178.5263418868058
 33
0.0
  0
MTEXT
  5
2C6
330
2C0
100
AcDbEntity
  8
1
 62
     7
100
AcDbMText
 10
550.4482089860544
 20
182.0263418868058
 30
0.0
 40
12.25
 41
0.0
 71
     7
 72
     1
  1
35
  7
CONVERTER_2
 11
0.9999999999970621
 21
2.424068405545307E-6
 31
0.0
 73
     1
 44
0.60024009603842
  0
ENDBLK
  5
2C8
330
2C0
100
AcDbEntity
  8
0
100
AcDbBlockEnd
  0
ENDSEC
  0
SECTION
  2
ENTITIES
  0
INSERT
  5
5B
330
1F
100
AcDbEntity
  8
1
100
AcDbBlockReference
  2
32-1-16
 10
245.5899691503856
 20
513.0121740169149
 30
0.0
  0
INSERT
  5
5C
330
1F
100
AcDbEntity
  8
1
100
AcDbBlockReference
  2
A10-0A-13
 10
577.1357089860545
 20
332.5263418868058
 30
0.0
  0
INSERT
  5
5D
330
1F
100
AcDbEntity
  8
0
100
AcDbBlockReference
  2
R10A-13-B
 10
622.1357089860544
 20
333.5263418868058
 30
0.0
  0
INSERT
  5
5E
330
1F
100
AcDbEntity
  8
1
100
AcDbBlockReference
  2
_J__A4
 10
0.0
 20
0.0
 30
0.0
 41
3.5
 42
3.5
 43
3.5
  0
INSERT
  5
5F
330
1F
100
AcDbEntity
  8
0
100
AcDbBlockReference
  2
32-2
 10
458.6326084789281
 20
91.52269679857812
 30
0.0
  0
INSERT
  5
60
330
1F
100
AcDbEntity
  8
0
100
AcDbBlockReference
  2
62-3A
 10
410.303053233608
 20
-23.03324259702225
 30
0.0
  0
INSERT
  5
61
330
1F
100
AcDbEntity
  8
0
100
AcDbBlockReference
  2
64-1
 10
227.7697907999232
 20
142.2705494468218
 30
0.0
  0
LINE
  5
256
330
1F
100
AcDbEntity
  8
1
  6
DASH_CENTER
 62
     2
100
AcDbLine
 10
190.2552704896096
 20
826.3310694085385
 30
0.0
 11
133.9834375519105
 21
826.3310694085385
 31
0.0
  0
LINE
  5
257
330
1F
100
AcDbEntity
  8
1
  6
DASH_CENTER
 62
     2
100
AcDbLine
 10
342.1357089860545
 20
233.0267456566589
 30
0.0
 11
342.1357089860545
 21
241.0263418868059
 31
0.0
  0
LINE
  5
258
330
1F
100
AcDbEntity
  8
1
  6
DASH_CENTER
 62
     2
100
AcDbLine
 10
219.1553205672588
 20
233.0263418868057
 30
0.0
 11
219.1553205672588
 21
241.5263418868058
 31
0.0
  0
LINE
  5
259
330
1F
100
AcDbEntity
  8
1
  6
DASH_CENTER
 62
     2
100
AcDbLine
 10
515.1357089860545
 20
271.0263418868058
 30
0.0
 11
248.6553205672588
 21
271.0263418868058
 31
0.0
  0
LINE
  5
25A
330
1F
100
AcDbEntity
  8
1
  6
DASH_CENTER
 62
     2
100
AcDbLine
 10
181.1193540207602
 20
271.0263418868058
 30
0.0
 11
143.11935402076
 21
271.0263418868058
 31
0.0
  0
LINE
  5
25B
330
1F
100
AcDbEntity
  8
1
  6
DASH_CENTER
 62
     2
100
AcDbLine
 10
195.6193540207601
 20
332.5263418868058
 30
0.0
 11
128.6193540207599
 21
332.5263418868058
 31
0.0
  0
LINE
  5
25C
330
1F
100
AcDbEntity
  8
1
  6
DASH_CENTER
 62
     2
100
AcDbLine
 10
176.3193540207599
 20
468.3310694085385
 30
0.0
 11
147.9193540207604
 21
468.3310694085385
 31
0.0
  0
LINE
  5
25D
330
1F
100
AcDbEntity
  8
1
  6
DASH_CENTER
 62
     2
100
AcDbLine
 10
176.3193540207596
 20
591.3310694085385
 30
0.0
 11
147.9193540207606
 21
591.3310694085385
 31
0.0
  0
LINE
  5
25E
330
1F
100
AcDbEntity
  8
1
  6
DASH_CENTER
 62
     2
100
AcDbLine
 10
186.6193540207601
 20
791.3310694085385
 30
0.0
 11
137.6193540207602
 21
791.3310694085385
 31
0.0
  0
LINE
  5
25F
330
1F
100
AcDbEntity
  8
1
  6
DASH_CENTER
 62
     2
100
AcDbLine
 10
177.2747985869876
 20
817.581069408539
 30
0.0
 11
126.1792997637059
 21
847.0810694085386
 31
0.0
  0
LINE
  5
260
330
1F
100
AcDbEntity
  8
1
  6
DASH_CENTER
 62
     2
100
AcDbLine
 10
146.9639094545326
 20
817.581069408539
 30
0.0
 11
198.0594082778142
 21
847.0810694085386
 31
0.0
  0
LINE
  5
261
330
1F
100
AcDbEntity
  8
0
  6
DASH_CENTER
 62
     2
100
AcDbLine
 10
162.1193540207601
 20
394.1941549444646
 30
0.0
 11
162.1193540207601
 21
235.5833693852218
 31
0.0
  0
LINE
  5
262
330
1F
100
AcDbEntity
  8
1
  6
DASH_CENTER
 62
     2
100
AcDbLine
 10
577.1357089860545
 20
316.8750569368418
 30
0.0
 11
577.1357089860545
 21
394.1941549444646
 31
0.0
  0
LINE
  5
263
330
1F
100
AcDbEntity
  8
1
  6
DASH_CENTER
 62
     2
100
AcDbLine
 10
639.1735155178076
 20
332.5263418868058
 30
0.0
 11
527.3404427138651
 21
332.5263418868058
 31
0.0
  0
LINE
  5
264
330
1F
100
AcDbEntity
  8
1
  6
DASH_CENTER
 62
     2
100
AcDbLine
 10
542.1357089860545
 20
298.0263418868058
 30
0.0
 11
542.1357089860545
 21
335.4588112825734
 31
0.0
  0
LINE
  5
265
330
1F
100
AcDbEntity
  8
1
  6
DASH_CENTER
 62
     2
100
AcDbLine
 10
162.1193540207602
 20
888.3688759402919
 30
0.0
 11
162.1193540207602
 21
455.8694401034036
 31
0.0
  0
ARC
  5
266
330
1F
100
AcDbEntity
  8
1
  6
DASH_CENTER
 62
     2
100
AcDbCircle
 10
372.1357089860545
 20
241.0263418868059
 30
0.0
 40
29.99999999999997
100
AcDbArc
 50
90.0
 51
180.0
  0
ARC
  5
267
330
1F
100
AcDbEntity
  8
1
  6
DASH_CENTER
 62
     2
100
AcDbCircle
 10
515.1357089860545
 20
298.0263418868058
 30
0.0
 40
27.0
100
AcDbArc
 50
-90.0
 51
0.0
  0
ARC
  5
268
330
1F
100
AcDbEntity
  8
1
  6
DASH_CENTER
 62
     2
100
AcDbCircle
 10
248.6553205672588
 20
241.5263418868058
 30
0.0
 40
29.50000000000003
100
AcDbArc
 50
90.0
 51
180.0
  0
SOLID
  5
269
330
1F
100
AcDbEntity
  8
1
 62
     2
100
AcDbTrace
 10
177.3476775303264
 20
890.2775720822576
 30
0.0
 11
180.1410305111941
 21
888.664828986812
 31
0.0
 12
172.6193540207601
 22
878.8623893381755
 32
0.0
 13
172.6193540207601
 23
878.8623893381755
 33
0.0
  0
LEADER
  5
26A
330
1F
100
AcDbEntity
  8
1
  6
Continuous
 62
     2
100
AcDbLeader
  3
Standard
 71
     0
 76
     3
 10
172.6193540207601
 20
878.8623893381755
 30
0.0
 10
188.2504339316554
 20
905.9362139210153
 30
0.0
 10
236.0314978849211
 20
905.9362139210153
 30
0.0
  0
MTEXT
  5
26C
330
1F
100
AcDbEntity
  8
0
 62
     7
100
AcDbMText
 10
199.5
 20
49.875
 30
0.0
 40
12.25
 41
0.0
 71
     5
 72
     1
  1
A14A-13
  7
CONVERTER_2
 73
     1
 44
1.32052821128451
  0
MTEXT
  5
26D
330
1F
100
AcDbEntity
  8
0
 62
     7
100
AcDbMText
 10
199.5
 20
79.62500000000006
 30
0.0
 40
12.25
 41
0.0
 71
     5
 72
     1
  1
伸縮自在水栓
  7
CONVERTER_1
 73
     1
 44
1.32052821128451
  0
MTEXT
  5
26E
330
1F
100
AcDbEntity
  8
1
 62
     7
100
AcDbMText
 10
213.4715429010117
 20
916.4362139210153
 30
0.0
 40
12.25
 41
0.0
 71
     5
 72
     1
  1
PJ1/2
  7
CONVERTER_2
 73
     1
 44
1.32052821128451
  0
MTEXT
  5
26F
330
1F
100
AcDbEntity
  8
1
 62
     7
100
AcDbMText
 10
298.375
 20
59.5
 30
0.0
 40
12.25
 41
0.0
 71
     5
 72
     1
  1
1
  7
CONVERTER_2
 73
     1
 44
0.7202881152461
  0
MTEXT
  5
270
330
1F
100
AcDbEntity
  8
1
 62
     7
100
AcDbMText
 10
328.125
 20
59.5
 30
0.0
 40
12.25
 41
0.0
 71
     5
 72
     1
  1
3,5
  7
CONVERTER_2
 73
     1
 44
0.7202881152461
  0
DIMENSION
  5
27B
330
1F
100
AcDbEntity
  8
1
100
AcDbDimension
  2
*D012
 10
342.1357089860546
 20
206.5263418868058
 30
0.0
 11
444.710188349244
 21
216.1513418868058
 31
0.0
  1
<>
 71
     5
 42
0.0
 53
0.00013888888889
  3
ME10_DIM_0
100
AcDbAlignedDimension
 13
542.1357089860545
 23
298.0263418868058
 33
0.0
 14
342.1357089860546
 24
233.0267456566589
 34
0.0
100
AcDbRotatedDimension
  0
DIMENSION
  5
286
330
1F
100
AcDbEntity
  8
1
100
AcDbDimension
  2
*D113
 10
667.6357089860544
 20
309.5263418868059
 30
0.0
 11
658.0107089860544
 21
332.5995674326875
 31
0.0
 70
     1
  1
<>
 71
     5
 42
0.0
 53
90.0
  3
ME10_DIM_1
100
AcDbAlignedDimension
 13
622.1357089860544
 23
355.5263418868058
 33
0.0
 14
622.1357089860544
 24
309.5263418868058
 34
0.0
  0
DIMENSION
  5
291
330
1F
100
AcDbEntity
  8
0
100
AcDbDimension
  2
*D214
 10
449.913048406418
 20
332.5263418868059
 30
0.0
 11
440.288048406418
 21
364.1363105623861
 31
0.0
  1
58リフト5
 71
     5
 42
0.0
 53
90.0
  3
ME10_DIM_2
100
AcDbAlignedDimension
 13
577.1357089860545
 23
390.0263418868059
 33
0.0
 14
527.3404427138651
 24
332.5263418868058
 34
0.0
 50
90.0
100
AcDbRotatedDimension
  0
DIMENSION
  5
29C
330
1F
100
AcDbEntity
  8
1
100
AcDbDimension
  2
*D315
 10
219.1553205672589
 20
178.5263418868058
 30
0.0
 11
380.3672762964343
 21
188.1513418868058
 31
0.0
  1
最大323
 71
     5
 42
0.0
 53
0.00013888888889
  3
ME10_DIM_3
100
AcDbAlignedDimension
 13
542.1357089860545
 23
298.0263418868058
 33
0.0
 14
219.1553205672588
 24
233.0263418868056
 34
0.0
100
AcDbRotatedDimension
  0
DIMENSION
  5
2A7
330
1F
100
AcDbEntity
  8
1
100
AcDbDimension
  2
*D416
 10
577.1357089860546
 20
178.5263418868058
 30
0.0
 11
600.587010093923
 21
188.1513418868058
 31
0.0
  1
<>
 71
     5
 42
0.0
 53
0.00013888888889
  3
ME10_DIM_4
100
AcDbAlignedDimension
 13
622.1357089860544
 23
309.5263418868058
 33
0.0
 14
577.1357089860545
 24
316.8750569368418
 34
0.0
100
AcDbRotatedDimension
  0
DIMENSION
  5
2B4
330
1F
100
AcDbEntity
  8
1
100
AcDbDimension
  2
*D517
 10
622.1357089860546
 20
178.5263418868058
 30
0.0
 11
659.392479922161
 21
188.1513418868058
 31
0.0
  1
<>
 71
     5
 42
0.0
 53
0.00013888888889
  3
ME10_DIM_5
100
AcDbAlignedDimension
 13
636.1357089860544
 23
323.0263418868059
 33
0.0
 14
622.1357089860544
 24
309.5263418868058
 34
0.0
100
AcDbRotatedDimension
  0
DIMENSION
  5
2BF
330
1F
100
AcDbEntity
  8
1
100
AcDbDimension
  2
*D618
 10
449.913048406418
 20
236.0267456566591
 30
0.0
 11
440.288048406418
 21
301.9909856168032
 31
0.0
  1
97
 71
     5
 42
0.0
 53
90.0
  3
ME10_DIM_6
100
AcDbAlignedDimension
 13
527.3404427138651
 23
332.5263418868058
 33
0.0
 14
347.8528295096969
 24
236.026745656659
 34
0.0
 50
90.0
100
AcDbRotatedDimension
  0
DIMENSION
  5
2CA
330
1F
100
AcDbEntity
  8
1
100
AcDbDimension
  2
*D719
 10
542.1357089860546
 20
178.5263418868058
 30
0.0
 11
559.6357089860544
 21
188.1513418868058
 31
0.0
  1
<>
 71
     5
 42
0.0
 53
0.00013888888889
  3
ME10_DIM_7
100
AcDbAlignedDimension
 13
577.1357089860545
 23
316.8750569368418
 33
0.0
 14
542.1357089860545
 24
298.0263418868058
 34
0.0
100
AcDbRotatedDimension
  0
ENDSEC
  0
SECTION
  2
OBJECTS
  0
DICTIONARY
  5
C
330
0
100
AcDbDictionary
281
     1
  3
ACAD_GROUP
350
D
  3
ACAD_LAYOUT
350
1A
  3
ACAD_MLINESTYLE
350
17
  3
ACAD_PLOTSETTINGS
350
19
  3
ACAD_PLOTSTYLENAME
350
E
  3
ACAD_TABLESTYLE
350
2A
  3
AcDbVariableDictionary
350
2C
  0
DICTIONARY
  5
D
102
{ACAD_REACTORS
330
C
102
}
330
C
100
AcDbDictionary
281
     1
  0
DICTIONARY
  5
1A
102
{ACAD_REACTORS
330
C
102
}
330
C
100
AcDbDictionary
281
     1
  3
Layout1
350
1E
  3
Layout2
350
26
  3
Model
350
22
  0
DICTIONARY
  5
17
102
{ACAD_REACTORS
330
C
102
}
330
C
100
AcDbDictionary
281
     1
  3
Standard
350
18
  0
DICTIONARY
  5
19
102
{ACAD_REACTORS
330
C
102
}
330
C
100
AcDbDictionary
281
     1
  0
ACDBDICTIONARYWDFLT
  5
E
102
{ACAD_REACTORS
330
C
102
}
330
C
100
AcDbDictionary
281
     1
  3
Normal
350
F
100
AcDbDictionaryWithDefault
340
F
  0
DICTIONARY
  5
2A
102
{ACAD_REACTORS
330
C
102
}
330
C
100
AcDbDictionary
281
     1
  3
Standard
350
2B
  0
DICTIONARY
  5
2C
102
{ACAD_REACTORS
330
C
102
}
330
C
100
AcDbDictionary
281
     1
  3
CTABLESTYLE
350
2D
  0
LAYOUT
  5
1E
102
{ACAD_REACTORS
330
1A
102
}
330
1A
100
AcDbPlotSettings
  1

  2

  4

  6

 40
0.0
 41
0.0
 42
0.0
 43
0.0
 44
0.0
 45
0.0
 46
0.0
 47
0.0
 48
0.0
 49
0.0
140
0.0
141
0.0
142
1.0
143
1.0
 70
   688
 72
     0
 73
     0
 74
     5
  7

 75
    16
147
1.0
148
0.0
149
0.0
100
AcDbLayout
  1
Layout1
 70
     1
 71
     1
 10
0.0
 20
0.0
 11
12.0
 21
9.0
 12
0.0
 22
0.0
 32
0.0
 14
1.00000000000000E+20
 24
1.00000000000000E+20
 34
1.00000000000000E+20
 15
-1.00000000000000E+20
 25
-1.00000000000000E+20
 35
-1.00000000000000E+20
146
0.0
 13
0.0
 23
0.0
 33
0.0
 16
1.0
 26
0.0
 36
0.0
 17
0.0
 27
1.0
 37
0.0
 76
     0
330
1B
  0
LAYOUT
  5
26
102
{ACAD_REACTORS
330
1A
102
}
330
1A
100
AcDbPlotSettings
  1

  2

  4

  6

 40
0.0
 41
0.0
 42
0.0
 43
0.0
 44
0.0
 45
0.0
 46
0.0
 47
0.0
 48
0.0
 49
0.0
140
0.0
141
0.0
142
1.0
143
1.0
 70
   688
 72
     0
 73
     0
 74
     5
  7

 75
    16
147
1.0
148
0.0
149
0.0
100
AcDbLayout
  1
Layout2
 70
     1
 71
     2
 10
0.0
 20
0.0
 11
0.0
 21
0.0
 12
0.0
 22
0.0
 32
0.0
 14
0.0
 24
0.0
 34
0.0
 15
0.0
 25
0.0
 35
0.0
146
0.0
 13
0.0
 23
0.0
 33
0.0
 16
1.0
 26
0.0
 36
0.0
 17
0.0
 27
1.0
 37
0.0
 76
     0
330
23
  0
LAYOUT
  5
22
102
{ACAD_REACTORS
330
1A
102
}
330
1A
100
AcDbPlotSettings
  1

  2

  4

  6

 40
0.0
 41
0.0
 42
0.0
 43
0.0
 44
0.0
 45
0.0
 46
0.0
 47
0.0
 48
0.0
 49
0.0
140
0.0
141
0.0
142
1.0
143
1.0
 70
  1712
 72
     0
 73
     0
 74
     0
  7

 75
     0
147
1.0
148
0.0
149
0.0
100
AcDbLayout
  1
Model
 70
     1
 71
     0
 10
0.0
 20
0.0
 11
0.0
 21
0.0
 12
0.0
 22
0.0
 32
0.0
 14
0.0
 24
0.0
 34
0.0
 15
735.0
 25
1039.5
 35
0.0
146
0.0
 13
0.0
 23
0.0
 33
0.0
 16
1.0
 26
0.0
 36
0.0
 17
0.0
 27
1.0
 37
0.0
 76
     0
330
1F
  0
MLINESTYLE
  5
18
102
{ACAD_REACTORS
330
17
102
}
330
17
100
AcDbMlineStyle
  2
Standard
 70
     0
  3

 62
   256
 51
90.0
 52
90.0
 71
     2
 49
0.5
 62
   256
  6
BYLAYER
 49
-0.5
 62
   256
  6
BYLAYER
  0
ACDBPLACEHOLDER
  5
F
102
{ACAD_REACTORS
330
E
102
}
330
E
  0
TABLESTYLE
  5
2B
102
{ACAD_REACTORS
330
2A
102
}
330
2A
100
AcDbTableStyle
  3
Standard
 70
     0
 71
     0
 40
0.06
 41
0.06
280
     0
281
     0
  7
Standard
140
0.18
170
     2
 62
     0
 63
     7
283
     0
274
    -2
284
     1
 64
     0
275
    -2
285
     1
 65
     0
276
    -2
286
     1
 66
     0
277
    -2
287
     1
 67
     0
278
    -2
288
     1
 68
     0
279
    -2
289
     1
 69
     0
  7
Standard
140
0.25
170
     5
 62
     0
 63
     7
283
     0
274
    -2
284
     1
 64
     0
275
    -2
285
     1
 65
     0
276
    -2
286
     1
 66
     0
277
    -2
287
     1
 67
     0
278
    -2
288
     1
 68
     0
279
    -2
289
     1
 69
     0
  7
Standard
140
0.18
170
     5
 62
     0
 63
     7
283
     0
274
    -2
284
     1
 64
     0
275
    -2
285
     1
 65
     0
276
    -2
286
     1
 66
     0
277
    -2
287
     1
 67
     0
278
    -2
288
     1
 68
     0
279
    -2
289
     1
 69
     0
  0
DICTIONARYVAR
  5
2D
102
{ACAD_REACTORS
330
2C
102
}
330
2C
100
DictionaryVariables
280
     0
  1
Standard
  0
ENDSEC
  0
EOF
