  0
SECTION
  2
HEADER
  9
$ACADVER
  1
AC1015
  9
$ACADMAINTVER
 70
     6
  9
$DWGCODEPAGE
  3
DOS932
  9
$INSBASE
 10
0.0
 20
0.0
 30
0.0
  9
$EXTMIN
 10
0.0
 20
0.0
 30
0.0
  9
$EXTMAX
 10
630.0
 20
891.0
 30
0.0
  9
$LIMMIN
 10
0.0
 20
0.0
  9
$LIMMAX
 10
12.0
 20
9.0
  9
$ORTHOMODE
 70
     0
  9
$REGENMODE
 70
     1
  9
$FILLMODE
 70
     1
  9
$QTEXTMODE
 70
     0
  9
$MIRRTEXT
 70
     1
  9
$LTSCALE
 40
1.0
  9
$ATTMODE
 70
     1
  9
$TEXTSIZE
 40
0.2
  9
$TRACEWID
 40
0.05
  9
$TEXTSTYLE
  7
Standard
  9
$CLAYER
  8
0
  9
$CELTYPE
  6
ByLayer
  9
$CECOLOR
 62
   256
  9
$CELTSCALE
 40
1.0
  9
$DISPSILH
 70
     0
  9
$DIMSCALE
 40
1.0
  9
$DIMASZ
 40
0.18
  9
$DIMEXO
 40
0.0625
  9
$DIMDLI
 40
0.38
  9
$DIMRND
 40
0.0
  9
$DIMDLE
 40
0.0
  9
$DIMEXE
 40
0.18
  9
$DIMTP
 40
0.0
  9
$DIMTM
 40
0.0
  9
$DIMTXT
 40
0.18
  9
$DIMCEN
 40
0.09
  9
$DIMTSZ
 40
0.0
  9
$DIMTOL
 70
     0
  9
$DIMLIM
 70
     0
  9
$DIMTIH
 70
     1
  9
$DIMTOH
 70
     1
  9
$DIMSE1
 70
     0
  9
$DIMSE2
 70
     0
  9
$DIMTAD
 70
     0
  9
$DIMZIN
 70
     0
  9
$DIMBLK
  1

  9
$DIMASO
 70
     1
  9
$DIMSHO
 70
     1
  9
$DIMPOST
  1

  9
$DIMAPOST
  1

  9
$DIMALT
 70
     0
  9
$DIMALTD
 70
     2
  9
$DIMALTF
 40
25.4
  9
$DIMLFAC
 40
1.0
  9
$DIMTOFL
 70
     0
  9
$DIMTVP
 40
0.0
  9
$DIMTIX
 70
     0
  9
$DIMSOXD
 70
     0
  9
$DIMSAH
 70
     0
  9
$DIMBLK1
  1

  9
$DIMBLK2
  1

  9
$DIMSTYLE
  2
Standard
  9
$DIMCLRD
 70
     0
  9
$DIMCLRE
 70
     0
  9
$DIMCLRT
 70
     0
  9
$DIMTFAC
 40
1.0
  9
$DIMGAP
 40
0.09
  9
$DIMJUST
 70
     0
  9
$DIMSD1
 70
     0
  9
$DIMSD2
 70
     0
  9
$DIMTOLJ
 70
     1
  9
$DIMTZIN
 70
     0
  9
$DIMALTZ
 70
     0
  9
$DIMALTTZ
 70
     0
  9
$DIMUPT
 70
     0
  9
$DIMDEC
 70
     4
  9
$DIMTDEC
 70
     4
  9
$DIMALTU
 70
     2
  9
$DIMALTTD
 70
     2
  9
$DIMTXSTY
  7
Standard
  9
$DIMAUNIT
 70
     0
  9
$DIMADEC
 70
     0
  9
$DIMALTRND
 40
0.0
  9
$DIMAZIN
 70
     0
  9
$DIMDSEP
 70
    46
  9
$DIMATFIT
 70
     3
  9
$DIMFRAC
 70
     0
  9
$DIMLDRBLK
  1

  9
$DIMLUNIT
 70
     2
  9
$DIMLWD
 70
    -2
  9
$DIMLWE
 70
    -2
  9
$DIMTMOVE
 70
     0
  9
$LUNITS
 70
     2
  9
$LUPREC
 70
     4
  9
$SKETCHINC
 40
0.1
  9
$FILLETRAD
 40
0.5
  9
$AUNITS
 70
     0
  9
$AUPREC
 70
     0
  9
$MENU
  1
.
  9
$ELEVATION
 40
0.0
  9
$PELEVATION
 40
0.0
  9
$THICKNESS
 40
0.0
  9
$LIMCHECK
 70
     0
  9
$CHAMFERA
 40
0.5
  9
$CHAMFERB
 40
0.5
  9
$CHAMFERC
 40
1.0
  9
$CHAMFERD
 40
0.0
  9
$SKPOLY
 70
     0
  9
$TDCREATE
 40
2456141.491883681
  9
$TDUCREATE
 40
2456141.116883681
  9
$TDUPDATE
 40
2456141.491883692
  9
$TDUUPDATE
 40
2456141.116883692
  9
$TDINDWG
 40
0.0000000116
  9
$TDUSRTIMER
 40
0.0000000116
  9
$USRTIMER
 70
     1
  9
$ANGBASE
 50
0.0
  9
$ANGDIR
 70
     0
  9
$PDMODE
 70
     0
  9
$PDSIZE
 40
0.0
  9
$PLINEWID
 40
0.0
  9
$SPLFRAME
 70
     0
  9
$SPLINETYPE
 70
     6
  9
$SPLINESEGS
 70
     8
  9
$HANDSEED
  5
299
  9
$SURFTAB1
 70
     6
  9
$SURFTAB2
 70
     6
  9
$SURFTYPE
 70
     6
  9
$SURFU
 70
     6
  9
$SURFV
 70
     6
  9
$UCSBASE
  2

  9
$UCSNAME
  2

  9
$UCSORG
 10
0.0
 20
0.0
 30
0.0
  9
$UCSXDIR
 10
1.0
 20
0.0
 30
0.0
  9
$UCSYDIR
 10
0.0
 20
1.0
 30
0.0
  9
$UCSORTHOREF
  2

  9
$UCSORTHOVIEW
 70
     0
  9
$UCSORGTOP
 10
0.0
 20
0.0
 30
0.0
  9
$UCSORGBOTTOM
 10
0.0
 20
0.0
 30
0.0
  9
$UCSORGLEFT
 10
0.0
 20
0.0
 30
0.0
  9
$UCSORGRIGHT
 10
0.0
 20
0.0
 30
0.0
  9
$UCSORGFRONT
 10
0.0
 20
0.0
 30
0.0
  9
$UCSORGBACK
 10
0.0
 20
0.0
 30
0.0
  9
$PUCSBASE
  2

  9
$PUCSNAME
  2

  9
$PUCSORG
 10
0.0
 20
0.0
 30
0.0
  9
$PUCSXDIR
 10
1.0
 20
0.0
 30
0.0
  9
$PUCSYDIR
 10
0.0
 20
1.0
 30
0.0
  9
$PUCSORTHOREF
  2

  9
$PUCSORTHOVIEW
 70
     0
  9
$PUCSORGTOP
 10
0.0
 20
0.0
 30
0.0
  9
$PUCSORGBOTTOM
 10
0.0
 20
0.0
 30
0.0
  9
$PUCSORGLEFT
 10
0.0
 20
0.0
 30
0.0
  9
$PUCSORGRIGHT
 10
0.0
 20
0.0
 30
0.0
  9
$PUCSORGFRONT
 10
0.0
 20
0.0
 30
0.0
  9
$PUCSORGBACK
 10
0.0
 20
0.0
 30
0.0
  9
$USERI1
 70
     0
  9
$USERI2
 70
     0
  9
$USERI3
 70
     0
  9
$USERI4
 70
     0
  9
$USERI5
 70
     0
  9
$USERR1
 40
13.2
  9
$USERR2
 40
0.0
  9
$USERR3
 40
0.0
  9
$USERR4
 40
0.0
  9
$USERR5
 40
0.0
  9
$WORLDVIEW
 70
     1
  9
$SHADEDGE
 70
     3
  9
$SHADEDIF
 70
    70
  9
$TILEMODE
 70
     1
  9
$MAXACTVP
 70
    64
  9
$PINSBASE
 10
0.0
 20
0.0
 30
0.0
  9
$PLIMCHECK
 70
     0
  9
$PEXTMIN
 10
1.00000000000000E+20
 20
1.00000000000000E+20
 30
1.00000000000000E+20
  9
$PEXTMAX
 10
-1.00000000000000E+20
 20
-1.00000000000000E+20
 30
-1.00000000000000E+20
  9
$PLIMMIN
 10
0.0
 20
0.0
  9
$PLIMMAX
 10
12.0
 20
9.0
  9
$UNITMODE
 70
     0
  9
$VISRETAIN
 70
     1
  9
$PLINEGEN
 70
     0
  9
$PSLTSCALE
 70
     1
  9
$TREEDEPTH
 70
  3020
  9
$CMLSTYLE
  2
Standard
  9
$CMLJUST
 70
     0
  9
$CMLSCALE
 40
1.0
  9
$PROXYGRAPHICS
 70
     1
  9
$MEASUREMENT
 70
     1
  9
$CELWEIGHT
370
    -1
  9
$ENDCAPS
280
     0
  9
$JOINSTYLE
280
     0
  9
$LWDISPLAY
290
     0
  9
$INSUNITS
 70
     1
  9
$HYPERLINKBASE
  1

  9
$STYLESHEET
  1

  9
$XEDIT
290
     1
  9
$CEPSNTYPE
380
     0
  9
$PSTYLEMODE
290
     0
  9
$FINGERPRINTGUID
  2
{FAEB1C30-E019-11D5-929B-00C0DF256EC4}
  9
$VERSIONGUID
  2
{FAEB1C32-E019-11D5-929B-00C0DF256EC4}
  9
$EXTNAMES
290
     1
  9
$PSVPSCALE
 40
0.0
  9
$OLESTARTUP
290
     0
  0
ENDSEC
  0
SECTION
  2
CLASSES
  0
CLASS
  1
ACDBDICTIONARYWDFLT
  2
AcDbDictionaryWithDefault
  3
ObjectDBX Classes
 90
        0
280
     0
281
     0
  0
CLASS
  1
TABLESTYLE
  2
AcDbTableStyle
  3
ObjectDBX Classes
 90
     2047
280
     0
281
     0
  0
CLASS
  1
DICTIONARYVAR
  2
AcDbDictionaryVar
  3
ObjectDBX Classes
 90
        0
280
     0
281
     0
  0
CLASS
  1

  2
exOdDbCircle
  3

 90
        0
280
     0
281
     1
  0
CLASS
  1

  2
exOdDbSpline
  3

 90
        0
280
     0
281
     1
  0
CLASS
  1
ACDBPLACEHOLDER
  2
AcDbPlaceHolder
  3
ObjectDBX Classes
 90
        0
280
     0
281
     0
  0
CLASS
  1
LAYOUT
  2
AcDbLayout
  3
ObjectDBX Classes
 90
        0
280
     0
281
     0
  0
ENDSEC
  0
SECTION
  2
TABLES
  0
TABLE
  2
VPORT
  5
8
330
0
100
AcDbSymbolTable
 70
     2
  0
VPORT
  5
29
330
8
100
AcDbSymbolTableRecord
100
AcDbViewportTableRecord
  2
*Active
 70
     0
 10
0.0
 20
0.0
 11
1.0
 21
1.0
 12
315.0
 22
445.5
 13
0.0
 23
0.0
 14
0.5
 24
0.5
 15
0.5
 25
0.5
 16
0.0
 26
0.0
 36
1.0
 17
0.0
 27
0.0
 37
0.0
 40
980.1
 41
1.60267857142857
 42
50.0
 43
0.0
 44
0.0
 50
0.0
 51
0.0
 71
     0
 72
   100
 73
     1
 74
     3
 75
     0
 76
     0
 77
     0
 78
     0
281
     0
 65
     1
110
0.0
120
0.0
130
0.0
111
1.0
121
0.0
131
0.0
112
0.0
122
1.0
132
0.0
 79
     0
146
0.0
  0
ENDTAB
  0
TABLE
  2
LTYPE
  5
5
330
0
100
AcDbSymbolTable
 70
     8
  0
LTYPE
  5
14
330
5
100
AcDbSymbolTableRecord
100
AcDbLinetypeTableRecord
  2
ByBlock
 70
     0
  3

 72
    65
 73
     0
 40
0.0
  0
LTYPE
  5
15
330
5
100
AcDbSymbolTableRecord
100
AcDbLinetypeTableRecord
  2
ByLayer
 70
     0
  3

 72
    65
 73
     0
 40
0.0
  0
LTYPE
  5
16
330
5
100
AcDbSymbolTableRecord
100
AcDbLinetypeTableRecord
  2
Continuous
 70
     0
  3
Solid line
 72
    65
 73
     0
 40
0.0
  0
LTYPE
  5
2E
330
5
100
AcDbSymbolTableRecord
100
AcDbLinetypeTableRecord
  2
DASHED
 70
     0
  3
Dashed
 72
    65
 73
     2
 40
15.0
 49
7.0
 74
     0
 49
-8.0
 74
     0
  0
LTYPE
  5
2F
330
5
100
AcDbSymbolTableRecord
100
AcDbLinetypeTableRecord
  2
DOTTED
 70
     0
  3
Dotted
 72
    65
 73
     2
 40
1.0
 49
0.0
 74
     0
 49
-1.0
 74
     0
  0
LTYPE
  5
30
330
5
100
AcDbSymbolTableRecord
100
AcDbLinetypeTableRecord
  2
DOT_CENTER
 70
     0
  3
Dot_Center
 72
    65
 73
     4
 40
14.0
 49
12.0
 74
     0
 49
-1.0
 74
     0
 49
0.0
 74
     0
 49
-1.0
 74
     0
  0
LTYPE
  5
31
330
5
100
AcDbSymbolTableRecord
100
AcDbLinetypeTableRecord
  2
LONG_DASHED
 70
     0
  3
Long_Dashed
 72
    65
 73
     2
 40
15.0
 49
10.0
 74
     0
 49
-5.0
 74
     0
  0
LTYPE
  5
32
330
5
100
AcDbSymbolTableRecord
100
AcDbLinetypeTableRecord
  2
DASH_CENTER
 70
     0
  3
Dash_Center
 72
    65
 73
     4
 40
14.0
 49
11.0
 74
     0
 49
-1.0
 74
     0
 49
1.0
 74
     0
 49
-1.0
 74
     0
  0
LTYPE
  5
33
330
5
100
AcDbSymbolTableRecord
100
AcDbLinetypeTableRecord
  2
PHANTOM
 70
     0
  3
Phantom
 72
    65
 73
     6
 40
13.0
 49
10.0
 74
     0
 49
-1.0
 74
     0
 49
0.0
 74
     0
 49
-1.0
 74
     0
 49
0.0
 74
     0
 49
-1.0
 74
     0
  0
LTYPE
  5
34
330
5
100
AcDbSymbolTableRecord
100
AcDbLinetypeTableRecord
  2
CENTER_DASH_DASH
 70
     0
  3
Center_Dash_Dash
 72
    65
 73
     6
 40
14.0
 49
9.0
 74
     0
 49
-1.0
 74
     0
 49
1.0
 74
     0
 49
-1.0
 74
     0
 49
1.0
 74
     0
 49
-1.0
 74
     0
  0
ENDTAB
  0
TABLE
  2
LAYER
  5
2
330
0
100
AcDbSymbolTable
 70
     2
  0
LAYER
  5
10
330
2
100
AcDbSymbolTableRecord
100
AcDbLayerTableRecord
  2
0
 70
     0
 62
     7
  6
Continuous
370
    -3
390
F
  0
LAYER
  5
35
330
2
100
AcDbSymbolTableRecord
100
AcDbLayerTableRecord
  2
1
 70
     0
 62
     7
  6
Continuous
370
    -3
390
F
  0
ENDTAB
  0
TABLE
  2
STYLE
  5
3
330
0
100
AcDbSymbolTable
 70
     4
  0
STYLE
  5
11
330
3
100
AcDbSymbolTableRecord
100
AcDbTextStyleTableRecord
  2
Standard
 70
     0
 40
0.0
 41
1.0
 50
0.0
 71
     0
 42
0.2
  3
txt
  4

  0
STYLE
  5
AD
330
3
100
AcDbSymbolTableRecord
100
AcDbTextStyleTableRecord
  2
CONVERTER_1
 70
     0
 40
0.0
 41
0.89
 50
0.0
 71
     0
 42
0.2
  3
msmincho.ttc
  4

1001
ACAD
1000
MS Mincho
1071
    32785
  0
STYLE
  5
229
330
3
100
AcDbSymbolTableRecord
100
AcDbTextStyleTableRecord
  2
CONVERTER_2
 70
     0
 40
0.0
 41
0.9
 50
0.0
 71
     0
 42
0.2
  3
txt.shx
  4

  0
STYLE
  5
245
330
3
100
AcDbSymbolTableRecord
100
AcDbTextStyleTableRecord
  2
CONVERTER_3
 70
     0
 40
0.0
 41
0.801
 50
0.0
 71
     0
 42
0.2
  3
msmincho.ttc
  4

1001
ACAD
1000
MS Mincho
1071
    32785
  0
ENDTAB
  0
TABLE
  2
VIEW
  5
6
330
0
100
AcDbSymbolTable
 70
     0
  0
ENDTAB
  0
TABLE
  2
UCS
  5
7
330
0
100
AcDbSymbolTable
 70
     0
  0
ENDTAB
  0
TABLE
  2
APPID
  5
9
330
0
100
AcDbSymbolTable
 70
     1
  0
APPID
  5
12
330
9
100
AcDbSymbolTableRecord
100
AcDbRegAppTableRecord
  2
ACAD
 70
     0
  0
ENDTAB
  0
TABLE
  2
DIMSTYLE
  5
A
330
0
100
AcDbSymbolTable
 70
    10
100
AcDbDimStyleTable
  0
DIMSTYLE
105
27
330
A
100
AcDbSymbolTableRecord
100
AcDbDimStyleTableRecord
  2
Standard
 70
     0
340
11
  0
DIMSTYLE
105
23C
102
{ACAD_REACTORS
330
23D
102
}
330
A
100
AcDbSymbolTableRecord
100
AcDbDimStyleTableRecord
  2
ME10_DIM_0
 70
     0
 41
10.5
 42
0.0
 44
3.0
 73
     0
 74
     0
 77
     1
 78
     8
140
10.5
147
0.625
172
     1
173
     1
176
     2
177
     2
178
     7
271
     2
340
229
344
239
  0
DIMSTYLE
105
249
102
{ACAD_REACTORS
330
24A
102
}
330
A
100
AcDbSymbolTableRecord
100
AcDbDimStyleTableRecord
  2
ME10_DIM_1
 70
     0
 41
10.5
 42
0.0
 44
3.0
 73
     0
 74
     0
 77
     1
 78
     8
140
10.5
147
0.625
172
     1
173
     1
176
     2
177
     2
178
     7
271
     1
340
245
  0
DIMSTYLE
105
254
102
{ACAD_REACTORS
330
255
102
}
330
A
100
AcDbSymbolTableRecord
100
AcDbDimStyleTableRecord
  2
ME10_DIM_2
 70
     0
  3
{\Fgdt;n}<>
 41
10.5
 42
0.0
 44
3.0
 73
     0
 74
     0
 77
     1
 78
     8
140
10.5
147
0.625
172
     1
173
     1
176
     2
177
     2
178
     7
271
     2
340
229
  0
DIMSTYLE
105
25F
102
{ACAD_REACTORS
330
260
102
}
330
A
100
AcDbSymbolTableRecord
100
AcDbDimStyleTableRecord
  2
ME10_DIM_3
 70
     0
 41
10.5
 42
0.0
 44
3.0
 73
     0
 74
     0
 77
     1
 78
     8
140
10.5
147
0.625
172
     1
173
     1
176
     2
177
     2
178
     7
271
     2
340
229
  0
DIMSTYLE
105
26A
102
{ACAD_REACTORS
330
26B
102
}
330
A
100
AcDbSymbolTableRecord
100
AcDbDimStyleTableRecord
  2
ME10_DIM_4
 70
     0
 41
10.5
 42
0.0
 44
3.0
 73
     0
 74
     0
 77
     1
 78
     8
140
10.5
147
0.625
172
     1
173
     1
176
     2
177
     2
178
     7
271
     2
340
229
  0
DIMSTYLE
105
275
102
{ACAD_REACTORS
330
276
102
}
330
A
100
AcDbSymbolTableRecord
100
AcDbDimStyleTableRecord
  2
ME10_DIM_5
 70
     0
 41
10.5
 42
0.0
 44
3.0
 73
     0
 74
     0
 77
     1
 78
     8
140
10.5
147
0.625
172
     1
173
     1
176
     2
177
     2
178
     7
271
     2
340
229
  0
DIMSTYLE
105
280
102
{ACAD_REACTORS
330
281
102
}
330
A
100
AcDbSymbolTableRecord
100
AcDbDimStyleTableRecord
  2
ME10_DIM_6
 70
     0
 41
10.5
 42
0.0
 44
3.0
 73
     0
 74
     0
 77
     1
 78
     8
140
10.5
147
0.625
172
     1
173
     1
176
     2
177
     2
178
     7
271
     2
340
229
  0
DIMSTYLE
105
28B
102
{ACAD_REACTORS
330
28C
102
}
330
A
100
AcDbSymbolTableRecord
100
AcDbDimStyleTableRecord
  2
ME10_DIM_7
 70
     0
 41
10.5
 42
0.0
 44
3.0
 73
     0
 74
     0
 77
     1
 78
     8
140
10.5
147
0.625
172
     1
173
     1
176
     2
177
     2
178
     7
271
     2
340
229
  0
DIMSTYLE
105
297
102
{ACAD_REACTORS
330
298
102
}
330
A
100
AcDbSymbolTableRecord
100
AcDbDimStyleTableRecord
  2
ME10_DIM_8
 70
     0
 41
10.5
 42
0.0
 44
3.0
 73
     0
 74
     0
 77
     1
 78
     8
140
10.5
147
0.625
172
     1
173
     1
176
     2
177
     2
178
     7
271
     2
340
229
  0
ENDTAB
  0
TABLE
  2
BLOCK_RECORD
  5
1
330
0
100
AcDbSymbolTable
 70
    22
  0
BLOCK_RECORD
  5
1F
330
1
100
AcDbSymbolTableRecord
100
AcDbBlockTableRecord
  2
*Model_Space
340
22
  0
BLOCK_RECORD
  5
1B
330
1
100
AcDbSymbolTableRecord
100
AcDbBlockTableRecord
  2
*Paper_Space
340
1E
  0
BLOCK_RECORD
  5
23
330
1
100
AcDbSymbolTableRecord
100
AcDbBlockTableRecord
  2
*Paper_Space0
340
26
  0
BLOCK_RECORD
  5
36
330
1
100
AcDbSymbolTableRecord
100
AcDbBlockTableRecord
  2
_J__A4
340
0
102
{BLKREFS
331
5E
102
}
  0
BLOCK_RECORD
  5
39
330
1
100
AcDbSymbolTableRecord
100
AcDbBlockTableRecord
  2
42-1
340
0
102
{BLKREFS
331
49
102
}
  0
BLOCK_RECORD
  5
3C
330
1
100
AcDbSymbolTableRecord
100
AcDbBlockTableRecord
  2
21-1A
340
0
102
{BLKREFS
331
4A
102
}
  0
BLOCK_RECORD
  5
3F
330
1
100
AcDbSymbolTableRecord
100
AcDbBlockTableRecord
  2
36-1A-13-M4
340
0
102
{BLKREFS
331
4B
102
}
  0
BLOCK_RECORD
  5
42
330
1
100
AcDbSymbolTableRecord
100
AcDbBlockTableRecord
  2
37-1-13
340
0
102
{BLKREFS
331
4C
102
}
  0
BLOCK_RECORD
  5
45
330
1
100
AcDbSymbolTableRecord
100
AcDbBlockTableRecord
  2
R20F
340
0
102
{BLKREFS
331
4D
102
}
  0
BLOCK_RECORD
  5
48
330
1
100
AcDbSymbolTableRecord
100
AcDbBlockTableRecord
  2
R10A-13
340
0
102
{BLKREFS
331
5F
102
}
  0
BLOCK_RECORD
  5
50
330
1
100
AcDbSymbolTableRecord
100
AcDbBlockTableRecord
  2
32-1-16
340
0
102
{BLKREFS
331
57
102
}
  0
BLOCK_RECORD
  5
53
330
1
100
AcDbSymbolTableRecord
100
AcDbBlockTableRecord
  2
60-5X
340
0
102
{BLKREFS
331
58
102
}
  0
BLOCK_RECORD
  5
56
330
1
100
AcDbSymbolTableRecord
100
AcDbBlockTableRecord
  2
A16J-60X
340
0
102
{BLKREFS
331
60
102
}
  0
BLOCK_RECORD
  5
5B
330
1
100
AcDbSymbolTableRecord
100
AcDbBlockTableRecord
  2
A10-0A-13
340
0
102
{BLKREFS
331
61
102
}
  0
BLOCK_RECORD
  5
230
330
1
100
AcDbSymbolTableRecord
100
AcDbBlockTableRecord
  2
*D012
340
0
  0
BLOCK_RECORD
  5
239
330
1
100
AcDbSymbolTableRecord
100
AcDbBlockTableRecord
  2
_None
340
0
  0
BLOCK_RECORD
  5
23E
330
1
100
AcDbSymbolTableRecord
100
AcDbBlockTableRecord
  2
*D114
340
0
  0
BLOCK_RECORD
  5
24B
330
1
100
AcDbSymbolTableRecord
100
AcDbBlockTableRecord
  2
*D215
340
0
  0
BLOCK_RECORD
  5
256
330
1
100
AcDbSymbolTableRecord
100
AcDbBlockTableRecord
  2
*D316
340
0
  0
BLOCK_RECORD
  5
261
330
1
100
AcDbSymbolTableRecord
100
AcDbBlockTableRecord
  2
*D417
340
0
  0
BLOCK_RECORD
  5
26C
330
1
100
AcDbSymbolTableRecord
100
AcDbBlockTableRecord
  2
*D518
340
0
  0
BLOCK_RECORD
  5
277
330
1
100
AcDbSymbolTableRecord
100
AcDbBlockTableRecord
  2
*D619
340
0
  0
BLOCK_RECORD
  5
282
330
1
100
AcDbSymbolTableRecord
100
AcDbBlockTableRecord
  2
*D720
340
0
  0
BLOCK_RECORD
  5
28D
330
1
100
AcDbSymbolTableRecord
100
AcDbBlockTableRecord
  2
*D821
340
0
  0
ENDTAB
  0
ENDSEC
  0
SECTION
  2
BLOCKS
  0
BLOCK
  5
20
330
1F
100
AcDbEntity
  8
0
100
AcDbBlockBegin
  2
*Model_Space
 70
     0
 71
     0
 10
0.0
 20
0.0
 30
0.0
  3
*Model_Space
  1

  0
ENDBLK
  5
21
330
1F
100
AcDbEntity
  8
0
100
AcDbBlockEnd
  0
BLOCK
  5
1C
330
1B
100
AcDbEntity
 67
     1
  8
0
100
AcDbBlockBegin
  2
*Paper_Space
 70
     0
 71
     0
 10
0.0
 20
0.0
 30
0.0
  3
*Paper_Space
  1

  0
ENDBLK
  5
1D
330
1B
100
AcDbEntity
 67
     1
  8
0
100
AcDbBlockEnd
  0
BLOCK
  5
24
330
23
100
AcDbEntity
  8
0
100
AcDbBlockBegin
  2
*Paper_Space0
 70
     0
 71
     0
 10
0.0
 20
0.0
 30
0.0
  3
*Paper_Space0
  1

  0
ENDBLK
  5
25
330
23
100
AcDbEntity
  8
0
100
AcDbBlockEnd
  0
BLOCK
  5
37
330
36
100
AcDbEntity
  8
0
100
AcDbBlockBegin
  2
_J__A4
 70
     0
 71
     0
 10
0.0
 20
0.0
 30
0.0
  3
_J__A4
  1

  0
POINT
  5
62
330
36
100
AcDbEntity
  8
1
 62
     4
100
AcDbPoint
 10
34.0
 20
34.00000000000001
 30
0.0
  0
POINT
  5
63
330
36
100
AcDbEntity
  8
1
 62
     4
100
AcDbPoint
 10
57.0
 20
12.25
 30
0.0
  0
POINT
  5
64
330
36
100
AcDbEntity
  8
1
 62
     4
100
AcDbPoint
 10
57.0
 20
20.75000000000001
 30
0.0
  0
POINT
  5
65
330
36
100
AcDbEntity
  8
1
 62
     4
100
AcDbPoint
 10
57.0
 20
24.75000000000001
 30
0.0
  0
POINT
  5
66
330
36
100
AcDbEntity
  8
1
 62
     4
100
AcDbPoint
 10
57.0
 20
16.25
 30
0.0
  0
POINT
  5
67
330
36
100
AcDbEntity
  8
1
 62
     4
100
AcDbPoint
 10
157.5
 20
19.00000000000001
 30
0.0
  0
POINT
  5
68
330
36
100
AcDbEntity
  8
1
 62
     4
100
AcDbPoint
 10
47.5
 20
282.0000000000003
 30
0.0
  0
POINT
  5
69
330
36
100
AcDbEntity
  8
1
 62
     4
100
AcDbPoint
 10
57.0
 20
22.75000000000001
 30
0.0
  0
POINT
  5
6A
330
36
100
AcDbEntity
  8
1
 62
     4
100
AcDbPoint
 10
57.0
 20
14.25
 30
0.0
  0
POINT
  5
6B
330
36
100
AcDbEntity
  8
1
 62
     4
100
AcDbPoint
 10
157.5
 20
12.5
 30
0.0
  0
POINT
  5
6C
330
36
100
AcDbEntity
  8
1
 62
     4
100
AcDbPoint
 10
163.25
 20
12.5
 30
0.0
  0
POINT
  5
6D
330
36
100
AcDbEntity
  8
1
 62
     4
100
AcDbPoint
 10
151.75
 20
12.5
 30
0.0
  0
POINT
  5
6E
330
36
100
AcDbEntity
  8
1
 62
     4
100
AcDbPoint
 10
134.75
 20
12.5
 30
0.0
  0
POINT
  5
6F
330
36
100
AcDbEntity
  8
1
 62
     4
100
AcDbPoint
 10
146.25
 20
12.5
 30
0.0
  0
POINT
  5
70
330
36
100
AcDbEntity
  8
1
 62
     4
100
AcDbPoint
 10
140.5
 20
12.5
 30
0.0
  0
POINT
  5
71
330
36
100
AcDbEntity
  8
1
 62
     4
100
AcDbPoint
 10
140.5
 20
19.00000000000001
 30
0.0
  0
POINT
  5
72
330
36
100
AcDbEntity
  8
1
 62
     4
100
AcDbPoint
 10
117.75
 20
12.5
 30
0.0
  0
POINT
  5
73
330
36
100
AcDbEntity
  8
1
 62
     4
100
AcDbPoint
 10
129.25
 20
12.5
 30
0.0
  0
POINT
  5
74
330
36
100
AcDbEntity
  8
1
 62
     4
100
AcDbPoint
 10
123.5
 20
12.5
 30
0.0
  0
POINT
  5
75
330
36
100
AcDbEntity
  8
1
 62
     4
100
AcDbPoint
 10
123.5
 20
19.00000000000001
 30
0.0
  0
POINT
  5
76
330
36
100
AcDbEntity
  8
1
 62
     4
100
AcDbPoint
 10
100.75
 20
12.5
 30
0.0
  0
POINT
  5
77
330
36
100
AcDbEntity
  8
1
 62
     4
100
AcDbPoint
 10
112.25
 20
12.5
 30
0.0
  0
POINT
  5
78
330
36
100
AcDbEntity
  8
1
 62
     4
100
AcDbPoint
 10
106.5
 20
12.5
 30
0.0
  0
POINT
  5
79
330
36
100
AcDbEntity
  8
1
 62
     4
100
AcDbPoint
 10
106.5
 20
19.00000000000001
 30
0.0
  0
POINT
  5
7A
330
36
100
AcDbEntity
  8
1
 62
     4
100
AcDbPoint
 10
85.25
 20
17.0
 30
0.0
  0
POINT
  5
7B
330
36
100
AcDbEntity
  8
1
 62
     4
100
AcDbPoint
 10
93.75
 20
17.0
 30
0.0
  0
LINE
  5
7C
330
36
100
AcDbEntity
  8
1
  6
Continuous
 62
     2
100
AcDbLine
 10
81.0
 20
27.00000000000001
 30
0.0
 11
81.0
 21
10.0
 31
0.0
  0
LINE
  5
7D
330
36
100
AcDbEntity
  8
1
  6
DOT_CENTER
 62
     2
100
AcDbLine
 10
187.0
 20
26.50000000000001
 30
0.0
 11
187.0
 21
20.50000000000001
 31
0.0
  0
LINE
  5
7E
330
36
100
AcDbEntity
  8
1
  6
DOT_CENTER
 62
     2
100
AcDbLine
 10
184.0
 20
23.50000000000001
 30
0.0
 11
197.0
 21
23.50000000000001
 31
0.0
  0
LINE
  5
7F
330
36
100
AcDbEntity
  8
1
  6
Continuous
 62
     7
100
AcDbLine
 10
196.0
 20
21.50000000000001
 30
0.0
 11
191.0
 21
22.30000000000001
 31
0.0
  0
LINE
  5
80
330
36
100
AcDbEntity
  8
1
  6
Continuous
 62
     7
100
AcDbLine
 10
196.0
 20
25.50000000000001
 30
0.0
 11
196.0
 21
21.50000000000001
 31
0.0
  0
LINE
  5
81
330
36
100
AcDbEntity
  8
1
  6
Continuous
 62
     7
100
AcDbLine
 10
191.0
 20
24.70000000000001
 30
0.0
 11
196.0
 21
25.50000000000001
 31
0.0
  0
LINE
  5
82
330
36
100
AcDbEntity
  8
1
  6
Continuous
 62
     7
100
AcDbLine
 10
191.0
 20
24.70000000000001
 30
0.0
 11
191.0
 21
22.30000000000001
 31
0.0
  0
LINE
  5
83
330
36
100
AcDbEntity
  8
1
  6
Continuous
 62
     2
100
AcDbLine
 10
33.0
 20
27.0
 30
0.0
 11
33.0
 21
10.0
 31
0.0
  0
LINE
  5
84
330
36
100
AcDbEntity
  8
1
  6
Continuous
 62
     2
100
AcDbLine
 10
25.0
 20
18.50000000000001
 30
0.0
 11
81.0
 21
18.50000000000001
 31
0.0
  0
LINE
  5
85
330
36
100
AcDbEntity
  8
1
  6
Continuous
 62
     7
100
AcDbLine
 10
200.0
 20
287.0000000000003
 30
0.0
 11
105.0
 21
287.0000000000003
 31
0.0
  0
LINE
  5
86
330
36
100
AcDbEntity
  8
1
  6
Continuous
 62
     7
100
AcDbLine
 10
200.0
 20
10.0
 30
0.0
 11
200.0
 21
148.5
 31
0.0
  0
LINE
  5
87
330
36
100
AcDbEntity
  8
1
  6
Continuous
 62
     7
100
AcDbLine
 10
25.0
 20
10.0
 30
0.0
 11
105.0
 21
10.0
 31
0.0
  0
LINE
  5
88
330
36
100
AcDbEntity
  8
1
  6
PHANTOM
 62
     4
100
AcDbLine
 10
0.0
 20
297.0
 30
0.0
 11
0.0
 21
0.0
 31
0.0
  0
LINE
  5
89
330
36
100
AcDbEntity
  8
1
  6
PHANTOM
 62
     4
100
AcDbLine
 10
210.0
 20
297.0
 30
0.0
 11
0.0
 21
297.0
 31
0.0
  0
LINE
  5
8A
330
36
100
AcDbEntity
  8
1
  6
PHANTOM
 62
     4
100
AcDbLine
 10
210.0
 20
0.0
 30
0.0
 11
210.0
 21
297.0
 31
0.0
  0
LINE
  5
8B
330
36
100
AcDbEntity
  8
1
  6
PHANTOM
 62
     4
100
AcDbLine
 10
0.0
 20
0.0
 30
0.0
 11
210.0
 21
0.0
 31
0.0
  0
LINE
  5
8C
330
36
100
AcDbEntity
  8
1
  6
Continuous
 62
     7
100
AcDbLine
 10
25.0
 20
41.0
 30
0.0
 11
200.0
 21
41.0
 31
0.0
  0
LINE
  5
8D
330
36
100
AcDbEntity
  8
1
  6
Continuous
 62
     7
100
AcDbLine
 10
200.0
 20
27.00000000000001
 30
0.0
 11
25.0
 21
27.00000000000001
 31
0.0
  0
LINE
  5
8E
330
36
100
AcDbEntity
  8
1
  6
Continuous
 62
     2
100
AcDbLine
 10
33.0
 20
41.00000000000001
 30
0.0
 11
33.0
 21
27.0
 31
0.0
  0
LINE
  5
8F
330
36
100
AcDbEntity
  8
1
  6
Continuous
 62
     2
100
AcDbLine
 10
55.0
 20
287.0000000000003
 30
0.0
 11
55.0
 21
277.0000000000003
 31
0.0
  0
LINE
  5
90
330
36
100
AcDbEntity
  8
1
  6
Continuous
 62
     2
100
AcDbLine
 10
40.0
 20
287.0000000000003
 30
0.0
 11
40.0
 21
277.0000000000003
 31
0.0
  0
LINE
  5
91
330
36
100
AcDbEntity
  8
1
  6
Continuous
 62
     7
100
AcDbLine
 10
25.0
 20
10.0
 30
0.0
 11
25.0
 21
148.5
 31
0.0
  0
LINE
  5
92
330
36
100
AcDbEntity
  8
1
  6
Continuous
 62
     2
100
AcDbLine
 10
55.0
 20
277.0000000000003
 30
0.0
 11
25.0
 21
277.0000000000003
 31
0.0
  0
LINE
  5
93
330
36
100
AcDbEntity
  8
1
  6
Continuous
 62
     2
100
AcDbLine
 10
166.0
 20
27.00000000000001
 30
0.0
 11
166.0
 21
10.0
 31
0.0
  0
LINE
  5
94
330
36
100
AcDbEntity
  8
1
  6
Continuous
 62
     2
100
AcDbLine
 10
132.0
 20
27.00000000000001
 30
0.0
 11
132.0
 21
9.99999999999999
 31
0.0
  0
LINE
  5
95
330
36
100
AcDbEntity
  8
1
  6
Continuous
 62
     2
100
AcDbLine
 10
149.0
 20
27.00000000000001
 30
0.0
 11
149.0
 21
10.0
 31
0.0
  0
LINE
  5
96
330
36
100
AcDbEntity
  8
1
  6
Continuous
 62
     2
100
AcDbLine
 10
115.0
 20
27.00000000000001
 30
0.0
 11
115.0
 21
9.99999999999999
 31
0.0
  0
LINE
  5
97
330
36
100
AcDbEntity
  8
1
  6
Continuous
 62
     2
100
AcDbLine
 10
98.0
 20
27.00000000000001
 30
0.0
 11
98.0
 21
9.99999999999999
 31
0.0
  0
LINE
  5
98
330
36
100
AcDbEntity
  8
1
  6
Continuous
 62
     2
100
AcDbLine
 10
166.0
 20
20.00000000000001
 30
0.0
 11
200.0
 21
20.00000000000001
 31
0.0
  0
LINE
  5
99
330
36
100
AcDbEntity
  8
1
  6
Continuous
 62
     2
100
AcDbLine
 10
105.0
 20
287.0000000000003
 30
0.0
 11
105.0
 21
292.0000000000003
 31
0.0
  0
LINE
  5
9A
330
36
100
AcDbEntity
  8
1
  6
Continuous
 62
     7
100
AcDbLine
 10
105.0
 20
287.0000000000003
 30
0.0
 11
25.0
 21
287.0000000000003
 31
0.0
  0
LINE
  5
9B
330
36
100
AcDbEntity
  8
1
  6
Continuous
 62
     2
100
AcDbLine
 10
25.0
 20
148.5
 30
0.0
 11
20.0
 21
148.5
 31
0.0
  0
LINE
  5
9C
330
36
100
AcDbEntity
  8
1
  6
Continuous
 62
     7
100
AcDbLine
 10
25.0
 20
148.5
 30
0.0
 11
25.0
 21
287.0000000000003
 31
0.0
  0
LINE
  5
9D
330
36
100
AcDbEntity
  8
1
  6
Continuous
 62
     2
100
AcDbLine
 10
200.0
 20
148.5
 30
0.0
 11
205.0
 21
148.5
 31
0.0
  0
LINE
  5
9E
330
36
100
AcDbEntity
  8
1
  6
Continuous
 62
     7
100
AcDbLine
 10
200.0
 20
148.5
 30
0.0
 11
200.0
 21
287.0000000000003
 31
0.0
  0
LINE
  5
9F
330
36
100
AcDbEntity
  8
1
  6
Continuous
 62
     2
100
AcDbLine
 10
105.0
 20
10.0
 30
0.0
 11
105.0
 21
5.0
 31
0.0
  0
LINE
  5
A0
330
36
100
AcDbEntity
  8
1
  6
Continuous
 62
     7
100
AcDbLine
 10
105.0
 20
10.0
 30
0.0
 11
200.0
 21
10.0
 31
0.0
  0
CIRCLE
  5
A1
330
36
100
AcDbEntity
  8
1
  6
DOT_CENTER
 62
     7
100
AcDbCircle
 10
89.5
 20
18.0
 30
0.0
 40
0.1000000000000227
  0
CIRCLE
  5
A2
330
36
100
AcDbEntity
  8
1
  6
DOT_CENTER
 62
     7
100
AcDbCircle
 10
89.5
 20
16.0
 30
0.0
 40
0.1000000000000227
  0
CIRCLE
  5
A3
330
36
100
AcDbEntity
  8
1
  6
Continuous
 62
     7
100
AcDbCircle
 10
187.0
 20
23.50000000000001
 30
0.0
 40
2.0
  0
CIRCLE
  5
A4
330
36
100
AcDbEntity
  8
1
  6
Continuous
 62
     7
100
AcDbCircle
 10
187.0
 20
23.50000000000001
 30
0.0
 40
1.200000000000102
  0
CIRCLE
  5
A5
330
36
100
AcDbEntity
  8
1
  6
Continuous
 62
     7
100
AcDbCircle
 10
154.5
 20
12.5
 30
0.0
 40
0.3000000000000114
  0
CIRCLE
  5
A6
330
36
100
AcDbEntity
  8
1
  6
Continuous
 62
     7
100
AcDbCircle
 10
160.5
 20
12.5
 30
0.0
 40
0.3000000000000114
  0
CIRCLE
  5
A7
330
36
100
AcDbEntity
  8
1
  6
Continuous
 62
     7
100
AcDbCircle
 10
143.5
 20
12.5
 30
0.0
 40
0.3000000000000114
  0
CIRCLE
  5
A8
330
36
100
AcDbEntity
  8
1
  6
Continuous
 62
     7
100
AcDbCircle
 10
137.5
 20
12.5
 30
0.0
 40
0.3000000000000114
  0
CIRCLE
  5
A9
330
36
100
AcDbEntity
  8
1
  6
Continuous
 62
     7
100
AcDbCircle
 10
126.5
 20
12.5
 30
0.0
 40
0.2999999999999972
  0
CIRCLE
  5
AA
330
36
100
AcDbEntity
  8
1
  6
Continuous
 62
     7
100
AcDbCircle
 10
120.5
 20
12.5
 30
0.0
 40
0.2999999999999972
  0
CIRCLE
  5
AB
330
36
100
AcDbEntity
  8
1
  6
Continuous
 62
     7
100
AcDbCircle
 10
109.5
 20
12.5
 30
0.0
 40
0.2999999999999972
  0
CIRCLE
  5
AC
330
36
100
AcDbEntity
  8
1
  6
Continuous
 62
     7
100
AcDbCircle
 10
103.5
 20
12.5
 30
0.0
 40
0.2999999999999972
  0
MTEXT
  5
AE
330
36
100
AcDbEntity
  8
1
 62
   250
100
AcDbMText
 10
25.0
 20
5.0
 30
0.0
 40
3.5
 41
0.0
 71
     4
 72
     1
  1
備考欄の文字列 原点位置=4
  7
CONVERTER_1
 73
     1
 44
0.7202881152461
  0
MTEXT
  5
AF
330
36
100
AcDbEntity
  8
1
 62
     2
100
AcDbMText
 10
89.5
 20
24.00000000000001
 30
0.0
 40
3.5
 41
0.0
 71
     5
 72
     1
  1
尺度
  7
CONVERTER_1
 73
     1
 44
0.7202881152461
  0
MTEXT
  5
B0
330
36
100
AcDbEntity
  8
1
 62
     2
100
AcDbMText
 10
135.5
 20
25.00000000000001
 30
0.0
 40
3.0
 41
0.0
 71
     5
 72
     1
  1
製図
  7
CONVERTER_1
 73
     1
 44
0.78031212484994
  0
MTEXT
  5
B1
330
36
100
AcDbEntity
  8
1
 62
     2
100
AcDbMText
 10
152.5
 20
25.00000000000001
 30
0.0
 40
3.0
 41
0.0
 71
     5
 72
     1
  1
設計
  7
CONVERTER_1
 73
     1
 44
0.78031212484994
  0
MTEXT
  5
B2
330
36
100
AcDbEntity
  8
1
 62
     2
100
AcDbMText
 10
118.5
 20
25.00000000000001
 30
0.0
 40
3.0
 41
0.0
 71
     5
 72
     1
  1
検図
  7
CONVERTER_1
 73
     1
 44
0.78031212484994
  0
MTEXT
  5
B3
330
36
100
AcDbEntity
  8
1
 62
     2
100
AcDbMText
 10
175.0
 20
23.50000000000001
 30
0.0
 40
3.5
 41
0.0
 71
     5
 72
     1
  1
第三角法
  7
CONVERTER_1
 73
     1
 44
0.7202881152461
  0
MTEXT
  5
B4
330
36
100
AcDbEntity
  8
1
 62
     2
100
AcDbMText
 10
101.5
 20
25.00000000000001
 30
0.0
 40
3.0
 41
0.0
 71
     5
 72
     1
  1
承認
  7
CONVERTER_1
 73
     1
 44
0.78031212484994
  0
MTEXT
  5
B5
330
36
100
AcDbEntity
  8
1
 62
     2
100
AcDbMText
 10
29.0
 20
14.25
 30
0.0
 40
3.5
 41
0.0
 71
     5
 72
     1
  1
品番
  7
CONVERTER_1
 73
     1
 44
0.96038415366146
  0
MTEXT
  5
B6
330
36
100
AcDbEntity
  8
1
 62
     2
100
AcDbMText
 10
29.0
 20
22.75
 30
0.0
 40
3.5
 41
0.0
 71
     5
 72
     1
  1
品名
  7
CONVERTER_1
 73
     1
 44
0.96038415366146
  0
MTEXT
  5
B7
330
36
100
AcDbEntity
  8
1
 62
     2
100
AcDbMText
 10
29.0
 20
34.00000000000001
 30
0.0
 40
3.5
 41
0.0
 71
     5
 72
     1
  1
備考
  7
CONVERTER_1
 73
     1
 44
0.60024009603842
  0
MTEXT
  5
B8
330
36
100
AcDbEntity
  8
1
 62
     2
100
AcDbMText
 10
32.5
 20
282.0000000000003
 30
0.0
 40
5.0
 41
0.0
 71
     5
 72
     1
  1
図番
  7
CONVERTER_1
 73
     1
 44
0.60024009603842
  0
MTEXT
  5
B9
330
36
100
AcDbEntity
  8
1
 62
     7
100
AcDbMText
 10
171.5
 20
15.0
 30
0.0
 40
2.5
 41
0.0
 71
     5
 72
     1
  1
株式会社
  7
CONVERTER_1
 73
     1
 44
1.32052821128451
  0
MTEXT
  5
BA
330
36
100
AcDbEntity
  8
1
 62
     7
100
AcDbMText
 10
188.5
 20
15.0
 30
0.0
 40
3.0
 41
0.0
 71
     5
 72
     1
  1
三栄水栓製作所
  7
CONVERTER_1
 73
     1
 44
1.32052821128451
  0
ENDBLK
  5
38
330
36
100
AcDbEntity
  8
0
100
AcDbBlockEnd
  0
BLOCK
  5
3A
330
39
100
AcDbEntity
  8
0
100
AcDbBlockBegin
  2
42-1
 70
     0
 71
     0
 10
735.0629564845822
 20
106.9740482043166
 30
0.0
  3
42-1
  1

  0
LINE
  5
BB
330
39
100
AcDbEntity
  8
1
  6
Continuous
 62
     2
100
AcDbLine
 10
471.9586963979787
 20
313.0060353160727
 30
0.0
 11
471.9586963979787
 21
311.7407962254622
 31
0.0
  0
LINE
  5
BC
330
39
100
AcDbEntity
  8
1
  6
Continuous
 62
     2
100
AcDbLine
 10
470.9586963979787
 20
313.2493505258054
 30
0.0
 11
470.9586963979787
 21
311.4812600017472
 31
0.0
  0
LINE
  5
BD
330
39
100
AcDbEntity
  8
1
  6
Continuous
 62
     2
100
AcDbLine
 10
469.9586963979787
 20
313.4602237075739
 30
0.0
 11
469.9586963979787
 21
311.1243976941393
 31
0.0
  0
LINE
  5
BE
330
39
100
AcDbEntity
  8
1
  6
Continuous
 62
     2
100
AcDbLine
 10
468.9586963979787
 20
313.5737708054492
 30
0.0
 11
468.9586963979787
 21
310.9297455263529
 31
0.0
  0
LINE
  5
BF
330
39
100
AcDbEntity
  8
1
  6
Continuous
 62
     2
100
AcDbLine
 10
467.9586963979787
 20
313.7636972139014
 30
0.0
 11
467.9586963979787
 21
310.7636972139014
 31
0.0
  0
LINE
  5
C0
330
39
100
AcDbEntity
  8
1
  6
Continuous
 62
     2
100
AcDbLine
 10
466.9586963979787
 20
313.7636972139014
 30
0.0
 11
466.9586963979787
 21
310.7636972139014
 31
0.0
  0
LINE
  5
C1
330
39
100
AcDbEntity
  8
1
  6
Continuous
 62
     7
100
AcDbLine
 10
465.9586963979787
 20
313.7636972139014
 30
0.0
 11
466.9586963979785
 21
314.0330194129247
 31
0.0
  0
LINE
  5
C2
330
39
100
AcDbEntity
  8
1
  6
Continuous
 62
     7
100
AcDbLine
 10
465.9586963979787
 20
310.7636972139014
 30
0.0
 11
465.9586963979787
 21
313.7636972139014
 31
0.0
  0
LINE
  5
C3
330
39
100
AcDbEntity
  8
1
  6
Continuous
 62
     7
100
AcDbLine
 10
479.9586963979787
 20
313.7636972139014
 30
0.0
 11
479.9586963979787
 21
310.7636972139014
 31
0.0
  0
LINE
  5
C4
330
39
100
AcDbEntity
  8
1
  6
Continuous
 62
     7
100
AcDbLine
 10
478.9586963979788
 20
314.0330194129247
 30
0.0
 11
479.9586963979787
 21
313.7636972139014
 31
0.0
  0
LINE
  5
C5
330
39
100
AcDbEntity
  8
1
  6
Continuous
 62
     2
100
AcDbLine
 10
478.9586963979787
 20
310.7636972139014
 30
0.0
 11
478.9586963979787
 21
313.7636972139014
 31
0.0
  0
LINE
  5
C6
330
39
100
AcDbEntity
  8
1
  6
Continuous
 62
     7
100
AcDbLine
 10
465.9586963979787
 20
313.7636972139014
 30
0.0
 11
479.9586963979787
 21
313.7636972139014
 31
0.0
  0
LINE
  5
C7
330
39
100
AcDbEntity
  8
1
  6
Continuous
 62
     2
100
AcDbLine
 10
477.9586963979787
 20
310.7636972139014
 30
0.0
 11
477.9586963979787
 21
313.7636972139014
 31
0.0
  0
LINE
  5
C8
330
39
100
AcDbEntity
  8
1
  6
Continuous
 62
     7
100
AcDbLine
 10
465.9586963979787
 20
310.7636972139014
 30
0.0
 11
479.9586963979787
 21
310.7636972139014
 31
0.0
  0
LINE
  5
C9
330
39
100
AcDbEntity
  8
1
  6
Continuous
 62
     2
100
AcDbLine
 10
476.9586963979787
 20
310.9297455263529
 30
0.0
 11
476.9586963979787
 21
313.5737708054492
 31
0.0
  0
LINE
  5
CA
330
39
100
AcDbEntity
  8
1
  6
Continuous
 62
     2
100
AcDbLine
 10
475.9586963979787
 20
311.1243976941393
 30
0.0
 11
475.9586963979787
 21
313.4602237075739
 31
0.0
  0
LINE
  5
CB
330
39
100
AcDbEntity
  8
1
  6
Continuous
 62
     2
100
AcDbLine
 10
474.9586963979787
 20
311.4812600017472
 30
0.0
 11
474.9586963979787
 21
313.2493505258054
 31
0.0
  0
LINE
  5
CC
330
39
100
AcDbEntity
  8
1
  6
Continuous
 62
     2
100
AcDbLine
 10
473.9586963979787
 20
311.7407962254622
 30
0.0
 11
473.9586963979787
 21
313.0060353160727
 31
0.0
  0
LINE
  5
CD
330
39
100
AcDbEntity
  8
1
  6
Continuous
 62
     7
100
AcDbLine
 10
467.2086963979787
 20
314.0934629341051
 30
0.0
 11
478.7086963979787
 21
314.0934629341051
 31
0.0
  0
ARC
  5
CE
330
39
100
AcDbEntity
  8
1
  6
Continuous
 62
     7
100
AcDbCircle
 10
472.9586963979787
 20
289.7636972139014
 30
0.0
 40
25.00000000000012
100
AcDbArc
 50
76.11345963737082
 51
90.0
  0
ARC
  5
CF
330
39
100
AcDbEntity
  8
1
  6
Continuous
 62
     7
100
AcDbCircle
 10
472.9586963979787
 20
289.7636972139014
 30
0.0
 40
25.0
100
AcDbArc
 50
90.0
 51
103.8865403626295
  0
CIRCLE
  5
D0
330
39
100
AcDbEntity
  8
1
  6
Continuous
 62
     7
100
AcDbCircle
 10
143.942341432684
 20
695.7636972139015
 30
0.0
 40
5.75
  0
CIRCLE
  5
D1
330
39
100
AcDbEntity
  8
1
  6
Continuous
 62
     7
100
AcDbCircle
 10
143.942341432684
 20
695.7636972139015
 30
0.0
 40
7.0
  0
ENDBLK
  5
3B
330
39
100
AcDbEntity
  8
0
100
AcDbBlockEnd
  0
BLOCK
  5
3D
330
3C
100
AcDbEntity
  8
0
100
AcDbBlockBegin
  2
21-1A
 70
     0
 71
     0
 10
701.1409162289164
 20
249.5496225653997
 30
0.0
  3
21-1A
  1

  0
LINE
  5
D2
330
3C
100
AcDbEntity
  8
1
  6
Continuous
 62
     7
100
AcDbLine
 10
151.9423414326839
 20
299.7636972139014
 30
0.0
 11
171.092976527295
 21
299.7636972139014
 31
0.0
  0
LINE
  5
D3
330
3C
100
AcDbEntity
  8
1
  6
Continuous
 62
     7
100
AcDbLine
 10
116.7484804026948
 20
303.5487769692521
 30
0.0
 11
116.2965723037024
 21
300.3332837643816
 31
0.0
  0
LINE
  5
D4
330
3C
100
AcDbEntity
  8
1
  6
Continuous
 62
     7
100
AcDbLine
 10
171.5881105616659
 20
300.3332837643816
 30
0.0
 11
171.1362024626735
 21
303.5487769692521
 31
0.0
  0
LINE
  5
D5
330
3C
100
AcDbEntity
  8
1
  6
Continuous
 62
     7
100
AcDbLine
 10
116.7917063380731
 20
299.7636972139014
 30
0.0
 11
135.9423414326839
 21
299.7636972139014
 31
0.0
  0
LINE
  5
D6
330
3C
100
AcDbEntity
  8
1
  6
Continuous
 62
     7
100
AcDbLine
 10
149.7378963904184
 20
669.2107829432864
 30
0.0
 11
153.3893056018889
 21
682.8380276397193
 31
0.0
  0
LINE
  5
D7
330
3C
100
AcDbEntity
  8
1
  6
Continuous
 62
     7
100
AcDbLine
 10
138.1467864749496
 20
669.2107829432864
 30
0.0
 11
134.495377263479
 21
682.8380276397193
 31
0.0
  0
LINE
  5
D8
330
3C
100
AcDbEntity
  8
1
  6
Continuous
 62
     7
100
AcDbLine
 10
118.0490656509537
 20
704.0210565267823
 30
0.0
 11
128.0249011359161
 21
694.0452210418199
 31
0.0
  0
LINE
  5
D9
330
3C
100
AcDbEntity
  8
1
  6
Continuous
 62
     7
100
AcDbLine
 10
123.8446206086883
 20
714.059252171636
 30
0.0
 11
137.471865305121
 21
710.4078429601657
 31
0.0
  0
LINE
  5
DA
330
3C
100
AcDbEntity
  8
1
  6
Continuous
 62
     7
100
AcDbLine
 10
164.0400622566797
 20
714.059252171636
 30
0.0
 11
150.4128175602469
 21
710.4078429601657
 31
0.0
  0
LINE
  5
DB
330
3C
100
AcDbEntity
  8
1
  6
Continuous
 62
     7
100
AcDbLine
 10
169.8356172144142
 20
704.0210565267823
 30
0.0
 11
159.8597817294518
 21
694.0452210418199
 31
0.0
  0
LINE
  5
DC
330
3C
100
AcDbEntity
  8
1
  6
Continuous
 62
     7
100
AcDbLine
 10
442.5338806015892
 20
299.7636972139014
 30
0.0
 11
472.9586963979787
 21
299.7636972139014
 31
0.0
  0
LINE
  5
DD
330
3C
100
AcDbEntity
  8
1
  6
Continuous
 62
     7
100
AcDbLine
 10
490.7613822523299
 20
304.722773819645
 30
0.0
 11
491.3785997463374
 21
300.333319146614
 31
0.0
  0
LINE
  5
DE
330
3C
100
AcDbEntity
  8
1
  6
Continuous
 62
     7
100
AcDbLine
 10
442.4906546662107
 20
303.5487769692521
 30
0.0
 11
442.0387465672184
 21
300.3332837643815
 31
0.0
  0
LINE
  5
DF
330
3C
100
AcDbEntity
  8
1
  6
Continuous
 62
     7
100
AcDbLine
 10
490.8834706859043
 20
299.7636972139014
 30
0.0
 11
472.9586963979787
 21
299.7636972139014
 31
0.0
  0
ARC
  5
E0
330
3C
100
AcDbEntity
  8
1
  6
Continuous
 62
     7
100
AcDbCircle
 10
138.8494480090776
 20
183.6435446735771
 30
0.0
 40
127.9436752841998
100
AcDbArc
 50
77.64920541038032
 51
84.12645411112516
  0
ARC
  5
E1
330
3C
100
AcDbEntity
  8
1
  6
Continuous
 62
     7
100
AcDbCircle
 10
149.0352348562906
 20
183.6435446735773
 30
0.0
 40
127.9436752841996
100
AcDbArc
 50
95.87354588887504
 51
102.3507945896197
  0
ARC
  5
E2
330
3C
100
AcDbEntity
  8
1
  6
Continuous
 62
     7
100
AcDbCircle
 10
143.942341432684
 20
670.7636972139017
 30
0.0
 40
6.000000000000019
100
AcDbArc
 50
-164.9999999999988
 51
-15.00000000000116
  0
ARC
  5
E3
330
3C
100
AcDbEntity
  8
1
  6
Continuous
 62
     7
100
AcDbCircle
 10
122.291706338073
 20
708.2636972139017
 30
0.0
 40
5.999999999999978
100
AcDbArc
 50
74.99999999999817
 51
-134.9999999999999
  0
ARC
  5
E4
330
3C
100
AcDbEntity
  8
1
  6
Continuous
 62
     7
100
AcDbCircle
 10
165.592976527295
 20
708.2636972139017
 30
0.0
 40
5.999999999999968
100
AcDbArc
 50
-45.00000000000077
 51
105.0000000000018
  0
ARC
  5
E5
330
3C
100
AcDbEntity
  8
1
  6
Continuous
 62
     7
100
AcDbCircle
 10
473.3228920632253
 20
235.8518762052022
 30
0.0
 40
75.00000000000001
100
AcDbArc
 50
80.40850751733483
 51
87.2213610340373
  0
ARC
  5
E6
330
3C
100
AcDbEntity
  8
1
  6
Continuous
 62
     7
100
AcDbCircle
 10
472.9586963979787
 20
160.7636972139014
 30
0.0
 40
150.0533238552216
100
AcDbArc
 50
91.52752544221293
 51
99.80290179376779
  0
ARC
  5
E7
330
3C
100
AcDbEntity
  8
1
  6
Continuous
 62
     7
100
AcDbCircle
 10
122.6900888151441
 20
302.7137383634919
 30
0.0
 40
5.999999999999907
100
AcDbArc
 50
99.80290179376799
 51
172.0000000000018
  0
ARC
  5
E8
330
3C
100
AcDbEntity
  8
1
  6
Continuous
 62
     7
100
AcDbCircle
 10
116.7917063380731
 20
300.2636972139014
 30
0.0
 40
0.4999999999999256
100
AcDbArc
 50
171.9999999999849
 51
-90.0
  0
ARC
  5
E9
330
3C
100
AcDbEntity
  8
1
  6
Continuous
 62
     7
100
AcDbCircle
 10
171.092976527295
 20
300.2636972139014
 30
0.0
 40
0.5
100
AcDbArc
 50
-90.0
 51
8.00000000001196
  0
ARC
  5
EA
330
3C
100
AcDbEntity
  8
1
  6
Continuous
 62
     7
100
AcDbCircle
 10
165.1945940502241
 20
302.7137383634919
 30
0.0
 40
5.999999999999948
100
AcDbArc
 50
7.99999999999811
 51
80.19709820623203
  0
ARC
  5
EB
330
3C
100
AcDbEntity
  8
1
  6
Continuous
 62
     7
100
AcDbCircle
 10
177.5374512591155
 20
676.3675515121563
 30
0.0
 40
24.99999999999994
100
AcDbArc
 50
135.0000000000001
 51
165.0000000000001
  0
ARC
  5
EC
330
3C
100
AcDbEntity
  8
1
  6
Continuous
 62
     7
100
AcDbCircle
 10
110.3472316062525
 20
676.3675515121563
 30
0.0
 40
24.99999999999979
100
AcDbArc
 50
14.99999999999999
 51
45.0
  0
ARC
  5
ED
330
3C
100
AcDbEntity
  8
1
  6
Continuous
 62
     7
100
AcDbCircle
 10
143.942341432684
 20
734.5559886173924
 30
0.0
 40
24.99999999999996
100
AcDbArc
 50
-105.0
 51
-75.00000000000024
  0
ARC
  5
EE
330
3C
100
AcDbEntity
  8
1
  6
Continuous
 62
     7
100
AcDbCircle
 10
490.8834706859043
 20
300.2636972139014
 30
0.0
 40
0.5
100
AcDbArc
 50
-90.0
 51
8.00409437169339
  0
ARC
  5
EF
330
3C
100
AcDbEntity
  8
1
  6
Continuous
 62
     7
100
AcDbCircle
 10
442.5338806015892
 20
300.2636972139014
 30
0.0
 40
0.5000000000000021
100
AcDbArc
 50
171.9999999999927
 51
-90.0
  0
ARC
  5
F0
330
3C
100
AcDbEntity
  8
1
  6
Continuous
 62
     7
100
AcDbCircle
 10
484.8198335271327
 20
303.8873106270936
 30
0.0
 40
6.000000000000063
100
AcDbArc
 50
8.00409437170091
 51
80.40850751733433
  0
ARC
  5
F1
330
3C
100
AcDbEntity
  8
1
  6
Continuous
 62
     7
100
AcDbCircle
 10
448.4322630786602
 20
302.7137383634918
 30
0.0
 40
5.999999999999901
100
AcDbArc
 50
99.80290179376772
 51
172.000000000001
  0
ENDBLK
  5
3E
330
3C
100
AcDbEntity
  8
0
100
AcDbBlockEnd
  0
BLOCK
  5
40
330
3F
100
AcDbEntity
  8
0
100
AcDbBlockBegin
  2
36-1A-13-M4
 70
     0
 71
     0
 10
578.2876795002934
 20
799.078198250864
 30
0.0
  3
36-1A-13-M4
  1

  0
LINE
  5
F2
330
3F
100
AcDbEntity
  8
1
  6
Continuous
 62
     7
100
AcDbLine
 10
468.2086963979787
 20
296.7636972139014
 30
0.0
 11
468.2086963979787
 21
299.7636972139014
 31
0.0
  0
LINE
  5
F3
330
3F
100
AcDbEntity
  8
1
  6
Continuous
 62
     7
100
AcDbLine
 10
477.7086963979787
 20
296.7636972139014
 30
0.0
 11
477.7086963979787
 21
299.7636972139014
 31
0.0
  0
ENDBLK
  5
41
330
3F
100
AcDbEntity
  8
0
100
AcDbBlockEnd
  0
BLOCK
  5
43
330
42
100
AcDbEntity
  8
0
100
AcDbBlockBegin
  2
37-1-13
 70
     0
 71
     0
 10
738.7599266147497
 20
142.7679913237569
 30
0.0
  3
37-1-13
  1

  0
LINE
  5
F4
330
42
100
AcDbEntity
  8
1
  6
Continuous
 62
     7
100
AcDbLine
 10
156.942341432684
 20
282.7636972139014
 30
0.0
 11
151.942341432684
 21
282.7636972139014
 31
0.0
  0
LINE
  5
F5
330
42
100
AcDbEntity
  8
1
  6
Continuous
 62
     7
100
AcDbLine
 10
156.942341432684
 20
289.8344114281729
 30
0.0
 11
156.942341432684
 21
282.7636972139014
 31
0.0
  0
LINE
  5
F6
330
42
100
AcDbEntity
  8
1
  6
Continuous
 62
     7
100
AcDbLine
 10
135.9423414326839
 20
282.7636972139014
 30
0.0
 11
130.9423414326839
 21
282.7636972139014
 31
0.0
  0
LINE
  5
F7
330
42
100
AcDbEntity
  8
1
  6
Continuous
 62
     7
100
AcDbLine
 10
130.9423414326839
 20
282.7636972139014
 30
0.0
 11
130.9423414326839
 21
289.8344114281729
 31
0.0
  0
LINE
  5
F8
330
42
100
AcDbEntity
  8
1
  6
Continuous
 62
     7
100
AcDbLine
 10
472.9586963979787
 20
290.2636972139014
 30
0.0
 11
485.4586963979784
 21
290.2636972139015
 31
0.0
  0
LINE
  5
F9
330
42
100
AcDbEntity
  8
1
  6
Continuous
 62
     7
100
AcDbLine
 10
460.4586963979788
 20
290.2636972139015
 30
0.0
 11
472.9586963979787
 21
290.2636972139014
 31
0.0
  0
LINE
  5
FA
330
42
100
AcDbEntity
  8
1
  6
Continuous
 62
     7
100
AcDbLine
 10
486.0294106122501
 20
282.7636972139014
 30
0.0
 11
459.8879821837072
 21
282.7636972139014
 31
0.0
  0
LINE
  5
FB
330
42
100
AcDbEntity
  8
1
  6
Continuous
 62
     7
100
AcDbLine
 10
478.9586963979787
 20
296.7636972139014
 30
0.0
 11
466.9586963979787
 21
296.7636972139014
 31
0.0
  0
LINE
  5
FC
330
42
100
AcDbEntity
  8
1
  6
Continuous
 62
     7
100
AcDbLine
 10
141.9667105969626
 20
709.6341732180088
 30
0.0
 11
143.0044902980058
 21
710.2333356077654
 31
0.0
  0
LINE
  5
FD
330
42
100
AcDbEntity
  8
1
  6
Continuous
 62
     7
100
AcDbLine
 10
156.942341432684
 20
690.5394057040827
 30
0.0
 11
156.942341432684
 21
689.341080924569
 31
0.0
  0
LINE
  5
FE
330
42
100
AcDbEntity
  8
1
  6
Continuous
 62
     7
100
AcDbLine
 10
132.9179722684056
 20
687.1175127196134
 30
0.0
 11
131.8801925673623
 21
687.7166751093703
 31
0.0
  0
LINE
  5
FF
330
42
100
AcDbEntity
  8
1
  6
Continuous
 62
     7
100
AcDbLine
 10
130.942341432684
 20
689.341080924569
 30
0.0
 11
130.942341432684
 21
690.5394057040827
 31
0.0
  0
LINE
  5
100
330
42
100
AcDbEntity
  8
1
  6
Continuous
 62
     7
100
AcDbLine
 10
144.8801925673621
 20
710.2333356077654
 30
0.0
 11
145.9179722684054
 21
709.6341732180088
 31
0.0
  0
LINE
  5
101
330
42
100
AcDbEntity
  8
1
  6
Continuous
 62
     7
100
AcDbLine
 10
156.0044902980056
 20
687.7166751093703
 30
0.0
 11
154.9667105969626
 21
687.1175127196134
 31
0.0
  0
ARC
  5
102
330
42
100
AcDbEntity
  8
1
  6
Continuous
 62
     7
100
AcDbCircle
 10
169.8487966377987
 20
310.1701524190163
 30
0.0
 40
23.99999999999983
100
AcDbArc
 50
-138.2538657301994
 51
-123.9591925000976
  0
ARC
  5
103
330
42
100
AcDbEntity
  8
1
  6
Continuous
 62
     7
100
AcDbCircle
 10
153.442341432684
 20
286.2636972139014
 30
0.0
 40
5.000000000000057
100
AcDbArc
 50
45.57299599919494
 51
53.1301023541582
  0
ARC
  5
104
330
42
100
AcDbEntity
  8
1
  6
Continuous
 62
     7
100
AcDbCircle
 10
118.0358862275692
 20
310.1701524190163
 30
0.0
 40
23.99999999999995
100
AcDbArc
 50
-56.04080749990219
 51
-41.74613426980066
  0
ARC
  5
105
330
42
100
AcDbEntity
  8
1
  6
Continuous
 62
     7
100
AcDbCircle
 10
134.442341432684
 20
286.2636972139014
 30
0.0
 40
4.999999999999926
100
AcDbArc
 50
126.8698976458418
 51
134.427004000806
  0
ARC
  5
106
330
42
100
AcDbEntity
  8
1
  6
Continuous
 62
     7
100
AcDbCircle
 10
498.8651516030935
 20
310.1701524190163
 30
0.0
 40
23.99999999999988
100
AcDbArc
 50
-146.0408074999025
 51
-123.9591925000981
  0
ARC
  5
107
330
42
100
AcDbEntity
  8
1
  6
Continuous
 62
     7
100
AcDbCircle
 10
482.4586963979787
 20
286.2636972139014
 30
0.0
 40
4.999999999999975
100
AcDbArc
 50
-44.42700400080598
 51
53.1301023541595
  0
ARC
  5
108
330
42
100
AcDbEntity
  8
1
  6
Continuous
 62
     7
100
AcDbCircle
 10
447.0522411928637
 20
310.1701524190164
 30
0.0
 40
24.00000000000013
100
AcDbArc
 50
-56.04080749990206
 51
-33.95919250009746
  0
ARC
  5
109
330
42
100
AcDbEntity
  8
1
  6
Continuous
 62
     7
100
AcDbCircle
 10
463.4586963979787
 20
286.2636972139014
 30
0.0
 40
4.999999999999977
100
AcDbArc
 50
126.8698976458426
 51
-135.5729959991949
  0
ARC
  5
10A
330
42
100
AcDbEntity
  8
1
  6
Continuous
 62
     7
100
AcDbCircle
 10
143.942341432684
 20
695.7636972139015
 30
0.0
 40
14.49999999999997
100
AcDbArc
 50
-153.7084447252709
 51
-146.2915552747298
  0
ARC
  5
10B
330
42
100
AcDbEntity
  8
1
  6
Continuous
 62
     7
100
AcDbCircle
 10
143.942341432684
 20
695.7636972139015
 30
0.0
 40
14.49999999999989
100
AcDbArc
 50
90.0
 51
93.70844472527045
  0
ARC
  5
10C
330
42
100
AcDbEntity
  8
1
  6
Continuous
 62
     7
100
AcDbCircle
 10
143.942341432684
 20
695.7636972139015
 30
0.0
 40
14.49999999999979
100
AcDbArc
 50
-33.70844472527044
 51
-26.29155527472912
  0
ARC
  5
10D
330
42
100
AcDbEntity
  8
1
  6
Continuous
 62
     7
100
AcDbCircle
 10
143.942341432684
 20
695.7636972139015
 30
0.0
 40
14.49999999999988
100
AcDbArc
 50
86.29155527473
 51
90.0
  0
SPLINE
  5
10E
330
42
100
AcDbEntity
  8
1
  6
Continuous
 62
     7
100
AcDbSpline
210
0.0
220
0.0
230
1.0
 70
     8
 71
     3
 72
    29
 73
    25
 74
    23
 42
0.0000000001
 43
0.0000000001
 44
0.00000001
 40
0.0
 40
0.0
 40
0.0
 40
0.0
 40
0.6069077131759924
 40
1.212222625822736
 40
1.842666707826762
 40
2.474631900595441
 40
3.102420172365378
 40
3.729333891456385
 40
4.271042939833183
 40
4.812985328221333
 40
5.3401079807285
 40
5.86624892728019
 40
6.263874837343333
 40
6.661485236222506
 40
7.280966497569108
 40
7.902596738528284
 40
8.549168915178974
 40
9.19589677248938
 40
9.722415974179439
 40
10.2491184172572
 40
11.07897537274034
 40
11.90732207846654
 40
12.67331709995041
 40
13.44191271185845
 40
13.44191271185845
 40
13.44191271185845
 40
13.44191271185845
 10
472.9586963979787
 20
289.7636972139014
 30
0.0
 10
472.7566365684212
 20
289.7538218404391
 30
0.0
 10
472.3530472057526
 20
289.734097010964
 30
0.0
 10
471.7413416554138
 20
289.670306656911
 30
0.0
 10
471.1319245935239
 20
289.5361233595938
 30
0.0
 10
470.5335184180188
 20
289.3356677389095
 30
0.0
 10
469.9589558861229
 20
289.0771066220912
 30
0.0
 10
469.4440580884516
 20
288.7681772323201
 30
0.0
 10
468.9950392144531
 20
288.4143603077451
 30
0.0
 10
468.621097611962
 20
288.0263356395822
 30
0.0
 10
468.3141317105019
 20
287.5894052358194
 30
0.0
 10
468.1068230529681
 20
287.1491912687193
 30
0.0
 10
467.9909204646972
 20
286.7224821480345
 30
0.0
 10
467.9402172598028
 20
286.2515667055324
 30
0.0
 10
468.0006735830807
 20
285.7025921124883
 30
0.0
 10
468.2136208148275
 20
285.1048460462683
 30
0.0
 10
468.5608577521739
 20
284.5632438002699
 30
0.0
 10
468.9822154780062
 20
284.122635832132
 30
0.0
 10
469.4296289682634
 20
283.7727619084953
 30
0.0
 10
469.9654653541858
 20
283.4438515255062
 30
0.0
 10
470.6303564040993
 20
283.140112903879
 30
0.0
 10
471.4100174655731
 20
282.9153430385362
 30
0.0
 10
472.192423083883
 20
282.8109562331268
 30
0.0
 10
472.7029835532453
 20
282.7795337543778
 30
0.0
 10
472.9586963979787
 20
282.7637958899884
 30
0.0
 11
472.9586963979787
 21
289.7636972139014
 31
0.0
 11
472.3528103762204
 21
289.7284963481391
 31
0.0
 11
471.751367556739
 21
289.6601393560549
 31
0.0
 11
471.1354763449979
 21
289.5254628702306
 31
0.0
 11
470.5360148834492
 21
289.3253979782855
 31
0.0
 11
469.9643161101292
 21
289.0660167400351
 31
0.0
 11
469.4277508931161
 21
288.7417967852571
 31
0.0
 11
469.003318354337
 21
288.4051876452761
 31
0.0
 11
468.6285693790563
 21
288.0136972139014
 31
0.0
 11
468.3270134930963
 21
287.5813520526829
 31
0.0
 11
468.1049931792627
 21
287.1043496670667
 31
0.0
 11
468.0012324621196
 21
286.720500636937
 31
0.0
 11
467.9594743642988
 21
286.3250890911227
 31
0.0
 11
468.0240679759202
 21
285.7089846369128
 31
0.0
 11
468.2316861460715
 21
285.123050466636
 31
0.0
 11
468.5770587469265
 21
284.576448832722
 31
0.0
 11
469.0213328735295
 21
284.1064728526417
 31
0.0
 11
469.4352032923042
 21
283.7809982050705
 31
0.0
 11
469.8832421395284
 21
283.5040927068909
 31
0.0
 11
470.6380028461659
 21
283.1591306187134
 31
0.0
 11
471.434159156554
 21
282.9304531289671
 31
0.0
 11
472.1921682871536
 21
282.8201329999524
 31
0.0
 11
472.9586963979787
 21
282.7637958899884
 31
0.0
  0
SPLINE
  5
10F
330
42
100
AcDbEntity
  8
1
  6
Continuous
 62
     7
100
AcDbSpline
210
0.0
220
0.0
230
1.0
 70
    11
 71
     3
 72
    79
 73
    75
 74
    73
 42
0.0000000001
 43
0.0000000001
 44
0.00000001
 40
0.0
 40
0.0
 40
0.0
 40
0.0
 40
0.2803981145479002
 40
0.5607977859032944
 40
0.8427454841468418
 40
1.124697473048559
 40
1.409536451638066
 40
1.694381500885857
 40
1.98307131012523
 40
2.271767843422934
 40
2.564776142200899
 40
2.857790854546438
 40
3.155055698552853
 40
3.452325978930933
 40
3.753284827389637
 40
4.054247742882604
 40
4.357919806975519
 40
4.661594368328834
 40
4.96670074894339
 40
5.271807969839395
 40
5.576915190735344
 40
5.8820215713499
 40
6.185696132703059
 40
6.489368196796014
 40
6.790331112289034
 40
7.091289960747841
 40
7.388560241125921
 40
7.685825085132289
 40
7.978839797477908
 40
8.271848096255832
 40
8.560544629553499
 40
8.849234438792808
 40
9.134079488040598
 40
9.418918466630105
 40
9.700870455531895
 40
9.982818153775373
 40
10.26321782513084
 40
10.54361593967869
 40
10.82401405422653
 40
11.10441372558183
 40
11.38636142382549
 40
11.66831341272721
 40
11.95315239131669
 40
12.23799744056446
 40
12.5266872498038
 40
12.81538378310147
 40
13.10839208187948
 40
13.40140679422502
 40
13.6986716382314
 40
13.9959419186094
 40
14.29690076706831
 40
14.59786368256129
 40
14.90153574665419
 40
15.20521030800742
 40
15.51031668862196
 40
15.81542390951791
 40
16.12053113041391
 40
16.42563751102846
 40
16.72931207238172
 40
17.03298413647469
 40
17.33394705196759
 40
17.63490590042642
 40
17.9321761808045
 40
18.22944102481085
 40
18.52245573715643
 40
18.81546403593435
 40
19.10416056923202
 40
19.39285037847147
 40
19.67769542771921
 40
19.96253440630872
 40
20.24448639521051
 40
20.5264340934541
 40
20.80683376480937
 40
21.08723187935722
 40
21.08723187935722
 40
21.08723187935722
 40
21.08723187935722
 10
461.700366148781
 20
289.7636972139014
 30
0.0
 10
461.6068656057275
 20
289.7611158280122
 30
0.0
 10
461.4198640004931
 20
289.7559530419017
 30
0.0
 10
461.1413795872529
 20
289.7144806918526
 30
0.0
 10
460.8674373908507
 20
289.64858053146
 30
0.0
 10
460.599509225515
 20
289.5563484222259
 30
0.0
 10
460.3404634379551
 20
289.4392662328671
 30
0.0
 10
460.091304143802
 20
289.2977899512877
 30
0.0
 10
459.8549941236244
 20
289.1335076052947
 30
0.0
 10
459.6322191297062
 20
288.9470474570782
 30
0.0
 10
459.4257630974082
 20
288.7406229821411
 30
0.0
 10
459.2361503537678
 20
288.5149052877045
 30
0.0
 10
459.0657511778419
 20
288.2726144893558
 30
0.0
 10
458.9150383702341
 20
288.0145569965158
 30
0.0
 10
458.7858152337087
 20
287.7437297930339
 30
0.0
 10
458.6785355605243
 20
287.4612129395373
 30
0.0
 10
458.5943810569692
 20
287.1700249689442
 30
0.0
 10
458.5337377831381
 20
286.8716461960294
 30
0.0
 10
458.4972040208665
 20
286.568885224149
 30
0.0
 10
458.4849849901299
 20
286.2636972139012
 30
0.0
 10
458.4972040208667
 20
285.9585092036548
 30
0.0
 10
458.533737783138
 20
285.6557482317701
 30
0.0
 10
458.5943810569693
 20
285.3573694588721
 30
0.0
 10
458.6785355605243
 20
285.0661814882163
 30
0.0
 10
458.7858152337086
 20
284.7836646349514
 30
0.0
 10
458.9150383702342
 20
284.5128374306097
 30
0.0
 10
459.065751177842
 20
284.2547799409405
 30
0.0
 10
459.2361503537677
 20
284.012489130845
 30
0.0
 10
459.4257630974083
 20
283.7867714796472
 30
0.0
 10
459.6322191297062
 20
283.5803468446206
 30
0.0
 10
459.8549941236242
 20
283.3938872854434
 30
0.0
 10
460.0913041438021
 20
283.2296027577325
 30
0.0
 10
460.3404634379549
 20
283.0881345146627
 30
0.0
 10
460.5995092255152
 20
282.9710225110611
 30
0.0
 10
460.8674373908507
 20
282.8789005925881
 30
0.0
 10
461.141379587253
 20
282.8125908270205
 30
0.0
 10
461.419864000493
 20
282.7726391619245
 30
0.0
 10
461.700366148781
 20
282.7592262523016
 30
0.0
 10
461.9808682970688
 20
282.7726391619245
 30
0.0
 10
462.259352710309
 20
282.8125908270205
 30
0.0
 10
462.5332949067112
 20
282.8789005925881
 30
0.0
 10
462.8012230720466
 20
282.9710225110611
 30
0.0
 10
463.060268859607
 20
283.0881345146626
 30
0.0
 10
463.3094281537597
 20
283.2296027577324
 30
0.0
 10
463.5457381739377
 20
283.3938872854436
 30
0.0
 10
463.7685131678558
 20
283.5803468446206
 30
0.0
 10
463.9749692001536
 20
283.7867714796472
 30
0.0
 10
464.1645819437942
 20
284.0124891308451
 30
0.0
 10
464.3349811197197
 20
284.2547799409406
 30
0.0
 10
464.4856939273277
 20
284.5128374306098
 30
0.0
 10
464.6149170638532
 20
284.7836646349514
 30
0.0
 10
464.7221967370377
 20
285.0661814882164
 30
0.0
 10
464.806351240593
 20
285.3573694588721
 30
0.0
 10
464.8669945144239
 20
285.65574823177
 30
0.0
 10
464.9035282766952
 20
285.9585092036548
 30
0.0
 10
464.9157473074318
 20
286.2636972139012
 30
0.0
 10
464.9035282766953
 20
286.5688852241491
 30
0.0
 10
464.8669945144238
 20
286.8716461960293
 30
0.0
 10
464.8063512405927
 20
287.1700249689441
 30
0.0
 10
464.7221967370376
 20
287.4612129395373
 30
0.0
 10
464.6149170638531
 20
287.7437297930338
 30
0.0
 10
464.4856939273277
 20
288.0145569965158
 30
0.0
 10
464.3349811197195
 20
288.2726144893557
 30
0.0
 10
464.1645819437944
 20
288.5149052877047
 30
0.0
 10
463.9749692001535
 20
288.740622982141
 30
0.0
 10
463.7685131678558
 20
288.9470474570782
 30
0.0
 10
463.5457381739376
 20
289.1335076052947
 30
0.0
 10
463.3094281537598
 20
289.2977899512877
 30
0.0
 10
463.0602688596071
 20
289.439266232867
 30
0.0
 10
462.8012230720465
 20
289.5563484222259
 30
0.0
 10
462.5332949067113
 20
289.64858053146
 30
0.0
 10
462.2593527103089
 20
289.7144806918527
 30
0.0
 10
461.9808682970688
 20
289.7559530419015
 30
0.0
 10
461.7938666918344
 20
289.7611158280121
 30
0.0
 10
461.700366148781
 20
289.7636972139014
 30
0.0
 11
461.700366148781
 21
289.7636972139014
 31
0.0
 11
461.4202861499114
 21
289.7503444286033
 31
0.0
 11
461.1427283415327
 21
289.7105243494442
 31
0.0
 11
460.8686769371537
 21
289.6442647667202
 31
0.0
 11
460.6020340768793
 21
289.5526213866521
 31
0.0
 11
460.3424456523434
 21
289.435373386367
 31
0.0
 11
460.0947120764478
 21
289.294786127147
 31
0.0
 11
459.8576115918388
 21
289.1300889317949
 31
0.0
 11
459.636177062504
 21
288.9448527648178
 31
0.0
 11
459.4288936731942
 21
288.7377598879026
 31
0.0
 11
459.2403613894167
 21
288.5134538478043
 31
0.0
 11
459.069272842843
 21
288.2703590171035
 31
0.0
 11
458.91929171612
 21
288.0136972139014
 31
0.0
 11
458.7896149362457
 21
287.7421089939304
 31
0.0
 11
458.6827235821684
 21
287.4607677155414
 31
0.0
 11
458.5983575208382
 21
287.169050231996
 31
0.0
 11
458.5378449906024
 21
286.8714658357357
 31
0.0
 11
458.5012660420393
 21
286.5685601012015
 31
0.0
 11
458.4890580041146
 21
286.2636972139014
 31
0.0
 11
458.5012660420393
 21
285.9588343266015
 31
0.0
 11
458.5378449906024
 21
285.6559285920672
 31
0.0
 11
458.5983575208383
 21
285.3583441958071
 31
0.0
 11
458.6827235821684
 21
285.0666267122616
 31
0.0
 11
458.7896149362457
 21
284.7852854338726
 31
0.0
 11
458.91929171612
 21
284.5136972139014
 31
0.0
 11
459.069272842843
 21
284.2570354106993
 31
0.0
 11
459.2403613894167
 21
284.0139405799986
 31
0.0
 11
459.4288936731943
 21
283.7896345399003
 31
0.0
 11
459.636177062504
 21
283.582541662985
 31
0.0
 11
459.8576115918388
 21
283.397305496008
 31
0.0
 11
460.0947120764478
 21
283.232608300656
 31
0.0
 11
460.3424456523434
 21
283.0920210414361
 31
0.0
 11
460.6020340768793
 21
282.9747730411509
 31
0.0
 11
460.8686769371538
 21
282.8831296610828
 31
0.0
 11
461.1427283415327
 21
282.8168700783588
 31
0.0
 11
461.4202861499114
 21
282.7770499991996
 31
0.0
 11
461.700366148781
 21
282.7636972139014
 31
0.0
 11
461.9804461476505
 21
282.7770499991996
 31
0.0
 11
462.2580039560291
 21
282.8168700783588
 31
0.0
 11
462.5320553604082
 21
282.8831296610828
 31
0.0
 11
462.7986982206826
 21
282.9747730411509
 31
0.0
 11
463.0582866452185
 21
283.092021041436
 31
0.0
 11
463.306020221114
 21
283.232608300656
 31
0.0
 11
463.543120705723
 21
283.397305496008
 31
0.0
 11
463.7645552350579
 21
283.582541662985
 31
0.0
 11
463.9718386243677
 21
283.7896345399003
 31
0.0
 11
464.1603709081452
 21
284.0139405799986
 31
0.0
 11
464.3314594547189
 21
284.2570354106994
 31
0.0
 11
464.4814405814418
 21
284.5136972139014
 31
0.0
 11
464.6111173613162
 21
284.7852854338726
 31
0.0
 11
464.7180087153935
 21
285.0666267122616
 31
0.0
 11
464.8023747767239
 21
285.358344195807
 31
0.0
 11
464.8628873069595
 21
285.6559285920672
 31
0.0
 11
464.8994662555224
 21
285.9588343266015
 31
0.0
 11
464.9116742934472
 21
286.2636972139014
 31
0.0
 11
464.8994662555226
 21
286.5685601012015
 31
0.0
 11
464.8628873069595
 21
286.8714658357357
 31
0.0
 11
464.8023747767238
 21
287.1690502319959
 31
0.0
 11
464.7180087153935
 21
287.4607677155414
 31
0.0
 11
464.6111173613161
 21
287.7421089939303
 31
0.0
 11
464.4814405814418
 21
288.0136972139014
 31
0.0
 11
464.3314594547188
 21
288.2703590171035
 31
0.0
 11
464.1603709081452
 21
288.5134538478043
 31
0.0
 11
463.9718386243676
 21
288.7377598879026
 31
0.0
 11
463.7645552350579
 21
288.9448527648178
 31
0.0
 11
463.5431207057231
 21
289.1300889317949
 31
0.0
 11
463.306020221114
 21
289.294786127147
 31
0.0
 11
463.0582866452185
 21
289.435373386367
 31
0.0
 11
462.7986982206826
 21
289.5526213866521
 31
0.0
 11
462.5320553604081
 21
289.6442647667203
 31
0.0
 11
462.2580039560291
 21
289.7105243494442
 31
0.0
 11
461.9804461476505
 21
289.7503444286033
 31
0.0
 11
461.700366148781
 21
289.7636972139014
 31
0.0
  0
SPLINE
  5
110
330
42
100
AcDbEntity
  8
1
  6
Continuous
 62
     7
100
AcDbSpline
210
0.0
220
0.0
230
1.0
 70
     8
 71
     3
 72
    29
 73
    25
 74
    23
 42
0.0000000001
 43
0.0000000001
 44
0.00000001
 40
0.0
 40
0.0
 40
0.0
 40
0.0
 40
0.6069077131758222
 40
1.21222262582251
 40
1.842666707826535
 40
2.474631900595214
 40
3.102420172365254
 40
3.729333891456262
 40
4.27104293983306
 40
4.812985328221131
 40
5.340107980728283
 40
5.866248927280049
 40
6.263874837343192
 40
6.661485236222354
 40
7.280966497568898
 40
7.902596738528128
 40
8.549168915178758
 40
9.195896772489164
 40
9.722415974179098
 40
10.24911841725689
 40
11.07897537274006
 40
11.90732207846643
 40
12.6733170999503
 40
13.44191271185812
 40
13.44191271185812
 40
13.44191271185812
 40
13.44191271185812
 10
472.9586963979787
 20
289.7636972139014
 30
0.0
 10
473.1607562275362
 20
289.7538218404391
 30
0.0
 10
473.564345590205
 20
289.7340970109641
 30
0.0
 10
474.1760511405432
 20
289.6703066569108
 30
0.0
 10
474.7854682024334
 20
289.5361233595938
 30
0.0
 10
475.3838743779385
 20
289.3356677389093
 30
0.0
 10
475.9584369098344
 20
289.0771066220913
 30
0.0
 10
476.4733347075057
 20
288.7681772323199
 30
0.0
 10
476.9223535815042
 20
288.4143603077453
 30
0.0
 10
477.2962951839951
 20
288.0263356395821
 30
0.0
 10
477.6032610854556
 20
287.5894052358195
 30
0.0
 10
477.8105697429892
 20
287.1491912687192
 30
0.0
 10
477.92647233126
 20
286.7224821480345
 30
0.0
 10
477.9771755361545
 20
286.2515667055324
 30
0.0
 10
477.9167192128764
 20
285.7025921124883
 30
0.0
 10
477.7037719811298
 20
285.1048460462685
 30
0.0
 10
477.3565350437834
 20
284.5632438002696
 30
0.0
 10
476.9351773179511
 20
284.1226358321322
 30
0.0
 10
476.4877638276938
 20
283.7727619084952
 30
0.0
 10
475.9519274417716
 20
283.4438515255063
 30
0.0
 10
475.287036391858
 20
283.1401129038791
 30
0.0
 10
474.507375330384
 20
282.9153430385363
 30
0.0
 10
473.7249697120744
 20
282.8109562331267
 30
0.0
 10
473.214409242712
 20
282.7795337543778
 30
0.0
 10
472.9586963979787
 20
282.7637958899884
 30
0.0
 11
472.9586963979787
 21
289.7636972139014
 31
0.0
 11
473.5645824197368
 21
289.7284963481391
 31
0.0
 11
474.1660252392182
 21
289.6601393560549
 31
0.0
 11
474.7819164509593
 21
289.5254628702306
 31
0.0
 11
475.381377912508
 21
289.3253979782855
 31
0.0
 11
475.9530766858281
 21
289.0660167400351
 31
0.0
 11
476.4896419028412
 21
288.7417967852571
 31
0.0
 11
476.9140744416204
 21
288.4051876452761
 31
0.0
 11
477.2888234169009
 21
288.0136972139014
 31
0.0
 11
477.5903793028609
 21
287.5813520526829
 31
0.0
 11
477.8123996166946
 21
287.1043496670667
 31
0.0
 11
477.9161603338377
 21
286.720500636937
 31
0.0
 11
477.9579184316584
 21
286.3250890911227
 31
0.0
 11
477.893324820037
 21
285.7089846369129
 31
0.0
 11
477.6857066498857
 21
285.123050466636
 31
0.0
 11
477.3403340490308
 21
284.576448832722
 31
0.0
 11
476.8960599224278
 21
284.1064728526417
 31
0.0
 11
476.4821895036532
 21
283.7809982050706
 31
0.0
 11
476.034150656429
 21
283.5040927068909
 31
0.0
 11
475.2793899497914
 21
283.1591306187135
 31
0.0
 11
474.4832336394032
 21
282.9304531289671
 31
0.0
 11
473.7252245088037
 21
282.8201329999524
 31
0.0
 11
472.9586963979787
 21
282.7637958899884
 31
0.0
  0
SPLINE
  5
111
330
42
100
AcDbEntity
  8
1
  6
Continuous
 62
     7
100
AcDbSpline
210
0.0
220
0.0
230
1.0
 70
    11
 71
     3
 72
    79
 73
    75
 74
    73
 42
0.0000000001
 43
0.0000000001
 44
0.00000001
 40
0.0
 40
0.0
 40
0.0
 40
0.0
 40
0.2803981145479002
 40
0.5607977859032381
 40
0.8427454841467855
 40
1.12469747304861
 40
1.409536451638066
 40
1.694381500885807
 40
1.983071310125133
 40
2.271767843422881
 40
2.564776142200926
 40
2.857790854546538
 40
3.155055698552855
 40
3.452325978930906
 40
3.75328482738971
 40
4.054247742882664
 40
4.35791980697558
 40
4.661594368328895
 40
4.966700748943423
 40
5.271807969839424
 40
5.57691519073537
 40
5.882021571349892
 40
6.185696132703096
 40
6.489368196796011
 40
6.790331112289018
 40
7.091289960747925
 40
7.388560241126005
 40
7.685825085132243
 40
7.978839797477855
 40
8.27184809625594
 40
8.560544629553615
 40
8.849234438792909
 40
9.134079488040573
 40
9.418918466630103
 40
9.700870455531893
 40
9.982818153775483
 40
10.26321782513083
 40
10.54361593967873
 40
10.82401405422664
 40
11.10441372558193
 40
11.38636142382553
 40
11.6683134127273
 40
11.95315239131688
 40
12.23799744056465
 40
12.52668724980391
 40
12.81538378310158
 40
13.10839208187954
 40
13.40140679422512
 40
13.69867163823143
 40
13.99594191860944
 40
14.29690076706832
 40
14.59786368256138
 40
14.90153574665429
 40
15.2052103080075
 40
15.51031668862204
 40
15.81542390951799
 40
16.12053113041399
 40
16.42563751102854
 40
16.72931207238178
 40
17.03298413647477
 40
17.33394705196778
 40
17.63490590042655
 40
17.93217618080458
 40
18.22944102481091
 40
18.52245573715645
 40
18.81546403593442
 40
19.10416056923212
 40
19.39285037847144
 40
19.67769542771919
 40
19.9625344063088
 40
20.24448639521052
 40
20.52643409345417
 40
20.80683376480945
 40
21.08723187935735
 40
21.08723187935735
 40
21.08723187935735
 40
21.08723187935735
 10
484.2170266471763
 20
289.7636972139014
 30
0.0
 10
484.3105271902299
 20
289.7611158280122
 30
0.0
 10
484.4975287954641
 20
289.7559530419015
 30
0.0
 10
484.7760132087045
 20
289.7144806918528
 30
0.0
 10
485.0499554051065
 20
289.6485805314598
 30
0.0
 10
485.3178835704421
 20
289.5563484222261
 30
0.0
 10
485.5769293580024
 20
289.4392662328669
 30
0.0
 10
485.8260886521551
 20
289.2977899512878
 30
0.0
 10
486.0623986723328
 20
289.1335076052947
 30
0.0
 10
486.2851736662511
 20
288.9470474570782
 30
0.0
 10
486.4916296985491
 20
288.7406229821411
 30
0.0
 10
486.6812424421897
 20
288.5149052877046
 30
0.0
 10
486.8516416181153
 20
288.2726144893558
 30
0.0
 10
487.002354425723
 20
288.0145569965158
 30
0.0
 10
487.1315775622487
 20
287.7437297930339
 30
0.0
 10
487.2388572354332
 20
287.4612129395373
 30
0.0
 10
487.3230117389882
 20
287.1700249689441
 30
0.0
 10
487.3836550128194
 20
286.8716461960294
 30
0.0
 10
487.4201887750907
 20
286.5688852241491
 30
0.0
 10
487.4324078058271
 20
286.2636972139012
 30
0.0
 10
487.4201887750904
 20
285.9585092036548
 30
0.0
 10
487.3836550128196
 20
285.65574823177
 30
0.0
 10
487.3230117389882
 20
285.3573694588721
 30
0.0
 10
487.2388572354331
 20
285.0661814882163
 30
0.0
 10
487.1315775622486
 20
284.7836646349514
 30
0.0
 10
487.0023544257232
 20
284.5128374306098
 30
0.0
 10
486.8516416181152
 20
284.2547799409406
 30
0.0
 10
486.6812424421897
 20
284.0124891308449
 30
0.0
 10
486.4916296985491
 20
283.7867714796473
 30
0.0
 10
486.285173666251
 20
283.5803468446206
 30
0.0
 10
486.0623986723329
 20
283.3938872854435
 30
0.0
 10
485.826088652155
 20
283.2296027577325
 30
0.0
 10
485.5769293580024
 20
283.0881345146628
 30
0.0
 10
485.3178835704422
 20
282.9710225110611
 30
0.0
 10
485.0499554051066
 20
282.878900592588
 30
0.0
 10
484.7760132087043
 20
282.8125908270205
 30
0.0
 10
484.4975287954642
 20
282.7726391619245
 30
0.0
 10
484.2170266471763
 20
282.7592262523016
 30
0.0
 10
483.9365244988884
 20
282.7726391619246
 30
0.0
 10
483.6580400856482
 20
282.8125908270204
 30
0.0
 10
483.3840978892461
 20
282.8789005925881
 30
0.0
 10
483.1161697239106
 20
282.9710225110611
 30
0.0
 10
482.8571239363503
 20
283.0881345146628
 30
0.0
 10
482.6079646421974
 20
283.2296027577325
 30
0.0
 10
482.3716546220195
 20
283.3938872854434
 30
0.0
 10
482.1488796281015
 20
283.5803468446206
 30
0.0
 10
481.9424235958037
 20
283.7867714796473
 30
0.0
 10
481.752810852163
 20
284.012489130845
 30
0.0
 10
481.5824116762376
 20
284.2547799409407
 30
0.0
 10
481.4316988686296
 20
284.5128374306097
 30
0.0
 10
481.302475732104
 20
284.7836646349514
 30
0.0
 10
481.1951960589197
 20
285.0661814882163
 30
0.0
 10
481.1110415553643
 20
285.3573694588721
 30
0.0
 10
481.0503982815333
 20
285.65574823177
 30
0.0
 10
481.013864519262
 20
285.9585092036548
 30
0.0
 10
481.0016454885254
 20
286.2636972139012
 30
0.0
 10
481.013864519262
 20
286.5688852241491
 30
0.0
 10
481.0503982815333
 20
286.8716461960294
 30
0.0
 10
481.1110415553644
 20
287.1700249689441
 30
0.0
 10
481.1951960589196
 20
287.4612129395373
 30
0.0
 10
481.302475732104
 20
287.7437297930339
 30
0.0
 10
481.4316988686297
 20
288.0145569965158
 30
0.0
 10
481.5824116762374
 20
288.2726144893557
 30
0.0
 10
481.7528108521632
 20
288.5149052877046
 30
0.0
 10
481.9424235958034
 20
288.740622982141
 30
0.0
 10
482.1488796281016
 20
288.9470474570782
 30
0.0
 10
482.3716546220194
 20
289.1335076052947
 30
0.0
 10
482.6079646421974
 20
289.2977899512878
 30
0.0
 10
482.8571239363502
 20
289.439266232867
 30
0.0
 10
483.1161697239104
 20
289.5563484222259
 30
0.0
 10
483.3840978892461
 20
289.64858053146
 30
0.0
 10
483.6580400856483
 20
289.7144806918527
 30
0.0
 10
483.9365244988883
 20
289.7559530419014
 30
0.0
 10
484.1235261041227
 20
289.7611158280122
 30
0.0
 10
484.2170266471763
 20
289.7636972139014
 30
0.0
 11
484.2170266471763
 21
289.7636972139014
 31
0.0
 11
484.4971066460459
 21
289.7503444286033
 31
0.0
 11
484.7746644544245
 21
289.7105243494442
 31
0.0
 11
485.0487158588035
 21
289.6442647667202
 31
0.0
 11
485.315358719078
 21
289.5526213866521
 31
0.0
 11
485.5749471436139
 21
289.435373386367
 31
0.0
 11
485.8226807195094
 21
289.294786127147
 31
0.0
 11
486.0597812041183
 21
289.1300889317949
 31
0.0
 11
486.2812157334532
 21
288.9448527648178
 31
0.0
 11
486.4884991227631
 21
288.7377598879026
 31
0.0
 11
486.6770314065407
 21
288.5134538478043
 31
0.0
 11
486.8481199531143
 21
288.2703590171035
 31
0.0
 11
486.9981010798372
 21
288.0136972139014
 31
0.0
 11
487.1277778597116
 21
287.7421089939303
 31
0.0
 11
487.234669213789
 21
287.4607677155414
 31
0.0
 11
487.3190352751192
 21
287.169050231996
 31
0.0
 11
487.379547805355
 21
286.8714658357357
 31
0.0
 11
487.4161267539179
 21
286.5685601012015
 31
0.0
 11
487.4283347918425
 21
286.2636972139014
 31
0.0
 11
487.4161267539178
 21
285.9588343266015
 31
0.0
 11
487.379547805355
 21
285.6559285920672
 31
0.0
 11
487.3190352751192
 21
285.358344195807
 31
0.0
 11
487.234669213789
 21
285.0666267122616
 31
0.0
 11
487.1277778597116
 21
284.7852854338726
 31
0.0
 11
486.9981010798372
 21
284.5136972139014
 31
0.0
 11
486.8481199531142
 21
284.2570354106993
 31
0.0
 11
486.6770314065407
 21
284.0139405799986
 31
0.0
 11
486.4884991227631
 21
283.7896345399003
 31
0.0
 11
486.2812157334532
 21
283.582541662985
 31
0.0
 11
486.0597812041183
 21
283.397305496008
 31
0.0
 11
485.8226807195094
 21
283.232608300656
 31
0.0
 11
485.5749471436139
 21
283.0920210414361
 31
0.0
 11
485.315358719078
 21
282.9747730411509
 31
0.0
 11
485.0487158588035
 21
282.8831296610828
 31
0.0
 11
484.7746644544245
 21
282.8168700783588
 31
0.0
 11
484.4971066460459
 21
282.7770499991996
 31
0.0
 11
484.2170266471763
 21
282.7636972139014
 31
0.0
 11
483.9369466483067
 21
282.7770499991996
 31
0.0
 11
483.6593888399281
 21
282.8168700783588
 31
0.0
 11
483.3853374355491
 21
282.8831296610828
 31
0.0
 11
483.1186945752746
 21
282.9747730411509
 31
0.0
 11
482.8591061507386
 21
283.0920210414361
 31
0.0
 11
482.6113725748431
 21
283.232608300656
 31
0.0
 11
482.3742720902341
 21
283.397305496008
 31
0.0
 11
482.1528375608993
 21
283.582541662985
 31
0.0
 11
481.9455541715896
 21
283.7896345399003
 31
0.0
 11
481.757021887812
 21
284.0139405799986
 31
0.0
 11
481.5859333412384
 21
284.2570354106994
 31
0.0
 11
481.4359522145155
 21
284.5136972139014
 31
0.0
 11
481.3062754346411
 21
284.7852854338726
 31
0.0
 11
481.1993840805637
 21
285.0666267122616
 31
0.0
 11
481.1150180192335
 21
285.358344195807
 31
0.0
 11
481.0545054889977
 21
285.6559285920672
 31
0.0
 11
481.0179265404347
 21
285.9588343266015
 31
0.0
 11
481.00571850251
 21
286.2636972139014
 31
0.0
 11
481.0179265404347
 21
286.5685601012015
 31
0.0
 11
481.0545054889977
 21
286.8714658357357
 31
0.0
 11
481.1150180192334
 21
287.1690502319959
 31
0.0
 11
481.1993840805637
 21
287.4607677155414
 31
0.0
 11
481.3062754346411
 21
287.7421089939304
 31
0.0
 11
481.4359522145155
 21
288.0136972139014
 31
0.0
 11
481.5859333412385
 21
288.2703590171035
 31
0.0
 11
481.757021887812
 21
288.5134538478043
 31
0.0
 11
481.9455541715896
 21
288.7377598879026
 31
0.0
 11
482.1528375608993
 21
288.9448527648178
 31
0.0
 11
482.3742720902341
 21
289.1300889317949
 31
0.0
 11
482.6113725748431
 21
289.294786127147
 31
0.0
 11
482.8591061507386
 21
289.435373386367
 31
0.0
 11
483.1186945752746
 21
289.5526213866521
 31
0.0
 11
483.3853374355491
 21
289.6442647667202
 31
0.0
 11
483.6593888399281
 21
289.7105243494442
 31
0.0
 11
483.9369466483067
 21
289.7503444286033
 31
0.0
 11
484.2170266471763
 21
289.7636972139014
 31
0.0
  0
SPLINE
  5
112
330
42
100
AcDbEntity
  8
1
  6
Continuous
 62
     7
100
AcDbSpline
210
0.0
220
0.0
230
1.0
 70
     8
 71
     3
 72
    23
 73
    19
 74
    17
 42
0.0000000001
 43
0.0000000001
 44
0.00000001
 40
0.0
 40
0.0
 40
0.0
 40
0.0
 40
1.674047303672359
 40
3.34829353402675
 40
3.69038585495943
 40
4.032529333966336
 40
4.354266094293338
 40
4.675918440422051
 40
4.986217181540941
 40
5.296477195364549
 40
5.606736956685895
 40
5.917035921454768
 40
6.238689403054341
 40
6.560425158429444
 40
6.902564985246243
 40
7.244660394106558
 40
8.918972408640078
 40
10.59303951274412
 40
10.59303951274412
 40
10.59303951274412
 40
10.59303951274412
 10
151.942341432684
 20
289.6463521813063
 30
0.0
 10
152.4797990522172
 20
289.4888158316612
 30
0.0
 10
153.5547781572572
 20
289.1737244123603
 30
0.0
 10
154.5782152218373
 20
288.4185016709064
 30
0.0
 10
155.0666042204049
 20
287.8015706880337
 30
0.0
 10
155.2459281155036
 20
287.5172741213463
 30
0.0
 10
155.3881910954909
 20
287.220369519354
 30
0.0
 10
155.4902274102364
 20
286.9183803214331
 30
0.0
 10
155.5518195403959
 20
286.609536394888
 30
0.0
 10
155.57278569532
 20
286.2990544035978
 30
0.0
 10
155.5518192828222
 20
285.9885723476886
 30
0.0
 10
155.4902271113134
 20
285.6797281155955
 30
0.0
 10
155.3881922622062
 20
285.3777382878934
 30
0.0
 10
155.2459295017229
 20
285.0808348101375
 30
0.0
 10
155.0665991010618
 20
284.7965420237056
 30
0.0
 10
154.5782003789507
 20
284.1796005797539
 30
0.0
 10
153.554994569196
 20
283.4239740031906
 30
0.0
 10
152.4798662654917
 20
283.1091546326226
 30
0.0
 10
151.942341432684
 20
282.9517564607521
 30
0.0
 11
151.942341432684
 21
289.6463521813063
 31
0.0
 11
153.5181154233977
 21
289.0812232534296
 31
0.0
 11
154.8499974418694
 21
288.0667328746051
 31
0.0
 11
155.0616647093929
 21
287.7979874115732
 31
0.0
 11
155.2435868204827
 21
287.5082176655271
 31
0.0
 11
155.3821924401879
 21
287.217867833201
 31
0.0
 11
155.4846280540435
 21
286.9129626400931
 31
0.0
 11
155.5451742281623
 21
286.608628170242
 31
0.0
 11
155.5657972266424
 21
286.2990543210372
 31
0.0
 11
155.5451740390202
 21
285.9894807374944
 31
0.0
 11
155.4846280540435
 21
285.6851460019813
 31
0.0
 11
155.3821930359203
 21
285.3802394108961
 31
0.0
 11
155.2435868204826
 21
285.0898909765472
 31
0.0
 11
155.0616623207112
 21
284.8001270424954
 31
0.0
 11
154.8499974418693
 21
284.5313757674693
 31
0.0
 11
153.5182286830415
 21
283.5166281658355
 31
0.0
 11
151.942341432684
 21
282.9517564607521
 31
0.0
  0
SPLINE
  5
113
330
42
100
AcDbEntity
  8
1
  6
Continuous
 62
     7
100
AcDbSpline
210
0.0
220
0.0
230
1.0
 70
     8
 71
     3
 72
    23
 73
    19
 74
    17
 42
0.0000000001
 43
0.0000000001
 44
0.00000001
 40
0.0
 40
0.0
 40
0.0
 40
0.0
 40
1.674047303672305
 40
3.348293534026628
 40
3.690385854959379
 40
4.032529333966224
 40
4.354266094293238
 40
4.67591844042196
 40
4.98621718154085
 40
5.296477195364459
 40
5.606736956685805
 40
5.917035921454678
 40
6.238689403054242
 40
6.56042515842932
 40
6.902564985246149
 40
7.244660394106464
 40
8.918972408640007
 40
10.593039512744
 40
10.593039512744
 40
10.593039512744
 40
10.593039512744
 10
135.9423414326839
 20
289.6463521813063
 30
0.0
 10
135.4048838131507
 20
289.4888158316612
 30
0.0
 10
134.3299047081107
 20
289.1737244123604
 30
0.0
 10
133.3064676435309
 20
288.4185016709063
 30
0.0
 10
132.8180786449631
 20
287.8015706880338
 30
0.0
 10
132.6387547498645
 20
287.5172741213463
 30
0.0
 10
132.4964917698771
 20
287.2203695193541
 30
0.0
 10
132.3944554551315
 20
286.9183803214331
 30
0.0
 10
132.3328633249721
 20
286.609536394888
 30
0.0
 10
132.3118971700479
 20
286.2990544035978
 30
0.0
 10
132.3328635825457
 20
285.9885723476886
 30
0.0
 10
132.3944557540546
 20
285.6797281155954
 30
0.0
 10
132.4964906031617
 20
285.3777382878934
 30
0.0
 10
132.638753363645
 20
285.0808348101375
 30
0.0
 10
132.8180837643061
 20
284.7965420237056
 30
0.0
 10
133.3064824864172
 20
284.1796005797541
 30
0.0
 10
134.329688296172
 20
283.4239740031905
 30
0.0
 10
135.4048165998762
 20
283.1091546326225
 30
0.0
 10
135.9423414326839
 20
282.9517564607521
 30
0.0
 11
135.9423414326839
 21
289.6463521813063
 31
0.0
 11
134.3665674419703
 21
289.0812232534296
 31
0.0
 11
133.0346854234987
 21
288.0667328746051
 31
0.0
 11
132.823018155975
 21
287.7979874115732
 31
0.0
 11
132.6410960448854
 21
287.5082176655271
 31
0.0
 11
132.5024904251801
 21
287.217867833201
 31
0.0
 11
132.4000548113245
 21
286.9129626400931
 31
0.0
 11
132.3395086372057
 21
286.608628170242
 31
0.0
 11
132.3188856387256
 21
286.2990543210372
 31
0.0
 11
132.3395088263478
 21
285.9894807374944
 31
0.0
 11
132.4000548113244
 21
285.6851460019813
 31
0.0
 11
132.5024898294477
 21
285.3802394108961
 31
0.0
 11
132.6410960448853
 21
285.0898909765472
 31
0.0
 11
132.8230205446567
 21
284.8001270424954
 31
0.0
 11
133.0346854234986
 21
284.5313757674693
 31
0.0
 11
134.3664541823264
 21
283.5166281658355
 31
0.0
 11
135.9423414326839
 21
282.9517564607521
 31
0.0
  0
ENDBLK
  5
44
330
42
100
AcDbEntity
  8
0
100
AcDbBlockEnd
  0
BLOCK
  5
46
330
45
100
AcDbEntity
  8
0
100
AcDbBlockBegin
  2
R20F
 70
     0
 71
     0
 10
628.5339221100529
 20
302.7636972139014
 30
0.0
  3
R20F
  1

  0
LINE
  5
114
330
45
100
AcDbEntity
  8
1
  6
DASH_CENTER
 62
     2
100
AcDbLine
 10
472.9586963979787
 20
310.7636972139014
 30
0.0
 11
472.9586963979787
 21
318.6280934142843
 31
0.0
  0
ENDBLK
  5
47
330
45
100
AcDbEntity
  8
0
100
AcDbBlockEnd
  0
BLOCK
  5
4E
330
48
100
AcDbEntity
  8
0
100
AcDbBlockBegin
  2
R10A-13
 70
     0
 71
     0
 10
628.5339221100529
 20
262.2636972139014
 30
0.0
  3
R10A-13
  1

  0
INSERT
  5
49
330
48
100
AcDbEntity
  8
0
100
AcDbBlockReference
  2
42-1
 10
735.0629564845822
 20
106.9740482043166
 30
0.0
  0
INSERT
  5
4A
330
48
100
AcDbEntity
  8
1
100
AcDbBlockReference
  2
21-1A
 10
701.1409162289164
 20
249.5496225653997
 30
0.0
  0
INSERT
  5
4B
330
48
100
AcDbEntity
  8
0
100
AcDbBlockReference
  2
36-1A-13-M4
 10
578.2876795002934
 20
799.078198250864
 30
0.0
  0
INSERT
  5
4C
330
48
100
AcDbEntity
  8
0
100
AcDbBlockReference
  2
37-1-13
 10
738.7599266147497
 20
142.7679913237569
 30
0.0
  0
INSERT
  5
4D
330
48
100
AcDbEntity
  8
0
100
AcDbBlockReference
  2
R20F
 10
628.5339221100529
 20
302.7636972139014
 30
0.0
  0
LINE
  5
115
330
48
100
AcDbEntity
  8
1
  6
DASH_CENTER
 62
     2
100
AcDbLine
 10
472.9586963979787
 20
299.7636972139014
 30
0.0
 11
472.9586963979787
 21
310.7636972139014
 31
0.0
  0
ENDBLK
  5
4F
330
48
100
AcDbEntity
  8
0
100
AcDbBlockEnd
  0
BLOCK
  5
51
330
50
100
AcDbEntity
  8
0
100
AcDbBlockBegin
  2
32-1-16
 70
     0
 71
     0
 10
672.3059331461816
 20
352.5691148858407
 30
0.0
  3
32-1-16
  1

  0
LINE
  5
116
330
50
100
AcDbEntity
  8
1
  6
Continuous
 62
     7
100
AcDbLine
 10
151.9423414326839
 20
228.2636972139014
 30
0.0
 11
153.7102906251151
 21
228.2636972139014
 31
0.0
  0
LINE
  5
117
330
50
100
AcDbEntity
  8
1
  6
Continuous
 62
     7
100
AcDbLine
 10
135.9423414326839
 20
238.2636972139014
 30
0.0
 11
130.6423414326839
 21
238.2636972139014
 31
0.0
  0
LINE
  5
118
330
50
100
AcDbEntity
  8
1
  6
Continuous
 62
     7
100
AcDbLine
 10
157.942341432684
 20
230.5505199641884
 30
0.0
 11
157.942341432684
 21
237.6919483927313
 31
0.0
  0
LINE
  5
119
330
50
100
AcDbEntity
  8
1
  6
Continuous
 62
     7
100
AcDbLine
 10
157.242341432684
 20
238.2636972139014
 30
0.0
 11
151.9423414326839
 21
238.2636972139014
 31
0.0
  0
LINE
  5
11A
330
50
100
AcDbEntity
  8
1
  6
Continuous
 62
     7
100
AcDbLine
 10
155.5003624944147
 20
229.2636972139014
 30
0.0
 11
155.442341432684
 21
229.2636972139014
 31
0.0
  0
LINE
  5
11B
330
50
100
AcDbEntity
  8
1
  6
Continuous
 62
     7
100
AcDbLine
 10
129.942341432684
 20
237.6919483927313
 30
0.0
 11
129.942341432684
 21
230.5505199641884
 31
0.0
  0
LINE
  5
11C
330
50
100
AcDbEntity
  8
1
  6
Continuous
 62
     7
100
AcDbLine
 10
132.4423414326839
 20
229.2636972139014
 30
0.0
 11
132.3843203709533
 21
229.2636972139014
 31
0.0
  0
LINE
  5
11D
330
50
100
AcDbEntity
  8
1
  6
Continuous
 62
     7
100
AcDbLine
 10
134.1743922402526
 20
228.2636972139014
 30
0.0
 11
135.9423414326839
 21
228.2636972139014
 31
0.0
  0
LINE
  5
11E
330
50
100
AcDbEntity
  8
1
  6
Continuous
 62
     7
100
AcDbLine
 10
451.2586963979786
 20
238.2636972139018
 30
0.0
 11
437.9586963979787
 21
238.2636972139018
 31
0.0
  0
LINE
  5
11F
330
50
100
AcDbEntity
  8
1
  6
Continuous
 62
     7
100
AcDbLine
 10
451.1456963979786
 20
238.2636972139018
 30
0.0
 11
451.2586963979786
 21
238.2636972139018
 31
0.0
  0
LINE
  5
120
330
50
100
AcDbEntity
  8
1
  6
Continuous
 62
     7
100
AcDbLine
 10
449.5167174597092
 20
229.2636972139018
 30
0.0
 11
449.4586963979787
 21
229.2636972139014
 31
0.0
  0
LINE
  5
121
330
50
100
AcDbEntity
  8
1
  6
Continuous
 62
     7
100
AcDbLine
 10
437.9586963979787
 20
228.2636972139018
 30
0.0
 11
447.7266455904098
 21
228.2636972139018
 31
0.0
  0
LINE
  5
122
330
50
100
AcDbEntity
  8
1
  6
Continuous
 62
     7
100
AcDbLine
 10
446.7570183770483
 20
229.2636972139018
 30
0.0
 11
437.9586963979787
 21
229.2636972139014
 31
0.0
  0
LINE
  5
123
330
50
100
AcDbEntity
  8
1
  6
Continuous
 62
     7
100
AcDbLine
 10
437.9586963979787
 20
238.2636972139018
 30
0.0
 11
424.6586963979786
 21
238.2636972139018
 31
0.0
  0
LINE
  5
124
330
50
100
AcDbEntity
  8
1
  6
Continuous
 62
     7
100
AcDbLine
 10
424.6586963979786
 20
238.2636972139018
 30
0.0
 11
424.7716963979785
 21
238.2636972139018
 31
0.0
  0
LINE
  5
125
330
50
100
AcDbEntity
  8
1
  6
Continuous
 62
     7
100
AcDbLine
 10
426.4586963979787
 20
229.2636972139014
 30
0.0
 11
426.400675336248
 21
229.2636972139018
 31
0.0
  0
LINE
  5
126
330
50
100
AcDbEntity
  8
1
  6
Continuous
 62
     7
100
AcDbLine
 10
428.1907472055475
 20
228.2636972139018
 30
0.0
 11
437.9586963979787
 21
228.2636972139018
 31
0.0
  0
LINE
  5
127
330
50
100
AcDbEntity
  8
1
  6
Continuous
 62
     7
100
AcDbLine
 10
437.9586963979787
 20
229.2636972139014
 30
0.0
 11
429.160374418909
 21
229.2636972139018
 31
0.0
  0
LINE
  5
128
330
50
100
AcDbEntity
  8
1
  6
Continuous
 62
     7
100
AcDbLine
 10
129.9423414326842
 20
654.1116298660764
 30
0.0
 11
129.9423414326842
 21
667.4157645617265
 31
0.0
  0
LINE
  5
129
330
50
100
AcDbEntity
  8
1
  6
Continuous
 62
     7
100
AcDbLine
 10
142.7032007435855
 20
645.3133078870069
 30
0.0
 11
131.1814821217828
 21
651.9653752348318
 31
0.0
  0
LINE
  5
12A
330
50
100
AcDbEntity
  8
1
  6
Continuous
 62
     7
100
AcDbLine
 10
156.7032007435856
 20
651.9653752348318
 30
0.0
 11
145.1814821217826
 21
645.313307887007
 31
0.0
  0
LINE
  5
12B
330
50
100
AcDbEntity
  8
1
  6
Continuous
 62
     7
100
AcDbLine
 10
157.942341432684
 20
654.1116298660764
 30
0.0
 11
157.942341432684
 21
667.4157645617265
 31
0.0
  0
LINE
  5
12C
330
50
100
AcDbEntity
  8
1
  6
Continuous
 62
     7
100
AcDbLine
 10
131.1814821217828
 20
669.5620191929712
 30
0.0
 11
134.1900456295443
 21
671.2990141440516
 31
0.0
  0
LINE
  5
12D
330
50
100
AcDbEntity
  8
1
  6
Continuous
 62
     7
100
AcDbLine
 10
153.6946372358237
 20
671.2990141440515
 30
0.0
 11
156.7032007435856
 21
669.5620191929712
 31
0.0
  0
ARC
  5
12E
330
50
100
AcDbEntity
  8
1
  6
Continuous
 62
     7
100
AcDbCircle
 10
154.442341432684
 20
234.1212341784598
 30
0.0
 40
5.000000000000057
100
AcDbArc
 50
45.57299599919494
 51
55.94420225743234
  0
ARC
  5
12F
330
50
100
AcDbEntity
  8
1
  6
Continuous
 62
     7
100
AcDbCircle
 10
154.442341432684
 20
234.1212341784598
 30
0.0
 40
4.999999999999905
100
AcDbArc
 50
-74.66244233044429
 51
-45.57299599919402
  0
ARC
  5
130
330
50
100
AcDbEntity
  8
1
  6
Continuous
 62
     7
100
AcDbCircle
 10
133.4423414326839
 20
234.1212341784598
 30
0.0
 40
5.000000000000001
100
AcDbArc
 50
124.0557977425677
 51
134.4270040008042
  0
ARC
  5
131
330
50
100
AcDbEntity
  8
1
  6
Continuous
 62
     7
100
AcDbCircle
 10
133.4423414326839
 20
234.1212341784598
 30
0.0
 40
4.999999999999896
100
AcDbArc
 50
-134.4270040008051
 51
-105.3375576695579
  0
ARC
  5
132
330
50
100
AcDbEntity
  8
1
  6
Continuous
 62
     7
100
AcDbCircle
 10
448.4586963979787
 20
234.1212341784602
 30
0.0
 40
4.999999999999955
100
AcDbArc
 50
-74.66244233044715
 51
55.94420225743296
  0
ARC
  5
133
330
50
100
AcDbEntity
  8
1
  6
Continuous
 62
     7
100
AcDbCircle
 10
427.4586963979787
 20
234.1212341784602
 30
0.0
 40
5.000000000000057
100
AcDbArc
 50
124.0557977425692
 51
-105.3375576695554
  0
ARC
  5
134
330
50
100
AcDbEntity
  8
1
  6
Continuous
 62
     7
100
AcDbCircle
 10
143.942341432684
 20
660.7636972139015
 30
0.0
 40
15.49999999999981
100
AcDbArc
 50
145.4146209151603
 51
154.5853790848389
  0
ARC
  5
135
330
50
100
AcDbEntity
  8
1
  6
Continuous
 62
     7
100
AcDbCircle
 10
143.942341432684
 20
660.7636972139015
 30
0.0
 40
15.49999999999985
100
AcDbArc
 50
-154.5853790848385
 51
-145.4146209151599
  0
ARC
  5
136
330
50
100
AcDbEntity
  8
1
  6
Continuous
 62
     7
100
AcDbCircle
 10
143.942341432684
 20
660.7636972139015
 30
0.0
 40
15.49999999999999
100
AcDbArc
 50
-94.58537908483883
 51
-85.41462091516073
  0
ARC
  5
137
330
50
100
AcDbEntity
  8
1
  6
Continuous
 62
     7
100
AcDbCircle
 10
143.942341432684
 20
660.7636972139015
 30
0.0
 40
15.5000000000002
100
AcDbArc
 50
-34.58537908483922
 51
-25.41462091516118
  0
ARC
  5
138
330
50
100
AcDbEntity
  8
1
  6
Continuous
 62
     7
100
AcDbCircle
 10
143.942341432684
 20
660.7636972139015
 30
0.0
 40
15.49999999999998
100
AcDbArc
 50
25.4146209151608
 51
34.58537908483888
  0
SPLINE
  5
139
330
50
100
AcDbEntity
  8
1
  6
Continuous
 62
     7
100
AcDbSpline
210
0.0
220
0.0
230
1.0
 70
    11
 71
     3
 72
    79
 73
    75
 74
    73
 42
0.0000000001
 43
0.0000000001
 44
0.00000001
 40
0.0
 40
0.0
 40
0.0
 40
0.0
 40
0.2903672562528919
 40
0.5807357597934065
 40
0.8724071051837303
 40
1.164081918217477
 40
1.458189931540044
 40
1.752302927360551
 40
2.049663207833703
 40
2.347029113126281
 40
2.648045792769497
 40
2.949067942938954
 40
3.253697753141508
 40
3.558332281909113
 40
3.866104864362506
 40
4.173881026138482
 40
4.483966067734968
 40
4.794053328113911
 40
5.10536222407602
 40
5.416671870214193
 40
5.727981516352367
 40
6.039290412314531
 40
6.34937767269347
 40
6.659462714289869
 40
6.967238876065818
 40
7.275011458519237
 40
7.579645987286867
 40
7.884275797489422
 40
8.185297947658979
 40
8.486314627302155
 40
8.783680532594726
 40
9.081040813067894
 40
9.375153808888422
 40
9.669261822210913
 40
9.960936635244714
 40
10.25260798063498
 40
10.54297648417549
 40
10.83334374042838
 40
11.12371099668139
 40
11.41407950022201
 40
11.70575084561234
 40
11.99742565864608
 40
12.29153367196866
 40
12.58564666778915
 40
12.88300694826232
 40
13.18037285355485
 40
13.48138953319808
 40
13.78241168336762
 40
14.08704149357017
 40
14.39167602233775
 40
14.69944860479114
 40
15.00722476656712
 40
15.31730980816356
 40
15.62739706854246
 40
15.93870596450462
 40
16.2500156106428
 40
16.56132525678098
 40
16.87263415274308
 40
17.18272141312204
 40
17.49280645471851
 40
17.80058261649446
 40
18.10835519894788
 40
18.41298972771545
 40
18.71761953791798
 40
19.01864168808744
 40
19.3196583677307
 40
19.61702427302323
 40
19.91438455349638
 40
20.20849754931688
 40
20.50260556263951
 40
20.79428037567331
 40
21.08595172106358
 40
21.3763202246042
 40
21.66668748085721
 40
21.66668748085721
 40
21.66668748085721
 40
21.66668748085721
 10
425.8343407449964
 20
230.5505199641888
 30
0.0
 10
425.7375169352624
 20
230.5531515615916
 30
0.0
 10
425.5438688998827
 20
230.5584147677012
 30
0.0
 10
425.2555080214945
 20
230.6007098413953
 30
0.0
 10
424.9717958782481
 20
230.6679207344371
 30
0.0
 10
424.694370815888
 20
230.761975899989
 30
0.0
 10
424.426049904812
 20
230.8814073579048
 30
0.0
 10
424.1680501417019
 20
231.0256828535748
 30
0.0
 10
423.9232481386795
 20
231.1932869289377
 30
0.0
 10
423.6925519138357
 20
231.3834494832389
 30
0.0
 10
423.4786562067667
 20
231.5940722036785
 30
0.0
 10
423.2822826643877
 20
231.8242938196274
 30
0.0
 10
423.1057333194187
 20
232.0715302431335
 30
0.0
 10
422.949630522939
 20
232.3347644174809
 30
0.0
 10
422.8157415085165
 20
232.6111279721564
 30
0.0
 10
422.7046134916981
 20
232.8993414161059
 30
0.0
 10
422.6174227318984
 20
233.1964798593413
 30
0.0
 10
422.5545971254398
 20
233.5009030134509
 30
0.0
 10
422.5167485756656
 20
233.8098396258166
 30
0.0
 10
422.5040863137077
 20
234.1212341784605
 30
0.0
 10
422.5167485756656
 20
234.4326287311028
 30
0.0
 10
422.5545971254397
 20
234.7415653434732
 30
0.0
 10
422.6174227318986
 20
235.0459884975658
 30
0.0
 10
422.7046134916981
 20
235.343126940864
 30
0.0
 10
422.8157415085165
 20
235.6313403845815
 30
0.0
 10
422.9496305229388
 20
235.9077039401178
 30
0.0
 10
423.1057333194189
 20
236.1709381112842
 30
0.0
 10
423.2822826643876
 20
236.4181745465895
 30
0.0
 10
423.478656206767
 20
236.6483961190036
 30
0.0
 10
423.6925519138357
 20
236.8590190008543
 30
0.0
 10
423.9232481386794
 20
237.0491809597617
 30
0.0
 10
424.1680501417019
 20
237.2167872433815
 30
0.0
 10
424.4260499048122
 20
237.3610545838654
 30
0.0
 10
424.694370815888
 20
237.4805163232225
 30
0.0
 10
424.9717958782482
 20
237.5744593702909
 30
0.0
 10
425.2555080214945
 20
237.6420873427385
 30
0.0
 10
425.5438688998827
 20
237.6828324675871
 30
0.0
 10
425.8343407449964
 20
237.6965063455144
 30
0.0
 10
426.1248125901101
 20
237.6828324675871
 30
0.0
 10
426.4131734684987
 20
237.6420873427386
 30
0.0
 10
426.6968856117447
 20
237.5744593702908
 30
0.0
 10
426.9743106741051
 20
237.4805163232225
 30
0.0
 10
427.2426315851809
 20
237.3610545838655
 30
0.0
 10
427.5006313482915
 20
237.2167872433815
 30
0.0
 10
427.7454333513134
 20
237.0491809597617
 30
0.0
 10
427.9761295761573
 20
236.8590190008543
 30
0.0
 10
428.1900252832263
 20
236.6483961190035
 30
0.0
 10
428.3863988256053
 20
236.4181745465895
 30
0.0
 10
428.5629481705742
 20
236.1709381112842
 30
0.0
 10
428.7190509670542
 20
235.9077039401179
 30
0.0
 10
428.8529399814765
 20
235.6313403845815
 30
0.0
 10
428.9640679982949
 20
235.3431269408639
 30
0.0
 10
429.0512587580944
 20
235.0459884975658
 30
0.0
 10
429.1140843645533
 20
234.7415653434732
 30
0.0
 10
429.1519329143273
 20
234.4326287311028
 30
0.0
 10
429.1645951762853
 20
234.1212341784605
 30
0.0
 10
429.1519329143273
 20
233.8098396258166
 30
0.0
 10
429.1140843645532
 20
233.5009030134509
 30
0.0
 10
429.0512587580943
 20
233.1964798593414
 30
0.0
 10
428.9640679982949
 20
232.8993414161058
 30
0.0
 10
428.8529399814767
 20
232.6111279721564
 30
0.0
 10
428.719050967054
 20
232.3347644174809
 30
0.0
 10
428.5629481705745
 20
232.0715302431335
 30
0.0
 10
428.3863988256053
 20
231.8242938196274
 30
0.0
 10
428.1900252832263
 20
231.5940722036784
 30
0.0
 10
427.9761295761575
 20
231.383449483239
 30
0.0
 10
427.7454333513136
 20
231.1932869289377
 30
0.0
 10
427.5006313482912
 20
231.0256828535746
 30
0.0
 10
427.242631585181
 20
230.8814073579049
 30
0.0
 10
426.9743106741049
 20
230.761975899989
 30
0.0
 10
426.6968856117449
 20
230.6679207344373
 30
0.0
 10
426.4131734684985
 20
230.6007098413951
 30
0.0
 10
426.1248125901103
 20
230.5584147677014
 30
0.0
 10
425.9311645547304
 20
230.5531515615916
 30
0.0
 10
425.8343407449964
 20
230.5505199641888
 30
0.0
 11
425.8343407449964
 21
230.5505199641888
 31
0.0
 11
425.5442929831984
 21
230.5641375770412
 31
0.0
 11
425.2567810586627
 21
230.6047671364548
 31
0.0
 11
424.9730437487941
 21
230.6723342342933
 31
0.0
 11
424.6967702311389
 21
230.765860380374
 31
0.0
 11
424.4280531690401
 21
230.8854039458117
 31
0.0
 11
424.1713239080402
 21
231.028904959247
 31
0.0
 11
423.9259066182581
 21
231.1968141319538
 31
0.0
 11
423.6964075100053
 21
231.3859083966517
 31
0.0
 11
423.4818529509685
 21
231.5970419624813
 31
0.0
 11
423.2864511314692
 21
231.8260233237949
 31
0.0
 11
423.109347726329
 21
232.0738815597924
 31
0.0
 11
422.9539110895457
 21
232.3358770713245
 31
0.0
 11
422.8196578609227
 21
232.6128247795915
 31
0.0
 11
422.7088914451355
 21
232.8999779911201
 31
0.0
 11
422.6215336896625
 21
233.1975033775674
 31
0.0
 11
422.5588369961478
 21
233.5011861621826
 31
0.0
 11
422.5209545761787
 21
233.810181552055
 31
0.0
 11
422.508307071084
 21
234.1212341784602
 31
0.0
 11
422.5209545761787
 21
234.4322868048654
 31
0.0
 11
422.5588369961478
 21
234.7412821947379
 31
0.0
 11
422.6215336896626
 21
235.0449649793531
 31
0.0
 11
422.7088914451355
 21
235.3424903658003
 31
0.0
 11
422.8196578609227
 21
235.6296435773289
 31
0.0
 11
422.9539110895457
 21
235.9065912855959
 31
0.0
 11
423.109347726329
 21
236.1685867971281
 31
0.0
 11
423.2864511314692
 21
236.4164450331255
 31
0.0
 11
423.4818529509685
 21
236.6454263944392
 31
0.0
 11
423.6964075100053
 21
236.8565599602688
 31
0.0
 11
423.9259066182581
 21
237.0456542249668
 31
0.0
 11
424.1713239080402
 21
237.2135633976735
 31
0.0
 11
424.4280531690402
 21
237.3570644111087
 31
0.0
 11
424.6967702311389
 21
237.4766079765464
 31
0.0
 11
424.9730437487941
 21
237.5701341226271
 31
0.0
 11
425.2567810586627
 21
237.6377012204656
 31
0.0
 11
425.5442929831984
 21
237.6783307798791
 31
0.0
 11
425.8343407449964
 21
237.6919483927316
 31
0.0
 11
426.1243885067945
 21
237.6783307798791
 31
0.0
 11
426.4119004313303
 21
237.6377012204656
 31
0.0
 11
426.6956377411989
 21
237.5701341226271
 31
0.0
 11
426.9719112588541
 21
237.4766079765464
 31
0.0
 11
427.2406283209529
 21
237.3570644111088
 31
0.0
 11
427.4973575819528
 21
237.2135633976735
 31
0.0
 11
427.742774871735
 21
237.0456542249668
 31
0.0
 11
427.9722739799877
 21
236.8565599602688
 31
0.0
 11
428.1868285390245
 21
236.6454263944392
 31
0.0
 11
428.3822303585238
 21
236.4164450331255
 31
0.0
 11
428.5593337636641
 21
236.1685867971281
 31
0.0
 11
428.7147704004472
 21
235.9065912855959
 31
0.0
 11
428.8490236290703
 21
235.629643577329
 31
0.0
 11
428.9597900448574
 21
235.3424903658003
 31
0.0
 11
429.0471478003304
 21
235.044964979353
 31
0.0
 11
429.1098444938451
 21
234.7412821947379
 31
0.0
 11
429.1477269138143
 21
234.4322868048654
 31
0.0
 11
429.160374418909
 21
234.1212341784602
 31
0.0
 11
429.1477269138143
 21
233.810181552055
 31
0.0
 11
429.1098444938451
 21
233.5011861621826
 31
0.0
 11
429.0471478003304
 21
233.1975033775674
 31
0.0
 11
428.9597900448574
 21
232.8999779911201
 31
0.0
 11
428.8490236290703
 21
232.6128247795915
 31
0.0
 11
428.7147704004472
 21
232.3358770713245
 31
0.0
 11
428.5593337636641
 21
232.0738815597923
 31
0.0
 11
428.3822303585238
 21
231.8260233237949
 31
0.0
 11
428.1868285390246
 21
231.5970419624813
 31
0.0
 11
427.9722739799877
 21
231.3859083966517
 31
0.0
 11
427.7427748717349
 21
231.1968141319538
 31
0.0
 11
427.4973575819528
 21
231.028904959247
 31
0.0
 11
427.2406283209529
 21
230.8854039458118
 31
0.0
 11
426.9719112588541
 21
230.765860380374
 31
0.0
 11
426.6956377411989
 21
230.6723342342933
 31
0.0
 11
426.4119004313303
 21
230.6047671364548
 31
0.0
 11
426.1243885067945
 21
230.5641375770413
 31
0.0
 11
425.8343407449964
 21
230.5505199641888
 31
0.0
  0
SPLINE
  5
13A
330
50
100
AcDbEntity
  8
1
  6
Continuous
 62
     7
100
AcDbSpline
210
0.0
220
0.0
230
1.0
 70
    11
 71
     3
 72
    79
 73
    75
 74
    73
 42
0.0000000001
 43
0.0000000001
 44
0.00000001
 40
0.0
 40
0.0
 40
0.0
 40
0.0
 40
0.2903672562529487
 40
0.5807357597934071
 40
0.8724071051837441
 40
1.164081918217472
 40
1.458189931540039
 40
1.752302927360646
 40
2.049663207833891
 40
2.347029113126381
 40
2.648045792769598
 40
2.949067942939054
 40
3.253697753141576
 40
3.558332281909181
 40
3.866104864362624
 40
4.17388102613862
 40
4.483966067735078
 40
4.79405332811405
 40
5.105362224076158
 40
5.416671870214332
 40
5.727981516352507
 40
6.039290412314665
 40
6.34937767269358
 40
6.659462714290011
 40
6.96723887606596
 40
7.275011458519454
 40
7.579645987287083
 40
7.884275797489606
 40
8.185297947659164
 40
8.48631462730234
 40
8.783680532594911
 40
9.081040813068078
 40
9.375153808888607
 40
9.669261822211203
 40
9.96093663524495
 40
10.25260798063527
 40
10.54297648417579
 40
10.83334374042868
 40
11.12371099668163
 40
11.41407950022209
 40
11.70575084561236
 40
11.99742565864615
 40
12.29153367196879
 40
12.58564666778943
 40
12.8830069482626
 40
13.18037285355512
 40
13.48138953319832
 40
13.78241168336786
 40
14.08704149357038
 40
14.39167602233795
 40
14.69944860479139
 40
15.00722476656737
 40
15.31730980816383
 40
15.62739706854271
 40
15.93870596450488
 40
16.25001561064305
 40
16.56132525678122
 40
16.87263415274333
 40
17.18272141312231
 40
17.49280645471875
 40
17.80058261649473
 40
18.10835519894817
 40
18.41298972771574
 40
18.71761953791824
 40
19.01864168808773
 40
19.31965836773091
 40
19.6170242730234
 40
19.9143845534966
 40
20.20849754931724
 40
20.50260556263993
 40
20.79428037567367
 40
21.085951721064
 40
21.37632022460445
 40
21.6666874808574
 40
21.6666874808574
 40
21.6666874808574
 40
21.6666874808574
 10
450.0830520509608
 20
230.5505199641888
 30
0.0
 10
450.1798758606948
 20
230.5531515615916
 30
0.0
 10
450.3735238960745
 20
230.5584147677014
 30
0.0
 10
450.6618847744628
 20
230.6007098413951
 30
0.0
 10
450.9455969177091
 20
230.6679207344373
 30
0.0
 10
451.2230219800692
 20
230.7619758999889
 30
0.0
 10
451.4913428911452
 20
230.8814073579049
 30
0.0
 10
451.7493426542555
 20
231.0256828535746
 30
0.0
 10
451.9941446572778
 20
231.1932869289376
 30
0.0
 10
452.2248408821217
 20
231.3834494832389
 30
0.0
 10
452.4387365891904
 20
231.5940722036785
 30
0.0
 10
452.6351101315698
 20
231.8242938196274
 30
0.0
 10
452.8116594765384
 20
232.0715302431335
 30
0.0
 10
452.9677622730184
 20
232.3347644174809
 30
0.0
 10
453.1016512874409
 20
232.6111279721564
 30
0.0
 10
453.2127793042594
 20
232.8993414161058
 30
0.0
 10
453.299970064059
 20
233.1964798593414
 30
0.0
 10
453.3627956705175
 20
233.5009030134509
 30
0.0
 10
453.400644220292
 20
233.8098396258166
 30
0.0
 10
453.4133064822497
 20
234.1212341784605
 30
0.0
 10
453.4006442202918
 20
234.4326287311027
 30
0.0
 10
453.3627956705175
 20
234.7415653434731
 30
0.0
 10
453.2999700640589
 20
235.0459884975659
 30
0.0
 10
453.2127793042595
 20
235.3431269408638
 30
0.0
 10
453.1016512874409
 20
235.6313403845815
 30
0.0
 10
452.9677622730185
 20
235.9077039401178
 30
0.0
 10
452.8116594765384
 20
236.1709381112841
 30
0.0
 10
452.6351101315696
 20
236.4181745465896
 30
0.0
 10
452.4387365891906
 20
236.6483961190035
 30
0.0
 10
452.2248408821216
 20
236.8590190008544
 30
0.0
 10
451.9941446572779
 20
237.0491809597616
 30
0.0
 10
451.7493426542555
 20
237.2167872433815
 30
0.0
 10
451.4913428911452
 20
237.3610545838654
 30
0.0
 10
451.2230219800691
 20
237.4805163232225
 30
0.0
 10
450.9455969177092
 20
237.5744593702909
 30
0.0
 10
450.6618847744627
 20
237.6420873427385
 30
0.0
 10
450.3735238960744
 20
237.6828324675871
 30
0.0
 10
450.083052050961
 20
237.6965063455144
 30
0.0
 10
449.792580205847
 20
237.6828324675872
 30
0.0
 10
449.5042193274588
 20
237.6420873427385
 30
0.0
 10
449.2205071842127
 20
237.5744593702909
 30
0.0
 10
448.9430821218524
 20
237.4805163232225
 30
0.0
 10
448.6747612107765
 20
237.3610545838655
 30
0.0
 10
448.4167614476658
 20
237.2167872433814
 30
0.0
 10
448.1719594446437
 20
237.0491809597617
 30
0.0
 10
447.9412632197997
 20
236.8590190008542
 30
0.0
 10
447.7273675127311
 20
236.6483961190035
 30
0.0
 10
447.5309939703518
 20
236.4181745465895
 30
0.0
 10
447.3544446253832
 20
236.1709381112843
 30
0.0
 10
447.1983418289033
 20
235.9077039401178
 30
0.0
 10
447.0644528144806
 20
235.6313403845815
 30
0.0
 10
446.9533247976623
 20
235.3431269408639
 30
0.0
 10
446.8661340378627
 20
235.0459884975657
 30
0.0
 10
446.8033084314041
 20
234.7415653434732
 30
0.0
 10
446.7654598816299
 20
234.4326287311028
 30
0.0
 10
446.7527976196721
 20
234.1212341784604
 30
0.0
 10
446.7654598816298
 20
233.8098396258167
 30
0.0
 10
446.8033084314041
 20
233.5009030134509
 30
0.0
 10
446.8661340378629
 20
233.1964798593415
 30
0.0
 10
446.9533247976623
 20
232.8993414161058
 30
0.0
 10
447.0644528144807
 20
232.6111279721563
 30
0.0
 10
447.1983418289034
 20
232.3347644174809
 30
0.0
 10
447.3544446253828
 20
232.0715302431334
 30
0.0
 10
447.530993970352
 20
231.8242938196275
 30
0.0
 10
447.7273675127309
 20
231.5940722036785
 30
0.0
 10
447.9412632197997
 20
231.3834494832389
 30
0.0
 10
448.1719594446438
 20
231.1932869289377
 30
0.0
 10
448.4167614476658
 20
231.0256828535746
 30
0.0
 10
448.6747612107764
 20
230.8814073579049
 30
0.0
 10
448.9430821218524
 20
230.761975899989
 30
0.0
 10
449.2205071842126
 20
230.6679207344373
 30
0.0
 10
449.5042193274588
 20
230.6007098413951
 30
0.0
 10
449.7925802058472
 20
230.5584147677014
 30
0.0
 10
449.9862282412269
 20
230.5531515615916
 30
0.0
 10
450.0830520509608
 20
230.5505199641888
 30
0.0
 11
450.0830520509608
 21
230.5505199641888
 31
0.0
 11
450.3730998127589
 21
230.5641375770412
 31
0.0
 11
450.6606117372945
 21
230.6047671364548
 31
0.0
 11
450.9443490471631
 21
230.6723342342933
 31
0.0
 11
451.2206225648183
 21
230.765860380374
 31
0.0
 11
451.4893396269171
 21
230.8854039458117
 31
0.0
 11
451.7460688879171
 21
231.028904959247
 31
0.0
 11
451.9914861776993
 21
231.1968141319538
 31
0.0
 11
452.220985285952
 21
231.3859083966517
 31
0.0
 11
452.4355398449889
 21
231.5970419624813
 31
0.0
 11
452.6309416644881
 21
231.8260233237949
 31
0.0
 11
452.8080450696283
 21
232.0738815597924
 31
0.0
 11
452.9634817064115
 21
232.3358770713245
 31
0.0
 11
453.0977349350347
 21
232.6128247795915
 31
0.0
 11
453.2085013508219
 21
232.8999779911201
 31
0.0
 11
453.2958591062949
 21
233.1975033775674
 31
0.0
 11
453.3585557998096
 21
233.5011861621826
 31
0.0
 11
453.3964382197788
 21
233.810181552055
 31
0.0
 11
453.4090857248734
 21
234.1212341784602
 31
0.0
 11
453.3964382197787
 21
234.4322868048654
 31
0.0
 11
453.3585557998096
 21
234.7412821947379
 31
0.0
 11
453.2958591062949
 21
235.0449649793531
 31
0.0
 11
453.2085013508219
 21
235.3424903658003
 31
0.0
 11
453.0977349350347
 21
235.6296435773289
 31
0.0
 11
452.9634817064115
 21
235.9065912855959
 31
0.0
 11
452.8080450696283
 21
236.1685867971281
 31
0.0
 11
452.6309416644881
 21
236.4164450331255
 31
0.0
 11
452.4355398449888
 21
236.6454263944392
 31
0.0
 11
452.220985285952
 21
236.8565599602688
 31
0.0
 11
451.9914861776992
 21
237.0456542249668
 31
0.0
 11
451.7460688879171
 21
237.2135633976735
 31
0.0
 11
451.4893396269171
 21
237.3570644111087
 31
0.0
 11
451.2206225648183
 21
237.4766079765464
 31
0.0
 11
450.9443490471631
 21
237.5701341226271
 31
0.0
 11
450.6606117372945
 21
237.6377012204656
 31
0.0
 11
450.3730998127588
 21
237.6783307798791
 31
0.0
 11
450.0830520509608
 21
237.6919483927316
 31
0.0
 11
449.7930042891628
 21
237.6783307798792
 31
0.0
 11
449.5054923646271
 21
237.6377012204656
 31
0.0
 11
449.2217550547586
 21
237.5701341226271
 31
0.0
 11
448.9454815371033
 21
237.4766079765464
 31
0.0
 11
448.6767644750045
 21
237.3570644111088
 31
0.0
 11
448.4200352140044
 21
237.2135633976735
 31
0.0
 11
448.1746179242222
 21
237.0456542249668
 31
0.0
 11
447.9451188159695
 21
236.8565599602688
 31
0.0
 11
447.7305642569327
 21
236.6454263944392
 31
0.0
 11
447.5351624374334
 21
236.4164450331255
 31
0.0
 11
447.3580590322932
 21
236.1685867971281
 31
0.0
 11
447.2026223955101
 21
235.9065912855959
 31
0.0
 11
447.068369166887
 21
235.629643577329
 31
0.0
 11
446.9576027510998
 21
235.3424903658003
 31
0.0
 11
446.8702449956268
 21
235.044964979353
 31
0.0
 11
446.8075483021121
 21
234.7412821947379
 31
0.0
 11
446.7696658821429
 21
234.4322868048654
 31
0.0
 11
446.7570183770483
 21
234.1212341784602
 31
0.0
 11
446.7696658821429
 21
233.810181552055
 31
0.0
 11
446.8075483021121
 21
233.5011861621826
 31
0.0
 11
446.8702449956268
 21
233.1975033775674
 31
0.0
 11
446.9576027510998
 21
232.8999779911201
 31
0.0
 11
447.068369166887
 21
232.6128247795915
 31
0.0
 11
447.2026223955101
 21
232.3358770713245
 31
0.0
 11
447.3580590322932
 21
232.0738815597923
 31
0.0
 11
447.5351624374334
 21
231.8260233237949
 31
0.0
 11
447.7305642569327
 21
231.5970419624813
 31
0.0
 11
447.9451188159695
 21
231.3859083966517
 31
0.0
 11
448.1746179242222
 21
231.1968141319538
 31
0.0
 11
448.4200352140044
 21
231.028904959247
 31
0.0
 11
448.6767644750045
 21
230.8854039458118
 31
0.0
 11
448.9454815371033
 21
230.765860380374
 31
0.0
 11
449.2217550547585
 21
230.6723342342933
 31
0.0
 11
449.5054923646271
 21
230.6047671364548
 31
0.0
 11
449.7930042891628
 21
230.5641375770413
 31
0.0
 11
450.0830520509608
 21
230.5505199641888
 31
0.0
  0
SPLINE
  5
13B
330
50
100
AcDbEntity
  8
1
  6
Continuous
 62
     7
100
AcDbSpline
210
0.0
220
0.0
230
1.0
 70
     8
 71
     3
 72
    25
 73
    21
 74
    19
 42
0.0000000001
 43
0.0000000001
 44
0.00000001
 40
0.0
 40
0.0
 40
0.0
 40
0.0
 40
1.525997370510061
 40
3.041992003908156
 40
4.036425737836057
 40
5.033630630935232
 40
5.779988211950882
 40
6.525153434394659
 40
7.113139666336474
 40
7.696814705995099
 40
7.949097156283725
 40
8.201245184935919
 40
8.846896632263253
 40
9.499909919801368
 40
10.24994291556185
 40
11.00216046997811
 40
12.12686677425049
 40
13.24812599415153
 40
14.8177981524386
 40
16.39782997493271
 40
16.39782997493271
 40
16.39782997493271
 40
16.39782997493271
 10
437.9586963979787
 20
237.6919317435962
 30
0.0
 10
437.4511475699907
 20
237.658613874921
 30
0.0
 10
436.4393768381602
 20
237.5921965323646
 30
0.0
 10
435.1057144160994
 20
237.3782762578338
 30
0.0
 10
433.9906520727729
 20
237.0154368224422
 30
0.0
 10
433.1654566084878
 20
236.6187931454683
 30
0.0
 10
432.4679142840717
 20
236.1655839194058
 30
0.0
 10
431.9547064797921
 20
235.692481328761
 30
0.0
 10
431.5778990709927
 20
235.1719205473247
 30
0.0
 10
431.3886807031261
 20
234.7302024298805
 30
0.0
 10
431.3172612995875
 20
234.3736610677807
 30
0.0
 10
431.2918671025854
 20
233.9899703861124
 30
0.0
 10
431.3906239423836
 20
233.4722168382301
 30
0.0
 10
431.7007163733205
 20
232.8561388313053
 30
0.0
 10
432.1812917142314
 20
232.3119998660537
 30
0.0
 10
432.8838170960583
 20
231.7840293649067
 30
0.0
 10
433.7689274402331
 20
231.3095618081443
 30
0.0
 10
434.9758116141828
 20
230.8928838732978
 30
0.0
 10
436.3858100493936
 20
230.6575654309492
 30
0.0
 10
437.4332525703954
 20
230.586211473242
 30
0.0
 10
437.9586963979787
 20
230.5504171495448
 30
0.0
 11
437.9586963979787
 21
237.6919317435962
 31
0.0
 11
436.4377298969588
 21
237.568121899162
 31
0.0
 11
434.9448405532535
 21
237.304453289079
 31
0.0
 11
433.9997302921233
 21
236.9951556242314
 31
0.0
 11
433.1018920735205
 21
236.5612153840634
 31
0.0
 11
432.4800870604589
 21
236.148410146123
 31
0.0
 11
431.936830483687
 21
235.6383675003239
 31
0.0
 11
431.5958465118297
 21
235.159350026854
 31
0.0
 11
431.3720491681163
 21
234.620284816636
 31
0.0
 11
431.3227481644669
 21
234.3728664548219
 31
0.0
 11
431.3066290501536
 21
234.1212341784602
 31
0.0
 11
431.4183000554538
 21
233.4853132887175
 31
0.0
 11
431.7077977982565
 21
232.8999779911201
 31
0.0
 11
432.1974505450877
 21
232.3318321627889
 31
0.0
 11
432.7925793069434
 21
231.8717745511966
 31
0.0
 11
433.7818198645167
 21
231.3366414928624
 31
0.0
 11
434.8404433353463
 21
230.9671302139794
 31
0.0
 11
436.384280466227
 21
230.6835149855173
 31
0.0
 11
437.9586963979787
 21
230.5504171495448
 31
0.0
  0
SPLINE
  5
13C
330
50
100
AcDbEntity
  8
1
  6
Continuous
 62
     7
100
AcDbSpline
210
0.0
220
0.0
230
1.0
 70
     8
 71
     3
 72
    25
 73
    21
 74
    19
 42
0.0000000001
 43
0.0000000001
 44
0.00000001
 40
0.0
 40
0.0
 40
0.0
 40
0.0
 40
1.525997370509947
 40
3.041992003907875
 40
4.03642573783592
 40
5.033630630935119
 40
5.77998821195069
 40
6.525153434394465
 40
7.113139666336313
 40
7.696814705994915
 40
7.949097156283541
 40
8.201245184935733
 40
8.846896632263086
 40
9.499909919801125
 40
10.24994291556161
 40
11.00216046997791
 40
12.12686677425033
 40
13.24812599415127
 40
14.81779815243828
 40
16.39782997493223
 40
16.39782997493223
 40
16.39782997493223
 40
16.39782997493223
 10
437.9586963979787
 20
237.6919317435962
 30
0.0
 10
438.4662452259667
 20
237.658613874921
 30
0.0
 10
439.4780159577972
 20
237.5921965323647
 30
0.0
 10
440.8116783798578
 20
237.3782762578336
 30
0.0
 10
441.9267407231844
 20
237.0154368224423
 30
0.0
 10
442.7519361874694
 20
236.6187931454684
 30
0.0
 10
443.4494785118856
 20
236.165583919406
 30
0.0
 10
443.9626863161652
 20
235.692481328761
 30
0.0
 10
444.3394937249645
 20
235.1719205473247
 30
0.0
 10
444.528712092831
 20
234.7302024298804
 30
0.0
 10
444.6001314963697
 20
234.3736610677807
 30
0.0
 10
444.6255256933717
 20
233.9899703861125
 30
0.0
 10
444.5267688535731
 20
233.4722168382302
 30
0.0
 10
444.2166764226366
 20
232.8561388313052
 30
0.0
 10
443.736101081726
 20
232.3119998660537
 30
0.0
 10
443.0335756998986
 20
231.7840293649068
 30
0.0
 10
442.148465355724
 20
231.3095618081444
 30
0.0
 10
440.9415811817743
 20
230.8928838732978
 30
0.0
 10
439.5315827465637
 20
230.6575654309493
 30
0.0
 10
438.484140225562
 20
230.586211473242
 30
0.0
 10
437.9586963979787
 20
230.5504171495448
 30
0.0
 11
437.9586963979787
 21
237.6919317435962
 31
0.0
 11
439.4796628989985
 21
237.568121899162
 31
0.0
 11
440.9725522427036
 21
237.304453289079
 31
0.0
 11
441.917662503834
 21
236.9951556242314
 31
0.0
 11
442.8155007224368
 21
236.5612153840634
 31
0.0
 11
443.4373057354983
 21
236.1484101461231
 31
0.0
 11
443.9805623122702
 21
235.6383675003239
 31
0.0
 11
444.3215462841276
 21
235.159350026854
 31
0.0
 11
444.5453436278409
 21
234.620284816636
 31
0.0
 11
444.5946446314903
 21
234.3728664548219
 31
0.0
 11
444.6107637458035
 21
234.1212341784602
 31
0.0
 11
444.4990927405033
 21
233.4853132887175
 31
0.0
 11
444.2095949977007
 21
232.8999779911201
 31
0.0
 11
443.7199422508695
 21
232.3318321627889
 31
0.0
 11
443.1248134890137
 21
231.8717745511966
 31
0.0
 11
442.1355729314404
 21
231.3366414928624
 31
0.0
 11
441.0769494606109
 21
230.9671302139794
 31
0.0
 11
439.5331123297302
 21
230.6835149855174
 31
0.0
 11
437.9586963979787
 21
230.5504171495448
 31
0.0
  0
SPLINE
  5
13D
330
50
100
AcDbEntity
  8
1
  6
Continuous
 62
     7
100
AcDbSpline
210
0.0
220
0.0
230
1.0
 70
     8
 71
     3
 72
    25
 73
    21
 74
    19
 42
0.0000000001
 43
0.0000000001
 44
0.00000001
 40
0.0
 40
0.0
 40
0.0
 40
0.0
 40
0.2460288116281606
 40
0.4922494784028408
 40
0.9750856113553018
 40
1.457982410234241
 40
1.919195317275946
 40
2.380511354102305
 40
2.813761798519605
 40
3.247173715280248
 40
3.648592723327641
 40
4.050251399218364
 40
4.419359522365976
 40
4.788795525673995
 40
5.129427687790516
 40
5.470431436760864
 40
5.791245268776683
 40
6.112326581895005
 40
6.426088567133675
 40
6.739850552372364
 40
6.739850552372364
 40
6.739850552372364
 40
6.739850552372364
 10
135.9423414326718
 20
237.6377409482028
 30
0.0
 10
135.8608876563906
 20
237.6281649457005
 30
0.0
 10
135.6979165855513
 20
237.609005473256
 30
0.0
 10
135.3765279094644
 20
237.5601423039532
 30
0.0
 10
134.9797328733919
 20
237.4831297112787
 30
0.0
 10
134.5185464647176
 20
237.3655581578397
 30
0.0
 10
134.0721857429917
 20
237.2223855006255
 30
0.0
 10
133.6510818497068
 20
237.057417928734
 30
0.0
 10
133.2505270451041
 20
236.8682017001052
 30
0.0
 10
132.8818305216399
 20
236.6606343127267
 30
0.0
 10
132.5392141277077
 20
236.4307625860237
 30
0.0
 10
132.2336666162224
 20
236.1863793142225
 30
0.0
 10
131.9595130144064
 20
235.9223479035858
 30
0.0
 10
131.7262734055468
 20
235.6475911428606
 30
0.0
 10
131.5293803487633
 20
235.3568885708955
 30
0.0
 10
131.37633126739
 20
235.0589101855005
 30
0.0
 10
131.2636059721865
 20
234.750183948313
 30
0.0
 10
131.1977050262003
 20
234.4377070323368
 30
0.0
 10
131.171853517036
 20
234.1209656627608
 30
0.0
 10
131.1932665747349
 20
233.9125081055163
 30
0.0
 10
131.2039731035843
 20
233.8082793268941
 30
0.0
 11
135.9423414326718
 21
237.6377409482028
 31
0.0
 11
135.6981613153036
 21
237.6076370209973
 31
0.0
 11
135.4546993602283
 21
237.5708825222537
 31
0.0
 11
134.9807673327296
 21
237.4785832015876
 31
0.0
 11
134.5129214423288
 21
237.3589607070365
 31
0.0
 11
134.0738323538284
 21
237.2178291443663
 31
0.0
 11
133.6444990020892
 21
237.0490530829193
 31
0.0
 11
133.2529313328956
 21
236.8636327279683
 31
0.0
 11
132.8756029701774
 21
236.6503976551531
 31
0.0
 11
132.5425758509966
 21
236.4262767995598
 31
0.0
 11
132.2294144937749
 21
236.1747620758131
 31
0.0
 11
131.9640773646699
 21
235.9181748304328
 31
0.0
 11
131.7255840681146
 21
235.6360331850871
 31
0.0
 11
131.5353483440089
 21
235.3534723259042
 31
0.0
 11
131.3799234774317
 21
235.0499485745086
 31
0.0
 11
131.2709686452873
 21
234.7482030536387
 31
0.0
 11
131.2039731035845
 21
234.4341890300255
 31
0.0
 11
131.1814821217825
 21
234.1212341784598
 31
0.0
 11
131.2039731035843
 21
233.8082793268941
 31
0.0
  0
SPLINE
  5
13E
330
50
100
AcDbEntity
  8
1
  6
Continuous
 62
     7
100
AcDbSpline
210
0.0
220
0.0
230
1.0
 70
     8
 71
     3
 72
    25
 73
    21
 74
    19
 42
0.0000000001
 43
0.0000000001
 44
0.00000001
 40
0.0
 40
0.0
 40
0.0
 40
0.0
 40
0.2460288116410676
 40
0.4922494784287655
 40
0.9750856113811985
 40
1.457982410260165
 40
1.919195317301897
 40
2.380511354128283
 40
2.813761798545609
 40
3.247173715306252
 40
3.648592723353668
 40
4.050251399244369
 40
4.419359522391981
 40
4.788795525699945
 40
5.12942768781645
 40
5.470431436786823
 40
5.791245268802662
 40
6.112326581920985
 40
6.426088567159659
 40
6.739850552398349
 40
6.739850552398349
 40
6.739850552398349
 40
6.739850552398349
 10
151.9423414326703
 20
237.6377409482056
 30
0.0
 10
152.0237952089558
 20
237.628164945703
 30
0.0
 10
152.1867662798037
 20
237.6090054732578
 30
0.0
 10
152.5081549558992
 20
237.560142303954
 30
0.0
 10
152.904949991976
 20
237.4831297112787
 30
0.0
 10
153.3661364006503
 20
237.3655581578397
 30
0.0
 10
153.8124971223763
 20
237.2223855006255
 30
0.0
 10
154.2336010156612
 20
237.0574179287341
 30
0.0
 10
154.6341558202639
 20
236.8682017001052
 30
0.0
 10
155.0028523437281
 20
236.6606343127266
 30
0.0
 10
155.3454687376604
 20
236.4307625860237
 30
0.0
 10
155.6510162491456
 20
236.1863793142225
 30
0.0
 10
155.9251698509616
 20
235.9223479035858
 30
0.0
 10
156.1584094598211
 20
235.6475911428606
 30
0.0
 10
156.3553025166046
 20
235.3568885708954
 30
0.0
 10
156.5083515979779
 20
235.0589101855005
 30
0.0
 10
156.6210768931815
 20
234.7501839483131
 30
0.0
 10
156.6869778391678
 20
234.4377070323369
 30
0.0
 10
156.712829348332
 20
234.1209656627608
 30
0.0
 10
156.6914162906331
 20
233.9125081055164
 30
0.0
 10
156.6807097617837
 20
233.8082793268941
 30
0.0
 11
151.9423414326703
 21
237.6377409482056
 31
0.0
 11
152.1865215500514
 21
237.607637020999
 31
0.0
 11
152.4299835051396
 21
237.5708825222537
 31
0.0
 11
152.9039155326383
 21
237.4785832015876
 31
0.0
 11
153.3717614230391
 21
237.3589607070365
 31
0.0
 11
153.8108505115396
 21
237.2178291443663
 31
0.0
 11
154.2401838632788
 21
237.0490530829193
 31
0.0
 11
154.6317515324724
 21
236.8636327279683
 31
0.0
 11
155.0090798951906
 21
236.6503976551531
 31
0.0
 11
155.3421070143714
 21
236.4262767995598
 31
0.0
 11
155.6552683715931
 21
236.1747620758131
 31
0.0
 11
155.9206055006981
 21
235.9181748304328
 31
0.0
 11
156.1590987972533
 21
235.6360331850871
 31
0.0
 11
156.349334521359
 21
235.3534723259042
 31
0.0
 11
156.5047593879363
 21
235.0499485745086
 31
0.0
 11
156.6137142200807
 21
234.7482030536387
 31
0.0
 11
156.6807097617835
 21
234.4341890300255
 31
0.0
 11
156.7032007435855
 21
234.1212341784598
 31
0.0
 11
156.6807097617837
 21
233.8082793268941
 31
0.0
  0
SPLINE
  5
13F
330
50
100
AcDbEntity
  8
1
  6
Continuous
 62
     7
100
AcDbSpline
210
0.0
220
0.0
230
1.0
 70
     8
 71
     3
 72
    23
 73
    19
 74
    17
 42
0.0000000001
 43
0.0000000001
 44
0.00000001
 40
0.0
 40
0.0
 40
0.0
 40
0.0
 40
0.321081313118273
 40
0.6418951451340578
 40
0.9828988941044188
 40
1.323531056220955
 40
1.692967059529018
 40
2.062075182676529
 40
2.463733858567253
 40
2.865152866614788
 40
3.298564783375502
 40
3.731815227792765
 40
4.193131264619041
 40
4.654344171660772
 40
5.13724097053974
 40
5.620077103492212
 40
5.866297770270679
 40
6.112326581902537
 40
6.112326581902537
 40
6.112326581902537
 40
6.112326581902537
 10
156.6807097617837
 20
233.8082793268941
 30
0.0
 10
156.6614299105871
 20
233.7028182413814
 30
0.0
 10
156.6228862695329
 20
233.4919839261303
 30
0.0
 10
156.5078329574538
 20
233.1836443018635
 30
0.0
 10
156.355444491128
 20
232.8855562083665
 30
0.0
 10
156.1583678466897
 20
232.5948841247369
 30
0.0
 10
155.9251813369445
 20
232.3201185458609
 30
0.0
 10
155.6510128697244
 20
232.0560896039164
 30
0.0
 10
155.3454696722463
 20
231.8117056156897
 30
0.0
 10
155.0028520710987
 20
231.5818340894685
 30
0.0
 10
154.6341558954767
 20
231.3742666443239
 30
0.0
 10
154.2336009940548
 20
231.185050431774
 30
0.0
 10
153.8124971283084
 20
231.0200828553092
 30
0.0
 10
153.3661363989751
 20
230.8769101993583
 30
0.0
 10
152.9049499924433
 20
230.7593386455633
 30
0.0
 10
152.5081549558434
 20
230.6823260529762
 30
0.0
 10
152.1867662798234
 20
230.6334628836615
 30
0.0
 10
152.0237952089746
 20
230.614303411218
 30
0.0
 10
151.9423414326886
 20
230.6047274087162
 30
0.0
 11
156.6807097617837
 21
233.8082793268941
 31
0.0
 11
156.6137142200809
 21
233.494265303281
 31
0.0
 11
156.5047593879364
 21
233.1925197824111
 31
0.0
 11
156.3493345213591
 21
232.8889960310155
 31
0.0
 11
156.1590987972534
 21
232.6064351718326
 31
0.0
 11
155.9206055006981
 21
232.3242935264869
 31
0.0
 11
155.6552683715932
 21
232.0677062811066
 31
0.0
 11
155.3421070143715
 21
231.8161915573599
 31
0.0
 11
155.0090798951906
 21
231.5920707017665
 31
0.0
 11
154.6317515324722
 21
231.3788356289514
 31
0.0
 11
154.2401838632787
 21
231.1934152740005
 31
0.0
 11
153.8108505115395
 21
231.0246392125536
 31
0.0
 11
153.3717614230391
 21
230.8835076498833
 31
0.0
 11
152.9039155326383
 21
230.7638851553321
 31
0.0
 11
152.4299835051396
 21
230.6715858346661
 31
0.0
 11
152.1865215500606
 21
230.634831335922
 31
0.0
 11
151.9423414326886
 21
230.6047274087162
 31
0.0
  0
SPLINE
  5
140
330
50
100
AcDbEntity
  8
1
  6
Continuous
 62
     7
100
AcDbSpline
210
0.0
220
0.0
230
1.0
 70
     8
 71
     3
 72
    23
 73
    19
 74
    17
 42
0.0000000001
 43
0.0000000001
 44
0.00000001
 40
0.0
 40
0.0
 40
0.0
 40
0.0
 40
0.3210813131182433
 40
0.6418951451340185
 40
0.9828988941044442
 40
1.323531056220933
 40
1.69296705952894
 40
2.062075182676431
 40
2.463733858567111
 40
2.865152866614598
 40
3.298564783375312
 40
3.731815227792628
 40
4.193131264619034
 40
4.654344171660793
 40
5.137240970539754
 40
5.620077103492159
 40
5.866297770268407
 40
6.112326581898154
 40
6.112326581898154
 40
6.112326581898154
 40
6.112326581898154
 10
131.2039731035843
 20
233.8082793268941
 30
0.0
 10
131.2232529547809
 20
233.7028182413814
 30
0.0
 10
131.261796595835
 20
233.4919839261302
 30
0.0
 10
131.3768499079139
 20
233.1836443018635
 30
0.0
 10
131.52923837424
 20
232.8855562083665
 30
0.0
 10
131.7263150186782
 20
232.5948841247369
 30
0.0
 10
131.9595015284234
 20
232.3201185458609
 30
0.0
 10
132.2336699956433
 20
232.0560896039165
 30
0.0
 10
132.5392131931214
 20
231.8117056156897
 30
0.0
 10
132.881830794269
 20
231.5818340894685
 30
0.0
 10
133.250526969891
 20
231.3742666443239
 30
0.0
 10
133.651081871313
 20
231.1850504317739
 30
0.0
 10
134.0721857370594
 20
231.0200828553093
 30
0.0
 10
134.5185464663928
 20
230.8769101993583
 30
0.0
 10
134.9797328729246
 20
230.7593386455634
 30
0.0
 10
135.3765279095237
 20
230.6823260529762
 30
0.0
 10
135.6979165855423
 20
230.6334628836619
 30
0.0
 10
135.8608876563897
 20
230.6143034112185
 30
0.0
 10
135.9423414326749
 20
230.6047274087167
 30
0.0
 11
131.2039731035843
 21
233.8082793268941
 31
0.0
 11
131.270968645287
 21
233.494265303281
 31
0.0
 11
131.3799234774314
 21
233.1925197824111
 31
0.0
 11
131.5353483440088
 21
232.8889960310155
 31
0.0
 11
131.7255840681145
 21
232.6064351718326
 31
0.0
 11
131.9640773646697
 21
232.3242935264869
 31
0.0
 11
132.2294144937746
 21
232.0677062811066
 31
0.0
 11
132.5425758509962
 21
231.8161915573599
 31
0.0
 11
132.8756029701771
 21
231.5920707017665
 31
0.0
 11
133.2529313328955
 21
231.3788356289514
 31
0.0
 11
133.6444990020891
 21
231.1934152740005
 31
0.0
 11
134.0738323538283
 21
231.0246392125536
 31
0.0
 11
134.5129214423288
 21
230.8835076498833
 31
0.0
 11
134.9807673327296
 21
230.7638851553321
 31
0.0
 11
135.4546993602282
 21
230.671585834666
 31
0.0
 11
135.6981613153051
 21
230.6348313359223
 31
0.0
 11
135.9423414326749
 21
230.6047274087167
 31
0.0
  0
ARC
  5
141
330
50
100
AcDbEntity
  8
1
  6
Continuous
 62
     7
100
AcDbCircle
 10
155.5003624944147
 20
230.2636972139014
 30
0.0
 40
1.0
100
AcDbArc
 50
-90.0
 51
-74.66244233044623
  0
ARC
  5
142
330
50
100
AcDbEntity
  8
1
  6
Continuous
 62
     7
100
AcDbCircle
 10
153.7102906251151
 20
229.2636972139014
 30
0.0
 40
1.0
100
AcDbArc
 50
-90.0
 51
-29.9999999999981
  0
ARC
  5
143
330
50
100
AcDbEntity
  8
1
  6
Continuous
 62
     7
100
AcDbCircle
 10
155.442341432684
 20
228.2636972139014
 30
0.0
 40
1.0
100
AcDbArc
 50
90.0
 51
149.9999999999987
  0
ARC
  5
144
330
50
100
AcDbEntity
  8
1
  6
Continuous
 62
     7
100
AcDbCircle
 10
132.3843203709533
 20
230.2636972139014
 30
0.0
 40
0.9999999999999719
100
AcDbArc
 50
-105.3375576695711
 51
-90.0
  0
ARC
  5
145
330
50
100
AcDbEntity
  8
1
  6
Continuous
 62
     7
100
AcDbCircle
 10
134.1743922402526
 20
229.2636972139014
 30
0.0
 40
0.9999999999999589
100
AcDbArc
 50
-149.9999999999987
 51
-90.0
  0
ARC
  5
146
330
50
100
AcDbEntity
  8
1
  6
Continuous
 62
     7
100
AcDbCircle
 10
132.4423414326839
 20
228.2636972139014
 30
0.0
 40
0.9999999999998851
100
AcDbArc
 50
30.0000000000038
 51
90.0
  0
ARC
  5
147
330
50
100
AcDbEntity
  8
1
  6
Continuous
 62
     7
100
AcDbCircle
 10
449.5167174597092
 20
230.2636972139014
 30
0.0
 40
0.9999999999996021
100
AcDbArc
 50
-90.0
 51
-74.66244233044149
  0
ARC
  5
148
330
50
100
AcDbEntity
  8
1
  6
Continuous
 62
     7
100
AcDbCircle
 10
447.7266455904098
 20
229.2636972139014
 30
0.0
 40
0.9999999999996021
100
AcDbArc
 50
-90.0
 51
-29.99999999998406
  0
ARC
  5
149
330
50
100
AcDbEntity
  8
1
  6
Continuous
 62
     7
100
AcDbCircle
 10
449.4586963979787
 20
228.2636972139018
 30
0.0
 40
0.9999999999996021
100
AcDbArc
 50
90.0
 51
150.0000000000044
  0
ARC
  5
14A
330
50
100
AcDbEntity
  8
1
  6
Continuous
 62
     7
100
AcDbCircle
 10
426.400675336248
 20
230.2636972139014
 30
0.0
 40
0.9999999999995878
100
AcDbArc
 50
-105.3375576695585
 51
-90.0
  0
ARC
  5
14B
330
50
100
AcDbEntity
  8
1
  6
Continuous
 62
     7
100
AcDbCircle
 10
428.1907472055475
 20
229.2636972139014
 30
0.0
 40
0.9999999999997846
100
AcDbArc
 50
-150.0000000000192
 51
-90.0
  0
ARC
  5
14C
330
50
100
AcDbEntity
  8
1
  6
Continuous
 62
     7
100
AcDbCircle
 10
426.4586963979787
 20
228.2636972139018
 30
0.0
 40
0.9999999999999344
100
AcDbArc
 50
30.00000000000217
 51
90.0
  0
ENDBLK
  5
52
330
50
100
AcDbEntity
  8
0
100
AcDbBlockEnd
  0
BLOCK
  5
54
330
53
100
AcDbEntity
  8
0
100
AcDbBlockBegin
  2
60-5X
 70
     0
 71
     0
 10
897.144785290333
 20
173.5437011719772
 30
0.0
  3
60-5X
  1

  0
LINE
  5
14D
330
53
100
AcDbEntity
  8
1
  6
PHANTOM
 62
     4
100
AcDbLine
 10
132.5681192388217
 20
604.7670604011944
 30
0.0
 11
154.9202926449049
 21
604.7670604011944
 31
0.0
  0
LINE
  5
14E
330
53
100
AcDbEntity
  8
1
  6
PHANTOM
 62
     4
100
AcDbLine
 10
143.942341432684
 20
486.7110212168019
 30
0.0
 11
143.942341432684
 21
758.5328089346006
 31
0.0
  0
LINE
  5
14F
330
53
100
AcDbEntity
  8
1
  6
Continuous
 62
     7
100
AcDbLine
 10
153.942341432684
 20
634.7636972139014
 30
0.0
 11
133.9423414326842
 21
634.7636972139014
 31
0.0
  0
LINE
  5
150
330
53
100
AcDbEntity
  8
1
  6
Continuous
 62
     7
100
AcDbLine
 10
135.9423414326842
 20
630.7636972139014
 30
0.0
 11
151.9280158839115
 21
630.7636972139014
 31
0.0
  0
LINE
  5
151
330
53
100
AcDbEntity
  8
1
  6
Continuous
 62
     7
100
AcDbLine
 10
135.9423414326842
 20
630.7636972139014
 30
0.0
 11
133.9423414326842
 21
630.7636972139014
 31
0.0
  0
LINE
  5
152
330
53
100
AcDbEntity
  8
1
  6
Continuous
 62
     7
100
AcDbLine
 10
133.9423414326842
 20
649.7636972139014
 30
0.0
 11
133.9423414326842
 21
634.7636972139014
 31
0.0
  0
LINE
  5
153
330
53
100
AcDbEntity
  8
1
  6
Continuous
 62
     7
100
AcDbLine
 10
153.942341432684
 20
649.7636972139014
 30
0.0
 11
153.942341432684
 21
634.7636972139014
 31
0.0
  0
LINE
  5
154
330
53
100
AcDbEntity
  8
1
  6
Continuous
 62
     7
100
AcDbLine
 10
153.942341432684
 20
630.7636972139014
 30
0.0
 11
151.9280158839115
 21
630.7636972139014
 31
0.0
  0
LINE
  5
155
330
53
100
AcDbEntity
  8
1
  6
PHANTOM
 62
     4
100
AcDbLine
 10
154.9202926449049
 20
499.7670604011943
 30
0.0
 11
132.5681192388217
 21
499.7670604011943
 31
0.0
  0
LINE
  5
156
330
53
100
AcDbEntity
  8
0
  6
Continuous
 62
     7
100
AcDbLine
 10
151.942341432684
 20
500.3014616234945
 30
0.0
 11
151.942341432684
 21
630.7636972139014
 31
0.0
  0
LINE
  5
157
330
53
100
AcDbEntity
  8
0
  6
Continuous
 62
     7
100
AcDbLine
 10
135.9423414326842
 20
630.7636972139014
 30
0.0
 11
135.9423414326842
 21
500.3014616234945
 31
0.0
  0
LINE
  5
158
330
53
100
AcDbEntity
  8
1
  6
PHANTOM
 62
     4
100
AcDbLine
 10
132.5681192388217
 20
434.762016073858
 30
0.0
 11
154.9202926449048
 21
434.762016073858
 31
0.0
  0
LINE
  5
159
330
53
100
AcDbEntity
  8
1
  6
Continuous
 62
     7
100
AcDbLine
 10
133.942341432684
 20
214.9163284636955
 30
0.0
 11
133.942341432684
 21
228.2624464316734
 31
0.0
  0
LINE
  5
15A
330
53
100
AcDbEntity
  8
1
  6
Continuous
 62
     7
100
AcDbLine
 10
153.942341432684
 20
228.2624464316734
 30
0.0
 11
153.942341432684
 21
214.9163284636955
 31
0.0
  0
LINE
  5
15B
330
53
100
AcDbEntity
  8
1
  6
PHANTOM
 62
     4
100
AcDbLine
 10
129.9643902204631
 20
209.7624464316734
 30
0.0
 11
158.3165636265463
 21
209.7624464316734
 31
0.0
  0
LINE
  5
15C
330
53
100
AcDbEntity
  8
1
  6
PHANTOM
 62
     4
100
AcDbLine
 10
132.5681192388217
 20
384.9301558971395
 30
0.0
 11
154.9202926449048
 21
384.9301558971395
 31
0.0
  0
LINE
  5
15D
330
53
100
AcDbEntity
  8
0
  6
Continuous
 62
     7
100
AcDbLine
 10
135.942341432684
 20
384.9301558971395
 30
0.0
 11
135.9423414326839
 21
209.7624464316734
 31
0.0
  0
LINE
  5
15E
330
53
100
AcDbEntity
  8
0
  6
Continuous
 62
     7
100
AcDbLine
 10
151.9423414326839
 20
389.9018721441018
 30
0.0
 11
151.9423414326839
 21
434.762016073858
 31
0.0
  0
LINE
  5
15F
330
53
100
AcDbEntity
  8
0
  6
Continuous
 62
     7
100
AcDbLine
 10
151.9423414326839
 20
209.7624464316734
 30
0.0
 11
151.9423414326839
 21
384.9301558971395
 31
0.0
  0
LINE
  5
160
330
53
100
AcDbEntity
  8
0
  6
Continuous
 62
     7
100
AcDbLine
 10
135.9423414326839
 20
434.762016073858
 30
0.0
 11
135.942341432684
 21
389.9018721441018
 31
0.0
  0
LINE
  5
161
330
53
100
AcDbEntity
  8
1
  6
Continuous
 62
     7
100
AcDbLine
 10
277.021097779872
 20
384.9301558971395
 30
0.0
 11
284.3199914383206
 21
384.2334433206512
 31
0.0
  0
LINE
  5
162
330
53
100
AcDbEntity
  8
1
  6
Continuous
 62
     7
100
AcDbLine
 10
269.6113941692453
 20
385.6374457872447
 30
0.0
 11
277.021097779872
 21
384.9301558971395
 31
0.0
  0
LINE
  5
163
330
53
100
AcDbEntity
  8
1
  6
Continuous
 62
     7
100
AcDbLine
 10
269.5501376392724
 20
390.7013200208818
 30
0.0
 11
285.4675726320506
 21
389.1466287521588
 31
0.0
  0
LINE
  5
164
330
53
100
AcDbEntity
  8
1
  6
Continuous
 62
     7
100
AcDbLine
 10
411.9586963979787
 20
219.9624464316734
 30
0.0
 11
411.9586963979787
 21
199.9624464316734
 31
0.0
  0
LINE
  5
165
330
53
100
AcDbEntity
  8
1
  6
Continuous
 62
     7
100
AcDbLine
 10
407.9586963979787
 20
219.9624464316734
 30
0.0
 11
407.9586963979787
 21
199.9624464316734
 31
0.0
  0
LINE
  5
166
330
53
100
AcDbEntity
  8
1
  6
Continuous
 62
     7
100
AcDbLine
 10
446.0086963979785
 20
227.9624464316734
 30
0.0
 11
447.9586963979785
 21
227.9624464316734
 31
0.0
  0
LINE
  5
167
330
53
100
AcDbEntity
  8
1
  6
Continuous
 62
     7
100
AcDbLine
 10
430.0086963979785
 20
227.9624464316734
 30
0.0
 11
446.0086963979785
 21
227.9624464316734
 31
0.0
  0
LINE
  5
168
330
53
100
AcDbEntity
  8
1
  6
Continuous
 62
     7
100
AcDbLine
 10
422.9586963979787
 20
199.9624464316734
 30
0.0
 11
411.9586963979787
 21
199.9624464316734
 31
0.0
  0
LINE
  5
169
330
53
100
AcDbEntity
  8
1
  6
Continuous
 62
     7
100
AcDbLine
 10
422.9586963979787
 20
219.9624464316734
 30
0.0
 11
411.9586963979787
 21
219.9624464316734
 31
0.0
  0
LINE
  5
16A
330
53
100
AcDbEntity
  8
1
  6
Continuous
 62
     7
100
AcDbLine
 10
427.9586963979787
 20
227.9624464316734
 30
0.0
 11
430.0086963979785
 21
227.9624464316734
 31
0.0
  0
LINE
  5
16B
330
53
100
AcDbEntity
  8
1
  6
Continuous
 62
     7
100
AcDbLine
 10
445.9086963979786
 20
227.9624464316734
 30
0.0
 11
446.0086963979785
 21
227.9624464316734
 31
0.0
  0
LINE
  5
16C
330
53
100
AcDbEntity
  8
1
  6
Continuous
 62
     7
100
AcDbLine
 10
447.9586963979785
 20
224.9624464316734
 30
0.0
 11
447.9586963979785
 21
227.9624464316734
 31
0.0
  0
LINE
  5
16D
330
53
100
AcDbEntity
  8
1
  6
Continuous
 62
     7
100
AcDbLine
 10
427.9586963979787
 20
224.9624464316734
 30
0.0
 11
427.9586963979787
 21
227.9624464316734
 31
0.0
  0
LINE
  5
16E
330
53
100
AcDbEntity
  8
1
  6
Continuous
 62
     7
100
AcDbLine
 10
430.0086963979785
 20
228.2636972139018
 30
0.0
 11
430.0086963979785
 21
227.9624464316734
 31
0.0
  0
LINE
  5
16F
330
53
100
AcDbEntity
  8
1
  6
Continuous
 62
     7
100
AcDbLine
 10
445.9086963979786
 20
228.2636972139018
 30
0.0
 11
445.9086963979786
 21
227.9624464316734
 31
0.0
  0
LINE
  5
170
330
53
100
AcDbEntity
  8
1
  6
Continuous
 62
     7
100
AcDbLine
 10
373.9586963979787
 20
236.9361123926837
 30
0.0
 11
373.9586963979787
 21
382.4361123926838
 31
0.0
  0
LINE
  5
171
330
53
100
AcDbEntity
  8
1
  6
Continuous
 62
     7
100
AcDbLine
 10
389.9586963979787
 20
236.9361123926837
 30
0.0
 11
389.9586963979787
 21
382.2624464316739
 31
0.0
  0
ARC
  5
172
330
53
100
AcDbEntity
  8
1
  6
Continuous
 62
     7
100
AcDbCircle
 10
143.942341432684
 20
604.7670604011944
 30
0.0
 40
8.0
100
AcDbArc
 50
0.0
 51
180.0
  0
ARC
  5
173
330
53
100
AcDbEntity
  8
1
  6
Continuous
 62
     7
100
AcDbCircle
 10
134.9173414326841
 20
632.7636972139014
 30
0.0
 40
2.22499999999996
100
AcDbArc
 50
115.9892335838309
 51
-115.9892335838309
  0
ARC
  5
174
330
53
100
AcDbEntity
  8
1
  6
Continuous
 62
     7
100
AcDbCircle
 10
152.9673414326841
 20
632.7636972139014
 30
0.0
 40
2.22499999999996
100
AcDbArc
 50
-64.01076641616909
 51
64.01076641616909
  0
ARC
  5
175
330
53
100
AcDbEntity
  8
1
  6
Continuous
 62
     7
100
AcDbCircle
 10
143.9423414326839
 20
209.7624464316734
 30
0.0
 40
11.25000000000002
100
AcDbArc
 50
135.3253904356164
 51
0.0
  0
ARC
  5
176
330
53
100
AcDbEntity
  8
1
  6
Continuous
 62
     7
100
AcDbCircle
 10
143.9423414326839
 20
209.7624464316734
 30
0.0
 40
11.25000000000011
100
AcDbArc
 50
0.0
 51
44.67460956438397
  0
ARC
  5
177
330
53
100
AcDbEntity
  8
1
  6
Continuous
 62
     7
100
AcDbCircle
 10
143.9423414326839
 20
209.7624464316734
 30
0.0
 40
8.0
100
AcDbArc
 50
180.0
 51
0.0
  0
ARC
  5
178
330
53
100
AcDbEntity
  8
1
  6
Continuous
 62
     7
100
AcDbCircle
 10
140.3707957481261
 20
387.4160140206207
 30
0.0
 40
5.07845431544232
100
AcDbArc
 50
150.6928623069631
 51
-150.6928623069619
  0
ARC
  5
179
330
53
100
AcDbEntity
  8
1
  6
Continuous
 62
     7
100
AcDbCircle
 10
147.5138871172418
 20
387.4160140206207
 30
0.0
 40
5.078454315442351
100
AcDbArc
 50
-29.30713769303823
 51
29.30713769303712
  0
ARC
  5
17A
330
53
100
AcDbEntity
  8
1
  6
Continuous
 62
     7
100
AcDbCircle
 10
143.9423414326839
 20
434.762016073858
 30
0.0
 40
8.0
100
AcDbArc
 50
0.0
 51
180.0
  0
ARC
  5
17B
330
53
100
AcDbEntity
  8
1
  6
Continuous
 62
     7
100
AcDbCircle
 10
408.9586963979787
 20
236.9361123926837
 30
0.0
 40
35.0
100
AcDbArc
 50
180.0
 51
-91.63724507777776
  0
ARC
  5
17C
330
53
100
AcDbEntity
  8
1
  6
Continuous
 62
     7
100
AcDbCircle
 10
408.9586963979787
 20
236.9361123926837
 30
0.0
 40
19.0
100
AcDbArc
 50
180.0
 51
-93.016961309816
  0
ARC
  5
17D
330
53
100
AcDbEntity
  8
1
  6
Continuous
 62
     7
100
AcDbCircle
 10
409.9586963979787
 20
200.9374464316734
 30
0.0
 40
2.224999999999994
100
AcDbArc
 50
-90.0
 51
-25.98923358383288
  0
ARC
  5
17E
330
53
100
AcDbEntity
  8
1
  6
Continuous
 62
     7
100
AcDbCircle
 10
409.9586963979787
 20
218.9874464316734
 30
0.0
 40
2.225000000000023
100
AcDbArc
 50
90.0
 51
154.0107664161665
  0
ARC
  5
17F
330
53
100
AcDbEntity
  8
1
  6
Continuous
 62
     7
100
AcDbCircle
 10
409.9586963979787
 20
200.9374464316734
 30
0.0
 40
2.224999999999997
100
AcDbArc
 50
-154.0107664161671
 51
-90.0
  0
ARC
  5
180
330
53
100
AcDbEntity
  8
1
  6
Continuous
 62
     7
100
AcDbCircle
 10
409.9586963979787
 20
218.9874464316734
 30
0.0
 40
2.22500000000001
100
AcDbArc
 50
25.98923358383354
 51
90.0
  0
ARC
  5
181
330
53
100
AcDbEntity
  8
1
  6
Continuous
 62
     7
100
AcDbCircle
 10
272.3530531890384
 20
388.2029186301336
 30
0.0
 40
3.754776303378738
100
AcDbArc
 50
175.1801834052458
 51
-136.9014071190588
  0
ARC
  5
182
330
53
100
AcDbEntity
  8
1
  6
Continuous
 62
     7
100
AcDbCircle
 10
281.8422791007301
 20
387.4027808389386
 30
0.0
 40
4.022904265909956
100
AcDbArc
 50
-4.81981659475218
 51
25.68860336787776
  0
ARC
  5
183
330
53
100
AcDbEntity
  8
1
  6
Continuous
 62
     7
100
AcDbCircle
 10
272.3530531890384
 20
388.2029186301336
 30
0.0
 40
3.754776303378481
100
AcDbArc
 50
138.2875274263647
 51
175.1801834052458
  0
ARC
  5
184
330
53
100
AcDbEntity
  8
1
  6
Continuous
 62
     7
100
AcDbCircle
 10
281.8422791007301
 20
387.4027808389386
 30
0.0
 40
4.022904265909451
100
AcDbArc
 50
-51.98255372395217
 51
-4.81981659475218
  0
ARC
  5
185
330
53
100
AcDbEntity
  8
1
  6
Continuous
 62
     7
100
AcDbCircle
 10
329.4586963979787
 20
382.4361123926838
 30
0.0
 40
44.5
100
AcDbArc
 50
0.0
 51
171.3268183730979
  0
ARC
  5
186
330
53
100
AcDbEntity
  8
1
  6
Continuous
 62
     7
100
AcDbCircle
 10
329.4586963979787
 20
382.2624464316739
 30
0.0
 40
60.5
100
AcDbArc
 50
0.0
 51
171.9819237447117
  0
SPLINE
  5
187
330
53
100
AcDbEntity
  8
1
  6
Continuous
 62
     7
100
AcDbSpline
210
0.0
220
0.0
230
1.0
 70
     8
 71
     3
 72
    31
 73
    27
 74
    25
 42
0.0000000001
 43
0.0000000001
 44
0.00000001
 40
0.0
 40
0.0
 40
0.0
 40
0.0
 40
0.3769608727053171
 40
0.7546049225456444
 40
1.508470595357778
 40
2.262344592454864
 40
3.014578575134117
 40
3.76682837875085
 40
4.516558646745479
 40
5.266310601665818
 40
6.012960395472243
 40
6.75963538301414
 40
7.502995045543734
 40
8.246380485984906
 40
8.986637145339678
 40
9.726916971372807
 40
10.46463647286667
 40
11.20237347899961
 40
11.93843459678772
 40
12.67450513838656
 40
13.40999276561753
 40
14.14548039284855
 40
14.88155093444757
 40
15.61761205223576
 40
16.16008217324136
 40
16.70170259573516
 40
16.70170259573516
 40
16.70170259573516
 40
16.70170259573516
 10
143.9423414327047
 20
491.5759369658566
 30
0.0
 10
143.8166769677436
 20
491.5774901231241
 30
0.0
 10
143.5651202924627
 20
491.5805992524913
 30
0.0
 10
143.0631986793579
 20
491.6137944962884
 30
0.0
 10
142.43900173616
 20
491.6931541352921
 30
0.0
 10
141.7018091087316
 20
491.8526626758654
 30
0.0
 10
140.9812640067545
 20
492.0737209000293
 30
0.0
 10
140.2836346775452
 20
492.3553440980026
 30
0.0
 10
139.6132870327404
 20
492.6950267900533
 30
0.0
 10
138.9763873108161
 20
493.0904036018026
 30
0.0
 10
138.37661517664
 20
493.538414910514
 30
0.0
 10
137.8197764891622
 20
494.0356086857203
 30
0.0
 10
137.3088491833994
 20
494.5783834546331
 30
0.0
 10
136.8490051780254
 20
495.1623574662237
 30
0.0
 10
136.4425129889364
 20
495.7834249003296
 30
0.0
 10
136.093684109871
 20
496.4364892697799
 30
0.0
 10
135.8040473686667
 20
497.1169636604851
 30
0.0
 10
135.5769028292571
 20
497.8192972844564
 30
0.0
 10
135.41297445592
 20
498.5384542481392
 30
0.0
 10
135.3144913523614
 20
499.2686985239268
 30
0.0
 10
135.2812605258783
 20
500.0046211871295
 30
0.0
 10
135.3145327046839
 20
500.7405184945395
 30
0.0
 10
135.4128088945558
 20
501.4708388976735
 30
0.0
 10
135.5629697911973
 20
502.1261955098626
 30
0.0
 10
135.7410186734632
 20
502.7068468351396
 30
0.0
 10
135.8752689209107
 20
503.0424909380155
 30
0.0
 10
135.9423414326842
 20
503.210181452334
 30
0.0
 11
143.9423414327047
 21
491.5759369658566
 31
0.0
 11
143.5654660442178
 21
491.5839644874934
 31
0.0
 11
143.1885906557311
 21
491.6080470524054
 31
0.0
 11
142.4408425332853
 21
491.7038917080899
 31
0.0
 11
141.7039676965172
 21
491.8630817782489
 31
0.0
 11
140.9848719364342
 21
492.0838922230384
 31
0.0
 11
140.287291137918
 21
492.3654251635317
 31
0.0
 11
139.6185974225669
 21
492.7044593650472
 31
0.0
 11
138.9815804341525
 21
493.0998545475904
 31
0.0
 11
138.3835025302924
 21
493.5468318797958
 31
0.0
 11
137.8265065665921
 21
494.0441034690127
 31
0.0
 11
137.3171355321551
 21
494.5855134219622
 31
0.0
 11
136.8571883188073
 21
495.1695258139484
 31
0.0
 11
136.4519657184315
 21
495.7890212262508
 31
0.0
 11
136.1031203918595
 21
496.4419539631851
 31
0.0
 11
135.8143806507079
 21
497.1208202421857
 31
0.0
 11
135.5872663588052
 21
497.8227283477319
 31
0.0
 11
135.4238576002749
 21
498.5404215598742
 31
0.0
 11
135.3253465147912
 21
499.2698702614608
 31
0.0
 11
135.2923414326839
 21
500.0046169622802
 31
0.0
 11
135.3253465147911
 21
500.7393636630996
 31
0.0
 11
135.4238576002748
 21
501.4688123646864
 31
0.0
 11
135.5872663588052
 21
502.1865055768287
 31
0.0
 11
135.7481637312999
 21
502.7045652912518
 31
0.0
 11
135.9423414326842
 21
503.210181452334
 31
0.0
  0
SPLINE
  5
188
330
53
100
AcDbEntity
  8
1
  6
Continuous
 62
     7
100
AcDbSpline
210
0.0
220
0.0
230
1.0
 70
     8
 71
     3
 72
    31
 73
    27
 74
    25
 42
0.0000000001
 43
0.0000000001
 44
0.00000001
 40
0.0
 40
0.0
 40
0.0
 40
0.0
 40
0.3769608727052887
 40
0.7546049225456371
 40
1.508470595357763
 40
2.262344592454916
 40
3.014578575134241
 40
3.766828378751021
 40
4.516558646745701
 40
5.266310601666016
 40
6.012960395472418
 40
6.759635383014294
 40
7.502995045543829
 40
8.246380485985018
 40
8.98663714533982
 40
9.726916971372923
 40
10.46463647286677
 40
11.20237347899965
 40
11.93843459678775
 40
12.67450513838661
 40
13.40999276561759
 40
14.14548039284863
 40
14.88155093444764
 40
15.61761205223576
 40
16.16008217324132
 40
16.7017025957351
 40
16.7017025957351
 40
16.7017025957351
 40
16.7017025957351
 10
143.9423414326633
 20
491.5759369658566
 30
0.0
 10
144.0680058976244
 20
491.5774901231242
 30
0.0
 10
144.3195625729053
 20
491.5805992524911
 30
0.0
 10
144.8214841860102
 20
491.6137944962885
 30
0.0
 10
145.445681129208
 20
491.6931541352921
 30
0.0
 10
146.1828737566366
 20
491.8526626758653
 30
0.0
 10
146.9034188586136
 20
492.0737209000292
 30
0.0
 10
147.601048187823
 20
492.3553440980028
 30
0.0
 10
148.2713958326278
 20
492.6950267900531
 30
0.0
 10
148.9082955545521
 20
493.0904036018023
 30
0.0
 10
149.5080676887282
 20
493.538414910514
 30
0.0
 10
150.0649063762059
 20
494.0356086857202
 30
0.0
 10
150.5758336819686
 20
494.5783834546334
 30
0.0
 10
151.0356776873427
 20
495.1623574662236
 30
0.0
 10
151.4421698764317
 20
495.7834249003294
 30
0.0
 10
151.7909987554971
 20
496.4364892697801
 30
0.0
 10
152.0806354967013
 20
497.1169636604849
 30
0.0
 10
152.3077800361108
 20
497.8192972844564
 30
0.0
 10
152.4717084094477
 20
498.5384542481393
 30
0.0
 10
152.5701915130065
 20
499.2686985239268
 30
0.0
 10
152.6034223394899
 20
500.0046211871295
 30
0.0
 10
152.5701501606837
 20
500.7405184945395
 30
0.0
 10
152.4718739708119
 20
501.4708388976736
 30
0.0
 10
152.3217130741707
 20
502.1261955098626
 30
0.0
 10
152.143664191905
 20
502.7068468351397
 30
0.0
 10
152.0094139444575
 20
503.0424909380155
 30
0.0
 10
151.942341432684
 20
503.210181452334
 30
0.0
 11
143.9423414326633
 21
491.5759369658566
 31
0.0
 11
144.3192168211502
 21
491.5839644874934
 31
0.0
 11
144.696092209637
 21
491.6080470524053
 31
0.0
 11
145.4438403320827
 21
491.7038917080898
 31
0.0
 11
146.1807151688508
 21
491.8630817782488
 31
0.0
 11
146.8998109289339
 21
492.0838922230383
 31
0.0
 11
147.5973917274502
 21
492.3654251635317
 31
0.0
 11
148.2660854428013
 21
492.7044593650472
 31
0.0
 11
148.9031024312157
 21
493.0998545475904
 31
0.0
 11
149.5011803350758
 21
493.5468318797958
 31
0.0
 11
150.058176298776
 21
494.0441034690127
 31
0.0
 11
150.5675473332129
 21
494.5855134219622
 31
0.0
 11
151.0274945465608
 21
495.1695258139484
 31
0.0
 11
151.4327171469366
 21
495.7890212262508
 31
0.0
 11
151.7815624735085
 21
496.4419539631851
 31
0.0
 11
152.0703022146601
 21
497.1208202421857
 31
0.0
 11
152.2974165065627
 21
497.8227283477319
 31
0.0
 11
152.460825265093
 21
498.5404215598742
 31
0.0
 11
152.5593363505767
 21
499.2698702614608
 31
0.0
 11
152.5923414326842
 21
500.0046169622802
 31
0.0
 11
152.5593363505766
 21
500.7393636630996
 31
0.0
 11
152.460825265093
 21
501.4688123646864
 31
0.0
 11
152.2974165065628
 21
502.1865055768287
 31
0.0
 11
152.1365191340682
 21
502.7045652912518
 31
0.0
 11
151.942341432684
 21
503.210181452334
 31
0.0
  0
SPLINE
  5
189
330
53
100
AcDbEntity
  8
1
  6
Continuous
 62
     7
100
AcDbSpline
210
0.0
220
0.0
230
1.0
 70
     8
 71
     3
 72
    45
 73
    41
 74
    39
 42
0.0000000001
 43
0.0000000001
 44
0.00000001
 40
0.0
 40
0.0
 40
0.0
 40
0.0
 40
0.3474777553746073
 40
0.6956243139101022
 40
1.391155608768568
 40
2.086685759298518
 40
2.782428596092219
 40
3.478169285636096
 40
4.174235704659818
 40
4.870299237668502
 40
5.566762131084648
 40
6.263221752327709
 40
6.960106115218759
 40
7.656987216196677
 40
8.354267210359073
 40
9.051544344485581
 40
9.749146492262996
 40
10.44674652233324
 40
11.1445586091765
 40
11.84236957097401
 40
12.54025416439361
 40
13.23813875781323
 40
13.93594971961068
 40
14.63376180645401
 40
15.33136183652435
 40
16.02896398430172
 40
16.72624111842815
 40
17.42352111259042
 40
18.12040221356836
 40
18.81728657645947
 40
19.51374619770259
 40
20.21020909111881
 40
20.90627262412747
 40
21.60233904315115
 40
22.29807973269495
 40
22.99382256948868
 40
23.68935272001851
 40
24.38488401487703
 40
24.73303057342584
 40
25.08050832881385
 40
25.08050832881385
 40
25.08050832881385
 40
25.08050832881385
 10
135.9423414326842
 20
500.30146162347
 30
0.0
 10
135.9438165896295
 20
500.1856250431281
 30
0.0
 10
135.9467697428085
 20
499.9537289275357
 30
0.0
 10
135.9783267373406
 20
499.4908948382324
 30
0.0
 10
136.0536973233135
 20
498.9153286236015
 30
0.0
 10
136.2053065690432
 20
498.2355247017214
 30
0.0
 10
136.4152425187266
 20
497.5713618277004
 30
0.0
 10
136.682871858779
 20
496.9280712407801
 30
0.0
 10
137.0053959897241
 20
496.310358353639
 30
0.0
 10
137.3810515430537
 20
495.7231532254501
 30
0.0
 10
137.8063167288125
 20
495.1706515145743
 30
0.0
 10
138.2785860485536
 20
494.6573774947423
 30
0.0
 10
138.7936617285028
 20
494.1868676084379
 30
0.0
 10
139.3481872270448
 20
493.7631180178332
 30
0.0
 10
139.9374206595492
 20
493.3888874053297
 30
0.0
 10
140.5573470951337
 20
493.0675313180518
 30
0.0
 10
141.2028371329775
 20
492.8009421373717
 30
0.0
 10
141.8693260521575
 20
492.5917351575446
 30
0.0
 10
142.5514662095499
 20
492.44088132205
 30
0.0
 10
143.2442689826443
 20
492.3501714679119
 30
0.0
 10
143.942341432684
 20
492.3196343633542
 30
0.0
 10
144.6404138827236
 20
492.3501714679119
 30
0.0
 10
145.3332166558181
 20
492.4408813220503
 30
0.0
 10
146.0153568132105
 20
492.5917351575446
 30
0.0
 10
146.6818457323906
 20
492.8009421373718
 30
0.0
 10
147.3273357702344
 20
493.0675313180517
 30
0.0
 10
147.9472622058187
 20
493.3888874053298
 30
0.0
 10
148.5364956383232
 20
493.7631180178331
 30
0.0
 10
149.091021136865
 20
494.186867608438
 30
0.0
 10
149.6060968168143
 20
494.6573774947424
 30
0.0
 10
150.0783661365555
 20
495.1706515145744
 30
0.0
 10
150.5036313223143
 20
495.7231532254502
 30
0.0
 10
150.8792868756441
 20
496.3103583536387
 30
0.0
 10
151.2018110065892
 20
496.9280712407801
 30
0.0
 10
151.4694403466415
 20
497.5713618277003
 30
0.0
 10
151.6793762963248
 20
498.2355247017213
 30
0.0
 10
151.8309855420546
 20
498.9153286236015
 30
0.0
 10
151.9063561280279
 20
499.4908948382367
 30
0.0
 10
151.9379131225604
 20
499.9537289275489
 30
0.0
 10
151.940866275739
 20
500.1856250431501
 30
0.0
 10
151.942341432684
 20
500.3014616234966
 30
0.0
 11
135.9423414326842
 21
500.30146162347
 31
0.0
 11
135.9499673403353
 21
499.9540675590235
 31
0.0
 11
135.9728450632866
 21
499.606673494577
 31
0.0
 11
136.0638922156309
 21
498.9171271232737
 31
0.0
 11
136.2150062427203
 21
498.2382112661065
 31
0.0
 11
136.4248478447322
 21
497.574867767597
 31
0.0
 11
136.6919673999998
 21
496.9324487063289
 31
0.0
 11
137.0142314319269
 21
496.3154767836139
 31
0.0
 11
137.3892306881088
 21
495.7290639598733
 31
0.0
 11
137.8141220234296
 21
495.1772234801376
 31
0.0
 11
138.2856036531188
 21
494.6646212202053
 31
0.0
 11
138.8002025970823
 21
494.1946895846309
 31
0.0
 11
139.353844898569
 21
493.7714597760107
 31
0.0
 11
139.942502343253
 21
493.3977194877391
 31
0.0
 11
140.5614932828748
 21
493.0767122939853
 31
0.0
 11
141.2063097565118
 21
492.8105159906488
 31
0.0
 11
141.8718550637581
 21
492.6014819121915
 31
0.0
 11
142.5532281645529
 21
492.4509083220178
 31
0.0
 11
143.2451187885746
 21
492.3602027389726
 31
0.0
 11
143.942341432684
 21
492.3298137562054
 31
0.0
 11
144.6395640767933
 21
492.3602027389727
 31
0.0
 11
145.331454700815
 21
492.4509083220179
 31
0.0
 11
146.0128278016099
 21
492.6014819121915
 31
0.0
 11
146.6783731088563
 21
492.8105159906488
 31
0.0
 11
147.3231895824932
 21
493.0767122939853
 31
0.0
 11
147.942180522115
 21
493.3977194877391
 31
0.0
 11
148.5308379667988
 21
493.7714597760106
 31
0.0
 11
149.0844802682855
 21
494.1946895846309
 31
0.0
 11
149.5990792122491
 21
494.6646212202054
 31
0.0
 11
150.0705608419384
 21
495.1772234801376
 31
0.0
 11
150.4954521772593
 21
495.7290639598733
 31
0.0
 11
150.8704514334413
 21
496.3154767836139
 31
0.0
 11
151.1927154653684
 21
496.9324487063288
 31
0.0
 11
151.4598350206359
 21
497.5748677675969
 31
0.0
 11
151.6696766226477
 21
498.2382112661065
 31
0.0
 11
151.8207906497371
 21
498.9171271232735
 31
0.0
 11
151.9118378020814
 21
499.6066734945769
 31
0.0
 11
151.9347155250333
 21
499.9540675590367
 31
0.0
 11
151.942341432684
 21
500.3014616234966
 31
0.0
  0
SPLINE
  5
18A
330
53
100
AcDbEntity
  8
1
  6
Continuous
 62
     7
100
AcDbSpline
210
0.0
220
0.0
230
1.0
 70
     8
 71
     3
 72
    45
 73
    41
 74
    39
 42
0.0000000001
 43
0.0000000001
 44
0.00000001
 40
0.0
 40
0.0
 40
0.0
 40
0.0
 40
0.0321907088821788
 40
0.0753259314488939
 40
0.2300394495940538
 40
0.3679488865421177
 40
0.6069634346086907
 40
0.8504748735087511
 40
1.203074839467959
 40
1.554320736581768
 40
2.002742861931881
 40
2.451432644863325
 40
2.984946454958526
 40
3.518387440101667
 40
4.120639497978424
 40
4.722898361323797
 40
5.375933067842996
 40
6.028962793075491
 40
6.713101057235885
 40
7.397238572959392
 40
8.091854644646366
 40
8.786470716333312
 40
9.47060823205679
 40
10.15474649621713
 40
10.80777622144968
 40
11.46081092796891
 40
12.06306979131428
 40
12.66532184919099
 40
13.19876283433416
 40
13.73227664442938
 40
14.18096642736091
 40
14.62938855271093
 40
14.98063444982468
 40
15.33323441578377
 40
15.57674585468385
 40
15.81576040275053
 40
15.95366983969867
 40
16.10838335784375
 40
16.15151858052224
 40
16.18370928947466
 40
16.18370928947466
 40
16.18370928947466
 40
16.18370928947466
 10
151.9423414326839
 20
384.9301558969527
 30
0.0
 10
151.939851144556
 20
384.9194399383309
 30
0.0
 10
151.9340238956596
 20
384.8943647041223
 30
0.0
 10
151.8714044480049
 20
384.8445369555307
 30
0.0
 10
151.7785254685996
 20
384.7844538543926
 30
0.0
 10
151.6085337956899
 20
384.7277886695728
 30
0.0
 10
151.4049343477704
 20
384.692619749018
 30
0.0
 10
151.1318263943665
 20
384.6382349133976
 30
0.0
 10
150.8199702967209
 20
384.5881477232967
 30
0.0
 10
150.4389192468898
 20
384.5395499596272
 30
0.0
 10
150.02493800527
 20
384.497161079967
 30
0.0
 10
149.5499542716829
 20
384.4546246146343
 30
0.0
 10
149.0461333964364
 20
384.4168707903721
 30
0.0
 10
148.4908246384708
 20
384.3818468703653
 30
0.0
 10
147.9122783829293
 20
384.3517559944546
 30
0.0
 10
147.2936578998212
 20
384.3252220322358
 30
0.0
 10
146.657908816091
 20
384.3036230318015
 30
0.0
 10
145.9947259283827
 20
384.2863667765483
 30
0.0
 10
145.3210621058797
 20
384.2741193178729
 30
0.0
 10
144.6334663539355
 20
384.2666247615231
 30
0.0
 10
143.9423414326839
 20
384.2641777248748
 30
0.0
 10
143.2512165114324
 20
384.266624761523
 30
0.0
 10
142.5636207594882
 20
384.2741193178729
 30
0.0
 10
141.8899569369853
 20
384.2863667765483
 30
0.0
 10
141.2267740492769
 20
384.3036230318016
 30
0.0
 10
140.5910249655466
 20
384.3252220322357
 30
0.0
 10
139.9724044824387
 20
384.3517559944546
 30
0.0
 10
139.3938582268971
 20
384.3818468703654
 30
0.0
 10
138.8385494689315
 20
384.4168707903723
 30
0.0
 10
138.334728593685
 20
384.4546246146342
 30
0.0
 10
137.8597448600978
 20
384.4971610799672
 30
0.0
 10
137.4457636184781
 20
384.5395499596269
 30
0.0
 10
137.0647125686469
 20
384.5881477232969
 30
0.0
 10
136.7528564710018
 20
384.6382349133974
 30
0.0
 10
136.4797485175968
 20
384.6926197490185
 30
0.0
 10
136.2761490696803
 20
384.7277886695716
 30
0.0
 10
136.1061573967633
 20
384.7844538543952
 30
0.0
 10
136.0132784173471
 20
384.8445369555426
 30
0.0
 10
135.9506589696159
 20
384.8943647041933
 30
0.0
 10
135.9448317207838
 20
384.919439938487
 30
0.0
 10
135.942341432684
 20
384.9301558971426
 30
0.0
 11
151.9423414326839
 21
384.9301558969527
 31
0.0
 11
151.9321900429844
 21
384.899607721467
 31
0.0
 11
151.9017358741339
 21
384.8690595459813
 31
0.0
 11
151.7703493427227
 21
384.7873658983667
 31
0.0
 11
151.6404381796048
 21
384.7410830452061
 31
0.0
 11
151.4065437750749
 21
384.6918757112294
 31
0.0
 11
151.167286397325
 21
384.6465576346219
 31
0.0
 11
150.8192576110299
 21
384.5899652331496
 31
0.0
 11
150.4709125176018
 21
384.5449166357923
 31
0.0
 11
150.0249392335746
 21
384.4981167165879
 31
0.0
 11
149.5780343124084
 21
384.4581353116039
 31
0.0
 11
149.0460385963054
 21
384.4179166143313
 31
0.0
 11
148.5136635987229
 21
384.3842098408344
 31
0.0
 11
147.9122380605251
 21
384.3526683884219
 31
0.0
 11
147.3105348180355
 21
384.3268043892044
 31
0.0
 11
146.6578815529092
 21
384.3044875023563
 31
0.0
 11
146.0050736147869
 21
384.2874693367164
 31
0.0
 11
145.321049922747
 21
384.2749492242392
 31
0.0
 11
144.6369530128144
 21
384.267495484172
 31
0.0
 11
143.9423414326839
 21
384.2649975260986
 31
0.0
 11
143.2477298525535
 21
384.267495484172
 31
0.0
 11
142.5636329426209
 21
384.2749492242392
 31
0.0
 11
141.879609250581
 21
384.2874693367164
 31
0.0
 11
141.2268013124587
 21
384.3044875023563
 31
0.0
 11
140.5741480473324
 21
384.3268043892044
 31
0.0
 11
139.9724448048427
 21
384.3526683884219
 31
0.0
 11
139.371019266645
 21
384.3842098408345
 31
0.0
 11
138.8386442690625
 21
384.4179166143314
 31
0.0
 11
138.3066485529594
 21
384.458135311604
 31
0.0
 11
137.8597436317932
 21
384.498116716588
 31
0.0
 11
137.4137703477661
 21
384.5449166357923
 31
0.0
 11
137.065425254338
 21
384.5899652331495
 31
0.0
 11
136.7173964680431
 21
384.6465576346218
 31
0.0
 11
136.4781390902931
 21
384.6918757112294
 31
0.0
 11
136.2442446857632
 21
384.7410830452061
 31
0.0
 11
136.1143335226452
 21
384.7873658983667
 31
0.0
 11
135.982946991234
 21
384.8690595459812
 31
0.0
 11
135.9524928223204
 21
384.8996077215619
 31
0.0
 11
135.942341432684
 21
384.9301558971426
 31
0.0
  0
SPLINE
  5
18B
330
53
100
AcDbEntity
  8
1
  6
Continuous
 62
     7
100
AcDbSpline
210
0.0
220
0.0
230
1.0
 70
     8
 71
     3
 72
    45
 73
    41
 74
    39
 42
0.0000000001
 43
0.0000000001
 44
0.00000001
 40
0.0
 40
0.0
 40
0.0
 40
0.0
 40
0.0321907089501164
 40
0.0753259316249878
 40
0.230039449770166
 40
0.3679488867182643
 40
0.6069634347848374
 40
0.8504748736848909
 40
1.203074839644015
 40
1.554320736757753
 40
2.002742862107876
 40
2.451432645039415
 40
2.984946455134649
 40
3.518387440277761
 40
4.120639498154439
 40
4.722898361499807
 40
5.375933068019008
 40
6.02896279325147
 40
6.71310105741189
 40
7.39723857313534
 40
8.091854644822258
 40
8.786470716509232
 40
9.470608232232738
 40
10.15474649639305
 40
10.80777622162551
 40
11.46081092814477
 40
12.06306979149022
 40
12.66532184936698
 40
13.19876283451013
 40
13.73227664460533
 40
14.18096642753681
 40
14.62938855288682
 40
14.98063445000063
 40
15.33323441595983
 40
15.57674585485995
 40
15.81576040292645
 40
15.83465473217513
 40
15.85375763589699
 40
15.97464684011625
 40
16.10860354264255
 40
16.10860354264255
 40
16.10860354264255
 40
16.10860354264255
 10
135.942341432684
 20
384.9301558971426
 30
0.0
 10
135.9448317207848
 20
384.9408718557971
 30
0.0
 10
135.9506589696189
 20
384.9659470900878
 30
0.0
 10
136.0132784173477
 20
385.015774838737
 30
0.0
 10
136.1061573967636
 20
385.0758579398838
 30
0.0
 10
136.2761490696804
 20
385.1325231247074
 30
0.0
 10
136.4797485175969
 20
385.1676920452604
 30
0.0
 10
136.7528564710018
 20
385.2220768808816
 30
0.0
 10
137.0647125686469
 20
385.2721640709822
 30
0.0
 10
137.4457636184782
 20
385.3207618346521
 30
0.0
 10
137.8597448600979
 20
385.3631507143116
 30
0.0
 10
138.3347285936851
 20
385.4056871796445
 30
0.0
 10
138.8385494689316
 20
385.4434410039069
 30
0.0
 10
139.3938582268972
 20
385.4784649239135
 30
0.0
 10
139.9724044824387
 20
385.5085557998246
 30
0.0
 10
140.5910249655467
 20
385.5350897620429
 30
0.0
 10
141.2267740492769
 20
385.5566887624779
 30
0.0
 10
141.8899569369851
 20
385.5739450177292
 30
0.0
 10
142.5636207594889
 20
385.5861924764106
 30
0.0
 10
143.2512165114297
 20
385.5936870327375
 30
0.0
 10
143.9423414326943
 20
385.5961340694731
 30
0.0
 10
144.6334663538968
 20
385.5936870324991
 30
0.0
 10
145.3210621060213
 20
385.5861924773478
 30
0.0
 10
145.9947259278637
 20
385.5739450142806
 30
0.0
 10
146.6579088179295
 20
385.5566887747037
 30
0.0
 10
147.2936578931746
 20
385.5350897178436
 30
0.0
 10
147.9122784056
 20
385.5085559505834
 30
0.0
 10
148.4908245577285
 20
385.4784643869833
 30
0.0
 10
149.0461336597745
 20
385.443442755086
 30
0.0
 10
149.549953351006
 20
385.4056810572107
 30
0.0
 10
150.0249408392205
 20
385.3631695598754
 30
0.0
 10
150.4389095885081
 20
385.32069760712
 30
0.0
 10
150.8199978218431
 20
385.2723471110326
 30
0.0
 10
151.1317359626291
 20
385.2214755164391
 30
0.0
 10
151.4051564273249
 20
385.1691688580627
 30
0.0
 10
151.5689750196483
 20
385.1359225999815
 30
0.0
 10
151.6589118731494
 20
385.1149306167638
 30
0.0
 10
151.7098965213166
 20
385.1005894602786
 30
0.0
 10
151.7951021310187
 20
385.0653783945633
 30
0.0
 10
151.8649966541156
 20
385.0167914136426
 30
0.0
 10
151.901735874134
 20
384.9912522482978
 30
0.0
 11
135.942341432684
 21
384.9301558971426
 31
0.0
 11
135.9524928223225
 21
384.9607040727202
 31
0.0
 11
135.982946991234
 21
384.9912522482978
 31
0.0
 11
136.1143335226454
 21
385.0729458959123
 31
0.0
 11
136.2442446857633
 21
385.1192287490728
 31
0.0
 11
136.4781390902932
 21
385.1684360830495
 31
0.0
 11
136.7173964680431
 21
385.2137541596571
 31
0.0
 11
137.0654252543381
 21
385.2703465611294
 31
0.0
 11
137.4137703477661
 21
385.3153951584866
 31
0.0
 11
137.8597436317933
 21
385.3621950776908
 31
0.0
 11
138.3066485529596
 21
385.4021764826749
 31
0.0
 11
138.8386442690627
 21
385.4423951799477
 31
0.0
 11
139.3710192666451
 21
385.4761019534445
 31
0.0
 11
139.9724448048428
 21
385.5076434058572
 31
0.0
 11
140.5741480473324
 21
385.5335074050745
 31
0.0
 11
141.2268013124587
 21
385.5558242919227
 31
0.0
 11
141.879609250581
 21
385.5728424575624
 31
0.0
 11
142.563632942621
 21
385.5853625700395
 31
0.0
 11
143.2477298525535
 21
385.5928163101067
 31
0.0
 11
143.9423414326839
 21
385.5953142681801
 31
0.0
 11
144.6369530128143
 21
385.5928163101069
 31
0.0
 11
145.3210499227469
 21
385.5853625700396
 31
0.0
 11
146.0050736147868
 21
385.5728424575625
 31
0.0
 11
146.6578815529091
 21
385.5558242919226
 31
0.0
 11
147.3105348180354
 21
385.5335074050745
 31
0.0
 11
147.9122380605251
 21
385.5076434058572
 31
0.0
 11
148.5136635987229
 21
385.4761019534446
 31
0.0
 11
149.0460385963054
 21
385.4423951799477
 31
0.0
 11
149.5780343124084
 21
385.4021764826749
 31
0.0
 11
150.0249392335747
 21
385.3621950776908
 31
0.0
 11
150.4709125176017
 21
385.3153951584866
 31
0.0
 11
150.8192576110298
 21
385.2703465611294
 31
0.0
 11
151.1672863973249
 21
385.2137541596571
 31
0.0
 11
151.4065437750749
 21
385.1684360830496
 31
0.0
 11
151.6404381796047
 21
385.1192287490729
 31
0.0
 11
151.6588086356043
 21
385.1148103756024
 31
0.0
 11
151.6772088828745
 21
385.1096769721504
 31
0.0
 11
151.7889294486595
 21
385.0634956460819
 31
0.0
 11
151.901735874134
 21
384.9912522482978
 31
0.0
  0
SPLINE
  5
18C
330
53
100
AcDbEntity
  8
1
  6
Continuous
 62
     7
100
AcDbSpline
210
0.0
220
0.0
230
1.0
 70
     8
 71
     3
 72
    43
 73
    39
 74
    37
 42
0.0000000001
 43
0.0000000001
 44
0.00000001
 40
0.0
 40
0.0
 40
0.0
 40
0.0
 40
0.032190708946526
 40
0.0753259316154668
 40
0.230039449760675
 40
0.3679488867087924
 40
0.606963434775326
 40
0.8504748736754354
 40
1.203074839634531
 40
1.554320736748305
 40
2.002742862098406
 40
2.45143264502994
 40
2.984946455125202
 40
3.518387440268286
 40
4.120639498144958
 40
4.722898361490328
 40
5.375933068009501
 40
6.028962793241997
 40
6.713101057402389
 40
7.397238573125867
 40
8.091854644812813
 40
8.786470716499787
 40
9.470608232223293
 40
10.1547464963836
 40
10.80777622161607
 40
11.4608109281353
 40
12.06306979148075
 40
12.66532184935751
 40
13.19876283450068
 40
13.73227664459585
 40
14.18096642752731
 40
14.62938855287734
 40
14.98063444999115
 40
15.33323441595035
 40
15.57674585485052
 40
15.81576040291715
 40
15.95366983986524
 40
16.10838335801025
 40
16.10838335801025
 40
16.10838335801025
 40
16.10838335801025
 10
135.942341432684
 20
389.9018721441148
 30
0.0
 10
135.9448317207862
 20
389.9125881027676
 30
0.0
 10
135.9506589696238
 20
389.937663337054
 30
0.0
 10
136.0132784173485
 20
389.9874910856997
 30
0.0
 10
136.1061573967639
 20
390.0475741868463
 30
0.0
 10
136.2761490696802
 20
390.1042393716697
 30
0.0
 10
136.479748517597
 20
390.1394082922229
 30
0.0
 10
136.7528564710018
 20
390.193793127844
 30
0.0
 10
137.064712568647
 20
390.2438803179446
 30
0.0
 10
137.4457636184782
 20
390.2924780816143
 30
0.0
 10
137.8597448600979
 20
390.3348669612741
 30
0.0
 10
138.3347285936851
 20
390.377403426607
 30
0.0
 10
138.8385494689316
 20
390.4151572508693
 30
0.0
 10
139.3938582268972
 20
390.450181170876
 30
0.0
 10
139.9724044824387
 20
390.4802720467868
 30
0.0
 10
140.5910249655467
 20
390.5068060090054
 30
0.0
 10
141.2267740492768
 20
390.5284050094398
 30
0.0
 10
141.8899569369852
 20
390.5456612646929
 30
0.0
 10
142.5636207594882
 20
390.5579087233688
 30
0.0
 10
143.2512165114322
 20
390.5654032797161
 30
0.0
 10
143.9423414326848
 20
390.5678503163739
 30
0.0
 10
144.6334663539321
 20
390.56540327969
 30
0.0
 10
145.3210621058918
 20
390.5579087234719
 30
0.0
 10
145.994725928338
 20
390.5456612643131
 30
0.0
 10
146.6579088162488
 20
390.5284050107863
 30
0.0
 10
147.2936578992507
 20
390.5068060041371
 30
0.0
 10
147.9122783848751
 20
390.480272063392
 30
0.0
 10
148.4908246315406
 20
390.4501811117361
 30
0.0
 10
149.0461334190391
 20
390.415157443752
 30
0.0
 10
149.5499541926602
 20
390.3774027522545
 30
0.0
 10
150.0249382485111
 20
390.3348690370093
 30
0.0
 10
150.4389184179001
 20
390.2924710073045
 30
0.0
 10
150.8199726592326
 20
390.2439004788008
 30
0.0
 10
151.1318186325103
 20
390.1937268908529
 30
0.0
 10
151.4049534091047
 20
390.1395709550435
 30
0.0
 10
151.6084758206861
 20
390.1037446330787
 30
0.0
 10
151.778648875438
 20
390.0486272980347
 30
0.0
 10
151.8591656306027
 20
389.9925940132543
 30
0.0
 10
151.901735874134
 20
389.9629684952602
 30
0.0
 11
135.942341432684
 21
389.9018721441148
 31
0.0
 11
135.9524928223259
 21
389.9324203196875
 31
0.0
 11
135.982946991234
 21
389.96296849526
 31
0.0
 11
136.1143335226454
 21
390.0446621428746
 31
0.0
 11
136.2442446857633
 21
390.0909449960352
 31
0.0
 11
136.4781390902931
 21
390.1401523300119
 31
0.0
 11
136.7173964680431
 21
390.1854704066195
 31
0.0
 11
137.0654252543381
 21
390.2420628080918
 31
0.0
 11
137.4137703477661
 21
390.287111405449
 31
0.0
 11
137.8597436317933
 21
390.3339113246533
 31
0.0
 11
138.3066485529596
 21
390.3738927296373
 31
0.0
 11
138.8386442690627
 21
390.41411142691
 31
0.0
 11
139.3710192666451
 21
390.4478182004069
 31
0.0
 11
139.9724448048428
 21
390.4793596528194
 31
0.0
 11
140.5741480473324
 21
390.5052236520368
 31
0.0
 11
141.2268013124587
 21
390.527540538885
 31
0.0
 11
141.879609250581
 21
390.5445587045249
 31
0.0
 11
142.5636329426209
 21
390.557078817002
 31
0.0
 11
143.2477298525535
 21
390.5645325570692
 31
0.0
 11
143.9423414326839
 21
390.5670305151425
 31
0.0
 11
144.6369530128144
 21
390.5645325570692
 31
0.0
 11
145.321049922747
 21
390.557078817002
 31
0.0
 11
146.0050736147868
 21
390.5445587045249
 31
0.0
 11
146.6578815529091
 21
390.5275405388849
 31
0.0
 11
147.3105348180354
 21
390.5052236520368
 31
0.0
 11
147.9122380605251
 21
390.4793596528194
 31
0.0
 11
148.5136635987229
 21
390.4478182004069
 31
0.0
 11
149.0460385963054
 21
390.41411142691
 31
0.0
 11
149.5780343124084
 21
390.3738927296373
 31
0.0
 11
150.0249392335746
 21
390.3339113246532
 31
0.0
 11
150.4709125176017
 21
390.287111405449
 31
0.0
 11
150.8192576110298
 21
390.2420628080918
 31
0.0
 11
151.1672863973249
 21
390.1854704066195
 31
0.0
 11
151.4065437750749
 21
390.1401523300119
 31
0.0
 11
151.6404381796048
 21
390.0909449960352
 31
0.0
 11
151.7703493427228
 21
390.0446621428745
 31
0.0
 11
151.901735874134
 21
389.9629684952602
 31
0.0
  0
SPLINE
  5
18D
330
53
100
AcDbEntity
  8
1
  6
Continuous
 62
     7
100
AcDbSpline
210
0.0
220
0.0
230
1.0
 70
     8
 71
     3
 72
     9
 73
     5
 74
     3
 42
0.0000000001
 43
0.0000000001
 44
0.00000001
 40
0.0
 40
0.0
 40
0.0
 40
0.0
 40
0.043135222786566
 40
0.0753259318069147
 40
0.0753259318069147
 40
0.0753259318069147
 40
0.0753259318069147
 10
151.901735874134
 20
384.9912522482978
 30
0.0
 10
151.9134955840479
 20
384.9820607828674
 30
0.0
 10
151.9340312634723
 20
384.96600996283
 30
0.0
 10
151.9398533504954
 20
384.9408906798939
 30
0.0
 10
151.9423414326839
 20
384.9301558969527
 30
0.0
 11
151.901735874134
 21
384.9912522482978
 31
0.0
 11
151.9321900431085
 21
384.9607040726253
 31
0.0
 11
151.9423414326839
 21
384.9301558969527
 31
0.0
  0
SPLINE
  5
18E
330
53
100
AcDbEntity
  8
1
  6
Continuous
 62
     7
100
AcDbSpline
210
0.0
220
0.0
230
1.0
 70
     8
 71
     3
 72
     9
 73
     5
 74
     3
 42
0.0000000001
 43
0.0000000001
 44
0.00000001
 40
0.0
 40
0.0
 40
0.0
 40
0.0
 40
0.0431352226433494
 40
0.0753259315736244
 40
0.0753259315736244
 40
0.0753259315736244
 40
0.0753259315736244
 10
151.901735874134
 20
389.9629684952602
 30
0.0
 10
151.9134955840032
 20
389.953777029864
 30
0.0
 10
151.934031263354
 20
389.9377262098828
 30
0.0
 10
151.9398533504596
 20
389.9126069270562
 30
0.0
 10
151.942341432684
 20
389.9018721441586
 30
0.0
 11
151.901735874134
 21
389.9629684952602
 31
0.0
 11
151.9321900430277
 21
389.9324203197093
 31
0.0
 11
151.942341432684
 21
389.9018721441586
 31
0.0
  0
ARC
  5
18F
330
53
100
AcDbEntity
  8
1
  6
Continuous
 62
     7
100
AcDbCircle
 10
422.9586963979787
 20
224.9624464316734
 30
0.0
 40
5.0
100
AcDbArc
 50
-90.0
 51
0.0
  0
ARC
  5
190
330
53
100
AcDbEntity
  8
1
  6
Continuous
 62
     7
100
AcDbCircle
 10
422.9586963979787
 20
224.9624464316734
 30
0.0
 40
25.0
100
AcDbArc
 50
-90.0
 51
0.0
  0
ENDBLK
  5
55
330
53
100
AcDbEntity
  8
0
100
AcDbBlockEnd
  0
BLOCK
  5
59
330
56
100
AcDbEntity
  8
0
100
AcDbBlockBegin
  2
A16J-60X
 70
     0
 71
     0
 10
666.4586963979787
 20
202.5124464316733
 30
0.0
  3
A16J-60X
  1

  0
INSERT
  5
57
330
56
100
AcDbEntity
  8
0
100
AcDbBlockReference
  2
32-1-16
 10
672.3059331461816
 20
352.5691148858407
 30
0.0
  0
INSERT
  5
58
330
56
100
AcDbEntity
  8
1
100
AcDbBlockReference
  2
60-5X
 10
897.144785290333
 20
173.5437011719772
 30
0.0
  0
ENDBLK
  5
5A
330
56
100
AcDbEntity
  8
0
100
AcDbBlockEnd
  0
BLOCK
  5
5C
330
5B
100
AcDbEntity
  8
0
100
AcDbBlockBegin
  2
A10-0A-13
 70
     0
 71
     0
 10
650.3956487421418
 20
260.2636972139014
 30
0.0
  3
A10-0A-13
  1

  0
LINE
  5
191
330
5B
100
AcDbEntity
  8
1
  6
Continuous
 62
     7
100
AcDbLine
 10
135.9423414326839
 20
279.5316464063328
 30
0.0
 11
131.9423414326839
 21
279.5316464063328
 31
0.0
  0
LINE
  5
192
330
5B
100
AcDbEntity
  8
1
  6
Continuous
 62
     7
100
AcDbLine
 10
135.9423414326839
 20
281.2636972139014
 30
0.0
 11
131.9423414326839
 21
281.2636972139014
 31
0.0
  0
LINE
  5
193
330
5B
100
AcDbEntity
  8
1
  6
Continuous
 62
     7
100
AcDbLine
 10
135.9423414326839
 20
239.7636972139014
 30
0.0
 11
130.9423414326839
 21
239.7636972139014
 31
0.0
  0
LINE
  5
194
330
5B
100
AcDbEntity
  8
1
  6
Continuous
 62
     7
100
AcDbLine
 10
156.942341432684
 20
241.6236422692613
 30
0.0
 11
155.963535715503
 21
245.0494622793942
 31
0.0
  0
LINE
  5
195
330
5B
100
AcDbEntity
  8
1
  6
Continuous
 62
     2
100
AcDbLine
 10
155.942341432684
 20
239.7636972139014
 30
0.0
 11
156.942341432684
 21
241.4957480214703
 31
0.0
  0
LINE
  5
196
330
5B
100
AcDbEntity
  8
1
  6
Continuous
 62
     7
100
AcDbLine
 10
156.942341432684
 20
241.4957480214703
 30
0.0
 11
156.942341432684
 21
238.2636972139018
 31
0.0
  0
LINE
  5
197
330
5B
100
AcDbEntity
  8
1
  6
Continuous
 62
     2
100
AcDbLine
 10
155.942341432684
 20
239.7636972139014
 30
0.0
 11
155.942341432684
 21
238.2636972139018
 31
0.0
  0
LINE
  5
198
330
5B
100
AcDbEntity
  8
1
  6
Continuous
 62
     7
100
AcDbLine
 10
156.942341432684
 20
241.6236422692613
 30
0.0
 11
156.942341432684
 21
241.4957480214703
 31
0.0
  0
LINE
  5
199
330
5B
100
AcDbEntity
  8
1
  6
Continuous
 62
     7
100
AcDbLine
 10
130.942350762853
 20
257.248122095624
 30
0.0
 11
131.6497642330349
 21
279.5316464063328
 31
0.0
  0
LINE
  5
19A
330
5B
100
AcDbEntity
  8
1
  6
Continuous
 62
     7
100
AcDbLine
 10
155.9423414326839
 20
279.5316464063328
 30
0.0
 11
151.9423414326839
 21
279.5316464063328
 31
0.0
  0
LINE
  5
19B
330
5B
100
AcDbEntity
  8
1
  6
Continuous
 62
     7
100
AcDbLine
 10
155.9423414326839
 20
281.2636972139014
 30
0.0
 11
151.9423414326839
 21
281.2636972139014
 31
0.0
  0
LINE
  5
19C
330
5B
100
AcDbEntity
  8
1
  6
Continuous
 62
     7
100
AcDbLine
 10
156.9423414326839
 20
239.7636972139014
 30
0.0
 11
151.9423414326839
 21
239.7636972139014
 31
0.0
  0
LINE
  5
19D
330
5B
100
AcDbEntity
  8
1
  6
Continuous
 62
     7
100
AcDbLine
 10
131.9211471498647
 20
245.0494622793942
 30
0.0
 11
130.9423414326839
 21
241.6236422692613
 31
0.0
  0
LINE
  5
19E
330
5B
100
AcDbEntity
  8
1
  6
Continuous
 62
     7
100
AcDbLine
 10
156.234918632333
 20
279.5316464063328
 30
0.0
 11
156.9423321025149
 21
257.248122095624
 31
0.0
  0
LINE
  5
19F
330
5B
100
AcDbEntity
  8
1
  6
Continuous
 62
     2
100
AcDbLine
 10
154.9423414326839
 20
282.7636972139014
 30
0.0
 11
154.942341432684
 21
281.2636972139014
 31
0.0
  0
LINE
  5
1A0
330
5B
100
AcDbEntity
  8
1
  6
Continuous
 62
     2
100
AcDbLine
 10
130.9423414326839
 20
241.4957480214703
 30
0.0
 11
131.9423414326839
 21
239.7636972139014
 31
0.0
  0
LINE
  5
1A1
330
5B
100
AcDbEntity
  8
1
  6
Continuous
 62
     7
100
AcDbLine
 10
130.9423414326839
 20
238.2636972139018
 30
0.0
 11
130.9423414326839
 21
241.4957480214703
 31
0.0
  0
LINE
  5
1A2
330
5B
100
AcDbEntity
  8
1
  6
Continuous
 62
     2
100
AcDbLine
 10
131.9423414326839
 20
238.2636972139018
 30
0.0
 11
131.9423414326839
 21
239.7636972139014
 31
0.0
  0
LINE
  5
1A3
330
5B
100
AcDbEntity
  8
1
  6
Continuous
 62
     7
100
AcDbLine
 10
131.649764233036
 20
279.5316464063328
 30
0.0
 11
131.9423414326839
 21
279.5316464063328
 31
0.0
  0
LINE
  5
1A4
330
5B
100
AcDbEntity
  8
1
  6
Continuous
 62
     7
100
AcDbLine
 10
155.9423414326839
 20
279.5316464063328
 30
0.0
 11
156.234918632333
 21
279.5316464063328
 31
0.0
  0
LINE
  5
1A5
330
5B
100
AcDbEntity
  8
1
  6
Continuous
 62
     2
100
AcDbLine
 10
154.942341432684
 20
281.2636972139014
 30
0.0
 11
155.9423414326839
 21
279.5316464063328
 31
0.0
  0
LINE
  5
1A6
330
5B
100
AcDbEntity
  8
1
  6
Continuous
 62
     7
100
AcDbLine
 10
155.9423414326839
 20
279.5316464063328
 30
0.0
 11
155.9423414326839
 21
282.7636972139014
 31
0.0
  0
LINE
  5
1A7
330
5B
100
AcDbEntity
  8
1
  6
Continuous
 62
     2
100
AcDbLine
 10
131.9423414326839
 20
279.5316464063328
 30
0.0
 11
132.9423414326839
 21
281.2636972139014
 31
0.0
  0
LINE
  5
1A8
330
5B
100
AcDbEntity
  8
1
  6
Continuous
 62
     2
100
AcDbLine
 10
132.9423414326839
 20
281.2636972139014
 30
0.0
 11
132.9423414326839
 21
282.7636972139014
 31
0.0
  0
LINE
  5
1A9
330
5B
100
AcDbEntity
  8
1
  6
Continuous
 62
     7
100
AcDbLine
 10
131.9423414326839
 20
282.7636972139014
 30
0.0
 11
131.9423414326839
 21
279.5316464063328
 31
0.0
  0
LINE
  5
1AA
330
5B
100
AcDbEntity
  8
1
  6
Continuous
 62
     7
100
AcDbLine
 10
130.9423414326839
 20
241.4957480214703
 30
0.0
 11
130.9423414326839
 21
241.6236422692613
 31
0.0
  0
LINE
  5
1AB
330
5B
100
AcDbEntity
  8
0
  6
PHANTOM
 62
     4
100
AcDbLine
 10
117.942341432684
 20
257.2636972139014
 30
0.0
 11
166.942341432684
 21
257.2636972139014
 31
0.0
  0
LINE
  5
1AC
330
5B
100
AcDbEntity
  8
1
  6
Continuous
 62
     7
100
AcDbLine
 10
530.9586963979785
 20
267.7636972139014
 30
0.0
 11
530.9586963979785
 21
246.7636972139014
 31
0.0
  0
LINE
  5
1AD
330
5B
100
AcDbEntity
  8
1
  6
Continuous
 62
     7
100
AcDbLine
 10
515.4586963979785
 20
270.0136972139014
 30
0.0
 11
515.4586963979785
 21
244.5136972139014
 31
0.0
  0
LINE
  5
1AE
330
5B
100
AcDbEntity
  8
1
  6
Continuous
 62
     7
100
AcDbLine
 10
517.9586963979785
 20
246.7636972139014
 30
0.0
 11
517.9586963979785
 21
267.7636972139014
 31
0.0
  0
LINE
  5
1AF
330
5B
100
AcDbEntity
  8
1
  6
Continuous
 62
     7
100
AcDbLine
 10
519.6907472055475
 20
267.7636972139014
 30
0.0
 11
519.6907472055475
 21
246.7636972139014
 31
0.0
  0
LINE
  5
1B0
330
5B
100
AcDbEntity
  8
1
  6
Continuous
 62
     7
100
AcDbLine
 10
484.9586963979785
 20
279.5316464063328
 30
0.0
 11
460.9586963979784
 21
279.5316464063328
 31
0.0
  0
LINE
  5
1B1
330
5B
100
AcDbEntity
  8
1
  6
Continuous
 62
     7
100
AcDbLine
 10
484.9586963979785
 20
281.2636972139014
 30
0.0
 11
460.9586963979787
 21
281.2636972139014
 31
0.0
  0
LINE
  5
1B2
330
5B
100
AcDbEntity
  8
1
  6
Continuous
 62
     7
100
AcDbLine
 10
450.9586963979787
 20
239.7636972139014
 30
0.0
 11
424.9586963979784
 21
239.7636972139014
 31
0.0
  0
LINE
  5
1B3
330
5B
100
AcDbEntity
  8
1
  6
Continuous
 62
     7
100
AcDbLine
 10
460.5043401707135
 20
274.4356070364132
 30
0.0
 11
460.6661191983307
 21
279.5316464063328
 31
0.0
  0
LINE
  5
1B4
330
5B
100
AcDbEntity
  8
1
  6
Continuous
 62
     7
100
AcDbLine
 10
425.9375021151594
 20
245.0494622793942
 30
0.0
 11
424.9586963979784
 21
241.6236422692613
 31
0.0
  0
LINE
  5
1B5
330
5B
100
AcDbEntity
  8
1
  6
Continuous
 62
     7
100
AcDbLine
 10
511.4586963979785
 20
266.0136972139014
 30
0.0
 11
495.1383605072476
 21
266.0136972139017
 31
0.0
  0
LINE
  5
1B6
330
5B
100
AcDbEntity
  8
1
  6
Continuous
 62
     7
100
AcDbLine
 10
485.2512735976277
 20
279.5316464063328
 30
0.0
 11
485.4033715901686
 21
274.7405596412946
 31
0.0
  0
LINE
  5
1B7
330
5B
100
AcDbEntity
  8
1
  6
Continuous
 62
     7
100
AcDbLine
 10
495.1383605072466
 20
248.5136972139013
 30
0.0
 11
511.4586963979785
 21
248.5136972139014
 31
0.0
  0
LINE
  5
1B8
330
5B
100
AcDbEntity
  8
1
  6
Continuous
 62
     7
100
AcDbLine
 10
454.5263878068117
 20
248.7636972139014
 30
0.0
 11
453.7001702880056
 21
248.7636972139014
 31
0.0
  0
LINE
  5
1B9
330
5B
100
AcDbEntity
  8
1
  6
Continuous
 62
     7
100
AcDbLine
 10
449.9398432150996
 20
245.1896284093393
 30
0.0
 11
450.9586963979784
 21
241.6236422692613
 31
0.0
  0
LINE
  5
1BA
330
5B
100
AcDbEntity
  8
1
  6
Continuous
 62
     2
100
AcDbLine
 10
483.9586963979784
 20
282.7636972139014
 30
0.0
 11
483.9586963979784
 21
281.2636972139014
 31
0.0
  0
LINE
  5
1BB
330
5B
100
AcDbEntity
  8
1
  6
Continuous
 62
     7
100
AcDbLine
 10
530.9586963979785
 20
246.7636972139014
 30
0.0
 11
517.9586963979785
 21
246.7636972139014
 31
0.0
  0
LINE
  5
1BC
330
5B
100
AcDbEntity
  8
1
  6
Continuous
 62
     2
100
AcDbLine
 10
519.6907472055475
 20
247.7636972139014
 30
0.0
 11
517.9586963979785
 21
246.7636972139014
 31
0.0
  0
LINE
  5
1BD
330
5B
100
AcDbEntity
  8
1
  6
Continuous
 62
     2
100
AcDbLine
 10
531.9586963979787
 20
247.7636972139014
 30
0.0
 11
519.6907472055475
 21
247.7636972139014
 31
0.0
  0
LINE
  5
1BE
330
5B
100
AcDbEntity
  8
1
  6
Continuous
 62
     7
100
AcDbLine
 10
530.9586963979785
 20
246.7636972139014
 30
0.0
 11
531.9586963979787
 21
247.7636972139014
 31
0.0
  0
LINE
  5
1BF
330
5B
100
AcDbEntity
  8
1
  6
Continuous
 62
     7
100
AcDbLine
 10
515.4586963979785
 20
244.5136972139014
 30
0.0
 11
515.4586963979787
 21
234.7636972139014
 31
0.0
  0
LINE
  5
1C0
330
5B
100
AcDbEntity
  8
1
  6
Continuous
 62
     7
100
AcDbLine
 10
517.9586963979787
 20
234.2636972139014
 30
0.0
 11
515.9586963979785
 21
234.2636972139014
 31
0.0
  0
LINE
  5
1C1
330
5B
100
AcDbEntity
  8
1
  6
Continuous
 62
     7
100
AcDbLine
 10
517.9586963979785
 20
246.7636972139014
 30
0.0
 11
517.9586963979787
 21
234.2636972139014
 31
0.0
  0
LINE
  5
1C2
330
5B
100
AcDbEntity
  8
1
  6
Continuous
 62
     2
100
AcDbLine
 10
519.6907472055475
 20
266.7636972139014
 30
0.0
 11
531.9586963979785
 21
266.7636972139014
 31
0.0
  0
LINE
  5
1C3
330
5B
100
AcDbEntity
  8
1
  6
Continuous
 62
     7
100
AcDbLine
 10
517.9586963979785
 20
267.7636972139014
 30
0.0
 11
530.9586963979785
 21
267.7636972139014
 31
0.0
  0
LINE
  5
1C4
330
5B
100
AcDbEntity
  8
1
  6
Continuous
 62
     7
100
AcDbLine
 10
531.9586963979785
 20
266.7636972139014
 30
0.0
 11
530.9586963979785
 21
267.7636972139014
 31
0.0
  0
LINE
  5
1C5
330
5B
100
AcDbEntity
  8
1
  6
Continuous
 62
     2
100
AcDbLine
 10
517.9586963979785
 20
267.7636972139014
 30
0.0
 11
519.6907472055475
 21
266.7636972139014
 31
0.0
  0
LINE
  5
1C6
330
5B
100
AcDbEntity
  8
1
  6
Continuous
 62
     7
100
AcDbLine
 10
517.9586963979787
 20
280.2636972139014
 30
0.0
 11
517.9586963979785
 21
267.7636972139014
 31
0.0
  0
LINE
  5
1C7
330
5B
100
AcDbEntity
  8
1
  6
Continuous
 62
     7
100
AcDbLine
 10
517.9586963979787
 20
280.2636972139014
 30
0.0
 11
515.9586963979785
 21
280.2636972139014
 31
0.0
  0
LINE
  5
1C8
330
5B
100
AcDbEntity
  8
1
  6
Continuous
 62
     7
100
AcDbLine
 10
515.4586963979785
 20
270.0136972139014
 30
0.0
 11
515.4586963979785
 21
279.7636972139014
 31
0.0
  0
LINE
  5
1C9
330
5B
100
AcDbEntity
  8
1
  6
Continuous
 62
     7
100
AcDbLine
 10
450.9586963979784
 20
241.6236422692613
 30
0.0
 11
450.9586963979784
 21
238.2636972139018
 31
0.0
  0
LINE
  5
1CA
330
5B
100
AcDbEntity
  8
1
  6
Continuous
 62
     2
100
AcDbLine
 10
424.9586963979784
 20
241.4957480214703
 30
0.0
 11
425.9586963979784
 21
239.7636972139014
 31
0.0
  0
LINE
  5
1CB
330
5B
100
AcDbEntity
  8
1
  6
Continuous
 62
     7
100
AcDbLine
 10
424.9586963979784
 20
238.2636972139018
 30
0.0
 11
424.9586963979784
 21
241.4957480214703
 31
0.0
  0
LINE
  5
1CC
330
5B
100
AcDbEntity
  8
1
  6
Continuous
 62
     2
100
AcDbLine
 10
449.9586963979784
 20
239.7636972139014
 30
0.0
 11
450.9586963979784
 21
241.4957480214703
 31
0.0
  0
LINE
  5
1CD
330
5B
100
AcDbEntity
  8
1
  6
Continuous
 62
     2
100
AcDbLine
 10
449.9586963979784
 20
239.7636972139014
 30
0.0
 11
449.9586963979784
 21
238.2636972139018
 31
0.0
  0
LINE
  5
1CE
330
5B
100
AcDbEntity
  8
1
  6
Continuous
 62
     2
100
AcDbLine
 10
425.9586963979784
 20
238.2636972139018
 30
0.0
 11
425.9586963979784
 21
239.7636972139014
 31
0.0
  0
LINE
  5
1CF
330
5B
100
AcDbEntity
  8
1
  6
Continuous
 62
     7
100
AcDbLine
 10
460.6661191983307
 20
279.5316464063328
 30
0.0
 11
460.9586963979784
 21
279.5316464063328
 31
0.0
  0
LINE
  5
1D0
330
5B
100
AcDbEntity
  8
1
  6
Continuous
 62
     7
100
AcDbLine
 10
484.9586963979785
 20
279.5316464063328
 30
0.0
 11
485.2512735976277
 21
279.5316464063328
 31
0.0
  0
LINE
  5
1D1
330
5B
100
AcDbEntity
  8
1
  6
Continuous
 62
     2
100
AcDbLine
 10
483.9586963979784
 20
281.2636972139014
 30
0.0
 11
484.9586963979785
 21
279.5316464063328
 31
0.0
  0
LINE
  5
1D2
330
5B
100
AcDbEntity
  8
1
  6
Continuous
 62
     7
100
AcDbLine
 10
484.9586963979785
 20
279.5316464063328
 30
0.0
 11
484.9586963979785
 21
282.7636972139014
 31
0.0
  0
LINE
  5
1D3
330
5B
100
AcDbEntity
  8
1
  6
Continuous
 62
     2
100
AcDbLine
 10
460.9586963979784
 20
279.5316464063328
 30
0.0
 11
461.9586963979784
 21
281.2636972139014
 31
0.0
  0
LINE
  5
1D4
330
5B
100
AcDbEntity
  8
1
  6
Continuous
 62
     2
100
AcDbLine
 10
461.9586963979784
 20
281.2636972139014
 30
0.0
 11
461.9586963979787
 21
282.7636972139014
 31
0.0
  0
LINE
  5
1D5
330
5B
100
AcDbEntity
  8
1
  6
Continuous
 62
     7
100
AcDbLine
 10
460.9586963979784
 20
282.7636972139014
 30
0.0
 11
460.9586963979784
 21
279.5316464063328
 31
0.0
  0
LINE
  5
1D6
330
5B
100
AcDbEntity
  8
1
  6
Continuous
 62
     7
100
AcDbLine
 10
424.9586963979784
 20
241.4957480214703
 30
0.0
 11
424.9586963979784
 21
241.6236422692613
 31
0.0
  0
LINE
  5
1D7
330
5B
100
AcDbEntity
  8
1
  6
Continuous
 62
     7
100
AcDbLine
 10
531.9586963979787
 20
247.7636972139014
 30
0.0
 11
531.9586963979785
 21
266.7636972139014
 31
0.0
  0
LINE
  5
1D8
330
5B
100
AcDbEntity
  8
1
  6
Continuous
 62
     7
100
AcDbLine
 10
152.4428612204172
 20
677.2244537829747
 30
0.0
 11
155.6470537114199
 21
662.0570045242797
 31
0.0
  0
LINE
  5
1D9
330
5B
100
AcDbEntity
  8
1
  6
Continuous
 62
     7
100
AcDbLine
 10
152.692341432684
 20
717.9433613231696
 30
0.0
 11
152.692341432684
 21
734.2636972139017
 31
0.0
  0
LINE
  5
1DA
330
5B
100
AcDbEntity
  8
1
  6
Continuous
 62
     7
100
AcDbLine
 10
132.237629153948
 20
662.0570045242797
 30
0.0
 11
135.4418216449506
 21
677.2244537829747
 31
0.0
  0
LINE
  5
1DB
330
5B
100
AcDbEntity
  8
1
  6
Continuous
 62
     7
100
AcDbLine
 10
135.192341432684
 20
734.2636972139017
 30
0.0
 11
135.192341432684
 21
717.9433613231696
 31
0.0
  0
LINE
  5
1DC
330
5B
100
AcDbEntity
  8
1
  6
Continuous
 62
     7
100
AcDbLine
 10
134.442341432684
 20
754.7636972139014
 30
0.0
 11
153.442341432684
 21
754.7636972139014
 31
0.0
  0
LINE
  5
1DD
330
5B
100
AcDbEntity
  8
1
  6
Continuous
 62
     7
100
AcDbLine
 10
166.442341432684
 20
738.2636972139014
 30
0.0
 11
121.4423414326839
 21
738.2636972139014
 31
0.0
  0
LINE
  5
1DE
330
5B
100
AcDbEntity
  8
1
  6
Continuous
 62
     7
100
AcDbLine
 10
120.9423414326839
 20
740.7636972139014
 30
0.0
 11
120.9423414326839
 21
738.7636972139014
 31
0.0
  0
LINE
  5
1DF
330
5B
100
AcDbEntity
  8
1
  6
Continuous
 62
     7
100
AcDbLine
 10
120.9423414326839
 20
740.7636972139014
 30
0.0
 11
166.942341432684
 21
740.7636972139014
 31
0.0
  0
LINE
  5
1E0
330
5B
100
AcDbEntity
  8
1
  6
Continuous
 62
     2
100
AcDbLine
 10
133.442341432684
 20
740.7636972139014
 30
0.0
 11
134.442341432684
 21
742.4957480214706
 31
0.0
  0
LINE
  5
1E1
330
5B
100
AcDbEntity
  8
1
  6
Continuous
 62
     7
100
AcDbLine
 10
134.442341432684
 20
754.7636972139014
 30
0.0
 11
133.442341432684
 21
753.7636972139014
 31
0.0
  0
LINE
  5
1E2
330
5B
100
AcDbEntity
  8
1
  6
Continuous
 62
     7
100
AcDbLine
 10
133.442341432684
 20
740.7636972139014
 30
0.0
 11
133.442341432684
 21
753.7636972139014
 31
0.0
  0
LINE
  5
1E3
330
5B
100
AcDbEntity
  8
1
  6
Continuous
 62
     2
100
AcDbLine
 10
134.442341432684
 20
742.4957480214706
 30
0.0
 11
134.442341432684
 21
754.7636972139014
 31
0.0
  0
LINE
  5
1E4
330
5B
100
AcDbEntity
  8
1
  6
Continuous
 62
     7
100
AcDbLine
 10
166.942341432684
 20
740.7636972139014
 30
0.0
 11
166.942341432684
 21
738.7636972139014
 31
0.0
  0
LINE
  5
1E5
330
5B
100
AcDbEntity
  8
1
  6
Continuous
 62
     7
100
AcDbLine
 10
154.442341432684
 20
753.7636972139014
 30
0.0
 11
153.442341432684
 21
754.7636972139014
 31
0.0
  0
LINE
  5
1E6
330
5B
100
AcDbEntity
  8
1
  6
Continuous
 62
     2
100
AcDbLine
 10
153.442341432684
 20
754.7636972139014
 30
0.0
 11
153.442341432684
 21
742.4957480214706
 31
0.0
  0
LINE
  5
1E7
330
5B
100
AcDbEntity
  8
1
  6
Continuous
 62
     2
100
AcDbLine
 10
153.442341432684
 20
742.4957480214706
 30
0.0
 11
154.442341432684
 21
740.7636972139014
 31
0.0
  0
LINE
  5
1E8
330
5B
100
AcDbEntity
  8
1
  6
Continuous
 62
     7
100
AcDbLine
 10
154.442341432684
 20
753.7636972139014
 30
0.0
 11
154.442341432684
 21
740.7636972139014
 31
0.0
  0
LINE
  5
1E9
330
5B
100
AcDbEntity
  8
1
  6
Continuous
 62
     7
100
AcDbLine
 10
133.442341432684
 20
742.4957480214706
 30
0.0
 11
154.442341432684
 21
742.4957480214706
 31
0.0
  0
LINE
  5
1EA
330
5B
100
AcDbEntity
  8
1
  6
Continuous
 62
     7
100
AcDbLine
 10
133.442341432684
 20
753.7636972139014
 30
0.0
 11
154.442341432684
 21
753.7636972139014
 31
0.0
  0
LINE
  5
1EB
330
5B
100
AcDbEntity
  8
0
  6
PHANTOM
 62
     4
100
AcDbLine
 10
166.942341432684
 20
257.2636972139014
 30
0.0
 11
169.942341432684
 21
257.2636972139014
 31
0.0
  0
ARC
  5
1EC
330
5B
100
AcDbEntity
  8
1
  6
Continuous
 62
     7
100
AcDbCircle
 10
143.942341432684
 20
257.2636972139014
 30
0.0
 40
8.351995935905956
100
AcDbArc
 50
0.19057502307833
 51
16.69354317840993
  0
ARC
  5
1ED
330
5B
100
AcDbEntity
  8
1
  6
Continuous
 62
     7
100
AcDbCircle
 10
143.942341432684
 20
257.2636972139014
 30
0.0
 40
8.351995935906142
100
AcDbArc
 50
163.3064568215943
 51
179.8094249769217
  0
ARC
  5
1EE
330
5B
100
AcDbEntity
  8
1
  6
Continuous
 62
     7
100
AcDbCircle
 10
143.942341432684
 20
257.2636972139014
 30
0.0
 40
13.00000000000009
100
AcDbArc
 50
-179.9313547110613
 51
-145.6899072066108
  0
ARC
  5
1EF
330
5B
100
AcDbEntity
  8
1
  6
Continuous
 62
     7
100
AcDbCircle
 10
132.2379108586918
 20
241.4307988308365
 30
0.0
 40
24.00000000000136
100
AcDbArc
 50
8.67199482596322
 51
27.87011739414517
  0
ARC
  5
1F0
330
5B
100
AcDbEntity
  8
1
  6
Continuous
 62
     7
100
AcDbCircle
 10
143.942341432684
 20
257.2636972139014
 30
0.0
 40
13.00000000000011
100
AcDbArc
 50
180.0
 51
-179.9313547110613
  0
ARC
  5
1F1
330
5B
100
AcDbEntity
  8
1
  6
Continuous
 62
     7
100
AcDbCircle
 10
143.942341432684
 20
257.2636972139014
 30
0.0
 40
13.00000000000006
100
AcDbArc
 50
-34.31009279338921
 51
-0.06864528893873
  0
ARC
  5
1F2
330
5B
100
AcDbEntity
  8
1
  6
Continuous
 62
     7
100
AcDbCircle
 10
155.6467720066761
 20
241.4307988308365
 30
0.0
 40
24.00000000000146
100
AcDbArc
 50
152.1298826058547
 51
171.3280051740369
  0
ARC
  5
1F3
330
5B
100
AcDbEntity
  8
1
  6
Continuous
 62
     7
100
AcDbCircle
 10
472.9586963979784
 20
273.2636972139014
 30
0.0
 40
28.99999999999995
100
AcDbArc
 50
-117.4392401506809
 51
-68.30528397761397
  0
ARC
  5
1F4
330
5B
100
AcDbEntity
  8
1
  6
Continuous
 62
     7
100
AcDbCircle
 10
453.9177310223997
 20
244.7696181802776
 30
0.0
 40
3.999999999997908
100
AcDbArc
 50
93.1178665175734
 51
173.9726861048951
  0
ARC
  5
1F5
330
5B
100
AcDbEntity
  8
1
  6
Continuous
 62
     7
100
AcDbCircle
 10
511.4586963979785
 20
244.5136972139014
 30
0.0
 40
4.000000000000057
100
AcDbArc
 50
0.0
 51
90.0
  0
ARC
  5
1F6
330
5B
100
AcDbEntity
  8
1
  6
Continuous
 62
     7
100
AcDbCircle
 10
511.4586963979785
 20
270.0136972139014
 30
0.0
 40
4.0
100
AcDbArc
 50
-90.0
 51
0.0
  0
ARC
  5
1F7
330
5B
100
AcDbEntity
  8
1
  6
Continuous
 62
     7
100
AcDbCircle
 10
449.6631269719709
 20
241.4307988308365
 30
0.0
 40
24.00000000000227
100
AcDbArc
 50
99.36066212030325
 51
171.3280051740369
  0
ARC
  5
1F8
330
5B
100
AcDbEntity
  8
1
  6
Continuous
 62
     7
100
AcDbCircle
 10
453.7293411596398
 20
216.763697213442
 30
0.0
 40
49.00000000045973
100
AcDbArc
 50
92.19404509977881
 51
99.36066212030436
  0
ARC
  5
1F9
330
5B
100
AcDbEntity
  8
1
  6
Continuous
 62
     7
100
AcDbCircle
 10
451.5088718930518
 20
274.7211774579274
 30
0.0
 40
9.000000000003894
100
AcDbArc
 50
-87.8059549002254
 51
-1.81830296445899
  0
ARC
  5
1FA
330
5B
100
AcDbEntity
  8
1
  6
Continuous
 62
     7
100
AcDbCircle
 10
127.942341432684
 20
695.7636972139015
 30
0.0
 40
28.99999999999995
100
AcDbArc
 50
-27.43924015068135
 51
-16.39718102729598
  0
ARC
  5
1FB
330
5B
100
AcDbEntity
  8
1
  6
Continuous
 62
     7
100
AcDbCircle
 10
131.192341432684
 20
734.2636972139014
 30
0.0
 40
4.0
100
AcDbArc
 50
0.00000000000326
 51
90.0
  0
ARC
  5
1FC
330
5B
100
AcDbEntity
  8
1
  6
Continuous
 62
     7
100
AcDbCircle
 10
156.692341432684
 20
734.2636972139014
 30
0.0
 40
4.0
100
AcDbArc
 50
90.0
 51
179.9999999999967
  0
ARC
  5
1FD
330
5B
100
AcDbEntity
  8
1
  6
Continuous
 62
     7
100
AcDbCircle
 10
143.942341432684
 20
660.7636972139014
 30
0.0
 40
13.00000000000015
100
AcDbArc
 50
142.4250638103308
 51
37.57493618966942
  0
ARC
  5
1FE
330
5B
100
AcDbEntity
  8
1
  6
Continuous
 62
     7
100
AcDbCircle
 10
159.9423414326838
 20
695.7636972139015
 30
0.0
 40
28.99999999999989
100
AcDbArc
 50
-163.6028189727039
 51
-152.5607598493187
  0
ARC
  5
1FF
330
5B
100
AcDbEntity
  8
1
  6
Continuous
 62
     7
100
AcDbCircle
 10
143.942341432684
 20
257.2636972139014
 30
0.0
 40
22.99999999999996
100
AcDbArc
 50
-55.58261128955837
 51
0.0
  0
ARC
  5
200
330
5B
100
AcDbEntity
  8
1
  6
Continuous
 62
     7
100
AcDbCircle
 10
143.942341432684
 20
257.2636972139014
 30
0.0
 40
23.0
100
AcDbArc
 50
0.0
 51
57.42219882713927
  0
ARC
  5
201
330
5B
100
AcDbEntity
  8
1
  6
Continuous
 62
     7
100
AcDbCircle
 10
143.942341432684
 20
257.2636972139014
 30
0.0
 40
23.00000000000012
100
AcDbArc
 50
122.5778011728608
 51
-124.4173887104418
  0
ARC
  5
202
330
5B
100
AcDbEntity
  8
1
  6
Continuous
 62
     7
100
AcDbCircle
 10
162.2942358513959
 20
257.3247388059671
 30
0.0
 40
10.00000000000007
100
AcDbArc
 50
-179.8094249769229
 51
-152.1298826058546
  0
ARC
  5
203
330
5B
100
AcDbEntity
  8
1
  6
Continuous
 62
     7
100
AcDbCircle
 10
125.590447013972
 20
257.3247388059671
 30
0.0
 40
10.00000000000006
100
AcDbArc
 50
-27.87011739414518
 51
-0.19057502307709
  0
ARC
  5
204
330
5B
100
AcDbEntity
  8
1
  6
Continuous
 62
     7
100
AcDbCircle
 10
495.1383605072476
 20
297.0136972139017
 30
0.0
 40
30.99999999999999
100
AcDbArc
 50
-91.92633614020653
 51
-90.0
  0
ARC
  5
205
330
5B
100
AcDbEntity
  8
1
  6
Continuous
 62
     7
100
AcDbCircle
 10
494.3988398678256
 20
275.0261300628076
 30
0.0
 40
8.999999999998678
100
AcDbArc
 50
-178.1816970355477
 51
-91.92633614020365
  0
ARC
  5
206
330
5B
100
AcDbEntity
  8
1
  6
Continuous
 62
     7
100
AcDbCircle
 10
495.1383605072476
 20
217.5136972139013
 30
0.0
 40
31.0
100
AcDbArc
 50
90.00000000000189
 51
111.6947160223879
  0
ARC
  5
207
330
5B
100
AcDbEntity
  8
1
  6
Continuous
 62
     7
100
AcDbCircle
 10
454.5263878068117
 20
237.7636972139014
 30
0.0
 40
11.00000000000003
100
AcDbArc
 50
62.56075984931884
 51
90.0
  0
ARC
  5
208
330
5B
100
AcDbEntity
  8
1
  6
Continuous
 62
     7
100
AcDbCircle
 10
515.9586963979785
 20
234.7636972139014
 30
0.0
 40
0.4999999999998863
100
AcDbArc
 50
180.0
 51
-90.0
  0
ARC
  5
209
330
5B
100
AcDbEntity
  8
1
  6
Continuous
 62
     7
100
AcDbCircle
 10
515.9586963979785
 20
279.7636972139014
 30
0.0
 40
0.5
100
AcDbArc
 50
90.0
 51
180.0
  0
ARC
  5
20A
330
5B
100
AcDbEntity
  8
1
  6
Continuous
 62
     7
100
AcDbCircle
 10
163.4423414326839
 20
677.3313886227346
 30
0.0
 40
11.00000000000003
100
AcDbArc
 50
152.5607598493185
 51
-179.4429989537372
  0
ARC
  5
20B
330
5B
100
AcDbEntity
  8
1
  6
Continuous
 62
     7
100
AcDbCircle
 10
183.692341432684
 20
717.9433613231705
 30
0.0
 40
31.0
100
AcDbArc
 50
-179.9999999999983
 51
-167.467480488512
  0
ARC
  5
20C
330
5B
100
AcDbEntity
  8
1
  6
Continuous
 62
     7
100
AcDbCircle
 10
124.4423414326839
 20
677.3313886227346
 30
0.0
 40
11.00000000000006
100
AcDbArc
 50
-0.55700104626284
 51
27.43924015068147
  0
ARC
  5
20D
330
5B
100
AcDbEntity
  8
1
  6
Continuous
 62
     7
100
AcDbCircle
 10
121.4423414326839
 20
738.7636972139014
 30
0.0
 40
0.5
100
AcDbArc
 50
180.0
 51
-90.0
  0
ARC
  5
20E
330
5B
100
AcDbEntity
  8
1
  6
Continuous
 62
     7
100
AcDbCircle
 10
166.442341432684
 20
738.7636972139014
 30
0.0
 40
0.5
100
AcDbArc
 50
-90.0
 51
0.0
  0
ARC
  5
20F
330
5B
100
AcDbEntity
  8
1
  6
Continuous
 62
     7
100
AcDbCircle
 10
104.1923414326836
 20
717.9433613231705
 30
0.0
 40
31.0000000000003
100
AcDbArc
 50
-12.53251951148789
 51
-0.00000000000168
  0
ENDBLK
  5
5D
330
5B
100
AcDbEntity
  8
0
100
AcDbBlockEnd
  0
BLOCK
  5
237
330
230
100
AcDbEntity
  8
0
100
AcDbBlockBegin
  2
*D012
 70
     1
 71
     0
 10
0.0
 20
0.0
 30
0.0
  3
*D012
  1

  0
LINE
  5
231
330
230
100
AcDbEntity
  8
1
  6
Continuous
 62
     2
100
AcDbLine
 10
531.9586963979787
 20
169.9624464316734
 30
0.0
 11
552.9586963979787
 21
169.9624464316734
 31
0.0
  0
LINE
  5
232
330
230
100
AcDbEntity
  8
1
  6
Continuous
 62
     2
100
AcDbLine
 10
517.9586963979787
 20
169.9624464316734
 30
0.0
 11
531.9586963979787
 21
169.9624464316734
 31
0.0
  0
LINE
  5
233
330
230
100
AcDbEntity
  8
1
  6
Continuous
 62
     2
100
AcDbLine
 10
517.9586963979787
 20
234.2636972139014
 30
0.0
 11
517.9586963979787
 21
166.9624464316734
 31
0.0
  0
LINE
  5
234
330
230
100
AcDbEntity
  8
1
  6
Continuous
 62
     2
100
AcDbLine
 10
531.9586963979787
 20
247.7636972139014
 30
0.0
 11
531.9586963979787
 21
166.9624464316734
 31
0.0
  0
SOLID
  5
235
330
230
100
AcDbEntity
  8
1
 62
     2
100
AcDbTrace
 10
542.4586963979787
 20
171.3447976563411
 30
0.0
 11
542.4586963979787
 21
168.5800952070058
 31
0.0
 12
531.9586963979787
 22
169.9624464316734
 32
0.0
 13
531.9586963979787
 23
169.9624464316734
 33
0.0
  0
MTEXT
  5
236
330
230
100
AcDbEntity
  8
1
 62
     7
100
AcDbMText
 10
537.5283308177129
 20
172.9624464316734
 30
0.0
 40
10.5
 41
0.0
 71
     7
 72
     1
  1
14
  7
CONVERTER_2
 11
0.9999999999970621
 21
2.424068405545307E-6
 31
0.0
 73
     1
 44
0.60024009603842
  0
ENDBLK
  5
238
330
230
100
AcDbEntity
  8
0
100
AcDbBlockEnd
  0
BLOCK
  5
23A
330
239
100
AcDbEntity
  8
0
100
AcDbBlockBegin
  2
_None
 70
     0
 71
     0
 10
0.0
 20
0.0
 30
0.0
  3
_None
  1

  0
ENDBLK
  5
23B
330
239
100
AcDbEntity
  8
0
100
AcDbBlockEnd
  0
BLOCK
  5
247
330
23E
100
AcDbEntity
  8
0
100
AcDbBlockBegin
  2
*D114
 70
     1
 71
     0
 10
0.0
 20
0.0
 30
0.0
  3
*D114
  1

  0
LINE
  5
23F
330
23E
100
AcDbEntity
  8
1
  6
Continuous
 62
     2
100
AcDbLine
 10
585.9586963979787
 20
257.2636972139014
 30
0.0
 11
585.9586963979787
 21
314.7636972139014
 31
0.0
  0
LINE
  5
240
330
23E
100
AcDbEntity
  8
1
  6
Continuous
 62
     2
100
AcDbLine
 10
566.909735127118
 20
257.2636972139014
 30
0.0
 11
588.9586963979787
 21
257.2636972139014
 31
0.0
  0
LINE
  5
241
330
23E
100
AcDbEntity
  8
1
  6
Continuous
 62
     2
100
AcDbLine
 10
534.9965029297317
 20
257.2636972139014
 30
0.0
 11
545.951160663688
 21
257.2636972139014
 31
0.0
  0
LINE
  5
242
330
23E
100
AcDbEntity
  8
1
  6
Continuous
 62
     2
100
AcDbLine
 10
472.9586963979788
 20
314.7636972139014
 30
0.0
 11
588.9586963979787
 21
314.7636972139014
 31
0.0
  0
SOLID
  5
243
330
23E
100
AcDbEntity
  8
1
 62
     2
100
AcDbTrace
 10
584.576345173311
 20
267.7636972139014
 30
0.0
 11
587.3410476226463
 21
267.7636972139014
 31
0.0
 12
585.9586963979787
 22
257.2636972139014
 32
0.0
 13
585.9586963979787
 23
257.2636972139014
 33
0.0
  0
SOLID
  5
244
330
23E
100
AcDbEntity
  8
1
 62
     2
100
AcDbTrace
 10
587.3410476226463
 20
304.2636972139014
 30
0.0
 11
584.576345173311
 21
304.2636972139014
 31
0.0
 12
585.9586963979787
 22
314.7636972139014
 32
0.0
 13
585.9586963979787
 23
314.7636972139014
 33
0.0
  0
MTEXT
  5
246
330
23E
100
AcDbEntity
  8
1
 62
     7
100
AcDbMText
 10
582.9586963979787
 20
260.2229167907142
 30
0.0
 40
10.5
 41
0.0
 71
     7
 72
     1
  1
58リフト5
  7
CONVERTER_3
 11
0.0
 21
1.0
 31
0.0
 73
     1
 44
0.60024009603842
  0
ENDBLK
  5
248
330
23E
100
AcDbEntity
  8
0
100
AcDbBlockEnd
  0
BLOCK
  5
252
330
24B
100
AcDbEntity
  8
0
100
AcDbBlockBegin
  2
*D215
 70
     1
 71
     0
 10
0.0
 20
0.0
 30
0.0
  3
*D215
  1

  0
LINE
  5
24C
330
24B
100
AcDbEntity
  8
1
  6
Continuous
 62
     2
100
AcDbLine
 10
561.9586963979787
 20
234.2636972139014
 30
0.0
 11
561.9586963979787
 21
280.2636972139014
 31
0.0
  0
LINE
  5
24D
330
24B
100
AcDbEntity
  8
1
  6
Continuous
 62
     2
100
AcDbLine
 10
517.9586963979787
 20
234.2636972139014
 30
0.0
 11
564.9586963979787
 21
234.2636972139014
 31
0.0
  0
LINE
  5
24E
330
24B
100
AcDbEntity
  8
1
  6
Continuous
 62
     2
100
AcDbLine
 10
517.9586963979787
 20
280.2636972139014
 30
0.0
 11
564.9586963979787
 21
280.2636972139014
 31
0.0
  0
SOLID
  5
24F
330
24B
100
AcDbEntity
  8
1
 62
     2
100
AcDbTrace
 10
560.576345173311
 20
244.7636972139014
 30
0.0
 11
563.3410476226463
 21
244.7636972139014
 31
0.0
 12
561.9586963979787
 22
234.2636972139014
 32
0.0
 13
561.9586963979787
 23
234.2636972139014
 33
0.0
  0
SOLID
  5
250
330
24B
100
AcDbEntity
  8
1
 62
     2
100
AcDbTrace
 10
563.3410476226463
 20
269.7636972139014
 30
0.0
 11
560.576345173311
 21
269.7636972139014
 31
0.0
 12
561.9586963979787
 22
280.2636972139014
 32
0.0
 13
561.9586963979787
 23
280.2636972139014
 33
0.0
  0
MTEXT
  5
251
330
24B
100
AcDbEntity
  8
1
 62
     7
100
AcDbMText
 10
558.9586963979787
 20
238.4686972139014
 30
0.0
 40
10.5
 41
0.0
 71
     7
 72
     1
  1
\C7;{\Fgdt;n}\C7;46
  7
CONVERTER_2
 11
0.0
 21
1.0
 31
0.0
 73
     1
 44
0.60024009603842
  0
ENDBLK
  5
253
330
24B
100
AcDbEntity
  8
0
100
AcDbBlockEnd
  0
BLOCK
  5
25D
330
256
100
AcDbEntity
  8
0
100
AcDbBlockBegin
  2
*D316
 70
     1
 71
     0
 10
0.0
 20
0.0
 30
0.0
  3
*D316
  1

  0
LINE
  5
257
330
256
100
AcDbEntity
  8
1
  6
Continuous
 62
     2
100
AcDbLine
 10
277.0210977798721
 20
169.9624464316734
 30
0.0
 11
381.9620595852716
 21
169.9624464316734
 31
0.0
  0
LINE
  5
258
330
256
100
AcDbEntity
  8
1
  6
Continuous
 62
     2
100
AcDbLine
 10
277.021097779872
 20
384.9301558971395
 30
0.0
 11
277.021097779872
 21
166.9624464316734
 31
0.0
  0
LINE
  5
259
330
256
100
AcDbEntity
  8
1
  6
Continuous
 62
     2
100
AcDbLine
 10
381.9620595852715
 20
236.7626161502672
 30
0.0
 11
381.9620595852715
 21
166.9624464316734
 31
0.0
  0
SOLID
  5
25A
330
256
100
AcDbEntity
  8
1
 62
     2
100
AcDbTrace
 10
287.5210977798721
 20
171.3447976563411
 30
0.0
 11
287.5210977798721
 21
168.5800952070058
 31
0.0
 12
277.0210977798721
 22
169.9624464316734
 32
0.0
 13
277.0210977798721
 23
169.9624464316734
 33
0.0
  0
SOLID
  5
25B
330
256
100
AcDbEntity
  8
1
 62
     2
100
AcDbTrace
 10
371.4620595852716
 20
168.5800952070058
 30
0.0
 11
371.4620595852716
 21
171.3447976563411
 31
0.0
 12
381.9620595852716
 22
169.9624464316734
 32
0.0
 13
381.9620595852716
 23
169.9624464316734
 33
0.0
  0
MTEXT
  5
25C
330
256
100
AcDbEntity
  8
1
 62
     7
100
AcDbMText
 10
318.4665786825717
 20
172.9624464316734
 30
0.0
 40
10.5
 41
0.0
 71
     7
 72
     1
  1
105
  7
CONVERTER_2
 11
0.9999999999970621
 21
2.424068405545307E-6
 31
0.0
 73
     1
 44
0.60024009603842
  0
ENDBLK
  5
25E
330
256
100
AcDbEntity
  8
0
100
AcDbBlockEnd
  0
BLOCK
  5
268
330
261
100
AcDbEntity
  8
0
100
AcDbBlockBegin
  2
*D417
 70
     1
 71
     0
 10
0.0
 20
0.0
 30
0.0
  3
*D417
  1

  0
LINE
  5
262
330
261
100
AcDbEntity
  8
1
  6
Continuous
 62
     2
100
AcDbLine
 10
381.9620595852715
 20
169.9624464316734
 30
0.0
 11
437.9586963979787
 21
169.9624464316734
 31
0.0
  0
LINE
  5
263
330
261
100
AcDbEntity
  8
1
  6
Continuous
 62
     2
100
AcDbLine
 10
381.9620595852715
 20
236.7626161502672
 30
0.0
 11
381.9620595852715
 21
166.9624464316734
 31
0.0
  0
LINE
  5
264
330
261
100
AcDbEntity
  8
1
  6
Continuous
 62
     2
100
AcDbLine
 10
437.9586963979787
 20
224.7624464316734
 30
0.0
 11
437.9586963979787
 21
166.9624464316734
 31
0.0
  0
SOLID
  5
265
330
261
100
AcDbEntity
  8
1
 62
     2
100
AcDbTrace
 10
392.4620595852715
 20
171.3447976563411
 30
0.0
 11
392.4620595852715
 21
168.5800952070058
 31
0.0
 12
381.9620595852715
 22
169.9624464316734
 32
0.0
 13
381.9620595852715
 23
169.9624464316734
 33
0.0
  0
SOLID
  5
266
330
261
100
AcDbEntity
  8
1
 62
     2
100
AcDbTrace
 10
427.4586963979787
 20
168.5800952070058
 30
0.0
 11
427.4586963979787
 21
171.3447976563411
 31
0.0
 12
437.9586963979787
 22
169.9624464316734
 32
0.0
 13
437.9586963979787
 23
169.9624464316734
 33
0.0
  0
MTEXT
  5
267
330
261
100
AcDbEntity
  8
1
 62
     7
100
AcDbMText
 10
402.0853779916251
 20
172.9624464316734
 30
0.0
 40
10.5
 41
0.0
 71
     7
 72
     1
  1
56
  7
CONVERTER_2
 11
0.9999999999970621
 21
2.424068405545307E-6
 31
0.0
 73
     1
 44
0.60024009603842
  0
ENDBLK
  5
269
330
261
100
AcDbEntity
  8
0
100
AcDbBlockEnd
  0
BLOCK
  5
273
330
26C
100
AcDbEntity
  8
0
100
AcDbBlockBegin
  2
*D518
 70
     1
 71
     0
 10
0.0
 20
0.0
 30
0.0
  3
*D518
  1

  0
LINE
  5
26D
330
26C
100
AcDbEntity
  8
1
  6
Continuous
 62
     2
100
AcDbLine
 10
437.9586963979786
 20
169.9624464316734
 30
0.0
 11
517.9586963979787
 21
169.9624464316734
 31
0.0
  0
LINE
  5
26E
330
26C
100
AcDbEntity
  8
1
  6
Continuous
 62
     2
100
AcDbLine
 10
437.9586963979787
 20
224.7624464316734
 30
0.0
 11
437.9586963979787
 21
166.9624464316734
 31
0.0
  0
LINE
  5
26F
330
26C
100
AcDbEntity
  8
1
  6
Continuous
 62
     2
100
AcDbLine
 10
517.9586963979787
 20
234.2636972139014
 30
0.0
 11
517.9586963979787
 21
166.9624464316734
 31
0.0
  0
SOLID
  5
270
330
26C
100
AcDbEntity
  8
1
 62
     2
100
AcDbTrace
 10
448.4586963979786
 20
171.3447976563411
 30
0.0
 11
448.4586963979786
 21
168.5800952070058
 31
0.0
 12
437.9586963979786
 22
169.9624464316734
 32
0.0
 13
437.9586963979786
 23
169.9624464316734
 33
0.0
  0
SOLID
  5
271
330
26C
100
AcDbEntity
  8
1
 62
     2
100
AcDbTrace
 10
507.4586963979787
 20
168.5800952070058
 30
0.0
 11
507.4586963979787
 21
171.3447976563411
 31
0.0
 12
517.9586963979787
 22
169.9624464316734
 32
0.0
 13
517.9586963979787
 23
169.9624464316734
 33
0.0
  0
MTEXT
  5
272
330
26C
100
AcDbEntity
  8
1
 62
     7
100
AcDbMText
 10
470.0836963979786
 20
172.9624464316734
 30
0.0
 40
10.5
 41
0.0
 71
     7
 72
     1
  1
80
  7
CONVERTER_2
 11
0.9999999999970621
 21
2.424068405545307E-6
 31
0.0
 73
     1
 44
0.60024009603842
  0
ENDBLK
  5
274
330
26C
100
AcDbEntity
  8
0
100
AcDbBlockEnd
  0
BLOCK
  5
27E
330
277
100
AcDbEntity
  8
0
100
AcDbBlockBegin
  2
*D619
 70
     1
 71
     0
 10
0.0
 20
0.0
 30
0.0
  3
*D619
  1

  0
LINE
  5
278
330
277
100
AcDbEntity
  8
1
  6
Continuous
 62
     2
100
AcDbLine
 10
238.6115543062472
 20
257.2636972139014
 30
0.0
 11
238.6115543062472
 21
384.9301558971395
 31
0.0
  0
LINE
  5
279
330
277
100
AcDbEntity
  8
1
  6
Continuous
 62
     2
100
AcDbLine
 10
427.9586963979787
 20
257.2636972139014
 30
0.0
 11
235.6115543062472
 21
257.2636972139014
 31
0.0
  0
LINE
  5
27A
330
277
100
AcDbEntity
  8
1
  6
Continuous
 62
     2
100
AcDbLine
 10
277.021097779872
 20
384.9301558971395
 30
0.0
 11
235.6115543062472
 21
384.9301558971395
 31
0.0
  0
SOLID
  5
27B
330
277
100
AcDbEntity
  8
1
 62
     2
100
AcDbTrace
 10
237.2292030815796
 20
267.7636972139014
 30
0.0
 11
239.9939055309148
 21
267.7636972139014
 31
0.0
 12
238.6115543062472
 22
257.2636972139014
 32
0.0
 13
238.6115543062472
 23
257.2636972139014
 33
0.0
  0
SOLID
  5
27C
330
277
100
AcDbEntity
  8
1
 62
     2
100
AcDbTrace
 10
239.9939055309148
 20
374.4301558971395
 30
0.0
 11
237.2292030815796
 21
374.4301558971395
 31
0.0
 12
238.6115543062472
 22
384.9301558971395
 32
0.0
 13
238.6115543062472
 23
384.9301558971395
 33
0.0
  0
MTEXT
  5
27D
330
277
100
AcDbEntity
  8
1
 62
     7
100
AcDbMText
 10
235.6115543062472
 20
310.0719265555204
 30
0.0
 40
10.5
 41
0.0
 71
     7
 72
     1
  1
128
  7
CONVERTER_2
 11
0.0
 21
1.0
 31
0.0
 73
     1
 44
0.60024009603842
  0
ENDBLK
  5
27F
330
277
100
AcDbEntity
  8
0
100
AcDbBlockEnd
  0
BLOCK
  5
289
330
282
100
AcDbEntity
  8
0
100
AcDbBlockBegin
  2
*D720
 70
     1
 71
     0
 10
0.0
 20
0.0
 30
0.0
  3
*D720
  1

  0
LINE
  5
283
330
282
100
AcDbEntity
  8
1
  6
Continuous
 62
     2
100
AcDbLine
 10
214.6115543062472
 20
257.2636972139014
 30
0.0
 11
214.6115543062472
 21
434.762016073858
 31
0.0
  0
LINE
  5
284
330
282
100
AcDbEntity
  8
1
  6
Continuous
 62
     2
100
AcDbLine
 10
427.9586963979787
 20
257.2636972139014
 30
0.0
 11
211.6115543062472
 21
257.2636972139014
 31
0.0
  0
LINE
  5
285
330
282
100
AcDbEntity
  8
1
  6
Continuous
 62
     2
100
AcDbLine
 10
329.6746328324174
 20
434.762016073858
 30
0.0
 11
211.6115543062472
 21
434.762016073858
 31
0.0
  0
SOLID
  5
286
330
282
100
AcDbEntity
  8
1
 62
     2
100
AcDbTrace
 10
213.2292030815796
 20
267.7636972139014
 30
0.0
 11
215.9939055309148
 21
267.7636972139014
 31
0.0
 12
214.6115543062472
 22
257.2636972139014
 32
0.0
 13
214.6115543062472
 23
257.2636972139014
 33
0.0
  0
SOLID
  5
287
330
282
100
AcDbEntity
  8
1
 62
     2
100
AcDbTrace
 10
215.9939055309148
 20
424.262016073858
 30
0.0
 11
213.2292030815796
 21
424.262016073858
 31
0.0
 12
214.6115543062472
 22
434.762016073858
 32
0.0
 13
214.6115543062472
 23
434.762016073858
 33
0.0
  0
MTEXT
  5
288
330
282
100
AcDbEntity
  8
1
 62
     7
100
AcDbMText
 10
211.6115543062472
 20
334.9878566438797
 30
0.0
 40
10.5
 41
0.0
 71
     7
 72
     1
  1
178
  7
CONVERTER_2
 11
0.0
 21
1.0
 31
0.0
 73
     1
 44
0.60024009603842
  0
ENDBLK
  5
28A
330
282
100
AcDbEntity
  8
0
100
AcDbBlockEnd
  0
BLOCK
  5
295
330
28D
100
AcDbEntity
  8
0
100
AcDbBlockBegin
  2
*D821
 70
     1
 71
     0
 10
0.0
 20
0.0
 30
0.0
  3
*D821
  1

  0
LINE
  5
28E
330
28D
100
AcDbEntity
  8
1
  6
Continuous
 62
     2
100
AcDbLine
 10
585.9586963979787
 20
209.7624464316735
 30
0.0
 11
585.9586963979787
 21
257.2636972139014
 31
0.0
  0
LINE
  5
28F
330
28D
100
AcDbEntity
  8
1
  6
Continuous
 62
     2
100
AcDbLine
 10
422.9586963979788
 20
209.7624464316734
 30
0.0
 11
588.9586963979787
 21
209.7624464316734
 31
0.0
  0
LINE
  5
290
330
28D
100
AcDbEntity
  8
1
  6
Continuous
 62
     2
100
AcDbLine
 10
534.9965029297317
 20
257.2636972139014
 30
0.0
 11
545.3247193190769
 21
257.2636972139014
 31
0.0
  0
LINE
  5
291
330
28D
100
AcDbEntity
  8
1
  6
Continuous
 62
     2
100
AcDbLine
 10
566.267121858695
 20
257.2636972139014
 30
0.0
 11
588.9586963979787
 21
257.2636972139014
 31
0.0
  0
SOLID
  5
292
330
28D
100
AcDbEntity
  8
1
 62
     2
100
AcDbTrace
 10
584.576345173311
 20
220.2624464316735
 30
0.0
 11
587.3410476226463
 21
220.2624464316735
 31
0.0
 12
585.9586963979787
 22
209.7624464316735
 32
0.0
 13
585.9586963979787
 23
209.7624464316735
 33
0.0
  0
SOLID
  5
293
330
28D
100
AcDbEntity
  8
1
 62
     2
100
AcDbTrace
 10
587.3410476226463
 20
246.7636972139014
 30
0.0
 11
584.576345173311
 21
246.7636972139014
 31
0.0
 12
585.9586963979787
 22
257.2636972139014
 32
0.0
 13
585.9586963979787
 23
257.2636972139014
 33
0.0
  0
MTEXT
  5
294
330
28D
100
AcDbEntity
  8
1
 62
     7
100
AcDbMText
 10
582.9586963979787
 20
225.0613274089102
 30
0.0
 40
10.5
 41
0.0
 71
     7
 72
     1
  1
48
  7
CONVERTER_2
 11
0.0
 21
1.0
 31
0.0
 73
     1
 44
0.60024009603842
  0
ENDBLK
  5
296
330
28D
100
AcDbEntity
  8
0
100
AcDbBlockEnd
  0
ENDSEC
  0
SECTION
  2
ENTITIES
  0
INSERT
  5
5E
330
1F
100
AcDbEntity
  8
1
100
AcDbBlockReference
  2
_J__A4
 10
0.0
 20
0.0
 30
0.0
 41
3.0
 42
3.0
 43
3.0
  0
INSERT
  5
5F
330
1F
100
AcDbEntity
  8
0
100
AcDbBlockReference
  2
R10A-13
 10
628.5339221100529
 20
262.2636972139014
 30
0.0
  0
INSERT
  5
60
330
1F
100
AcDbEntity
  8
0
100
AcDbBlockReference
  2
A16J-60X
 10
666.4586963979787
 20
202.5124464316733
 30
0.0
  0
INSERT
  5
61
330
1F
100
AcDbEntity
  8
1
100
AcDbBlockReference
  2
A10-0A-13
 10
650.3956487421418
 20
260.2636972139014
 30
0.0
  0
LINE
  5
210
330
1F
100
AcDbEntity
  8
0
  6
DASH_CENTER
 62
     2
100
AcDbLine
 10
143.9423414326839
 20
447.9315102715602
 30
0.0
 11
143.942341432684
 21
195.3207247123175
 31
0.0
  0
LINE
  5
211
330
1F
100
AcDbEntity
  8
1
  6
DASH_CENTER
 62
     2
100
AcDbLine
 10
472.9586963979787
 20
240.7664905876699
 30
0.0
 11
472.9586963979787
 21
300.2635985378144
 31
0.0
  0
LINE
  5
212
330
1F
100
AcDbEntity
  8
1
  6
DASH_CENTER
 62
     2
100
AcDbLine
 10
437.9586963979787
 20
224.7624464316734
 30
0.0
 11
437.9586963979787
 21
260.2624464316733
 31
0.0
  0
LINE
  5
213
330
1F
100
AcDbEntity
  8
1
  6
Continuous
 62
     2
100
AcDbLine
 10
517.9586963979787
 20
234.7636972139014
 30
0.0
 11
517.9586963979787
 21
234.2636972139014
 31
0.0
  0
LINE
  5
214
330
1F
100
AcDbEntity
  8
1
  6
DASH_CENTER
 62
     2
100
AcDbLine
 10
427.9586963979787
 20
257.2636972139014
 30
0.0
 11
534.9965029297317
 21
257.2636972139014
 31
0.0
  0
LINE
  5
215
330
1F
100
AcDbEntity
  8
1
  6
DASH_CENTER
 62
     2
100
AcDbLine
 10
114.4686300652522
 20
712.7803524059054
 30
0.0
 11
159.6136458354745
 21
686.7158653983977
 31
0.0
  0
LINE
  5
216
330
1F
100
AcDbEntity
  8
1
  6
DASH_CENTER
 62
     2
100
AcDbLine
 10
130.1962449214427
 20
687.8273846928297
 30
0.0
 11
173.4078427459457
 21
712.7756123289205
 31
0.0
  0
LINE
  5
217
330
1F
100
AcDbEntity
  8
1
  6
DASH_CENTER
 62
     2
100
AcDbLine
 10
159.9423414326839
 20
660.7636972139013
 30
0.0
 11
127.942341432684
 21
660.7636972139013
 31
0.0
  0
LINE
  5
218
330
1F
100
AcDbEntity
  8
1
  6
DASH_CENTER
 62
     2
100
AcDbLine
 10
122.7657871786428
 20
695.7636972139013
 30
0.0
 11
165.3562959143318
 21
695.7636972139013
 31
0.0
  0
LINE
  5
219
330
1F
100
AcDbEntity
  8
1
  6
DASH_CENTER
 62
     2
100
AcDbLine
 10
422.9586963979787
 20
209.7624464316734
 30
0.0
 11
409.022012649444
 21
209.7624464316734
 31
0.0
  0
LINE
  5
21A
330
1F
100
AcDbEntity
  8
0
  6
DASH_CENTER
 62
     2
100
AcDbLine
 10
381.9620595852715
 20
236.7626161502672
 30
0.0
 11
381.9620595852715
 21
382.2624464316733
 31
0.0
  0
LINE
  5
21B
330
1F
100
AcDbEntity
  8
1
  6
DASH_CENTER
 62
     2
100
AcDbLine
 10
277.4711147536721
 20
389.5375760777342
 30
0.0
 11
276.8689880869879
 21
383.3728073759484
 31
0.0
  0
LINE
  5
21C
330
1F
100
AcDbEntity
  8
1
  6
DASH_CENTER
 62
     2
100
AcDbLine
 10
143.942341432684
 20
486.7110212168019
 30
0.0
 11
143.942341432684
 21
758.5328089346006
 31
0.0
  0
LINE
  5
21D
330
1F
100
AcDbEntity
  8
1
  6
DASH_CENTER
 62
     2
100
AcDbLine
 10
132.5681192388217
 20
604.7670604011944
 30
0.0
 11
154.9202926449049
 21
604.7670604011944
 31
0.0
  0
LINE
  5
21E
330
1F
100
AcDbEntity
  8
1
  6
DASH_CENTER
 62
     2
100
AcDbLine
 10
154.9202926449049
 20
499.7670604011943
 30
0.0
 11
132.5681192388217
 21
499.7670604011943
 31
0.0
  0
LINE
  5
21F
330
1F
100
AcDbEntity
  8
1
  6
DASH_CENTER
 62
     2
100
AcDbLine
 10
129.9643902204631
 20
209.7624464316734
 30
0.0
 11
158.3165636265463
 21
209.7624464316734
 31
0.0
  0
LINE
  5
220
330
1F
100
AcDbEntity
  8
1
  6
DASH_CENTER
 62
     2
100
AcDbLine
 10
132.5681192388217
 20
384.9301558971395
 30
0.0
 11
154.9202926449048
 21
384.9301558971395
 31
0.0
  0
LINE
  5
221
330
1F
100
AcDbEntity
  8
1
  6
DASH_CENTER
 62
     2
100
AcDbLine
 10
132.5681192388217
 20
434.762016073858
 30
0.0
 11
154.9202926449048
 21
434.762016073858
 31
0.0
  0
LINE
  5
222
330
1F
100
AcDbEntity
  8
0
  6
DASH_CENTER
 62
     2
100
AcDbLine
 10
117.942341432684
 20
257.2636972139014
 30
0.0
 11
169.942341432684
 21
257.2636972139014
 31
0.0
  0
ARC
  5
223
330
1F
100
AcDbEntity
  8
0
  6
DASH_CENTER
 62
     2
100
AcDbCircle
 10
408.9622953433074
 20
236.7626161502672
 30
0.0
 40
27.0002357580359
100
AcDbArc
 50
180.0
 51
-89.87327694373661
  0
ARC
  5
224
330
1F
100
AcDbEntity
  8
0
  6
DASH_CENTER
 62
     2
100
AcDbCircle
 10
329.4620595852715
 20
382.2624464316733
 30
0.0
 40
52.5
100
AcDbArc
 50
0.0
 51
89.76800793945269
  0
ARC
  5
225
330
1F
100
AcDbEntity
  8
0
  6
DASH_CENTER
 62
     2
100
AcDbCircle
 10
329.4620595852715
 20
382.2624464316733
 30
0.0
 40
52.5
100
AcDbArc
 50
89.76800793945269
 51
172.2434824573793
  0
ARC
  5
226
330
1F
100
AcDbEntity
  8
1
  6
DASH_CENTER
 62
     2
100
AcDbCircle
 10
422.9586963979787
 20
224.7624464316734
 30
0.0
 40
15.0
100
AcDbArc
 50
-90.0
 51
0.0
  0
SOLID
  5
227
330
1F
100
AcDbEntity
  8
1
 62
     2
100
AcDbTrace
 10
158.4951901551694
 20
757.0481395659718
 30
0.0
 11
160.8894927101988
 21
755.6657883413042
 31
0.0
 12
154.442341432684
 22
747.2636972139014
 32
0.0
 13
154.442341432684
 23
747.2636972139014
 33
0.0
  0
LEADER
  5
228
330
1F
100
AcDbEntity
  8
1
  6
Continuous
 62
     2
100
AcDbLeader
  3
Standard
 71
     0
 76
     3
 10
154.442341432684
 20
747.2636972139014
 30
0.0
 10
176.4649185619966
 20
785.407919715475
 30
0.0
 10
220.655648684105
 20
785.407919715475
 30
0.0
  0
MTEXT
  5
22A
330
1F
100
AcDbEntity
  8
1
 62
     7
100
AcDbMText
 10
281.25
 20
51.0
 30
0.0
 40
10.5
 41
0.0
 71
     5
 72
     1
  1
3
  7
CONVERTER_2
 73
     1
 44
0.7202881152461
  0
MTEXT
  5
22B
330
1F
100
AcDbEntity
  8
1
 62
     7
100
AcDbMText
 10
255.75
 20
51.0
 30
0.0
 40
10.5
 41
0.0
 71
     5
 72
     1
  1
1
  7
CONVERTER_2
 73
     1
 44
0.7202881152461
  0
MTEXT
  5
22C
330
1F
100
AcDbEntity
  8
0
 62
     7
100
AcDbMText
 10
102.0
 20
102.0
 30
0.0
 40
10.5
 41
0.0
 71
     4
 72
     1
  1
JIS
  7
CONVERTER_2
 73
     1
 44
1.32052821128451
  0
MTEXT
  5
22D
330
1F
100
AcDbEntity
  8
0
 62
     7
100
AcDbMText
 10
171.0
 20
42.75
 30
0.0
 40
10.5
 41
0.0
 71
     5
 72
     1
  1
A16J-13
  7
CONVERTER_2
 73
     1
 44
1.32052821128451
  0
MTEXT
  5
22E
330
1F
100
AcDbEntity
  8
0
 62
     7
100
AcDbMText
 10
171.0
 20
68.25
 30
0.0
 40
10.5
 41
0.0
 71
     5
 72
     1
  1
ツル首自在水栓
  7
CONVERTER_1
 73
     1
 44
1.32052821128451
  0
MTEXT
  5
22F
330
1F
100
AcDbEntity
  8
1
 62
     7
100
AcDbMText
 10
198.5602836230508
 20
794.407919715475
 30
0.0
 40
10.5
 41
0.0
 71
     5
 72
     1
  1
PJ1/2
  7
CONVERTER_2
 73
     1
 44
1.32052821128451
  0
DIMENSION
  5
23D
330
1F
100
AcDbEntity
  8
1
100
AcDbDimension
  2
*D012
 10
517.9586963979787
 20
169.9624464316734
 30
0.0
 11
543.8283308177129
 21
178.2124464316734
 31
0.0
  1
<>
 71
     5
 42
0.0
 53
0.00013888888889
  3
ME10_DIM_0
100
AcDbAlignedDimension
 13
531.9586963979787
 23
247.7636972139014
 33
0.0
 14
517.9586963979787
 24
234.2636972139014
 34
0.0
100
AcDbRotatedDimension
  0
DIMENSION
  5
24A
330
1F
100
AcDbEntity
  8
1
100
AcDbDimension
  2
*D114
 10
585.9586963979787
 20
257.2636972139014
 30
0.0
 11
577.7086963979787
 21
285.7379167907142
 31
0.0
  1
58リフト5
 71
     5
 42
0.0
 53
90.0
  3
ME10_DIM_1
100
AcDbAlignedDimension
 13
472.9586963979787
 23
314.7636972139014
 33
0.0
 14
534.9965029297317
 24
257.2636972139014
 34
0.0
 50
90.0
100
AcDbRotatedDimension
  0
DIMENSION
  5
255
330
1F
100
AcDbEntity
  8
1
100
AcDbDimension
  2
*D215
 10
561.9586963979787
 20
234.2636972139014
 30
0.0
 11
553.7086963979787
 21
257.2636972139014
 31
0.0
  1
<>
 71
     5
 42
0.0
 53
90.0
  3
ME10_DIM_2
100
AcDbAlignedDimension
 13
517.9586963979787
 23
280.2636972139014
 33
0.0
 14
517.9586963979787
 24
234.2636972139014
 34
0.0
 50
90.0
100
AcDbRotatedDimension
  0
DIMENSION
  5
260
330
1F
100
AcDbEntity
  8
1
100
AcDbDimension
  2
*D316
 10
277.0210977798721
 20
169.9624464316734
 30
0.0
 11
329.4915786825717
 21
178.2124464316734
 31
0.0
  1
105
 71
     5
 42
0.0
 53
0.00013888888889
  3
ME10_DIM_3
100
AcDbAlignedDimension
 13
381.9620595852715
 23
236.7626161502672
 33
0.0
 14
277.021097779872
 24
384.9301558971395
 34
0.0
100
AcDbRotatedDimension
  0
DIMENSION
  5
26B
330
1F
100
AcDbEntity
  8
1
100
AcDbDimension
  2
*D417
 10
381.9620595852715
 20
169.9624464316734
 30
0.0
 11
409.9603779916251
 21
178.2124464316734
 31
0.0
  1
<>
 71
     5
 42
0.0
 53
0.00013888888889
  3
ME10_DIM_4
100
AcDbAlignedDimension
 13
437.9586963979787
 23
224.7624464316734
 33
0.0
 14
381.9620595852715
 24
236.7626161502672
 34
0.0
100
AcDbRotatedDimension
  0
DIMENSION
  5
276
330
1F
100
AcDbEntity
  8
1
100
AcDbDimension
  2
*D518
 10
437.9586963979786
 20
169.9624464316734
 30
0.0
 11
477.9586963979786
 21
178.2124464316734
 31
0.0
  1
<>
 71
     5
 42
0.0
 53
0.00013888888889
  3
ME10_DIM_5
100
AcDbAlignedDimension
 13
517.9586963979787
 23
234.2636972139014
 33
0.0
 14
437.9586963979787
 24
224.7624464316734
 34
0.0
100
AcDbRotatedDimension
  0
DIMENSION
  5
281
330
1F
100
AcDbEntity
  8
1
100
AcDbDimension
  2
*D619
 10
238.6115543062472
 20
257.2636972139014
 30
0.0
 11
230.3615543062472
 21
321.0969265555204
 31
0.0
  1
128
 71
     5
 42
0.0
 53
90.0
  3
ME10_DIM_6
100
AcDbAlignedDimension
 13
277.021097779872
 23
384.9301558971395
 33
0.0
 14
427.9586963979787
 24
257.2636972139014
 34
0.0
 50
90.0
100
AcDbRotatedDimension
  0
DIMENSION
  5
28C
330
1F
100
AcDbEntity
  8
1
100
AcDbDimension
  2
*D720
 10
214.6115543062472
 20
257.2636972139014
 30
0.0
 11
206.3615543062472
 21
346.0128566438797
 31
0.0
  1
178
 71
     5
 42
0.0
 53
90.0
  3
ME10_DIM_7
100
AcDbAlignedDimension
 13
329.6746328324174
 23
434.762016073858
 33
0.0
 14
427.9586963979787
 24
257.2636972139014
 34
0.0
 50
90.0
100
AcDbRotatedDimension
  0
DIMENSION
  5
298
330
1F
100
AcDbEntity
  8
1
100
AcDbDimension
  2
*D821
 10
585.9586963979787
 20
209.7624464316735
 30
0.0
 11
577.7086963979787
 21
232.9363274089102
 31
0.0
  1
48
 71
     5
 42
0.0
 53
90.0
  3
ME10_DIM_8
100
AcDbAlignedDimension
 13
534.9965029297317
 23
257.2636972139014
 33
0.0
 14
422.9586963979787
 24
209.7624464316734
 34
0.0
 50
90.0
100
AcDbRotatedDimension
  0
ENDSEC
  0
SECTION
  2
OBJECTS
  0
DICTIONARY
  5
C
330
0
100
AcDbDictionary
281
     1
  3
ACAD_GROUP
350
D
  3
ACAD_LAYOUT
350
1A
  3
ACAD_MLINESTYLE
350
17
  3
ACAD_PLOTSETTINGS
350
19
  3
ACAD_PLOTSTYLENAME
350
E
  3
ACAD_TABLESTYLE
350
2A
  3
AcDbVariableDictionary
350
2C
  0
DICTIONARY
  5
D
102
{ACAD_REACTORS
330
C
102
}
330
C
100
AcDbDictionary
281
     1
  0
DICTIONARY
  5
1A
102
{ACAD_REACTORS
330
C
102
}
330
C
100
AcDbDictionary
281
     1
  3
Layout1
350
1E
  3
Layout2
350
26
  3
Model
350
22
  0
DICTIONARY
  5
17
102
{ACAD_REACTORS
330
C
102
}
330
C
100
AcDbDictionary
281
     1
  3
Standard
350
18
  0
DICTIONARY
  5
19
102
{ACAD_REACTORS
330
C
102
}
330
C
100
AcDbDictionary
281
     1
  0
ACDBDICTIONARYWDFLT
  5
E
102
{ACAD_REACTORS
330
C
102
}
330
C
100
AcDbDictionary
281
     1
  3
Normal
350
F
100
AcDbDictionaryWithDefault
340
F
  0
DICTIONARY
  5
2A
102
{ACAD_REACTORS
330
C
102
}
330
C
100
AcDbDictionary
281
     1
  3
Standard
350
2B
  0
DICTIONARY
  5
2C
102
{ACAD_REACTORS
330
C
102
}
330
C
100
AcDbDictionary
281
     1
  3
CTABLESTYLE
350
2D
  0
LAYOUT
  5
1E
102
{ACAD_REACTORS
330
1A
102
}
330
1A
100
AcDbPlotSettings
  1

  2

  4

  6

 40
0.0
 41
0.0
 42
0.0
 43
0.0
 44
0.0
 45
0.0
 46
0.0
 47
0.0
 48
0.0
 49
0.0
140
0.0
141
0.0
142
1.0
143
1.0
 70
   688
 72
     0
 73
     0
 74
     5
  7

 75
    16
147
1.0
148
0.0
149
0.0
100
AcDbLayout
  1
Layout1
 70
     1
 71
     1
 10
0.0
 20
0.0
 11
12.0
 21
9.0
 12
0.0
 22
0.0
 32
0.0
 14
1.00000000000000E+20
 24
1.00000000000000E+20
 34
1.00000000000000E+20
 15
-1.00000000000000E+20
 25
-1.00000000000000E+20
 35
-1.00000000000000E+20
146
0.0
 13
0.0
 23
0.0
 33
0.0
 16
1.0
 26
0.0
 36
0.0
 17
0.0
 27
1.0
 37
0.0
 76
     0
330
1B
  0
LAYOUT
  5
26
102
{ACAD_REACTORS
330
1A
102
}
330
1A
100
AcDbPlotSettings
  1

  2

  4

  6

 40
0.0
 41
0.0
 42
0.0
 43
0.0
 44
0.0
 45
0.0
 46
0.0
 47
0.0
 48
0.0
 49
0.0
140
0.0
141
0.0
142
1.0
143
1.0
 70
   688
 72
     0
 73
     0
 74
     5
  7

 75
    16
147
1.0
148
0.0
149
0.0
100
AcDbLayout
  1
Layout2
 70
     1
 71
     2
 10
0.0
 20
0.0
 11
0.0
 21
0.0
 12
0.0
 22
0.0
 32
0.0
 14
0.0
 24
0.0
 34
0.0
 15
0.0
 25
0.0
 35
0.0
146
0.0
 13
0.0
 23
0.0
 33
0.0
 16
1.0
 26
0.0
 36
0.0
 17
0.0
 27
1.0
 37
0.0
 76
     0
330
23
  0
LAYOUT
  5
22
102
{ACAD_REACTORS
330
1A
102
}
330
1A
100
AcDbPlotSettings
  1

  2

  4

  6

 40
0.0
 41
0.0
 42
0.0
 43
0.0
 44
0.0
 45
0.0
 46
0.0
 47
0.0
 48
0.0
 49
0.0
140
0.0
141
0.0
142
1.0
143
1.0
 70
  1712
 72
     0
 73
     0
 74
     0
  7

 75
     0
147
1.0
148
0.0
149
0.0
100
AcDbLayout
  1
Model
 70
     1
 71
     0
 10
0.0
 20
0.0
 11
0.0
 21
0.0
 12
0.0
 22
0.0
 32
0.0
 14
0.0
 24
0.0
 34
0.0
 15
630.0
 25
891.0
 35
0.0
146
0.0
 13
0.0
 23
0.0
 33
0.0
 16
1.0
 26
0.0
 36
0.0
 17
0.0
 27
1.0
 37
0.0
 76
     0
330
1F
  0
MLINESTYLE
  5
18
102
{ACAD_REACTORS
330
17
102
}
330
17
100
AcDbMlineStyle
  2
Standard
 70
     0
  3

 62
   256
 51
90.0
 52
90.0
 71
     2
 49
0.5
 62
   256
  6
BYLAYER
 49
-0.5
 62
   256
  6
BYLAYER
  0
ACDBPLACEHOLDER
  5
F
102
{ACAD_REACTORS
330
E
102
}
330
E
  0
TABLESTYLE
  5
2B
102
{ACAD_REACTORS
330
2A
102
}
330
2A
100
AcDbTableStyle
  3
Standard
 70
     0
 71
     0
 40
0.06
 41
0.06
280
     0
281
     0
  7
Standard
140
0.18
170
     2
 62
     0
 63
     7
283
     0
274
    -2
284
     1
 64
     0
275
    -2
285
     1
 65
     0
276
    -2
286
     1
 66
     0
277
    -2
287
     1
 67
     0
278
    -2
288
     1
 68
     0
279
    -2
289
     1
 69
     0
  7
Standard
140
0.25
170
     5
 62
     0
 63
     7
283
     0
274
    -2
284
     1
 64
     0
275
    -2
285
     1
 65
     0
276
    -2
286
     1
 66
     0
277
    -2
287
     1
 67
     0
278
    -2
288
     1
 68
     0
279
    -2
289
     1
 69
     0
  7
Standard
140
0.18
170
     5
 62
     0
 63
     7
283
     0
274
    -2
284
     1
 64
     0
275
    -2
285
     1
 65
     0
276
    -2
286
     1
 66
     0
277
    -2
287
     1
 67
     0
278
    -2
288
     1
 68
     0
279
    -2
289
     1
 69
     0
  0
DICTIONARYVAR
  5
2D
102
{ACAD_REACTORS
330
2C
102
}
330
2C
100
DictionaryVariables
280
     0
  1
Standard
  0
ENDSEC
  0
EOF
