  0
SECTION
  2
HEADER
  9
$ACADVER
  1
AC1015
  9
$ACADMAINTVER
 70
     6
  9
$DWGCODEPAGE
  3
DOS932
  9
$INSBASE
 10
0.0
 20
0.0
 30
0.0
  9
$EXTMIN
 10
0.0
 20
0.0
 30
0.0
  9
$EXTMAX
 10
525.0
 20
742.5
 30
0.0
  9
$LIMMIN
 10
0.0
 20
0.0
  9
$LIMMAX
 10
12.0
 20
9.0
  9
$ORTHOMODE
 70
     0
  9
$REGENMODE
 70
     1
  9
$FILLMODE
 70
     1
  9
$QTEXTMODE
 70
     0
  9
$MIRRTEXT
 70
     1
  9
$LTSCALE
 40
1.0
  9
$ATTMODE
 70
     1
  9
$TEXTSIZE
 40
0.2
  9
$TRACEWID
 40
0.05
  9
$TEXTSTYLE
  7
Standard
  9
$CLAYER
  8
0
  9
$CELTYPE
  6
ByLayer
  9
$CECOLOR
 62
   256
  9
$CELTSCALE
 40
1.0
  9
$DISPSILH
 70
     0
  9
$DIMSCALE
 40
1.0
  9
$DIMASZ
 40
0.18
  9
$DIMEXO
 40
0.0625
  9
$DIMDLI
 40
0.38
  9
$DIMRND
 40
0.0
  9
$DIMDLE
 40
0.0
  9
$DIMEXE
 40
0.18
  9
$DIMTP
 40
0.0
  9
$DIMTM
 40
0.0
  9
$DIMTXT
 40
0.18
  9
$DIMCEN
 40
0.09
  9
$DIMTSZ
 40
0.0
  9
$DIMTOL
 70
     0
  9
$DIMLIM
 70
     0
  9
$DIMTIH
 70
     1
  9
$DIMTOH
 70
     1
  9
$DIMSE1
 70
     0
  9
$DIMSE2
 70
     0
  9
$DIMTAD
 70
     0
  9
$DIMZIN
 70
     0
  9
$DIMBLK
  1

  9
$DIMASO
 70
     1
  9
$DIMSHO
 70
     1
  9
$DIMPOST
  1

  9
$DIMAPOST
  1

  9
$DIMALT
 70
     0
  9
$DIMALTD
 70
     2
  9
$DIMALTF
 40
25.4
  9
$DIMLFAC
 40
1.0
  9
$DIMTOFL
 70
     0
  9
$DIMTVP
 40
0.0
  9
$DIMTIX
 70
     0
  9
$DIMSOXD
 70
     0
  9
$DIMSAH
 70
     0
  9
$DIMBLK1
  1

  9
$DIMBLK2
  1

  9
$DIMSTYLE
  2
Standard
  9
$DIMCLRD
 70
     0
  9
$DIMCLRE
 70
     0
  9
$DIMCLRT
 70
     0
  9
$DIMTFAC
 40
1.0
  9
$DIMGAP
 40
0.09
  9
$DIMJUST
 70
     0
  9
$DIMSD1
 70
     0
  9
$DIMSD2
 70
     0
  9
$DIMTOLJ
 70
     1
  9
$DIMTZIN
 70
     0
  9
$DIMALTZ
 70
     0
  9
$DIMALTTZ
 70
     0
  9
$DIMUPT
 70
     0
  9
$DIMDEC
 70
     4
  9
$DIMTDEC
 70
     4
  9
$DIMALTU
 70
     2
  9
$DIMALTTD
 70
     2
  9
$DIMTXSTY
  7
Standard
  9
$DIMAUNIT
 70
     0
  9
$DIMADEC
 70
     0
  9
$DIMALTRND
 40
0.0
  9
$DIMAZIN
 70
     0
  9
$DIMDSEP
 70
    46
  9
$DIMATFIT
 70
     3
  9
$DIMFRAC
 70
     0
  9
$DIMLDRBLK
  1

  9
$DIMLUNIT
 70
     2
  9
$DIMLWD
 70
    -2
  9
$DIMLWE
 70
    -2
  9
$DIMTMOVE
 70
     0
  9
$LUNITS
 70
     2
  9
$LUPREC
 70
     4
  9
$SKETCHINC
 40
0.1
  9
$FILLETRAD
 40
0.5
  9
$AUNITS
 70
     0
  9
$AUPREC
 70
     0
  9
$MENU
  1
.
  9
$ELEVATION
 40
0.0
  9
$PELEVATION
 40
0.0
  9
$THICKNESS
 40
0.0
  9
$LIMCHECK
 70
     0
  9
$CHAMFERA
 40
0.5
  9
$CHAMFERB
 40
0.5
  9
$CHAMFERC
 40
1.0
  9
$CHAMFERD
 40
0.0
  9
$SKPOLY
 70
     0
  9
$TDCREATE
 40
2456184.609342627
  9
$TDUCREATE
 40
2456184.234342627
  9
$TDUPDATE
 40
2456184.609342639
  9
$TDUUPDATE
 40
2456184.234342639
  9
$TDINDWG
 40
0.0000000116
  9
$TDUSRTIMER
 40
0.0000000116
  9
$USRTIMER
 70
     1
  9
$ANGBASE
 50
0.0
  9
$ANGDIR
 70
     0
  9
$PDMODE
 70
     0
  9
$PDSIZE
 40
0.0
  9
$PLINEWID
 40
0.0
  9
$SPLFRAME
 70
     0
  9
$SPLINETYPE
 70
     6
  9
$SPLINESEGS
 70
     8
  9
$HANDSEED
  5
35A
  9
$SURFTAB1
 70
     6
  9
$SURFTAB2
 70
     6
  9
$SURFTYPE
 70
     6
  9
$SURFU
 70
     6
  9
$SURFV
 70
     6
  9
$UCSBASE
  2

  9
$UCSNAME
  2

  9
$UCSORG
 10
0.0
 20
0.0
 30
0.0
  9
$UCSXDIR
 10
1.0
 20
0.0
 30
0.0
  9
$UCSYDIR
 10
0.0
 20
1.0
 30
0.0
  9
$UCSORTHOREF
  2

  9
$UCSORTHOVIEW
 70
     0
  9
$UCSORGTOP
 10
0.0
 20
0.0
 30
0.0
  9
$UCSORGBOTTOM
 10
0.0
 20
0.0
 30
0.0
  9
$UCSORGLEFT
 10
0.0
 20
0.0
 30
0.0
  9
$UCSORGRIGHT
 10
0.0
 20
0.0
 30
0.0
  9
$UCSORGFRONT
 10
0.0
 20
0.0
 30
0.0
  9
$UCSORGBACK
 10
0.0
 20
0.0
 30
0.0
  9
$PUCSBASE
  2

  9
$PUCSNAME
  2

  9
$PUCSORG
 10
0.0
 20
0.0
 30
0.0
  9
$PUCSXDIR
 10
1.0
 20
0.0
 30
0.0
  9
$PUCSYDIR
 10
0.0
 20
1.0
 30
0.0
  9
$PUCSORTHOREF
  2

  9
$PUCSORTHOVIEW
 70
     0
  9
$PUCSORGTOP
 10
0.0
 20
0.0
 30
0.0
  9
$PUCSORGBOTTOM
 10
0.0
 20
0.0
 30
0.0
  9
$PUCSORGLEFT
 10
0.0
 20
0.0
 30
0.0
  9
$PUCSORGRIGHT
 10
0.0
 20
0.0
 30
0.0
  9
$PUCSORGFRONT
 10
0.0
 20
0.0
 30
0.0
  9
$PUCSORGBACK
 10
0.0
 20
0.0
 30
0.0
  9
$USERI1
 70
     0
  9
$USERI2
 70
     0
  9
$USERI3
 70
     0
  9
$USERI4
 70
     0
  9
$USERI5
 70
     0
  9
$USERR1
 40
13.2
  9
$USERR2
 40
0.0
  9
$USERR3
 40
0.0
  9
$USERR4
 40
0.0
  9
$USERR5
 40
0.0
  9
$WORLDVIEW
 70
     1
  9
$SHADEDGE
 70
     3
  9
$SHADEDIF
 70
    70
  9
$TILEMODE
 70
     1
  9
$MAXACTVP
 70
    64
  9
$PINSBASE
 10
0.0
 20
0.0
 30
0.0
  9
$PLIMCHECK
 70
     0
  9
$PEXTMIN
 10
1.00000000000000E+20
 20
1.00000000000000E+20
 30
1.00000000000000E+20
  9
$PEXTMAX
 10
-1.00000000000000E+20
 20
-1.00000000000000E+20
 30
-1.00000000000000E+20
  9
$PLIMMIN
 10
0.0
 20
0.0
  9
$PLIMMAX
 10
12.0
 20
9.0
  9
$UNITMODE
 70
     0
  9
$VISRETAIN
 70
     1
  9
$PLINEGEN
 70
     0
  9
$PSLTSCALE
 70
     1
  9
$TREEDEPTH
 70
  3020
  9
$CMLSTYLE
  2
Standard
  9
$CMLJUST
 70
     0
  9
$CMLSCALE
 40
1.0
  9
$PROXYGRAPHICS
 70
     1
  9
$MEASUREMENT
 70
     1
  9
$CELWEIGHT
370
    -1
  9
$ENDCAPS
280
     0
  9
$JOINSTYLE
280
     0
  9
$LWDISPLAY
290
     0
  9
$INSUNITS
 70
     1
  9
$HYPERLINKBASE
  1

  9
$STYLESHEET
  1

  9
$XEDIT
290
     1
  9
$CEPSNTYPE
380
     0
  9
$PSTYLEMODE
290
     0
  9
$FINGERPRINTGUID
  2
{FAEB1C30-E019-11D5-929B-00C0DF256EC4}
  9
$VERSIONGUID
  2
{FAEB1C32-E019-11D5-929B-00C0DF256EC4}
  9
$EXTNAMES
290
     1
  9
$PSVPSCALE
 40
0.0
  9
$OLESTARTUP
290
     0
  0
ENDSEC
  0
SECTION
  2
CLASSES
  0
CLASS
  1
ACDBDICTIONARYWDFLT
  2
AcDbDictionaryWithDefault
  3
ObjectDBX Classes
 90
        0
280
     0
281
     0
  0
CLASS
  1
TABLESTYLE
  2
AcDbTableStyle
  3
ObjectDBX Classes
 90
     2047
280
     0
281
     0
  0
CLASS
  1
DICTIONARYVAR
  2
AcDbDictionaryVar
  3
ObjectDBX Classes
 90
        0
280
     0
281
     0
  0
CLASS
  1

  2
exOdDbCircle
  3

 90
        0
280
     0
281
     1
  0
CLASS
  1

  2
exOdDbSpline
  3

 90
        0
280
     0
281
     1
  0
CLASS
  1
ACDBPLACEHOLDER
  2
AcDbPlaceHolder
  3
ObjectDBX Classes
 90
        0
280
     0
281
     0
  0
CLASS
  1
LAYOUT
  2
AcDbLayout
  3
ObjectDBX Classes
 90
        0
280
     0
281
     0
  0
ENDSEC
  0
SECTION
  2
TABLES
  0
TABLE
  2
VPORT
  5
8
330
0
100
AcDbSymbolTable
 70
     2
  0
VPORT
  5
29
330
8
100
AcDbSymbolTableRecord
100
AcDbViewportTableRecord
  2
*Active
 70
     0
 10
0.0
 20
0.0
 11
1.0
 21
1.0
 12
262.5
 22
371.25
 13
0.0
 23
0.0
 14
0.5
 24
0.5
 15
0.5
 25
0.5
 16
0.0
 26
0.0
 36
1.0
 17
0.0
 27
0.0
 37
0.0
 40
816.7500000000001
 41
1.60267857142857
 42
50.0
 43
0.0
 44
0.0
 50
0.0
 51
0.0
 71
     0
 72
   100
 73
     1
 74
     3
 75
     0
 76
     0
 77
     0
 78
     0
281
     0
 65
     1
110
0.0
120
0.0
130
0.0
111
1.0
121
0.0
131
0.0
112
0.0
122
1.0
132
0.0
 79
     0
146
0.0
  0
ENDTAB
  0
TABLE
  2
LTYPE
  5
5
330
0
100
AcDbSymbolTable
 70
     8
  0
LTYPE
  5
14
330
5
100
AcDbSymbolTableRecord
100
AcDbLinetypeTableRecord
  2
ByBlock
 70
     0
  3

 72
    65
 73
     0
 40
0.0
  0
LTYPE
  5
15
330
5
100
AcDbSymbolTableRecord
100
AcDbLinetypeTableRecord
  2
ByLayer
 70
     0
  3

 72
    65
 73
     0
 40
0.0
  0
LTYPE
  5
16
330
5
100
AcDbSymbolTableRecord
100
AcDbLinetypeTableRecord
  2
Continuous
 70
     0
  3
Solid line
 72
    65
 73
     0
 40
0.0
  0
LTYPE
  5
2E
330
5
100
AcDbSymbolTableRecord
100
AcDbLinetypeTableRecord
  2
DASHED
 70
     0
  3
Dashed
 72
    65
 73
     2
 40
15.0
 49
7.0
 74
     0
 49
-8.0
 74
     0
  0
LTYPE
  5
2F
330
5
100
AcDbSymbolTableRecord
100
AcDbLinetypeTableRecord
  2
DOTTED
 70
     0
  3
Dotted
 72
    65
 73
     2
 40
1.0
 49
0.0
 74
     0
 49
-1.0
 74
     0
  0
LTYPE
  5
30
330
5
100
AcDbSymbolTableRecord
100
AcDbLinetypeTableRecord
  2
DOT_CENTER
 70
     0
  3
Dot_Center
 72
    65
 73
     4
 40
14.0
 49
12.0
 74
     0
 49
-1.0
 74
     0
 49
0.0
 74
     0
 49
-1.0
 74
     0
  0
LTYPE
  5
31
330
5
100
AcDbSymbolTableRecord
100
AcDbLinetypeTableRecord
  2
LONG_DASHED
 70
     0
  3
Long_Dashed
 72
    65
 73
     2
 40
15.0
 49
10.0
 74
     0
 49
-5.0
 74
     0
  0
LTYPE
  5
32
330
5
100
AcDbSymbolTableRecord
100
AcDbLinetypeTableRecord
  2
DASH_CENTER
 70
     0
  3
Dash_Center
 72
    65
 73
     4
 40
14.0
 49
11.0
 74
     0
 49
-1.0
 74
     0
 49
1.0
 74
     0
 49
-1.0
 74
     0
  0
LTYPE
  5
33
330
5
100
AcDbSymbolTableRecord
100
AcDbLinetypeTableRecord
  2
PHANTOM
 70
     0
  3
Phantom
 72
    65
 73
     6
 40
13.0
 49
10.0
 74
     0
 49
-1.0
 74
     0
 49
0.0
 74
     0
 49
-1.0
 74
     0
 49
0.0
 74
     0
 49
-1.0
 74
     0
  0
LTYPE
  5
34
330
5
100
AcDbSymbolTableRecord
100
AcDbLinetypeTableRecord
  2
CENTER_DASH_DASH
 70
     0
  3
Center_Dash_Dash
 72
    65
 73
     6
 40
14.0
 49
9.0
 74
     0
 49
-1.0
 74
     0
 49
1.0
 74
     0
 49
-1.0
 74
     0
 49
1.0
 74
     0
 49
-1.0
 74
     0
  0
ENDTAB
  0
TABLE
  2
LAYER
  5
2
330
0
100
AcDbSymbolTable
 70
     2
  0
LAYER
  5
10
330
2
100
AcDbSymbolTableRecord
100
AcDbLayerTableRecord
  2
0
 70
     0
 62
     7
  6
Continuous
370
    -3
390
F
  0
LAYER
  5
35
330
2
100
AcDbSymbolTableRecord
100
AcDbLayerTableRecord
  2
1
 70
     0
 62
     7
  6
Continuous
370
    -3
390
F
  0
ENDTAB
  0
TABLE
  2
STYLE
  5
3
330
0
100
AcDbSymbolTable
 70
     3
  0
STYLE
  5
11
330
3
100
AcDbSymbolTableRecord
100
AcDbTextStyleTableRecord
  2
Standard
 70
     0
 40
0.0
 41
1.0
 50
0.0
 71
     0
 42
0.2
  3
txt
  4

  0
STYLE
  5
AD
330
3
100
AcDbSymbolTableRecord
100
AcDbTextStyleTableRecord
  2
CONVERTER_1
 70
     0
 40
0.0
 41
0.89
 50
0.0
 71
     0
 42
0.2
  3
msmincho.ttc
  4

1001
ACAD
1000
MS Mincho
1071
    32785
  0
STYLE
  5
2F5
330
3
100
AcDbSymbolTableRecord
100
AcDbTextStyleTableRecord
  2
CONVERTER_2
 70
     0
 40
0.0
 41
0.9
 50
0.0
 71
     0
 42
0.2
  3
txt.shx
  4

  0
ENDTAB
  0
TABLE
  2
VIEW
  5
6
330
0
100
AcDbSymbolTable
 70
     0
  0
ENDTAB
  0
TABLE
  2
UCS
  5
7
330
0
100
AcDbSymbolTable
 70
     0
  0
ENDTAB
  0
TABLE
  2
APPID
  5
9
330
0
100
AcDbSymbolTable
 70
     1
  0
APPID
  5
12
330
9
100
AcDbSymbolTableRecord
100
AcDbRegAppTableRecord
  2
ACAD
 70
     0
  0
ENDTAB
  0
TABLE
  2
DIMSTYLE
  5
A
330
0
100
AcDbSymbolTable
 70
     9
100
AcDbDimStyleTable
  0
DIMSTYLE
105
27
330
A
100
AcDbSymbolTableRecord
100
AcDbDimStyleTableRecord
  2
Standard
 70
     0
340
11
  0
DIMSTYLE
105
308
102
{ACAD_REACTORS
330
309
102
}
330
A
100
AcDbSymbolTableRecord
100
AcDbDimStyleTableRecord
  2
ME10_DIM_0
 70
     0
 41
8.75
 42
0.0
 44
2.5
 73
     0
 74
     0
 77
     1
 78
     8
140
8.75
147
0.625
172
     1
173
     1
176
     2
177
     2
178
     7
271
     2
340
2F5
  0
DIMSTYLE
105
316
102
{ACAD_REACTORS
330
317
102
}
330
A
100
AcDbSymbolTableRecord
100
AcDbDimStyleTableRecord
  2
ME10_DIM_1
 70
     0
 41
8.75
 42
0.0
 44
2.5
 73
     0
 74
     0
 77
     1
 78
     8
140
8.75
147
0.625
172
     1
173
     1
176
     2
177
     2
178
     7
271
     2
340
2F5
344
313
  0
DIMSTYLE
105
321
102
{ACAD_REACTORS
330
322
102
}
330
A
100
AcDbSymbolTableRecord
100
AcDbDimStyleTableRecord
  2
ME10_DIM_2
 70
     0
 41
8.75
 42
0.0
 44
2.5
 73
     0
 74
     0
 77
     1
 78
     8
140
8.75
147
0.625
172
     1
173
     1
176
     2
177
     2
178
     7
271
     2
340
2F5
  0
DIMSTYLE
105
32C
102
{ACAD_REACTORS
330
32D
102
}
330
A
100
AcDbSymbolTableRecord
100
AcDbDimStyleTableRecord
  2
ME10_DIM_3
 70
     0
 41
8.75
 42
0.0
 44
2.5
 73
     0
 74
     0
 77
     1
 78
     8
140
8.75
147
0.625
172
     1
173
     1
176
     2
177
     2
178
     7
271
     2
340
2F5
  0
DIMSTYLE
105
337
102
{ACAD_REACTORS
330
338
102
}
330
A
100
AcDbSymbolTableRecord
100
AcDbDimStyleTableRecord
  2
ME10_DIM_4
 70
     0
  3
{\Fgdt;n}<>
 41
8.75
 42
0.0
 44
2.5
 73
     0
 74
     0
 77
     1
 78
     8
140
8.75
147
0.625
172
     1
173
     1
176
     2
177
     2
178
     7
271
     2
340
2F5
  0
DIMSTYLE
105
342
102
{ACAD_REACTORS
330
343
102
}
330
A
100
AcDbSymbolTableRecord
100
AcDbDimStyleTableRecord
  2
ME10_DIM_5
 70
     0
 41
8.75
 42
0.0
 44
2.5
 73
     0
 74
     0
 77
     1
 78
     8
140
8.75
147
0.625
172
     1
173
     1
176
     2
177
     2
178
     7
271
     2
340
2F5
  0
DIMSTYLE
105
34D
102
{ACAD_REACTORS
330
34E
102
}
330
A
100
AcDbSymbolTableRecord
100
AcDbDimStyleTableRecord
  2
ME10_DIM_6
 70
     0
 41
8.75
 42
0.0
 44
2.5
 73
     0
 74
     0
 77
     1
 78
     8
140
8.75
147
0.625
172
     1
173
     1
176
     2
177
     2
178
     7
271
     2
340
2F5
  0
DIMSTYLE
105
358
102
{ACAD_REACTORS
330
359
102
}
330
A
100
AcDbSymbolTableRecord
100
AcDbDimStyleTableRecord
  2
ME10_DIM_7
 70
     0
 41
8.75
 42
0.0
 44
2.5
 73
     0
 74
     0
 77
     1
 78
     8
140
8.75
147
0.625
172
     1
173
     1
176
     2
177
     2
178
     7
271
     2
340
2F5
  0
ENDTAB
  0
TABLE
  2
BLOCK_RECORD
  5
1
330
0
100
AcDbSymbolTable
 70
    21
  0
BLOCK_RECORD
  5
1F
330
1
100
AcDbSymbolTableRecord
100
AcDbBlockTableRecord
  2
*Model_Space
340
22
  0
BLOCK_RECORD
  5
1B
330
1
100
AcDbSymbolTableRecord
100
AcDbBlockTableRecord
  2
*Paper_Space
340
1E
  0
BLOCK_RECORD
  5
23
330
1
100
AcDbSymbolTableRecord
100
AcDbBlockTableRecord
  2
*Paper_Space0
340
26
  0
BLOCK_RECORD
  5
36
330
1
100
AcDbSymbolTableRecord
100
AcDbBlockTableRecord
  2
_J__A4
340
0
102
{BLKREFS
331
57
102
}
  0
BLOCK_RECORD
  5
39
330
1
100
AcDbSymbolTableRecord
100
AcDbBlockTableRecord
  2
32-1-16__1
340
0
102
{BLKREFS
331
58
102
}
  0
BLOCK_RECORD
  5
3C
330
1
100
AcDbSymbolTableRecord
100
AcDbBlockTableRecord
  2
A201-0
340
0
102
{BLKREFS
331
59
102
}
  0
BLOCK_RECORD
  5
3F
330
1
100
AcDbSymbolTableRecord
100
AcDbBlockTableRecord
  2
84-34-M21
340
0
102
{BLKREFS
331
5A
102
}
  0
BLOCK_RECORD
  5
42
330
1
100
AcDbSymbolTableRecord
100
AcDbBlockTableRecord
  2
87-18
340
0
102
{BLKREFS
331
5B
102
}
  0
BLOCK_RECORD
  5
45
330
1
100
AcDbSymbolTableRecord
100
AcDbBlockTableRecord
  2
82-20-M21
340
0
102
{BLKREFS
331
5C
102
}
  0
BLOCK_RECORD
  5
48
330
1
100
AcDbSymbolTableRecord
100
AcDbBlockTableRecord
  2
84-26B
340
0
102
{BLKREFS
331
5D
102
}
  0
BLOCK_RECORD
  5
4B
330
1
100
AcDbSymbolTableRecord
100
AcDbBlockTableRecord
  2
32-1-16__2
340
0
102
{BLKREFS
331
5E
102
}
  0
BLOCK_RECORD
  5
4E
330
1
100
AcDbSymbolTableRecord
100
AcDbBlockTableRecord
  2
61-7-170
340
0
102
{BLKREFS
331
5F
102
}
  0
BLOCK_RECORD
  5
51
330
1
100
AcDbSymbolTableRecord
100
AcDbBlockTableRecord
  2
35-28
340
0
102
{BLKREFS
331
60
102
}
  0
BLOCK_RECORD
  5
54
330
1
100
AcDbSymbolTableRecord
100
AcDbBlockTableRecord
  2
31-17
340
0
102
{BLKREFS
331
61
102
}
  0
BLOCK_RECORD
  5
2FF
330
1
100
AcDbSymbolTableRecord
100
AcDbBlockTableRecord
  2
*D012
340
0
  0
BLOCK_RECORD
  5
30A
330
1
100
AcDbSymbolTableRecord
100
AcDbBlockTableRecord
  2
*D113
340
0
  0
BLOCK_RECORD
  5
313
330
1
100
AcDbSymbolTableRecord
100
AcDbBlockTableRecord
  2
_None
340
0
  0
BLOCK_RECORD
  5
318
330
1
100
AcDbSymbolTableRecord
100
AcDbBlockTableRecord
  2
*D215
340
0
  0
BLOCK_RECORD
  5
323
330
1
100
AcDbSymbolTableRecord
100
AcDbBlockTableRecord
  2
*D316
340
0
  0
BLOCK_RECORD
  5
32E
330
1
100
AcDbSymbolTableRecord
100
AcDbBlockTableRecord
  2
*D417
340
0
  0
BLOCK_RECORD
  5
339
330
1
100
AcDbSymbolTableRecord
100
AcDbBlockTableRecord
  2
*D518
340
0
  0
BLOCK_RECORD
  5
344
330
1
100
AcDbSymbolTableRecord
100
AcDbBlockTableRecord
  2
*D619
340
0
  0
BLOCK_RECORD
  5
34F
330
1
100
AcDbSymbolTableRecord
100
AcDbBlockTableRecord
  2
*D720
340
0
  0
ENDTAB
  0
ENDSEC
  0
SECTION
  2
BLOCKS
  0
BLOCK
  5
20
330
1F
100
AcDbEntity
  8
0
100
AcDbBlockBegin
  2
*Model_Space
 70
     0
 71
     0
 10
0.0
 20
0.0
 30
0.0
  3
*Model_Space
  1

  0
ENDBLK
  5
21
330
1F
100
AcDbEntity
  8
0
100
AcDbBlockEnd
  0
BLOCK
  5
1C
330
1B
100
AcDbEntity
 67
     1
  8
0
100
AcDbBlockBegin
  2
*Paper_Space
 70
     0
 71
     0
 10
0.0
 20
0.0
 30
0.0
  3
*Paper_Space
  1

  0
ENDBLK
  5
1D
330
1B
100
AcDbEntity
 67
     1
  8
0
100
AcDbBlockEnd
  0
BLOCK
  5
24
330
23
100
AcDbEntity
  8
0
100
AcDbBlockBegin
  2
*Paper_Space0
 70
     0
 71
     0
 10
0.0
 20
0.0
 30
0.0
  3
*Paper_Space0
  1

  0
ENDBLK
  5
25
330
23
100
AcDbEntity
  8
0
100
AcDbBlockEnd
  0
BLOCK
  5
37
330
36
100
AcDbEntity
  8
0
100
AcDbBlockBegin
  2
_J__A4
 70
     0
 71
     0
 10
0.0
 20
0.0
 30
0.0
  3
_J__A4
  1

  0
POINT
  5
62
330
36
100
AcDbEntity
  8
1
 62
     4
100
AcDbPoint
 10
34.0
 20
34.00000000000001
 30
0.0
  0
POINT
  5
63
330
36
100
AcDbEntity
  8
1
 62
     4
100
AcDbPoint
 10
57.0
 20
12.25
 30
0.0
  0
POINT
  5
64
330
36
100
AcDbEntity
  8
1
 62
     4
100
AcDbPoint
 10
57.0
 20
20.75000000000001
 30
0.0
  0
POINT
  5
65
330
36
100
AcDbEntity
  8
1
 62
     4
100
AcDbPoint
 10
57.0
 20
24.75000000000001
 30
0.0
  0
POINT
  5
66
330
36
100
AcDbEntity
  8
1
 62
     4
100
AcDbPoint
 10
57.0
 20
16.25
 30
0.0
  0
POINT
  5
67
330
36
100
AcDbEntity
  8
1
 62
     4
100
AcDbPoint
 10
157.5
 20
19.00000000000001
 30
0.0
  0
POINT
  5
68
330
36
100
AcDbEntity
  8
1
 62
     4
100
AcDbPoint
 10
47.5
 20
282.0000000000003
 30
0.0
  0
POINT
  5
69
330
36
100
AcDbEntity
  8
1
 62
     4
100
AcDbPoint
 10
57.0
 20
22.75000000000001
 30
0.0
  0
POINT
  5
6A
330
36
100
AcDbEntity
  8
1
 62
     4
100
AcDbPoint
 10
57.0
 20
14.25
 30
0.0
  0
POINT
  5
6B
330
36
100
AcDbEntity
  8
1
 62
     4
100
AcDbPoint
 10
157.5
 20
12.5
 30
0.0
  0
POINT
  5
6C
330
36
100
AcDbEntity
  8
1
 62
     4
100
AcDbPoint
 10
163.25
 20
12.5
 30
0.0
  0
POINT
  5
6D
330
36
100
AcDbEntity
  8
1
 62
     4
100
AcDbPoint
 10
151.75
 20
12.5
 30
0.0
  0
POINT
  5
6E
330
36
100
AcDbEntity
  8
1
 62
     4
100
AcDbPoint
 10
134.75
 20
12.5
 30
0.0
  0
POINT
  5
6F
330
36
100
AcDbEntity
  8
1
 62
     4
100
AcDbPoint
 10
146.25
 20
12.5
 30
0.0
  0
POINT
  5
70
330
36
100
AcDbEntity
  8
1
 62
     4
100
AcDbPoint
 10
140.5
 20
12.5
 30
0.0
  0
POINT
  5
71
330
36
100
AcDbEntity
  8
1
 62
     4
100
AcDbPoint
 10
140.5
 20
19.00000000000001
 30
0.0
  0
POINT
  5
72
330
36
100
AcDbEntity
  8
1
 62
     4
100
AcDbPoint
 10
117.75
 20
12.5
 30
0.0
  0
POINT
  5
73
330
36
100
AcDbEntity
  8
1
 62
     4
100
AcDbPoint
 10
129.25
 20
12.5
 30
0.0
  0
POINT
  5
74
330
36
100
AcDbEntity
  8
1
 62
     4
100
AcDbPoint
 10
123.5
 20
12.5
 30
0.0
  0
POINT
  5
75
330
36
100
AcDbEntity
  8
1
 62
     4
100
AcDbPoint
 10
123.5
 20
19.00000000000001
 30
0.0
  0
POINT
  5
76
330
36
100
AcDbEntity
  8
1
 62
     4
100
AcDbPoint
 10
100.75
 20
12.5
 30
0.0
  0
POINT
  5
77
330
36
100
AcDbEntity
  8
1
 62
     4
100
AcDbPoint
 10
112.25
 20
12.5
 30
0.0
  0
POINT
  5
78
330
36
100
AcDbEntity
  8
1
 62
     4
100
AcDbPoint
 10
106.5
 20
12.5
 30
0.0
  0
POINT
  5
79
330
36
100
AcDbEntity
  8
1
 62
     4
100
AcDbPoint
 10
106.5
 20
19.00000000000001
 30
0.0
  0
POINT
  5
7A
330
36
100
AcDbEntity
  8
1
 62
     4
100
AcDbPoint
 10
85.25
 20
17.0
 30
0.0
  0
POINT
  5
7B
330
36
100
AcDbEntity
  8
1
 62
     4
100
AcDbPoint
 10
93.75
 20
17.0
 30
0.0
  0
LINE
  5
7C
330
36
100
AcDbEntity
  8
1
  6
Continuous
 62
     2
100
AcDbLine
 10
81.0
 20
27.00000000000001
 30
0.0
 11
81.0
 21
10.0
 31
0.0
  0
LINE
  5
7D
330
36
100
AcDbEntity
  8
1
  6
DOT_CENTER
 62
     2
100
AcDbLine
 10
187.0
 20
26.50000000000001
 30
0.0
 11
187.0
 21
20.50000000000001
 31
0.0
  0
LINE
  5
7E
330
36
100
AcDbEntity
  8
1
  6
DOT_CENTER
 62
     2
100
AcDbLine
 10
184.0
 20
23.50000000000001
 30
0.0
 11
197.0
 21
23.50000000000001
 31
0.0
  0
LINE
  5
7F
330
36
100
AcDbEntity
  8
1
  6
Continuous
 62
     7
100
AcDbLine
 10
196.0
 20
21.50000000000001
 30
0.0
 11
191.0
 21
22.30000000000001
 31
0.0
  0
LINE
  5
80
330
36
100
AcDbEntity
  8
1
  6
Continuous
 62
     7
100
AcDbLine
 10
196.0
 20
25.50000000000001
 30
0.0
 11
196.0
 21
21.50000000000001
 31
0.0
  0
LINE
  5
81
330
36
100
AcDbEntity
  8
1
  6
Continuous
 62
     7
100
AcDbLine
 10
191.0
 20
24.70000000000001
 30
0.0
 11
196.0
 21
25.50000000000001
 31
0.0
  0
LINE
  5
82
330
36
100
AcDbEntity
  8
1
  6
Continuous
 62
     7
100
AcDbLine
 10
191.0
 20
24.70000000000001
 30
0.0
 11
191.0
 21
22.30000000000001
 31
0.0
  0
LINE
  5
83
330
36
100
AcDbEntity
  8
1
  6
Continuous
 62
     2
100
AcDbLine
 10
33.0
 20
27.0
 30
0.0
 11
33.0
 21
10.0
 31
0.0
  0
LINE
  5
84
330
36
100
AcDbEntity
  8
1
  6
Continuous
 62
     2
100
AcDbLine
 10
25.0
 20
18.50000000000001
 30
0.0
 11
81.0
 21
18.50000000000001
 31
0.0
  0
LINE
  5
85
330
36
100
AcDbEntity
  8
1
  6
Continuous
 62
     7
100
AcDbLine
 10
200.0
 20
287.0000000000003
 30
0.0
 11
105.0
 21
287.0000000000003
 31
0.0
  0
LINE
  5
86
330
36
100
AcDbEntity
  8
1
  6
Continuous
 62
     7
100
AcDbLine
 10
200.0
 20
10.0
 30
0.0
 11
200.0
 21
148.5
 31
0.0
  0
LINE
  5
87
330
36
100
AcDbEntity
  8
1
  6
Continuous
 62
     7
100
AcDbLine
 10
25.0
 20
10.0
 30
0.0
 11
105.0
 21
10.0
 31
0.0
  0
LINE
  5
88
330
36
100
AcDbEntity
  8
1
  6
PHANTOM
 62
     4
100
AcDbLine
 10
0.0
 20
297.0
 30
0.0
 11
0.0
 21
0.0
 31
0.0
  0
LINE
  5
89
330
36
100
AcDbEntity
  8
1
  6
PHANTOM
 62
     4
100
AcDbLine
 10
210.0
 20
297.0
 30
0.0
 11
0.0
 21
297.0
 31
0.0
  0
LINE
  5
8A
330
36
100
AcDbEntity
  8
1
  6
PHANTOM
 62
     4
100
AcDbLine
 10
210.0
 20
0.0
 30
0.0
 11
210.0
 21
297.0
 31
0.0
  0
LINE
  5
8B
330
36
100
AcDbEntity
  8
1
  6
PHANTOM
 62
     4
100
AcDbLine
 10
0.0
 20
0.0
 30
0.0
 11
210.0
 21
0.0
 31
0.0
  0
LINE
  5
8C
330
36
100
AcDbEntity
  8
1
  6
Continuous
 62
     7
100
AcDbLine
 10
25.0
 20
41.0
 30
0.0
 11
200.0
 21
41.0
 31
0.0
  0
LINE
  5
8D
330
36
100
AcDbEntity
  8
1
  6
Continuous
 62
     7
100
AcDbLine
 10
200.0
 20
27.00000000000001
 30
0.0
 11
25.0
 21
27.00000000000001
 31
0.0
  0
LINE
  5
8E
330
36
100
AcDbEntity
  8
1
  6
Continuous
 62
     2
100
AcDbLine
 10
33.0
 20
41.00000000000001
 30
0.0
 11
33.0
 21
27.0
 31
0.0
  0
LINE
  5
8F
330
36
100
AcDbEntity
  8
1
  6
Continuous
 62
     2
100
AcDbLine
 10
55.0
 20
287.0000000000003
 30
0.0
 11
55.0
 21
277.0000000000003
 31
0.0
  0
LINE
  5
90
330
36
100
AcDbEntity
  8
1
  6
Continuous
 62
     2
100
AcDbLine
 10
40.0
 20
287.0000000000003
 30
0.0
 11
40.0
 21
277.0000000000003
 31
0.0
  0
LINE
  5
91
330
36
100
AcDbEntity
  8
1
  6
Continuous
 62
     7
100
AcDbLine
 10
25.0
 20
10.0
 30
0.0
 11
25.0
 21
148.5
 31
0.0
  0
LINE
  5
92
330
36
100
AcDbEntity
  8
1
  6
Continuous
 62
     2
100
AcDbLine
 10
55.0
 20
277.0000000000003
 30
0.0
 11
25.0
 21
277.0000000000003
 31
0.0
  0
LINE
  5
93
330
36
100
AcDbEntity
  8
1
  6
Continuous
 62
     2
100
AcDbLine
 10
166.0
 20
27.00000000000001
 30
0.0
 11
166.0
 21
10.0
 31
0.0
  0
LINE
  5
94
330
36
100
AcDbEntity
  8
1
  6
Continuous
 62
     2
100
AcDbLine
 10
132.0
 20
27.00000000000001
 30
0.0
 11
132.0
 21
9.99999999999999
 31
0.0
  0
LINE
  5
95
330
36
100
AcDbEntity
  8
1
  6
Continuous
 62
     2
100
AcDbLine
 10
149.0
 20
27.00000000000001
 30
0.0
 11
149.0
 21
10.0
 31
0.0
  0
LINE
  5
96
330
36
100
AcDbEntity
  8
1
  6
Continuous
 62
     2
100
AcDbLine
 10
115.0
 20
27.00000000000001
 30
0.0
 11
115.0
 21
9.99999999999999
 31
0.0
  0
LINE
  5
97
330
36
100
AcDbEntity
  8
1
  6
Continuous
 62
     2
100
AcDbLine
 10
98.0
 20
27.00000000000001
 30
0.0
 11
98.0
 21
9.99999999999999
 31
0.0
  0
LINE
  5
98
330
36
100
AcDbEntity
  8
1
  6
Continuous
 62
     2
100
AcDbLine
 10
166.0
 20
20.00000000000001
 30
0.0
 11
200.0
 21
20.00000000000001
 31
0.0
  0
LINE
  5
99
330
36
100
AcDbEntity
  8
1
  6
Continuous
 62
     2
100
AcDbLine
 10
105.0
 20
287.0000000000003
 30
0.0
 11
105.0
 21
292.0000000000003
 31
0.0
  0
LINE
  5
9A
330
36
100
AcDbEntity
  8
1
  6
Continuous
 62
     7
100
AcDbLine
 10
105.0
 20
287.0000000000003
 30
0.0
 11
25.0
 21
287.0000000000003
 31
0.0
  0
LINE
  5
9B
330
36
100
AcDbEntity
  8
1
  6
Continuous
 62
     2
100
AcDbLine
 10
25.0
 20
148.5
 30
0.0
 11
20.0
 21
148.5
 31
0.0
  0
LINE
  5
9C
330
36
100
AcDbEntity
  8
1
  6
Continuous
 62
     7
100
AcDbLine
 10
25.0
 20
148.5
 30
0.0
 11
25.0
 21
287.0000000000003
 31
0.0
  0
LINE
  5
9D
330
36
100
AcDbEntity
  8
1
  6
Continuous
 62
     2
100
AcDbLine
 10
200.0
 20
148.5
 30
0.0
 11
205.0
 21
148.5
 31
0.0
  0
LINE
  5
9E
330
36
100
AcDbEntity
  8
1
  6
Continuous
 62
     7
100
AcDbLine
 10
200.0
 20
148.5
 30
0.0
 11
200.0
 21
287.0000000000003
 31
0.0
  0
LINE
  5
9F
330
36
100
AcDbEntity
  8
1
  6
Continuous
 62
     2
100
AcDbLine
 10
105.0
 20
10.0
 30
0.0
 11
105.0
 21
5.0
 31
0.0
  0
LINE
  5
A0
330
36
100
AcDbEntity
  8
1
  6
Continuous
 62
     7
100
AcDbLine
 10
105.0
 20
10.0
 30
0.0
 11
200.0
 21
10.0
 31
0.0
  0
CIRCLE
  5
A1
330
36
100
AcDbEntity
  8
1
  6
DOT_CENTER
 62
     7
100
AcDbCircle
 10
89.5
 20
18.0
 30
0.0
 40
0.1000000000000227
  0
CIRCLE
  5
A2
330
36
100
AcDbEntity
  8
1
  6
DOT_CENTER
 62
     7
100
AcDbCircle
 10
89.5
 20
16.0
 30
0.0
 40
0.1000000000000227
  0
CIRCLE
  5
A3
330
36
100
AcDbEntity
  8
1
  6
Continuous
 62
     7
100
AcDbCircle
 10
187.0
 20
23.50000000000001
 30
0.0
 40
2.0
  0
CIRCLE
  5
A4
330
36
100
AcDbEntity
  8
1
  6
Continuous
 62
     7
100
AcDbCircle
 10
187.0
 20
23.50000000000001
 30
0.0
 40
1.200000000000102
  0
CIRCLE
  5
A5
330
36
100
AcDbEntity
  8
1
  6
Continuous
 62
     7
100
AcDbCircle
 10
154.5
 20
12.5
 30
0.0
 40
0.3000000000000114
  0
CIRCLE
  5
A6
330
36
100
AcDbEntity
  8
1
  6
Continuous
 62
     7
100
AcDbCircle
 10
160.5
 20
12.5
 30
0.0
 40
0.3000000000000114
  0
CIRCLE
  5
A7
330
36
100
AcDbEntity
  8
1
  6
Continuous
 62
     7
100
AcDbCircle
 10
143.5
 20
12.5
 30
0.0
 40
0.3000000000000114
  0
CIRCLE
  5
A8
330
36
100
AcDbEntity
  8
1
  6
Continuous
 62
     7
100
AcDbCircle
 10
137.5
 20
12.5
 30
0.0
 40
0.3000000000000114
  0
CIRCLE
  5
A9
330
36
100
AcDbEntity
  8
1
  6
Continuous
 62
     7
100
AcDbCircle
 10
126.5
 20
12.5
 30
0.0
 40
0.2999999999999972
  0
CIRCLE
  5
AA
330
36
100
AcDbEntity
  8
1
  6
Continuous
 62
     7
100
AcDbCircle
 10
120.5
 20
12.5
 30
0.0
 40
0.2999999999999972
  0
CIRCLE
  5
AB
330
36
100
AcDbEntity
  8
1
  6
Continuous
 62
     7
100
AcDbCircle
 10
109.5
 20
12.5
 30
0.0
 40
0.2999999999999972
  0
CIRCLE
  5
AC
330
36
100
AcDbEntity
  8
1
  6
Continuous
 62
     7
100
AcDbCircle
 10
103.5
 20
12.5
 30
0.0
 40
0.2999999999999972
  0
MTEXT
  5
AE
330
36
100
AcDbEntity
  8
1
 62
   250
100
AcDbMText
 10
25.0
 20
5.0
 30
0.0
 40
3.5
 41
0.0
 71
     4
 72
     1
  1
備考欄の文字列 原点位置=4
  7
CONVERTER_1
 73
     1
 44
0.7202881152461
  0
MTEXT
  5
AF
330
36
100
AcDbEntity
  8
1
 62
     2
100
AcDbMText
 10
89.5
 20
24.00000000000001
 30
0.0
 40
3.5
 41
0.0
 71
     5
 72
     1
  1
尺度
  7
CONVERTER_1
 73
     1
 44
0.7202881152461
  0
MTEXT
  5
B0
330
36
100
AcDbEntity
  8
1
 62
     2
100
AcDbMText
 10
135.5
 20
25.00000000000001
 30
0.0
 40
3.0
 41
0.0
 71
     5
 72
     1
  1
製図
  7
CONVERTER_1
 73
     1
 44
0.78031212484994
  0
MTEXT
  5
B1
330
36
100
AcDbEntity
  8
1
 62
     2
100
AcDbMText
 10
152.5
 20
25.00000000000001
 30
0.0
 40
3.0
 41
0.0
 71
     5
 72
     1
  1
設計
  7
CONVERTER_1
 73
     1
 44
0.78031212484994
  0
MTEXT
  5
B2
330
36
100
AcDbEntity
  8
1
 62
     2
100
AcDbMText
 10
118.5
 20
25.00000000000001
 30
0.0
 40
3.0
 41
0.0
 71
     5
 72
     1
  1
検図
  7
CONVERTER_1
 73
     1
 44
0.78031212484994
  0
MTEXT
  5
B3
330
36
100
AcDbEntity
  8
1
 62
     2
100
AcDbMText
 10
175.0
 20
23.50000000000001
 30
0.0
 40
3.5
 41
0.0
 71
     5
 72
     1
  1
第三角法
  7
CONVERTER_1
 73
     1
 44
0.7202881152461
  0
MTEXT
  5
B4
330
36
100
AcDbEntity
  8
1
 62
     2
100
AcDbMText
 10
101.5
 20
25.00000000000001
 30
0.0
 40
3.0
 41
0.0
 71
     5
 72
     1
  1
承認
  7
CONVERTER_1
 73
     1
 44
0.78031212484994
  0
MTEXT
  5
B5
330
36
100
AcDbEntity
  8
1
 62
     2
100
AcDbMText
 10
29.0
 20
14.25
 30
0.0
 40
3.5
 41
0.0
 71
     5
 72
     1
  1
品番
  7
CONVERTER_1
 73
     1
 44
0.96038415366146
  0
MTEXT
  5
B6
330
36
100
AcDbEntity
  8
1
 62
     2
100
AcDbMText
 10
29.0
 20
22.75
 30
0.0
 40
3.5
 41
0.0
 71
     5
 72
     1
  1
品名
  7
CONVERTER_1
 73
     1
 44
0.96038415366146
  0
MTEXT
  5
B7
330
36
100
AcDbEntity
  8
1
 62
     2
100
AcDbMText
 10
29.0
 20
34.00000000000001
 30
0.0
 40
3.5
 41
0.0
 71
     5
 72
     1
  1
備考
  7
CONVERTER_1
 73
     1
 44
0.60024009603842
  0
MTEXT
  5
B8
330
36
100
AcDbEntity
  8
1
 62
     2
100
AcDbMText
 10
32.5
 20
282.0000000000003
 30
0.0
 40
5.0
 41
0.0
 71
     5
 72
     1
  1
図番
  7
CONVERTER_1
 73
     1
 44
0.60024009603842
  0
MTEXT
  5
B9
330
36
100
AcDbEntity
  8
1
 62
     7
100
AcDbMText
 10
171.5
 20
15.0
 30
0.0
 40
2.5
 41
0.0
 71
     5
 72
     1
  1
株式会社
  7
CONVERTER_1
 73
     1
 44
1.32052821128451
  0
MTEXT
  5
BA
330
36
100
AcDbEntity
  8
1
 62
     7
100
AcDbMText
 10
188.5
 20
15.0
 30
0.0
 40
3.0
 41
0.0
 71
     5
 72
     1
  1
三栄水栓製作所
  7
CONVERTER_1
 73
     1
 44
1.32052821128451
  0
ENDBLK
  5
38
330
36
100
AcDbEntity
  8
0
100
AcDbBlockEnd
  0
BLOCK
  5
3A
330
39
100
AcDbEntity
  8
0
100
AcDbBlockBegin
  2
32-1-16__1
 70
     0
 71
     0
 10
182.6809859984293
 20
487.1484552014283
 30
0.0
  3
32-1-16__1
  1

  0
LINE
  5
BB
330
39
100
AcDbEntity
  8
1
  6
Continuous
 62
     7
100
AcDbLine
 10
378.6222185577698
 20
244.9856596906957
 30
0.0
 11
377.0542693653387
 21
244.9856596906957
 31
0.0
  0
LINE
  5
BC
330
39
100
AcDbEntity
  8
1
  6
Continuous
 62
     7
100
AcDbLine
 10
368.8542693653386
 20
234.9856596906957
 30
0.0
 11
382.1542693653386
 21
234.9856596906957
 31
0.0
  0
LINE
  5
BD
330
39
100
AcDbEntity
  8
1
  6
Continuous
 62
     7
100
AcDbLine
 10
382.1542693653386
 20
234.9856596906957
 30
0.0
 11
382.0412693653386
 21
234.9856596906957
 31
0.0
  0
LINE
  5
BE
330
39
100
AcDbEntity
  8
1
  6
Continuous
 62
     7
100
AcDbLine
 10
380.3542693653386
 20
243.9856596906957
 30
0.0
 11
380.4122904270693
 21
243.9856596906957
 31
0.0
  0
LINE
  5
BF
330
39
100
AcDbEntity
  8
1
  6
Continuous
 62
     7
100
AcDbLine
 10
377.0542693653387
 20
244.9856596906957
 30
0.0
 11
368.8542693653386
 21
244.9856596906957
 31
0.0
  0
LINE
  5
C0
330
39
100
AcDbEntity
  8
1
  6
Continuous
 62
     7
100
AcDbLine
 10
368.8542693653386
 20
243.9856596906957
 30
0.0
 11
377.6525913444082
 21
243.9856596906957
 31
0.0
  0
LINE
  5
C1
330
39
100
AcDbEntity
  8
1
  6
Continuous
 62
     7
100
AcDbLine
 10
360.6542693653386
 20
244.9856596906957
 30
0.0
 11
359.0863201729075
 21
244.9856596906957
 31
0.0
  0
LINE
  5
C2
330
39
100
AcDbEntity
  8
1
  6
Continuous
 62
     7
100
AcDbLine
 10
355.5542693653387
 20
234.9856596906957
 30
0.0
 11
368.8542693653386
 21
234.9856596906957
 31
0.0
  0
LINE
  5
C3
330
39
100
AcDbEntity
  8
1
  6
Continuous
 62
     7
100
AcDbLine
 10
355.6672693653386
 20
234.9856596906957
 30
0.0
 11
355.5542693653387
 21
234.9856596906957
 31
0.0
  0
LINE
  5
C4
330
39
100
AcDbEntity
  8
1
  6
Continuous
 62
     7
100
AcDbLine
 10
357.296248303608
 20
243.9856596906957
 30
0.0
 11
357.3542693653386
 21
243.9856596906957
 31
0.0
  0
LINE
  5
C5
330
39
100
AcDbEntity
  8
1
  6
Continuous
 62
     7
100
AcDbLine
 10
368.8542693653386
 20
244.9856596906957
 30
0.0
 11
360.6542693653386
 21
244.9856596906957
 31
0.0
  0
LINE
  5
C6
330
39
100
AcDbEntity
  8
1
  6
Continuous
 62
     7
100
AcDbLine
 10
360.0559473862691
 20
243.9856596906957
 30
0.0
 11
368.8542693653386
 21
243.9856596906957
 31
0.0
  0
ARC
  5
C7
330
39
100
AcDbEntity
  8
1
  6
Continuous
 62
     7
100
AcDbCircle
 10
379.3542693653386
 20
239.1281227261374
 30
0.0
 40
5.000000000000087
100
AcDbArc
 50
-55.94420225743262
 51
74.66244233044463
  0
ARC
  5
C8
330
39
100
AcDbEntity
  8
1
  6
Continuous
 62
     7
100
AcDbCircle
 10
373.6210979451848
 20
239.1282919684643
 30
0.0
 40
1.885238775575519
100
AcDbArc
 50
-3.83791798967163
 51
-0.00514357713478
  0
ARC
  5
C9
330
39
100
AcDbEntity
  8
1
  6
Continuous
 62
     7
100
AcDbCircle
 10
373.5472809650049
 20
239.1332439561736
 30
0.0
 40
1.959221670525283
100
AcDbArc
 50
-9.37260108639817
 51
-3.83791798967069
  0
ARC
  5
CA
330
39
100
AcDbEntity
  8
1
  6
Continuous
 62
     7
100
AcDbCircle
 10
373.4630475275913
 20
239.1471473301018
 30
0.0
 40
2.044594826640695
100
AcDbArc
 50
-14.67807157129501
 51
-9.37260108640429
  0
ARC
  5
CB
330
39
100
AcDbEntity
  8
1
  6
Continuous
 62
     7
100
AcDbCircle
 10
373.4203414197854
 20
239.1583335999638
 30
0.0
 40
2.088741675648938
100
AcDbArc
 50
-19.98794307345777
 51
-14.67807157128962
  0
ARC
  5
CC
330
39
100
AcDbEntity
  8
1
  6
Continuous
 62
     7
100
AcDbCircle
 10
373.2860486438727
 20
239.2071801722061
 30
0.0
 40
2.231642121002204
100
AcDbArc
 50
-23.44839996530771
 51
-19.98794307346028
  0
ARC
  5
CD
330
39
100
AcDbEntity
  8
1
  6
Continuous
 62
     7
100
AcDbCircle
 10
373.1881120061418
 20
239.2496593990686
 30
0.0
 40
2.338394496736226
100
AcDbArc
 50
-26.75137744777269
 51
-23.44839996530484
  0
ARC
  5
CE
330
39
100
AcDbEntity
  8
1
  6
Continuous
 62
     7
100
AcDbCircle
 10
373.0276525329215
 20
239.3305424694488
 30
0.0
 40
2.518086771529177
100
AcDbArc
 50
-29.81983142576479
 51
-26.75137744777307
  0
ARC
  5
CF
330
39
100
AcDbEntity
  8
1
  6
Continuous
 62
     7
100
AcDbCircle
 10
372.9256508822631
 20
239.3890062598678
 30
0.0
 40
2.635655268700729
100
AcDbArc
 50
-32.75164132976576
 51
-29.81983142576654
  0
ARC
  5
D0
330
39
100
AcDbEntity
  8
1
  6
Continuous
 62
     7
100
AcDbCircle
 10
372.7581143969923
 20
239.4967761334625
 30
0.0
 40
2.834860739387531
100
AcDbArc
 50
-35.62806700317107
 51
-32.75164132976646
  0
ARC
  5
D1
330
39
100
AcDbEntity
  8
1
  6
Continuous
 62
     7
100
AcDbCircle
 10
372.6492074564923
 20
239.5748265669868
 30
0.0
 40
2.968848021852566
100
AcDbArc
 50
-38.51810528404837
 51
-35.62806700316899
  0
ARC
  5
D2
330
39
100
AcDbEntity
  8
1
  6
Continuous
 62
     7
100
AcDbCircle
 10
372.445750166413
 20
239.7367687999092
 30
0.0
 40
3.228886779906695
100
AcDbArc
 50
-41.17514053461989
 51
-38.51810528404984
  0
ARC
  5
D3
330
39
100
AcDbEntity
  8
1
  6
Continuous
 62
     7
100
AcDbCircle
 10
372.3124609785637
 20
239.8533525493942
 30
0.0
 40
3.405968055713983
100
AcDbArc
 50
-43.69457626015281
 51
-41.17514053462158
  0
ARC
  5
D4
330
39
100
AcDbEntity
  8
1
  6
Continuous
 62
     7
100
AcDbCircle
 10
372.0723761771515
 20
240.0827390915115
 30
0.0
 40
3.738020608141624
100
AcDbArc
 50
-45.99039746615589
 51
-43.69457626015189
  0
ARC
  5
D5
330
39
100
AcDbEntity
  8
1
  6
Continuous
 62
     7
100
AcDbCircle
 10
371.9245070481472
 20
240.2358107091532
 30
0.0
 40
3.950849646197855
100
AcDbArc
 50
-48.29355234313988
 51
-45.9903974661536
  0
ARC
  5
D6
330
39
100
AcDbEntity
  8
1
  6
Continuous
 62
     7
100
AcDbCircle
 10
371.7065001296955
 20
240.4804408797037
 30
0.0
 40
4.278524693823266
100
AcDbArc
 50
-50.54097616601173
 51
-48.29355234314106
  0
ARC
  5
D7
330
39
100
AcDbEntity
  8
1
  6
Continuous
 62
     7
100
AcDbCircle
 10
371.5859339244784
 20
240.6269126817489
 30
0.0
 40
4.468235522809995
100
AcDbArc
 50
-52.69280232873092
 51
-50.5409761660118
  0
ARC
  5
D8
330
39
100
AcDbEntity
  8
1
  6
Continuous
 62
     7
100
AcDbCircle
 10
371.3332535028687
 20
240.9585167218978
 30
0.0
 40
4.88513915065203
100
AcDbArc
 50
-54.66121156762851
 51
-52.69280232872975
  0
ARC
  5
D9
330
39
100
AcDbEntity
  8
1
  6
Continuous
 62
     7
100
AcDbCircle
 10
371.1960308445947
 20
241.1520452936678
 30
0.0
 40
5.122380306514939
100
AcDbArc
 50
-56.53856255234602
 51
-54.66121156762943
  0
ARC
  5
DA
330
39
100
AcDbEntity
  8
1
  6
Continuous
 62
     7
100
AcDbCircle
 10
370.9074578026771
 20
241.5886698086846
 30
0.0
 40
5.64574955249257
100
AcDbArc
 50
-58.3355060721223
 51
-56.53856255234542
  0
ARC
  5
DB
330
39
100
AcDbEntity
  8
1
  6
Continuous
 62
     7
100
AcDbCircle
 10
370.8238861806699
 20
241.724171544623
 30
0.0
 40
5.804950483542684
100
AcDbArc
 50
-60.17408304738368
 51
-58.33550607212193
  0
ARC
  5
DC
330
39
100
AcDbEntity
  8
1
  6
Continuous
 62
     7
100
AcDbCircle
 10
370.5820931121092
 20
242.1459235607422
 30
0.0
 40
6.291097221785842
100
AcDbArc
 50
-61.8704898191195
 51
-60.17408304738403
  0
ARC
  5
DD
330
39
100
AcDbEntity
  8
1
  6
Continuous
 62
     7
100
AcDbCircle
 10
370.4900613202997
 20
242.3180703363337
 30
0.0
 40
6.486300610717232
100
AcDbArc
 50
-63.51594912179318
 51
-61.87048981911971
  0
ARC
  5
DE
330
39
100
AcDbEntity
  8
1
  6
Continuous
 62
     7
100
AcDbCircle
 10
370.2215635265497
 20
242.8569692126133
 30
0.0
 40
7.088382884251256
100
AcDbArc
 50
-65.02168814021295
 51
-63.51594912179302
  0
ARC
  5
DF
330
39
100
AcDbEntity
  8
1
  6
Continuous
 62
     7
100
AcDbCircle
 10
370.1245431843422
 20
243.0652357952552
 30
0.0
 40
7.31813909471679
100
AcDbArc
 50
-66.54589314600491
 51
-65.02168814021337
  0
ARC
  5
E0
330
39
100
AcDbEntity
  8
1
  6
Continuous
 62
     7
100
AcDbCircle
 10
369.9050009092068
 20
243.5712564735323
 30
0.0
 40
7.869732910323423
100
AcDbArc
 50
-68.02432798591588
 51
-66.54589314600489
  0
ARC
  5
E1
330
39
100
AcDbEntity
  8
1
  6
Continuous
 62
     7
100
AcDbCircle
 10
369.8662870832841
 20
243.6671938166234
 30
0.0
 40
7.973186929660322
100
AcDbArc
 50
-69.48353928739064
 51
-68.02432798591573
  0
ARC
  5
E2
330
39
100
AcDbEntity
  8
1
  6
Continuous
 62
     7
100
AcDbCircle
 10
369.6414195848286
 20
244.2681029186732
 30
0.0
 40
8.61479205805936
100
AcDbArc
 50
-70.83411753653041
 51
-69.48353928739077
  0
ARC
  5
E3
330
39
100
AcDbEntity
  8
1
  6
Continuous
 62
     7
100
AcDbCircle
 10
369.6037620451571
 20
244.3764483301434
 30
0.0
 40
8.729495233607066
100
AcDbArc
 50
-72.16697488157656
 51
-70.83411753653107
  0
ARC
  5
E4
330
39
100
AcDbEntity
  8
1
  6
Continuous
 62
     7
100
AcDbCircle
 10
369.3750708792516
 20
245.0873298729348
 30
0.0
 40
9.476256385010208
100
AcDbArc
 50
-73.43621096269274
 51
-72.16697488157537
  0
ARC
  5
E5
330
39
100
AcDbEntity
  8
1
  6
Continuous
 62
     7
100
AcDbCircle
 10
369.3840852719306
 20
245.0570217434546
 30
0.0
 40
9.44463610689697
100
AcDbArc
 50
-74.75122090077812
 51
-73.43621096269325
  0
ARC
  5
E6
330
39
100
AcDbEntity
  8
1
  6
Continuous
 62
     7
100
AcDbCircle
 10
369.2116035327118
 20
245.6897305653002
 30
0.0
 40
10.10043363937573
100
AcDbArc
 50
-75.98082797866584
 51
-74.75122090077831
  0
ARC
  5
E7
330
39
100
AcDbEntity
  8
1
  6
Continuous
 62
     7
100
AcDbCircle
 10
369.2218013678958
 20
245.648887508851
 30
0.0
 40
10.05833671427953
100
AcDbArc
 50
-77.21560695564172
 51
-75.98082797866607
  0
ARC
  5
E8
330
39
100
AcDbEntity
  8
1
  6
Continuous
 62
     7
100
AcDbCircle
 10
369.0585666267604
 20
246.3682748725209
 30
0.0
 40
10.79601127648259
100
AcDbArc
 50
-78.36602601395396
 51
-77.21560695564168
  0
ARC
  5
E9
330
39
100
AcDbEntity
  8
1
  6
Continuous
 62
     7
100
AcDbCircle
 10
369.0521829071103
 20
246.3992805793018
 30
0.0
 40
10.82766733008293
100
AcDbArc
 50
-80.13759125310071
 51
-78.36602601395411
  0
ARC
  5
EA
330
39
100
AcDbEntity
  8
1
  6
Continuous
 62
     7
100
AcDbCircle
 10
368.9396386734969
 20
247.0466373661758
 30
0.0
 40
11.48473430842808
100
AcDbArc
 50
-82.39653416241481
 51
-80.13759125309986
  0
ARC
  5
EB
330
39
100
AcDbEntity
  8
1
  6
Continuous
 62
     7
100
AcDbCircle
 10
368.9090193890843
 20
247.2760123887836
 30
0.0
 40
11.71614399183451
100
AcDbArc
 50
-84.61089107510183
 51
-82.3965341624146
  0
ARC
  5
EC
330
39
100
AcDbEntity
  8
1
  6
Continuous
 62
     7
100
AcDbCircle
 10
368.8571660955415
 20
247.8256781103769
 30
0.0
 40
12.26825011346869
100
AcDbArc
 50
-89.47326155791741
 51
-84.61089107510202
  0
ARC
  5
ED
330
39
100
AcDbEntity
  8
1
  6
Continuous
 62
     7
100
AcDbCircle
 10
368.8635417088331
 20
230.581760039007
 30
0.0
 40
12.11718326375004
100
AcDbArc
 50
83.50322681730793
 51
90.04384403443567
  0
ARC
  5
EE
330
39
100
AcDbEntity
  8
1
  6
Continuous
 62
     7
100
AcDbCircle
 10
368.9087308223636
 20
230.9785784913179
 30
0.0
 40
11.71780006420847
100
AcDbArc
 50
81.28919856903052
 51
83.50322681730843
  0
ARC
  5
EF
330
39
100
AcDbEntity
  8
1
  6
Continuous
 62
     7
100
AcDbCircle
 10
369.0090386667679
 20
231.6332677110644
 30
0.0
 40
11.05547111413803
100
AcDbArc
 50
78.94250833563264
 51
81.28919856902978
  0
ARC
  5
F0
330
39
100
AcDbEntity
  8
1
  6
Continuous
 62
     7
100
AcDbCircle
 10
369.0400768384548
 20
231.7920942321736
 30
0.0
 40
10.89364023973737
100
AcDbArc
 50
77.80241211342666
 51
78.94250833563312
  0
ARC
  5
F1
330
39
100
AcDbEntity
  8
1
  6
Continuous
 62
     7
100
AcDbCircle
 10
369.1657683595687
 20
232.3735590542754
 30
0.0
 40
10.29874554500398
100
AcDbArc
 50
76.59644657029051
 51
77.80241211342617
  0
ARC
  5
F2
330
39
100
AcDbEntity
  8
1
  6
Continuous
 62
     7
100
AcDbCircle
 10
369.1907299154659
 20
232.4783078816137
 30
0.0
 40
10.19106362404433
100
AcDbArc
 50
75.37776435552161
 51
76.59644657029071
  0
ARC
  5
F3
330
39
100
AcDbEntity
  8
1
  6
Continuous
 62
     7
100
AcDbCircle
 10
369.3248540516
 20
232.9924003818074
 30
0.0
 40
9.659762972201033
100
AcDbArc
 50
74.0920608747212
 51
75.37776435552169
  0
ARC
  5
F4
330
39
100
AcDbEntity
  8
1
  6
Continuous
 62
     7
100
AcDbCircle
 10
369.3703975846364
 20
233.152198155265
 30
0.0
 40
9.493601779970602
100
AcDbArc
 50
72.17102362415884
 51
74.0920608747208
  0
ARC
  5
F5
330
39
100
AcDbEntity
  8
1
  6
Continuous
 62
     7
100
AcDbCircle
 10
369.6204883160941
 20
233.9297882603437
 30
0.0
 40
8.676783718541204
100
AcDbArc
 50
70.83006879394735
 51
72.17102362415982
  0
ARC
  5
F6
330
39
100
AcDbEntity
  8
1
  6
Continuous
 62
     7
100
AcDbCircle
 10
369.6237825129072
 20
233.9392639138173
 30
0.0
 40
8.666751782467031
100
AcDbArc
 50
69.48758802997475
 51
70.83006879394763
  0
ARC
  5
F7
330
39
100
AcDbEntity
  8
1
  6
Continuous
 62
     7
100
AcDbCircle
 10
369.8822322677191
 20
234.6300629444936
 30
0.0
 40
7.929188512946745
100
AcDbArc
 50
68.0202792433327
 51
69.48758802997403
  0
ARC
  5
F8
330
39
100
AcDbEntity
  8
1
  6
Continuous
 62
     7
100
AcDbCircle
 10
369.8882647283425
 20
234.6450090368462
 30
0.0
 40
7.913070936894878
100
AcDbArc
 50
66.54994188858797
 51
68.02027924333284
  0
ARC
  5
F9
330
39
100
AcDbEntity
  8
1
  6
Continuous
 62
     7
100
AcDbCircle
 10
370.1404065326846
 20
235.2262805171656
 30
0.0
 40
7.279468519499323
100
AcDbArc
 50
65.01763939763103
 51
66.54994188858822
  0
ARC
  5
FA
330
39
100
AcDbEntity
  8
1
  6
Continuous
 62
     7
100
AcDbCircle
 10
370.2049239977213
 20
235.3647499504071
 30
0.0
 40
7.126706327720616
100
AcDbArc
 50
63.51999786437592
 51
65.01763939763029
  0
ARC
  5
FB
330
39
100
AcDbEntity
  8
1
  6
Continuous
 62
     7
100
AcDbCircle
 10
370.5046334735257
 20
235.9663999495737
 30
0.0
 40
6.454539316194513
100
AcDbArc
 50
61.8664410765376
 51
63.51999786437585
  0
ARC
  5
FC
330
39
100
AcDbEntity
  8
1
  6
Continuous
 62
     7
100
AcDbCircle
 10
370.5674744847757
 20
236.0839249801429
 30
0.0
 40
6.321268443513274
100
AcDbArc
 50
60.17813178996784
 51
61.86644107653798
  0
ARC
  5
FD
330
39
100
AcDbEntity
  8
1
  6
Continuous
 62
     7
100
AcDbCircle
 10
370.8368994363871
 20
236.5539513900945
 30
0.0
 40
5.779498537923294
100
AcDbArc
 50
58.33145732953864
 51
60.17813178996757
  0
ARC
  5
FE
330
39
100
AcDbEntity
  8
1
  6
Continuous
 62
     7
100
AcDbCircle
 10
370.8937021491283
 20
236.6460358660594
 30
0.0
 40
5.671303811210499
100
AcDbArc
 50
56.54261129492892
 51
58.33145732953894
  0
ARC
  5
FF
330
39
100
AcDbEntity
  8
1
  6
Continuous
 62
     7
100
AcDbCircle
 10
371.2528173463134
 20
237.1894774427657
 30
0.0
 40
5.019926445820472
100
AcDbArc
 50
55.58479018327525
 51
56.54261129492871
  0
ARC
  5
100
330
39
100
AcDbEntity
  8
1
  6
Continuous
 62
     7
100
AcDbCircle
 10
371.1659546810372
 20
237.0626899334314
 30
0.0
 40
5.173615076311142
100
AcDbArc
 50
53.72604720347596
 51
55.58479018327549
  0
ARC
  5
101
330
39
100
AcDbEntity
  8
1
  6
Continuous
 62
     7
100
AcDbCircle
 10
371.5479535855858
 20
237.5832142262526
 30
0.0
 40
4.527961374630866
100
AcDbArc
 50
51.60249499566488
 51
53.72604720347525
  0
ARC
  5
102
330
39
100
AcDbEntity
  8
1
  6
Continuous
 62
     7
100
AcDbCircle
 10
371.5641989222454
 20
237.6037125736779
 30
0.0
 40
4.501806199037008
100
AcDbArc
 50
49.46672482297274
 51
51.60249499566447
  0
ARC
  5
103
330
39
100
AcDbEntity
  8
1
  6
Continuous
 62
     7
100
AcDbCircle
 10
371.8897471127532
 20
237.9844325818079
 30
0.0
 40
4.000877712191424
100
AcDbArc
 50
47.06283292397067
 51
49.46672482297301
  0
ARC
  5
104
330
39
100
AcDbEntity
  8
1
  6
Continuous
 62
     7
100
AcDbCircle
 10
371.9146603653057
 20
238.0112075827441
 30
0.0
 40
3.964304896769611
100
AcDbArc
 50
44.89834186822018
 51
47.06283292397095
  0
ARC
  5
105
330
39
100
AcDbEntity
  8
1
  6
Continuous
 62
     7
100
AcDbCircle
 10
372.2665771777974
 20
238.3618778154356
 30
0.0
 40
3.46750005076838
100
AcDbArc
 50
42.42339965240844
 51
44.89834186822102
  0
ARC
  5
106
330
39
100
AcDbEntity
  8
1
  6
Continuous
 62
     7
100
AcDbCircle
 10
372.3123411112965
 20
238.403700315732
 30
0.0
 40
3.405504412693176
100
AcDbArc
 50
39.90392927687886
 51
42.42339965240875
  0
ARC
  5
107
330
39
100
AcDbEntity
  8
1
  6
Continuous
 62
     7
100
AcDbCircle
 10
372.6086053055486
 20
238.6514501556709
 30
0.0
 40
3.019301802674102
100
AcDbArc
 50
37.06249637679085
 51
39.90392927687879
  0
ARC
  5
108
330
39
100
AcDbEntity
  8
1
  6
Continuous
 62
     7
100
AcDbCircle
 10
372.6504171043262
 20
238.6830291694064
 30
0.0
 40
2.966904659378538
100
AcDbArc
 50
34.16969710193659
 51
37.06249637679001
  0
ARC
  5
109
330
39
100
AcDbEntity
  8
1
  6
Continuous
 62
     7
100
AcDbCircle
 10
372.9001848719681
 20
238.852578129484
 30
0.0
 40
2.665025896269726
100
AcDbArc
 50
31.27086980469088
 51
34.16969710193818
  0
ARC
  5
10A
330
39
100
AcDbEntity
  8
1
  6
Continuous
 62
     7
100
AcDbCircle
 10
372.9204136842697
 20
238.8648633578129
 30
0.0
 40
2.641358795005847
100
AcDbArc
 50
28.34531312310962
 51
31.27086980468963
  0
ARC
  5
10B
330
39
100
AcDbEntity
  8
1
  6
Continuous
 62
     7
100
AcDbCircle
 10
373.1577499431641
 20
238.9928979889496
 30
0.0
 40
2.371689800577042
100
AcDbArc
 50
25.08804044719856
 51
28.34531312311156
  0
ARC
  5
10C
330
39
100
AcDbEntity
  8
1
  6
Continuous
 62
     7
100
AcDbCircle
 10
373.1914392280745
 20
239.0086706288722
 30
0.0
 40
2.334491089740371
100
AcDbArc
 50
21.78003181772722
 51
25.08804044719768
  0
ARC
  5
10D
330
39
100
AcDbEntity
  8
1
  6
Continuous
 62
     7
100
AcDbCircle
 10
373.3977755291136
 20
239.0911158585222
 30
0.0
 40
2.112293238674068
100
AcDbArc
 50
18.1232638699397
 51
21.78003181772523
  0
ARC
  5
10E
330
39
100
AcDbEntity
  8
1
  6
Continuous
 62
     7
100
AcDbCircle
 10
373.4196341301503
 20
239.0982701753457
 30
0.0
 40
2.089293615014314
100
AcDbArc
 50
11.20237824740473
 51
18.12326386993636
  0
ARC
  5
10F
330
39
100
AcDbEntity
  8
1
  6
Continuous
 62
     7
100
AcDbCircle
 10
373.5470571324535
 20
239.123506105738
 30
0.0
 40
1.959395679315702
100
AcDbArc
 50
5.66707811642508
 51
11.20237824741059
  0
ARC
  5
110
330
39
100
AcDbEntity
  8
1
  6
Continuous
 62
     7
100
AcDbCircle
 10
373.5520523619313
 20
239.1240017972594
 30
0.0
 40
1.954375915614112
100
AcDbArc
 50
1.96932947907259
 51
5.66707811642452
  0
ARC
  5
111
330
39
100
AcDbEntity
  8
1
  6
Continuous
 62
     7
100
AcDbCircle
 10
373.7063292239279
 20
239.1293065801773
 30
0.0
 40
1.800007878542447
100
AcDbArc
 50
-0.03768308224921
 51
1.96932947906777
  0
ARC
  5
112
330
39
100
AcDbEntity
  8
1
  6
Continuous
 62
     7
100
AcDbCircle
 10
368.8565050907803
 20
247.8975766335528
 30
0.0
 40
12.34015167508014
100
AcDbArc
 50
-90.01038055576876
 51
-89.47326155791748
  0
ARC
  5
113
330
39
100
AcDbEntity
  8
1
  6
Continuous
 62
     7
100
AcDbCircle
 10
358.3542693653386
 20
239.1281227261374
 30
0.0
 40
4.999999999999985
100
AcDbArc
 50
105.3375576695541
 51
-124.0557977425663
  0
ARC
  5
114
330
39
100
AcDbEntity
  8
1
  6
Continuous
 62
     7
100
AcDbCircle
 10
364.0874407854925
 20
239.1282919684643
 30
0.0
 40
1.885238775575518
100
AcDbArc
 50
-179.9948564228652
 51
-176.1620820103286
  0
ARC
  5
115
330
39
100
AcDbEntity
  8
1
  6
Continuous
 62
     7
100
AcDbCircle
 10
364.1612577656724
 20
239.1332439561736
 30
0.0
 40
1.959221670525443
100
AcDbArc
 50
-176.1620820103296
 51
-170.6273989136021
  0
ARC
  5
116
330
39
100
AcDbEntity
  8
1
  6
Continuous
 62
     7
100
AcDbCircle
 10
364.2454912030859
 20
239.1471473301018
 30
0.0
 40
2.044594826640606
100
AcDbArc
 50
-170.6273989135955
 51
-165.3219284287054
  0
ARC
  5
117
330
39
100
AcDbEntity
  8
1
  6
Continuous
 62
     7
100
AcDbCircle
 10
364.2881973108918
 20
239.1583335999638
 30
0.0
 40
2.088741675648957
100
AcDbArc
 50
-165.3219284287108
 51
-160.0120569265412
  0
ARC
  5
118
330
39
100
AcDbEntity
  8
1
  6
Continuous
 62
     7
100
AcDbCircle
 10
364.4224900868045
 20
239.2071801722061
 30
0.0
 40
2.231642121002078
100
AcDbArc
 50
-160.0120569265382
 51
-156.5516000346911
  0
ARC
  5
119
330
39
100
AcDbEntity
  8
1
  6
Continuous
 62
     7
100
AcDbCircle
 10
364.5204267245354
 20
239.2496593990686
 30
0.0
 40
2.338394496736197
100
AcDbArc
 50
-156.5516000346946
 51
-153.2486225522273
  0
ARC
  5
11A
330
39
100
AcDbEntity
  8
1
  6
Continuous
 62
     7
100
AcDbCircle
 10
364.6808861977557
 20
239.3305424694488
 30
0.0
 40
2.518086771529147
100
AcDbArc
 50
-153.2486225522264
 51
-150.1801685742339
  0
ARC
  5
11B
330
39
100
AcDbEntity
  8
1
  6
Continuous
 62
     7
100
AcDbCircle
 10
364.7828878484141
 20
239.3890062598678
 30
0.0
 40
2.635655268700707
100
AcDbArc
 50
-150.1801685742323
 51
-147.2483586702342
  0
ARC
  5
11C
330
39
100
AcDbEntity
  8
1
  6
Continuous
 62
     7
100
AcDbCircle
 10
364.9504243336849
 20
239.4967761334625
 30
0.0
 40
2.834860739387451
100
AcDbArc
 50
-147.2483586702342
 51
-144.3719329968289
  0
ARC
  5
11D
330
39
100
AcDbEntity
  8
1
  6
Continuous
 62
     7
100
AcDbCircle
 10
365.059331274185
 20
239.5748265669868
 30
0.0
 40
2.968848021852779
100
AcDbArc
 50
-144.3719329968323
 51
-141.4818947159537
  0
ARC
  5
11E
330
39
100
AcDbEntity
  8
1
  6
Continuous
 62
     7
100
AcDbCircle
 10
365.2627885642642
 20
239.7367687999092
 30
0.0
 40
3.228886779906712
100
AcDbArc
 50
-141.4818947159508
 51
-138.8248594653801
  0
ARC
  5
11F
330
39
100
AcDbEntity
  8
1
  6
Continuous
 62
     7
100
AcDbCircle
 10
365.3960777521136
 20
239.8533525493942
 30
0.0
 40
3.405968055713977
100
AcDbArc
 50
-138.8248594653797
 51
-136.3054237398478
  0
ARC
  5
120
330
39
100
AcDbEntity
  8
1
  6
Continuous
 62
     7
100
AcDbCircle
 10
365.6361625535259
 20
240.0827390915115
 30
0.0
 40
3.738020608141644
100
AcDbArc
 50
-136.3054237398493
 51
-134.0096025338447
  0
ARC
  5
121
330
39
100
AcDbEntity
  8
1
  6
Continuous
 62
     7
100
AcDbCircle
 10
365.78403168253
 20
240.2358107091532
 30
0.0
 40
3.950849646197753
100
AcDbArc
 50
-134.0096025338446
 51
-131.7064476568595
  0
ARC
  5
122
330
39
100
AcDbEntity
  8
1
  6
Continuous
 62
     7
100
AcDbCircle
 10
366.0020386009817
 20
240.4804408797037
 30
0.0
 40
4.278524693823306
100
AcDbArc
 50
-131.7064476568584
 51
-129.4590238339871
  0
ARC
  5
123
330
39
100
AcDbEntity
  8
1
  6
Continuous
 62
     7
100
AcDbCircle
 10
366.1226048061989
 20
240.6269126817489
 30
0.0
 40
4.468235522809983
100
AcDbArc
 50
-129.4590238339888
 51
-127.3071976712691
  0
ARC
  5
124
330
39
100
AcDbEntity
  8
1
  6
Continuous
 62
     7
100
AcDbCircle
 10
366.3752852278085
 20
240.9585167218978
 30
0.0
 40
4.885139150652048
100
AcDbArc
 50
-127.3071976712687
 51
-125.338788432371
  0
ARC
  5
125
330
39
100
AcDbEntity
  8
1
  6
Continuous
 62
     7
100
AcDbCircle
 10
366.5125078860826
 20
241.1520452936678
 30
0.0
 40
5.122380306514851
100
AcDbArc
 50
-125.3387884323711
 51
-123.4614374476545
  0
ARC
  5
126
330
39
100
AcDbEntity
  8
1
  6
Continuous
 62
     7
100
AcDbCircle
 10
366.8010809280002
 20
241.5886698086846
 30
0.0
 40
5.645749552492657
100
AcDbArc
 50
-123.4614374476551
 51
-121.6644939278787
  0
ARC
  5
127
330
39
100
AcDbEntity
  8
1
  6
Continuous
 62
     7
100
AcDbCircle
 10
366.8846525500073
 20
241.724171544623
 30
0.0
 40
5.804950483542703
100
AcDbArc
 50
-121.6644939278781
 51
-119.8259169526159
  0
ARC
  5
128
330
39
100
AcDbEntity
  8
1
  6
Continuous
 62
     7
100
AcDbCircle
 10
367.1264456185681
 20
242.1459235607422
 30
0.0
 40
6.29109722178602
100
AcDbArc
 50
-119.8259169526164
 51
-118.1295101808814
  0
ARC
  5
129
330
39
100
AcDbEntity
  8
1
  6
Continuous
 62
     7
100
AcDbCircle
 10
367.2184774103776
 20
242.3180703363337
 30
0.0
 40
6.486300610717084
100
AcDbArc
 50
-118.1295101808812
 51
-116.4840508782073
  0
ARC
  5
12A
330
39
100
AcDbEntity
  8
1
  6
Continuous
 62
     7
100
AcDbCircle
 10
367.4869752041276
 20
242.8569692126133
 30
0.0
 40
7.08838288425139
100
AcDbArc
 50
-116.4840508782074
 51
-114.9783118597867
  0
ARC
  5
12B
330
39
100
AcDbEntity
  8
1
  6
Continuous
 62
     7
100
AcDbCircle
 10
367.583995546335
 20
243.0652357952552
 30
0.0
 40
7.318139094716545
100
AcDbArc
 50
-114.9783118597858
 51
-113.4541068539943
  0
ARC
  5
12C
330
39
100
AcDbEntity
  8
1
  6
Continuous
 62
     7
100
AcDbCircle
 10
367.8035378214704
 20
243.5712564735323
 30
0.0
 40
7.8697329103235
100
AcDbArc
 50
-113.4541068539944
 51
-111.9756720140834
  0
ARC
  5
12D
330
39
100
AcDbEntity
  8
1
  6
Continuous
 62
     7
100
AcDbCircle
 10
367.8422516473933
 20
243.6671938166234
 30
0.0
 40
7.973186929660346
100
AcDbArc
 50
-111.9756720140847
 51
-110.5164607126105
  0
ARC
  5
12E
330
39
100
AcDbEntity
  8
1
  6
Continuous
 62
     7
100
AcDbCircle
 10
368.0671191458487
 20
244.2681029186732
 30
0.0
 40
8.614792058059376
100
AcDbArc
 50
-110.5164607126099
 51
-109.1658824634696
  0
ARC
  5
12F
330
39
100
AcDbEntity
  8
1
  6
Continuous
 62
     7
100
AcDbCircle
 10
368.1047766855202
 20
244.3764483301434
 30
0.0
 40
8.729495233607192
100
AcDbArc
 50
-109.165882463469
 51
-107.8330251184242
  0
ARC
  5
130
330
39
100
AcDbEntity
  8
1
  6
Continuous
 62
     7
100
AcDbCircle
 10
368.3334678514256
 20
245.0873298729348
 30
0.0
 40
9.476256385010029
100
AcDbArc
 50
-107.8330251184246
 51
-106.5637890373066
  0
ARC
  5
131
330
39
100
AcDbEntity
  8
1
  6
Continuous
 62
     7
100
AcDbCircle
 10
368.3244534587467
 20
245.0570217434546
 30
0.0
 40
9.444636106896963
100
AcDbArc
 50
-106.5637890373064
 51
-105.2487790992226
  0
ARC
  5
132
330
39
100
AcDbEntity
  8
1
  6
Continuous
 62
     7
100
AcDbCircle
 10
368.4969351979655
 20
245.6897305653002
 30
0.0
 40
10.10043363937573
100
AcDbArc
 50
-105.2487790992226
 51
-104.0191720213339
  0
ARC
  5
133
330
39
100
AcDbEntity
  8
1
  6
Continuous
 62
     7
100
AcDbCircle
 10
368.4867373627816
 20
245.648887508851
 30
0.0
 40
10.05833671427955
100
AcDbArc
 50
-104.0191720213339
 51
-102.7843930443596
  0
ARC
  5
134
330
39
100
AcDbEntity
  8
1
  6
Continuous
 62
     7
100
AcDbCircle
 10
368.649972103917
 20
246.3682748725209
 30
0.0
 40
10.79601127648264
100
AcDbArc
 50
-102.7843930443595
 51
-101.6339739860469
  0
ARC
  5
135
330
39
100
AcDbEntity
  8
1
  6
Continuous
 62
     7
100
AcDbCircle
 10
368.6563558235671
 20
246.3992805793018
 30
0.0
 40
10.82766733008306
100
AcDbArc
 50
-101.6339739860468
 51
-99.86240874690019
  0
ARC
  5
136
330
39
100
AcDbEntity
  8
1
  6
Continuous
 62
     7
100
AcDbCircle
 10
368.7689000571803
 20
247.0466373661758
 30
0.0
 40
11.48473430842794
100
AcDbArc
 50
-99.86240874690014
 51
-97.60346583758521
  0
ARC
  5
137
330
39
100
AcDbEntity
  8
1
  6
Continuous
 62
     7
100
AcDbCircle
 10
368.7995193415929
 20
247.2760123887836
 30
0.0
 40
11.71614399183454
100
AcDbArc
 50
-97.60346583758515
 51
-95.38910892489788
  0
ARC
  5
138
330
39
100
AcDbEntity
  8
1
  6
Continuous
 62
     7
100
AcDbCircle
 10
368.8513726351357
 20
247.8256781103769
 30
0.0
 40
12.26825011346868
100
AcDbArc
 50
-95.38910892489798
 51
-90.52673844208286
  0
ARC
  5
139
330
39
100
AcDbEntity
  8
1
  6
Continuous
 62
     7
100
AcDbCircle
 10
368.8449970218441
 20
230.581760039007
 30
0.0
 40
12.1171832637501
100
AcDbArc
 50
89.95615596556435
 51
96.49677318269208
  0
ARC
  5
13A
330
39
100
AcDbEntity
  8
1
  6
Continuous
 62
     7
100
AcDbCircle
 10
368.7998079083137
 20
230.9785784913179
 30
0.0
 40
11.71780006420845
100
AcDbArc
 50
96.49677318269214
 51
98.71080143097031
  0
ARC
  5
13B
330
39
100
AcDbEntity
  8
1
  6
Continuous
 62
     7
100
AcDbCircle
 10
368.6995000639093
 20
231.6332677110644
 30
0.0
 40
11.0554711141381
100
AcDbArc
 50
98.71080143097022
 51
101.0574916643671
  0
ARC
  5
13C
330
39
100
AcDbEntity
  8
1
  6
Continuous
 62
     7
100
AcDbCircle
 10
368.6684618922225
 20
231.7920942321736
 30
0.0
 40
10.89364023973728
100
AcDbArc
 50
101.0574916643675
 51
102.1975878865731
  0
ARC
  5
13D
330
39
100
AcDbEntity
  8
1
  6
Continuous
 62
     7
100
AcDbCircle
 10
368.5427703711085
 20
232.3735590542754
 30
0.0
 40
10.29874554500406
100
AcDbArc
 50
102.1975878865726
 51
103.4035534297092
  0
ARC
  5
13E
330
39
100
AcDbEntity
  8
1
  6
Continuous
 62
     7
100
AcDbCircle
 10
368.5178088152113
 20
232.4783078816137
 30
0.0
 40
10.19106362404435
100
AcDbArc
 50
103.4035534297093
 51
104.6222356444781
  0
ARC
  5
13F
330
39
100
AcDbEntity
  8
1
  6
Continuous
 62
     7
100
AcDbCircle
 10
368.3836846790772
 20
232.9924003818074
 30
0.0
 40
9.659762972200975
100
AcDbArc
 50
104.622235644478
 51
105.9079391252785
  0
ARC
  5
140
330
39
100
AcDbEntity
  8
1
  6
Continuous
 62
     7
100
AcDbCircle
 10
368.3381411460408
 20
233.152198155265
 30
0.0
 40
9.493601779970575
100
AcDbArc
 50
105.9079391252789
 51
107.8289763758412
  0
ARC
  5
141
330
39
100
AcDbEntity
  8
1
  6
Continuous
 62
     7
100
AcDbCircle
 10
368.0880504145832
 20
233.9297882603437
 30
0.0
 40
8.676783718541193
100
AcDbArc
 50
107.8289763758409
 51
109.1699312060527
  0
ARC
  5
142
330
39
100
AcDbEntity
  8
1
  6
Continuous
 62
     7
100
AcDbCircle
 10
368.0847562177701
 20
233.9392639138173
 30
0.0
 40
8.666751782467085
100
AcDbArc
 50
109.1699312060524
 51
110.512411970026
  0
ARC
  5
143
330
39
100
AcDbEntity
  8
1
  6
Continuous
 62
     7
100
AcDbCircle
 10
367.8263064629581
 20
234.6300629444936
 30
0.0
 40
7.929188512946617
100
AcDbArc
 50
110.5124119700256
 51
111.9797207566662
  0
ARC
  5
144
330
39
100
AcDbEntity
  8
1
  6
Continuous
 62
     7
100
AcDbCircle
 10
367.8202740023347
 20
234.6450090368462
 30
0.0
 40
7.913070936894896
100
AcDbArc
 50
111.9797207566664
 51
113.4500581114113
  0
ARC
  5
145
330
39
100
AcDbEntity
  8
1
  6
Continuous
 62
     7
100
AcDbCircle
 10
367.5681321979927
 20
235.2262805171656
 30
0.0
 40
7.279468519499237
100
AcDbArc
 50
113.4500581114118
 51
114.982360602369
  0
ARC
  5
146
330
39
100
AcDbEntity
  8
1
  6
Continuous
 62
     7
100
AcDbCircle
 10
367.503614732956
 20
235.3647499504071
 30
0.0
 40
7.126706327720791
100
AcDbArc
 50
114.9823606023697
 51
116.4800021356249
  0
ARC
  5
147
330
39
100
AcDbEntity
  8
1
  6
Continuous
 62
     7
100
AcDbCircle
 10
367.2039052571515
 20
235.9663999495737
 30
0.0
 40
6.454539316194363
100
AcDbArc
 50
116.4800021356242
 51
118.1335589234629
  0
ARC
  5
148
330
39
100
AcDbEntity
  8
1
  6
Continuous
 62
     7
100
AcDbCircle
 10
367.1410642459016
 20
236.0839249801429
 30
0.0
 40
6.321268443513355
100
AcDbArc
 50
118.1335589234629
 51
119.8218682100326
  0
ARC
  5
149
330
39
100
AcDbEntity
  8
1
  6
Continuous
 62
     7
100
AcDbCircle
 10
366.8716392942901
 20
236.5539513900945
 30
0.0
 40
5.779498537923447
100
AcDbArc
 50
119.8218682100324
 51
121.6685426704619
  0
ARC
  5
14A
330
39
100
AcDbEntity
  8
1
  6
Continuous
 62
     7
100
AcDbCircle
 10
366.8148365815489
 20
236.6460358660594
 30
0.0
 40
5.671303811210371
100
AcDbArc
 50
121.6685426704611
 51
123.4573887050706
  0
ARC
  5
14B
330
39
100
AcDbEntity
  8
1
  6
Continuous
 62
     7
100
AcDbCircle
 10
366.4557213843638
 20
237.1894774427657
 30
0.0
 40
5.019926445820553
100
AcDbArc
 50
123.4573887050713
 51
124.4152098167253
  0
ARC
  5
14C
330
39
100
AcDbEntity
  8
1
  6
Continuous
 62
     7
100
AcDbCircle
 10
366.54258404964
 20
237.0626899334314
 30
0.0
 40
5.173615076311143
100
AcDbArc
 50
124.415209816725
 51
126.273952796523
  0
ARC
  5
14D
330
39
100
AcDbEntity
  8
1
  6
Continuous
 62
     7
100
AcDbCircle
 10
366.1605851450914
 20
237.5832142262526
 30
0.0
 40
4.52796137463083
100
AcDbArc
 50
126.273952796523
 51
128.397505004334
  0
ARC
  5
14E
330
39
100
AcDbEntity
  8
1
  6
Continuous
 62
     7
100
AcDbCircle
 10
366.1443398084319
 20
237.6037125736779
 30
0.0
 40
4.501806199036877
100
AcDbArc
 50
128.3975050043355
 51
130.5332751770278
  0
ARC
  5
14F
330
39
100
AcDbEntity
  8
1
  6
Continuous
 62
     7
100
AcDbCircle
 10
365.818791617924
 20
237.9844325818079
 30
0.0
 40
4.000877712191392
100
AcDbArc
 50
130.5332751770264
 51
132.937167076027
  0
ARC
  5
150
330
39
100
AcDbEntity
  8
1
  6
Continuous
 62
     7
100
AcDbCircle
 10
365.7938783653716
 20
238.0112075827441
 30
0.0
 40
3.964304896769537
100
AcDbArc
 50
132.9371670760278
 51
135.1016581317804
  0
ARC
  5
151
330
39
100
AcDbEntity
  8
1
  6
Continuous
 62
     7
100
AcDbCircle
 10
365.4419615528798
 20
238.3618778154356
 30
0.0
 40
3.467500050768412
100
AcDbArc
 50
135.1016581317783
 51
137.5766003475903
  0
ARC
  5
152
330
39
100
AcDbEntity
  8
1
  6
Continuous
 62
     7
100
AcDbCircle
 10
365.3961976193808
 20
238.403700315732
 30
0.0
 40
3.405504412693186
100
AcDbArc
 50
137.5766003475919
 51
140.096070723123
  0
ARC
  5
153
330
39
100
AcDbEntity
  8
1
  6
Continuous
 62
     7
100
AcDbCircle
 10
365.0999334251286
 20
238.6514501556709
 30
0.0
 40
3.019301802674092
100
AcDbArc
 50
140.0960707231219
 51
142.9375036232092
  0
ARC
  5
154
330
39
100
AcDbEntity
  8
1
  6
Continuous
 62
     7
100
AcDbCircle
 10
365.0581216263511
 20
238.6830291694064
 30
0.0
 40
2.966904659378725
100
AcDbArc
 50
142.9375036232113
 51
145.830302898064
  0
ARC
  5
155
330
39
100
AcDbEntity
  8
1
  6
Continuous
 62
     7
100
AcDbCircle
 10
364.8083538587091
 20
238.852578129484
 30
0.0
 40
2.665025896269502
100
AcDbArc
 50
145.8303028980611
 51
148.7291301953091
  0
ARC
  5
156
330
39
100
AcDbEntity
  8
1
  6
Continuous
 62
     7
100
AcDbCircle
 10
364.7881250464075
 20
238.8648633578129
 30
0.0
 40
2.641358795006023
100
AcDbArc
 50
148.7291301953104
 51
151.6546868768904
  0
ARC
  5
157
330
39
100
AcDbEntity
  8
1
  6
Continuous
 62
     7
100
AcDbCircle
 10
364.5507887875131
 20
238.9928979889496
 30
0.0
 40
2.371689800576933
100
AcDbArc
 50
151.6546868768885
 51
154.9119595528015
  0
ARC
  5
158
330
39
100
AcDbEntity
  8
1
  6
Continuous
 62
     7
100
AcDbCircle
 10
364.5170995026027
 20
239.0086706288722
 30
0.0
 40
2.334491089740484
100
AcDbArc
 50
154.9119595528023
 51
158.2199681822733
  0
ARC
  5
159
330
39
100
AcDbEntity
  8
1
  6
Continuous
 62
     7
100
AcDbCircle
 10
364.3107632015637
 20
239.0911158585222
 30
0.0
 40
2.11229323867408
100
AcDbArc
 50
158.2199681822759
 51
161.8767361300594
  0
ARC
  5
15A
330
39
100
AcDbEntity
  8
1
  6
Continuous
 62
     7
100
AcDbCircle
 10
364.2889046005269
 20
239.0982701753457
 30
0.0
 40
2.089293615014058
100
AcDbArc
 50
161.8767361300622
 51
168.7976217525944
  0
ARC
  5
15B
330
39
100
AcDbEntity
  8
1
  6
Continuous
 62
     7
100
AcDbCircle
 10
364.1614815982237
 20
239.123506105738
 30
0.0
 40
1.959395679315667
100
AcDbArc
 50
168.7976217525884
 51
174.3329218835749
  0
ARC
  5
15C
330
39
100
AcDbEntity
  8
1
  6
Continuous
 62
     7
100
AcDbCircle
 10
364.156486368746
 20
239.1240017972594
 30
0.0
 40
1.954375915614177
100
AcDbArc
 50
174.3329218835758
 51
178.0306705209274
  0
ARC
  5
15D
330
39
100
AcDbEntity
  8
1
  6
Continuous
 62
     7
100
AcDbCircle
 10
364.0022095067494
 20
239.1293065801773
 30
0.0
 40
1.800007878542553
100
AcDbArc
 50
178.0306705209322
 51
-179.9623169177508
  0
ARC
  5
15E
330
39
100
AcDbEntity
  8
1
  6
Continuous
 62
     7
100
AcDbCircle
 10
368.8520336398969
 20
247.8975766335528
 30
0.0
 40
12.34015167508016
100
AcDbArc
 50
-90.52673844208253
 51
-89.98961944423097
  0
SPLINE
  5
15F
330
39
100
AcDbEntity
  8
0
  6
Continuous
 62
     7
100
AcDbSpline
210
0.0
220
0.0
230
1.0
 70
    11
 71
     3
 72
    79
 73
    75
 74
    73
 42
0.0000000001
 43
0.0000000001
 44
0.00000001
 40
0.0
 40
0.0
 40
0.0
 40
0.0
 40
0.2910229153818854
 40
0.5820342278737805
 40
0.874933933436379
 40
1.167812547519327
 40
1.463561188767333
 40
1.759282806464798
 40
2.058487811140719
 40
2.357663885605944
 40
2.660503341347689
 40
2.963315625194792
 40
3.269530826276678
 40
3.575723468843922
 40
3.884662744191526
 40
4.193586027919183
 40
4.504289085610878
 40
4.814983882015442
 40
5.126294430971175
 40
5.437604979926963
 40
5.748299776331633
 40
6.0590028340233
 40
6.367926117750929
 40
6.676865393098507
 40
6.9830580356657
 40
7.289273236747561
 40
7.592085520594664
 40
7.894924976336416
 40
8.194101050801621
 40
8.493306055477479
 40
8.789027673175053
 40
9.08477631442296
 40
9.377654928505844
 40
9.67055463406856
 40
9.961565946560505
 40
10.25258886194235
 40
10.54295309984928
 40
10.83331733775632
 40
11.12434025313816
 40
11.41535156563019
 40
11.70825127119293
 40
12.00112988527572
 40
12.29687852652367
 40
12.59260014422122
 40
12.89180514889712
 40
13.19098122336236
 40
13.49382067910401
 40
13.79663296295104
 40
14.10284816403283
 40
14.40904080660012
 40
14.71798008194778
 40
15.02690336567543
 40
15.33760642336709
 40
15.64830121977175
 40
15.95961176872754
 40
16.27092231768333
 40
16.581617114088
 40
16.89232017177959
 40
17.20124345550722
 40
17.51018273085488
 40
17.81637537342214
 40
18.12259057450403
 40
18.42540285835102
 40
18.72824231409269
 40
19.02741838855783
 40
19.32662339323381
 40
19.62234501093143
 40
19.91809365217939
 40
20.21097226626232
 40
20.50387197182493
 40
20.79488328431687
 40
21.08590619969871
 40
21.37627043760575
 40
21.66663467551279
 40
21.66663467551279
 40
21.66663467551279
 40
21.66663467551279
 10
380.6885815635703
 20
242.6851919775385
 30
0.0
 10
380.5922065048534
 20
242.6735163097373
 30
0.0
 10
380.3994602298288
 20
242.6501654396357
 30
0.0
 10
380.1155237205641
 20
242.5808094461851
 30
0.0
 10
379.8382594547052
 20
242.4873666886095
 30
0.0
 10
379.5695070708551
 20
242.3674597026325
 30
0.0
 10
379.3118616873354
 20
242.2234141974453
 30
0.0
 10
379.0666347401007
 20
242.0553475965998
 30
0.0
 10
378.8363713840436
 20
241.8655128635258
 30
0.0
 10
378.6221391755276
 20
241.6543767348584
 30
0.0
 10
378.4261847467647
 20
241.4245971312246
 30
0.0
 10
378.249427403144
 20
241.1768685990002
 30
0.0
 10
378.0936565691769
 20
240.9141363591663
 30
0.0
 10
377.9596881518078
 20
240.6373853475245
 30
0.0
 10
377.8487651205225
 20
240.3496533697609
 30
0.0
 10
377.7615883281509
 20
240.0522999233381
 30
0.0
 10
377.6988403180581
 20
239.748253927195
 30
0.0
 10
377.661039938846
 20
239.4393123314409
 30
0.0
 10
377.6483628653576
 20
239.1281227261384
 30
0.0
 10
377.6610399388454
 20
238.81693312083
 30
0.0
 10
377.6988403180594
 20
238.5079915250929
 30
0.0
 10
377.7615883281466
 20
238.203945528888
 30
0.0
 10
377.8487651205395
 20
237.9065920826942
 30
0.0
 10
377.9596881517448
 20
237.6188601040795
 30
0.0
 10
378.0936565694102
 20
237.3421090955874
 30
0.0
 10
378.2494274022776
 20
237.0793768440632
 30
0.0
 10
378.4261847499589
 20
236.8316483550049
 30
0.0
 10
378.6221391636621
 20
236.6018685912841
 30
0.0
 10
378.8363714277331
 20
236.3907330531762
 30
0.0
 10
379.0666345777676
 20
236.2008961300485
 30
0.0
 10
379.3118622853627
 20
236.0328376119538
 30
0.0
 10
379.569504847042
 20
235.8887621101607
 30
0.0
 10
379.8382676649335
 20
235.7689660396812
 30
0.0
 10
380.1154931506257
 20
235.67511104284
 30
0.0
 10
380.3995735041284
 20
235.6072841362501
 30
0.0
 10
380.6879409846414
 20
235.5665891746265
 30
0.0
 10
380.9786250183207
 20
235.5528233810614
 30
0.0
 10
381.2693090520004
 20
235.5665891746262
 30
0.0
 10
381.5576765325134
 20
235.60728413625
 30
0.0
 10
381.8417568860159
 20
235.6751110428399
 30
0.0
 10
382.1189823717083
 20
235.7689660396812
 30
0.0
 10
382.3877451895995
 20
235.888762110161
 30
0.0
 10
382.645387751279
 20
236.0328376119537
 30
0.0
 10
382.8906154588741
 20
236.2008961300487
 30
0.0
 10
383.1208786089086
 20
236.3907330531764
 30
0.0
 10
383.3351108729796
 20
236.6018685912841
 30
0.0
 10
383.5310652866828
 20
236.8316483550048
 30
0.0
 10
383.7078226343643
 20
237.079376844063
 30
0.0
 10
383.8635934672316
 20
237.3421090955873
 30
0.0
 10
383.997561884897
 20
237.6188601040793
 30
0.0
 10
384.1084849161023
 20
237.9065920826942
 30
0.0
 10
384.1956617084953
 20
238.203945528888
 30
0.0
 10
384.2584097185823
 20
238.5079915250928
 30
0.0
 10
384.2962100977962
 20
238.8169331208303
 30
0.0
 10
384.308887171284
 20
239.1281227261375
 30
0.0
 10
384.2962100977961
 20
239.4393123314442
 30
0.0
 10
384.2584097185824
 20
239.748253927183
 30
0.0
 10
384.1956617084956
 20
240.0522999233833
 30
0.0
 10
384.1084849161011
 20
240.3496533695935
 30
0.0
 10
383.9975618849015
 20
240.6373853481473
 30
0.0
 10
383.8635934672149
 20
240.9141363568653
 30
0.0
 10
383.7078226344264
 20
241.1768686075512
 30
0.0
 10
383.5310652864536
 20
241.4245970997049
 30
0.0
 10
383.3351108738307
 20
241.6543768519451
 30
0.0
 10
383.1208786057753
 20
241.8655124324047
 30
0.0
 10
382.8906154705159
 20
242.0553491984733
 30
0.0
 10
382.6453877083916
 20
242.2234082962206
 30
0.0
 10
382.3877453490799
 20
242.3674816468146
 30
0.0
 10
382.1189817829137
 20
242.4872856715713
 30
0.0
 10
381.8417590783315
 20
242.5811111047767
 30
0.0
 10
381.5576684090753
 20
242.6490476694486
 30
0.0
 10
381.2693393480041
 20
242.6893342263652
 30
0.0
 10
380.9785122353383
 20
242.7046209720494
 30
0.0
 10
380.7852251208263
 20
242.6916683090421
 30
0.0
 10
380.6885815635703
 20
242.6851919775386
 30
0.0
 11
380.6885815635703
 21
242.6851919775385
 31
0.0
 11
380.4004220672954
 21
242.6444680044521
 31
0.0
 11
380.1173398609129
 21
242.5769991343868
 31
0.0
 11
379.8399158183692
 21
242.483051605748
 31
0.0
 11
379.5723540662517
 21
242.3639357319486
 31
0.0
 11
379.3142216975365
 21
242.2195926024914
 31
0.0
 11
379.0702090449254
 21
242.0525324320757
 31
0.0
 11
378.8393295393946
 21
241.8622214004749
 31
0.0
 11
378.6261542444434
 21
241.6523104261194
 31
0.0
 11
378.4296199204351
 21
241.4219064429929
 31
0.0
 11
378.2536463846354
 21
241.1754747203051
 31
0.0
 11
378.0974492441626
 21
240.9120924834672
 31
0.0
 11
377.9639535561984
 21
240.6365333506894
 31
0.0
 11
377.8528036306412
 21
240.3482814297921
 31
0.0
 11
377.7658269766149
 21
240.0518549517517
 31
0.0
 11
377.7030219022934
 21
239.7475657592088
 31
0.0
 11
377.6652465406218
 21
239.4391759432883
 31
0.0
 11
377.6525913444082
 21
239.1281227261374
 31
0.0
 11
377.6652465406218
 21
238.8170695089865
 31
0.0
 11
377.7030219022935
 21
238.5086796930659
 31
0.0
 11
377.765826976615
 21
238.204390500523
 31
0.0
 11
377.8528036306414
 21
237.9079640224826
 31
0.0
 11
377.9639535561985
 21
237.6197121015854
 31
0.0
 11
378.0974492441627
 21
237.3441529688076
 31
0.0
 11
378.2536463846355
 21
237.0807707319697
 31
0.0
 11
378.4296199204351
 21
236.8343390092819
 31
0.0
 11
378.6261542444434
 21
236.6039350261554
 31
0.0
 11
378.8393295393946
 21
236.3940240517999
 31
0.0
 11
379.0702090449254
 21
236.2037130201991
 31
0.0
 11
379.3142216975366
 21
236.0366528497835
 31
0.0
 11
379.5723540662517
 21
235.8923097203262
 31
0.0
 11
379.8399158183691
 21
235.7731938465269
 31
0.0
 11
380.117339860913
 21
235.6792463178881
 31
0.0
 11
380.4004220672955
 21
235.6117774478228
 31
0.0
 11
380.6885815635704
 21
235.5710534747363
 31
0.0
 11
380.9786250183208
 21
235.557408511866
 31
0.0
 11
381.2686684730713
 21
235.5710534747362
 31
0.0
 11
381.5568279693462
 21
235.6117774478227
 31
0.0
 11
381.8399101757287
 21
235.6792463178881
 31
0.0
 11
382.1173342182726
 21
235.773193846527
 31
0.0
 11
382.3848959703899
 21
235.8923097203264
 31
0.0
 11
382.6430283391051
 21
236.0366528497835
 31
0.0
 11
382.8870409917162
 21
236.2037130201993
 31
0.0
 11
383.117920497247
 21
236.3940240518
 31
0.0
 11
383.3310957921983
 21
236.6039350261555
 31
0.0
 11
383.5276301162066
 21
236.8343390092819
 31
0.0
 11
383.7036036520062
 21
237.0807707319696
 31
0.0
 11
383.859800792479
 21
237.3441529688074
 31
0.0
 11
383.9932964804433
 21
237.6197121015853
 31
0.0
 11
384.1044464060004
 21
237.9079640224826
 31
0.0
 11
384.1914230600268
 21
238.204390500523
 31
0.0
 11
384.2542281343482
 21
238.5086796930659
 31
0.0
 11
384.2920034960198
 21
238.8170695089865
 31
0.0
 11
384.3046586922334
 21
239.1281227261374
 31
0.0
 11
384.2920034960198
 21
239.4391759432884
 31
0.0
 11
384.2542281343483
 21
239.7475657592089
 31
0.0
 11
384.1914230600268
 21
240.0518549517518
 31
0.0
 11
384.1044464060004
 21
240.3482814297922
 31
0.0
 11
383.9932964804433
 21
240.6365333506895
 31
0.0
 11
383.8598007924791
 21
240.9120924834674
 31
0.0
 11
383.7036036520062
 21
241.1754747203052
 31
0.0
 11
383.5276301162066
 21
241.4219064429929
 31
0.0
 11
383.3310957921983
 21
241.6523104261193
 31
0.0
 11
383.1179204972471
 21
241.8622214004747
 31
0.0
 11
382.8870409917163
 21
242.0525324320756
 31
0.0
 11
382.6430283391051
 21
242.2195926024914
 31
0.0
 11
382.38489597039
 21
242.3639357319486
 31
0.0
 11
382.1173342182725
 21
242.483051605748
 31
0.0
 11
381.8399101757287
 21
242.5769991343868
 31
0.0
 11
381.5568279693462
 21
242.6444680044521
 31
0.0
 11
381.2686684730713
 21
242.6851919775385
 31
0.0
 11
380.9786250183208
 21
242.6988369404088
 31
0.0
 11
380.6885815635703
 21
242.6851919775386
 31
0.0
  0
SPLINE
  5
160
330
39
100
AcDbEntity
  8
0
  6
Continuous
 62
     7
100
AcDbSpline
210
0.0
220
0.0
230
1.0
 70
    11
 71
     3
 72
    79
 73
    75
 74
    73
 42
0.0000000001
 43
0.0000000001
 44
0.00000001
 40
0.0
 40
0.0
 40
0.0
 40
0.0
 40
0.2910226481322102
 40
0.5820336931961854
 40
0.8749331567806129
 40
1.167811528571248
 40
1.463559965877787
 40
1.759281379250708
 40
2.058486225631714
 40
2.357662141416111
 40
2.660501486293597
 40
2.963313658936934
 40
3.269528792707325
 40
3.575721367698403
 40
3.884660610540086
 40
4.193583861583592
 40
4.504286909150213
 40
4.814981695340866
 40
5.126292241857549
 40
5.437602788374261
 40
5.748297574564837
 40
6.059000622131335
 40
6.367923873174787
 40
6.676863116016523
 40
6.983055691007678
 40
7.289270824778138
 40
7.592082997421521
 40
7.894922342298985
 40
8.194098258083322
 40
8.493303104464363
 40
8.789024517837346
 40
9.084772955143921
 40
9.377651326934469
 40
9.670550790518862
 40
9.961561835582911
 40
10.25258448371513
 40
10.54294844545441
 40
10.83331240719375
 40
11.12433505532592
 40
11.4153461003899
 40
11.70824556397425
 40
12.00112393576485
 40
12.29687237307135
 40
12.5925937864443
 40
12.89179863282537
 40
13.19097454860979
 40
13.49381389348731
 40
13.79662606613069
 40
14.10284119990105
 40
14.4090337748921
 40
14.71797301773384
 40
15.0268962687774
 40
15.33759931634396
 40
15.64829410253464
 40
15.95960464905133
 40
16.27091519556795
 40
16.58160998175864
 40
16.89231302932527
 40
17.2012362803688
 40
17.51017552321051
 40
17.81636809820153
 40
18.12258323197195
 40
18.42539540461526
 40
18.72823474949275
 40
19.02741066527709
 40
19.32661551165813
 40
19.62233692503121
 40
19.91808536233774
 40
20.21096373412824
 40
20.50386319771262
 40
20.79487424277654
 40
21.08589689090871
 40
21.37626085264811
 40
21.6666248143874
 40
21.6666248143874
 40
21.6666248143874
 40
21.6666248143874
 10
357.0199568906123
 20
242.6851919770816
 30
0.0
 10
357.1163318596199
 20
242.6735163088528
 30
0.0
 10
357.3090779551665
 20
242.6501654379038
 30
0.0
 10
357.5930141976496
 20
242.5808094409312
 30
0.0
 10
357.870278198678
 20
242.4873666814317
 30
0.0
 10
358.1390303293049
 20
242.3674596903686
 30
0.0
 10
358.3966754636057
 20
242.2234141835187
 30
0.0
 10
358.6419021781421
 20
242.0553475772096
 30
0.0
 10
358.8721653087856
 20
241.8655128439627
 30
0.0
 10
359.0863973122278
 20
241.6543767106812
 30
0.0
 10
359.2823515472727
 20
241.4245971089643
 30
0.0
 10
359.4591087201924
 20
241.1768685739144
 30
0.0
 10
359.6148793990965
 20
240.9141363379865
 30
0.0
 10
359.7488476860785
 20
240.6373853258032
 30
0.0
 10
359.8597706064728
 20
240.3496533532988
 30
0.0
 10
359.9469473135229
 20
240.0522999086689
 30
0.0
 10
360.0096952606789
 20
239.7482539182238
 30
0.0
 10
360.0474956029262
 20
239.4393123262678
 30
0.0
 10
360.0601726633737
 20
239.1281227261384
 30
0.0
 10
360.0474956029265
 20
238.8169331260032
 30
0.0
 10
360.0096952606777
 20
238.5079915340643
 30
0.0
 10
359.9469473135274
 20
238.2039455435574
 30
0.0
 10
359.859770606456
 20
237.9065920991565
 30
0.0
 10
359.7488476861415
 20
237.6188601258009
 30
0.0
 10
359.6148793988633
 20
237.3421091167673
 30
0.0
 10
359.459108721059
 20
237.0793768691489
 30
0.0
 10
359.2823515440786
 20
236.8316483772651
 30
0.0
 10
359.0863973240935
 20
236.6018686154612
 30
0.0
 10
358.8721652650958
 20
236.3907330727395
 30
0.0
 10
358.6419023404755
 20
236.2008961494378
 30
0.0
 10
358.3966748655776
 20
236.0328376258825
 30
0.0
 10
358.1390325531207
 20
235.8887621224178
 30
0.0
 10
357.8702699884407
 20
235.7689660468715
 30
0.0
 10
357.5930447676212
 20
235.6751110480585
 30
0.0
 10
357.308964680755
 20
235.6072841379887
 30
0.0
 10
357.0205974729063
 20
235.5665891754852
 30
0.0
 10
356.7299137123564
 20
235.5528233807079
 30
0.0
 10
356.4392299518068
 20
235.566589175485
 30
0.0
 10
356.1508627439579
 20
235.6072841379888
 30
0.0
 10
355.8667826570919
 20
235.6751110480585
 30
0.0
 10
355.5895574362722
 20
235.7689660468715
 30
0.0
 10
355.3207948715925
 20
235.8887621224178
 30
0.0
 10
355.0631525591356
 20
236.0328376258825
 30
0.0
 10
354.8179250842377
 20
236.2008961494377
 30
0.0
 10
354.587662159617
 20
236.3907330727395
 30
0.0
 10
354.3734301006197
 20
236.6018686154611
 30
0.0
 10
354.1774758806345
 20
236.8316483772652
 30
0.0
 10
354.0007187036541
 20
237.0793768691489
 30
0.0
 10
353.8449480258496
 20
237.3421091167671
 30
0.0
 10
353.7109797385715
 20
237.6188601258008
 30
0.0
 10
353.6000568182569
 20
237.9065920991563
 30
0.0
 10
353.5128801111856
 20
238.2039455435573
 30
0.0
 10
353.4501321640353
 20
238.5079915340641
 30
0.0
 10
353.4123318217866
 20
238.8169331260035
 30
0.0
 10
353.3996547613393
 20
239.1281227261375
 30
0.0
 10
353.4123318217864
 20
239.4393123262711
 30
0.0
 10
353.4501321640352
 20
239.7482539182117
 30
0.0
 10
353.5128801111854
 20
240.0522999087141
 30
0.0
 10
353.6000568182582
 20
240.3496533531314
 30
0.0
 10
353.7109797385671
 20
240.6373853264259
 30
0.0
 10
353.8449480258664
 20
240.9141363356855
 30
0.0
 10
354.0007187035918
 20
241.1768685824652
 30
0.0
 10
354.1774758808637
 20
241.4245970774447
 30
0.0
 10
354.3734300997688
 20
241.654376827768
 30
0.0
 10
354.5876621627502
 20
241.8655124128416
 30
0.0
 10
354.8179250725959
 20
242.055349179084
 30
0.0
 10
355.063152602023
 20
242.2234082822919
 30
0.0
 10
355.320794712112
 20
242.3674816345569
 30
0.0
 10
355.5895580250676
 20
242.4872856643819
 30
0.0
 10
355.866780464774
 20
242.5811110995558
 30
0.0
 10
356.150870867404
 20
242.6490476677088
 30
0.0
 10
356.4391996557737
 20
242.6893342255131
 30
0.0
 10
356.7300264954436
 20
242.7046209723347
 30
0.0
 10
356.9233134255562
 20
242.6916683088326
 30
0.0
 10
357.0199568906123
 20
242.6851919770816
 30
0.0
 11
357.0199568906123
 21
242.6851919770816
 31
0.0
 11
357.3081161167978
 21
242.6444680026922
 31
0.0
 11
357.5911980481918
 21
242.5769991323336
 31
0.0
 11
357.8686218338048
 21
242.4830515994006
 31
0.0
 11
358.1361833214658
 21
242.3639357273123
 31
0.0
 11
358.3943154523901
 21
242.219592590469
 31
0.0
 11
358.6383278606365
 21
242.0525324248129
 31
0.0
 11
358.8692071531914
 21
241.8622213837058
 31
0.0
 11
359.0823822330646
 21
241.6523104170879
 31
0.0
 11
359.2789163745182
 21
241.4219064239608
 31
0.0
 11
359.4548897324959
 21
241.1754747109386
 31
0.0
 11
359.6110867262969
 21
240.9120924653761
 31
0.0
 11
359.7445822798633
 21
240.6365333425773
 31
0.0
 11
359.8557320996536
 21
240.3482814157352
 31
0.0
 11
359.942708666823
 21
240.0518549462715
 31
0.0
 11
360.0055136804942
 21
239.7475657515489
 31
0.0
 11
360.0432890049115
 21
239.4391759413553
 31
0.0
 11
360.0559441886376
 21
239.1281227261374
 31
0.0
 11
360.0432890049115
 21
238.8170695109195
 31
0.0
 11
360.0055136804942
 21
238.508679700726
 31
0.0
 11
359.942708666823
 21
238.2043905060035
 31
0.0
 11
359.8557320996536
 21
237.9079640365399
 31
0.0
 11
359.7445822798633
 21
237.6197121096977
 31
0.0
 11
359.611086726297
 21
237.3441529868988
 31
0.0
 11
359.454889732496
 21
237.0807707413362
 31
0.0
 11
359.2789163745183
 21
236.8343390283139
 31
0.0
 11
359.0823822330647
 21
236.6039350351869
 31
0.0
 11
358.8692071531915
 21
236.394024068569
 31
0.0
 11
358.6383278606367
 21
236.2037130274618
 31
0.0
 11
358.3943154523901
 21
236.0366528618058
 31
0.0
 11
358.1361833214658
 21
235.8923097249626
 31
0.0
 11
357.8686218338048
 21
235.7731938528743
 31
0.0
 11
357.5911980481919
 21
235.6792463199412
 31
0.0
 11
357.3081161167978
 21
235.6117774495826
 31
0.0
 11
357.0199568906123
 21
235.5710534751931
 31
0.0
 11
356.7299137123565
 21
235.557408511866
 31
0.0
 11
356.4398705341006
 21
235.5710534751931
 31
0.0
 11
356.1517113079152
 21
235.6117774495826
 31
0.0
 11
355.8686293765212
 21
235.6792463199412
 31
0.0
 11
355.5912055909083
 21
235.7731938528743
 31
0.0
 11
355.3236441032473
 21
235.8923097249626
 31
0.0
 11
355.0655119723231
 21
236.0366528618058
 31
0.0
 11
354.8214995640765
 21
236.2037130274617
 31
0.0
 11
354.5906202715216
 21
236.3940240685688
 31
0.0
 11
354.3774451916484
 21
236.6039350351869
 31
0.0
 11
354.1809110501948
 21
236.834339028314
 31
0.0
 11
354.004937692217
 21
237.0807707413362
 31
0.0
 11
353.8487406984161
 21
237.3441529868987
 31
0.0
 11
353.7152451448498
 21
237.6197121096975
 31
0.0
 11
353.6040953250595
 21
237.9079640365397
 31
0.0
 11
353.51711875789
 21
238.2043905060034
 31
0.0
 11
353.4543137442188
 21
238.508679700726
 31
0.0
 11
353.4165384198016
 21
238.8170695109196
 31
0.0
 11
353.4038832360754
 21
239.1281227261374
 31
0.0
 11
353.4165384198014
 21
239.4391759413552
 31
0.0
 11
353.4543137442187
 21
239.7475657515489
 31
0.0
 11
353.51711875789
 21
240.0518549462715
 31
0.0
 11
353.6040953250595
 21
240.3482814157352
 31
0.0
 11
353.7152451448498
 21
240.6365333425773
 31
0.0
 11
353.8487406984161
 21
240.9120924653761
 31
0.0
 11
354.0049376922171
 21
241.1754747109387
 31
0.0
 11
354.1809110501948
 21
241.4219064239608
 31
0.0
 11
354.3774451916484
 21
241.6523104170879
 31
0.0
 11
354.5906202715215
 21
241.8622213837058
 31
0.0
 11
354.8214995640764
 21
242.0525324248129
 31
0.0
 11
355.0655119723231
 21
242.2195925904689
 31
0.0
 11
355.3236441032474
 21
242.3639357273122
 31
0.0
 11
355.5912055909083
 21
242.4830515994005
 31
0.0
 11
355.8686293765212
 21
242.5769991323335
 31
0.0
 11
356.1517113079152
 21
242.6444680026921
 31
0.0
 11
356.4398705341006
 21
242.6851919770816
 31
0.0
 11
356.7299137123565
 21
242.6988369404088
 31
0.0
 11
357.0199568906123
 21
242.6851919770816
 31
0.0
  0
ARC
  5
161
330
39
100
AcDbEntity
  8
1
  6
Continuous
 62
     7
100
AcDbCircle
 10
378.6222185577697
 20
243.9856596906957
 30
0.0
 40
1.000000000000069
100
AcDbArc
 50
42.94140286488256
 51
89.99999999999349
  0
ARC
  5
162
330
39
100
AcDbEntity
  8
1
  6
Continuous
 62
     7
100
AcDbCircle
 10
380.4122904270693
 20
242.9856596906957
 30
0.0
 40
1.000000000000081
100
AcDbArc
 50
74.66244233044924
 51
90.0
  0
ARC
  5
163
330
39
100
AcDbEntity
  8
1
  6
Continuous
 62
     7
100
AcDbCircle
 10
378.6222185577697
 20
243.9856596906957
 30
0.0
 40
1.000000000000033
100
AcDbArc
 50
29.99999999999892
 51
42.94140286488256
  0
ARC
  5
164
330
39
100
AcDbEntity
  8
1
  6
Continuous
 62
     7
100
AcDbCircle
 10
380.3542693653386
 20
244.9856596906957
 30
0.0
 40
0.9999999999999836
100
AcDbArc
 50
-149.9999999999995
 51
-90.0
  0
ARC
  5
165
330
39
100
AcDbEntity
  8
1
  6
Continuous
 62
     7
100
AcDbCircle
 10
359.0863201729075
 20
243.9856596906957
 30
0.0
 40
1.0
100
AcDbArc
 50
90.0
 51
137.0585971351175
  0
ARC
  5
166
330
39
100
AcDbEntity
  8
1
  6
Continuous
 62
     7
100
AcDbCircle
 10
357.296248303608
 20
242.9856596906957
 30
0.0
 40
1.0
100
AcDbArc
 50
90.0
 51
105.3375576695508
  0
ARC
  5
167
330
39
100
AcDbEntity
  8
1
  6
Continuous
 62
     7
100
AcDbCircle
 10
359.0863201729075
 20
243.9856596906957
 30
0.0
 40
1.000000000000069
100
AcDbArc
 50
137.0585971351175
 51
149.9999999999995
  0
ARC
  5
168
330
39
100
AcDbEntity
  8
1
  6
Continuous
 62
     7
100
AcDbCircle
 10
357.3542693653386
 20
244.9856596906957
 30
0.0
 40
1.0
100
AcDbArc
 50
-90.0
 51
-29.99999999999892
  0
ENDBLK
  5
3B
330
39
100
AcDbEntity
  8
0
100
AcDbBlockEnd
  0
BLOCK
  5
3D
330
3C
100
AcDbEntity
  8
0
100
AcDbBlockBegin
  2
A201-0
 70
     0
 71
     0
 10
314.4212516138594
 20
294.1826732563931
 30
0.0
  3
A201-0
  1

  0
LINE
  5
169
330
3C
100
AcDbEntity
  8
1
  6
Continuous
 62
     7
100
AcDbLine
 10
381.8542693653386
 20
233.4856596906961
 30
0.0
 11
381.8542693653386
 21
234.9856596906957
 31
0.0
  0
LINE
  5
16A
330
3C
100
AcDbEntity
  8
1
  6
Continuous
 62
     7
100
AcDbLine
 10
355.3542693653387
 20
231.4856596906961
 30
0.0
 11
354.4542693653387
 21
230.2856596906962
 31
0.0
  0
LINE
  5
16B
330
3C
100
AcDbEntity
  8
1
  6
Continuous
 62
     7
100
AcDbLine
 10
435.8542693653386
 20
234.4856596906961
 30
0.0
 11
435.8542693653386
 21
188.4856596906961
 31
0.0
  0
LINE
  5
16C
330
3C
100
AcDbEntity
  8
1
  6
Continuous
 62
     7
100
AcDbLine
 10
440.0863201729076
 20
221.9856596906961
 30
0.0
 11
451.3542693653386
 21
221.9856596906961
 31
0.0
  0
LINE
  5
16D
330
3C
100
AcDbEntity
  8
1
  6
Continuous
 62
     7
100
AcDbLine
 10
121.354269365335
 20
605.051021830358
 30
0.0
 11
123.3542693653349
 21
605.051021830358
 31
0.0
  0
LINE
  5
16E
330
3C
100
AcDbEntity
  8
1
  6
Continuous
 62
     7
100
AcDbLine
 10
116.3542693653386
 20
231.1468624808736
 30
0.0
 11
116.3542693653386
 21
234.9856596906961
 31
0.0
  0
LINE
  5
16F
330
3C
100
AcDbEntity
  8
1
  6
Continuous
 62
     2
100
AcDbLine
 10
115.3542693653386
 20
233.4856596906961
 30
0.0
 11
116.3542693653386
 21
231.7536088831274
 31
0.0
  0
LINE
  5
170
330
3C
100
AcDbEntity
  8
1
  6
Continuous
 62
     2
100
AcDbLine
 10
90.3542693653386
 20
231.7536088831274
 30
0.0
 11
91.3542693653386
 21
233.4856596906961
 31
0.0
  0
LINE
  5
171
330
3C
100
AcDbEntity
  8
1
  6
Continuous
 62
     7
100
AcDbLine
 10
114.3679673528904
 20
231.4856596906961
 30
0.0
 11
92.3405713777867
 21
231.4856596906961
 31
0.0
  0
LINE
  5
172
330
3C
100
AcDbEntity
  8
1
  6
Continuous
 62
     2
100
AcDbLine
 10
380.8542693653386
 20
234.9856596906957
 30
0.0
 11
380.8542693653386
 21
233.4856596906961
 31
0.0
  0
LINE
  5
173
330
3C
100
AcDbEntity
  8
1
  6
Continuous
 62
     7
100
AcDbLine
 10
120.4068918353242
 20
225.4856596906961
 30
0.0
 11
123.0811974242205
 21
225.4856596906961
 31
0.0
  0
LINE
  5
174
330
3C
100
AcDbEntity
  8
1
  6
Continuous
 62
     7
100
AcDbLine
 10
116.3542693653386
 20
233.4856596906961
 30
0.0
 11
90.3542693653386
 21
233.4856596906961
 31
0.0
  0
LINE
  5
175
330
3C
100
AcDbEntity
  8
1
  6
Continuous
 62
     2
100
AcDbLine
 10
355.8542693653387
 20
232.4856596906961
 30
0.0
 11
356.8542693653387
 21
233.4856596906961
 31
0.0
  0
LINE
  5
176
330
3C
100
AcDbEntity
  8
1
  6
Continuous
 62
     2
100
AcDbLine
 10
380.8542693653386
 20
233.4856596906961
 30
0.0
 11
381.8542693653386
 21
232.4856596906961
 31
0.0
  0
LINE
  5
177
330
3C
100
AcDbEntity
  8
1
  6
Continuous
 62
     7
100
AcDbLine
 10
438.3542693653387
 20
200.9856596906961
 30
0.0
 11
451.3542693653386
 21
200.9856596906961
 31
0.0
  0
LINE
  5
178
330
3C
100
AcDbEntity
  8
1
  6
Continuous
 62
     2
100
AcDbLine
 10
452.3542693653386
 20
220.9856596906961
 30
0.0
 11
440.0863201729076
 21
220.9856596906961
 31
0.0
  0
LINE
  5
179
330
3C
100
AcDbEntity
  8
1
  6
Continuous
 62
     7
100
AcDbLine
 10
451.3542693653386
 20
221.9856596906961
 30
0.0
 11
451.3542693653386
 21
200.9856596906961
 31
0.0
  0
LINE
  5
17A
330
3C
100
AcDbEntity
  8
1
  6
Continuous
 62
     7
100
AcDbLine
 10
438.3542693653387
 20
188.4856596906961
 30
0.0
 11
435.8542693653386
 21
188.4856596906961
 31
0.0
  0
LINE
  5
17B
330
3C
100
AcDbEntity
  8
1
  6
Continuous
 62
     2
100
AcDbLine
 10
440.0863201729076
 20
201.9856596906961
 30
0.0
 11
438.3542693653387
 21
200.9856596906961
 31
0.0
  0
LINE
  5
17C
330
3C
100
AcDbEntity
  8
1
  6
Continuous
 62
     2
100
AcDbLine
 10
452.3542693653386
 20
201.9856596906961
 30
0.0
 11
440.0863201729076
 21
201.9856596906961
 31
0.0
  0
LINE
  5
17D
330
3C
100
AcDbEntity
  8
1
  6
Continuous
 62
     7
100
AcDbLine
 10
452.3542693653386
 20
220.9856596906961
 30
0.0
 11
452.3542693653386
 21
201.9856596906961
 31
0.0
  0
LINE
  5
17E
330
3C
100
AcDbEntity
  8
1
  6
Continuous
 62
     7
100
AcDbLine
 10
451.3542693653386
 20
200.9856596906961
 30
0.0
 11
452.3542693653386
 21
201.9856596906961
 31
0.0
  0
LINE
  5
17F
330
3C
100
AcDbEntity
  8
1
  6
Continuous
 62
     7
100
AcDbLine
 10
452.3542693653386
 20
220.9856596906961
 30
0.0
 11
451.3542693653386
 21
221.9856596906961
 31
0.0
  0
LINE
  5
180
330
3C
100
AcDbEntity
  8
1
  6
Continuous
 62
     2
100
AcDbLine
 10
438.3542693653387
 20
221.9856596906961
 30
0.0
 11
440.0863201729076
 21
220.9856596906961
 31
0.0
  0
LINE
  5
181
330
3C
100
AcDbEntity
  8
1
  6
Continuous
 62
     7
100
AcDbLine
 10
438.3542693653387
 20
221.9856596906961
 30
0.0
 11
440.0863201729076
 21
221.9856596906961
 31
0.0
  0
LINE
  5
182
330
3C
100
AcDbEntity
  8
1
  6
Continuous
 62
     7
100
AcDbLine
 10
435.8542693653386
 20
234.4856596906961
 30
0.0
 11
438.3542693653387
 21
234.4856596906961
 31
0.0
  0
LINE
  5
183
330
3C
100
AcDbEntity
  8
1
  6
Continuous
 62
     7
100
AcDbLine
 10
381.8542693653386
 20
232.4856596906961
 30
0.0
 11
381.8542693653386
 21
233.4856596906961
 31
0.0
  0
LINE
  5
184
330
3C
100
AcDbEntity
  8
1
  6
Continuous
 62
     7
100
AcDbLine
 10
355.8542693653387
 20
232.4856596906961
 30
0.0
 11
355.8542693653387
 21
234.9856596906957
 31
0.0
  0
LINE
  5
185
330
3C
100
AcDbEntity
  8
1
  6
Continuous
 62
     2
100
AcDbLine
 10
356.8542693653387
 20
234.9856596906957
 30
0.0
 11
356.8542693653387
 21
233.4856596906961
 31
0.0
  0
LINE
  5
186
330
3C
100
AcDbEntity
  8
1
  6
Continuous
 62
     7
100
AcDbLine
 10
355.6542693653387
 20
231.885659690696
 30
0.0
 11
355.3542693653387
 21
231.4856596906961
 31
0.0
  0
LINE
  5
187
330
3C
100
AcDbEntity
  8
1
  6
Continuous
 62
     7
100
AcDbLine
 10
88.3542693653349
 20
566.551021830358
 30
0.0
 11
88.3542693653349
 21
625.551021830358
 31
0.0
  0
LINE
  5
188
330
3C
100
AcDbEntity
  8
1
  6
Continuous
 62
     7
100
AcDbLine
 10
92.8542693653349
 20
636.051021830358
 30
0.0
 11
92.8542693653349
 21
649.051021830358
 31
0.0
  0
LINE
  5
189
330
3C
100
AcDbEntity
  8
1
  6
Continuous
 62
     7
100
AcDbLine
 10
113.8542693653349
 20
636.051021830358
 30
0.0
 11
113.8542693653349
 21
649.051021830358
 31
0.0
  0
LINE
  5
18A
330
3C
100
AcDbEntity
  8
1
  6
Continuous
 62
     7
100
AcDbLine
 10
113.8542693653349
 20
649.051021830358
 30
0.0
 11
112.8542693653349
 21
650.051021830358
 31
0.0
  0
LINE
  5
18B
330
3C
100
AcDbEntity
  8
1
  6
Continuous
 62
     7
100
AcDbLine
 10
93.8542693653349
 20
650.051021830358
 30
0.0
 11
92.8542693653349
 21
649.051021830358
 31
0.0
  0
LINE
  5
18C
330
3C
100
AcDbEntity
  8
1
  6
Continuous
 62
     7
100
AcDbLine
 10
80.35426936533492
 20
633.551021830358
 30
0.0
 11
80.35426936533463
 21
636.051021830358
 31
0.0
  0
LINE
  5
18D
330
3C
100
AcDbEntity
  8
1
  6
Continuous
 62
     2
100
AcDbLine
 10
92.8542693653349
 20
636.051021830358
 30
0.0
 11
93.8542693653349
 21
637.7830726379268
 31
0.0
  0
LINE
  5
18E
330
3C
100
AcDbEntity
  8
1
  6
Continuous
 62
     2
100
AcDbLine
 10
93.8542693653349
 20
637.7830726379268
 30
0.0
 11
93.8542693653349
 21
650.051021830358
 31
0.0
  0
LINE
  5
18F
330
3C
100
AcDbEntity
  8
1
  6
Continuous
 62
     7
100
AcDbLine
 10
112.8542693653349
 20
650.051021830358
 30
0.0
 11
93.8542693653349
 21
650.051021830358
 31
0.0
  0
LINE
  5
190
330
3C
100
AcDbEntity
  8
1
  6
Continuous
 62
     2
100
AcDbLine
 10
112.8542693653349
 20
637.7830726379268
 30
0.0
 11
112.8542693653349
 21
650.051021830358
 31
0.0
  0
LINE
  5
191
330
3C
100
AcDbEntity
  8
1
  6
Continuous
 62
     2
100
AcDbLine
 10
112.8542693653349
 20
637.7830726379268
 30
0.0
 11
113.8542693653349
 21
636.051021830358
 31
0.0
  0
LINE
  5
192
330
3C
100
AcDbEntity
  8
1
  6
Continuous
 62
     7
100
AcDbLine
 10
126.3542693653348
 20
636.051021830358
 30
0.0
 11
126.3542693653348
 21
633.551021830358
 31
0.0
  0
LINE
  5
193
330
3C
100
AcDbEntity
  8
1
  6
Continuous
 62
     7
100
AcDbLine
 10
123.3542693653349
 20
577.051021830358
 30
0.0
 11
121.354269365335
 21
577.051021830358
 31
0.0
  0
LINE
  5
194
330
3C
100
AcDbEntity
  8
1
  6
Continuous
 62
     7
100
AcDbLine
 10
118.3542693653349
 20
566.551021830358
 30
0.0
 11
118.3542693653349
 21
574.051021830358
 31
0.0
  0
LINE
  5
195
330
3C
100
AcDbEntity
  8
1
  6
Continuous
 62
     7
100
AcDbLine
 10
118.3542693653349
 20
608.051021830358
 30
0.0
 11
118.3542693653349
 21
625.551021830358
 31
0.0
  0
LINE
  5
196
330
3C
100
AcDbEntity
  8
1
  6
Continuous
 62
     7
100
AcDbLine
 10
80.35426936533463
 20
636.051021830358
 30
0.0
 11
126.3542693653348
 21
636.051021830358
 31
0.0
  0
LINE
  5
197
330
3C
100
AcDbEntity
  8
1
  6
Continuous
 62
     7
100
AcDbLine
 10
113.8542693653349
 20
637.7830726379268
 30
0.0
 11
92.8542693653349
 21
637.7830726379268
 31
0.0
  0
LINE
  5
198
330
3C
100
AcDbEntity
  8
1
  6
Continuous
 62
     7
100
AcDbLine
 10
92.8542693653349
 20
649.051021830358
 30
0.0
 11
113.8542693653349
 21
649.051021830358
 31
0.0
  0
LINE
  5
199
330
3C
100
AcDbEntity
  8
1
  6
Continuous
 62
     7
100
AcDbLine
 10
117.1402953920034
 20
625.551021830358
 30
0.0
 11
117.1402953920034
 21
573.6358991328959
 31
0.0
  0
LINE
  5
19A
330
3C
100
AcDbEntity
  8
1
  6
Continuous
 62
     7
100
AcDbLine
 10
109.1402953920034
 20
633.551021830358
 30
0.0
 11
97.56824333866621
 21
633.551021830358
 31
0.0
  0
LINE
  5
19B
330
3C
100
AcDbEntity
  8
1
  6
Continuous
 62
     7
100
AcDbLine
 10
355.8542693653387
 20
233.4856596906961
 30
0.0
 11
381.8542693653386
 21
233.4856596906961
 31
0.0
  0
LINE
  5
19C
330
3C
100
AcDbEntity
  8
1
  6
Continuous
 62
     7
100
AcDbLine
 10
438.3542693653387
 20
221.9856596906961
 30
0.0
 11
438.3542693653387
 21
234.4856596906961
 31
0.0
  0
LINE
  5
19D
330
3C
100
AcDbEntity
  8
1
  6
Continuous
 62
     7
100
AcDbLine
 10
438.3542693653387
 20
188.4856596906961
 30
0.0
 11
438.3542693653387
 21
221.9856596906961
 31
0.0
  0
LINE
  5
19E
330
3C
100
AcDbEntity
  8
1
  6
Continuous
 62
     7
100
AcDbLine
 10
440.0863201729076
 20
200.9856596906961
 30
0.0
 11
440.0863201729076
 21
221.9856596906961
 31
0.0
  0
LINE
  5
19F
330
3C
100
AcDbEntity
  8
1
  6
Continuous
 62
     2
100
AcDbLine
 10
374.3542693653386
 20
191.4856596906961
 30
0.0
 11
375.8470781153994
 21
191.4856596906961
 31
0.0
  0
LINE
  5
1A0
330
3C
100
AcDbEntity
  8
1
  6
Continuous
 62
     7
100
AcDbLine
 10
90.3542693653386
 20
234.9856596906961
 30
0.0
 11
90.3542693653386
 21
231.1468624808736
 31
0.0
  0
LINE
  5
1A1
330
3C
100
AcDbEntity
  8
1
  6
Continuous
 62
     2
100
AcDbLine
 10
91.3542693653386
 20
234.9856596906961
 30
0.0
 11
91.3542693653386
 21
233.4856596906961
 31
0.0
  0
LINE
  5
1A2
330
3C
100
AcDbEntity
  8
1
  6
Continuous
 62
     2
100
AcDbLine
 10
115.3542693653386
 20
234.9856596906961
 30
0.0
 11
115.3542693653386
 21
233.4856596906961
 31
0.0
  0
LINE
  5
1A3
330
3C
100
AcDbEntity
  8
1
  6
Continuous
 62
     7
100
AcDbLine
 10
123.0811974242204
 20
197.4856596906961
 30
0.0
 11
120.4068918353242
 21
197.4856596906961
 31
0.0
  0
LINE
  5
1A4
330
3C
100
AcDbEntity
  8
1
  6
Continuous
 62
     7
100
AcDbLine
 10
89.56824333866621
 20
573.6358991328959
 30
0.0
 11
89.56824333866621
 21
625.551021830358
 31
0.0
  0
LINE
  5
1A5
330
3C
100
AcDbEntity
  8
1
  6
Continuous
 62
     7
100
AcDbLine
 10
429.6092713669403
 20
191.4856596906961
 30
0.0
 11
375.8470781153994
 21
191.4856596906961
 31
0.0
  0
LINE
  5
1A6
330
3C
100
AcDbEntity
  8
1
  6
Continuous
 62
     7
100
AcDbLine
 10
356.8542693653387
 20
231.4856596906961
 30
0.0
 11
429.6092713669403
 21
231.4856596906961
 31
0.0
  0
ARC
  5
1A7
330
3C
100
AcDbEntity
  8
1
  6
Continuous
 62
     7
100
AcDbCircle
 10
103.3542693653321
 20
211.4856596906896
 30
0.0
 40
23.00000000000118
100
AcDbArc
 50
126.1565237321305
 51
-107.7189318734048
  0
ARC
  5
1A8
330
3C
100
AcDbEntity
  8
1
  6
Continuous
 62
     7
100
AcDbCircle
 10
103.3542693653321
 20
211.4856596906896
 30
0.0
 40
23.00000000000116
100
AcDbArc
 50
-72.28106812659256
 51
-37.495249764536
  0
ARC
  5
1A9
330
3C
100
AcDbEntity
  8
1
  6
Continuous
 62
     7
100
AcDbCircle
 10
103.3542693653321
 20
211.4856596906896
 30
0.0
 40
23.00000000000122
100
AcDbArc
 50
37.49524976457674
 51
53.33758561917635
  0
ARC
  5
1AA
330
3C
100
AcDbEntity
  8
1
  6
Continuous
 62
     7
100
AcDbCircle
 10
493.5539735538758
 20
282.5429522123014
 30
0.0
 40
149.9999999999999
100
AcDbArc
 50
-158.4238997382049
 51
-153.6176899270682
  0
ARC
  5
1AB
330
3C
100
AcDbEntity
  8
1
  6
Continuous
 62
     7
100
AcDbCircle
 10
429.6092713669403
 20
239.4856596906961
 30
0.0
 40
8.0
100
AcDbArc
 50
-90.0
 51
-38.68218745348973
  0
ARC
  5
1AC
330
3C
100
AcDbEntity
  8
1
  6
Continuous
 62
     7
100
AcDbCircle
 10
429.6092713669403
 20
183.4856596906961
 30
0.0
 40
7.999999999999949
100
AcDbArc
 50
38.68218745348973
 51
90.0
  0
ARC
  5
1AD
330
3C
100
AcDbEntity
  8
1
  6
Continuous
 62
     7
100
AcDbCircle
 10
117.3542693653386
 20
231.1468624808736
 30
0.0
 40
1.0
100
AcDbArc
 50
180.0
 51
-138.2946017763588
  0
ARC
  5
1AE
330
3C
100
AcDbEntity
  8
1
  6
Continuous
 62
     7
100
AcDbCircle
 10
89.3542693653386
 20
231.1468624808736
 30
0.0
 40
1.000000000000004
100
AcDbArc
 50
-41.70539822364115
 51
0.0
  0
ARC
  5
1AF
330
3C
100
AcDbEntity
  8
1
  6
Continuous
 62
     7
100
AcDbCircle
 10
103.3542693653386
 20
291.485659690701
 30
0.0
 40
100.0000000000049
100
AcDbArc
 50
-96.56277608254274
 51
-90.0
  0
LINE
  5
1B0
330
3C
100
AcDbEntity
  8
1
  6
Continuous
 62
     7
100
AcDbLine
 10
117.4219223637489
 20
194.7873115824094
 30
0.0
 11
117.4254678653247
 21
194.8189930240295
 31
0.0
  0
ARC
  5
1B1
330
3C
100
AcDbEntity
  8
1
  6
Continuous
 62
     7
100
AcDbCircle
 10
-31.64573063466139
 20
211.4856596906963
 30
0.0
 40
150.0000000000001
100
AcDbArc
 50
-6.37937020844285
 51
6.64090164243485
  0
ARC
  5
1B2
330
3C
100
AcDbEntity
  8
1
  6
Continuous
 62
     7
100
AcDbCircle
 10
103.3542693653349
 20
566.551021830358
 30
0.0
 40
15.0
100
AcDbArc
 50
-21.03946978131728
 51
0.0
  0
ARC
  5
1B3
330
3C
100
AcDbEntity
  8
1
  6
Continuous
 62
     2
100
AcDbCircle
 10
117.1042693653349
 20
543.1931242869528
 30
0.0
 40
23.39132056229865
100
AcDbArc
 50
86.93673320720853
 51
93.06326679279147
  0
ARC
  5
1B4
330
3C
100
AcDbEntity
  8
1
  6
Continuous
 62
     7
100
AcDbCircle
 10
109.1402953920034
 20
625.551021830358
 30
0.0
 40
8.0
100
AcDbArc
 50
0.0
 51
90.0
  0
ARC
  5
1B5
330
3C
100
AcDbEntity
  8
1
  6
Continuous
 62
     7
100
AcDbCircle
 10
97.56824333866621
 20
625.551021830358
 30
0.0
 40
8.0
100
AcDbArc
 50
90.0
 51
180.0
  0
ARC
  5
1B6
330
3C
100
AcDbEntity
  8
1
  6
Continuous
 62
     7
100
AcDbCircle
 10
356.8542693653387
 20
228.4856596906961
 30
0.0
 40
3.0
100
AcDbArc
 50
90.0
 51
-158.423899738206
  0
ARC
  5
1B7
330
3C
100
AcDbEntity
  8
1
  6
Continuous
 62
     7
100
AcDbCircle
 10
494.128999251097
 20
282.9399359369828
 30
0.0
 40
150.698245892562
100
AcDbArc
 50
-149.7639992522932
 51
-143.2097054795306
  0
ARC
  5
1B8
330
3C
100
AcDbEntity
  8
1
  6
Continuous
 62
     2
100
AcDbCircle
 10
493.5539735538758
 20
282.5429522123014
 30
0.0
 40
149.9999999999998
100
AcDbArc
 50
-143.1995991294142
 51
-142.6235966718686
  0
ARC
  5
1B9
330
3C
100
AcDbEntity
  8
1
  6
Continuous
 62
     7
100
AcDbCircle
 10
238.3542693653387
 20
211.4856596906961
 30
0.0
 40
150.0000000000002
100
AcDbArc
 50
173.3590983575651
 51
-173.608452828523
  0
ARC
  5
1BA
330
3C
100
AcDbEntity
  8
1
  6
Continuous
 62
     7
100
AcDbCircle
 10
103.3542693653386
 20
291.485659690701
 30
0.0
 40
100.0000000000049
100
AcDbArc
 50
-90.0
 51
-83.43722391745737
  0
ARC
  5
1BB
330
3C
100
AcDbEntity
  8
1
  6
Continuous
 62
     7
100
AcDbCircle
 10
103.3542693653349
 20
566.551021830358
 30
0.0
 40
15.0
100
AcDbArc
 50
180.0
 51
-158.9605302186827
  0
ARC
  5
1BC
330
3C
100
AcDbEntity
  8
1
  6
Continuous
 62
     7
100
AcDbCircle
 10
103.3542693653349
 20
566.551021830358
 30
0.0
 40
14.99999999999989
100
AcDbArc
 50
-57.76904736449762
 51
-38.96053021868313
  0
ARC
  5
1BD
330
3C
100
AcDbEntity
  8
1
  6
Continuous
 62
     7
100
AcDbCircle
 10
103.3542693653349
 20
566.551021830358
 30
0.0
 40
15.0000000000002
100
AcDbArc
 50
-141.0394697813181
 51
-122.2309526355024
  0
ARC
  5
1BE
330
3C
100
AcDbEntity
  8
1
  6
Continuous
 62
     7
100
AcDbCircle
 10
114.3679673528904
 20
228.4856596906961
 30
0.0
 40
2.999999999999945
100
AcDbArc
 50
6.64090164243677
 51
90.0
  0
ARC
  5
1BF
330
3C
100
AcDbEntity
  8
1
  6
Continuous
 62
     7
100
AcDbCircle
 10
92.3405713777867
 20
228.4856596906961
 30
0.0
 40
3.0
100
AcDbArc
 50
90.0
 51
173.3590983575635
  0
ARC
  5
1C0
330
3C
100
AcDbEntity
  8
1
  6
Continuous
 62
     7
100
AcDbCircle
 10
114.4405693037808
 20
195.121278544575
 30
0.0
 40
2.999999999999997
100
AcDbArc
 50
-83.43722391746111
 51
-6.39154717147509
  0
ARC
  5
1C1
330
3C
100
AcDbEntity
  8
1
  6
Continuous
 62
     7
100
AcDbCircle
 10
92.2679694268963
 20
195.121278544575
 30
0.0
 40
2.999999999999881
100
AcDbArc
 50
-173.6084528285249
 51
-96.56277608254105
  0
ARC
  5
1C2
330
3C
100
AcDbEntity
  8
1
  6
Continuous
 62
     7
100
AcDbCircle
 10
120.4068918353242
 20
194.4856596906961
 30
0.0
 40
3.0
100
AcDbArc
 50
90.0
 51
173.6206297915555
  0
ARC
  5
1C3
330
3C
100
AcDbEntity
  8
1
  6
Continuous
 62
     7
100
AcDbCircle
 10
120.4068918353242
 20
228.4856596906961
 30
0.0
 40
2.999999999999786
100
AcDbArc
 50
-173.6206297915555
 51
-90.0
  0
ARC
  5
1C4
330
3C
100
AcDbEntity
  8
1
  6
Continuous
 62
     7
100
AcDbCircle
 10
382.8542693653386
 20
232.4856596906961
 30
0.0
 40
1.0
100
AcDbArc
 50
180.0
 51
-90.0
  0
ARC
  5
1C5
330
3C
100
AcDbEntity
  8
1
  6
Continuous
 62
     7
100
AcDbCircle
 10
382.8542693653386
 20
232.4856596906961
 30
0.0
 40
1.0
100
AcDbArc
 50
180.0
 51
-90.0
  0
ARC
  5
1C6
330
3C
100
AcDbEntity
  8
1
  6
Continuous
 62
     7
100
AcDbCircle
 10
354.8542693653387
 20
232.4856596906961
 30
0.0
 40
1.000000000000028
100
AcDbArc
 50
-36.86989764585054
 51
0.0
  0
ARC
  5
1C7
330
3C
100
AcDbEntity
  8
1
  6
Continuous
 62
     7
100
AcDbCircle
 10
80.35426936533492
 20
625.551021830358
 30
0.0
 40
7.999999999999986
100
AcDbArc
 50
0.0
 51
90.0
  0
ARC
  5
1C8
330
3C
100
AcDbEntity
  8
1
  6
Continuous
 62
     7
100
AcDbCircle
 10
126.3542693653348
 20
625.551021830358
 30
0.0
 40
8.0
100
AcDbArc
 50
90.0
 51
180.0
  0
ARC
  5
1C9
330
3C
100
AcDbEntity
  8
1
  6
Continuous
 62
     7
100
AcDbCircle
 10
121.354269365335
 20
608.051021830358
 30
0.0
 40
3.0000000000001
100
AcDbArc
 50
180.0
 51
-90.0
  0
ARC
  5
1CA
330
3C
100
AcDbEntity
  8
1
  6
Continuous
 62
     7
100
AcDbCircle
 10
121.354269365335
 20
574.051021830358
 30
0.0
 40
3.0
100
AcDbArc
 50
90.0
 51
180.0
  0
ARC
  5
1CB
330
3C
100
AcDbEntity
  8
1
  6
Continuous
 62
     7
100
AcDbCircle
 10
375.8470781153994
 20
194.4856596906961
 30
0.0
 40
2.999999999999961
100
AcDbArc
 50
-143.1995991294147
 51
-90.0
  0
ENDBLK
  5
3E
330
3C
100
AcDbEntity
  8
0
100
AcDbBlockEnd
  0
BLOCK
  5
40
330
3F
100
AcDbEntity
  8
0
100
AcDbBlockBegin
  2
84-34-M21
 70
     0
 71
     0
 10
405.8542693653386
 20
290.4847327072782
 30
0.0
  3
84-34-M21
  1

  0
LINE
  5
1CC
330
3F
100
AcDbEntity
  8
1
  6
Continuous
 62
     7
100
AcDbLine
 10
168.854269365335
 20
581.051021830358
 30
0.0
 11
168.854269365335
 21
601.051021830358
 31
0.0
  0
LINE
  5
1CD
330
3F
100
AcDbEntity
  8
1
  6
Continuous
 62
     7
100
AcDbLine
 10
168.7839286956778
 20
578.551021830358
 30
0.0
 11
167.354269365335
 21
578.551021830358
 31
0.0
  0
LINE
  5
1CE
330
3F
100
AcDbEntity
  8
1
  6
Continuous
 62
     7
100
AcDbLine
 10
167.354269365335
 20
603.551021830358
 30
0.0
 11
168.7839286956778
 21
603.551021830358
 31
0.0
  0
LINE
  5
1CF
330
3F
100
AcDbEntity
  8
1
  6
Continuous
 62
     7
100
AcDbLine
 10
168.5934692763767
 20
198.9856596906961
 30
0.0
 11
167.1638099460338
 21
198.9856596906961
 31
0.0
  0
LINE
  5
1D0
330
3F
100
AcDbEntity
  8
1
  6
Continuous
 62
     7
100
AcDbLine
 10
167.1638099460338
 20
223.9856596906961
 30
0.0
 11
168.5934692763767
 21
223.9856596906961
 31
0.0
  0
LINE
  5
1D1
330
3F
100
AcDbEntity
  8
0
  6
Continuous
 62
     7
100
AcDbLine
 10
168.6638099460338
 20
221.4856596906961
 30
0.0
 11
168.6638099460338
 21
201.4856596906961
 31
0.0
  0
ARC
  5
1D2
330
3F
100
AcDbEntity
  8
1
  6
Continuous
 62
     7
100
AcDbCircle
 10
-231.0207110973091
 20
591.051021830358
 30
0.0
 40
400.0
100
AcDbArc
 50
-1.79078465932895
 51
-1.43254373756651
  0
ARC
  5
1D3
330
3F
100
AcDbEntity
  8
1
  6
Continuous
 62
     7
100
AcDbCircle
 10
-231.0207110973091
 20
591.051021830358
 30
0.0
 40
400.0
100
AcDbArc
 50
1.43254373756651
 51
1.79078465932895
  0
ARC
  5
1D4
330
3F
100
AcDbEntity
  8
1
  6
Continuous
 62
     7
100
AcDbCircle
 10
-231.2111705166103
 20
211.4856596906961
 30
0.0
 40
400.0000000000001
100
AcDbArc
 50
-1.79078465932895
 51
-1.43254373756651
  0
ARC
  5
1D5
330
3F
100
AcDbEntity
  8
1
  6
Continuous
 62
     7
100
AcDbCircle
 10
-231.2111705166103
 20
211.4856596906961
 30
0.0
 40
400.0
100
AcDbArc
 50
1.43254373756651
 51
1.79078465932895
  0
CIRCLE
  5
1D6
330
3F
100
AcDbEntity
  8
1
  6
Continuous
 62
     7
100
AcDbCircle
 10
393.3542693653386
 20
211.4856596906961
 30
0.0
 40
12.5
  0
CIRCLE
  5
1D7
330
3F
100
AcDbEntity
  8
1
  6
Continuous
 62
     7
100
AcDbCircle
 10
393.3542693653386
 20
211.4856596906961
 30
0.0
 40
10.0
  0
ENDBLK
  5
41
330
3F
100
AcDbEntity
  8
0
100
AcDbBlockEnd
  0
BLOCK
  5
43
330
42
100
AcDbEntity
  8
0
100
AcDbBlockBegin
  2
87-18
 70
     0
 71
     0
 10
306.8835559176912
 20
382.8046517238872
 30
0.0
  3
87-18
  1

  0
LINE
  5
1D8
330
42
100
AcDbEntity
  8
1
  6
PHANTOM
 62
     5
100
AcDbLine
 10
397.6160877036471
 20
153.473770889397
 30
0.0
 11
397.8332888001955
 21
190.01189673664
 31
0.0
  0
LINE
  5
1D9
330
42
100
AcDbEntity
  8
1
  6
PHANTOM
 62
     5
100
AcDbLine
 10
391.0924156908191
 20
151.4856596906959
 30
0.0
 11
395.6161230398583
 21
151.4856596906959
 31
0.0
  0
LINE
  5
1DA
330
42
100
AcDbEntity
  8
1
  6
PHANTOM
 62
     5
100
AcDbLine
 10
389.0924510270302
 20
153.473770889397
 30
0.0
 11
388.8752499304817
 21
190.01189673664
 31
0.0
  0
LINE
  5
1DB
330
42
100
AcDbEntity
  8
1
  6
Continuous
 62
     7
100
AcDbLine
 10
165.0811974242204
 20
207.1613533697258
 30
0.0
 11
144.0811974242204
 21
207.1613533697258
 31
0.0
  0
LINE
  5
1DC
330
42
100
AcDbEntity
  8
1
  6
Continuous
 62
     7
100
AcDbLine
 10
144.0811974242204
 20
215.8099660116664
 30
0.0
 11
165.0811974242204
 21
215.8099660116664
 31
0.0
  0
LINE
  5
1DD
330
42
100
AcDbEntity
  8
1
  6
Continuous
 62
     7
100
AcDbLine
 10
142.0811974242204
 20
213.8099660116664
 30
0.0
 11
142.0811974242204
 21
209.1613533697258
 31
0.0
  0
LINE
  5
1DE
330
42
100
AcDbEntity
  8
1
  6
Continuous
 62
     7
100
AcDbLine
 10
167.0811974242204
 20
226.9856596907011
 30
0.0
 11
167.0811974242204
 21
195.9856596906911
 31
0.0
  0
LINE
  5
1DF
330
42
100
AcDbEntity
  8
1
  6
Continuous
 62
     7
100
AcDbLine
 10
123.0811974242204
 20
228.9856596907011
 30
0.0
 11
123.0811974242204
 21
193.9856596906911
 31
0.0
  0
LINE
  5
1E0
330
42
100
AcDbEntity
  8
1
  6
Continuous
 62
     7
100
AcDbLine
 10
164.0811974242204
 20
192.9856596906911
 30
0.0
 11
124.0811974242204
 21
192.9856596906911
 31
0.0
  0
LINE
  5
1E1
330
42
100
AcDbEntity
  8
1
  6
Continuous
 62
     7
100
AcDbLine
 10
124.0811974242204
 20
229.9856596907011
 30
0.0
 11
164.0811974242204
 21
229.9856596907011
 31
0.0
  0
LINE
  5
1E2
330
42
100
AcDbEntity
  8
1
  6
Continuous
 62
     7
100
AcDbLine
 10
335.3423805640396
 20
207.2238413523876
 30
0.0
 11
371.8805064112826
 21
207.0066402558391
 31
0.0
  0
LINE
  5
1E3
330
42
100
AcDbEntity
  8
1
  6
Continuous
 62
     7
100
AcDbLine
 10
333.3542693653385
 20
213.7475133652156
 30
0.0
 11
333.3542693653385
 21
209.2238060161764
 31
0.0
  0
LINE
  5
1E4
330
42
100
AcDbEntity
  8
1
  6
Continuous
 62
     7
100
AcDbLine
 10
335.3423805640396
 20
215.7474780290044
 30
0.0
 11
371.8805064112826
 21
215.964679125553
 31
0.0
  0
LINE
  5
1E5
330
42
100
AcDbEntity
  8
1
  6
Continuous
 62
     7
100
AcDbLine
 10
167.354269365335
 20
575.551021830353
 30
0.0
 11
167.354269365335
 21
543.551021830358
 31
0.0
  0
LINE
  5
1E6
330
42
100
AcDbEntity
  8
1
  6
Continuous
 62
     7
100
AcDbLine
 10
142.354269365335
 20
543.551021830358
 30
0.0
 11
142.354269365335
 21
571.0638465604529
 31
0.0
  0
LINE
  5
1E7
330
42
100
AcDbEntity
  8
1
  6
Continuous
 62
     7
100
AcDbLine
 10
124.3542693653349
 20
609.551021830363
 30
0.0
 11
164.354269365335
 21
609.551021830363
 31
0.0
  0
LINE
  5
1E8
330
42
100
AcDbEntity
  8
1
  6
Continuous
 62
     7
100
AcDbLine
 10
164.354269365335
 20
572.551021830353
 30
0.0
 11
124.3542693653349
 21
572.551021830353
 31
0.0
  0
LINE
  5
1E9
330
42
100
AcDbEntity
  8
1
  6
Continuous
 62
     7
100
AcDbLine
 10
123.3542693653349
 20
608.551021830363
 30
0.0
 11
123.3542693653349
 21
573.551021830353
 31
0.0
  0
LINE
  5
1EA
330
42
100
AcDbEntity
  8
1
  6
Continuous
 62
     7
100
AcDbLine
 10
167.354269365335
 20
606.551021830363
 30
0.0
 11
167.354269365335
 21
575.551021830353
 31
0.0
  0
ARC
  5
1EB
330
42
100
AcDbEntity
  8
1
  6
Continuous
 62
     7
100
AcDbCircle
 10
393.3542693653386
 20
211.4856596906961
 30
0.0
 40
18.50000000000017
100
AcDbArc
 50
-165.9219613962409
 51
153.5089827722607
  0
ARC
  5
1EC
330
42
100
AcDbEntity
  8
1
  6
Continuous
 62
     7
100
AcDbCircle
 10
393.3542693653386
 20
211.4856596906961
 30
0.0
 40
18.5000000000001
100
AcDbArc
 50
153.5089827722607
 51
165.9219613962409
  0
ARC
  5
1ED
330
42
100
AcDbEntity
  8
1
  6
Continuous
 62
     7
100
AcDbCircle
 10
154.854269365335
 20
543.551021830358
 30
0.0
 40
12.5
100
AcDbArc
 50
-90.0
 51
0.0
  0
ARC
  5
1EE
330
42
100
AcDbEntity
  8
1
  6
Continuous
 62
     7
100
AcDbCircle
 10
154.854269365335
 20
543.551021830358
 30
0.0
 40
12.5
100
AcDbArc
 50
180.0
 51
-90.0
  0
CIRCLE
  5
1EF
330
42
100
AcDbEntity
  8
1
  6
Continuous
 62
     7
100
AcDbCircle
 10
154.854269365335
 20
543.551021830358
 30
0.0
 40
8.5
  0
ARC
  5
1F0
330
42
100
AcDbEntity
  8
1
  6
PHANTOM
 62
     5
100
AcDbCircle
 10
395.6161230398583
 20
153.4856596906959
 30
0.0
 40
2.0
100
AcDbArc
 50
-90.0
 51
-0.34059107481728
  0
ARC
  5
1F1
330
42
100
AcDbEntity
  8
1
  6
PHANTOM
 62
     5
100
AcDbCircle
 10
391.0924156908191
 20
153.4856596906959
 30
0.0
 40
2.000000000000131
100
AcDbArc
 50
-179.6594089251827
 51
-90.0
  0
ARC
  5
1F2
330
42
100
AcDbEntity
  8
1
  6
PHANTOM
 62
     5
100
AcDbCircle
 10
402.8332004596674
 20
189.9821747333928
 30
0.0
 40
4.999999999999947
100
AcDbArc
 50
113.7883200381133
 51
179.6594089251835
  0
ARC
  5
1F3
330
42
100
AcDbEntity
  8
1
  6
PHANTOM
 62
     5
100
AcDbCircle
 10
383.8753382710098
 20
189.9821747333928
 30
0.0
 40
4.999999999999984
100
AcDbArc
 50
0.34059107481648
 51
66.21167996188673
  0
ARC
  5
1F4
330
42
100
AcDbEntity
  8
1
  6
Continuous
 62
     7
100
AcDbCircle
 10
335.3542693653385
 20
209.2238060161764
 30
0.0
 40
2.0
100
AcDbArc
 50
180.0
 51
-90.34059107481647
  0
ARC
  5
1F5
330
42
100
AcDbEntity
  8
1
  6
Continuous
 62
     7
100
AcDbCircle
 10
335.3542693653385
 20
213.7475133652156
 30
0.0
 40
2.000000000000045
100
AcDbArc
 50
90.34059107481647
 51
180.0
  0
ARC
  5
1F6
330
42
100
AcDbEntity
  8
1
  6
Continuous
 62
     7
100
AcDbCircle
 10
371.8507844080353
 20
202.0067285963673
 30
0.0
 40
4.999999999999901
100
AcDbArc
 50
23.78832003811208
 51
89.65940892518189
  0
ARC
  5
1F7
330
42
100
AcDbEntity
  8
1
  6
Continuous
 62
     7
100
AcDbCircle
 10
371.8507844080353
 20
220.9645907850249
 30
0.0
 40
5.000000000000014
100
AcDbArc
 50
-89.65940892518191
 51
-23.78832003811447
  0
ARC
  5
1F8
330
42
100
AcDbEntity
  8
1
  6
Continuous
 62
     7
100
AcDbCircle
 10
144.0811974242204
 20
209.1613533697258
 30
0.0
 40
2.0
100
AcDbArc
 50
180.0
 51
-90.0
  0
ARC
  5
1F9
330
42
100
AcDbEntity
  8
1
  6
Continuous
 62
     7
100
AcDbCircle
 10
144.0811974242204
 20
213.8099660116664
 30
0.0
 40
2.0
100
AcDbArc
 50
90.0
 51
180.0
  0
ARC
  5
1FA
330
42
100
AcDbEntity
  8
1
  6
Continuous
 62
     7
100
AcDbCircle
 10
165.0811974242204
 20
209.1613533697258
 30
0.0
 40
2.0
100
AcDbArc
 50
-90.0
 51
0.0
  0
ARC
  5
1FB
330
42
100
AcDbEntity
  8
1
  6
Continuous
 62
     7
100
AcDbCircle
 10
165.0811974242204
 20
213.8099660116664
 30
0.0
 40
2.0
100
AcDbArc
 50
0.0
 51
90.0
  0
ARC
  5
1FC
330
42
100
AcDbEntity
  8
1
  6
Continuous
 62
     7
100
AcDbCircle
 10
164.0811974242204
 20
226.9856596907011
 30
0.0
 40
3.0
100
AcDbArc
 50
0.0
 51
90.0
  0
ARC
  5
1FD
330
42
100
AcDbEntity
  8
1
  6
Continuous
 62
     7
100
AcDbCircle
 10
164.0811974242204
 20
195.9856596906911
 30
0.0
 40
3.0
100
AcDbArc
 50
-90.0
 51
0.0
  0
ARC
  5
1FE
330
42
100
AcDbEntity
  8
1
  6
Continuous
 62
     7
100
AcDbCircle
 10
124.0811974242204
 20
193.9856596906911
 30
0.0
 40
1.0
100
AcDbArc
 50
180.0
 51
-90.0
  0
ARC
  5
1FF
330
42
100
AcDbEntity
  8
1
  6
Continuous
 62
     7
100
AcDbCircle
 10
124.0811974242204
 20
228.9856596907011
 30
0.0
 40
1.0
100
AcDbArc
 50
90.0
 51
180.0
  0
ARC
  5
200
330
42
100
AcDbEntity
  8
1
  6
Continuous
 62
     7
100
AcDbCircle
 10
140.354269365335
 20
570.551021830358
 30
0.0
 40
2.0
100
AcDbArc
 50
0.0
 51
90.0
  0
ARC
  5
201
330
42
100
AcDbEntity
  8
1
  6
Continuous
 62
     7
100
AcDbCircle
 10
124.3542693653349
 20
608.551021830363
 30
0.0
 40
1.0
100
AcDbArc
 50
90.0
 51
180.0
  0
ARC
  5
202
330
42
100
AcDbEntity
  8
1
  6
Continuous
 62
     7
100
AcDbCircle
 10
124.3542693653349
 20
573.5510218303532
 30
0.0
 40
1.0
100
AcDbArc
 50
-179.999999999987
 51
-90.0
  0
ARC
  5
203
330
42
100
AcDbEntity
  8
1
  6
Continuous
 62
     7
100
AcDbCircle
 10
164.354269365335
 20
575.551021830353
 30
0.0
 40
3.0
100
AcDbArc
 50
-90.0
 51
0.0
  0
ARC
  5
204
330
42
100
AcDbEntity
  8
1
  6
Continuous
 62
     7
100
AcDbCircle
 10
164.354269365335
 20
606.551021830363
 30
0.0
 40
3.0
100
AcDbArc
 50
0.0
 51
90.0
  0
ENDBLK
  5
44
330
42
100
AcDbEntity
  8
0
100
AcDbBlockEnd
  0
BLOCK
  5
46
330
45
100
AcDbEntity
  8
0
100
AcDbBlockBegin
  2
82-20-M21
 70
     0
 71
     0
 10
780.2481122082638
 20
495.068100400469
 30
0.0
  3
82-20-M21
  1

  0
LINE
  5
205
330
45
100
AcDbEntity
  8
1
  6
Continuous
 62
     7
100
AcDbLine
 10
210.0971908751608
 20
263.4856596906957
 30
0.0
 11
211.1542693653387
 21
263.4856596906957
 31
0.0
  0
LINE
  5
206
330
45
100
AcDbEntity
  8
1
  6
Continuous
 62
     7
100
AcDbLine
 10
211.3542693653387
 20
253.4856596906957
 30
0.0
 11
211.3542693653387
 21
263.2856596906959
 31
0.0
  0
LINE
  5
207
330
45
100
AcDbEntity
  8
1
  6
Continuous
 62
     7
100
AcDbLine
 10
210.5614919002251
 20
250.7109385627985
 30
0.0
 11
211.3542693653387
 21
253.4856596906957
 31
0.0
  0
LINE
  5
208
330
45
100
AcDbEntity
  8
1
  6
Continuous
 62
     7
100
AcDbLine
 10
187.1470468304524
 20
250.7109385627981
 30
0.0
 11
186.3542693653387
 21
253.4856596906955
 31
0.0
  0
LINE
  5
209
330
45
100
AcDbEntity
  8
1
  6
Continuous
 62
     7
100
AcDbLine
 10
186.3542693653387
 20
253.4856596906955
 30
0.0
 11
186.3542693653385
 21
263.2856596906958
 31
0.0
  0
LINE
  5
20A
330
45
100
AcDbEntity
  8
1
  6
Continuous
 62
     7
100
AcDbLine
 10
198.8542693653415
 20
249.9856596906955
 30
0.0
 11
209.5999679525844
 21
249.9856596906959
 31
0.0
  0
LINE
  5
20B
330
45
100
AcDbEntity
  8
1
  6
Continuous
 62
     7
100
AcDbLine
 10
186.5542693653392
 20
263.4856596906982
 30
0.0
 11
210.0971908751608
 21
263.4856596906957
 31
0.0
  0
LINE
  5
20C
330
45
100
AcDbEntity
  8
1
  6
Continuous
 62
     7
100
AcDbLine
 10
188.1085707780931
 20
249.9856596906955
 30
0.0
 11
198.8542693653415
 21
249.9856596906955
 31
0.0
  0
LINE
  5
20D
330
45
100
AcDbEntity
  8
0
  6
Continuous
 62
     7
100
AcDbLine
 10
186.3542693653387
 20
253.4856596906955
 30
0.0
 11
211.3542693653387
 21
253.4856596906957
 31
0.0
  0
LINE
  5
20E
330
45
100
AcDbEntity
  8
1
  6
Continuous
 62
     7
100
AcDbLine
 10
114.5971908751602
 20
263.4856596906957
 30
0.0
 11
115.6542693653381
 21
263.4856596906957
 31
0.0
  0
LINE
  5
20F
330
45
100
AcDbEntity
  8
1
  6
Continuous
 62
     7
100
AcDbLine
 10
115.8542693653381
 20
253.4856596906957
 30
0.0
 11
115.8542693653381
 21
263.2856596906959
 31
0.0
  0
LINE
  5
210
330
45
100
AcDbEntity
  8
1
  6
Continuous
 62
     7
100
AcDbLine
 10
115.0614919002245
 20
250.7109385627985
 30
0.0
 11
115.8542693653381
 21
253.4856596906957
 31
0.0
  0
LINE
  5
211
330
45
100
AcDbEntity
  8
1
  6
Continuous
 62
     7
100
AcDbLine
 10
91.6470468304518
 20
250.7109385627981
 30
0.0
 11
90.8542693653381
 21
253.4856596906955
 31
0.0
  0
LINE
  5
212
330
45
100
AcDbEntity
  8
1
  6
Continuous
 62
     7
100
AcDbLine
 10
90.8542693653381
 20
253.4856596906955
 30
0.0
 11
90.8542693653379
 21
263.2856596906958
 31
0.0
  0
LINE
  5
213
330
45
100
AcDbEntity
  8
1
  6
Continuous
 62
     7
100
AcDbLine
 10
103.3542693653409
 20
249.9856596906955
 30
0.0
 11
114.0999679525838
 21
249.9856596906959
 31
0.0
  0
LINE
  5
214
330
45
100
AcDbEntity
  8
1
  6
Continuous
 62
     7
100
AcDbLine
 10
91.0542693653386
 20
263.4856596906982
 30
0.0
 11
114.5971908751602
 21
263.4856596906957
 31
0.0
  0
LINE
  5
215
330
45
100
AcDbEntity
  8
1
  6
Continuous
 62
     7
100
AcDbLine
 10
92.6085707780925
 20
249.9856596906955
 30
0.0
 11
103.3542693653409
 21
249.9856596906955
 31
0.0
  0
LINE
  5
216
330
45
100
AcDbEntity
  8
0
  6
Continuous
 62
     7
100
AcDbLine
 10
90.8542693653381
 20
253.4856596906955
 30
0.0
 11
115.8542693653381
 21
253.4856596906957
 31
0.0
  0
ARC
  5
217
330
45
100
AcDbEntity
  8
1
  6
Continuous
 62
     7
100
AcDbCircle
 10
188.1085707780931
 20
250.9856596906955
 30
0.0
 40
0.9999999999998895
100
AcDbArc
 50
-164.0546040990736
 51
-90.0
  0
ARC
  5
218
330
45
100
AcDbEntity
  8
1
  6
Continuous
 62
     7
100
AcDbCircle
 10
209.5999679525844
 20
250.9856596906959
 30
0.0
 40
1.0
100
AcDbArc
 50
-90.0
 51
-15.94539590092644
  0
ARC
  5
219
330
45
100
AcDbEntity
  8
1
  6
Continuous
 62
     7
100
AcDbCircle
 10
186.5542693653387
 20
263.2856596906954
 30
0.0
 40
0.2000000000001023
100
AcDbArc
 50
89.99999999997557
 51
179.999999999886
  0
ARC
  5
21A
330
45
100
AcDbEntity
  8
1
  6
Continuous
 62
     7
100
AcDbCircle
 10
211.1542693653387
 20
263.2856596906958
 30
0.0
 40
0.1999999999999886
100
AcDbArc
 50
0.00000000003257
 51
90.0
  0
ARC
  5
21B
330
45
100
AcDbEntity
  8
1
  6
Continuous
 62
     7
100
AcDbCircle
 10
92.6085707780925
 20
250.9856596906955
 30
0.0
 40
0.9999999999998895
100
AcDbArc
 50
-164.0546040990736
 51
-90.0
  0
ARC
  5
21C
330
45
100
AcDbEntity
  8
1
  6
Continuous
 62
     7
100
AcDbCircle
 10
114.0999679525838
 20
250.9856596906959
 30
0.0
 40
1.0
100
AcDbArc
 50
-90.0
 51
-15.94539590092644
  0
ARC
  5
21D
330
45
100
AcDbEntity
  8
1
  6
Continuous
 62
     7
100
AcDbCircle
 10
91.0542693653381
 20
263.2856596906954
 30
0.0
 40
0.2000000000001023
100
AcDbArc
 50
89.99999999997151
 51
179.999999999886
  0
ARC
  5
21E
330
45
100
AcDbEntity
  8
1
  6
Continuous
 62
     7
100
AcDbCircle
 10
115.6542693653381
 20
263.2856596906958
 30
0.0
 40
0.2000000000000028
100
AcDbArc
 50
0.00000000003257
 51
90.0
  0
ENDBLK
  5
47
330
45
100
AcDbEntity
  8
0
100
AcDbBlockEnd
  0
BLOCK
  5
49
330
48
100
AcDbEntity
  8
0
100
AcDbBlockBegin
  2
84-26B
 70
     0
 71
     0
 10
-68.00966296962059
 20
59.67962237123312
 30
0.0
  3
84-26B
  1

  0
LINE
  5
21F
330
48
100
AcDbEntity
  8
1
  6
Continuous
 62
     7
100
AcDbLine
 10
223.8542693653386
 20
289.4856596906959
 30
0.0
 11
223.8542693653386
 21
265.4856596906959
 31
0.0
  0
LINE
  5
220
330
48
100
AcDbEntity
  8
1
  6
Continuous
 62
     7
100
AcDbLine
 10
223.8542693653386
 20
289.4856596906959
 30
0.0
 11
190.0072379173581
 21
289.4856596906959
 31
0.0
  0
LINE
  5
221
330
48
100
AcDbEntity
  8
1
  6
Continuous
 62
     7
100
AcDbLine
 10
115.6042693653386
 20
263.9856596906963
 30
0.0
 11
115.6042693653386
 21
271.8459842643375
 31
0.0
  0
LINE
  5
222
330
48
100
AcDbEntity
  8
1
  6
Continuous
 62
     7
100
AcDbLine
 10
91.1042693653386
 20
263.9856596906963
 30
0.0
 11
115.6042693653386
 21
263.9856596906963
 31
0.0
  0
LINE
  5
223
330
48
100
AcDbEntity
  8
1
  6
Continuous
 62
     7
100
AcDbLine
 10
115.8542693653349
 20
421.801021830358
 30
0.0
 11
90.8542693653349
 21
421.801021830358
 31
0.0
  0
LINE
  5
224
330
48
100
AcDbEntity
  8
1
  6
Continuous
 62
     7
100
AcDbLine
 10
91.3542693653349
 20
424.801021830358
 30
0.0
 11
115.3542693653349
 21
424.801021830358
 31
0.0
  0
LINE
  5
225
330
48
100
AcDbEntity
  8
1
  6
Continuous
 62
     7
100
AcDbLine
 10
115.8542693653349
 20
381.947450759001
 30
0.0
 11
115.8542693653349
 21
421.801021830358
 31
0.0
  0
LINE
  5
226
330
48
100
AcDbEntity
  8
1
  6
Continuous
 62
     7
100
AcDbLine
 10
115.8542693653349
 20
421.801021830358
 30
0.0
 11
115.3542693653349
 21
424.801021830358
 31
0.0
  0
LINE
  5
227
330
48
100
AcDbEntity
  8
1
  6
Continuous
 62
     7
100
AcDbLine
 10
90.8542693653349
 20
381.947450759001
 30
0.0
 11
90.8542693653349
 21
421.801021830358
 31
0.0
  0
LINE
  5
228
330
48
100
AcDbEntity
  8
1
  6
Continuous
 62
     7
100
AcDbLine
 10
90.8542693653349
 20
421.801021830358
 30
0.0
 11
91.3542693653349
 21
424.801021830358
 31
0.0
  0
LINE
  5
229
330
48
100
AcDbEntity
  8
1
  6
Continuous
 62
     7
100
AcDbLine
 10
181.3542693653386
 20
265.4856596906959
 30
0.0
 11
185.3542693653386
 21
265.4856596906959
 31
0.0
  0
LINE
  5
22A
330
48
100
AcDbEntity
  8
1
  6
Continuous
 62
     7
100
AcDbLine
 10
226.8542693653386
 20
288.9856596906959
 30
0.0
 11
223.8542693653386
 21
289.4856596906959
 31
0.0
  0
LINE
  5
22B
330
48
100
AcDbEntity
  8
1
  6
Continuous
 62
     7
100
AcDbLine
 10
226.8542693653386
 20
265.9856596906959
 30
0.0
 11
223.8542693653386
 21
265.4856596906959
 31
0.0
  0
LINE
  5
22C
330
48
100
AcDbEntity
  8
1
  6
Continuous
 62
     7
100
AcDbLine
 10
187.8542693653386
 20
263.9856596906959
 30
0.0
 11
187.8542693653386
 21
263.9031279359654
 31
0.0
  0
LINE
  5
22D
330
48
100
AcDbEntity
  8
1
  6
Continuous
 62
     7
100
AcDbLine
 10
211.3542693653386
 20
264.4856596906959
 30
0.0
 11
211.3542693653386
 21
263.9856596906963
 31
0.0
  0
LINE
  5
22E
330
48
100
AcDbEntity
  8
1
  6
Continuous
 62
     7
100
AcDbLine
 10
223.8542693653386
 20
265.4856596906959
 30
0.0
 11
212.3542693653386
 21
265.4856596906959
 31
0.0
  0
LINE
  5
22F
330
48
100
AcDbEntity
  8
1
  6
Continuous
 62
     7
100
AcDbLine
 10
211.3542693653386
 20
263.9856596906963
 30
0.0
 11
186.3542693653386
 21
263.9856596906963
 31
0.0
  0
LINE
  5
230
330
48
100
AcDbEntity
  8
1
  6
Continuous
 62
     7
100
AcDbLine
 10
186.3542693653386
 20
264.4856596906959
 30
0.0
 11
186.3542693653386
 21
263.9856596906963
 31
0.0
  0
LINE
  5
231
330
48
100
AcDbEntity
  8
1
  6
Continuous
 62
     7
100
AcDbLine
 10
209.8542693653386
 20
263.9856596906959
 30
0.0
 11
209.8542693653386
 21
263.9031279359654
 31
0.0
  0
LINE
  5
232
330
48
100
AcDbEntity
  8
1
  6
Continuous
 62
     7
100
AcDbLine
 10
177.3182430814828
 20
272.0225848422869
 30
0.0
 11
187.4712116335022
 21
288.0883357925927
 31
0.0
  0
LINE
  5
233
330
48
100
AcDbEntity
  8
1
  6
Continuous
 62
     7
100
AcDbLine
 10
176.8542693653386
 20
270.4199087403902
 30
0.0
 11
176.8542693653386
 21
269.9856596906959
 31
0.0
  0
LINE
  5
234
330
48
100
AcDbEntity
  8
1
  6
Continuous
 62
     7
100
AcDbLine
 10
91.1042693653386
 20
271.8459842643375
 30
0.0
 11
91.1042693653386
 21
263.9856596906963
 31
0.0
  0
LINE
  5
235
330
48
100
AcDbEntity
  8
1
  6
Continuous
 62
     7
100
AcDbLine
 10
115.571441293946
 20
272.4180009001564
 30
0.0
 11
114.7787648011359
 21
279.3012979530793
 31
0.0
  0
LINE
  5
236
330
48
100
AcDbEntity
  8
1
  6
Continuous
 62
     7
100
AcDbLine
 10
91.9297739295411
 20
279.3012979530793
 30
0.0
 11
91.1370974367312
 21
272.4180009001564
 31
0.0
  0
LINE
  5
237
330
48
100
AcDbEntity
  8
1
  6
Continuous
 62
     7
100
AcDbLine
 10
226.8542693653386
 20
265.9856596906959
 30
0.0
 11
226.8542693653386
 21
288.9856596906959
 31
0.0
  0
LINE
  5
238
330
48
100
AcDbEntity
  8
1
  6
Continuous
 62
     7
100
AcDbLine
 10
92.3542693653386
 20
263.9856596906963
 30
0.0
 11
92.3542693653386
 21
263.9031279359658
 31
0.0
  0
LINE
  5
239
330
48
100
AcDbEntity
  8
1
  6
Continuous
 62
     7
100
AcDbLine
 10
114.3542693653386
 20
263.9856596906963
 30
0.0
 11
114.3542693653386
 21
263.9031279359658
 31
0.0
  0
LINE
  5
23A
330
48
100
AcDbEntity
  8
1
  6
Continuous
 62
     2
100
AcDbLine
 10
113.6772693653382
 20
263.485659690696
 30
0.0
 11
113.6772693653382
 21
263.9856596906959
 31
0.0
  0
LINE
  5
23B
330
48
100
AcDbEntity
  8
1
  6
Continuous
 62
     2
100
AcDbLine
 10
114.3542693653386
 20
263.9031279359658
 30
0.0
 11
114.3542693653381
 21
263.4856596906957
 31
0.0
  0
LINE
  5
23C
330
48
100
AcDbEntity
  8
1
  6
Continuous
 62
     2
100
AcDbLine
 10
92.3542693653386
 20
263.9031279359658
 30
0.0
 11
92.3542693653381
 21
263.4856596906957
 31
0.0
  0
LINE
  5
23D
330
48
100
AcDbEntity
  8
1
  6
Continuous
 62
     2
100
AcDbLine
 10
93.03126936533811
 20
263.485659690696
 30
0.0
 11
93.03126936533811
 21
263.9856596906959
 31
0.0
  0
LINE
  5
23E
330
48
100
AcDbEntity
  8
1
  6
Continuous
 62
     2
100
AcDbLine
 10
209.1772693653387
 20
263.485659690696
 30
0.0
 11
209.1772693653387
 21
263.9856596906959
 31
0.0
  0
LINE
  5
23F
330
48
100
AcDbEntity
  8
1
  6
Continuous
 62
     2
100
AcDbLine
 10
209.8542693653386
 20
263.9031279359654
 30
0.0
 11
209.8542693653386
 21
263.4856596906957
 31
0.0
  0
LINE
  5
240
330
48
100
AcDbEntity
  8
1
  6
Continuous
 62
     2
100
AcDbLine
 10
187.8542693653386
 20
263.9031279359654
 30
0.0
 11
187.8542693653386
 21
263.4856596906957
 31
0.0
  0
LINE
  5
241
330
48
100
AcDbEntity
  8
1
  6
Continuous
 62
     2
100
AcDbLine
 10
188.5312693653387
 20
263.485659690696
 30
0.0
 11
188.5312693653387
 21
263.9856596906959
 31
0.0
  0
ARC
  5
242
330
48
100
AcDbEntity
  8
1
  6
Continuous
 62
     7
100
AcDbCircle
 10
198.8542693653386
 20
256.382659690696
 30
0.0
 40
15.46299999999994
100
AcDbArc
 50
34.49652110519705
 51
145.5034788948028
  0
ARC
  5
243
330
48
100
AcDbEntity
  8
1
  6
Continuous
 62
     7
100
AcDbCircle
 10
103.3542693653349
 20
399.801021830358
 30
0.0
 40
24.99999999999996
100
AcDbArc
 50
-110.0051900881601
 51
-69.99480991184079
  0
ARC
  5
244
330
48
100
AcDbEntity
  8
1
  6
Continuous
 62
     7
100
AcDbCircle
 10
181.3542693653386
 20
269.9856596906959
 30
0.0
 40
4.5
100
AcDbArc
 50
180.0
 51
-90.0
  0
ARC
  5
245
330
48
100
AcDbEntity
  8
1
  6
Continuous
 62
     7
100
AcDbCircle
 10
103.3542693653386
 20
290.4856596906963
 30
0.0
 40
24.99999999999995
100
AcDbArc
 50
-111.2538091853597
 51
-68.74619081464027
  0
ARC
  5
246
330
48
100
AcDbEntity
  8
1
  6
Continuous
 62
     7
100
AcDbCircle
 10
110.6042693653386
 20
271.8459842643375
 30
0.0
 40
4.999999999999852
100
AcDbArc
 50
-68.74619081463965
 51
6.56921108019385
  0
ARC
  5
247
330
48
100
AcDbEntity
  8
1
  6
Continuous
 62
     7
100
AcDbCircle
 10
103.3542693653386
 20
277.9856596906963
 30
0.0
 40
11.49999999999999
100
AcDbArc
 50
6.56921108019141
 51
90.0
  0
ARC
  5
248
330
48
100
AcDbEntity
  8
1
  6
Continuous
 62
     7
100
AcDbCircle
 10
96.1042693653386
 20
271.8459842643375
 30
0.0
 40
4.999999999999892
100
AcDbArc
 50
173.4307889198061
 51
-111.2538091853604
  0
ARC
  5
249
330
48
100
AcDbEntity
  8
1
  6
Continuous
 62
     7
100
AcDbCircle
 10
103.3542693653386
 20
277.9856596906963
 30
0.0
 40
11.5
100
AcDbArc
 50
90.0
 51
173.4307889198087
  0
ARC
  5
24A
330
48
100
AcDbEntity
  8
1
  6
Continuous
 62
     7
100
AcDbCircle
 10
103.3542693653349
 20
361.5062383845705
 30
0.0
 40
24.99999999999982
100
AcDbArc
 50
69.99480991184079
 51
110.0051900881601
  0
ARC
  5
24B
330
48
100
AcDbEntity
  8
1
  6
Continuous
 62
     7
100
AcDbCircle
 10
185.3542693653386
 20
264.4856596906959
 30
0.0
 40
1.0
100
AcDbArc
 50
0.0
 51
40.88673978439019
  0
ARC
  5
24C
330
48
100
AcDbEntity
  8
1
  6
Continuous
 62
     7
100
AcDbCircle
 10
212.3542693653386
 20
264.4856596906959
 30
0.0
 40
1.0
100
AcDbArc
 50
90.0
 51
139.1132602156066
  0
ARC
  5
24D
330
48
100
AcDbEntity
  8
1
  6
Continuous
 62
     7
100
AcDbCircle
 10
185.3542693653386
 20
264.4856596906959
 30
0.0
 40
0.9999999999999328
100
AcDbArc
 50
40.88673978439019
 51
90.0
  0
ARC
  5
24E
330
48
100
AcDbEntity
  8
1
  6
Continuous
 62
     7
100
AcDbCircle
 10
212.3542693653386
 20
264.4856596906959
 30
0.0
 40
0.9999999999998684
100
AcDbArc
 50
139.1132602156066
 51
180.0
  0
ARC
  5
24F
330
48
100
AcDbEntity
  8
1
  6
Continuous
 62
     7
100
AcDbCircle
 10
179.8542693653386
 20
270.4199087403902
 30
0.0
 40
2.999999999999721
100
AcDbArc
 50
147.7086070282313
 51
180.0
  0
ARC
  5
250
330
48
100
AcDbEntity
  8
1
  6
Continuous
 62
     7
100
AcDbCircle
 10
190.0072379173581
 20
286.4856596906959
 30
0.0
 40
3.0
100
AcDbArc
 50
90.0
 51
147.7086070282304
  0
ARC
  5
251
330
48
100
AcDbEntity
  8
1
  6
Continuous
 62
     7
100
AcDbCircle
 10
96.8542693653349
 20
381.947450759001
 30
0.0
 40
6.0
100
AcDbArc
 50
180.0
 51
-110.0051900881616
  0
ARC
  5
252
330
48
100
AcDbEntity
  8
1
  6
Continuous
 62
     7
100
AcDbCircle
 10
109.8542693653349
 20
381.947450759001
 30
0.0
 40
5.999999999999928
100
AcDbArc
 50
-69.994809911842
 51
0.0
  0
ARC
  5
253
330
48
100
AcDbEntity
  8
1
  6
Continuous
 62
     7
100
AcDbCircle
 10
109.8542693653349
 20
379.3598094559278
 30
0.0
 40
5.999999999999711
100
AcDbArc
 50
12.45288818069689
 51
69.99480991184106
  0
ARC
  5
254
330
48
100
AcDbEntity
  8
1
  6
Continuous
 62
     7
100
AcDbCircle
 10
96.8542693653349
 20
379.3598094559278
 30
0.0
 40
5.999999999999797
100
AcDbArc
 50
110.0051900881625
 51
167.5471118193041
  0
ENDBLK
  5
4A
330
48
100
AcDbEntity
  8
0
100
AcDbBlockEnd
  0
BLOCK
  5
4C
330
4B
100
AcDbEntity
  8
0
100
AcDbBlockBegin
  2
32-1-16__2
 70
     0
 71
     0
 10
354.3439179342533
 20
236.1319617207064
 30
0.0
  3
32-1-16__2
  1

  0
LINE
  5
255
330
4B
100
AcDbEntity
  8
1
  6
Continuous
 62
     7
100
AcDbLine
 10
104.5934100544332
 20
582.0014111572527
 30
0.0
 11
116.1151286762363
 21
575.3493438094279
 31
0.0
  0
LINE
  5
256
330
4B
100
AcDbEntity
  8
1
  6
Continuous
 62
     7
100
AcDbLine
 10
89.3542693653346
 20
559.8989544825329
 30
0.0
 11
89.3542693653346
 21
573.2030891781831
 31
0.0
  0
LINE
  5
257
330
4B
100
AcDbEntity
  8
1
  6
Continuous
 62
     7
100
AcDbLine
 10
91.796248303608
 20
243.9856596906961
 30
0.0
 11
91.8542693653386
 21
243.9856596906961
 31
0.0
  0
LINE
  5
258
330
4B
100
AcDbEntity
  8
1
  6
Continuous
 62
     7
100
AcDbLine
 10
114.8542693653386
 20
243.9856596906961
 30
0.0
 11
114.9122904270693
 21
243.9856596906961
 31
0.0
  0
LINE
  5
259
330
4B
100
AcDbEntity
  8
1
  6
Continuous
 62
     7
100
AcDbLine
 10
89.3542693653386
 20
242.6988369404093
 30
0.0
 11
89.3542693653386
 21
235.5574085118664
 31
0.0
  0
LINE
  5
25A
330
4B
100
AcDbEntity
  8
1
  6
Continuous
 62
     7
100
AcDbLine
 10
117.3542693653386
 20
242.6988369404093
 30
0.0
 11
117.3542693653386
 21
235.5574085118664
 31
0.0
  0
LINE
  5
25B
330
4B
100
AcDbEntity
  8
1
  6
Continuous
 62
     7
100
AcDbLine
 10
116.6542693653386
 20
234.9856596906961
 30
0.0
 11
90.0542693653387
 21
234.9856596906961
 31
0.0
  0
LINE
  5
25C
330
4B
100
AcDbEntity
  8
1
  6
Continuous
 62
     7
100
AcDbLine
 10
93.58632017290761
 20
244.9856596906961
 30
0.0
 11
113.1222185577697
 21
244.9856596906961
 31
0.0
  0
LINE
  5
25D
330
4B
100
AcDbEntity
  8
1
  6
Continuous
 62
     7
100
AcDbLine
 10
93.5321598891927
 20
243.9856596906961
 30
0.0
 11
113.2446228986976
 21
243.9856596906961
 31
0.0
  0
LINE
  5
25E
330
4B
100
AcDbEntity
  8
1
  6
Continuous
 62
     7
100
AcDbLine
 10
90.59341005443321
 20
575.3493438094276
 30
0.0
 11
102.1151286762362
 21
582.0014111572527
 31
0.0
  0
LINE
  5
25F
330
4B
100
AcDbEntity
  8
1
  6
Continuous
 62
     7
100
AcDbLine
 10
117.3542693653346
 20
559.8989544825329
 30
0.0
 11
117.3542693653349
 21
573.2030891781833
 31
0.0
  0
LINE
  5
260
330
4B
100
AcDbEntity
  8
1
  6
Continuous
 62
     7
100
AcDbLine
 10
90.59341005443321
 20
557.7526998512883
 30
0.0
 11
95.3542693653349
 21
555.0040164465654
 31
0.0
  0
LINE
  5
261
330
4B
100
AcDbEntity
  8
1
  6
Continuous
 62
     7
100
AcDbLine
 10
111.3542693653349
 20
555.0040164465654
 30
0.0
 11
116.1151286762362
 21
557.7526998512883
 31
0.0
  0
ARC
  5
262
330
4B
100
AcDbEntity
  8
1
  6
Continuous
 62
     7
100
AcDbCircle
 10
103.3542693653349
 20
566.551021830358
 30
0.0
 40
15.50000000000012
100
AcDbArc
 50
25.41462091516194
 51
34.58537908483999
  0
ARC
  5
263
330
4B
100
AcDbEntity
  8
1
  6
Continuous
 62
     7
100
AcDbCircle
 10
103.3542693653349
 20
566.551021830358
 30
0.0
 40
15.50000000000009
100
AcDbArc
 50
85.41462091516189
 51
94.58537908483959
  0
ARC
  5
264
330
4B
100
AcDbEntity
  8
1
  6
Continuous
 62
     7
100
AcDbCircle
 10
92.8542693653386
 20
239.1281227261378
 30
0.0
 40
5.000000000000011
100
AcDbArc
 50
105.3375576695552
 51
134.4270040008051
  0
ARC
  5
265
330
4B
100
AcDbEntity
  8
1
  6
Continuous
 62
     7
100
AcDbCircle
 10
113.8542693653386
 20
239.1281227261378
 30
0.0
 40
5.000000000000087
100
AcDbArc
 50
-55.94420225743262
 51
-45.57299599919402
  0
ARC
  5
266
330
4B
100
AcDbEntity
  8
1
  6
Continuous
 62
     7
100
AcDbCircle
 10
92.8542693653386
 20
239.1281227261378
 30
0.0
 40
4.999999999999975
100
AcDbArc
 50
-134.427004000806
 51
-124.0557977425663
  0
ARC
  5
267
330
4B
100
AcDbEntity
  8
1
  6
Continuous
 62
     7
100
AcDbCircle
 10
113.8542693653386
 20
239.1281227261378
 30
0.0
 40
5.000000000000057
100
AcDbArc
 50
45.57299599919494
 51
74.66244233044463
  0
ARC
  5
268
330
4B
100
AcDbEntity
  8
1
  6
Continuous
 62
     7
100
AcDbCircle
 10
103.3542693653349
 20
566.551021830358
 30
0.0
 40
15.50000000000022
100
AcDbArc
 50
145.4146209151614
 51
154.5853790848393
  0
ARC
  5
269
330
4B
100
AcDbEntity
  8
1
  6
Continuous
 62
     7
100
AcDbCircle
 10
103.3542693653349
 20
566.551021830358
 30
0.0
 40
15.49999999999989
100
AcDbArc
 50
-34.5853790848395
 51
-25.41462091516165
  0
ARC
  5
26A
330
4B
100
AcDbEntity
  8
1
  6
Continuous
 62
     7
100
AcDbCircle
 10
103.3542693653349
 20
566.551021830358
 30
0.0
 40
15.5000000000003
100
AcDbArc
 50
-154.5853790848393
 51
-145.4146209151614
  0
ARC
  5
26B
330
4B
100
AcDbEntity
  8
1
  6
Continuous
 62
     7
100
AcDbCircle
 10
103.3542693653349
 20
566.551021830358
 30
0.0
 40
10.50000000000001
100
AcDbArc
 50
-40.36759354418562
 51
97.5862774767126
  0
ARC
  5
26C
330
4B
100
AcDbEntity
  8
1
  6
Continuous
 62
     7
100
AcDbCircle
 10
103.3542693653349
 20
566.551021830358
 30
0.0
 40
8.200000000000046
100
AcDbArc
 50
90.0
 51
-167.319616508179
  0
ARC
  5
26D
330
4B
100
AcDbEntity
  8
1
  6
Continuous
 62
     7
100
AcDbCircle
 10
103.3542693653349
 20
566.551021830358
 30
0.0
 40
8.20000000000004
100
AcDbArc
 50
-12.68038349182106
 51
90.0
  0
ARC
  5
26E
330
4B
100
AcDbEntity
  8
1
  6
Continuous
 62
     7
100
AcDbCircle
 10
103.3542693653349
 20
566.551021830358
 30
0.0
 40
10.49999999999999
100
AcDbArc
 50
97.5862774767126
 51
-139.6324064558144
  0
SPLINE
  5
26F
330
4B
100
AcDbEntity
  8
0
  6
Continuous
 62
     7
100
AcDbSpline
210
0.0
220
0.0
230
1.0
 70
    11
 71
     3
 72
    79
 73
    75
 74
    73
 42
0.0000000001
 43
0.0000000001
 44
0.00000001
 40
0.0
 40
0.0
 40
0.0
 40
0.0
 40
0.3172897010522111
 40
0.6344527337451149
 40
0.9639951214196292
 40
1.29334143353417
 40
1.640804573045627
 40
1.988067407882349
 40
2.356350230160829
 40
2.724465171366028
 40
3.113717605428429
 40
3.50284419308183
 40
3.910846852994458
 40
4.318762697990866
 40
4.741448997649176
 40
5.164081544475978
 40
5.596084837541959
 40
6.02806254400663
 40
6.463247851975914
 40
6.898433159945197
 40
7.330410866409869
 40
7.762414159475893
 40
8.185046706302675
 40
8.60773300596099
 40
9.015648850957405
 40
9.423651510869972
 40
9.81277809852336
 40
10.20203053258579
 40
10.57014547379104
 40
10.93842829606958
 40
11.28569113090627
 40
11.63315427041782
 40
11.96250058253232
 40
12.29204297020679
 40
12.60920600289966
 40
12.92649570395192
 40
13.23937159641164
 40
13.55224748887141
 40
13.86953718992372
 40
14.1867002226166
 40
14.51624261029107
 40
14.84558892240556
 40
15.19305206191701
 40
15.54031489675377
 40
15.90859771903225
 40
16.27671266023745
 40
16.66596509429985
 40
17.05509168195319
 40
17.46309434186578
 40
17.87101018686225
 40
18.29369648652061
 40
18.71632903334744
 40
19.1483323264134
 40
19.58031003287806
 40
20.01549534084735
 40
20.45068064881663
 40
20.8826583552813
 40
21.31466164834727
 40
21.73729419517407
 40
22.15998049483241
 40
22.56789633982881
 40
22.97589899974138
 40
23.36502558739473
 40
23.75427802145714
 40
24.12239296266239
 40
24.49067578494092
 40
24.83793861977767
 40
25.18540175928913
 40
25.5147480714036
 40
25.8442904590781
 40
26.16145349177103
 40
26.47874319282329
 40
26.79161908528306
 40
27.10449497774278
 40
27.10449497774278
 40
27.10449497774278
 40
27.10449497774278
 10
115.3349304286379
 20
239.4404003744089
 30
0.0
 10
115.3183651041009
 20
239.5449952700404
 30
0.0
 10
115.2852410682338
 20
239.7541433049405
 30
0.0
 10
115.1864845596661
 20
240.0611145154909
 30
0.0
 10
115.0547710659554
 20
240.3591876434204
 30
0.0
 10
114.8848066992119
 20
240.6491999562535
 30
0.0
 10
114.6825575612645
 20
240.9249088850262
 30
0.0
 10
114.4453349909869
 20
241.1888317707435
 30
0.0
 10
114.1797521488841
 20
241.4344087725821
 30
0.0
 10
113.8827601836429
 20
241.664426566941
 30
0.0
 10
113.5620393071817
 20
241.8730189103118
 30
0.0
 10
113.2144850057785
 20
242.0624505799805
 30
0.0
 10
112.8481746474178
 20
242.228146888735
 30
0.0
 10
112.4606609393611
 20
242.3715283483364
 30
0.0
 10
112.0595902497473
 20
242.4895099284653
 30
0.0
 10
111.6438464610424
 20
242.5827326166852
 30
0.0
 10
111.2199033511214
 20
242.6494693037904
 30
0.0
 10
110.7884584417071
 20
242.6899060110504
 30
0.0
 10
110.3542693653405
 20
242.7033189226648
 30
0.0
 10
109.9200802889624
 20
242.6899060110512
 30
0.0
 10
109.4886353795823
 20
242.6494693037872
 30
0.0
 10
109.0646922695372
 20
242.5827326166973
 30
0.0
 10
108.6489484812852
 20
242.4895099284215
 30
0.0
 10
108.2478777900082
 20
242.3715283484985
 30
0.0
 10
107.8603640879517
 20
242.2281468881536
 30
0.0
 10
107.494053707705
 20
242.0624505821111
 30
0.0
 10
107.1464994843804
 20
241.873018902768
 30
0.0
 10
106.8257783245899
 20
241.664426594503
 30
0.0
 10
106.5287873621715
 20
241.4344086758894
 30
0.0
 10
106.2632008907445
 20
241.1888321237417
 30
0.0
 10
106.0259911321158
 20
240.9249076505992
 30
0.0
 10
105.8236955741507
 20
240.6492044734904
 30
0.0
 10
105.6538958994888
 20
240.3591717545146
 30
0.0
 10
105.5215820292733
 20
240.0611730161282
 30
0.0
 10
105.4249866591212
 20
239.7539340301103
 30
0.0
 10
105.3675615266306
 20
239.4426331684427
 30
0.0
 10
105.3476698351996
 20
239.1281227261378
 30
0.0
 10
105.3675615266306
 20
238.8136122838328
 30
0.0
 10
105.4249866591212
 20
238.5023114221652
 30
0.0
 10
105.5215820292733
 20
238.1950724361473
 30
0.0
 10
105.6538958994888
 20
237.897073697761
 30
0.0
 10
105.8236955741507
 20
237.607040978785
 30
0.0
 10
106.0259911321159
 20
237.3313378016763
 30
0.0
 10
106.2632008907444
 20
237.0674133285338
 30
0.0
 10
106.5287873621715
 20
236.8218367763862
 30
0.0
 10
106.8257783245899
 20
236.5918188577726
 30
0.0
 10
107.1464994843804
 20
236.3832265495078
 30
0.0
 10
107.4940537077049
 20
236.1937948701647
 30
0.0
 10
107.8603640879516
 20
236.0280985641221
 30
0.0
 10
108.2478777900082
 20
235.8847171037771
 30
0.0
 10
108.6489484812853
 20
235.7667355238543
 30
0.0
 10
109.0646922695373
 20
235.6735128355782
 30
0.0
 10
109.4886353795822
 20
235.6067761484884
 30
0.0
 10
109.9200802889629
 20
235.5663394412242
 30
0.0
 10
110.3542693653387
 20
235.552926529611
 30
0.0
 10
110.7884584417137
 20
235.5663394412242
 30
0.0
 10
111.2199033510969
 20
235.6067761484885
 30
0.0
 10
111.643846461133
 20
235.6735128355773
 30
0.0
 10
112.0595902494172
 20
235.7667355238573
 30
0.0
 10
112.4606609405757
 20
235.8847171037656
 30
0.0
 10
112.84817464306
 20
236.0280985641635
 30
0.0
 10
113.2144850217464
 20
236.1937948700127
 30
0.0
 10
113.5620392506373
 20
236.3832265500455
 30
0.0
 10
113.8827603902292
 20
236.5918188558076
 30
0.0
 10
114.1797514241391
 20
236.8218367832794
 30
0.0
 10
114.4453376368302
 20
237.0674133033684
 30
0.0
 10
114.6825483088063
 20
237.3313378896791
 30
0.0
 10
114.88484055747
 20
237.6070406567494
 30
0.0
 10
115.0546519730958
 20
237.8970748304872
 30
0.0
 10
115.1869230422319
 20
238.1950682656136
 30
0.0
 10
115.2836724808001
 20
238.502326341451
 30
0.0
 10
115.3405296988816
 20
238.8135568357857
 30
0.0
 10
115.3625132931406
 20
239.1283264749351
 30
0.0
 10
115.3441247168055
 20
239.336375741251
 30
0.0
 10
115.3349304286379
 20
239.4404003744089
 30
0.0
 11
115.3349304286379
 21
239.4404003744089
 31
0.0
 11
115.2772631497652
 21
239.7524055656177
 31
0.0
 11
115.1826974945356
 21
240.0551426234054
 31
0.0
 11
115.0491495536174
 21
240.356411826529
 31
0.0
 11
114.8832823518026
 21
240.640941376252
 31
0.0
 11
114.6780576430114
 21
240.9213222818443
 31
0.0
 11
114.4463319971955
 21
241.1799623822348
 31
0.0
 11
114.1762555375114
 21
241.4303439772251
 31
0.0
 11
113.885492234411
 21
241.6560989583632
 31
0.0
 11
113.559432164604
 21
241.868707256181
 31
0.0
 11
113.2179200845569
 21
242.0552253528919
 31
0.0
 11
112.8463360325744
 21
242.2237230169947
 31
0.0
 11
112.4638466332864
 21
242.3654875966027
 31
0.0
 11
112.0584206531922
 21
242.4850429502406
 31
0.0
 11
111.6460558007127
 21
242.5776361361501
 31
0.0
 11
111.21933532883
 21
242.6449895629082
 31
0.0
 11
110.7892448464026
 21
242.6853246073211
 31
0.0
 11
110.3542693653386
 21
242.6988369404093
 31
0.0
 11
109.9192938842746
 21
242.6853246073211
 31
0.0
 11
109.4892034018472
 21
242.6449895629082
 31
0.0
 11
109.0624829299644
 21
242.5776361361502
 31
0.0
 11
108.6501180774849
 21
242.4850429502408
 31
0.0
 11
108.2446920973907
 21
242.3654875966028
 31
0.0
 11
107.8622026981027
 21
242.2237230169947
 31
0.0
 11
107.4906186461203
 21
242.0552253528921
 31
0.0
 11
107.1491065660732
 21
241.8687072561812
 31
0.0
 11
106.8230464962662
 21
241.6560989583633
 31
0.0
 11
106.5322831931658
 21
241.4303439772251
 31
0.0
 11
106.2622067334816
 21
241.1799623822348
 31
0.0
 11
106.0304810876657
 21
240.9213222818443
 31
0.0
 11
105.8252563788745
 21
240.640941376252
 31
0.0
 11
105.6593891770597
 21
240.356411826529
 31
0.0
 11
105.5258412361416
 21
240.0551426234054
 31
0.0
 11
105.431275580912
 21
239.7524055656177
 31
0.0
 11
105.3736083020393
 21
239.4404003744089
 31
0.0
 11
105.3542693653386
 21
239.1281227261378
 31
0.0
 11
105.3736083020393
 21
238.8158450778666
 31
0.0
 11
105.431275580912
 21
238.5038398866577
 31
0.0
 11
105.5258412361416
 21
238.20110282887
 31
0.0
 11
105.6593891770597
 21
237.8998336257465
 31
0.0
 11
105.8252563788745
 21
237.6153040760235
 31
0.0
 11
106.0304810876657
 21
237.3349231704312
 31
0.0
 11
106.2622067334816
 21
237.0762830700407
 31
0.0
 11
106.5322831931658
 21
236.8259014750504
 31
0.0
 11
106.8230464962662
 21
236.6001464939124
 31
0.0
 11
107.1491065660732
 21
236.3875381960945
 31
0.0
 11
107.4906186461203
 21
236.2010200993837
 31
0.0
 11
107.8622026981027
 21
236.032522435281
 31
0.0
 11
108.2446920973907
 21
235.8907578556729
 31
0.0
 11
108.650118077485
 21
235.7712025020349
 31
0.0
 11
109.0624829299645
 21
235.6786093161254
 31
0.0
 11
109.4892034018472
 21
235.6112558893674
 31
0.0
 11
109.9192938842746
 21
235.5709208449544
 31
0.0
 11
110.3542693653386
 21
235.5574085118662
 31
0.0
 11
110.7892448464026
 21
235.5709208449544
 31
0.0
 11
111.21933532883
 21
235.6112558893673
 31
0.0
 11
111.6460558007127
 21
235.6786093161254
 31
0.0
 11
112.0584206531922
 21
235.7712025020348
 31
0.0
 11
112.4638466332864
 21
235.8907578556729
 31
0.0
 11
112.8463360325744
 21
236.0325224352809
 31
0.0
 11
113.2179200845569
 21
236.2010200993836
 31
0.0
 11
113.559432164604
 21
236.3875381960944
 31
0.0
 11
113.8854922344109
 21
236.6001464939122
 31
0.0
 11
114.1762555375113
 21
236.8259014750504
 31
0.0
 11
114.4463319971955
 21
237.0762830700407
 31
0.0
 11
114.6780576430114
 21
237.3349231704313
 31
0.0
 11
114.8832823518027
 21
237.6153040760235
 31
0.0
 11
115.0491495536175
 21
237.8998336257464
 31
0.0
 11
115.1826974945356
 21
238.20110282887
 31
0.0
 11
115.2772631497652
 21
238.5038398866578
 31
0.0
 11
115.3349304286379
 21
238.8158450778666
 31
0.0
 11
115.3542693653386
 21
239.1281227261378
 31
0.0
 11
115.3349304286379
 21
239.4404003744089
 31
0.0
  0
SPLINE
  5
270
330
4B
100
AcDbEntity
  8
0
  6
Continuous
 62
     7
100
AcDbSpline
210
0.0
220
0.0
230
1.0
 70
    11
 71
     3
 72
    79
 73
    75
 74
    73
 42
0.0000000001
 43
0.0000000001
 44
0.00000001
 40
0.0
 40
0.0
 40
0.0
 40
0.0
 40
0.3172901887051152
 40
0.6344537100601183
 40
0.9639965260532422
 40
1.293343267817152
 40
1.640806753673165
 40
1.98806993589238
 40
2.356353015249392
 40
2.724468214135493
 40
3.113720820879673
 40
3.502847581500022
 40
3.910850342678494
 40
4.318766289051331
 40
4.741452636397915
 40
5.164085230945071
 40
5.59608853866411
 40
6.028066259787022
 40
6.463251571262034
 40
6.89843688273706
 40
7.330414603860012
 40
7.762417911579032
 40
8.185050506126133
 40
8.607736853472794
 40
9.015652799845647
 40
9.423655561024084
 40
9.812782321644367
 40
10.20203492838855
 40
10.5701501272747
 40
10.93843320663172
 40
11.28569638885093
 40
11.63315987470692
 40
11.96250661647079
 40
12.29204943246393
 40
12.60921295381892
 40
12.92650314252406
 40
13.23937954490893
 40
13.55225594729379
 40
13.86954613599896
 40
14.18670965735396
 40
14.51625247334712
 40
14.84559921511108
 40
15.19306270096707
 40
15.5403258831862
 40
15.9086089625431
 40
16.27672416142923
 40
16.66597676817349
 40
17.05510352879384
 40
17.46310628997228
 40
17.87102223634511
 40
18.29370858369171
 40
18.71634117823884
 40
19.14834448595785
 40
19.58032220708079
 40
20.01550751855582
 40
20.45069283003085
 40
20.88267055115378
 40
21.31467385887277
 40
21.73730645341986
 40
22.15999280076647
 40
22.56790874713931
 40
22.97591150831776
 40
23.36503826893807
 40
23.7542908756823
 40
24.12240607456844
 40
24.49068915392542
 40
24.83795233614466
 40
25.18541582200074
 40
25.51476256376467
 40
25.84430537975777
 40
26.16146890111265
 40
26.47875908981784
 40
26.79163549220273
 40
27.1045118945876
 40
27.1045118945876
 40
27.1045118945876
 40
27.1045118945876
 10
101.3349304304933
 20
239.4404008854258
 30
0.0
 10
101.3183651076766
 20
239.5449959456575
 30
0.0
 10
101.2852410751868
 20
239.7541443100893
 30
0.0
 10
101.1864845786102
 20
240.0611160146371
 30
0.0
 10
101.0547710910317
 20
240.3591896356423
 30
0.0
 10
100.8848067373071
 20
240.6492024210237
 30
0.0
 10
100.6825576018017
 20
240.924911816038
 30
0.0
 10
100.445335041394
 20
241.1888351372891
 30
0.0
 10
100.1797521957606
 20
241.4344125592843
 30
0.0
 10
99.88276023618894
 20
241.6644307363986
 30
0.0
 10
99.56203935176768
 20
241.8730234377264
 30
0.0
 10
99.21448505231092
 20
242.0624554241046
 30
0.0
 10
98.8481746840144
 20
242.2281520167695
 30
0.0
 10
98.46066097491828
 20
242.3715337167215
 30
0.0
 10
98.05959027527422
 20
242.4895154984248
 30
0.0
 10
97.64384648309164
 20
242.5827383431259
 30
0.0
 10
97.2199033641497
 20
242.6494751440389
 30
0.0
 10
96.78845844915503
 20
242.6899119190667
 30
0.0
 10
96.35426936534046
 20
242.7033248538646
 30
0.0
 10
95.92008028151453
 20
242.6899119190676
 30
0.0
 10
95.48863536655391
 20
242.6494751440357
 30
0.0
 10
95.06469224748791
 20
242.582738343138
 30
0.0
 10
94.64894845575834
 20
242.4895154983807
 30
0.0
 10
94.24787775445097
 20
242.3715337168835
 30
0.0
 10
93.86036405135496
 20
242.2281520161878
 30
0.0
 10
93.49405366117254
 20
242.062455426235
 30
0.0
 10
93.14649943979427
 20
241.8730234301825
 30
0.0
 10
92.82577827204408
 20
241.6644307639605
 30
0.0
 10
92.52878731529398
 20
241.4344124625918
 30
0.0
 10
92.26320084034067
 20
241.1888354902861
 30
0.0
 10
92.02599109157063
 20
240.9249105816141
 30
0.0
 10
91.82369553608112
 20
240.6492069382496
 30
0.0
 10
91.65389587436633
 20
240.3591737467699
 30
0.0
 10
91.52158201045968
 20
240.061174515156
 30
0.0
 10
91.42498665215031
 20
239.7539350356267
 30
0.0
 10
91.36756152313348
 20
239.4426336708256
 30
0.0
 10
91.34766983662718
 20
239.1281227261378
 30
0.0
 10
91.36756152313346
 20
238.8136117814498
 30
0.0
 10
91.4249866521503
 20
238.5023104166489
 30
0.0
 10
91.52158201045961
 20
238.1950709371194
 30
0.0
 10
91.65389587436631
 20
237.8970717055056
 30
0.0
 10
91.82369553608106
 20
237.6070385140258
 30
0.0
 10
92.02599109157052
 20
237.3313348706613
 30
0.0
 10
92.26320084034065
 20
237.0674099619893
 30
0.0
 10
92.52878731529393
 20
236.8218329896837
 30
0.0
 10
92.8257782720441
 20
236.5918146883153
 30
0.0
 10
93.14649943979423
 20
236.383222022093
 30
0.0
 10
93.49405366117256
 20
236.1937900260406
 30
0.0
 10
93.86036405135496
 20
236.0280934360876
 30
0.0
 10
94.24787775445097
 20
235.884711735392
 30
0.0
 10
94.64894845575834
 20
235.766729953895
 30
0.0
 10
95.06469224748793
 20
235.6735071091377
 30
0.0
 10
95.48863536655384
 20
235.6067703082401
 30
0.0
 10
95.92008028151494
 20
235.5663335332081
 30
0.0
 10
96.35426936533871
 20
235.5529205984112
 30
0.0
 10
96.78845844916164
 20
235.5663335332081
 30
0.0
 10
97.21990336412517
 20
235.6067703082403
 30
0.0
 10
97.64384648318224
 20
235.6735071091369
 30
0.0
 10
98.05959027494406
 20
235.7667299538981
 30
0.0
 10
98.46066097613287
 20
235.8847117353805
 30
0.0
 10
98.84817467965659
 20
236.0280934361291
 30
0.0
 10
99.21448506827881
 20
236.1937900258888
 30
0.0
 10
99.56203929522333
 20
236.3832220226309
 30
0.0
 10
99.8827604427749
 20
236.5918146863501
 30
0.0
 10
100.1797514710166
 20
236.8218329965769
 30
0.0
 10
100.4453376872343
 20
237.0674099368239
 30
0.0
 10
100.6825483493513
 20
237.3313349586639
 30
0.0
 10
100.8848405955414
 20
237.6070381919911
 30
0.0
 10
101.0546519982155
 20
237.8970728382299
 30
0.0
 10
101.1869230610531
 20
238.195066766594
 30
0.0
 10
101.2836724877755
 20
238.5023253359092
 30
0.0
 10
101.3405297023504
 20
238.813556333496
 30
0.0
 10
101.3625132919859
 20
239.1283264746132
 30
0.0
 10
101.3441247176575
 20
239.3363760818217
 30
0.0
 10
101.3349304304933
 20
239.4404008854258
 30
0.0
 11
101.3349304304933
 21
239.4404008854258
 31
0.0
 11
101.2772631566125
 21
239.7524065734696
 31
0.0
 11
101.1826975016696
 21
240.0551441432946
 31
0.0
 11
101.0491495753754
 21
240.3564138214157
 31
0.0
 11
100.8832823658655
 21
240.640943863977
 31
0.0
 11
100.6780576775974
 21
240.9213252137998
 31
0.0
 11
100.4463320158962
 21
241.1799657663706
 31
0.0
 11
100.1762555774517
 21
241.4303477624044
 31
0.0
 11
99.88549225401854
 21
241.6561031375276
 31
0.0
 11
99.55943220264457
 21
241.8687117797676
 31
0.0
 11
99.21792010198615
 21
242.0552301995946
 31
0.0
 11
98.84633606384324
 21
242.2237281394238
 31
0.0
 11
98.46384664663354
 21
242.3654929623801
 31
0.0
 11
98.05842067502448
 21
242.4850485133932
 31
0.0
 11
97.64605580899874
 21
242.5776418567891
 31
0.0
 11
97.21933533997871
 21
242.6449953956681
 31
0.0
 11
96.78924484920279
 21
242.6853305080476
 31
0.0
 11
96.35426936533858
 21
242.6988428639007
 31
0.0
 11
95.91929388147436
 21
242.6853305080476
 31
0.0
 11
95.48920339069839
 21
242.6449953956681
 31
0.0
 11
95.0624829216784
 21
242.5776418567891
 31
0.0
 11
94.65011805565271
 21
242.4850485133931
 31
0.0
 11
94.24469208404358
 21
242.36549296238
 31
0.0
 11
93.8622026668339
 21
242.2237281394236
 31
0.0
 11
93.49061862869098
 21
242.0552301995946
 31
0.0
 11
93.14910652803259
 21
241.8687117797677
 31
0.0
 11
92.82304647665862
 21
241.6561031375277
 31
0.0
 11
92.53228315322539
 21
241.4303477624044
 31
0.0
 11
92.26220671478097
 21
241.1799657663706
 31
0.0
 11
92.03048105307977
 21
240.9213252137997
 31
0.0
 11
91.82525636481165
 21
240.6409438639769
 31
0.0
 11
91.65938915530174
 21
240.3564138214157
 31
0.0
 11
91.52584122900751
 21
240.0551441432946
 31
0.0
 11
91.43127557406464
 21
239.7524065734697
 31
0.0
 11
91.37360830018383
 21
239.4404008854258
 31
0.0
 11
91.35426936533851
 21
239.1281227261378
 31
0.0
 11
91.37360830018383
 21
238.8158445668497
 31
0.0
 11
91.43127557406463
 21
238.5038388788059
 31
0.0
 11
91.52584122900746
 21
238.2011013089809
 31
0.0
 11
91.65938915530167
 21
237.8998316308597
 31
0.0
 11
91.82525636481161
 21
237.6153015882985
 31
0.0
 11
92.03048105307973
 21
237.3349202384757
 31
0.0
 11
92.26220671478093
 21
237.0762796859049
 31
0.0
 11
92.53228315322531
 21
236.8258976898713
 31
0.0
 11
92.82304647665856
 21
236.600142314748
 31
0.0
 11
93.14910652803258
 21
236.3875336725079
 31
0.0
 11
93.49061862869098
 21
236.2010152526809
 31
0.0
 11
93.8622026668339
 21
236.0325173128519
 31
0.0
 11
94.24469208404359
 21
235.8907524898956
 31
0.0
 11
94.65011805565268
 21
235.7711969388825
 31
0.0
 11
95.0624829216784
 21
235.6786035954866
 31
0.0
 11
95.48920339069839
 21
235.6112500566076
 31
0.0
 11
95.91929388147435
 21
235.5709149442281
 31
0.0
 11
96.35426936533857
 21
235.5574025883749
 31
0.0
 11
96.78924484920279
 21
235.5709149442281
 31
0.0
 11
97.21933533997873
 21
235.6112500566077
 31
0.0
 11
97.64605580899871
 21
235.6786035954866
 31
0.0
 11
98.05842067502438
 21
235.7711969388825
 31
0.0
 11
98.4638466466335
 21
235.8907524898955
 31
0.0
 11
98.84633606384318
 21
236.0325173128519
 31
0.0
 11
99.21792010198611
 21
236.201015252681
 31
0.0
 11
99.5594322026445
 21
236.3875336725079
 31
0.0
 11
99.88549225401854
 21
236.6001423147479
 31
0.0
 11
100.1762555774518
 21
236.8258976898711
 31
0.0
 11
100.4463320158963
 21
237.0762796859048
 31
0.0
 11
100.6780576775975
 21
237.3349202384757
 31
0.0
 11
100.8832823658656
 21
237.6153015882986
 31
0.0
 11
101.0491495753755
 21
237.8998316308599
 31
0.0
 11
101.1826975016697
 21
238.201101308981
 31
0.0
 11
101.2772631566126
 21
238.5038388788058
 31
0.0
 11
101.3349304304933
 21
238.8158445668497
 31
0.0
 11
101.3542693653386
 21
239.1281227261378
 31
0.0
 11
101.3349304304933
 21
239.4404008854258
 31
0.0
  0
ARC
  5
271
330
4B
100
AcDbEntity
  8
1
  6
Continuous
 62
     7
100
AcDbCircle
 10
93.58632017290761
 20
243.9856596906961
 30
0.0
 40
1.0
100
AcDbArc
 50
90.0
 51
137.0585971351219
  0
ARC
  5
272
330
4B
100
AcDbEntity
  8
1
  6
Continuous
 62
     7
100
AcDbCircle
 10
93.58632017290761
 20
243.9856596906961
 30
0.0
 40
1.000000000000152
100
AcDbArc
 50
137.0585971351219
 51
150.0000000000048
  0
ARC
  5
273
330
4B
100
AcDbEntity
  8
1
  6
Continuous
 62
     7
100
AcDbCircle
 10
91.8542693653386
 20
244.9856596906961
 30
0.0
 40
1.0
100
AcDbArc
 50
-90.0
 51
-30.00000000000095
  0
ARC
  5
274
330
4B
100
AcDbEntity
  8
1
  6
Continuous
 62
     7
100
AcDbCircle
 10
91.796248303608
 20
242.9856596906961
 30
0.0
 40
1.0
100
AcDbArc
 50
90.0
 51
105.3375576695555
  0
ARC
  5
275
330
4B
100
AcDbEntity
  8
1
  6
Continuous
 62
     7
100
AcDbCircle
 10
113.1222185577697
 20
243.9856596906961
 30
0.0
 40
1.000000000000069
100
AcDbArc
 50
42.94140286488256
 51
90.0
  0
ARC
  5
276
330
4B
100
AcDbEntity
  8
1
  6
Continuous
 62
     7
100
AcDbCircle
 10
113.1222185577697
 20
243.9856596906961
 30
0.0
 40
1.000000000000144
100
AcDbArc
 50
29.99999999999525
 51
42.94140286488256
  0
ARC
  5
277
330
4B
100
AcDbEntity
  8
1
  6
Continuous
 62
     7
100
AcDbCircle
 10
114.8542693653386
 20
244.9856596906961
 30
0.0
 40
0.9999999999998728
100
AcDbArc
 50
-149.9999999999958
 51
-90.0
  0
ARC
  5
278
330
4B
100
AcDbEntity
  8
1
  6
Continuous
 62
     7
100
AcDbCircle
 10
114.9122904270693
 20
242.9856596906961
 30
0.0
 40
1.000000000000081
100
AcDbArc
 50
74.66244233044924
 51
90.0
  0
ENDBLK
  5
4D
330
4B
100
AcDbEntity
  8
0
100
AcDbBlockEnd
  0
BLOCK
  5
4F
330
4E
100
AcDbEntity
  8
0
100
AcDbBlockBegin
  2
61-7-170
 70
     0
 71
     0
 10
219.9542693653386
 20
143.8544915693279
 30
0.0
  3
61-7-170
  1

  0
LINE
  5
279
330
4E
100
AcDbEntity
  8
1
  6
Continuous
 62
     7
100
AcDbLine
 10
111.3542693653349
 20
566.551021830358
 30
0.0
 11
111.3542693653349
 21
424.801021830358
 31
0.0
  0
LINE
  5
27A
330
4E
100
AcDbEntity
  8
1
  6
Continuous
 62
     7
100
AcDbLine
 10
95.3542693653349
 20
566.551021830358
 30
0.0
 11
95.3542693653349
 21
424.801021830358
 31
0.0
  0
LINE
  5
27B
330
4E
100
AcDbEntity
  8
1
  6
Continuous
 62
     7
100
AcDbLine
 10
226.8542693653386
 20
285.4856596906963
 30
0.0
 11
341.8542693653386
 21
285.4856596906963
 31
0.0
  0
LINE
  5
27C
330
4E
100
AcDbEntity
  8
1
  6
Continuous
 62
     7
100
AcDbLine
 10
341.8542693653386
 20
269.4856596906963
 30
0.0
 11
226.8542693653386
 21
269.4856596906963
 31
0.0
  0
LINE
  5
27D
330
4E
100
AcDbEntity
  8
1
  6
Continuous
 62
     7
100
AcDbLine
 10
376.8542693653386
 20
244.9856596906961
 30
0.0
 11
376.8542693653386
 21
250.4856596906963
 31
0.0
  0
LINE
  5
27E
330
4E
100
AcDbEntity
  8
1
  6
Continuous
 62
     7
100
AcDbLine
 10
360.8542693653386
 20
244.9856596906961
 30
0.0
 11
360.8542693653386
 21
250.4856596906963
 31
0.0
  0
LINE
  5
27F
330
4E
100
AcDbEntity
  8
1
  6
Continuous
 62
     7
100
AcDbLine
 10
111.3542693653386
 20
249.9856596906959
 30
0.0
 11
111.3542693653386
 21
244.9856596906961
 31
0.0
  0
LINE
  5
280
330
4E
100
AcDbEntity
  8
1
  6
Continuous
 62
     7
100
AcDbLine
 10
95.3542693653387
 20
244.9856596906961
 30
0.0
 11
95.3542693653387
 21
249.9856596906959
 31
0.0
  0
ARC
  5
281
330
4E
100
AcDbEntity
  8
1
  6
Continuous
 62
     7
100
AcDbCircle
 10
341.8542693653386
 20
250.4856596906963
 30
0.0
 40
19.0
100
AcDbArc
 50
0.0
 51
90.0
  0
ARC
  5
282
330
4E
100
AcDbEntity
  8
1
  6
Continuous
 62
     7
100
AcDbCircle
 10
341.8542693653386
 20
250.4856596906963
 30
0.0
 40
35.0
100
AcDbArc
 50
0.0
 51
90.0
  0
ARC
  5
283
330
4E
100
AcDbEntity
  8
0
  6
Continuous
 62
     7
100
AcDbCircle
 10
103.3542693653349
 20
566.551021830358
 30
0.0
 40
8.0
100
AcDbArc
 50
0.0
 51
180.0
  0
ENDBLK
  5
50
330
4E
100
AcDbEntity
  8
0
100
AcDbBlockEnd
  0
BLOCK
  5
52
330
51
100
AcDbEntity
  8
0
100
AcDbBlockBegin
  2
35-28
 70
     0
 71
     0
 10
285.5066672426518
 20
71.65744237511265
 30
0.0
  3
35-28
  1

  0
LINE
  5
284
330
51
100
AcDbEntity
  8
1
  6
Continuous
 62
     7
100
AcDbLine
 10
411.8542693653386
 20
182.9856596906961
 30
0.0
 11
411.8542693653387
 21
182.4856596906961
 31
0.0
  0
LINE
  5
285
330
51
100
AcDbEntity
  8
1
  6
Continuous
 62
     7
100
AcDbLine
 10
424.8542693653386
 20
182.9856596906961
 30
0.0
 11
424.8542693653387
 21
182.4856596906961
 31
0.0
  0
LINE
  5
286
330
51
100
AcDbEntity
  8
1
  6
Continuous
 62
     7
100
AcDbLine
 10
411.8542693653386
 20
182.9856596906961
 30
0.0
 11
424.8542693653386
 21
182.9856596906961
 31
0.0
  0
LINE
  5
287
330
51
100
AcDbEntity
  8
1
  6
Continuous
 62
     7
100
AcDbLine
 10
425.3542693653386
 20
184.4856596906961
 30
0.0
 11
425.3542693653387
 21
191.4856596906961
 31
0.0
  0
LINE
  5
288
330
51
100
AcDbEntity
  8
1
  6
Continuous
 62
     7
100
AcDbLine
 10
424.8542693653386
 20
184.4856596906961
 30
0.0
 11
425.3542693653386
 21
184.4856596906961
 31
0.0
  0
LINE
  5
289
330
51
100
AcDbEntity
  8
1
  6
Continuous
 62
     7
100
AcDbLine
 10
411.3542693653386
 20
184.4856596906961
 30
0.0
 11
411.8542693653386
 21
184.4856596906961
 31
0.0
  0
LINE
  5
28A
330
51
100
AcDbEntity
  8
1
  6
Continuous
 62
     7
100
AcDbLine
 10
411.8542693653386
 20
184.4856596906961
 30
0.0
 11
411.8542693653386
 21
182.9856596906961
 31
0.0
  0
LINE
  5
28B
330
51
100
AcDbEntity
  8
1
  6
Continuous
 62
     7
100
AcDbLine
 10
424.8542693653386
 20
184.4856596906961
 30
0.0
 11
424.8542693653386
 21
182.9856596906961
 31
0.0
  0
LINE
  5
28C
330
51
100
AcDbEntity
  8
1
  6
Continuous
 62
     7
100
AcDbLine
 10
110.3542693653326
 20
191.730960553262
 30
0.0
 11
110.3542693653326
 21
182.9856596906961
 31
0.0
  0
LINE
  5
28D
330
51
100
AcDbEntity
  8
1
  6
Continuous
 62
     7
100
AcDbLine
 10
100.7561931539793
 20
184.4856596906961
 30
0.0
 11
105.9523455766859
 21
182.9856596906961
 31
0.0
  0
LINE
  5
28E
330
51
100
AcDbEntity
  8
1
  6
Continuous
 62
     7
100
AcDbLine
 10
96.8542693653326
 20
182.4856596906961
 30
0.0
 11
109.8542693653326
 21
182.4856596906961
 31
0.0
  0
LINE
  5
28F
330
51
100
AcDbEntity
  8
1
  6
Continuous
 62
     7
100
AcDbLine
 10
105.9523455766859
 20
182.9856596906961
 30
0.0
 11
105.9523455766859
 21
184.4856596906961
 31
0.0
  0
LINE
  5
290
330
51
100
AcDbEntity
  8
1
  6
Continuous
 62
     7
100
AcDbLine
 10
110.3542693653326
 20
182.9856596906961
 30
0.0
 11
105.9523455766859
 21
182.9856596906961
 31
0.0
  0
LINE
  5
291
330
51
100
AcDbEntity
  8
1
  6
Continuous
 62
     7
100
AcDbLine
 10
109.8542693653326
 20
182.4856596906961
 30
0.0
 11
110.3542693653326
 21
182.9856596906961
 31
0.0
  0
LINE
  5
292
330
51
100
AcDbEntity
  8
1
  6
Continuous
 62
     7
100
AcDbLine
 10
105.9523455766859
 20
184.4856596906961
 30
0.0
 11
100.7561931539793
 21
182.9856596906961
 31
0.0
  0
LINE
  5
293
330
51
100
AcDbEntity
  8
1
  6
Continuous
 62
     7
100
AcDbLine
 10
105.9523455766859
 20
184.4856596906961
 30
0.0
 11
100.7561931539793
 21
184.4856596906961
 31
0.0
  0
LINE
  5
294
330
51
100
AcDbEntity
  8
1
  6
Continuous
 62
     7
100
AcDbLine
 10
100.7561931539793
 20
184.4856596906961
 30
0.0
 11
100.7561931539793
 21
182.9856596906961
 31
0.0
  0
LINE
  5
295
330
51
100
AcDbEntity
  8
1
  6
Continuous
 62
     7
100
AcDbLine
 10
100.7561931539793
 20
182.9856596906961
 30
0.0
 11
96.3542693653326
 21
182.9856596906961
 31
0.0
  0
LINE
  5
296
330
51
100
AcDbEntity
  8
1
  6
Continuous
 62
     7
100
AcDbLine
 10
96.3542693653326
 20
182.9856596906961
 30
0.0
 11
96.8542693653326
 21
182.4856596906961
 31
0.0
  0
LINE
  5
297
330
51
100
AcDbEntity
  8
1
  6
Continuous
 62
     7
100
AcDbLine
 10
96.3542693653326
 20
182.9856596906961
 30
0.0
 11
96.3542693653326
 21
191.7309605532618
 31
0.0
  0
LINE
  5
298
330
51
100
AcDbEntity
  8
1
  6
Continuous
 62
     7
100
AcDbLine
 10
424.8542693653387
 20
182.4856596906961
 30
0.0
 11
411.8542693653387
 21
182.4856596906961
 31
0.0
  0
LINE
  5
299
330
51
100
AcDbEntity
  8
1
  6
Continuous
 62
     7
100
AcDbLine
 10
411.3542693653387
 20
191.4856596906961
 30
0.0
 11
411.3542693653386
 21
184.4856596906961
 31
0.0
  0
ARC
  5
29A
330
51
100
AcDbEntity
  8
1
  6
Continuous
 62
     7
100
AcDbCircle
 10
103.5783074710092
 20
188.3215235451056
 30
0.0
 40
5.840162668967228
100
AcDbArc
 50
-92.19849841521541
 51
-66.0147122865213
  0
ARC
  5
29B
330
51
100
AcDbEntity
  8
1
  6
Continuous
 62
     7
100
AcDbCircle
 10
103.1302312596559
 20
188.3215235451056
 30
0.0
 40
5.84016266896722
100
AcDbArc
 50
-113.9852877134778
 51
-87.80150158478362
  0
ENDBLK
  5
53
330
51
100
AcDbEntity
  8
0
100
AcDbBlockEnd
  0
BLOCK
  5
55
330
54
100
AcDbEntity
  8
0
100
AcDbBlockBegin
  2
31-17
 70
     0
 71
     0
 10
327.4640012626612
 20
78.07784673939139
 30
0.0
  3
31-17
  1

  0
LINE
  5
29C
330
54
100
AcDbEntity
  8
1
  6
Continuous
 62
     2
100
AcDbLine
 10
411.3542693653387
 20
177.8523263573628
 30
0.0
 11
411.3542693653387
 21
174.1189930240294
 31
0.0
  0
LINE
  5
29D
330
54
100
AcDbEntity
  8
1
  6
Continuous
 62
     2
100
AcDbLine
 10
412.3542693653387
 20
177.5856596906961
 30
0.0
 11
412.3542693653387
 21
174.385659690696
 31
0.0
  0
LINE
  5
29E
330
54
100
AcDbEntity
  8
1
  6
Continuous
 62
     2
100
AcDbLine
 10
413.3542693653387
 20
177.3189930240295
 30
0.0
 11
413.3542693653387
 21
174.6523263573627
 31
0.0
  0
LINE
  5
29F
330
54
100
AcDbEntity
  8
1
  6
Continuous
 62
     2
100
AcDbLine
 10
414.3542693653387
 20
177.0523263573627
 30
0.0
 11
414.3542693653387
 21
174.9189930240293
 31
0.0
  0
LINE
  5
2A0
330
54
100
AcDbEntity
  8
1
  6
Continuous
 62
     2
100
AcDbLine
 10
415.3542693653387
 20
176.785659690696
 30
0.0
 11
415.3542693653387
 21
175.185659690696
 31
0.0
  0
LINE
  5
2A1
330
54
100
AcDbEntity
  8
1
  6
Continuous
 62
     2
100
AcDbLine
 10
416.3542693653387
 20
176.5189930240294
 30
0.0
 11
416.3542693653387
 21
175.4523263573628
 31
0.0
  0
LINE
  5
2A2
330
54
100
AcDbEntity
  8
1
  6
Continuous
 62
     7
100
AcDbLine
 10
422.8542693653387
 20
179.1980952559943
 30
0.0
 11
422.8542693653387
 21
182.4856596906961
 31
0.0
  0
LINE
  5
2A3
330
54
100
AcDbEntity
  8
1
  6
Continuous
 62
     7
100
AcDbLine
 10
422.8542693653387
 20
177.9856596906961
 30
0.0
 11
410.8542693653388
 21
177.9856596906961
 31
0.0
  0
LINE
  5
2A4
330
54
100
AcDbEntity
  8
1
  6
Continuous
 62
     7
100
AcDbLine
 10
98.8542693653322
 20
182.4856596906961
 30
0.0
 11
98.8542693653322
 21
179.1980952559943
 31
0.0
  0
LINE
  5
2A5
330
54
100
AcDbEntity
  8
1
  6
Continuous
 62
     2
100
AcDbLine
 10
99.5542693653321
 20
182.4856596906961
 30
0.0
 11
99.5542693653321
 21
179.1980952559943
 31
0.0
  0
LINE
  5
2A6
330
54
100
AcDbEntity
  8
1
  6
Continuous
 62
     7
100
AcDbLine
 10
98.8542693653322
 20
179.1980952559943
 30
0.0
 11
99.5542693653321
 21
179.1980952559943
 31
0.0
  0
LINE
  5
2A7
330
54
100
AcDbEntity
  8
1
  6
Continuous
 62
     7
100
AcDbLine
 10
103.3542693653322
 20
179.1980952559943
 30
0.0
 11
99.5542693653321
 21
179.1980952559943
 31
0.0
  0
LINE
  5
2A8
330
54
100
AcDbEntity
  8
1
  6
Continuous
 62
     2
100
AcDbLine
 10
99.5542693653321
 20
179.1980952559943
 30
0.0
 11
98.8542693653322
 21
177.9856596906961
 31
0.0
  0
LINE
  5
2A9
330
54
100
AcDbEntity
  8
1
  6
Continuous
 62
     7
100
AcDbLine
 10
98.8542693653322
 20
177.9856596906961
 30
0.0
 11
107.8542693653322
 21
177.9856596906961
 31
0.0
  0
LINE
  5
2AA
330
54
100
AcDbEntity
  8
1
  6
Continuous
 62
     7
100
AcDbLine
 10
98.8542693653322
 20
179.1980952559943
 30
0.0
 11
98.8542693653322
 21
177.9856596906961
 31
0.0
  0
LINE
  5
2AB
330
54
100
AcDbEntity
  8
1
  6
Continuous
 62
     7
100
AcDbLine
 10
96.3542693653322
 20
177.9856596906961
 30
0.0
 11
98.8542693653322
 21
177.9856596906961
 31
0.0
  0
LINE
  5
2AC
330
54
100
AcDbEntity
  8
1
  6
Continuous
 62
     7
100
AcDbLine
 10
95.3542693653322
 20
174.4856596906961
 30
0.0
 11
95.3542693653322
 21
177.4856596906961
 31
0.0
  0
LINE
  5
2AD
330
54
100
AcDbEntity
  8
1
  6
Continuous
 62
     2
100
AcDbLine
 10
96.3542693653322
 20
177.9856596906961
 30
0.0
 11
96.3542693653322
 21
173.9856596906961
 31
0.0
  0
LINE
  5
2AE
330
54
100
AcDbEntity
  8
1
  6
Continuous
 62
     7
100
AcDbLine
 10
95.8542693653322
 20
173.9856596906961
 30
0.0
 11
96.3542693653322
 21
173.9856596906961
 31
0.0
  0
LINE
  5
2AF
330
54
100
AcDbEntity
  8
1
  6
Continuous
 62
     7
100
AcDbLine
 10
95.8542693653322
 20
177.9856596906961
 30
0.0
 11
96.3542693653322
 21
177.9856596906961
 31
0.0
  0
LINE
  5
2B0
330
54
100
AcDbEntity
  8
1
  6
Continuous
 62
     2
100
AcDbLine
 10
97.3542693653322
 20
177.5794991156473
 30
0.0
 11
97.3542693653322
 21
174.2379277639161
 31
0.0
  0
LINE
  5
2B1
330
54
100
AcDbEntity
  8
1
  6
Continuous
 62
     2
100
AcDbLine
 10
98.3542693653322
 20
177.322455165514
 30
0.0
 11
98.3542693653322
 21
174.3807299584346
 31
0.0
  0
LINE
  5
2B2
330
54
100
AcDbEntity
  8
1
  6
Continuous
 62
     2
100
AcDbLine
 10
99.3542693653322
 20
177.2082134098995
 30
0.0
 11
99.3542693653322
 21
174.5806530307604
 31
0.0
  0
LINE
  5
2B3
330
54
100
AcDbEntity
  8
1
  6
Continuous
 62
     2
100
AcDbLine
 10
100.3542693653322
 20
176.9511694597661
 30
0.0
 11
100.3542693653322
 21
174.609213469664
 31
0.0
  0
LINE
  5
2B4
330
54
100
AcDbEntity
  8
1
  6
Continuous
 62
     2
100
AcDbLine
 10
101.3542693653322
 20
176.6370046318257
 30
0.0
 11
101.3542693653322
 21
174.8376969808936
 31
0.0
  0
LINE
  5
2B5
330
54
100
AcDbEntity
  8
1
  6
Continuous
 62
     2
100
AcDbLine
 10
102.3542693653322
 20
176.4942024373073
 30
0.0
 11
102.3542693653322
 21
175.151861808834
 31
0.0
  0
LINE
  5
2B6
330
54
100
AcDbEntity
  8
1
  6
Continuous
 62
     7
100
AcDbLine
 10
110.3542693653322
 20
173.9856596906961
 30
0.0
 11
96.3542693653322
 21
173.9856596906961
 31
0.0
  0
LINE
  5
2B7
330
54
100
AcDbEntity
  8
1
  6
Continuous
 62
     7
100
AcDbLine
 10
107.8542693653322
 20
179.1980952559943
 30
0.0
 11
107.8542693653322
 21
182.4856596906961
 31
0.0
  0
LINE
  5
2B8
330
54
100
AcDbEntity
  8
1
  6
Continuous
 62
     7
100
AcDbLine
 10
107.1542693653322
 20
179.1980952559943
 30
0.0
 11
107.8542693653322
 21
179.1980952559943
 31
0.0
  0
LINE
  5
2B9
330
54
100
AcDbEntity
  8
1
  6
Continuous
 62
     7
100
AcDbLine
 10
107.1542693653322
 20
179.1980952559943
 30
0.0
 11
103.3542693653322
 21
179.1980952559943
 31
0.0
  0
LINE
  5
2BA
330
54
100
AcDbEntity
  8
1
  6
Continuous
 62
     2
100
AcDbLine
 10
107.1542693653322
 20
179.1980952559943
 30
0.0
 11
107.1542693653322
 21
182.4856596906961
 31
0.0
  0
LINE
  5
2BB
330
54
100
AcDbEntity
  8
1
  6
Continuous
 62
     2
100
AcDbLine
 10
107.8542693653322
 20
177.9856596906961
 30
0.0
 11
107.1542693653322
 21
179.1980952559943
 31
0.0
  0
LINE
  5
2BC
330
54
100
AcDbEntity
  8
1
  6
Continuous
 62
     7
100
AcDbLine
 10
107.8542693653322
 20
177.9856596906961
 30
0.0
 11
107.8542693653322
 21
179.1980952559943
 31
0.0
  0
LINE
  5
2BD
330
54
100
AcDbEntity
  8
1
  6
Continuous
 62
     7
100
AcDbLine
 10
107.8542693653322
 20
177.9856596906961
 30
0.0
 11
110.3542693653322
 21
177.9856596906961
 31
0.0
  0
LINE
  5
2BE
330
54
100
AcDbEntity
  8
1
  6
Continuous
 62
     7
100
AcDbLine
 10
111.3542693653322
 20
177.4856596906961
 30
0.0
 11
111.3542693653322
 21
174.4856596906961
 31
0.0
  0
LINE
  5
2BF
330
54
100
AcDbEntity
  8
1
  6
Continuous
 62
     2
100
AcDbLine
 10
110.3542693653322
 20
173.9856596906961
 30
0.0
 11
110.3542693653322
 21
177.9856596906961
 31
0.0
  0
LINE
  5
2C0
330
54
100
AcDbEntity
  8
1
  6
Continuous
 62
     7
100
AcDbLine
 10
110.3542693653322
 20
173.9856596906961
 30
0.0
 11
110.8542693653322
 21
173.9856596906961
 31
0.0
  0
LINE
  5
2C1
330
54
100
AcDbEntity
  8
1
  6
Continuous
 62
     7
100
AcDbLine
 10
110.3542693653322
 20
177.9856596906961
 30
0.0
 11
110.8542693653322
 21
177.9856596906961
 31
0.0
  0
LINE
  5
2C2
330
54
100
AcDbEntity
  8
1
  6
Continuous
 62
     2
100
AcDbLine
 10
109.3542693653322
 20
174.2379277639161
 30
0.0
 11
109.3542693653322
 21
177.5794991156473
 31
0.0
  0
LINE
  5
2C3
330
54
100
AcDbEntity
  8
1
  6
Continuous
 62
     2
100
AcDbLine
 10
108.3542693653322
 20
174.3807299584346
 30
0.0
 11
108.3542693653322
 21
177.322455165514
 31
0.0
  0
LINE
  5
2C4
330
54
100
AcDbEntity
  8
1
  6
Continuous
 62
     2
100
AcDbLine
 10
107.3542693653322
 20
174.5806530307604
 30
0.0
 11
107.3542693653322
 21
177.2082134098995
 31
0.0
  0
LINE
  5
2C5
330
54
100
AcDbEntity
  8
1
  6
Continuous
 62
     2
100
AcDbLine
 10
106.3542693653322
 20
174.609213469664
 30
0.0
 11
106.3542693653322
 21
176.9511694597661
 31
0.0
  0
LINE
  5
2C6
330
54
100
AcDbEntity
  8
1
  6
Continuous
 62
     2
100
AcDbLine
 10
105.3542693653322
 20
174.8376969808936
 30
0.0
 11
105.3542693653322
 21
176.6370046318257
 31
0.0
  0
LINE
  5
2C7
330
54
100
AcDbEntity
  8
1
  6
Continuous
 62
     2
100
AcDbLine
 10
104.3542693653322
 20
175.151861808834
 30
0.0
 11
104.3542693653322
 21
176.4942024373073
 31
0.0
  0
LINE
  5
2C8
330
54
100
AcDbEntity
  8
1
  6
Continuous
 62
     7
100
AcDbLine
 10
422.8542693653387
 20
179.1980952559943
 30
0.0
 11
413.8542693653387
 21
179.1980952559943
 31
0.0
  0
LINE
  5
2C9
330
54
100
AcDbEntity
  8
1
  6
Continuous
 62
     2
100
AcDbLine
 10
414.3542693653387
 20
179.1980952559943
 30
0.0
 11
414.3542693653387
 21
182.4856596906961
 31
0.0
  0
LINE
  5
2CA
330
54
100
AcDbEntity
  8
1
  6
Continuous
 62
     2
100
AcDbLine
 10
422.3542693653387
 20
179.1980952559943
 30
0.0
 11
422.8542693653387
 21
177.9856596906961
 31
0.0
  0
LINE
  5
2CB
330
54
100
AcDbEntity
  8
1
  6
Continuous
 62
     2
100
AcDbLine
 10
422.3542693653387
 20
179.1980952559943
 30
0.0
 11
422.3542693653387
 21
182.4856596906961
 31
0.0
  0
LINE
  5
2CC
330
54
100
AcDbEntity
  8
1
  6
Continuous
 62
     7
100
AcDbLine
 10
426.3542693653387
 20
177.4856596906961
 30
0.0
 11
426.3542693653387
 21
174.4856596906961
 31
0.0
  0
LINE
  5
2CD
330
54
100
AcDbEntity
  8
1
  6
Continuous
 62
     7
100
AcDbLine
 10
422.8542693653387
 20
177.9856596906961
 30
0.0
 11
422.8542693653387
 21
179.1980952559943
 31
0.0
  0
LINE
  5
2CE
330
54
100
AcDbEntity
  8
1
  6
Continuous
 62
     7
100
AcDbLine
 10
413.8542693653387
 20
182.4856596906961
 30
0.0
 11
413.8542693653387
 21
177.9856596906961
 31
0.0
  0
LINE
  5
2CF
330
54
100
AcDbEntity
  8
1
  6
Continuous
 62
     2
100
AcDbLine
 10
413.8542693653387
 20
177.9856596906961
 30
0.0
 11
414.3542693653387
 21
179.1980952559943
 31
0.0
  0
LINE
  5
2D0
330
54
100
AcDbEntity
  8
1
  6
Continuous
 62
     7
100
AcDbLine
 10
425.8542693653387
 20
173.9856596906961
 30
0.0
 11
410.8542693653388
 21
173.9856596906961
 31
0.0
  0
LINE
  5
2D1
330
54
100
AcDbEntity
  8
1
  6
Continuous
 62
     7
100
AcDbLine
 10
425.8542693653387
 20
177.9856596906961
 30
0.0
 11
422.8542693653387
 21
177.9856596906961
 31
0.0
  0
LINE
  5
2D2
330
54
100
AcDbEntity
  8
1
  6
Continuous
 62
     7
100
AcDbLine
 10
410.3542693653387
 20
174.4856596906961
 30
0.0
 11
410.3542693653387
 21
177.4856596906961
 31
0.0
  0
ARC
  5
2D3
330
54
100
AcDbEntity
  8
1
  6
Continuous
 62
     7
100
AcDbCircle
 10
95.8542693653322
 20
174.4856596906961
 30
0.0
 40
0.5
100
AcDbArc
 50
180.0
 51
-90.0
  0
ARC
  5
2D4
330
54
100
AcDbEntity
  8
1
  6
Continuous
 62
     7
100
AcDbCircle
 10
95.8542693653322
 20
177.4856596906961
 30
0.0
 40
0.5
100
AcDbArc
 50
90.0
 51
180.0
  0
ARC
  5
2D5
330
54
100
AcDbEntity
  8
1
  6
Continuous
 62
     7
100
AcDbCircle
 10
110.8542693653322
 20
174.4856596906961
 30
0.0
 40
0.5
100
AcDbArc
 50
-90.0
 51
0.0
  0
ARC
  5
2D6
330
54
100
AcDbEntity
  8
1
  6
Continuous
 62
     7
100
AcDbCircle
 10
110.8542693653322
 20
177.4856596906961
 30
0.0
 40
0.5
100
AcDbArc
 50
0.0
 51
90.0
  0
ARC
  5
2D7
330
54
100
AcDbEntity
  8
1
  6
Continuous
 62
     7
100
AcDbCircle
 10
425.8542693653387
 20
174.4856596906961
 30
0.0
 40
0.5
100
AcDbArc
 50
-90.0
 51
0.0
  0
ARC
  5
2D8
330
54
100
AcDbEntity
  8
1
  6
Continuous
 62
     7
100
AcDbCircle
 10
425.8542693653387
 20
177.4856596906961
 30
0.0
 40
0.5
100
AcDbArc
 50
0.0
 51
90.0
  0
ARC
  5
2D9
330
54
100
AcDbEntity
  8
1
  6
Continuous
 62
     7
100
AcDbCircle
 10
410.8542693653388
 20
177.4856596906961
 30
0.0
 40
0.5
100
AcDbArc
 50
90.0
 51
180.0
  0
ARC
  5
2DA
330
54
100
AcDbEntity
  8
1
  6
Continuous
 62
     7
100
AcDbCircle
 10
410.8542693653388
 20
174.4856596906961
 30
0.0
 40
0.5000000000000568
100
AcDbArc
 50
180.0
 51
-90.0
  0
ENDBLK
  5
56
330
54
100
AcDbEntity
  8
0
100
AcDbBlockEnd
  0
BLOCK
  5
306
330
2FF
100
AcDbEntity
  8
0
100
AcDbBlockBegin
  2
*D012
 70
     1
 71
     0
 10
0.0
 20
0.0
 30
0.0
  3
*D012
  1

  0
LINE
  5
300
330
2FF
100
AcDbEntity
  8
1
  6
Continuous
 62
     2
100
AcDbLine
 10
103.3542693653321
 20
148.9856596906961
 30
0.0
 11
168.6638099460338
 21
148.9856596906961
 31
0.0
  0
LINE
  5
301
330
2FF
100
AcDbEntity
  8
1
  6
Continuous
 62
     2
100
AcDbLine
 10
103.3542693653321
 20
185.4856596906885
 30
0.0
 11
103.3542693653321
 21
146.4856596906961
 31
0.0
  0
LINE
  5
302
330
2FF
100
AcDbEntity
  8
1
  6
Continuous
 62
     2
100
AcDbLine
 10
168.6638099460338
 20
201.4856596906962
 30
0.0
 11
168.6638099460338
 21
146.4856596906961
 31
0.0
  0
SOLID
  5
303
330
2FF
100
AcDbEntity
  8
1
 62
     2
100
AcDbTrace
 10
112.1042693653321
 20
150.1376190445858
 30
0.0
 11
112.1042693653321
 21
147.8337003368064
 31
0.0
 12
103.3542693653321
 22
148.9856596906961
 32
0.0
 13
103.3542693653321
 23
148.9856596906961
 33
0.0
  0
SOLID
  5
304
330
2FF
100
AcDbEntity
  8
1
 62
     2
100
AcDbTrace
 10
159.9138099460338
 20
147.8337003368064
 30
0.0
 11
159.9138099460338
 21
150.1376190445858
 31
0.0
 12
168.6638099460338
 22
148.9856596906961
 32
0.0
 13
168.6638099460338
 23
148.9856596906961
 33
0.0
  0
MTEXT
  5
305
330
2FF
100
AcDbEntity
  8
1
 62
     7
100
AcDbMText
 10
129.4621209069194
 20
151.4856596906961
 30
0.0
 40
8.75
 41
0.0
 71
     7
 72
     1
  1
66
  7
CONVERTER_2
 11
0.9999999999970621
 21
2.424068405545307E-6
 31
0.0
 73
     1
 44
0.60024009603842
  0
ENDBLK
  5
307
330
2FF
100
AcDbEntity
  8
0
100
AcDbBlockEnd
  0
BLOCK
  5
311
330
30A
100
AcDbEntity
  8
0
100
AcDbBlockBegin
  2
*D113
 70
     1
 71
     0
 10
0.0
 20
0.0
 30
0.0
  3
*D113
  1

  0
LINE
  5
30B
330
30A
100
AcDbEntity
  8
0
  6
Continuous
 62
     2
100
AcDbLine
 10
193.854269365335
 20
650.0510218303579
 30
0.0
 11
193.854269365335
 21
668.6063240225949
 31
0.0
  0
LINE
  5
30C
330
30A
100
AcDbEntity
  8
0
  6
Continuous
 62
     2
100
AcDbLine
 10
193.854269365335
 20
636.051021830358
 30
0.0
 11
193.854269365335
 21
650.0510218303579
 31
0.0
  0
LINE
  5
30D
330
30A
100
AcDbEntity
  8
0
  6
Continuous
 62
     2
100
AcDbLine
 10
126.3542693653348
 20
636.051021830358
 30
0.0
 11
196.354269365335
 21
636.051021830358
 31
0.0
  0
LINE
  5
30E
330
30A
100
AcDbEntity
  8
0
  6
Continuous
 62
     2
100
AcDbLine
 10
112.8542693653349
 20
650.0510218303579
 30
0.0
 11
196.354269365335
 21
650.0510218303579
 31
0.0
  0
SOLID
  5
30F
330
30A
100
AcDbEntity
  8
0
 62
     2
100
AcDbTrace
 10
192.7023100114453
 20
658.8010218303579
 30
0.0
 11
195.0062287192247
 21
658.8010218303579
 31
0.0
 12
193.854269365335
 22
650.0510218303579
 32
0.0
 13
193.854269365335
 23
650.0510218303579
 33
0.0
  0
MTEXT
  5
310
330
30A
100
AcDbEntity
  8
0
 62
     7
100
AcDbMText
 10
191.354269365335
 20
658.1063240225949
 30
0.0
 40
8.75
 41
0.0
 71
     7
 72
     1
  1
14
  7
CONVERTER_2
 11
0.0
 21
1.0
 31
0.0
 73
     1
 44
0.60024009603842
  0
ENDBLK
  5
312
330
30A
100
AcDbEntity
  8
0
100
AcDbBlockEnd
  0
BLOCK
  5
314
330
313
100
AcDbEntity
  8
0
100
AcDbBlockBegin
  2
_None
 70
     0
 71
     0
 10
0.0
 20
0.0
 30
0.0
  3
_None
  1

  0
ENDBLK
  5
315
330
313
100
AcDbEntity
  8
0
100
AcDbBlockEnd
  0
BLOCK
  5
31F
330
318
100
AcDbEntity
  8
0
100
AcDbBlockBegin
  2
*D215
 70
     1
 71
     0
 10
0.0
 20
0.0
 30
0.0
  3
*D215
  1

  0
LINE
  5
319
330
318
100
AcDbEntity
  8
0
  6
Continuous
 62
     2
100
AcDbLine
 10
193.854269365335
 20
566.5510218303583
 30
0.0
 11
193.854269365335
 21
636.0510218303581
 31
0.0
  0
LINE
  5
31A
330
318
100
AcDbEntity
  8
0
  6
Continuous
 62
     2
100
AcDbLine
 10
128.3542693653345
 20
566.5510218303583
 30
0.0
 11
196.354269365335
 21
566.5510218303583
 31
0.0
  0
LINE
  5
31B
330
318
100
AcDbEntity
  8
0
  6
Continuous
 62
     2
100
AcDbLine
 10
126.3542693653348
 20
636.0510218303581
 30
0.0
 11
196.354269365335
 21
636.0510218303581
 31
0.0
  0
SOLID
  5
31C
330
318
100
AcDbEntity
  8
0
 62
     2
100
AcDbTrace
 10
192.7023100114453
 20
575.3010218303583
 30
0.0
 11
195.0062287192247
 21
575.3010218303583
 31
0.0
 12
193.854269365335
 22
566.5510218303583
 32
0.0
 13
193.854269365335
 23
566.5510218303583
 33
0.0
  0
SOLID
  5
31D
330
318
100
AcDbEntity
  8
0
 62
     2
100
AcDbTrace
 10
195.0062287192247
 20
627.3010218303581
 30
0.0
 11
192.7023100114453
 21
627.3010218303581
 31
0.0
 12
193.854269365335
 22
636.0510218303581
 32
0.0
 13
193.854269365335
 23
636.0510218303581
 33
0.0
  0
MTEXT
  5
31E
330
318
100
AcDbEntity
  8
0
 62
     7
100
AcDbMText
 10
191.354269365335
 20
594.7385218303582
 30
0.0
 40
8.75
 41
0.0
 71
     7
 72
     1
  1
70
  7
CONVERTER_2
 11
0.0
 21
1.0
 31
0.0
 73
     1
 44
0.60024009603842
  0
ENDBLK
  5
320
330
318
100
AcDbEntity
  8
0
100
AcDbBlockEnd
  0
BLOCK
  5
32A
330
323
100
AcDbEntity
  8
0
100
AcDbBlockBegin
  2
*D316
 70
     1
 71
     0
 10
0.0
 20
0.0
 30
0.0
  3
*D316
  1

  0
LINE
  5
324
330
323
100
AcDbEntity
  8
0
  6
Continuous
 62
     2
100
AcDbLine
 10
193.854269365335
 20
396.5510218303582
 30
0.0
 11
193.854269365335
 21
566.5510218303582
 31
0.0
  0
LINE
  5
325
330
323
100
AcDbEntity
  8
0
  6
Continuous
 62
     2
100
AcDbLine
 10
120.8542693653345
 20
396.5510218303583
 30
0.0
 11
196.354269365335
 21
396.5510218303583
 31
0.0
  0
LINE
  5
326
330
323
100
AcDbEntity
  8
0
  6
Continuous
 62
     2
100
AcDbLine
 10
128.3542693653345
 20
566.5510218303582
 30
0.0
 11
196.354269365335
 21
566.5510218303582
 31
0.0
  0
SOLID
  5
327
330
323
100
AcDbEntity
  8
0
 62
     2
100
AcDbTrace
 10
192.7023100114453
 20
405.3010218303582
 30
0.0
 11
195.0062287192247
 21
405.3010218303582
 31
0.0
 12
193.854269365335
 22
396.5510218303582
 32
0.0
 13
193.854269365335
 23
396.5510218303582
 33
0.0
  0
SOLID
  5
328
330
323
100
AcDbEntity
  8
0
 62
     2
100
AcDbTrace
 10
195.0062287192247
 20
557.8010218303582
 30
0.0
 11
192.7023100114453
 21
557.8010218303582
 31
0.0
 12
193.854269365335
 22
566.5510218303582
 32
0.0
 13
193.854269365335
 23
566.5510218303582
 33
0.0
  0
MTEXT
  5
329
330
323
100
AcDbEntity
  8
0
 62
     7
100
AcDbMText
 10
191.354269365335
 20
472.3635218303583
 30
0.0
 40
8.75
 41
0.0
 71
     7
 72
     1
  1
170
  7
CONVERTER_2
 11
0.0
 21
1.0
 31
0.0
 73
     1
 44
0.60024009603842
  0
ENDBLK
  5
32B
330
323
100
AcDbEntity
  8
0
100
AcDbBlockEnd
  0
BLOCK
  5
335
330
32E
100
AcDbEntity
  8
0
100
AcDbBlockBegin
  2
*D417
 70
     1
 71
     0
 10
0.0
 20
0.0
 30
0.0
  3
*D417
  1

  0
LINE
  5
32F
330
32E
100
AcDbEntity
  8
0
  6
Continuous
 62
     2
100
AcDbLine
 10
477.3542693653386
 20
188.4856596906961
 30
0.0
 11
477.3542693653386
 21
234.4856596906961
 31
0.0
  0
LINE
  5
330
330
32E
100
AcDbEntity
  8
0
  6
Continuous
 62
     2
100
AcDbLine
 10
438.3542693653387
 20
188.4856596906961
 30
0.0
 11
479.8542693653386
 21
188.4856596906961
 31
0.0
  0
LINE
  5
331
330
32E
100
AcDbEntity
  8
0
  6
Continuous
 62
     2
100
AcDbLine
 10
438.3542693653387
 20
234.4856596906961
 30
0.0
 11
479.8542693653386
 21
234.4856596906961
 31
0.0
  0
SOLID
  5
332
330
32E
100
AcDbEntity
  8
0
 62
     2
100
AcDbTrace
 10
476.2023100114489
 20
197.2356596906961
 30
0.0
 11
478.5062287192283
 21
197.2356596906961
 31
0.0
 12
477.3542693653386
 22
188.4856596906961
 32
0.0
 13
477.3542693653386
 23
188.4856596906961
 33
0.0
  0
SOLID
  5
333
330
32E
100
AcDbEntity
  8
0
 62
     2
100
AcDbTrace
 10
478.5062287192283
 20
225.7356596906961
 30
0.0
 11
476.2023100114489
 21
225.7356596906961
 31
0.0
 12
477.3542693653386
 22
234.4856596906961
 32
0.0
 13
477.3542693653386
 23
234.4856596906961
 33
0.0
  0
MTEXT
  5
334
330
32E
100
AcDbEntity
  8
0
 62
     7
100
AcDbMText
 10
474.8542693653386
 20
195.8231596906961
 30
0.0
 40
8.75
 41
0.0
 71
     7
 72
     1
  1
\C7;{\Fgdt;n}\C7;46
  7
CONVERTER_2
 11
0.0
 21
1.0
 31
0.0
 73
     1
 44
0.60024009603842
  0
ENDBLK
  5
336
330
32E
100
AcDbEntity
  8
0
100
AcDbBlockEnd
  0
BLOCK
  5
340
330
339
100
AcDbEntity
  8
0
100
AcDbBlockBegin
  2
*D518
 70
     1
 71
     0
 10
0.0
 20
0.0
 30
0.0
  3
*D518
  1

  0
LINE
  5
33A
330
339
100
AcDbEntity
  8
0
  6
Continuous
 62
     2
100
AcDbLine
 10
274.4634252499541
 20
211.485659690696
 30
0.0
 11
274.4634252499541
 21
249.9856596906959
 31
0.0
  0
LINE
  5
33B
330
339
100
AcDbEntity
  8
0
  6
Continuous
 62
     2
100
AcDbLine
 10
328.8608443177543
 20
211.485659690696
 30
0.0
 11
271.9634252499541
 21
211.485659690696
 31
0.0
  0
LINE
  5
33C
330
339
100
AcDbEntity
  8
0
  6
Continuous
 62
     2
100
AcDbLine
 10
209.5999679525844
 20
249.9856596906959
 30
0.0
 11
276.9634252499541
 21
249.9856596906959
 31
0.0
  0
SOLID
  5
33D
330
339
100
AcDbEntity
  8
0
 62
     2
100
AcDbTrace
 10
273.3114658960644
 20
220.235659690696
 30
0.0
 11
275.6153846038438
 21
220.235659690696
 31
0.0
 12
274.4634252499541
 22
211.485659690696
 32
0.0
 13
274.4634252499541
 23
211.485659690696
 33
0.0
  0
SOLID
  5
33E
330
339
100
AcDbEntity
  8
0
 62
     2
100
AcDbTrace
 10
275.6153846038438
 20
241.2356596906959
 30
0.0
 11
273.3114658960644
 21
241.2356596906959
 31
0.0
 12
274.4634252499541
 22
249.9856596906959
 32
0.0
 13
274.4634252499541
 23
249.9856596906959
 33
0.0
  0
MTEXT
  5
33F
330
339
100
AcDbEntity
  8
0
 62
     7
100
AcDbMText
 10
271.9634252499541
 20
225.155109449917
 30
0.0
 40
8.75
 41
0.0
 71
     7
 72
     1
  1
39
  7
CONVERTER_2
 11
0.0
 21
1.0
 31
0.0
 73
     1
 44
0.60024009603842
  0
ENDBLK
  5
341
330
339
100
AcDbEntity
  8
0
100
AcDbBlockEnd
  0
BLOCK
  5
34B
330
344
100
AcDbEntity
  8
0
100
AcDbBlockBegin
  2
*D619
 70
     1
 71
     0
 10
0.0
 20
0.0
 30
0.0
  3
*D619
  1

  0
LINE
  5
345
330
344
100
AcDbEntity
  8
1
  6
Continuous
 62
     2
100
AcDbLine
 10
298.7560443150766
 20
289.4856596906957
 30
0.0
 11
298.7560443150766
 21
211.485659690696
 31
0.0
  0
LINE
  5
346
330
344
100
AcDbEntity
  8
1
  6
Continuous
 62
     2
100
AcDbLine
 10
223.8542693653386
 20
289.4856596906957
 30
0.0
 11
301.2560443150766
 21
289.4856596906957
 31
0.0
  0
LINE
  5
347
330
344
100
AcDbEntity
  8
1
  6
Continuous
 62
     2
100
AcDbLine
 10
328.8608443177543
 20
211.485659690696
 30
0.0
 11
296.2560443150766
 21
211.485659690696
 31
0.0
  0
SOLID
  5
348
330
344
100
AcDbEntity
  8
1
 62
     2
100
AcDbTrace
 10
299.9080036689663
 20
280.7356596906957
 30
0.0
 11
297.6040849611869
 21
280.7356596906957
 31
0.0
 12
298.7560443150766
 22
289.4856596906957
 32
0.0
 13
298.7560443150766
 23
289.4856596906957
 33
0.0
  0
SOLID
  5
349
330
344
100
AcDbEntity
  8
1
 62
     2
100
AcDbTrace
 10
297.6040849611869
 20
220.235659690696
 30
0.0
 11
299.9080036689663
 21
220.235659690696
 31
0.0
 12
298.7560443150766
 22
211.485659690696
 32
0.0
 13
298.7560443150766
 23
211.485659690696
 33
0.0
  0
MTEXT
  5
34A
330
344
100
AcDbEntity
  8
1
 62
     7
100
AcDbMText
 10
296.2560443150766
 20
243.875126232625
 30
0.0
 40
8.75
 41
0.0
 71
     7
 72
     1
  1
78
  7
CONVERTER_2
 11
0.0
 21
1.0
 31
0.0
 73
     1
 44
0.60024009603842
  0
ENDBLK
  5
34C
330
344
100
AcDbEntity
  8
0
100
AcDbBlockEnd
  0
BLOCK
  5
356
330
34F
100
AcDbEntity
  8
0
100
AcDbBlockBegin
  2
*D720
 70
     1
 71
     0
 10
0.0
 20
0.0
 30
0.0
  3
*D720
  1

  0
LINE
  5
350
330
34F
100
AcDbEntity
  8
1
  6
Continuous
 62
     2
100
AcDbLine
 10
393.3542693653386
 20
259.485659690696
 30
0.0
 11
438.3542693653387
 21
259.485659690696
 31
0.0
  0
LINE
  5
351
330
34F
100
AcDbEntity
  8
1
  6
Continuous
 62
     2
100
AcDbLine
 10
393.3542693653386
 20
237.3981406713587
 30
0.0
 11
393.3542693653386
 21
261.985659690696
 31
0.0
  0
LINE
  5
352
330
34F
100
AcDbEntity
  8
1
  6
Continuous
 62
     2
100
AcDbLine
 10
438.3542693653387
 20
234.4856596906961
 30
0.0
 11
438.3542693653387
 21
261.985659690696
 31
0.0
  0
SOLID
  5
353
330
34F
100
AcDbEntity
  8
1
 62
     2
100
AcDbTrace
 10
402.1042693653386
 20
260.6376190445857
 30
0.0
 11
402.1042693653386
 21
258.3337003368063
 31
0.0
 12
393.3542693653386
 22
259.485659690696
 32
0.0
 13
393.3542693653386
 23
259.485659690696
 33
0.0
  0
SOLID
  5
354
330
34F
100
AcDbEntity
  8
1
 62
     2
100
AcDbTrace
 10
429.6042693653387
 20
258.3337003368063
 30
0.0
 11
429.6042693653387
 21
260.6376190445857
 31
0.0
 12
438.3542693653387
 22
259.485659690696
 32
0.0
 13
438.3542693653387
 23
259.485659690696
 33
0.0
  0
MTEXT
  5
355
330
34F
100
AcDbEntity
  8
1
 62
     7
100
AcDbMText
 10
409.2917693653388
 20
261.985659690696
 30
0.0
 40
8.75
 41
0.0
 71
     7
 72
     1
  1
45
  7
CONVERTER_2
 11
0.9999999999970621
 21
2.424068405545307E-6
 31
0.0
 73
     1
 44
0.60024009603842
  0
ENDBLK
  5
357
330
34F
100
AcDbEntity
  8
0
100
AcDbBlockEnd
  0
ENDSEC
  0
SECTION
  2
ENTITIES
  0
INSERT
  5
57
330
1F
100
AcDbEntity
  8
1
100
AcDbBlockReference
  2
_J__A4
 10
0.0
 20
0.0
 30
0.0
 41
2.5
 42
2.5
 43
2.5
  0
INSERT
  5
58
330
1F
100
AcDbEntity
  8
1
100
AcDbBlockReference
  2
32-1-16__1
 10
182.6809859984293
 20
487.1484552014283
 30
0.0
  0
INSERT
  5
59
330
1F
100
AcDbEntity
  8
0
100
AcDbBlockReference
  2
A201-0
 10
314.4212516138594
 20
294.1826732563931
 30
0.0
  0
INSERT
  5
5A
330
1F
100
AcDbEntity
  8
1
100
AcDbBlockReference
  2
84-34-M21
 10
405.8542693653386
 20
290.4847327072782
 30
0.0
  0
INSERT
  5
5B
330
1F
100
AcDbEntity
  8
0
100
AcDbBlockReference
  2
87-18
 10
306.8835559176912
 20
382.8046517238872
 30
0.0
  0
INSERT
  5
5C
330
1F
100
AcDbEntity
  8
0
100
AcDbBlockReference
  2
82-20-M21
 10
780.2481122082638
 20
495.068100400469
 30
0.0
  0
INSERT
  5
5D
330
1F
100
AcDbEntity
  8
0
100
AcDbBlockReference
  2
84-26B
 10
-68.00966296962059
 20
59.67962237123312
 30
0.0
  0
INSERT
  5
5E
330
1F
100
AcDbEntity
  8
0
100
AcDbBlockReference
  2
32-1-16__2
 10
354.3439179342533
 20
236.1319617207064
 30
0.0
  0
INSERT
  5
5F
330
1F
100
AcDbEntity
  8
1
100
AcDbBlockReference
  2
61-7-170
 10
219.9542693653386
 20
143.8544915693279
 30
0.0
  0
INSERT
  5
60
330
1F
100
AcDbEntity
  8
1
100
AcDbBlockReference
  2
35-28
 10
285.5066672426518
 20
71.65744237511265
 30
0.0
  0
INSERT
  5
61
330
1F
100
AcDbEntity
  8
0
100
AcDbBlockReference
  2
31-17
 10
327.4640012626612
 20
78.07784673939139
 30
0.0
  0
LINE
  5
2DB
330
1F
100
AcDbEntity
  8
1
  6
Continuous
 62
     2
100
AcDbLine
 10
336.607291527078
 20
144.4238884447325
 30
0.0
 11
352.8707962581631
 21
144.4238884447325
 31
0.0
  0
LINE
  5
2DC
330
1F
100
AcDbEntity
  8
1
  6
Continuous
 62
     2
100
AcDbLine
 10
300.691085849775
 20
191.739676341579
 30
0.0
 11
317.860997637817
 21
191.739676341579
 31
0.0
  0
LINE
  5
2DD
330
1F
100
AcDbEntity
  8
1
  6
DASH_CENTER
 62
     2
100
AcDbLine
 10
85.8542693653345
 20
396.5510218303583
 30
0.0
 11
120.8542693653345
 21
396.5510218303583
 31
0.0
  0
LINE
  5
2DE
330
1F
100
AcDbEntity
  8
1
  6
DASH_CENTER
 62
     2
100
AcDbLine
 10
78.35426936533463
 20
566.5510218303582
 30
0.0
 11
128.3542693653345
 21
566.5510218303582
 31
0.0
  0
LINE
  5
2DF
330
1F
100
AcDbEntity
  8
1
  6
DASH_CENTER
 62
     2
100
AcDbLine
 10
103.3542693653346
 20
369.8010218303583
 30
0.0
 11
103.3542693653346
 21
655.0510218303582
 31
0.0
  0
LINE
  5
2E0
330
1F
100
AcDbEntity
  8
1
  6
DASH_CENTER
 62
     2
100
AcDbLine
 10
84.8178072287092
 20
591.0510218303582
 30
0.0
 11
137.9363150641846
 21
591.0510218303582
 31
0.0
  0
LINE
  5
2E1
330
1F
100
AcDbEntity
  8
1
  6
DASH_CENTER
 62
     2
100
AcDbLine
 10
171.5450200826726
 20
591.0510218303582
 30
0.0
 11
137.9363150641846
 21
591.0510218303582
 31
0.0
  0
LINE
  5
2E2
330
1F
100
AcDbEntity
  8
1
  6
DASH_CENTER
 62
     2
100
AcDbLine
 10
154.6542693653347
 20
529.0510218303582
 30
0.0
 11
154.6542693653347
 21
558.0510218303582
 31
0.0
  0
LINE
  5
2E3
330
1F
100
AcDbEntity
  8
1
  6
DASH_CENTER
 62
     2
100
AcDbLine
 10
139.2331506651602
 20
543.5510218303582
 30
0.0
 11
170.2331506651602
 21
543.5510218303582
 31
0.0
  0
LINE
  5
2E4
330
1F
100
AcDbEntity
  8
1
  6
DASH_CENTER
 62
     2
100
AcDbLine
 10
393.3542693653386
 20
237.3981406713587
 30
0.0
 11
393.3542693653386
 21
149.1765619604458
 31
0.0
  0
LINE
  5
2E5
330
1F
100
AcDbEntity
  8
1
  6
DASH_CENTER
 62
     2
100
AcDbLine
 10
456.5408028448118
 20
211.4856596906961
 30
0.0
 11
328.8608443177543
 21
211.4856596906961
 31
0.0
  0
LINE
  5
2E6
330
1F
100
AcDbEntity
  8
1
  6
DASH_CENTER
 62
     2
100
AcDbLine
 10
198.8542693653386
 20
246.2431694868681
 30
0.0
 11
198.8542693653386
 21
292.2488523557681
 31
0.0
  0
LINE
  5
2E7
330
1F
100
AcDbEntity
  8
1
  6
DASH_CENTER
 62
     2
100
AcDbLine
 10
176.4057339133543
 20
277.4856596906963
 30
0.0
 11
341.8542693653386
 21
277.4856596906963
 31
0.0
  0
LINE
  5
2E8
330
1F
100
AcDbEntity
  8
1
  6
DASH_CENTER
 62
     2
100
AcDbLine
 10
368.8542693653386
 20
229.0934878084414
 30
0.0
 11
368.8542693653386
 21
250.4856596906963
 31
0.0
  0
LINE
  5
2E9
330
1F
100
AcDbEntity
  8
1
  6
DASH_CENTER
 62
     2
100
AcDbLine
 10
418.3542693653387
 20
193.009133363974
 30
0.0
 11
418.3542693653387
 21
173.009133363974
 31
0.0
  0
LINE
  5
2EA
330
1F
100
AcDbEntity
  8
1
  6
DASH_CENTER
 62
     2
100
AcDbLine
 10
75.87998024986831
 20
211.4856596906961
 30
0.0
 11
172.1867217325926
 21
211.4856596906961
 31
0.0
  0
LINE
  5
2EB
330
1F
100
AcDbEntity
  8
1
  6
DASH_CENTER
 62
     2
100
AcDbLine
 10
103.3542693653321
 20
185.4856596906884
 30
0.0
 11
103.3542693653386
 21
293.985659690696
 31
0.0
  0
LINE
  5
2EC
330
1F
100
AcDbEntity
  8
1
  6
DASH_CENTER
 62
     2
100
AcDbLine
 10
117.4912104679883
 20
277.4856596906963
 30
0.0
 11
89.1949994744508
 21
277.4856596906963
 31
0.0
  0
ARC
  5
2ED
330
1F
100
AcDbEntity
  8
1
  6
Continuous
 62
     2
100
AcDbCircle
 10
393.3542693653386
 20
211.4856596906961
 30
0.0
 40
69.17306198700436
100
AcDbArc
 50
-172.0767399903231
 51
-137.2035929799124
  0
ARC
  5
2EE
330
1F
100
AcDbEntity
  8
1
  6
DASH_CENTER
 62
     2
100
AcDbCircle
 10
341.8542693653386
 20
250.4856596906963
 30
0.0
 40
27.0
100
AcDbArc
 50
0.0
 51
90.0
  0
SOLID
  5
2EF
330
1F
100
AcDbEntity
  8
1
 62
     2
100
AcDbTrace
 10
448.2316433007431
 20
230.1393616507548
 30
0.0
 11
450.2268954299343
 21
228.9874022968651
 31
0.0
 12
444.8542693653387
 22
221.9856596906961
 32
0.0
 13
444.8542693653387
 23
221.9856596906961
 33
0.0
  0
LEADER
  5
2F0
330
1F
100
AcDbEntity
  8
1
  6
Continuous
 62
     2
100
AcDbLeader
  3
Standard
 71
     0
 76
     3
 10
444.8542693653387
 20
221.9856596906961
 30
0.0
 10
457.7023172490784
 20
244.239131403411
 30
0.0
 10
494.371329065869
 20
244.239131403411
 30
0.0
  0
SOLID
  5
2F1
330
1F
100
AcDbEntity
  8
1
 62
     2
100
AcDbTrace
 10
326.4662478998498
 20
197.0600970712407
 30
0.0
 11
324.1743384043803
 21
196.8251667057434
 31
0.0
 12
324.4280565071499
 22
205.6470223765952
 32
0.0
 13
324.4280565071499
 23
205.6470223765952
 33
0.0
  0
LEADER
  5
2F2
330
1F
100
AcDbEntity
  8
1
  6
Continuous
 62
     2
100
AcDbLeader
  3
Standard
 71
     0
 76
     2
 10
324.4280565071499
 20
205.6470223765952
 30
0.0
 10
324.6769030131925
 20
203.2193512285678
 30
0.0
  0
SOLID
  5
2F3
330
1F
100
AcDbEntity
  8
1
 62
     2
100
AcDbTrace
 10
337.7583974308127
 20
167.8375477401469
 30
0.0
 11
339.4148404347001
 21
169.4388715634033
 31
0.0
 12
344.6682499409086
 22
162.3472427721387
 32
0.0
 13
344.6682499409086
 23
162.3472427721387
 33
0.0
  0
LEADER
  5
2F4
330
1F
100
AcDbEntity
  8
1
  6
Continuous
 62
     2
100
AcDbLeader
  3
Standard
 71
     0
 76
     2
 10
344.6682499409086
 20
162.3472427721387
 30
0.0
 10
342.5969807881642
 20
164.4898070976068
 30
0.0
  0
MTEXT
  5
2F6
330
1F
100
AcDbEntity
  8
1
 62
     7
100
AcDbMText
 10
318.7832953674421
 20
172.242190109537
 30
0.0
 40
8.75
 41
0.0
 71
     5
 72
     1
  1
90{\Fgdt;~}
  7
CONVERTER_2
 73
     1
 44
0.7202881152461
  0
MTEXT
  5
2F7
330
1F
100
AcDbEntity
  8
1
 62
     7
100
AcDbMText
 10
234.375
 20
42.5
 30
0.0
 40
8.75
 41
0.0
 71
     5
 72
     1
  1
2,5
  7
CONVERTER_2
 73
     1
 44
0.7202881152461
  0
MTEXT
  5
2F8
330
1F
100
AcDbEntity
  8
1
 62
     7
100
AcDbMText
 10
213.125
 20
42.5
 30
0.0
 40
8.75
 41
0.0
 71
     5
 72
     1
  1
1
  7
CONVERTER_2
 73
     1
 44
0.7202881152461
  0
MTEXT
  5
2F9
330
1F
100
AcDbEntity
  8
0
 62
     7
100
AcDbMText
 10
85.0
 20
85.00000000000003
 30
0.0
 40
8.75
 41
0.0
 71
     4
 72
     1
  1
JIS
  7
CONVERTER_2
 73
     1
 44
1.32052821128451
  0
MTEXT
  5
2FA
330
1F
100
AcDbEntity
  8
0
 62
     7
100
AcDbMText
 10
142.5
 20
35.625
 30
0.0
 40
8.75
 41
0.0
 71
     5
 72
     1
  1
A202DCK-13
  7
CONVERTER_2
 73
     1
 44
0.7202881152461
  0
MTEXT
  5
2FB
330
1F
100
AcDbEntity
  8
0
 62
     7
100
AcDbMText
 10
142.5
 20
56.87500000000003
 30
0.0
 40
8.75
 41
0.0
 71
     5
 72
     1
  1
横形自在水栓
  7
CONVERTER_1
 73
     1
 44
1.32052821128451
  0
MTEXT
  5
2FC
330
1F
100
AcDbEntity
  8
1
 62
     7
100
AcDbMText
 10
344.6605421623321
 20
151.9238884447325
 30
0.0
 40
8.75
 41
0.0
 71
     5
 72
     1
  1
吐水
  7
CONVERTER_1
 73
     1
 44
1.32052821128451
  0
MTEXT
  5
2FD
330
1F
100
AcDbEntity
  8
1
 62
     7
100
AcDbMText
 10
308.9132471225801
 20
199.239676341579
 30
0.0
 40
8.75
 41
0.0
 71
     5
 72
     1
  1
止水
  7
CONVERTER_1
 73
     1
 44
1.32052821128451
  0
MTEXT
  5
2FE
330
1F
100
AcDbEntity
  8
1
 62
     7
100
AcDbMText
 10
476.0368231574736
 20
251.739131403411
 30
0.0
 40
8.75
 41
0.0
 71
     5
 72
     1
  1
PJ1/2
  7
CONVERTER_2
 73
     1
 44
1.32052821128451
  0
DIMENSION
  5
309
330
1F
100
AcDbEntity
  8
1
100
AcDbDimension
  2
*D012
 10
103.3542693653321
 20
148.9856596906961
 30
0.0
 11
136.0246209069194
 21
155.8606596906961
 31
0.0
  1
66
 71
     5
 42
0.0
 53
0.00013888888889
  3
ME10_DIM_0
100
AcDbAlignedDimension
 13
168.6638099460338
 23
201.4856596906961
 33
0.0
 14
103.3542693653321
 24
185.4856596906884
 34
0.0
100
AcDbRotatedDimension
  0
DIMENSION
  5
317
330
1F
100
AcDbEntity
  8
0
100
AcDbDimension
  2
*D113
 10
193.854269365335
 20
636.051021830358
 30
0.0
 11
186.979269365335
 21
663.3563240225949
 31
0.0
  1
<>
 71
     5
 42
0.0
 53
90.0
  3
ME10_DIM_1
100
AcDbAlignedDimension
 13
112.8542693653349
 23
650.051021830358
 33
0.0
 14
126.3542693653348
 24
636.051021830358
 34
0.0
 50
90.0
100
AcDbRotatedDimension
  0
DIMENSION
  5
322
330
1F
100
AcDbEntity
  8
0
100
AcDbDimension
  2
*D215
 10
193.854269365335
 20
566.5510218303583
 30
0.0
 11
186.979269365335
 21
601.3010218303582
 31
0.0
  1
70
 71
     5
 42
0.0
 53
90.0
  3
ME10_DIM_2
100
AcDbAlignedDimension
 13
126.3542693653348
 23
636.051021830358
 33
0.0
 14
128.3542693653345
 24
566.5510218303582
 34
0.0
 50
90.0
100
AcDbRotatedDimension
  0
DIMENSION
  5
32D
330
1F
100
AcDbEntity
  8
0
100
AcDbDimension
  2
*D316
 10
193.854269365335
 20
396.5510218303582
 30
0.0
 11
186.979269365335
 21
481.5510218303583
 31
0.0
  1
<>
 71
     5
 42
0.0
 53
90.0
  3
ME10_DIM_3
100
AcDbAlignedDimension
 13
128.3542693653345
 23
566.5510218303582
 33
0.0
 14
120.8542693653345
 24
396.5510218303583
 34
0.0
 50
90.0
100
AcDbRotatedDimension
  0
DIMENSION
  5
338
330
1F
100
AcDbEntity
  8
0
100
AcDbDimension
  2
*D417
 10
477.3542693653386
 20
188.4856596906961
 30
0.0
 11
470.4792693653386
 21
211.4856596906961
 31
0.0
 70
     1
  1
<>
 71
     5
 42
0.0
 53
90.0
  3
ME10_DIM_4
100
AcDbAlignedDimension
 13
438.3542693653388
 23
234.4856596906961
 33
0.0
 14
438.3542693653388
 24
188.4856596906961
 34
0.0
  0
DIMENSION
  5
343
330
1F
100
AcDbEntity
  8
0
100
AcDbDimension
  2
*D518
 10
274.4634252499541
 20
211.485659690696
 30
0.0
 11
267.5884252499541
 21
231.717609449917
 31
0.0
  1
39
 71
     5
 42
0.0
 53
90.0
  3
ME10_DIM_5
100
AcDbAlignedDimension
 13
209.5999679525844
 23
249.9856596906959
 33
0.0
 14
328.8608443177543
 24
211.4856596906961
 34
0.0
 50
90.0
100
AcDbRotatedDimension
  0
DIMENSION
  5
34E
330
1F
100
AcDbEntity
  8
1
100
AcDbDimension
  2
*D619
 10
298.7560443150766
 20
289.4856596906957
 30
0.0
 11
291.8810443150766
 21
250.437626232625
 31
0.0
  1
<>
 71
     5
 42
0.0
 53
90.0
  3
ME10_DIM_6
100
AcDbAlignedDimension
 13
328.8608443177543
 23
211.4856596906961
 33
0.0
 14
223.8542693653386
 24
289.4856596906959
 34
0.0
 50
90.0
100
AcDbRotatedDimension
  0
DIMENSION
  5
359
330
1F
100
AcDbEntity
  8
1
100
AcDbDimension
  2
*D720
 10
393.3542693653386
 20
259.485659690696
 30
0.0
 11
415.8542693653388
 21
266.360659690696
 31
0.0
  1
<>
 71
     5
 42
0.0
 53
0.00013888888889
  3
ME10_DIM_7
100
AcDbAlignedDimension
 13
438.3542693653388
 23
234.4856596906961
 33
0.0
 14
393.3542693653386
 24
237.3981406713587
 34
0.0
100
AcDbRotatedDimension
  0
ENDSEC
  0
SECTION
  2
OBJECTS
  0
DICTIONARY
  5
C
330
0
100
AcDbDictionary
281
     1
  3
ACAD_GROUP
350
D
  3
ACAD_LAYOUT
350
1A
  3
ACAD_MLINESTYLE
350
17
  3
ACAD_PLOTSETTINGS
350
19
  3
ACAD_PLOTSTYLENAME
350
E
  3
ACAD_TABLESTYLE
350
2A
  3
AcDbVariableDictionary
350
2C
  0
DICTIONARY
  5
D
102
{ACAD_REACTORS
330
C
102
}
330
C
100
AcDbDictionary
281
     1
  0
DICTIONARY
  5
1A
102
{ACAD_REACTORS
330
C
102
}
330
C
100
AcDbDictionary
281
     1
  3
Layout1
350
1E
  3
Layout2
350
26
  3
Model
350
22
  0
DICTIONARY
  5
17
102
{ACAD_REACTORS
330
C
102
}
330
C
100
AcDbDictionary
281
     1
  3
Standard
350
18
  0
DICTIONARY
  5
19
102
{ACAD_REACTORS
330
C
102
}
330
C
100
AcDbDictionary
281
     1
  0
ACDBDICTIONARYWDFLT
  5
E
102
{ACAD_REACTORS
330
C
102
}
330
C
100
AcDbDictionary
281
     1
  3
Normal
350
F
100
AcDbDictionaryWithDefault
340
F
  0
DICTIONARY
  5
2A
102
{ACAD_REACTORS
330
C
102
}
330
C
100
AcDbDictionary
281
     1
  3
Standard
350
2B
  0
DICTIONARY
  5
2C
102
{ACAD_REACTORS
330
C
102
}
330
C
100
AcDbDictionary
281
     1
  3
CTABLESTYLE
350
2D
  0
LAYOUT
  5
1E
102
{ACAD_REACTORS
330
1A
102
}
330
1A
100
AcDbPlotSettings
  1

  2

  4

  6

 40
0.0
 41
0.0
 42
0.0
 43
0.0
 44
0.0
 45
0.0
 46
0.0
 47
0.0
 48
0.0
 49
0.0
140
0.0
141
0.0
142
1.0
143
1.0
 70
   688
 72
     0
 73
     0
 74
     5
  7

 75
    16
147
1.0
148
0.0
149
0.0
100
AcDbLayout
  1
Layout1
 70
     1
 71
     1
 10
0.0
 20
0.0
 11
12.0
 21
9.0
 12
0.0
 22
0.0
 32
0.0
 14
1.00000000000000E+20
 24
1.00000000000000E+20
 34
1.00000000000000E+20
 15
-1.00000000000000E+20
 25
-1.00000000000000E+20
 35
-1.00000000000000E+20
146
0.0
 13
0.0
 23
0.0
 33
0.0
 16
1.0
 26
0.0
 36
0.0
 17
0.0
 27
1.0
 37
0.0
 76
     0
330
1B
  0
LAYOUT
  5
26
102
{ACAD_REACTORS
330
1A
102
}
330
1A
100
AcDbPlotSettings
  1

  2

  4

  6

 40
0.0
 41
0.0
 42
0.0
 43
0.0
 44
0.0
 45
0.0
 46
0.0
 47
0.0
 48
0.0
 49
0.0
140
0.0
141
0.0
142
1.0
143
1.0
 70
   688
 72
     0
 73
     0
 74
     5
  7

 75
    16
147
1.0
148
0.0
149
0.0
100
AcDbLayout
  1
Layout2
 70
     1
 71
     2
 10
0.0
 20
0.0
 11
0.0
 21
0.0
 12
0.0
 22
0.0
 32
0.0
 14
0.0
 24
0.0
 34
0.0
 15
0.0
 25
0.0
 35
0.0
146
0.0
 13
0.0
 23
0.0
 33
0.0
 16
1.0
 26
0.0
 36
0.0
 17
0.0
 27
1.0
 37
0.0
 76
     0
330
23
  0
LAYOUT
  5
22
102
{ACAD_REACTORS
330
1A
102
}
330
1A
100
AcDbPlotSettings
  1

  2

  4

  6

 40
0.0
 41
0.0
 42
0.0
 43
0.0
 44
0.0
 45
0.0
 46
0.0
 47
0.0
 48
0.0
 49
0.0
140
0.0
141
0.0
142
1.0
143
1.0
 70
  1712
 72
     0
 73
     0
 74
     0
  7

 75
     0
147
1.0
148
0.0
149
0.0
100
AcDbLayout
  1
Model
 70
     1
 71
     0
 10
0.0
 20
0.0
 11
0.0
 21
0.0
 12
0.0
 22
0.0
 32
0.0
 14
0.0
 24
0.0
 34
0.0
 15
525.0
 25
742.5
 35
0.0
146
0.0
 13
0.0
 23
0.0
 33
0.0
 16
1.0
 26
0.0
 36
0.0
 17
0.0
 27
1.0
 37
0.0
 76
     0
330
1F
  0
MLINESTYLE
  5
18
102
{ACAD_REACTORS
330
17
102
}
330
17
100
AcDbMlineStyle
  2
Standard
 70
     0
  3

 62
   256
 51
90.0
 52
90.0
 71
     2
 49
0.5
 62
   256
  6
BYLAYER
 49
-0.5
 62
   256
  6
BYLAYER
  0
ACDBPLACEHOLDER
  5
F
102
{ACAD_REACTORS
330
E
102
}
330
E
  0
TABLESTYLE
  5
2B
102
{ACAD_REACTORS
330
2A
102
}
330
2A
100
AcDbTableStyle
  3
Standard
 70
     0
 71
     0
 40
0.06
 41
0.06
280
     0
281
     0
  7
Standard
140
0.18
170
     2
 62
     0
 63
     7
283
     0
274
    -2
284
     1
 64
     0
275
    -2
285
     1
 65
     0
276
    -2
286
     1
 66
     0
277
    -2
287
     1
 67
     0
278
    -2
288
     1
 68
     0
279
    -2
289
     1
 69
     0
  7
Standard
140
0.25
170
     5
 62
     0
 63
     7
283
     0
274
    -2
284
     1
 64
     0
275
    -2
285
     1
 65
     0
276
    -2
286
     1
 66
     0
277
    -2
287
     1
 67
     0
278
    -2
288
     1
 68
     0
279
    -2
289
     1
 69
     0
  7
Standard
140
0.18
170
     5
 62
     0
 63
     7
283
     0
274
    -2
284
     1
 64
     0
275
    -2
285
     1
 65
     0
276
    -2
286
     1
 66
     0
277
    -2
287
     1
 67
     0
278
    -2
288
     1
 68
     0
279
    -2
289
     1
 69
     0
  0
DICTIONARYVAR
  5
2D
102
{ACAD_REACTORS
330
2C
102
}
330
2C
100
DictionaryVariables
280
     0
  1
Standard
  0
ENDSEC
  0
EOF
