  0
SECTION
  2
HEADER
  9
$ACADVER
  1
AC1015
  9
$ACADMAINTVER
 70
     6
  9
$DWGCODEPAGE
  3
ANSI_932
  9
$INSBASE
 10
0.0
 20
0.0
 30
0.0
  9
$EXTMIN
 10
0.0
 20
0.0
 30
0.0
  9
$EXTMAX
 10
525.0
 20
742.5
 30
0.0
  9
$LIMMIN
 10
0.0
 20
0.0
  9
$LIMMAX
 10
12.0
 20
9.0
  9
$ORTHOMODE
 70
     0
  9
$REGENMODE
 70
     1
  9
$FILLMODE
 70
     1
  9
$QTEXTMODE
 70
     0
  9
$MIRRTEXT
 70
     1
  9
$LTSCALE
 40
1.0
  9
$ATTMODE
 70
     1
  9
$TEXTSIZE
 40
0.2
  9
$TRACEWID
 40
0.05
  9
$TEXTSTYLE
  7
Standard
  9
$CLAYER
  8
0
  9
$CELTYPE
  6
ByLayer
  9
$CECOLOR
 62
   256
  9
$CELTSCALE
 40
1.0
  9
$DISPSILH
 70
     0
  9
$DIMSCALE
 40
1.0
  9
$DIMASZ
 40
0.18
  9
$DIMEXO
 40
0.0625
  9
$DIMDLI
 40
0.38
  9
$DIMRND
 40
0.0
  9
$DIMDLE
 40
0.0
  9
$DIMEXE
 40
0.18
  9
$DIMTP
 40
0.0
  9
$DIMTM
 40
0.0
  9
$DIMTXT
 40
0.18
  9
$DIMCEN
 40
0.09
  9
$DIMTSZ
 40
0.0
  9
$DIMTOL
 70
     0
  9
$DIMLIM
 70
     0
  9
$DIMTIH
 70
     1
  9
$DIMTOH
 70
     1
  9
$DIMSE1
 70
     0
  9
$DIMSE2
 70
     0
  9
$DIMTAD
 70
     0
  9
$DIMZIN
 70
     0
  9
$DIMBLK
  1

  9
$DIMASO
 70
     1
  9
$DIMSHO
 70
     1
  9
$DIMPOST
  1

  9
$DIMAPOST
  1

  9
$DIMALT
 70
     0
  9
$DIMALTD
 70
     2
  9
$DIMALTF
 40
25.4
  9
$DIMLFAC
 40
1.0
  9
$DIMTOFL
 70
     0
  9
$DIMTVP
 40
0.0
  9
$DIMTIX
 70
     0
  9
$DIMSOXD
 70
     0
  9
$DIMSAH
 70
     0
  9
$DIMBLK1
  1

  9
$DIMBLK2
  1

  9
$DIMSTYLE
  2
Standard
  9
$DIMCLRD
 70
     0
  9
$DIMCLRE
 70
     0
  9
$DIMCLRT
 70
     0
  9
$DIMTFAC
 40
1.0
  9
$DIMGAP
 40
0.09
  9
$DIMJUST
 70
     0
  9
$DIMSD1
 70
     0
  9
$DIMSD2
 70
     0
  9
$DIMTOLJ
 70
     1
  9
$DIMTZIN
 70
     0
  9
$DIMALTZ
 70
     0
  9
$DIMALTTZ
 70
     0
  9
$DIMUPT
 70
     0
  9
$DIMDEC
 70
     4
  9
$DIMTDEC
 70
     4
  9
$DIMALTU
 70
     2
  9
$DIMALTTD
 70
     2
  9
$DIMTXSTY
  7
Standard
  9
$DIMAUNIT
 70
     0
  9
$DIMADEC
 70
     0
  9
$DIMALTRND
 40
0.0
  9
$DIMAZIN
 70
     0
  9
$DIMDSEP
 70
    46
  9
$DIMATFIT
 70
     3
  9
$DIMFRAC
 70
     0
  9
$DIMLDRBLK
  1

  9
$DIMLUNIT
 70
     2
  9
$DIMLWD
 70
    -2
  9
$DIMLWE
 70
    -2
  9
$DIMTMOVE
 70
     0
  9
$LUNITS
 70
     2
  9
$LUPREC
 70
     4
  9
$SKETCHINC
 40
0.1
  9
$FILLETRAD
 40
0.5
  9
$AUNITS
 70
     0
  9
$AUPREC
 70
     0
  9
$MENU
  1
.
  9
$ELEVATION
 40
0.0
  9
$PELEVATION
 40
0.0
  9
$THICKNESS
 40
0.0
  9
$LIMCHECK
 70
     0
  9
$CHAMFERA
 40
0.5
  9
$CHAMFERB
 40
0.5
  9
$CHAMFERC
 40
1.0
  9
$CHAMFERD
 40
0.0
  9
$SKPOLY
 70
     0
  9
$TDCREATE
 40
2457186.568305347
  9
$TDUCREATE
 40
2457186.193305347
  9
$TDUPDATE
 40
2457186.568306609
  9
$TDUUPDATE
 40
2457186.193306609
  9
$TDINDWG
 40
0.0000000116
  9
$TDUSRTIMER
 40
0.0000000116
  9
$USRTIMER
 70
     1
  9
$ANGBASE
 50
0.0
  9
$ANGDIR
 70
     0
  9
$PDMODE
 70
     0
  9
$PDSIZE
 40
0.0
  9
$PLINEWID
 40
0.0
  9
$SPLFRAME
 70
     0
  9
$SPLINETYPE
 70
     6
  9
$SPLINESEGS
 70
     8
  9
$HANDSEED
  5
250
  9
$SURFTAB1
 70
     6
  9
$SURFTAB2
 70
     6
  9
$SURFTYPE
 70
     6
  9
$SURFU
 70
     6
  9
$SURFV
 70
     6
  9
$UCSBASE
  2

  9
$UCSNAME
  2

  9
$UCSORG
 10
0.0
 20
0.0
 30
0.0
  9
$UCSXDIR
 10
1.0
 20
0.0
 30
0.0
  9
$UCSYDIR
 10
0.0
 20
1.0
 30
0.0
  9
$UCSORTHOREF
  2

  9
$UCSORTHOVIEW
 70
     0
  9
$UCSORGTOP
 10
0.0
 20
0.0
 30
0.0
  9
$UCSORGBOTTOM
 10
0.0
 20
0.0
 30
0.0
  9
$UCSORGLEFT
 10
0.0
 20
0.0
 30
0.0
  9
$UCSORGRIGHT
 10
0.0
 20
0.0
 30
0.0
  9
$UCSORGFRONT
 10
0.0
 20
0.0
 30
0.0
  9
$UCSORGBACK
 10
0.0
 20
0.0
 30
0.0
  9
$PUCSBASE
  2

  9
$PUCSNAME
  2

  9
$PUCSORG
 10
0.0
 20
0.0
 30
0.0
  9
$PUCSXDIR
 10
1.0
 20
0.0
 30
0.0
  9
$PUCSYDIR
 10
0.0
 20
1.0
 30
0.0
  9
$PUCSORTHOREF
  2

  9
$PUCSORTHOVIEW
 70
     0
  9
$PUCSORGTOP
 10
0.0
 20
0.0
 30
0.0
  9
$PUCSORGBOTTOM
 10
0.0
 20
0.0
 30
0.0
  9
$PUCSORGLEFT
 10
0.0
 20
0.0
 30
0.0
  9
$PUCSORGRIGHT
 10
0.0
 20
0.0
 30
0.0
  9
$PUCSORGFRONT
 10
0.0
 20
0.0
 30
0.0
  9
$PUCSORGBACK
 10
0.0
 20
0.0
 30
0.0
  9
$USERI1
 70
     0
  9
$USERI2
 70
     0
  9
$USERI3
 70
     0
  9
$USERI4
 70
     0
  9
$USERI5
 70
     0
  9
$USERR1
 40
18.1
  9
$USERR2
 40
0.0
  9
$USERR3
 40
0.0
  9
$USERR4
 40
0.0
  9
$USERR5
 40
0.0
  9
$WORLDVIEW
 70
     1
  9
$SHADEDGE
 70
     3
  9
$SHADEDIF
 70
    70
  9
$TILEMODE
 70
     1
  9
$MAXACTVP
 70
    64
  9
$PINSBASE
 10
0.0
 20
0.0
 30
0.0
  9
$PLIMCHECK
 70
     0
  9
$PEXTMIN
 10
1.00000000000000E+20
 20
1.00000000000000E+20
 30
1.00000000000000E+20
  9
$PEXTMAX
 10
-1.00000000000000E+20
 20
-1.00000000000000E+20
 30
-1.00000000000000E+20
  9
$PLIMMIN
 10
0.0
 20
0.0
  9
$PLIMMAX
 10
12.0
 20
9.0
  9
$UNITMODE
 70
     0
  9
$VISRETAIN
 70
     1
  9
$PLINEGEN
 70
     0
  9
$PSLTSCALE
 70
     1
  9
$TREEDEPTH
 70
  3020
  9
$CMLSTYLE
  2
Standard
  9
$CMLJUST
 70
     0
  9
$CMLSCALE
 40
1.0
  9
$PROXYGRAPHICS
 70
     1
  9
$MEASUREMENT
 70
     1
  9
$CELWEIGHT
370
    -1
  9
$ENDCAPS
280
     0
  9
$JOINSTYLE
280
     0
  9
$LWDISPLAY
290
     0
  9
$INSUNITS
 70
     4
  9
$HYPERLINKBASE
  1

  9
$STYLESHEET
  1

  9
$XEDIT
290
     1
  9
$CEPSNTYPE
380
     0
  9
$PSTYLEMODE
290
     1
  9
$FINGERPRINTGUID
  2
{387D2A8F-F016-493E-A4FC-6729D47A6481}
  9
$VERSIONGUID
  2
{FAEB1C32-E019-11D5-929B-00C0DF256EC4}
  9
$EXTNAMES
290
     1
  9
$PSVPSCALE
 40
0.0
  9
$OLESTARTUP
290
     0
  0
ENDSEC
  0
SECTION
  2
CLASSES
  0
CLASS
  1
ACDBDICTIONARYWDFLT
  2
AcDbDictionaryWithDefault
  3
ObjectDBX Classes
 90
        0
280
     0
281
     0
  0
CLASS
  1
VISUALSTYLE
  2
AcDbVisualStyle
  3
ObjectDBX Classes
 90
     4095
280
     0
281
     0
  0
CLASS
  1
MATERIAL
  2
AcDbMaterial
  3
ObjectDBX Classes
 90
     1153
280
     0
281
     0
  0
CLASS
  1
DICTIONARYVAR
  2
AcDbDictionaryVar
  3
ObjectDBX Classes
 90
        0
280
     0
281
     0
  0
CLASS
  1
ACDBPLACEHOLDER
  2
AcDbPlaceHolder
  3
ObjectDBX Classes
 90
        0
280
     0
281
     0
  0
CLASS
  1
LAYOUT
  2
AcDbLayout
  3
ObjectDBX Classes
 90
        0
280
     0
281
     0
  0
ENDSEC
  0
SECTION
  2
TABLES
  0
TABLE
  2
VPORT
  5
8
330
0
100
AcDbSymbolTable
 70
     1
  0
VPORT
  5
29
330
8
100
AcDbSymbolTableRecord
100
AcDbViewportTableRecord
  2
*Active
 70
     0
 10
0.0
 20
0.0
 11
1.0
 21
1.0
 12
262.5
 22
371.25
 13
0.0
 23
0.0
 14
0.5
 24
0.5
 15
0.5
 25
0.5
 16
0.0
 26
0.0
 36
1.0
 17
0.0
 27
0.0
 37
0.0
 40
816.7500000000001
 41
1.60267857142857
 42
50.0
 43
0.0
 44
0.0
 50
0.0
 51
0.0
 71
     0
 72
   100
 73
     1
 74
     3
 75
     0
 76
     0
 77
     0
 78
     0
281
     0
 65
     1
110
0.0
120
0.0
130
0.0
111
1.0
121
0.0
131
0.0
112
0.0
122
1.0
132
0.0
 79
     0
146
0.0
  0
ENDTAB
  0
TABLE
  2
LTYPE
  5
5
330
0
100
AcDbSymbolTable
 70
     8
  0
LTYPE
  5
14
330
5
100
AcDbSymbolTableRecord
100
AcDbLinetypeTableRecord
  2
ByBlock
 70
     0
  3

 72
    65
 73
     0
 40
0.0
  0
LTYPE
  5
15
330
5
100
AcDbSymbolTableRecord
100
AcDbLinetypeTableRecord
  2
ByLayer
 70
     0
  3

 72
    65
 73
     0
 40
0.0
  0
LTYPE
  5
16
330
5
100
AcDbSymbolTableRecord
100
AcDbLinetypeTableRecord
  2
Continuous
 70
     0
  3
Solid line
 72
    65
 73
     0
 40
0.0
  0
LTYPE
  5
3F
330
5
100
AcDbSymbolTableRecord
100
AcDbLinetypeTableRecord
  2
DASHED
 70
     0
  3
Dashed
 72
    65
 73
     2
 40
15.0
 49
7.0
 74
     0
 49
-8.0
 74
     0
  0
LTYPE
  5
40
330
5
100
AcDbSymbolTableRecord
100
AcDbLinetypeTableRecord
  2
DOTTED
 70
     0
  3
Dotted
 72
    65
 73
     2
 40
1.0
 49
0.0
 74
     0
 49
-1.0
 74
     0
  0
LTYPE
  5
41
330
5
100
AcDbSymbolTableRecord
100
AcDbLinetypeTableRecord
  2
DOT_CENTER
 70
     0
  3
Dot_Center
 72
    65
 73
     4
 40
14.0
 49
12.0
 74
     0
 49
-1.0
 74
     0
 49
0.0
 74
     0
 49
-1.0
 74
     0
  0
LTYPE
  5
42
330
5
100
AcDbSymbolTableRecord
100
AcDbLinetypeTableRecord
  2
LONG_DASHED
 70
     0
  3
Long_Dashed
 72
    65
 73
     2
 40
15.0
 49
10.0
 74
     0
 49
-5.0
 74
     0
  0
LTYPE
  5
43
330
5
100
AcDbSymbolTableRecord
100
AcDbLinetypeTableRecord
  2
DASH_CENTER
 70
     0
  3
Dash_Center
 72
    65
 73
     4
 40
14.0
 49
11.0
 74
     0
 49
-1.0
 74
     0
 49
1.0
 74
     0
 49
-1.0
 74
     0
  0
LTYPE
  5
44
330
5
100
AcDbSymbolTableRecord
100
AcDbLinetypeTableRecord
  2
PHANTOM
 70
     0
  3
Phantom
 72
    65
 73
     6
 40
13.0
 49
10.0
 74
     0
 49
-1.0
 74
     0
 49
0.0
 74
     0
 49
-1.0
 74
     0
 49
0.0
 74
     0
 49
-1.0
 74
     0
  0
LTYPE
  5
45
330
5
100
AcDbSymbolTableRecord
100
AcDbLinetypeTableRecord
  2
CENTER_DASH_DASH
 70
     0
  3
Center_Dash_Dash
 72
    65
 73
     6
 40
14.0
 49
9.0
 74
     0
 49
-1.0
 74
     0
 49
1.0
 74
     0
 49
-1.0
 74
     0
 49
1.0
 74
     0
 49
-1.0
 74
     0
  0
ENDTAB
  0
TABLE
  2
LAYER
  5
2
330
0
100
AcDbSymbolTable
 70
     2
  0
LAYER
  5
10
330
2
100
AcDbSymbolTableRecord
100
AcDbLayerTableRecord
  2
0
 70
     0
 62
     7
  6
Continuous
370
    -3
390
F
  0
LAYER
  5
46
330
2
100
AcDbSymbolTableRecord
100
AcDbLayerTableRecord
  2
1
 70
     0
 62
     7
  6
Continuous
370
    -3
390
F
  0
ENDTAB
  0
TABLE
  2
STYLE
  5
3
330
0
100
AcDbSymbolTable
 70
     3
  0
STYLE
  5
11
330
3
100
AcDbSymbolTableRecord
100
AcDbTextStyleTableRecord
  2
Standard
 70
     0
 40
0.0
 41
1.0
 50
0.0
 71
     0
 42
0.2
  3
txt
  4

  0
STYLE
  5
1A7
330
3
100
AcDbSymbolTableRecord
100
AcDbTextStyleTableRecord
  2
CONVERTER_11
 70
     0
 40
0.0
 41
0.89
 50
0.0
 71
     0
 42
0.2
  3
MS Mincho.ttf
  4

1001
ACAD
1000
MS Mincho
1071
    32785
  0
STYLE
  5
1CE
330
3
100
AcDbSymbolTableRecord
100
AcDbTextStyleTableRecord
  2
CONVERTER_12
 70
     0
 40
0.0
 41
0.9
 50
0.0
 71
     0
 42
0.2
  3
txt.shx
  4

  0
ENDTAB
  0
TABLE
  2
VIEW
  5
6
330
0
100
AcDbSymbolTable
 70
     0
  0
ENDTAB
  0
TABLE
  2
UCS
  5
7
330
0
100
AcDbSymbolTable
 70
     0
  0
ENDTAB
  0
TABLE
  2
APPID
  5
9
330
0
100
AcDbSymbolTable
 70
     1
  0
APPID
  5
12
330
9
100
AcDbSymbolTableRecord
100
AcDbRegAppTableRecord
  2
ACAD
 70
     0
  0
ENDTAB
  0
TABLE
  2
DIMSTYLE
  5
A
330
0
100
AcDbSymbolTable
 70
     8
100
AcDbDimStyleTable
  0
DIMSTYLE
105
27
330
A
100
AcDbSymbolTableRecord
100
AcDbDimStyleTableRecord
  2
Standard
 70
     0
178
     0
340
11
  0
DIMSTYLE
105
1DE
102
{ACAD_REACTORS
330
1DF
102
}
330
A
100
AcDbSymbolTableRecord
100
AcDbDimStyleTableRecord
  2
ME10_DIM_10
 70
     0
 41
8.75
 42
0.0
 44
2.5
 73
     0
 74
     0
 77
     1
 78
     8
140
8.75
147
2.5
172
     1
173
     1
174
     1
175
     1
176
     2
177
     2
271
     2
178
     7
271
     2
340
1CE
  0
DIMSTYLE
105
1E9
102
{ACAD_REACTORS
330
1EA
102
}
330
A
100
AcDbSymbolTableRecord
100
AcDbDimStyleTableRecord
  2
ME10_DIM_11
 70
     0
 41
8.75
 42
0.0
 44
2.5
 73
     0
 74
     0
 77
     1
 78
     8
140
8.75
147
2.5
172
     1
173
     1
174
     1
175
     1
176
     2
177
     2
271
     2
178
     7
271
     2
340
1CE
  0
DIMSTYLE
105
1F4
102
{ACAD_REACTORS
330
1F5
102
}
330
A
100
AcDbSymbolTableRecord
100
AcDbDimStyleTableRecord
  2
ME10_DIM_12
 70
     0
 41
8.75
 42
0.0
 44
2.5
 73
     0
 74
     0
 77
     1
 78
     8
140
8.75
147
2.5
172
     1
173
     1
174
     1
175
     1
176
     2
177
     2
271
     2
178
     7
271
     2
340
1CE
  0
DIMSTYLE
105
202
102
{ACAD_REACTORS
330
203
102
}
330
A
100
AcDbSymbolTableRecord
100
AcDbDimStyleTableRecord
  2
ME10_DIM_13
 70
     0
 41
7.5
 42
0.0
 44
2.5
 73
     0
 74
     0
 77
     1
 78
     8
140
8.75
147
2.5
172
     1
173
     1
174
     1
175
     1
176
     2
177
     2
271
     2
178
     7
271
     2
340
1CE
343
1FF
  0
DIMSTYLE
105
20D
102
{ACAD_REACTORS
330
20E
102
}
330
A
100
AcDbSymbolTableRecord
100
AcDbDimStyleTableRecord
  2
ME10_DIM_14
 70
     0
  3
{\Fgdt;n}<>
 41
8.75
 42
0.0
 44
2.5
 73
     0
 74
     0
 77
     1
 78
     8
140
8.75
147
2.5
172
     1
173
     1
174
     1
175
     1
176
     2
177
     2
271
     2
178
     7
271
     2
340
1CE
  0
DIMSTYLE
105
218
102
{ACAD_REACTORS
330
219
102
}
330
A
100
AcDbSymbolTableRecord
100
AcDbDimStyleTableRecord
  2
ME10_DIM_15
 70
     0
 41
8.75
 42
0.0
 44
2.5
 73
     0
 74
     0
 77
     1
 78
     8
140
8.75
147
2.5
172
     1
173
     1
174
     1
175
     1
176
     2
177
     2
271
     2
178
     7
271
     2
340
1CE
  0
DIMSTYLE
105
223
102
{ACAD_REACTORS
330
224
102
}
330
A
100
AcDbSymbolTableRecord
100
AcDbDimStyleTableRecord
  2
ME10_DIM_16
 70
     0
 41
8.75
 42
0.0
 44
2.5
 73
     0
 74
     0
 77
     1
 78
     8
140
8.75
147
2.5
172
     1
173
     1
174
     1
175
     1
176
     2
177
     2
271
     2
178
     7
271
     2
340
1CE
  0
ENDTAB
  0
TABLE
  2
BLOCK_RECORD
  5
1
330
0
100
AcDbSymbolTable
 70
    14
  0
BLOCK_RECORD
  5
1F
330
1
100
AcDbSymbolTableRecord
100
AcDbBlockTableRecord
  2
*Model_Space
340
22
  0
BLOCK_RECORD
  5
1B
330
1
100
AcDbSymbolTableRecord
100
AcDbBlockTableRecord
  2
*Paper_Space
340
1E
  0
BLOCK_RECORD
  5
23
330
1
100
AcDbSymbolTableRecord
100
AcDbBlockTableRecord
  2
*Paper_Space0
340
26
  0
BLOCK_RECORD
  5
47
330
1
100
AcDbSymbolTableRecord
100
AcDbBlockTableRecord
  2
61-1-16-170
340
0
102
{BLKREFS
331
56
102
}
  0
BLOCK_RECORD
  5
4A
330
1
100
AcDbSymbolTableRecord
100
AcDbBlockTableRecord
  2
32-1-16
340
0
102
{BLKREFS
331
57
102
}
  0
BLOCK_RECORD
  5
4D
330
1
100
AcDbSymbolTableRecord
100
AcDbBlockTableRecord
  2
81-100X-M21
340
0
102
{BLKREFS
331
58
102
}
  0
BLOCK_RECORD
  5
50
330
1
100
AcDbSymbolTableRecord
100
AcDbBlockTableRecord
  2
A205-0
340
0
102
{BLKREFS
331
59
102
}
  0
BLOCK_RECORD
  5
53
330
1
100
AcDbSymbolTableRecord
100
AcDbBlockTableRecord
  2
開示A4
340
0
102
{BLKREFS
331
5A
102
}
  0
BLOCK_RECORD
  5
1D5
330
1
100
AcDbSymbolTableRecord
100
AcDbBlockTableRecord
  2
*D6
340
0
  0
BLOCK_RECORD
  5
1E0
330
1
100
AcDbSymbolTableRecord
100
AcDbBlockTableRecord
  2
*D7
340
0
  0
BLOCK_RECORD
  5
1EB
330
1
100
AcDbSymbolTableRecord
100
AcDbBlockTableRecord
  2
*D8
340
0
  0
BLOCK_RECORD
  5
1F6
330
1
100
AcDbSymbolTableRecord
100
AcDbBlockTableRecord
  2
*D9
340
0
  0
BLOCK_RECORD
  5
1FF
330
1
100
AcDbSymbolTableRecord
100
AcDbBlockTableRecord
  2
_NONE
340
0
  0
BLOCK_RECORD
  5
204
330
1
100
AcDbSymbolTableRecord
100
AcDbBlockTableRecord
  2
*D11
340
0
  0
BLOCK_RECORD
  5
20F
330
1
100
AcDbSymbolTableRecord
100
AcDbBlockTableRecord
  2
*D12
340
0
  0
BLOCK_RECORD
  5
21A
330
1
100
AcDbSymbolTableRecord
100
AcDbBlockTableRecord
  2
*D13
340
0
  0
ENDTAB
  0
ENDSEC
  0
SECTION
  2
BLOCKS
  0
BLOCK
  5
20
330
1F
100
AcDbEntity
  8
0
100
AcDbBlockBegin
  2
*Model_Space
 70
     0
 10
0.0
 20
0.0
 30
0.0
  3
*Model_Space
  1

  0
ENDBLK
  5
21
330
1F
100
AcDbEntity
  8
0
100
AcDbBlockEnd
  0
BLOCK
  5
1C
330
1B
100
AcDbEntity
 67
     1
  8
0
100
AcDbBlockBegin
  2
*Paper_Space
 70
     0
 10
0.0
 20
0.0
 30
0.0
  3
*Paper_Space
  1

  0
ENDBLK
  5
1D
330
1B
100
AcDbEntity
 67
     1
  8
0
100
AcDbBlockEnd
  0
BLOCK
  5
24
330
23
100
AcDbEntity
  8
0
100
AcDbBlockBegin
  2
*Paper_Space0
 70
     0
 10
0.0
 20
0.0
 30
0.0
  3
*Paper_Space0
  1

  0
ENDBLK
  5
25
330
23
100
AcDbEntity
  8
0
100
AcDbBlockEnd
  0
BLOCK
  5
48
330
47
100
AcDbEntity
  8
0
100
AcDbBlockBegin
  2
61-1-16-170
 70
     0
 10
-13.7921191424324
 20
211.720300773572
 30
0.0
  3
61-1-16-170
  1

  0
LINE
  5
5B
330
47
100
AcDbEntity
  8
1
  6
Continuous
 62
     7
100
AcDbLine
 10
141.0130271013934
 20
570.2002803778037
 30
0.0
 11
141.0130271013934
 21
400.2002803778036
 31
0.0
  0
LINE
  5
5C
330
47
100
AcDbEntity
  8
1
  6
Continuous
 62
     7
100
AcDbLine
 10
125.0130271013934
 20
570.2002803778037
 30
0.0
 11
125.0130271013934
 21
400.2002803778036
 31
0.0
  0
LINE
  5
5D
330
47
100
AcDbEntity
  8
1
  6
Continuous
 62
     7
100
AcDbLine
 10
141.0130271013934
 20
274.3585749954323
 30
0.0
 11
125.0130271013934
 21
274.3585749954324
 31
0.0
  0
LINE
  5
5E
330
47
100
AcDbEntity
  8
1
  6
Continuous
 62
     7
100
AcDbLine
 10
125.6266200954074
 20
269.3585749954323
 30
0.0
 11
140.3994341073797
 21
269.3585749954323
 31
0.0
  0
LINE
  5
5F
330
47
100
AcDbEntity
  8
1
  6
Continuous
 62
     7
100
AcDbLine
 10
141.0130271013934
 20
274.3585749954323
 30
0.0
 11
141.0130271013934
 21
302.3585749954324
 31
0.0
  0
LINE
  5
60
330
47
100
AcDbEntity
  8
1
  6
Continuous
 62
     7
100
AcDbLine
 10
125.0130271013934
 20
274.3585749954324
 30
0.0
 11
125.0130271013934
 21
302.3585749954324
 31
0.0
  0
LINE
  5
61
330
47
100
AcDbEntity
  8
1
  6
Continuous
 62
     7
100
AcDbLine
 10
197.2922570664574
 20
269.3585749954316
 30
0.0
 11
212.0650710784297
 21
269.3585749954316
 31
0.0
  0
LINE
  5
62
330
47
100
AcDbEntity
  8
1
  6
Continuous
 62
     7
100
AcDbLine
 10
212.6786640724436
 20
274.3585749954316
 30
0.0
 11
212.6786640724436
 21
275.3585749954316
 31
0.0
  0
LINE
  5
63
330
47
100
AcDbEntity
  8
1
  6
Continuous
 62
     7
100
AcDbLine
 10
196.6786640724436
 20
274.3585749954317
 30
0.0
 11
196.6786640724436
 21
275.3585749954317
 31
0.0
  0
LINE
  5
64
330
47
100
AcDbEntity
  8
1
  6
Continuous
 62
     7
100
AcDbLine
 10
347.6786640724436
 20
294.3585749954317
 30
0.0
 11
231.6786640724436
 21
294.3585749954317
 31
0.0
  0
LINE
  5
65
330
47
100
AcDbEntity
  8
1
  6
Continuous
 62
     7
100
AcDbLine
 10
382.6786640724436
 20
275.3585749954317
 30
0.0
 11
382.6786640724436
 21
269.8585749954317
 31
0.0
  0
LINE
  5
66
330
47
100
AcDbEntity
  8
1
  6
Continuous
 62
     7
100
AcDbLine
 10
366.6786640724436
 20
269.8585749954317
 30
0.0
 11
366.6786640724436
 21
275.3585749954317
 31
0.0
  0
LINE
  5
67
330
47
100
AcDbEntity
  8
1
  6
Continuous
 62
     7
100
AcDbLine
 10
347.6786640724436
 20
310.3585749954316
 30
0.0
 11
231.6786640724436
 21
310.3585749954316
 31
0.0
  0
LINE
  5
68
330
47
100
AcDbEntity
  8
1
  6
Continuous
 62
     7
100
AcDbLine
 10
196.6786640724436
 20
274.3585749954317
 30
0.0
 11
212.6786640724436
 21
274.3585749954316
 31
0.0
  0
ARC
  5
69
330
47
100
AcDbEntity
  8
1
  6
Continuous
 62
     7
100
AcDbCircle
 10
133.0130271013934
 20
400.2002803778036
 30
0.0
 40
7.999999999999986
100
AcDbArc
 50
180.0
 51
0.0
  0
ARC
  5
6A
330
47
100
AcDbEntity
  8
1
  6
Continuous
 62
     7
100
AcDbCircle
 10
133.0130271013934
 20
400.2002803778036
 30
0.0
 40
8.650000000000091
100
AcDbArc
 50
270.0
 51
22.35342559933236
  0
ARC
  5
6B
330
47
100
AcDbEntity
  8
1
  6
Continuous
 62
     7
100
AcDbCircle
 10
133.0130271013934
 20
400.2002803778036
 30
0.0
 40
8.650000000000057
100
AcDbArc
 50
157.6465744006676
 51
270.0
  0
ARC
  5
6C
330
47
100
AcDbEntity
  8
1
  6
Continuous
 62
     7
100
AcDbCircle
 10
137.8030008066753
 20
272.2148552882099
 30
0.0
 40
3.86002629471821
100
AcDbArc
 50
0.0
 51
33.7357910000309
  0
ARC
  5
6D
330
47
100
AcDbEntity
  8
1
  6
Continuous
 62
     7
100
AcDbCircle
 10
128.2230533961117
 20
272.2148552882099
 30
0.0
 40
3.86002629471821
100
AcDbArc
 50
180.0
 51
227.7283445035806
  0
ARC
  5
6E
330
47
100
AcDbEntity
  8
1
  6
Continuous
 62
     7
100
AcDbCircle
 10
128.2230533961117
 20
272.2148552882099
 30
0.0
 40
3.860026294718339
100
AcDbArc
 50
146.2642089999702
 51
180.0
  0
ARC
  5
6F
330
47
100
AcDbEntity
  8
1
  6
Continuous
 62
     7
100
AcDbCircle
 10
137.8030008066753
 20
272.2148552882099
 30
0.0
 40
3.860026294718248
100
AcDbArc
 50
312.2716554964205
 51
0.0
  0
ARC
  5
70
330
47
100
AcDbEntity
  8
1
  6
Continuous
 62
     7
100
AcDbCircle
 10
133.0130271013934
 20
302.3585749954324
 30
0.0
 40
8.0
100
AcDbArc
 50
0.0
 51
180.0
  0
ARC
  5
71
330
47
100
AcDbEntity
  8
1
  6
Continuous
 62
     7
100
AcDbCircle
 10
133.0130271013934
 20
570.2002803778037
 30
0.0
 40
8.0
100
AcDbArc
 50
0.0
 51
180.0
  0
ARC
  5
72
330
47
100
AcDbEntity
  8
1
  6
Continuous
 62
     7
100
AcDbCircle
 10
209.4686377777254
 20
272.2148552882092
 30
0.0
 40
3.860026294718097
100
AcDbArc
 50
0.0
 51
33.73579100002926
  0
ARC
  5
73
330
47
100
AcDbEntity
  8
1
  6
Continuous
 62
     7
100
AcDbCircle
 10
199.8886903671619
 20
272.2148552882092
 30
0.0
 40
3.860026294718296
100
AcDbArc
 50
180.0
 51
227.7283445035791
  0
ARC
  5
74
330
47
100
AcDbEntity
  8
1
  6
Continuous
 62
     7
100
AcDbCircle
 10
199.8886903671619
 20
272.2148552882092
 30
0.0
 40
3.860026294718327
100
AcDbArc
 50
146.26420899997
 51
180.0
  0
ARC
  5
75
330
47
100
AcDbEntity
  8
1
  6
Continuous
 62
     7
100
AcDbCircle
 10
209.4686377777254
 20
272.2148552882092
 30
0.0
 40
3.860026294718213
100
AcDbArc
 50
312.2716554964186
 51
0.0
  0
ARC
  5
76
330
47
100
AcDbEntity
  8
1
  6
Continuous
 62
     7
100
AcDbCircle
 10
231.6786640724436
 20
275.3585749954316
 30
0.0
 40
19.00000000000011
100
AcDbArc
 50
90.0
 51
180.0
  0
ARC
  5
77
330
47
100
AcDbEntity
  8
1
  6
Continuous
 62
     7
100
AcDbCircle
 10
231.6786640724436
 20
275.3585749954316
 30
0.0
 40
35.0
100
AcDbArc
 50
90.0
 51
179.9999999999998
  0
ARC
  5
78
330
47
100
AcDbEntity
  8
1
  6
Continuous
 62
     7
100
AcDbCircle
 10
347.6786640724436
 20
275.3585749954317
 30
0.0
 40
19.0
100
AcDbArc
 50
0.0
 51
90.0
  0
ARC
  5
79
330
47
100
AcDbEntity
  8
1
  6
Continuous
 62
     7
100
AcDbCircle
 10
347.6786640724436
 20
275.3585749954317
 30
0.0
 40
35.0
100
AcDbArc
 50
0.0
 51
90.0
  0
ENDBLK
  5
49
330
47
100
AcDbEntity
  8
0
100
AcDbBlockEnd
  0
BLOCK
  5
4B
330
4A
100
AcDbEntity
  8
0
100
AcDbBlockBegin
  2
32-1-16
 70
     0
 10
352.3256200996436
 20
393.3594146953937
 30
0.0
  3
32-1-16
  1

  0
LINE
  5
7A
330
4A
100
AcDbEntity
  8
1
  6
Continuous
 62
     7
100
AcDbLine
 10
121.4550060396631
 20
268.8585749954321
 30
0.0
 11
121.5130271013935
 21
268.8585749954321
 31
0.0
  0
LINE
  5
7B
330
4A
100
AcDbEntity
  8
1
  6
Continuous
 62
     7
100
AcDbLine
 10
119.8260271013936
 20
259.8585749954321
 30
0.0
 11
119.7130271013936
 21
259.8585749954321
 31
0.0
  0
LINE
  5
7C
330
4A
100
AcDbEntity
  8
1
  6
Continuous
 62
     7
100
AcDbLine
 10
119.7130271013936
 20
259.8585749954321
 30
0.0
 11
133.0130271013935
 21
259.8585749954321
 31
0.0
  0
LINE
  5
7D
330
4A
100
AcDbEntity
  8
1
  6
Continuous
 62
     7
100
AcDbLine
 10
139.6650944492186
 20
584.2002803778037
 30
0.0
 11
126.3609597535684
 21
584.2002803778037
 31
0.0
  0
LINE
  5
7E
330
4A
100
AcDbEntity
  8
1
  6
Continuous
 62
     7
100
AcDbLine
 10
148.463416428288
 20
571.4394210669024
 30
0.0
 11
141.8113490804632
 21
582.9611396887051
 31
0.0
  0
LINE
  5
7F
330
4A
100
AcDbEntity
  8
1
  6
Continuous
 62
     7
100
AcDbLine
 10
141.8113490804632
 20
557.4394210669024
 30
0.0
 11
148.463416428288
 21
568.9611396887051
 31
0.0
  0
LINE
  5
80
330
4A
100
AcDbEntity
  8
1
  6
Continuous
 62
     7
100
AcDbLine
 10
142.7809762938247
 20
269.8585749954321
 30
0.0
 11
140.8077750559149
 21
269.8585749954321
 31
0.0
  0
LINE
  5
81
330
4A
100
AcDbEntity
  8
1
  6
Continuous
 62
     7
100
AcDbLine
 10
144.5130271013935
 20
268.8585749954321
 30
0.0
 11
144.5710481631242
 21
268.8585749954321
 31
0.0
  0
LINE
  5
82
330
4A
100
AcDbEntity
  8
1
  6
Continuous
 62
     7
100
AcDbLine
 10
146.3130271013937
 20
259.8585749954321
 30
0.0
 11
146.2000271013936
 21
259.8585749954321
 31
0.0
  0
LINE
  5
83
330
4A
100
AcDbEntity
  8
1
  6
Continuous
 62
     7
100
AcDbLine
 10
133.0130271013935
 20
259.8585749954321
 30
0.0
 11
146.3130271013937
 21
259.8585749954321
 31
0.0
  0
LINE
  5
84
330
4A
100
AcDbEntity
  8
1
  6
Continuous
 62
     7
100
AcDbLine
 10
125.1674444518072
 20
269.8585749954321
 30
0.0
 11
123.2450779089623
 21
269.8585749954321
 31
0.0
  0
LINE
  5
85
330
4A
100
AcDbEntity
  8
1
  6
Continuous
 62
     7
100
AcDbLine
 10
124.2147051223241
 20
582.9611396887051
 30
0.0
 11
117.5626377744992
 21
571.4394210669024
 31
0.0
  0
LINE
  5
86
330
4A
100
AcDbEntity
  8
1
  6
Continuous
 62
     7
100
AcDbLine
 10
117.5626377744992
 20
568.9611396887051
 30
0.0
 11
124.2147051223241
 21
557.4394210669024
 31
0.0
  0
LINE
  5
87
330
4A
100
AcDbEntity
  8
1
  6
Continuous
 62
     7
100
AcDbLine
 10
378.9466132648747
 20
259.8585749954313
 30
0.0
 11
378.6786640724437
 21
259.8585749954313
 31
0.0
  0
LINE
  5
88
330
4A
100
AcDbEntity
  8
1
  6
Continuous
 62
     7
100
AcDbLine
 10
386.1786640724436
 20
268.8585749954313
 30
0.0
 11
386.2366851341741
 21
268.8585749954313
 31
0.0
  0
LINE
  5
89
330
4A
100
AcDbEntity
  8
1
  6
Continuous
 62
     7
100
AcDbLine
 10
363.1206430107129
 20
268.8585749954313
 30
0.0
 11
363.1786640724436
 21
268.8585749954313
 31
0.0
  0
LINE
  5
8A
330
4A
100
AcDbEntity
  8
1
  6
Continuous
 62
     7
100
AcDbLine
 10
387.9786640724435
 20
259.8585749954313
 30
0.0
 11
378.9466132648747
 21
259.8585749954313
 31
0.0
  0
LINE
  5
8B
330
4A
100
AcDbEntity
  8
1
  6
Continuous
 62
     7
100
AcDbLine
 10
384.4466132648746
 20
269.8585749954313
 30
0.0
 11
364.9107148800125
 21
269.8585749954313
 31
0.0
  0
LINE
  5
8C
330
4A
100
AcDbEntity
  8
1
  6
Continuous
 62
     7
100
AcDbLine
 10
360.6786640724436
 20
260.4303238166015
 30
0.0
 11
360.6786640724436
 21
267.5717522451444
 31
0.0
  0
LINE
  5
8D
330
4A
100
AcDbEntity
  8
1
  6
Continuous
 62
     7
100
AcDbLine
 10
388.6786640724436
 20
267.5717522451443
 30
0.0
 11
388.6786640724436
 21
260.4303238166015
 31
0.0
  0
LINE
  5
8E
330
4A
100
AcDbEntity
  8
1
  6
Continuous
 62
     7
100
AcDbLine
 10
370.6786640724436
 20
259.8585749954313
 30
0.0
 11
361.3786640724435
 21
259.8585749954313
 31
0.0
  0
ARC
  5
8F
330
4A
100
AcDbEntity
  8
1
  6
Continuous
 62
     7
100
AcDbCircle
 10
122.5130271013935
 20
264.0010380308738
 30
0.0
 40
5.000000000000017
100
AcDbArc
 50
105.337557669553
 51
235.9442022574338
  0
ARC
  5
90
330
4A
100
AcDbEntity
  8
1
  6
Continuous
 62
     7
100
AcDbCircle
 10
133.0130271013935
 20
570.2002803778037
 30
0.0
 40
15.50000000000002
100
AcDbArc
 50
55.41462091516068
 51
64.58537908483883
  0
ARC
  5
91
330
4A
100
AcDbEntity
  8
1
  6
Continuous
 62
     7
100
AcDbCircle
 10
133.0130271013935
 20
570.2002803778037
 30
0.0
 40
15.5
100
AcDbArc
 50
0.0
 51
4.58537908483961
  0
ARC
  5
92
330
4A
100
AcDbEntity
  8
1
  6
Continuous
 62
     7
100
AcDbCircle
 10
133.0130271013935
 20
570.2002803778037
 30
0.0
 40
15.4999999999999
100
AcDbArc
 50
301.0729509721535
 51
304.5853790848395
  0
ARC
  5
93
330
4A
100
AcDbEntity
  8
1
  6
Continuous
 62
     7
100
AcDbCircle
 10
133.0130271013935
 20
570.2002803778037
 30
0.0
 40
15.49999999999985
100
AcDbArc
 50
355.4146209151608
 51
0.0
  0
ARC
  5
94
330
4A
100
AcDbEntity
  8
1
  6
Continuous
 62
     7
100
AcDbCircle
 10
143.5130271013935
 20
264.0010380308738
 30
0.0
 40
5.000000000000206
100
AcDbArc
 50
304.0557977425688
 51
74.6624423304437
  0
ARC
  5
95
330
4A
100
AcDbEntity
  8
1
  6
Continuous
 62
     7
100
AcDbCircle
 10
133.0130271013935
 20
570.2002803778037
 30
0.0
 40
15.50000000000003
100
AcDbArc
 50
115.4146209151612
 51
124.5853790848384
  0
ARC
  5
96
330
4A
100
AcDbEntity
  8
1
  6
Continuous
 62
     7
100
AcDbCircle
 10
133.0130271013935
 20
570.2002803778037
 30
0.0
 40
15.49999999999966
100
AcDbArc
 50
175.4146209151603
 51
180.0
  0
ARC
  5
97
330
4A
100
AcDbEntity
  8
1
  6
Continuous
 62
     7
100
AcDbCircle
 10
133.0130271013935
 20
570.2002803778037
 30
0.0
 40
15.49999999999975
100
AcDbArc
 50
235.4146209151613
 51
238.9270490278465
  0
ARC
  5
98
330
4A
100
AcDbEntity
  8
1
  6
Continuous
 62
     7
100
AcDbCircle
 10
133.0130271013935
 20
570.2002803778037
 30
0.0
 40
15.4999999999998
100
AcDbArc
 50
180.0
 51
184.5853790848392
  0
ARC
  5
99
330
4A
100
AcDbEntity
  8
1
  6
Continuous
 62
     7
100
AcDbCircle
 10
133.0130271013935
 20
570.2002803778037
 30
0.0
 40
10.76794919243103
100
AcDbArc
 50
317.9829399353528
 51
90.0
  0
ARC
  5
9A
330
4A
100
AcDbEntity
  8
1
  6
Continuous
 62
     7
100
AcDbCircle
 10
133.0130271013935
 20
570.2002803778037
 30
0.0
 40
10.76794919243127
100
AcDbArc
 50
90.0
 51
222.0170600646473
  0
ARC
  5
9B
330
4A
100
AcDbEntity
  8
1
  6
Continuous
 62
     7
100
AcDbCircle
 10
385.1786640724436
 20
264.0010380308728
 30
0.0
 40
5.000000000000057
100
AcDbArc
 50
45.57299599919494
 51
74.66244233044588
  0
ARC
  5
9C
330
4A
100
AcDbEntity
  8
1
  6
Continuous
 62
     7
100
AcDbCircle
 10
364.1786640724436
 20
264.0010380308728
 30
0.0
 40
4.999999999999894
100
AcDbArc
 50
225.5729959991931
 51
235.9442022574303
  0
ARC
  5
9D
330
4A
100
AcDbEntity
  8
1
  6
Continuous
 62
     7
100
AcDbCircle
 10
364.1786640724436
 20
264.0010380308728
 30
0.0
 40
5.000000000000014
100
AcDbArc
 50
105.3375576695554
 51
134.4270040008042
  0
ARC
  5
9E
330
4A
100
AcDbEntity
  8
1
  6
Continuous
 62
     7
100
AcDbCircle
 10
385.1786640724436
 20
264.0010380308728
 30
0.0
 40
4.999999999999859
100
AcDbArc
 50
304.0557977425676
 51
314.4270040008069
  0
SPLINE
  5
9F
330
4A
100
AcDbEntity
  8
0
  6
Continuous
 62
     7
100
AcDbSpline
210
0.0
220
0.0
230
1.0
 70
    11
 71
     3
 72
    79
 73
    75
 74
    73
 42
0.000000001
 43
0.0000000001
 44
0.00000001
 40
0.0
 40
0.0
 40
0.0
 40
0.0
 40
0.291022906317219
 40
0.5820342199790551
 40
0.8749339259795229
 40
1.167812540311728
 40
1.463561181729933
 40
1.759282799553753
 40
2.058487804326584
 40
2.35766387886553
 40
2.660503334662453
 40
2.963315618548012
 40
3.269530819653594
 40
3.575723462230645
 40
3.884662737575098
 40
4.193586021287219
 40
4.504289078951608
 40
4.814983875317393
 40
5.126294424223201
 40
5.437604973118044
 40
5.748299769450914
 40
6.059002827059793
 40
6.367926110694088
 40
6.676865385937224
 40
6.983058028389882
 40
7.289273229345946
 40
7.592085513057643
 40
7.894924968652806
 40
8.1941010429626
 40
8.49330604747277
 40
8.78902766499687
 40
9.084776306062189
 40
9.37765491995626
 40
9.670554625323074
 40
9.961565937614798
 40
10.25258885279214
 40
10.54295309049242
 40
10.8333173281917
 40
11.12434024336591
 40
11.41535155565238
 40
11.70825126101196
 40
12.00112987489688
 40
12.29687851595122
 40
12.59260013346253
 40
12.8918051379584
 40
13.1909812122525
 40
13.49382066783059
 40
13.79663295152399
 40
14.10284815246053
 40
14.40904079489284
 40
14.71798007011474
 40
15.02690335372715
 40
15.3376064113133
 40
15.64830120762293
 40
15.95961175649403
 40
16.27092230537546
 40
16.58161710171673
 40
16.89232015935587
 40
17.20124344304248
 40
17.51018271836085
 40
17.81637536091132
 40
18.12259056198947
 40
18.42540284584677
 40
18.72824230161362
 40
19.02741837611984
 40
19.32662338085468
 40
19.62234499863094
 40
19.91809363998181
 40
20.2109722541981
 40
20.50387195993862
 40
20.7948832726885
 40
21.08590618851606
 40
21.37627042760407
 40
21.66663465645636
 40
21.66663465645636
 40
21.66663465645636
 40
21.66663465645636
 10
144.8473392996251
 20
267.5581072822749
 30
0.0
 10
144.75096424391
 20
267.5464316148372
 30
0.0
 10
144.5582179708422
 20
267.5230807502512
 30
0.0
 10
144.2742814635128
 20
267.4537247584856
 30
0.0
 10
143.9970171968876
 20
267.3602820013705
 30
0.0
 10
143.7282648125949
 20
267.2403750156359
 30
0.0
 10
143.4706194287605
 20
267.0963295106436
 30
0.0
 10
143.2253924812562
 20
266.9282629099552
 30
0.0
 10
142.9951291249607
 20
266.7384281770142
 30
0.0
 10
142.7808969162212
 20
266.5272920484654
 30
0.0
 10
142.5849424872483
 20
266.2975124449369
 30
0.0
 10
142.4081851434244
 20
266.0497839128091
 30
0.0
 10
142.2524143092612
 20
265.7870516730634
 30
0.0
 10
142.1184458916996
 20
265.5103006615032
 30
0.0
 10
142.0075228602262
 20
265.2225686838152
 30
0.0
 10
141.9203460676685
 20
264.9252152374627
 30
0.0
 10
141.8575980573918
 20
264.6211692413854
 30
0.0
 10
141.8197976779963
 20
264.3122276456925
 30
0.0
 10
141.8071206043256
 20
264.0010380404472
 30
0.0
 10
141.8197976776308
 20
263.6898484351923
 30
0.0
 10
141.8575980566614
 20
263.3809068395051
 30
0.0
 10
141.9203460665645
 20
263.0768608433466
 30
0.0
 10
142.0075228587721
 20
262.779507397196
 30
0.0
 10
142.1184458897906
 20
262.4917754186206
 30
0.0
 10
142.2524143072674
 20
262.215024410165
 30
0.0
 10
142.4081851399443
 20
261.9522921586734
 30
0.0
 10
142.584942487433
 20
261.7045636696446
 30
0.0
 10
142.7808969009413
 20
261.4747839059492
 30
0.0
 10
142.9951291648153
 20
261.2636483678633
 30
0.0
 10
143.225392314651
 20
261.0738114447539
 30
0.0
 10
143.4706200220452
 20
260.9057529266731
 30
0.0
 10
143.7282625835223
 20
260.7616774248905
 30
0.0
 10
143.9970254012094
 20
260.6418813544168
 30
0.0
 10
144.2742508866968
 20
260.5480263575776
 30
0.0
 10
144.5583312399932
 20
260.4801994509858
 30
0.0
 10
144.8466987202997
 20
260.4395044893558
 30
0.0
 10
145.1373827537722
 20
260.4257386957802
 30
0.0
 10
145.4280667872451
 20
260.4395044893305
 30
0.0
 10
145.7164342675518
 20
260.4801994509353
 30
0.0
 10
146.0005146208488
 20
260.5480263575024
 30
0.0
 10
146.2777401063371
 20
260.6418813543166
 30
0.0
 10
146.5465029240253
 20
260.7616774247653
 30
0.0
 10
146.8041454855037
 20
260.9057529265232
 30
0.0
 10
147.0493731928995
 20
261.0738114445792
 30
0.0
 10
147.2796363427368
 20
261.2636483676644
 30
0.0
 10
147.4938686066126
 20
261.4747839057261
 30
0.0
 10
147.6898230201231
 20
261.7045636693972
 30
0.0
 10
147.866580367614
 20
261.9522921584021
 30
0.0
 10
148.0223512002932
 20
262.2150244098697
 30
0.0
 10
148.1563196177726
 20
262.4917754183017
 30
0.0
 10
148.267242648794
 20
262.7795073968531
 30
0.0
 10
148.3544194410049
 20
263.07686084298
 30
0.0
 10
148.4171674509115
 20
263.3809068391145
 30
0.0
 10
148.4549678299458
 20
263.6898484347782
 30
0.0
 10
148.4676449032553
 20
264.0010380400081
 30
0.0
 10
148.4549678295894
 20
264.3122276452334
 30
0.0
 10
148.4171674501977
 20
264.6211692408866
 30
0.0
 10
148.3544194399334
 20
264.925215236997
 30
0.0
 10
148.2672426473599
 20
265.2225686831122
 30
0.0
 10
148.1563196159808
 20
265.5103006615658
 30
0.0
 10
148.0223511981123
 20
265.7870516701776
 30
0.0
 10
147.8665803651404
 20
266.0497839207509
 30
0.0
 10
147.6898230169808
 20
266.2975124127846
 30
0.0
 10
147.4938686041677
 20
266.5272921648967
 30
0.0
 10
147.2796363359167
 20
266.7384277452176
 30
0.0
 10
147.0493732004563
 20
266.9282645111365
 30
0.0
 10
146.8041454381206
 20
267.0963236087183
 30
0.0
 10
146.5465030785855
 20
267.2403969591288
 30
0.0
 10
146.2777395121708
 20
267.3602009836727
 30
0.0
 10
146.000516807303
 20
267.4540264166191
 30
0.0
 10
145.7164261376459
 20
267.5219629809624
 30
0.0
 10
145.4280970758962
 20
267.5622495372729
 30
0.0
 10
145.1372699654345
 20
267.5775362816672
 30
0.0
 10
144.9439828538673
 20
267.5645836135765
 30
0.0
 10
144.8473392996251
 20
267.5581072822749
 30
0.0
 11
144.8473392996251
 21
267.5581072822749
 31
0.0
 11
144.5591798033502
 21
267.5173833091884
 31
0.0
 11
144.2760975969678
 21
267.4499144391231
 31
0.0
 11
143.998673554424
 21
267.3559669104843
 31
0.0
 11
143.7311118023067
 21
267.2368510366849
 31
0.0
 11
143.4729794335915
 21
267.0925079072277
 31
0.0
 11
143.2289667809803
 21
266.925447736812
 31
0.0
 11
142.9980872754494
 21
266.7351367052112
 31
0.0
 11
142.7849119804982
 21
266.5252257308558
 31
0.0
 11
142.58837765649
 21
266.2948217477293
 31
0.0
 11
142.4124041206904
 21
266.0483900250415
 31
0.0
 11
142.2562069802175
 21
265.7850077882036
 31
0.0
 11
142.1227112922532
 21
265.5094486554258
 31
0.0
 11
142.0115613666961
 21
265.2211967345285
 31
0.0
 11
141.9245847126698
 21
264.9247702564882
 31
0.0
 11
141.8617796383483
 21
264.6204810639452
 31
0.0
 11
141.8240042766768
 21
264.3120912480247
 31
0.0
 11
141.8113490804633
 21
264.0010380308738
 31
0.0
 11
141.8240042766768
 21
263.6899848137228
 31
0.0
 11
141.8617796383483
 21
263.3815949978022
 31
0.0
 11
141.9245847126698
 21
263.0773058052592
 31
0.0
 11
142.0115613666961
 21
262.7808793272188
 31
0.0
 11
142.1227112922532
 21
262.4926274063216
 31
0.0
 11
142.2562069802175
 21
262.2170682735438
 31
0.0
 11
142.4124041206904
 21
261.953686036706
 31
0.0
 11
142.5883776564901
 21
261.7072543140183
 31
0.0
 11
142.7849119804982
 21
261.4768503308918
 31
0.0
 11
142.9980872754494
 21
261.2669393565363
 31
0.0
 11
143.2289667809803
 21
261.0766283249355
 31
0.0
 11
143.4729794335915
 21
260.9095681545198
 31
0.0
 11
143.7311118023067
 21
260.7652250250625
 31
0.0
 11
143.998673554424
 21
260.6461091512631
 31
0.0
 11
144.2760975969679
 21
260.5521616226243
 31
0.0
 11
144.5591798033504
 21
260.4846927525591
 31
0.0
 11
144.8473392996252
 21
260.4439687794726
 31
0.0
 11
145.1373827543756
 21
260.4303238166023
 31
0.0
 11
145.4274262091261
 21
260.4439687794725
 31
0.0
 11
145.715585705401
 21
260.484692752559
 31
0.0
 11
145.9986679117835
 21
260.5521616226244
 31
0.0
 11
146.2760919543273
 21
260.6461091512632
 31
0.0
 11
146.5436537064447
 21
260.7652250250626
 31
0.0
 11
146.80178607516
 21
260.9095681545198
 31
0.0
 11
147.0457987277711
 21
261.0766283249354
 31
0.0
 11
147.2766782333019
 21
261.2669393565363
 31
0.0
 11
147.4898535282531
 21
261.4768503308918
 31
0.0
 11
147.6863878522614
 21
261.7072543140183
 31
0.0
 11
147.862361388061
 21
261.953686036706
 31
0.0
 11
148.0185585285338
 21
262.2170682735438
 31
0.0
 11
148.152054216498
 21
262.4926274063216
 31
0.0
 11
148.2632041420551
 21
262.7808793272188
 31
0.0
 11
148.3501807960815
 21
263.0773058052592
 31
0.0
 11
148.4129858704031
 21
263.3815949978022
 31
0.0
 11
148.4507612320746
 21
263.6899848137227
 31
0.0
 11
148.4634164282882
 21
264.0010380308738
 31
0.0
 11
148.4507612320745
 21
264.3120912480247
 31
0.0
 11
148.4129858704028
 21
264.6204810639452
 31
0.0
 11
148.3501807960814
 21
264.9247702564882
 31
0.0
 11
148.2632041420551
 21
265.2211967345285
 31
0.0
 11
148.152054216498
 21
265.5094486554257
 31
0.0
 11
148.0185585285338
 21
265.7850077882035
 31
0.0
 11
147.8623613880609
 21
266.0483900250414
 31
0.0
 11
147.6863878522614
 21
266.2948217477293
 31
0.0
 11
147.4898535282531
 21
266.5252257308558
 31
0.0
 11
147.2766782333019
 21
266.7351367052113
 31
0.0
 11
147.0457987277711
 21
266.925447736812
 31
0.0
 11
146.80178607516
 21
267.0925079072277
 31
0.0
 11
146.5436537064447
 21
267.2368510366849
 31
0.0
 11
146.2760919543273
 21
267.3559669104843
 31
0.0
 11
145.9986679117835
 21
267.4499144391229
 31
0.0
 11
145.715585705401
 21
267.5173833091883
 31
0.0
 11
145.4274262091261
 21
267.5581072822748
 31
0.0
 11
145.1373827543756
 21
267.5717522451451
 31
0.0
 11
144.8473392996251
 21
267.5581072822749
 31
0.0
  0
SPLINE
  5
A0
330
4A
100
AcDbEntity
  8
0
  6
Continuous
 62
     7
100
AcDbSpline
210
0.0
220
0.0
230
1.0
 70
    11
 71
     3
 72
    79
 73
    75
 74
    73
 42
0.000000001
 43
0.0000000001
 44
0.00000001
 40
0.0
 40
0.0
 40
0.0
 40
0.0
 40
0.3261189815590617
 40
0.6517242227865035
 40
1.007570730085639
 40
1.362786574479285
 40
1.759886311237052
 40
2.156516711364834
 40
2.599210004995401
 40
3.041603623772222
 40
3.528307203253094
 40
4.014826845817836
 40
4.539616311192532
 40
5.064295506276667
 40
5.618233629058153
 40
6.172109434340756
 40
6.744280965421789
 40
7.316424320423859
 40
7.894787041172036
 40
8.473149761923212
 40
9.045293116933692
 40
9.61746464802733
 40
10.17134045332469
 40
10.72527857612075
 40
11.24995777121503
 40
11.77474723659078
 40
12.26126687914169
 40
12.74797045858434
 40
13.1903640772935
 40
13.63305737080658
 40
14.02968777076468
 40
14.42678750725395
 40
14.78200335126246
 40
15.13784985787358
 40
15.46345509697313
 40
15.7895740850197
 40
16.10448971847124
 40
16.41940535192163
 40
16.74552433996512
 40
17.07112957905995
 40
17.426976085665
 40
17.78219192966679
 40
18.17929166614845
 40
18.57592206609917
 40
19.01861535960443
 40
19.46100897830644
 40
19.94771255774201
 40
20.43423220028655
 40
20.95902166565622
 40
21.4837008607451
 40
22.03763898353654
 40
22.59151478883031
 40
23.16368631992132
 40
23.73582967493022
 40
24.31419239568135
 40
24.89255511643125
 40
25.46469847143701
 40
26.03687000252388
 40
26.59074580781465
 40
27.14468393060686
 40
27.6693631257037
 40
28.19415259109352
 40
28.68067223367419
 40
29.16737581317169
 40
29.60976943196302
 40
30.05246272560413
 40
30.44909312573256
 40
30.84619286246811
 40
31.20140870678664
 40
31.55725521382515
 40
31.88286045347713
 40
32.20897944233192
 40
32.5238950779804
 40
32.83881070538182
 40
32.83881070538182
 40
32.83881070538182
 40
32.83881070538182
 10
139.6388062582832
 20
263.6872215442355
 30
0.0
 10
139.6162489847451
 20
263.5806317881222
 30
0.0
 10
139.5711699823721
 20
263.367620186078
 30
0.0
 10
139.4366422097206
 20
263.0578016925173
 30
0.0
 10
139.2598981201289
 20
262.760017845459
 30
0.0
 10
139.0310167071781
 20
262.4688718014179
 30
0.0
 10
138.7617987974605
 20
262.1954795840181
 30
0.0
 10
138.4445286815196
 20
261.9315198566974
 30
0.0
 10
138.0924762608333
 20
261.6885136554712
 30
0.0
 10
137.6966028930372
 20
261.458859404756
 30
0.0
 10
137.2718944783773
 20
261.2523084456075
 30
0.0
 10
136.809377105027
 20
261.0633056904184
 30
0.0
 10
136.324136603242
 20
260.8989918957914
 30
0.0
 10
135.8088951152117
 20
260.7559763939875
 30
0.0
 10
135.2772298544524
 20
260.6388239583908
 30
0.0
 10
134.7247808048514
 20
260.5458500674219
 30
0.0
 10
134.1623899649146
 20
260.4795310085193
 30
0.0
 10
133.589373314664
 20
260.4391847505391
 30
0.0
 10
133.0130271113884
 20
260.4258944188227
 30
0.0
 10
132.4366809080903
 20
260.4391847506553
 30
0.0
 10
131.8636642579063
 20
260.4795310087596
 30
0.0
 10
131.3012734177291
 20
260.545850067724
 30
0.0
 10
130.7488243689983
 20
260.6388239589269
 30
0.0
 10
130.2171591050745
 20
260.755976394055
 30
0.0
 10
129.7019176282656
 20
260.8989918977895
 30
0.0
 10
129.216677086096
 20
261.0633056856116
 30
0.0
 10
128.7541598530226
 20
261.2523084644165
 30
0.0
 10
128.3294509388216
 20
261.4588593392581
 30
0.0
 10
127.933579274464
 20
261.6885138770367
 30
0.0
 10
127.5815208396999
 20
261.9315190640747
 30
0.0
 10
127.2642709630157
 20
262.1954822034785
 30
0.0
 10
126.9949818338545
 20
262.4688624127719
 30
0.0
 10
126.7663398417366
 20
262.7600488229804
 30
0.0
 10
126.5887471164882
 20
263.0576895874689
 30
0.0
 10
126.4571340448519
 20
263.3679995053452
 30
0.0
 10
126.3797090687719
 20
263.6821580822534
 30
0.0
 10
126.3517489516553
 20
264.0010380305567
 30
0.0
 10
126.3797090687639
 20
264.3199179788596
 30
0.0
 10
126.457134044836
 20
264.6340765557669
 30
0.0
 10
126.588747116465
 20
264.9443864736412
 30
0.0
 10
126.7663398417063
 20
265.2420272381272
 30
0.0
 10
126.9949818338178
 20
265.5332136483323
 30
0.0
 10
127.2642709629731
 20
265.8065938576212
 30
0.0
 10
127.5815208396518
 20
266.0705569970199
 30
0.0
 10
127.9335792744112
 20
266.3135621840518
 30
0.0
 10
128.3294509387647
 20
266.5432167218227
 30
0.0
 10
128.7541598529624
 20
266.7497675966555
 30
0.0
 10
129.216677086033
 20
266.9387703754502
 30
0.0
 10
129.7019176282004
 20
267.1030841632602
 30
0.0
 10
130.217159105008
 20
267.2460996669801
 30
0.0
 10
130.7488243689308
 20
267.3632521020909
 30
0.0
 10
131.3012734176615
 20
267.456225993274
 30
0.0
 10
131.8636642578385
 20
267.522545052215
 30
0.0
 10
132.4366809080242
 20
267.5628913102922
 30
0.0
 10
133.0130271113188
 20
267.5761816420925
 30
0.0
 10
133.5893733146119
 20
267.5628913103432
 30
0.0
 10
134.1623899648028
 20
267.5225450523104
 30
0.0
 10
134.7247808049636
 20
267.4562259934053
 30
0.0
 10
135.2772298537563
 20
267.3632521022282
 30
0.0
 10
135.8088951174569
 20
267.2460996671473
 30
0.0
 10
136.3241365950561
 20
267.1030841632578
 30
0.0
 10
136.809377134374
 20
266.9387703758566
 30
0.0
 10
137.2718943773363
 20
266.7497675952811
 30
0.0
 10
137.6966032562913
 20
266.5432167262297
 30
0.0
 10
138.092475040786
 20
266.3135621679866
 30
0.0
 10
138.4445330513142
 20
266.0705570522055
 30
0.0
 10
138.7617843555523
 20
265.8065936717699
 30
0.0
 10
139.0310684611193
 20
265.5332143090475
 30
0.0
 10
139.2597273409209
 20
265.2420250510339
 30
0.0
 10
139.4372602066924
 20
264.944394378349
 30
0.0
 10
139.5690788694779
 20
264.6340497966801
 30
0.0
 10
139.6457587300085
 20
264.3200168461665
 30
0.0
 10
139.6764106321372
 20
264.0006830591278
 30
0.0
 10
139.6513410458981
 20
263.7917087152888
 30
0.0
 10
139.6388062582832
 20
263.6872215442355
 30
0.0
 11
139.6388062582832
 21
263.6872215442355
 31
0.0
 11
139.5606335957295
 21
263.3706103800762
 31
0.0
 11
139.4349273406529
 21
263.0702494151844
 31
0.0
 11
139.2533709572178
 21
262.7642036408818
 31
0.0
 11
139.0350088973228
 21
262.484031717437
 31
0.0
 11
138.7572613479475
 21
262.20022808887
 31
0.0
 11
138.4529617957681
 21
261.9458318295562
 31
0.0
 11
138.0893141704491
 21
261.6933684524982
 31
0.0
 11
137.7069811635701
 21
261.4708070323271
 31
0.0
 11
137.269712602795
 21
261.2570862331116
 31
0.0
 11
136.8195171750959
 21
261.0726263744003
 31
0.0
 11
136.3226774534814
 21
260.9036462749841
 31
0.0
 11
135.817190785562
 21
260.7630351576466
 31
0.0
 11
135.2763329785548
 21
260.6433678000215
 31
0.0
 11
134.7301626704379
 21
260.5513004213343
 31
0.0
 11
134.1619627033987
 21
260.4840021416911
 31
0.0
 11
133.591233025348
 21
260.4438069520763
 31
0.0
 11
133.0130271013935
 21
260.4303404657377
 31
0.0
 11
132.4348211774389
 21
260.4438069520764
 31
0.0
 11
131.8640914993882
 21
260.4840021416912
 31
0.0
 11
131.2958915323489
 21
260.5513004213343
 31
0.0
 11
130.7497212242322
 21
260.6433678000215
 31
0.0
 11
130.208863417225
 21
260.7630351576466
 31
0.0
 11
129.7033767493056
 21
260.9036462749841
 31
0.0
 11
129.206537027691
 21
261.0726263744003
 31
0.0
 11
128.7563415999919
 21
261.2570862331116
 31
0.0
 11
128.3190730392168
 21
261.4708070323271
 31
0.0
 11
127.9367400323378
 21
261.6933684524982
 31
0.0
 11
127.5730924070187
 21
261.9458318295563
 31
0.0
 11
127.2687928548393
 21
262.2002280888701
 31
0.0
 11
126.9910453054641
 21
262.4840317174371
 31
0.0
 11
126.7726832455692
 21
262.7642036408819
 31
0.0
 11
126.5911268621341
 21
263.0702494151844
 31
0.0
 11
126.4654206070575
 21
263.3706103800762
 31
0.0
 11
126.3872479445037
 21
263.6872215442355
 31
0.0
 11
126.3609597535685
 21
264.0010380308738
 31
0.0
 11
126.3872479445037
 21
264.3148545175121
 31
0.0
 11
126.4654206070575
 21
264.6314656816713
 31
0.0
 11
126.5911268621342
 21
264.931826646563
 31
0.0
 11
126.7726832455692
 21
265.2378724208656
 31
0.0
 11
126.9910453054641
 21
265.5180443443104
 31
0.0
 11
127.2687928548392
 21
265.8018479728774
 31
0.0
 11
127.5730924070186
 21
266.0562442321913
 31
0.0
 11
127.9367400323376
 21
266.3087076092493
 31
0.0
 11
128.3190730392167
 21
266.5312690294204
 31
0.0
 11
128.7563415999918
 21
266.7449898286359
 31
0.0
 11
129.206537027691
 21
266.9294496873472
 31
0.0
 11
129.7033767493056
 21
267.0984297867636
 31
0.0
 11
130.208863417225
 21
267.2390409041009
 31
0.0
 11
130.7497212242322
 21
267.358708261726
 31
0.0
 11
131.2958915323491
 21
267.4507756404132
 31
0.0
 11
131.8640914993883
 21
267.5180739200563
 31
0.0
 11
132.434821177439
 21
267.5582691096711
 31
0.0
 11
133.0130271013935
 21
267.5717355960098
 31
0.0
 11
133.591233025348
 21
267.5582691096711
 31
0.0
 11
134.1619627033987
 21
267.5180739200563
 31
0.0
 11
134.7301626704379
 21
267.4507756404132
 31
0.0
 11
135.2763329785548
 21
267.358708261726
 31
0.0
 11
135.817190785562
 21
267.2390409041008
 31
0.0
 11
136.3226774534814
 21
267.0984297867635
 31
0.0
 11
136.819517175096
 21
266.9294496873471
 31
0.0
 11
137.2697126027952
 21
266.7449898286359
 31
0.0
 11
137.7069811635702
 21
266.5312690294204
 31
0.0
 11
138.0893141704492
 21
266.3087076092493
 31
0.0
 11
138.4529617957681
 21
266.0562442321912
 31
0.0
 11
138.7572613479475
 21
265.8018479728775
 31
0.0
 11
139.0350088973228
 21
265.5180443443104
 31
0.0
 11
139.2533709572178
 21
265.2378724208656
 31
0.0
 11
139.4349273406529
 21
264.931826646563
 31
0.0
 11
139.5606335957295
 21
264.6314656816713
 31
0.0
 11
139.6388062582832
 21
264.3148545175121
 31
0.0
 11
139.6650944492184
 21
264.0010380308738
 31
0.0
 11
139.6388062582832
 21
263.6872215442355
 31
0.0
  0
SPLINE
  5
A1
330
4A
100
AcDbEntity
  8
0
  6
Continuous
 62
     7
100
AcDbSpline
210
0.0
220
0.0
230
1.0
 70
    11
 71
     3
 72
    79
 73
    75
 74
    73
 42
0.000000001
 43
0.0000000001
 44
0.00000001
 40
0.0
 40
0.0
 40
0.0
 40
0.0
 40
0.2910229063171909
 40
0.5820342199790546
 40
0.8749339259796348
 40
1.16781254031184
 40
1.463561181730098
 40
1.759282799553873
 40
2.058487804326643
 40
2.357663878865559
 40
2.660503334662386
 40
2.963315618548004
 40
3.269530819653627
 40
3.575723462230672
 40
3.884662737575161
 40
4.193586021287286
 40
4.504289078951623
 40
4.814983875317466
 40
5.126294424223274
 40
5.437604973118117
 40
5.748299769450996
 40
6.05900282705977
 40
6.367926110694085
 40
6.676865385937241
 40
6.983058028389932
 40
7.289273229346009
 40
7.592085513057592
 40
7.894924968652755
 40
8.194101042962549
 40
8.493306047472798
 40
8.789027664996887
 40
9.084776306062226
 40
9.377654919956273
 40
9.67055462532306
 40
9.961565937614756
 40
10.25258885279212
 40
10.54295309049237
 40
10.83331732819157
 40
11.12434024336574
 40
11.41535155565224
 40
11.70825126101177
 40
12.00112987489669
 40
12.29687851595104
 40
12.59260013346245
 40
12.89180513795823
 40
13.19098121225236
 40
13.49382066783041
 40
13.79663295152383
 40
14.10284815246048
 40
14.40904079489277
 40
14.71798007011471
 40
15.02690335372703
 40
15.33760641131326
 40
15.6483012076229
 40
15.95961175649389
 40
16.27092230537531
 40
16.58161710171651
 40
16.8923201593557
 40
17.2012434430423
 40
17.51018271836073
 40
17.81637536091127
 40
18.12259056198947
 40
18.42540284584673
 40
18.72824230161354
 40
19.02741837611969
 40
19.32662338085461
 40
19.62234499863097
 40
19.91809363998175
 40
20.21097225419803
 40
20.50387195993852
 40
20.79488327268844
 40
21.08590618851594
 40
21.37627042760385
 40
21.66663465645604
 40
21.66663465645604
 40
21.66663465645604
 40
21.66663465645604
 10
121.1787149031618
 20
267.5581072822749
 30
0.0
 10
121.2750899588769
 20
267.5464316148372
 30
0.0
 10
121.4678362319447
 20
267.5230807502512
 30
0.0
 10
121.7517727392741
 20
267.4537247584857
 30
0.0
 10
122.0290370058994
 20
267.3602820013705
 30
0.0
 10
122.2977893901921
 20
267.2403750156359
 30
0.0
 10
122.5554347740265
 20
267.0963295106435
 30
0.0
 10
122.8006617215308
 20
266.928262909955
 30
0.0
 10
123.0309250778264
 20
266.7384281770144
 30
0.0
 10
123.2451572865657
 20
266.5272920484655
 30
0.0
 10
123.4411117155387
 20
266.297512444937
 30
0.0
 10
123.6178690593625
 20
266.0497839128092
 30
0.0
 10
123.7736398935256
 20
265.7870516730634
 30
0.0
 10
123.9076083110872
 20
265.5103006615032
 30
0.0
 10
124.0185313425609
 20
265.2225686838153
 30
0.0
 10
124.1057081351184
 20
264.9252152374627
 30
0.0
 10
124.1684561453953
 20
264.6211692413855
 30
0.0
 10
124.2062565247907
 20
264.3122276456925
 30
0.0
 10
124.2189335984614
 20
264.0010380404473
 30
0.0
 10
124.2062565251561
 20
263.6898484351923
 30
0.0
 10
124.1684561461255
 20
263.3809068395052
 30
0.0
 10
124.1057081362224
 20
263.0768608433467
 30
0.0
 10
124.0185313440147
 20
262.7795073971961
 30
0.0
 10
123.9076083129961
 20
262.4917754186208
 30
0.0
 10
123.7736398955194
 20
262.2150244101651
 30
0.0
 10
123.6178690628426
 20
261.9522921586735
 30
0.0
 10
123.441111715354
 20
261.7045636696445
 30
0.0
 10
123.2451573018456
 20
261.4747839059494
 30
0.0
 10
123.0309250379717
 20
261.2636483678634
 30
0.0
 10
122.800661888136
 20
261.0738114447537
 30
0.0
 10
122.5554341807418
 20
260.9057529266731
 30
0.0
 10
122.2977916192646
 20
260.7616774248905
 30
0.0
 10
122.0290288015776
 20
260.6418813544169
 30
0.0
 10
121.7518033160902
 20
260.5480263575776
 30
0.0
 10
121.4677229627939
 20
260.480199450986
 30
0.0
 10
121.1793554824874
 20
260.4395044893555
 30
0.0
 10
120.8886714490149
 20
260.4257386957804
 30
0.0
 10
120.5979874155421
 20
260.4395044893304
 30
0.0
 10
120.3096199352353
 20
260.4801994509353
 30
0.0
 10
120.0255395819383
 20
260.5480263575023
 30
0.0
 10
119.74831409645
 20
260.6418813543164
 30
0.0
 10
119.479551278762
 20
260.7616774247654
 30
0.0
 10
119.2219087172835
 20
260.9057529265232
 30
0.0
 10
118.9766810098878
 20
261.0738114445794
 30
0.0
 10
118.7464178600503
 20
261.2636483676642
 30
0.0
 10
118.5321855961746
 20
261.4747839057262
 30
0.0
 10
118.336231182664
 20
261.7045636693971
 30
0.0
 10
118.1594738351732
 20
261.9522921584021
 30
0.0
 10
118.0037030024938
 20
262.2150244098697
 30
0.0
 10
117.8697345850144
 20
262.4917754183016
 30
0.0
 10
117.7588115539931
 20
262.7795073968531
 30
0.0
 10
117.6716347617822
 20
263.07686084298
 30
0.0
 10
117.6088867518759
 20
263.3809068391147
 30
0.0
 10
117.5710863728414
 20
263.6898484347784
 30
0.0
 10
117.558409299532
 20
264.0010380400081
 30
0.0
 10
117.5710863731976
 20
264.3122276452334
 30
0.0
 10
117.6088867525892
 20
264.6211692408866
 30
0.0
 10
117.6716347628537
 20
264.925215236997
 30
0.0
 10
117.758811555427
 20
265.2225686831123
 30
0.0
 10
117.8697345868061
 20
265.5103006615659
 30
0.0
 10
118.0037030046748
 20
265.7870516701777
 30
0.0
 10
118.1594738376466
 20
266.049783920751
 30
0.0
 10
118.3362311858065
 20
266.2975124127846
 30
0.0
 10
118.5321855986194
 20
266.5272921648967
 30
0.0
 10
118.7464178668704
 20
266.7384277452176
 30
0.0
 10
118.9766810023309
 20
266.9282645111366
 30
0.0
 10
119.2219087646667
 20
267.0963236087181
 30
0.0
 10
119.4795511242018
 20
267.2403969591289
 30
0.0
 10
119.7483146906163
 20
267.3602009836727
 30
0.0
 10
120.0255373954842
 20
267.4540264166192
 30
0.0
 10
120.3096280651413
 20
267.5219629809624
 30
0.0
 10
120.5979571268908
 20
267.562249537273
 30
0.0
 10
120.8887842373525
 20
267.5775362816672
 30
0.0
 10
121.0820713489195
 20
267.5645836135766
 30
0.0
 10
121.1787149031618
 20
267.5581072822749
 30
0.0
 11
121.1787149031618
 21
267.5581072822749
 31
0.0
 11
121.4668743994366
 21
267.5173833091884
 31
0.0
 11
121.7499566058191
 21
267.4499144391231
 31
0.0
 11
122.027380648363
 21
267.3559669104842
 31
0.0
 11
122.2949424004803
 21
267.2368510366848
 31
0.0
 11
122.5530747691955
 21
267.0925079072276
 31
0.0
 11
122.7970874218067
 21
266.9254477368119
 31
0.0
 11
123.0279669273376
 21
266.7351367052113
 31
0.0
 11
123.2411422222887
 21
266.5252257308558
 31
0.0
 11
123.4376765462969
 21
266.2948217477294
 31
0.0
 11
123.6136500820965
 21
266.0483900250416
 31
0.0
 11
123.7698472225694
 21
265.7850077882036
 31
0.0
 11
123.9033429105337
 21
265.5094486554258
 31
0.0
 11
124.0144928360909
 21
265.2211967345285
 31
0.0
 11
124.1014694901172
 21
264.9247702564882
 31
0.0
 11
124.1642745644386
 21
264.6204810639452
 31
0.0
 11
124.2020499261102
 21
264.3120912480247
 31
0.0
 11
124.2147051223237
 21
264.0010380308738
 31
0.0
 11
124.2020499261102
 21
263.6899848137228
 31
0.0
 11
124.1642745644386
 21
263.3815949978022
 31
0.0
 11
124.1014694901171
 21
263.0773058052594
 31
0.0
 11
124.0144928360907
 21
262.7808793272189
 31
0.0
 11
123.9033429105336
 21
262.4926274063217
 31
0.0
 11
123.7698472225694
 21
262.2170682735439
 31
0.0
 11
123.6136500820965
 21
261.953686036706
 31
0.0
 11
123.4376765462969
 21
261.7072543140183
 31
0.0
 11
123.2411422222887
 21
261.4768503308918
 31
0.0
 11
123.0279669273376
 21
261.2669393565363
 31
0.0
 11
122.7970874218067
 21
261.0766283249354
 31
0.0
 11
122.5530747691955
 21
260.9095681545197
 31
0.0
 11
122.2949424004803
 21
260.7652250250625
 31
0.0
 11
122.0273806483629
 21
260.6461091512631
 31
0.0
 11
121.7499566058191
 21
260.5521616226243
 31
0.0
 11
121.4668743994366
 21
260.4846927525591
 31
0.0
 11
121.1787149031618
 21
260.4439687794725
 31
0.0
 11
120.8886714484114
 21
260.4303238166023
 31
0.0
 11
120.598627993661
 21
260.4439687794725
 31
0.0
 11
120.3104684973862
 21
260.484692752559
 31
0.0
 11
120.0273862910037
 21
260.5521616226243
 31
0.0
 11
119.7499622484599
 21
260.6461091512631
 31
0.0
 11
119.4824004963425
 21
260.7652250250626
 31
0.0
 11
119.2242681276273
 21
260.9095681545198
 31
0.0
 11
118.9802554750161
 21
261.0766283249355
 31
0.0
 11
118.7493759694852
 21
261.2669393565362
 31
0.0
 11
118.5362006745341
 21
261.4768503308918
 31
0.0
 11
118.3396663505258
 21
261.7072543140183
 31
0.0
 11
118.1636928147262
 21
261.953686036706
 31
0.0
 11
118.0074956742533
 21
262.2170682735439
 31
0.0
 11
117.873999986289
 21
262.4926274063216
 31
0.0
 11
117.7628500607319
 21
262.7808793272189
 31
0.0
 11
117.6758734067056
 21
263.0773058052592
 31
0.0
 11
117.6130683323842
 21
263.3815949978023
 31
0.0
 11
117.5752929707126
 21
263.6899848137228
 31
0.0
 11
117.5626377744991
 21
264.0010380308738
 31
0.0
 11
117.5752929707126
 21
264.3120912480247
 31
0.0
 11
117.6130683323841
 21
264.6204810639452
 31
0.0
 11
117.6758734067056
 21
264.9247702564882
 31
0.0
 11
117.7628500607319
 21
265.2211967345285
 31
0.0
 11
117.873999986289
 21
265.5094486554258
 31
0.0
 11
118.0074956742532
 21
265.7850077882036
 31
0.0
 11
118.1636928147262
 21
266.0483900250415
 31
0.0
 11
118.3396663505259
 21
266.2948217477293
 31
0.0
 11
118.5362006745341
 21
266.5252257308558
 31
0.0
 11
118.7493759694852
 21
266.7351367052112
 31
0.0
 11
118.9802554750161
 21
266.925447736812
 31
0.0
 11
119.2242681276273
 21
267.0925079072277
 31
0.0
 11
119.4824004963425
 21
267.2368510366848
 31
0.0
 11
119.7499622484599
 21
267.3559669104843
 31
0.0
 11
120.0273862910037
 21
267.4499144391229
 31
0.0
 11
120.3104684973862
 21
267.5173833091883
 31
0.0
 11
120.598627993661
 21
267.5581072822748
 31
0.0
 11
120.8886714484114
 21
267.5717522451451
 31
0.0
 11
121.1787149031618
 21
267.5581072822749
 31
0.0
  0
SPLINE
  5
A2
330
4A
100
AcDbEntity
  8
1
  6
Continuous
 62
     7
100
AcDbSpline
210
0.0
220
0.0
230
1.0
 70
     8
 71
     3
 72
    15
 73
    11
 74
     9
 42
0.000000001
 43
0.0000000001
 44
0.00000001
 40
0.0
 40
0.0
 40
0.0
 40
0.0
 40
0.3005600958933541
 40
0.6013520082050297
 40
1.084248806122748
 40
1.567084938335402
 40
2.06356736366702
 40
2.560021741706993
 40
2.810688804486528
 40
3.061174403760929
 40
3.061174403760929
 40
3.061174403760929
 40
3.061174403760929
 10
370.6786640724447
 20
260.9528042623103
 30
0.0
 10
370.584544758544
 20
260.9184224534686
 30
0.0
 10
370.3962335333916
 20
260.8496323314514
 30
0.0
 10
370.0505057414965
 20
260.7438224645944
 30
0.0
 10
369.6412992413825
 20
260.6390692702805
 30
0.0
 10
369.1625595614652
 20
260.5461365709108
 30
0.0
 10
368.6749093997778
 20
260.4795313093381
 30
0.0
 10
368.261518377349
 20
260.4461292631366
 30
0.0
 10
367.9292184309776
 20
260.4322851907511
 30
0.0
 10
367.7621620287416
 20
260.4309774453034
 30
0.0
 10
367.6786640724417
 20
260.4303238166015
 30
0.0
 11
370.6786640724447
 21
260.9528042623103
 31
0.0
 11
370.3954472376006
 21
260.8521832111893
 31
0.0
 11
370.1080840627986
 21
260.7633115022963
 31
0.0
 11
369.640238172398
 21
260.6436890077453
 31
0.0
 11
369.1663061448992
 21
260.5513896870791
 31
0.0
 11
368.6744094382057
 21
260.4840663693058
 31
0.0
 11
368.1795898862233
 21
260.4438101808988
 31
0.0
 11
367.9291269793325
 21
260.4336954076758
 31
0.0
 11
367.6786640724417
 21
260.4303238166015
 31
0.0
  0
SPLINE
  5
A3
330
4A
100
AcDbEntity
  8
1
  6
Continuous
 62
     7
100
AcDbSpline
210
0.0
220
0.0
230
1.0
 70
     8
 71
     3
 72
    15
 73
    11
 74
     9
 42
0.000000001
 43
0.0000000001
 44
0.00000001
 40
0.0
 40
0.0
 40
0.0
 40
0.0
 40
0.3005600958900431
 40
0.6013520081983583
 40
1.084248806116228
 40
1.56708493832877
 40
2.063567363660388
 40
2.560021741700361
 40
2.81068880447984
 40
3.06117440375407
 40
3.06117440375407
 40
3.06117440375407
 40
3.06117440375407
 10
378.6786640724488
 20
260.9528042623079
 30
0.0
 10
378.7727833863484
 20
260.9184224534666
 30
0.0
 10
378.9610946114987
 20
260.8496323314503
 30
0.0
 10
379.3068224033921
 20
260.7438224645939
 30
0.0
 10
379.7160289035049
 20
260.6390692702806
 30
0.0
 10
380.1947685834222
 20
260.5461365709108
 30
0.0
 10
380.6824187451095
 20
260.4795313093381
 30
0.0
 10
381.0958097675382
 20
260.4461292631366
 30
0.0
 10
381.4281097139096
 20
260.4322851907511
 30
0.0
 10
381.5951661161455
 20
260.4309774453034
 30
0.0
 10
381.6786640724454
 20
260.4303238166015
 30
0.0
 11
378.6786640724488
 21
260.9528042623079
 31
0.0
 11
378.9618809072898
 21
260.8521832111882
 31
0.0
 11
379.2492440820886
 21
260.7633115022963
 31
0.0
 11
379.7170899724894
 21
260.6436890077453
 31
0.0
 11
380.191021999988
 21
260.5513896870791
 31
0.0
 11
380.6829187066816
 21
260.4840663693058
 31
0.0
 11
381.177738258664
 21
260.4438101808988
 31
0.0
 11
381.4282011655547
 21
260.4336954076758
 31
0.0
 11
381.6786640724454
 21
260.4303238166015
 31
0.0
  0
SPLINE
  5
A4
330
4A
100
AcDbEntity
  8
1
  6
Continuous
 62
     7
100
AcDbSpline
210
0.0
220
0.0
230
1.0
 70
     8
 71
     3
 72
    45
 73
    41
 74
    39
 42
0.000000001
 43
0.0000000001
 44
0.00000001
 40
0.0
 40
0.0
 40
0.0
 40
0.0
 40
0.2504855923915126
 40
0.5011526542646213
 40
0.997607031951733
 40
1.494089457491072
 40
1.976925590205517
 40
2.459822388860486
 40
2.921035295681568
 40
3.382351332272748
 40
3.815601776448362
 40
4.249013692942063
 40
4.650432700713675
 40
5.052091376296077
 40
5.421199499126136
 40
5.790635502078927
 40
6.131267663831851
 40
6.472271412402007
 40
6.793085244011587
 40
7.114166556699399
 40
7.427928541505301
 40
7.741690526311198
 40
8.062771838998911
 40
8.383585670608452
 40
8.724589419178582
 40
9.065221580931539
 40
9.43465758388433
 40
9.803765706714472
 40
10.20542438229676
 40
10.60684339006853
 40
11.04025530656233
 40
11.47350575073785
 40
11.93482178732904
 40
12.39603469414997
 40
12.87893149280489
 40
13.36176762551943
 40
13.85825005105889
 40
14.35470442874593
 40
14.60537149061722
 40
14.85585708300674
 40
14.85585708300674
 40
14.85585708300674
 40
14.85585708300674
 10
381.6786640724382
 20
267.5717522451445
 30
0.0
 10
381.7621620073405
 20
267.5710985572267
 30
0.0
 10
381.9292183687987
 20
267.5697906967249
 30
0.0
 10
382.2615186930752
 20
267.5559478044132
 30
0.0
 10
382.6749067962045
 20
267.522536708199
 30
0.0
 10
383.1625689265086
 20
267.4559685575745
 30
0.0
 10
383.6412653732066
 20
267.3629018028946
 30
0.0
 10
384.1024608777965
 20
267.245370091822
 30
0.0
 10
384.5488192665453
 20
267.1021872192117
 30
0.0
 10
384.9699237694596
 20
266.9372223090051
 30
0.0
 10
385.3704784132449
 20
266.7480054102986
 30
0.0
 10
385.7391750027606
 20
266.540438192889
 30
0.0
 10
386.0817912945047
 20
266.3105664366277
 30
0.0
 10
386.3873391379357
 20
266.0661831287872
 30
0.0
 10
386.6614916035375
 20
265.8021518793595
 30
0.0
 10
386.8947352684255
 20
265.5273945354085
 30
0.0
 10
387.0916143018196
 20
265.2366939838823
 30
0.0
 10
387.2447138439755
 20
264.9387083294785
 30
0.0
 10
387.3572613144419
 20
264.6300077103899
 30
0.0
 10
387.4238128247771
 20
264.3174370735796
 30
0.0
 10
387.4472880814554
 20
264.0010380308729
 30
0.0
 10
387.4238128247772
 20
263.6846389881661
 30
0.0
 10
387.3572613144419
 20
263.3720683513559
 30
0.0
 10
387.2447138439757
 20
263.0633677322672
 30
0.0
 10
387.0916143018198
 20
262.7653820778634
 30
0.0
 10
386.8947352684257
 20
262.4746815263373
 30
0.0
 10
386.6614916035375
 20
262.1999241823861
 30
0.0
 10
386.3873391379357
 20
261.9358929329587
 30
0.0
 10
386.0817912945046
 20
261.6915096251182
 30
0.0
 10
385.7391750027606
 20
261.4616378688568
 30
0.0
 10
385.3704784132447
 20
261.2540706514471
 30
0.0
 10
384.9699237694599
 20
261.0648537527406
 30
0.0
 10
384.5488192665451
 20
260.8998888425343
 30
0.0
 10
384.1024608777965
 20
260.7567059699236
 30
0.0
 10
383.6412653732069
 20
260.6391742588512
 30
0.0
 10
383.1625689265085
 20
260.5461075041712
 30
0.0
 10
382.6749067962047
 20
260.479539353547
 30
0.0
 10
382.2615186930756
 20
260.4461282573328
 30
0.0
 10
381.9292183688008
 20
260.4322853650212
 30
0.0
 10
381.7621620073435
 20
260.4309775045193
 30
0.0
 10
381.678664072442
 20
260.4303238166015
 30
0.0
 11
381.6786640724382
 21
267.5717522451445
 31
0.0
 11
381.9291269793308
 21
267.5683806540702
 31
0.0
 11
382.1795898862234
 21
267.5582658808472
 31
0.0
 11
382.6744094382057
 21
267.51800969244
 31
0.0
 11
383.1663061448992
 21
267.4506863746667
 31
0.0
 11
383.6402381723978
 21
267.3583870540005
 31
0.0
 11
384.1080840627986
 21
267.2387645594495
 31
0.0
 11
384.5471731512992
 21
267.0976329967793
 31
0.0
 11
384.9765065030384
 21
266.9288569353323
 31
0.0
 11
385.368074172232
 21
266.7434365803815
 31
0.0
 11
385.7454025349502
 21
266.5302015075663
 31
0.0
 11
386.0784296541311
 21
266.306080651973
 31
0.0
 11
386.3915910113528
 21
266.0545659282262
 31
0.0
 11
386.6569281404577
 21
265.7979786828459
 31
0.0
 11
386.895421437013
 21
265.5158370375002
 31
0.0
 11
387.0856571611185
 21
265.2332761783173
 31
0.0
 11
387.2410820276958
 21
264.9297524269217
 31
0.0
 11
387.3500368598403
 21
264.6280069060518
 31
0.0
 11
387.417032401543
 21
264.3139928824386
 31
0.0
 11
387.4395233833449
 21
264.0010380308728
 31
0.0
 11
387.4170324015431
 21
263.6880831793071
 31
0.0
 11
387.3500368598403
 21
263.374069155694
 31
0.0
 11
387.2410820276959
 21
263.0723236348241
 31
0.0
 11
387.0856571611187
 21
262.7687998834285
 31
0.0
 11
386.8954214370131
 21
262.4862390242456
 31
0.0
 11
386.6569281404578
 21
262.2040973788999
 31
0.0
 11
386.3915910113528
 21
261.9475101335196
 31
0.0
 11
386.0784296541311
 21
261.6959954097729
 31
0.0
 11
385.7454025349501
 21
261.4718745541795
 31
0.0
 11
385.3680741722318
 21
261.2586394813642
 31
0.0
 11
384.9765065030384
 21
261.0732191264134
 31
0.0
 11
384.5471731512991
 21
260.9044430649665
 31
0.0
 11
384.1080840627988
 21
260.7633115022963
 31
0.0
 11
383.640238172398
 21
260.6436890077453
 31
0.0
 11
383.1663061448993
 21
260.5513896870791
 31
0.0
 11
382.6744094382057
 21
260.4840663693058
 31
0.0
 11
382.1795898862234
 21
260.4438101808988
 31
0.0
 11
381.9291269793326
 21
260.4336954076758
 31
0.0
 11
381.678664072442
 21
260.4303238166015
 31
0.0
  0
SPLINE
  5
A5
330
4A
100
AcDbEntity
  8
1
  6
Continuous
 62
     7
100
AcDbSpline
210
0.0
220
0.0
230
1.0
 70
     8
 71
     3
 72
    17
 73
    13
 74
    11
 42
0.000000001
 43
0.0000000001
 44
0.00000001
 40
0.0
 40
0.0
 40
0.0
 40
0.0
 40
0.2504855999113058
 40
0.5011526634880443
 40
0.9976070436379807
 40
1.49408947127745
 40
1.976925605444674
 40
2.459822404315135
 40
2.921035309756773
 40
3.382351340801201
 40
3.393058314642244
 40
3.403764051502599
 40
3.403764051502599
 40
3.403764051502599
 40
3.403764051502599
 10
381.678664072449
 20
267.5717522451445
 30
0.0
 10
381.5951661329272
 20
267.5710985634604
 30
0.0
 10
381.4281097642079
 20
267.5697907120247
 30
0.0
 10
381.0958094781581
 20
267.5559476952312
 30
0.0
 10
380.6824210501871
 20
267.5225375537864
 30
0.0
 10
380.1947602412147
 20
267.4559654868221
 30
0.0
 10
379.7160590123862
 20
267.3629128830391
 30
0.0
 10
379.2548809734586
 20
267.245329476362
 30
0.0
 10
378.8084602022831
 20
267.1023312510092
 30
0.0
 10
378.5187530393923
 20
266.9883191637214
 30
0.0
 10
378.3709886842653
 20
266.9246209675249
 30
0.0
 10
378.3644406776586
 20
266.9217804370426
 30
0.0
 10
378.3611668663358
 20
266.9203602472804
 30
0.0
 11
381.678664072449
 21
267.5717522451445
 31
0.0
 11
381.4282011655565
 21
267.5683806540702
 31
0.0
 11
381.1777382586639
 21
267.5582658808471
 31
0.0
 11
380.6829187066816
 21
267.51800969244
 31
0.0
 11
380.1910219999879
 21
267.4506863746667
 31
0.0
 11
379.7170899724891
 21
267.3583870540006
 31
0.0
 11
379.2492440820884
 21
267.2387645594495
 31
0.0
 11
378.8101549935878
 21
267.0976329967793
 31
0.0
 11
378.3808216418486
 21
266.9288569353323
 31
0.0
 11
378.3709899206215
 21
266.9246170562034
 31
0.0
 11
378.3611668663358
 21
266.9203602472804
 31
0.0
  0
SPLINE
  5
A6
330
4A
100
AcDbEntity
  8
1
  6
Continuous
 62
     7
100
AcDbSpline
210
0.0
220
0.0
230
1.0
 70
     8
 71
     3
 72
    17
 73
    13
 74
    11
 42
0.000000001
 43
0.0000000001
 44
0.00000001
 40
0.0
 40
0.0
 40
0.0
 40
0.0
 40
0.2504855999114196
 40
0.501152663488099
 40
0.9976070436379786
 40
1.494089471277399
 40
1.976925605444523
 40
2.459822404314969
 40
2.921035309756625
 40
3.382351340801044
 40
3.393058314635996
 40
3.403764051490358
 40
3.403764051490358
 40
3.403764051490358
 40
3.403764051490358
 10
367.6786640724382
 20
267.5717522451445
 30
0.0
 10
367.7621620119601
 20
267.5710985634605
 30
0.0
 10
367.9292183806793
 20
267.5697907120247
 30
0.0
 10
368.2615186667292
 20
267.5559476952312
 30
0.0
 10
368.6749070947
 20
267.5225375537865
 30
0.0
 10
369.1625679036724
 20
267.4559654868221
 30
0.0
 10
369.641269132501
 20
267.3629128830391
 30
0.0
 10
370.1024471714285
 20
267.245329476362
 30
0.0
 10
370.5488679426044
 20
267.1023312510087
 30
0.0
 10
370.8385751054921
 20
266.9883191637232
 30
0.0
 10
370.9863394606164
 20
266.9246209675273
 30
0.0
 10
370.992887467219
 20
266.9217804370466
 30
0.0
 10
370.9961612785401
 20
266.9203602472851
 30
0.0
 11
367.6786640724382
 21
267.5717522451445
 31
0.0
 11
367.9291269793308
 21
267.5683806540702
 31
0.0
 11
368.1795898862234
 21
267.5582658808472
 31
0.0
 11
368.6744094382057
 21
267.51800969244
 31
0.0
 11
369.1663061448992
 21
267.4506863746667
 31
0.0
 11
369.6402381723979
 21
267.3583870540005
 31
0.0
 11
370.1080840627987
 21
267.2387645594495
 31
0.0
 11
370.5471731512992
 21
267.0976329967793
 31
0.0
 11
370.9765065030385
 21
266.9288569353324
 31
0.0
 11
370.98633822426
 21
266.9246170562058
 31
0.0
 11
370.9961612785401
 21
266.9203602472851
 31
0.0
  0
SPLINE
  5
A7
330
4A
100
AcDbEntity
  8
1
  6
Continuous
 62
     7
100
AcDbSpline
210
0.0
220
0.0
230
1.0
 70
     8
 71
     3
 72
    45
 73
    41
 74
    39
 42
0.000000001
 43
0.0000000001
 44
0.00000001
 40
0.0
 40
0.0
 40
0.0
 40
0.0
 40
0.2504855923915126
 40
0.5011526542646213
 40
0.9976070319516197
 40
1.494089457491016
 40
1.976925590205628
 40
2.459822388860597
 40
2.921035295681571
 40
3.382351332272751
 40
3.815601776448313
 40
4.249013692942063
 40
4.650432700713581
 40
5.052091376295983
 40
5.421199499126041
 40
5.790635502078869
 40
6.13126766383192
 40
6.472271412402025
 40
6.793085244011566
 40
7.114166556699391
 40
7.427928541505296
 40
7.741690526311202
 40
8.062771838998914
 40
8.383585670608436
 40
8.724589419178567
 40
9.065221580931587
 40
9.434657583884414
 40
9.803765706714474
 40
10.20542438229685
 40
10.60684339006843
 40
11.04025530656229
 40
11.4735057507378
 40
11.93482178732894
 40
12.39603469414993
 40
12.8789314928049
 40
13.3617676255195
 40
13.85825005105889
 40
14.35470442874599
 40
14.60537149061728
 40
14.85585708300692
 40
14.85585708300692
 40
14.85585708300692
 40
14.85585708300692
 10
367.6786640724489
 20
267.5717522451445
 30
0.0
 10
367.5951661375466
 20
267.5710985572267
 30
0.0
 10
367.4281097760883
 20
267.5697906967249
 30
0.0
 10
367.095809451812
 20
267.5559478044132
 30
0.0
 10
366.6824213486826
 20
267.5225367081989
 30
0.0
 10
366.1947592183786
 20
267.4559685575745
 30
0.0
 10
365.7160627716804
 20
267.3629018028947
 30
0.0
 10
365.2548672670904
 20
267.2453700918221
 30
0.0
 10
364.8085088783419
 20
267.1021872192116
 30
0.0
 10
364.3874043754273
 20
266.937222309005
 30
0.0
 10
363.9868497316423
 20
266.7480054102986
 30
0.0
 10
363.6181531421265
 20
266.540438192889
 30
0.0
 10
363.2755368503827
 20
266.3105664366277
 30
0.0
 10
362.9699890069517
 20
266.0661831287873
 30
0.0
 10
362.6958365413498
 20
265.8021518793595
 30
0.0
 10
362.4625928764615
 20
265.5273945354084
 30
0.0
 10
362.2657138430674
 20
265.2366939838824
 30
0.0
 10
362.1126143009115
 20
264.9387083294786
 30
0.0
 10
362.0000668304453
 20
264.6300077103899
 30
0.0
 10
361.9335153201101
 20
264.3174370735796
 30
0.0
 10
361.9100400634316
 20
264.0010380308729
 30
0.0
 10
361.9335153201101
 20
263.6846389881661
 30
0.0
 10
362.0000668304453
 20
263.3720683513559
 30
0.0
 10
362.1126143009116
 20
263.0633677322672
 30
0.0
 10
362.2657138430671
 20
262.7653820778634
 30
0.0
 10
362.4625928764616
 20
262.4746815263373
 30
0.0
 10
362.6958365413496
 20
262.1999241823862
 30
0.0
 10
362.9699890069516
 20
261.9358929329587
 30
0.0
 10
363.2755368503825
 20
261.6915096251183
 30
0.0
 10
363.6181531421266
 20
261.4616378688567
 30
0.0
 10
363.9868497316423
 20
261.2540706514473
 30
0.0
 10
364.3874043754273
 20
261.0648537527405
 30
0.0
 10
364.808508878342
 20
260.8998888425343
 30
0.0
 10
365.2548672670905
 20
260.7567059699237
 30
0.0
 10
365.7160627716805
 20
260.6391742588512
 30
0.0
 10
366.1947592183785
 20
260.5461075041713
 30
0.0
 10
366.6824213486827
 20
260.4795393535469
 30
0.0
 10
367.0958094518114
 20
260.4461282573328
 30
0.0
 10
367.4281097760867
 20
260.4322853650212
 30
0.0
 10
367.5951661375436
 20
260.4309775045193
 30
0.0
 10
367.6786640724453
 20
260.4303238166015
 30
0.0
 11
367.6786640724489
 21
267.5717522451445
 31
0.0
 11
367.4282011655563
 21
267.5683806540702
 31
0.0
 11
367.1777382586637
 21
267.5582658808472
 31
0.0
 11
366.6829187066815
 21
267.51800969244
 31
0.0
 11
366.1910219999879
 21
267.4506863746667
 31
0.0
 11
365.7170899724892
 21
267.3583870540005
 31
0.0
 11
365.2492440820884
 21
267.2387645594495
 31
0.0
 11
364.8101549935879
 21
267.0976329967793
 31
0.0
 11
364.3808216418487
 21
266.9288569353323
 31
0.0
 11
363.9892539726552
 21
266.7434365803815
 31
0.0
 11
363.6119256099369
 21
266.5302015075663
 31
0.0
 11
363.2788984907561
 21
266.306080651973
 31
0.0
 11
362.9657371335344
 21
266.0545659282262
 31
0.0
 11
362.7004000044295
 21
265.7979786828459
 31
0.0
 11
362.4619067078742
 21
265.5158370375002
 31
0.0
 11
362.2716709837684
 21
265.2332761783173
 31
0.0
 11
362.1162461171912
 21
264.9297524269217
 31
0.0
 11
362.0072912850469
 21
264.6280069060518
 31
0.0
 11
361.9402957433441
 21
264.3139928824386
 31
0.0
 11
361.9178047615422
 21
264.0010380308728
 31
0.0
 11
361.9402957433441
 21
263.6880831793071
 31
0.0
 11
362.0072912850469
 21
263.374069155694
 31
0.0
 11
362.1162461171912
 21
263.0723236348241
 31
0.0
 11
362.2716709837684
 21
262.7687998834285
 31
0.0
 11
362.4619067078741
 21
262.4862390242456
 31
0.0
 11
362.7004000044295
 21
262.2040973788999
 31
0.0
 11
362.9657371335344
 21
261.9475101335196
 31
0.0
 11
363.2788984907561
 21
261.6959954097729
 31
0.0
 11
363.6119256099369
 21
261.4718745541795
 31
0.0
 11
363.9892539726553
 21
261.2586394813642
 31
0.0
 11
364.3808216418487
 21
261.0732191264134
 31
0.0
 11
364.8101549935879
 21
260.9044430649665
 31
0.0
 11
365.2492440820884
 21
260.7633115022963
 31
0.0
 11
365.7170899724892
 21
260.6436890077453
 31
0.0
 11
366.1910219999879
 21
260.5513896870791
 31
0.0
 11
366.6829187066815
 21
260.4840663693058
 31
0.0
 11
367.1777382586639
 21
260.4438101808988
 31
0.0
 11
367.4282011655546
 21
260.4336954076758
 31
0.0
 11
367.6786640724453
 21
260.4303238166015
 31
0.0
  0
ARC
  5
A8
330
4A
100
AcDbEntity
  8
1
  6
Continuous
 62
     7
100
AcDbCircle
 10
121.5130271013935
 20
269.8585749954321
 30
0.0
 40
1.0
100
AcDbArc
 50
270.0
 51
330.0000000000015
  0
ARC
  5
A9
330
4A
100
AcDbEntity
  8
1
  6
Continuous
 62
     7
100
AcDbCircle
 10
123.2450779089623
 20
268.8585749954321
 30
0.0
 40
1.0
100
AcDbArc
 50
90.0
 51
149.9999999999962
  0
ARC
  5
AA
330
4A
100
AcDbEntity
  8
1
  6
Continuous
 62
     7
100
AcDbCircle
 10
121.4550060396631
 20
267.8585749954321
 30
0.0
 40
1.0
100
AcDbArc
 50
90.0
 51
105.337557669555
  0
ARC
  5
AB
330
4A
100
AcDbEntity
  8
1
  6
Continuous
 62
     7
100
AcDbCircle
 10
144.5130271013935
 20
269.8585749954321
 30
0.0
 40
0.9999999999998851
100
AcDbArc
 50
210.0000000000038
 51
270.0
  0
ARC
  5
AC
330
4A
100
AcDbEntity
  8
1
  6
Continuous
 62
     7
100
AcDbCircle
 10
142.7809762938247
 20
268.8585749954321
 30
0.0
 40
1.000000000000058
100
AcDbArc
 50
29.9999999999981
 51
90.0
  0
ARC
  5
AD
330
4A
100
AcDbEntity
  8
1
  6
Continuous
 62
     7
100
AcDbCircle
 10
144.5710481631242
 20
267.8585749954321
 30
0.0
 40
1.000000000000131
100
AcDbArc
 50
74.66244233044496
 51
90.0
  0
ARC
  5
AE
330
4A
100
AcDbEntity
  8
1
  6
Continuous
 62
     7
100
AcDbCircle
 10
386.2366851341741
 20
267.8585749954313
 30
0.0
 40
0.9999999999999193
100
AcDbArc
 50
74.66244233043996
 51
90.0
  0
ARC
  5
AF
330
4A
100
AcDbEntity
  8
1
  6
Continuous
 62
     7
100
AcDbCircle
 10
384.4466132648746
 20
268.8585749954313
 30
0.0
 40
1.000000000000017
100
AcDbArc
 50
42.94140286486979
 51
90.0
  0
ARC
  5
B0
330
4A
100
AcDbEntity
  8
1
  6
Continuous
 62
     7
100
AcDbCircle
 10
386.1786640724436
 20
269.8585749954313
 30
0.0
 40
1.000000000000082
100
AcDbArc
 50
209.9999999999972
 51
270.0
  0
ARC
  5
B1
330
4A
100
AcDbEntity
  8
1
  6
Continuous
 62
     7
100
AcDbCircle
 10
384.4466132648746
 20
268.8585749954313
 30
0.0
 40
1.000000000000033
100
AcDbArc
 50
29.99999999999891
 51
42.94140286486979
  0
ARC
  5
B2
330
4A
100
AcDbEntity
  8
1
  6
Continuous
 62
     7
100
AcDbCircle
 10
363.1206430107129
 20
267.8585749954313
 30
0.0
 40
1.0
100
AcDbArc
 50
90.0
 51
105.3375576695538
  0
ARC
  5
B3
330
4A
100
AcDbEntity
  8
1
  6
Continuous
 62
     7
100
AcDbCircle
 10
364.9107148800125
 20
268.8585749954313
 30
0.0
 40
1.0
100
AcDbArc
 50
90.0
 51
137.0585971351258
  0
ARC
  5
B4
330
4A
100
AcDbEntity
  8
1
  6
Continuous
 62
     7
100
AcDbCircle
 10
363.1786640724436
 20
269.8585749954313
 30
0.0
 40
1.0
100
AcDbArc
 50
270.0
 51
330.0000000000011
  0
ARC
  5
B5
330
4A
100
AcDbEntity
  8
1
  6
Continuous
 62
     7
100
AcDbCircle
 10
364.9107148800125
 20
268.8585749954313
 30
0.0
 40
0.9999999999999335
100
AcDbArc
 50
137.0585971351258
 51
149.9999999999995
  0
ENDBLK
  5
4C
330
4A
100
AcDbEntity
  8
0
100
AcDbBlockEnd
  0
BLOCK
  5
4E
330
4D
100
AcDbEntity
  8
0
100
AcDbBlockBegin
  2
81-100X-M21
 70
     0
 10
150.833627870687
 20
284.9400354536842
 30
0.0
  3
81-100X-M21
  1

  0
LINE
  5
B6
330
4D
100
AcDbEntity
  8
1
  6
Continuous
 62
     7
100
AcDbLine
 10
155.0130271013935
 20
585.5002803778036
 30
0.0
 11
155.0130271013935
 21
554.9002803778038
 31
0.0
  0
LINE
  5
B7
330
4D
100
AcDbEntity
  8
1
  6
Continuous
 62
     7
100
AcDbLine
 10
167.5130271013935
 20
554.7002803778039
 30
0.0
 11
155.2130271013936
 21
554.7002803778039
 31
0.0
  0
LINE
  5
B8
330
4D
100
AcDbEntity
  8
1
  6
Continuous
 62
     7
100
AcDbLine
 10
167.5130271013935
 20
585.7002803778039
 30
0.0
 11
155.2130271013936
 21
585.7002803778038
 31
0.0
  0
LINE
  5
B9
330
4D
100
AcDbEntity
  8
1
  6
Continuous
 62
     7
100
AcDbLine
 10
154.8130271013946
 20
246.6225868712661
 30
0.0
 11
154.8130271013946
 21
219.8585749954312
 31
0.0
  0
LINE
  5
BA
330
4D
100
AcDbEntity
  8
1
  6
Continuous
 62
     7
100
AcDbLine
 10
154.8130271013946
 20
219.8585749954312
 30
0.0
 11
154.8130271013946
 21
219.0585749954311
 31
0.0
  0
LINE
  5
BB
330
4D
100
AcDbEntity
  8
1
  6
Continuous
 62
     7
100
AcDbLine
 10
154.8130271013946
 20
249.658574995431
 30
0.0
 11
154.8130271013946
 21
246.6225868712661
 31
0.0
  0
LINE
  5
BC
330
4D
100
AcDbEntity
  8
1
  6
Continuous
 62
     7
100
AcDbLine
 10
167.3130271013946
 20
218.8585749954312
 30
0.0
 11
164.7327275301544
 21
218.8585749954312
 31
0.0
  0
LINE
  5
BD
330
4D
100
AcDbEntity
  8
1
  6
Continuous
 62
     7
100
AcDbLine
 10
167.3130271013946
 20
249.8585749954312
 30
0.0
 11
160.4806145854012
 21
249.8585749954312
 31
0.0
  0
LINE
  5
BE
330
4D
100
AcDbEntity
  8
1
  6
Continuous
 62
     7
100
AcDbLine
 10
164.7327275301544
 20
218.8585749954312
 30
0.0
 11
155.0130271013949
 21
218.8585749954312
 31
0.0
  0
LINE
  5
BF
330
4D
100
AcDbEntity
  8
1
  6
Continuous
 62
     7
100
AcDbLine
 10
160.4806145854012
 20
249.8585749954312
 30
0.0
 11
155.0130271013949
 21
249.8585749954311
 31
0.0
  0
LINE
  5
C0
330
4D
100
AcDbEntity
  8
1
  6
PHANTOM
 62
     5
100
AcDbLine
 10
343.6786640724437
 20
230.3585749954313
 30
0.0
 11
357.1786640724437
 21
230.3585749954313
 31
0.0
  0
LINE
  5
C1
330
4D
100
AcDbEntity
  8
1
  6
PHANTOM
 62
     5
100
AcDbLine
 10
343.6786640724437
 20
238.3585749954314
 30
0.0
 11
357.1786640724437
 21
238.3585749954314
 31
0.0
  0
LINE
  5
C2
330
4D
100
AcDbEntity
  8
1
  6
Continuous
 62
     7
100
AcDbLine
 10
370.6786640724436
 20
249.8585749954313
 30
0.0
 11
370.6786640724436
 21
249.3335541273032
 31
0.0
  0
LINE
  5
C3
330
4D
100
AcDbEntity
  8
1
  6
Continuous
 62
     7
100
AcDbLine
 10
378.6786640724437
 20
249.8585749954313
 30
0.0
 11
378.6786640724437
 21
249.3335541273032
 31
0.0
  0
LINE
  5
C4
330
4D
100
AcDbEntity
  8
1
  6
Continuous
 62
     7
100
AcDbLine
 10
370.6786640724436
 20
249.8585749954313
 30
0.0
 11
370.6786640724436
 21
249.8585749954289
 31
0.0
  0
LINE
  5
C5
330
4D
100
AcDbEntity
  8
1
  6
Continuous
 62
     7
100
AcDbLine
 10
370.6786640724436
 20
265.3585749954312
 30
0.0
 11
370.6786640724436
 21
249.8585749954313
 31
0.0
  0
LINE
  5
C6
330
4D
100
AcDbEntity
  8
1
  6
Continuous
 62
     7
100
AcDbLine
 10
378.6786640724437
 20
265.3585749954312
 30
0.0
 11
378.6786640724437
 21
249.8585749954313
 31
0.0
  0
LINE
  5
C7
330
4D
100
AcDbEntity
  8
1
  6
Continuous
 62
     7
100
AcDbLine
 10
370.6786640724436
 20
218.3585749954312
 30
0.0
 11
370.6786640724436
 21
219.3835958635594
 31
0.0
  0
LINE
  5
C8
330
4D
100
AcDbEntity
  8
1
  6
Continuous
 62
     7
100
AcDbLine
 10
378.6786640724436
 20
218.3585749954312
 30
0.0
 11
378.6786640724436
 21
219.3835958635593
 31
0.0
  0
ARC
  5
C9
330
4D
100
AcDbEntity
  8
1
  6
Continuous
 62
     7
100
AcDbCircle
 10
172.0130271013944
 20
666.2002803778039
 30
0.0
 40
100.0
100
AcDbArc
 50
270.0
 51
274.3338293663741
  0
ARC
  5
CA
330
4D
100
AcDbEntity
  8
1
  6
Continuous
 62
     7
100
AcDbCircle
 10
179.288308000272
 20
570.2002803778039
 30
0.0
 40
3.724719101121508
100
AcDbArc
 50
0.0
 51
85.66617063362416
  0
ARC
  5
CB
330
4D
100
AcDbEntity
  8
1
  6
Continuous
 62
     7
100
AcDbCircle
 10
172.0130271013944
 20
474.2002803778037
 30
0.0
 40
100.0000000000001
100
AcDbArc
 50
85.66617063362594
 51
90.0
  0
ARC
  5
CC
330
4D
100
AcDbEntity
  8
1
  6
Continuous
 62
     7
100
AcDbCircle
 10
172.0130271013944
 20
666.2002803778039
 30
0.0
 40
100.0000000000001
100
AcDbArc
 50
265.6661706336254
 51
270.0
  0
ARC
  5
CD
330
4D
100
AcDbEntity
  8
1
  6
Continuous
 62
     7
100
AcDbCircle
 10
164.737746202516
 20
570.2002803778039
 30
0.0
 40
3.724719101123895
100
AcDbArc
 50
180.0
 51
265.6661706336243
  0
ARC
  5
CE
330
4D
100
AcDbEntity
  8
1
  6
Continuous
 62
     7
100
AcDbCircle
 10
172.0130271013944
 20
474.2002803778037
 30
0.0
 40
99.99999999999994
100
AcDbArc
 50
90.0
 51
94.33382936637454
  0
ARC
  5
CF
330
4D
100
AcDbEntity
  8
1
  6
Continuous
 62
     7
100
AcDbCircle
 10
164.737746202516
 20
570.2002803778039
 30
0.0
 40
3.724719101123398
100
AcDbArc
 50
94.33382936637585
 51
180.0
  0
ARC
  5
D0
330
4D
100
AcDbEntity
  8
1
  6
Continuous
 62
     7
100
AcDbCircle
 10
179.288308000272
 20
570.2002803778039
 30
0.0
 40
3.724719101123511
100
AcDbArc
 50
274.3338293663757
 51
0.0
  0
ARC
  5
D1
330
4D
100
AcDbEntity
  8
1
  6
Continuous
 62
     7
100
AcDbCircle
 10
167.5130271013935
 20
570.2002803778039
 30
0.0
 40
15.5
100
AcDbArc
 50
0.0
 51
90.0
  0
ARC
  5
D2
330
4D
100
AcDbEntity
  8
1
  6
Continuous
 62
     7
100
AcDbCircle
 10
167.5130271013935
 20
570.2002803778039
 30
0.0
 40
15.5
100
AcDbArc
 50
270.0
 51
0.0
  0
ARC
  5
D3
330
4D
100
AcDbEntity
  8
1
  6
Continuous
 62
     7
100
AcDbCircle
 10
122.8130271013946
 20
241.8585749954311
 30
0.0
 40
59.9999999999998
100
AcDbArc
 50
355.2420766648554
 51
0.0
  0
ARC
  5
D4
330
4D
100
AcDbEntity
  8
1
  6
Continuous
 62
     7
100
AcDbCircle
 10
171.8130271013946
 20
262.3585749954311
 30
0.0
 40
6.999999999999801
100
AcDbArc
 50
42.62285460780448
 51
90.0
  0
ARC
  5
D5
330
4D
100
AcDbEntity
  8
1
  6
Continuous
 62
     7
100
AcDbCircle
 10
122.8130271013946
 20
241.8585749954311
 30
0.0
 40
60.0
100
AcDbArc
 50
0.0
 51
23.41271948360663
  0
ARC
  5
D6
330
4D
100
AcDbEntity
  8
1
  6
Continuous
 62
     7
100
AcDbCircle
 10
220.8130271013946
 20
241.8585749954311
 30
0.0
 40
59.99999999999986
100
AcDbArc
 50
203.1688797851184
 51
203.4127194836072
  0
ARC
  5
D7
330
4D
100
AcDbEntity
  8
1
  6
Continuous
 62
     7
100
AcDbCircle
 10
171.8130271013946
 20
262.3585749954311
 30
0.0
 40
6.999999999999886
100
AcDbArc
 50
90.0
 51
137.3771453921659
  0
ARC
  5
D8
330
4D
100
AcDbEntity
  8
1
  6
Continuous
 62
     7
100
AcDbCircle
 10
220.8130271013946
 20
241.8585749954311
 30
0.0
 40
59.99999999999999
100
AcDbArc
 50
156.5872805163922
 51
171.5155502586236
  0
ARC
  5
D9
330
4D
100
AcDbEntity
  8
1
  6
Continuous
 62
     7
100
AcDbCircle
 10
171.8130271013946
 20
221.3585749954311
 30
0.0
 40
6.999999999999959
100
AcDbArc
 50
222.6228546078169
 51
270.0
  0
ARC
  5
DA
330
4D
100
AcDbEntity
  8
1
  6
Continuous
 62
     7
100
AcDbCircle
 10
122.8130271013946
 20
241.8585749954311
 30
0.0
 40
60.00000000000011
100
AcDbArc
 50
336.5872805163927
 51
345.6245513557163
  0
ARC
  5
DB
330
4D
100
AcDbEntity
  8
1
  6
Continuous
 62
     7
100
AcDbCircle
 10
171.8130271013946
 20
221.3585749954311
 30
0.0
 40
7.0
100
AcDbArc
 50
270.0
 51
317.3771453921833
  0
ARC
  5
DC
330
4D
100
AcDbEntity
  8
1
  6
Continuous
 62
     7
100
AcDbCircle
 10
167.3130271013946
 20
234.3585749954312
 30
0.0
 40
15.49999999999993
100
AcDbArc
 50
9.36885182365527
 51
90.0
  0
ARC
  5
DD
330
4D
100
AcDbEntity
  8
1
  6
Continuous
 62
     7
100
AcDbCircle
 10
167.3130271013946
 20
234.3585749954312
 30
0.0
 40
15.50000000000009
100
AcDbArc
 50
331.4977761969174
 51
0.0
  0
ARC
  5
DE
330
4D
100
AcDbEntity
  8
1
  6
Continuous
 62
     7
100
AcDbCircle
 10
167.3130271013946
 20
234.3585749954312
 30
0.0
 40
15.5
100
AcDbArc
 50
270.0
 51
331.4977761969174
  0
ARC
  5
DF
330
4D
100
AcDbEntity
  8
1
  6
Continuous
 62
     7
100
AcDbCircle
 10
167.3130271013946
 20
234.3585749954312
 30
0.0
 40
15.5
100
AcDbArc
 50
0.0
 51
9.36885182365527
  0
ARC
  5
E0
330
4D
100
AcDbEntity
  8
1
  6
PHANTOM
 62
     5
100
AcDbCircle
 10
390.6786640724438
 20
234.3585749954313
 30
0.0
 40
3.999999999999964
100
AcDbArc
 50
280.0000000000003
 51
79.99999999999972
  0
ARC
  5
E1
330
4D
100
AcDbEntity
  8
1
  6
PHANTOM
 62
     5
100
AcDbCircle
 10
343.6786640724437
 20
234.3585749954313
 30
0.0
 40
4.000000000000114
100
AcDbArc
 50
90.0
 51
270.0
  0
ARC
  5
E2
330
4D
100
AcDbEntity
  8
1
  6
Continuous
 62
     7
100
AcDbCircle
 10
374.6786640724436
 20
218.3585749954312
 30
0.0
 40
4.0
100
AcDbArc
 50
180.0
 51
0.0
  0
ARC
  5
E3
330
4D
100
AcDbEntity
  8
1
  6
Continuous
 62
     7
100
AcDbCircle
 10
374.6786640724436
 20
234.3585749954313
 30
0.0
 40
15.50000000000007
100
AcDbArc
 50
284.9552483166432
 51
75.04475168335621
  0
ARC
  5
E4
330
4D
100
AcDbEntity
  8
1
  6
Continuous
 62
     7
100
AcDbCircle
 10
374.6786640724436
 20
234.3585749954313
 30
0.0
 40
15.49999999999996
100
AcDbArc
 50
104.9552483166434
 51
255.0447516833566
  0
ARC
  5
E5
330
4D
100
AcDbEntity
  8
1
  6
Continuous
 62
     7
100
AcDbCircle
 10
374.6786640724436
 20
265.3585749954312
 30
0.0
 40
4.000000000000114
100
AcDbArc
 50
0.0
 51
180.0
  0
SPLINE
  5
E6
330
4D
100
AcDbEntity
  8
1
  6
Continuous
 62
     7
100
AcDbSpline
210
0.0
220
0.0
230
1.0
 70
     8
 71
     3
 72
    27
 73
    23
 74
    21
 42
0.000000001
 43
0.0000000001
 44
0.00000001
 40
0.0
 40
0.0
 40
0.0
 40
0.0
 40
0.3521433567560418
 40
0.7044480106676984
 40
1.400800675077347
 40
2.097184225501687
 40
2.769838294033665
 40
3.442561383172289
 40
4.077219721058813
 40
4.712002505240304
 40
5.296741623802356
 40
5.881694777238884
 40
6.408245068039245
 40
6.935160786667875
 40
7.40065698210308
 40
7.866768373608841
 40
8.276154744419207
 40
8.686465288213377
 40
9.055039980230996
 40
9.424428423782773
 40
9.7781164103796
 40
10.131804390066
 40
10.131804390066
 40
10.131804390066
 40
10.131804390066
 10
370.6786640724436
 20
218.8585749954313
 30
0.0
 10
370.6793951758418
 20
218.9759585130832
 30
0.0
 10
370.6808577222521
 20
219.2107793151433
 30
0.0
 10
370.6963033850994
 20
219.6775046561855
 30
0.0
 10
370.733672629112
 20
220.2581623863781
 30
0.0
 10
370.8079392418697
 20
220.9428448140551
 30
0.0
 10
370.9120150169102
 20
221.6156577763209
 30
0.0
 10
371.0430535453206
 20
222.2628031749146
 30
0.0
 10
371.2031694076092
 20
222.8903489148828
 30
0.0
 10
371.3868665714995
 20
223.4808233863081
 30
0.0
 10
371.5984632036356
 20
224.044211574082
 30
0.0
 10
371.8292209180378
 20
224.5608695543031
 30
0.0
 10
372.0863273030362
 20
225.0431891224877
 30
0.0
 10
372.3576012081766
 20
225.4714270671286
 30
0.0
 10
372.6531782952482
 20
225.8582184478856
 30
0.0
 10
372.9583036740784
 20
226.1860769818907
 30
0.0
 10
373.2846955565244
 20
226.4654231302468
 30
0.0
 10
373.6176248708884
 20
226.6822642346509
 30
0.0
 10
373.9663702046336
 20
226.8440980479552
 30
0.0
 10
374.3193373051556
 20
226.9380041389338
 30
0.0
 10
374.6791316539859
 20
226.9760415639721
 30
0.0
 10
374.9136267748084
 20
226.945205910683
 30
0.0
 10
375.0308743338796
 20
226.9297880790157
 30
0.0
 11
370.6786640724436
 21
218.8585749954313
 31
0.0
 11
370.682432891593
 21
219.2106981741262
 31
0.0
 11
370.6937393490409
 21
219.5628213528214
 31
0.0
 11
370.7387354273283
 21
220.2577187453314
 31
0.0
 11
370.8141115263394
 21
220.9500109473695
 31
0.0
 11
370.9171255409465
 21
221.6147301427445
 31
0.0
 11
371.0512018661813
 21
222.2739568819227
 31
0.0
 11
371.2084357890635
 21
222.8888297950567
 31
0.0
 11
371.3978348359155
 21
223.4946987446529
 31
0.0
 11
371.6039273205648
 21
224.0419150862172
 31
0.0
 11
371.8435947665971
 21
224.5755157861078
 31
0.0
 11
372.0919726656484
 21
225.039804088662
 31
0.0
 11
372.3753022726902
 21
225.4840613431313
 31
0.0
 11
372.6588409623004
 21
225.8532395105287
 31
0.0
 11
372.9777384481685
 21
226.1931868925606
 31
0.0
 11
373.289846023602
 21
226.4581134138682
 31
0.0
 11
373.6344050672523
 21
226.6808998753096
 31
0.0
 11
373.9697348758273
 21
226.8338744569068
 31
0.0
 11
374.3264538110078
 21
226.9297880790158
 31
0.0
 11
374.6786640724437
 21
226.9620855235662
 31
0.0
 11
375.0308743338796
 21
226.9297880790157
 31
0.0
  0
SPLINE
  5
E7
330
4D
100
AcDbEntity
  8
1
  6
Continuous
 62
     7
100
AcDbSpline
210
0.0
220
0.0
230
1.0
 70
     8
 71
     3
 72
    25
 73
    21
 74
    19
 42
0.000000001
 43
0.0000000001
 44
0.00000001
 40
0.0
 40
0.0
 40
0.0
 40
0.0
 40
0.3693884349421583
 40
0.7379631240430082
 40
1.148273668939898
 40
1.557660040225468
 40
2.023771432016682
 40
2.489267627625217
 40
3.016183346390875
 40
3.542733637288754
 40
4.127686790808802
 40
4.712425909433067
 40
5.347208693667098
 40
5.981867031589394
 40
6.654590120750286
 40
7.327244189277641
 40
8.023627739649676
 40
8.71998040384653
 40
9.072285057531905
 40
9.424428414581577
 40
9.424428414581577
 40
9.424428414581577
 40
9.424428414581577
 10
375.0308743338796
 20
226.9297880790157
 30
0.0
 10
375.1511716483025
 20
226.9020536666171
 30
0.0
 10
375.3915012634619
 20
226.8466459265117
 30
0.0
 10
375.7395394208048
 20
226.6814958427885
 30
0.0
 10
376.0726781521938
 20
226.4656367922262
 30
0.0
 10
376.3990103851141
 20
226.1860109164317
 30
0.0
 10
376.7041538095643
 20
225.8582370055472
 30
0.0
 10
376.9997257233477
 20
225.4714213643624
 30
0.0
 10
377.2710011859635
 20
225.0431907232844
 30
0.0
 10
377.5281071268951
 20
224.5608690726621
 30
0.0
 10
377.7588649726713
 20
224.0442117085811
 30
0.0
 10
377.9704615676966
 20
223.4808233469021
 30
0.0
 10
378.1541587422793
 20
222.8903489257602
 30
0.0
 10
378.3142746015267
 20
222.2628031717145
 30
0.0
 10
378.4453131307314
 20
221.6156577770652
 30
0.0
 10
378.549388905475
 20
220.9428448137072
 30
0.0
 10
378.6236555181747
 20
220.2581623864121
 30
0.0
 10
378.6610247620504
 20
219.6775046562992
 30
0.0
 10
378.6764704241565
 20
219.2107793152745
 30
0.0
 10
378.6779329690449
 20
218.9759585131801
 30
0.0
 10
378.6786640724436
 20
218.8585749954299
 30
0.0
 11
375.0308743338796
 21
226.9297880790157
 31
0.0
 11
375.3875932690601
 21
226.8338744569068
 31
0.0
 11
375.722923077635
 21
226.6808998753096
 31
0.0
 11
376.0674821212853
 21
226.4581134138682
 31
0.0
 11
376.3795896967188
 21
226.1931868925606
 31
0.0
 11
376.6984871825869
 21
225.8532395105288
 31
0.0
 11
376.9820258721971
 21
225.4840613431313
 31
0.0
 11
377.2653554792388
 21
225.039804088662
 31
0.0
 11
377.5137333782903
 21
224.5755157861079
 31
0.0
 11
377.7534008243226
 21
224.0419150862172
 31
0.0
 11
377.9594933089719
 21
223.494698744653
 31
0.0
 11
378.1488923558239
 21
222.8888297950568
 31
0.0
 11
378.306126278706
 21
222.2739568819227
 31
0.0
 11
378.4402026039406
 21
221.6147301427445
 31
0.0
 11
378.5432166185477
 21
220.9500109473695
 31
0.0
 11
378.6185927175588
 21
220.2577187453313
 31
0.0
 11
378.6635887958463
 21
219.5628213528213
 31
0.0
 11
378.6748952532942
 21
219.2106981741256
 31
0.0
 11
378.6786640724436
 21
218.8585749954299
 31
0.0
  0
SPLINE
  5
E8
330
4D
100
AcDbEntity
  8
1
  6
Continuous
 62
     7
100
AcDbSpline
210
0.0
220
0.0
230
1.0
 70
     8
 71
     3
 72
    27
 73
    23
 74
    21
 42
0.000000001
 43
0.0000000001
 44
0.00000001
 40
0.0
 40
0.0
 40
0.0
 40
0.0
 40
0.5635691099583596
 40
1.127238557117262
 40
2.238983738624137
 40
3.350752159096065
 40
4.416730897015721
 40
5.482762972378789
 40
6.474560141235899
 40
7.466461889392078
 40
8.358933083414877
 40
9.251594011154138
 40
10.0246215057641
 40
10.79808402885569
 40
11.43923201099744
 40
12.08113212820472
 40
12.59132663089548
 40
13.10432938414686
 40
13.50843920731083
 40
13.91674533165422
 40
14.2782550739067
 40
14.63976480459902
 40
14.63976480459902
 40
14.63976480459902
 40
14.63976480459902
 10
370.6786640724436
 20
249.8585749954289
 30
0.0
 10
370.6793939452625
 20
249.670717157097
 30
0.0
 10
370.680853818209
 20
249.2949680344226
 30
0.0
 10
370.696234338099
 20
248.5487689775969
 30
0.0
 10
370.7335414230773
 20
247.620346442616
 30
0.0
 10
370.8074742012888
 20
246.5261951560968
 30
0.0
 10
370.9113520328815
 20
245.4497934009459
 30
0.0
 10
371.0416601711223
 20
244.4165334273612
 30
0.0
 10
371.2014362072243
 20
243.4124222410492
 30
0.0
 10
371.3836963700128
 20
242.4709494539899
 30
0.0
 10
371.5947563678948
 20
241.5694394341214
 30
0.0
 10
371.8227833645592
 20
240.7474250036675
 30
0.0
 10
372.0790593176185
 20
239.9755198904241
 30
0.0
 10
372.3452956564071
 20
239.296051407064
 30
0.0
 10
372.639639773738
 20
238.6764593691946
 30
0.0
 10
372.9363957704624
 20
238.1564378747499
 30
0.0
 10
373.2621715563762
 20
237.7058419464682
 30
0.0
 10
373.5859240283233
 20
237.3550471006206
 30
0.0
 10
373.939811538711
 20
237.0847931484736
 30
0.0
 10
374.3012040615129
 20
236.9280516811559
 30
0.0
 10
374.6798015096825
 20
236.8571540931707
 30
0.0
 10
374.917209822915
 20
236.9104828916995
 30
0.0
 10
375.0359139784536
 20
236.9371472870724
 30
0.0
 11
370.6786640724436
 21
249.8585749954289
 31
0.0
 11
370.6824243110389
 21
249.2950184399318
 31
0.0
 11
370.6937050268246
 21
248.7314618844347
 31
0.0
 11
370.73859405896
 21
247.620623316722
 31
0.0
 11
370.8139226799709
 21
246.5114098027373
 31
0.0
 11
370.9165152969528
 21
245.4503794428565
 31
0.0
 11
371.0506524353697
 21
244.3928201708919
 31
0.0
 11
371.2068748356849
 21
243.4134039234794
 31
0.0
 11
371.3965930857579
 21
242.4398146551263
 31
0.0
 11
371.6006027085017
 21
241.5709735270441
 31
0.0
 11
371.8410681192915
 21
240.7113108502142
 31
0.0
 11
372.0854405602926
 21
239.9779258099331
 31
0.0
 11
372.3704601881643
 21
239.2588930665327
 31
0.0
 11
372.6466952375251
 21
238.6803043246401
 31
0.0
 11
372.9689790339908
 21
238.1251746869762
 31
0.0
 11
373.2695536627896
 21
237.7129207328073
 31
0.0
 11
373.6221518741221
 21
237.3402998455679
 31
0.0
 11
373.9469022365581
 21
237.099796309878
 31
0.0
 11
374.3214141664339
 21
236.9371472870725
 31
0.0
 11
374.6786640724438
 21
236.8818137921187
 31
0.0
 11
375.0359139784536
 21
236.9371472870724
 31
0.0
  0
SPLINE
  5
E9
330
4D
100
AcDbEntity
  8
1
  6
Continuous
 62
     7
100
AcDbSpline
210
0.0
220
0.0
230
1.0
 70
     8
 71
     3
 72
    25
 73
    21
 74
    19
 42
0.000000001
 43
0.0000000001
 44
0.00000001
 40
0.0
 40
0.0
 40
0.0
 40
0.0
 40
0.408306115338122
 40
0.8124159427216503
 40
1.325418696420755
 40
1.83561319923514
 40
2.477513316534719
 40
3.118661298731217
 40
3.892123821873891
 40
4.665151316520205
 40
5.557812244293758
 40
6.450283438342185
 40
7.442185186521495
 40
8.433982355394546
 40
9.500014430768317
 40
10.56599316868591
 40
11.677761589132
 40
12.78950677050828
 40
13.35317621738035
 40
13.9167453263575
 40
13.9167453263575
 40
13.9167453263575
 40
13.9167453263575
 10
375.0359139784536
 20
236.9371472870724
 30
0.0
 10
375.1640622123669
 20
236.9851831954073
 30
0.0
 10
375.419041663569
 20
237.0807613257651
 30
0.0
 10
375.7708737355379
 20
237.3564492893233
 30
0.0
 10
376.0953105551945
 20
237.7054349115268
 30
0.0
 10
376.4208792584816
 20
238.1565783095533
 30
0.0
 10
376.7177038401393
 20
238.676418484128
 30
0.0
 10
377.0120273902637
 20
239.2960648958647
 30
0.0
 10
377.2782702961936
 20
239.9755160173374
 30
0.0
 10
377.5345443230796
 20
240.7474262226998
 30
0.0
 10
377.762571910653
 20
241.5694390908184
 30
0.0
 10
377.9736317388611
 20
242.4709495591376
 30
0.0
 10
378.1558919518312
 20
243.412422213429
 30
0.0
 10
378.3156679737407
 20
244.4165334371538
 30
0.0
 10
378.4459761160192
 20
245.4497934000196
 30
0.0
 10
378.5498539463815
 20
246.5261951581404
 30
0.0
 10
378.6237867251341
 20
247.6203464437739
 30
0.0
 10
378.6610938091513
 20
248.5487689788183
 30
0.0
 10
378.6764743306435
 20
249.2949680351451
 30
0.0
 10
378.6779341996266
 20
249.670717157425
 30
0.0
 10
378.6786640724437
 20
249.8585749954313
 30
0.0
 11
375.0359139784536
 21
236.9371472870724
 31
0.0
 11
375.4104259083294
 21
237.0997963098778
 31
0.0
 11
375.7351762707652
 21
237.3402998455679
 31
0.0
 11
376.0877744820978
 21
237.7129207328073
 31
0.0
 11
376.3883491108966
 21
238.1251746869762
 31
0.0
 11
376.7106329073624
 21
238.6803043246402
 31
0.0
 11
376.9868679567231
 21
239.2588930665328
 31
0.0
 11
377.2718875845948
 21
239.9779258099332
 31
0.0
 11
377.516260025596
 21
240.7113108502143
 31
0.0
 11
377.7567254363858
 21
241.5709735270441
 31
0.0
 11
377.9607350591295
 21
242.4398146551263
 31
0.0
 11
378.1504533092025
 21
243.4134039234793
 31
0.0
 11
378.3066757095175
 21
244.3928201708918
 31
0.0
 11
378.4408128479344
 21
245.4503794428565
 31
0.0
 11
378.5434054649164
 21
246.5114098027373
 31
0.0
 11
378.6187340859275
 21
247.6206233167219
 31
0.0
 11
378.6636231180628
 21
248.7314618844347
 31
0.0
 11
378.6749038338485
 21
249.2950184399329
 31
0.0
 11
378.6786640724437
 21
249.8585749954313
 31
0.0
  0
ARC
  5
EA
330
4D
100
AcDbEntity
  8
1
  6
Continuous
 62
     7
100
AcDbCircle
 10
155.2130271013936
 20
585.5002803778036
 30
0.0
 40
0.2000000000001592
100
AcDbArc
 50
90.0
 51
180.0
  0
ARC
  5
EB
330
4D
100
AcDbEntity
  8
1
  6
Continuous
 62
     7
100
AcDbCircle
 10
155.2130271013936
 20
554.9002803778038
 30
0.0
 40
0.2000000000001023
100
AcDbArc
 50
180.0
 51
270.0
  0
ARC
  5
EC
330
4D
100
AcDbEntity
  8
1
  6
Continuous
 62
     7
100
AcDbCircle
 10
173.2846811629125
 20
263.7129140679006
 30
0.0
 40
4.999999999999755
100
AcDbArc
 50
23.41271948360372
 51
42.62285460780282
  0
ARC
  5
ED
330
4D
100
AcDbEntity
  8
1
  6
Continuous
 62
     7
100
AcDbCircle
 10
170.3413730398771
 20
263.7129140679015
 30
0.0
 40
4.999999999999934
100
AcDbArc
 50
137.3771453921667
 51
156.5872805163938
  0
ARC
  5
EE
330
4D
100
AcDbEntity
  8
1
  6
Continuous
 62
     7
100
AcDbCircle
 10
160.4806145854012
 20
250.8585749954312
 30
0.0
 40
1.0
100
AcDbArc
 50
270.0
 51
351.5155502586247
  0
ARC
  5
EF
330
4D
100
AcDbEntity
  8
1
  6
Continuous
 62
     7
100
AcDbCircle
 10
155.0130271013944
 20
249.658574995431
 30
0.0
 40
0.2000000000001023
100
AcDbArc
 50
89.99999999986159
 51
180.0
  0
ARC
  5
F0
330
4D
100
AcDbEntity
  8
1
  6
Continuous
 62
     7
100
AcDbCircle
 10
155.0130271013944
 20
219.0585749954311
 30
0.0
 40
0.1999999999998181
100
AcDbArc
 50
180.0
 51
270.0000000001384
  0
ARC
  5
F1
330
4D
100
AcDbEntity
  8
1
  6
Continuous
 62
     7
100
AcDbCircle
 10
173.2846811629123
 20
220.0042359229614
 30
0.0
 40
5.000000000000075
100
AcDbArc
 50
317.3771453921833
 51
336.5872805163906
  0
ARC
  5
F2
330
4D
100
AcDbEntity
  8
1
  6
Continuous
 62
     7
100
AcDbCircle
 10
170.3413730398767
 20
220.0042359229614
 30
0.0
 40
5.000000000000186
100
AcDbArc
 50
203.4127194836094
 51
222.6228546078185
  0
ARC
  5
F3
330
4D
100
AcDbEntity
  8
1
  6
Continuous
 62
     7
100
AcDbCircle
 10
164.7327275301544
 20
217.8585749954312
 30
0.0
 40
1.000000000000448
100
AcDbArc
 50
23.16887978510632
 51
90.0
  0
ENDBLK
  5
4F
330
4D
100
AcDbEntity
  8
0
100
AcDbBlockEnd
  0
BLOCK
  5
51
330
50
100
AcDbEntity
  8
0
100
AcDbBlockBegin
  2
A205-0
 70
     0
 10
577.6451467268627
 20
43.69255079006828
 30
0.0
  3
A205-0
  1

  0
LINE
  5
F4
330
50
100
AcDbEntity
  8
1
  6
Continuous
 62
     7
100
AcDbLine
 10
120.8280271013944
 20
258.3585749954313
 30
0.0
 11
146.0130271013935
 21
258.3585749954313
 31
0.0
  0
LINE
  5
F5
330
50
100
AcDbEntity
  8
1
  6
Continuous
 62
     7
100
AcDbLine
 10
120.8280271013944
 20
258.3585749954313
 30
0.0
 11
120.0130271013942
 21
258.3585749954313
 31
0.0
  0
LINE
  5
F6
330
50
100
AcDbEntity
  8
1
  6
Continuous
 62
     7
100
AcDbLine
 10
146.0130271013935
 20
258.3585749954313
 30
0.0
 11
146.0130271013943
 21
256.9469535872626
 31
0.0
  0
LINE
  5
F7
330
50
100
AcDbEntity
  8
1
  6
Continuous
 62
     7
100
AcDbLine
 10
120.0130271013942
 20
258.3585749954313
 30
0.0
 11
120.0130271013943
 21
256.9469535872626
 31
0.0
  0
LINE
  5
F8
330
50
100
AcDbEntity
  8
1
  6
Continuous
 62
     2
100
AcDbLine
 10
145.1980271013943
 20
258.3585749954313
 30
0.0
 11
146.0130271013943
 21
256.9469535872626
 31
0.0
  0
LINE
  5
F9
330
50
100
AcDbEntity
  8
1
  6
Continuous
 62
     2
100
AcDbLine
 10
120.8280271013944
 20
258.3585749954313
 30
0.0
 11
120.0130271013943
 21
256.9469535872626
 31
0.0
  0
LINE
  5
FA
330
50
100
AcDbEntity
  8
1
  6
Continuous
 62
     7
100
AcDbLine
 10
146.0130271013943
 20
256.9469535872626
 30
0.0
 11
146.0130271013935
 21
256.1085749954312
 31
0.0
  0
LINE
  5
FB
330
50
100
AcDbEntity
  8
1
  6
Continuous
 62
     7
100
AcDbLine
 10
120.0130271013943
 20
256.9469535872626
 30
0.0
 11
120.0130271013935
 21
256.1085749954312
 31
0.0
  0
LINE
  5
FC
330
50
100
AcDbEntity
  8
1
  6
Continuous
 62
     2
100
AcDbLine
 10
145.1980271013943
 20
259.8585749954313
 30
0.0
 11
145.1980271013943
 21
258.3585749954313
 31
0.0
  0
LINE
  5
FD
330
50
100
AcDbEntity
  8
1
  6
Continuous
 62
     7
100
AcDbLine
 10
146.0130271013935
 20
259.8585749954312
 30
0.0
 11
146.0130271013935
 21
258.3585749954313
 31
0.0
  0
LINE
  5
FE
330
50
100
AcDbEntity
  8
1
  6
Continuous
 62
     2
100
AcDbLine
 10
120.8280271013944
 20
259.8585749954313
 30
0.0
 11
120.8280271013944
 21
258.3585749954313
 31
0.0
  0
LINE
  5
FF
330
50
100
AcDbEntity
  8
1
  6
Continuous
 62
     7
100
AcDbLine
 10
120.0130271013944
 20
259.8585749954312
 30
0.0
 11
120.0130271013942
 21
258.3585749954313
 31
0.0
  0
LINE
  5
100
330
50
100
AcDbEntity
  8
1
  6
Continuous
 62
     7
100
AcDbLine
 10
120.0130271013942
 20
258.3585749954313
 30
0.0
 11
120.0130271013935
 21
256.1085749954312
 31
0.0
  0
LINE
  5
101
330
50
100
AcDbEntity
  8
1
  6
Continuous
 62
     7
100
AcDbLine
 10
146.0130271013935
 20
258.3585749954313
 30
0.0
 11
146.0130271013935
 21
256.1085749954312
 31
0.0
  0
LINE
  5
102
330
50
100
AcDbEntity
  8
1
  6
Continuous
 62
     7
100
AcDbLine
 10
378.6786640724437
 20
258.3585749954313
 30
0.0
 11
387.6786640724444
 21
258.3585749954313
 31
0.0
  0
LINE
  5
103
330
50
100
AcDbEntity
  8
1
  6
Continuous
 62
     7
100
AcDbLine
 10
361.6786640724444
 20
259.8585749954313
 30
0.0
 11
361.6786640724444
 21
258.3585749954313
 31
0.0
  0
LINE
  5
104
330
50
100
AcDbEntity
  8
1
  6
Continuous
 62
     2
100
AcDbLine
 10
362.4936640724444
 20
259.8585749954313
 30
0.0
 11
362.4936640724444
 21
258.3585749954313
 31
0.0
  0
LINE
  5
105
330
50
100
AcDbEntity
  8
1
  6
Continuous
 62
     7
100
AcDbLine
 10
387.6786640724444
 20
259.8585749954313
 30
0.0
 11
387.6786640724444
 21
258.3585749954313
 31
0.0
  0
LINE
  5
106
330
50
100
AcDbEntity
  8
1
  6
Continuous
 62
     2
100
AcDbLine
 10
386.8636640724443
 20
259.8585749954313
 30
0.0
 11
386.8636640724443
 21
258.3585749954313
 31
0.0
  0
LINE
  5
107
330
50
100
AcDbEntity
  8
1
  6
Continuous
 62
     7
100
AcDbLine
 10
434.1786640724444
 20
243.6785749954313
 30
0.0
 11
434.1786640724444
 21
225.0385749954312
 31
0.0
  0
LINE
  5
108
330
50
100
AcDbEntity
  8
1
  6
Continuous
 62
     7
100
AcDbLine
 10
362.0786640724443
 20
254.9085749954312
 30
0.0
 11
362.0786640724443
 21
243.3857561723003
 31
0.0
  0
LINE
  5
109
330
50
100
AcDbEntity
  8
1
  6
Continuous
 62
     7
100
AcDbLine
 10
361.6786640724444
 20
256.9469535872626
 30
0.0
 11
361.6786640724444
 21
256.1085749954313
 31
0.0
  0
LINE
  5
10A
330
50
100
AcDbEntity
  8
1
  6
Continuous
 62
     7
100
AcDbLine
 10
387.6786640724444
 20
256.9469535872626
 30
0.0
 11
387.6786640724444
 21
256.1085749954313
 31
0.0
  0
LINE
  5
10B
330
50
100
AcDbEntity
  8
1
  6
Continuous
 62
     2
100
AcDbLine
 10
362.4936640724444
 20
258.3585749954313
 30
0.0
 11
361.6786640724444
 21
256.9469535872626
 31
0.0
  0
LINE
  5
10C
330
50
100
AcDbEntity
  8
1
  6
Continuous
 62
     2
100
AcDbLine
 10
386.8636640724443
 20
258.3585749954313
 30
0.0
 11
387.6786640724444
 21
256.9469535872626
 31
0.0
  0
LINE
  5
10D
330
50
100
AcDbEntity
  8
1
  6
Continuous
 62
     7
100
AcDbLine
 10
361.6786640724444
 20
258.3585749954313
 30
0.0
 11
361.6786640724444
 21
256.9469535872626
 31
0.0
  0
LINE
  5
10E
330
50
100
AcDbEntity
  8
1
  6
Continuous
 62
     7
100
AcDbLine
 10
387.6786640724444
 20
258.3585749954313
 30
0.0
 11
387.6786640724444
 21
256.9469535872626
 31
0.0
  0
LINE
  5
10F
330
50
100
AcDbEntity
  8
1
  6
Continuous
 62
     7
100
AcDbLine
 10
362.4936640724444
 20
258.3585749954313
 30
0.0
 11
361.6786640724444
 21
258.3585749954313
 31
0.0
  0
LINE
  5
110
330
50
100
AcDbEntity
  8
1
  6
Continuous
 62
     7
100
AcDbLine
 10
362.4936640724444
 20
258.3585749954313
 30
0.0
 11
370.6786640724436
 21
258.3585749954313
 31
0.0
  0
LINE
  5
111
330
50
100
AcDbEntity
  8
1
  6
Continuous
 62
     7
100
AcDbLine
 10
418.1786640724444
 20
211.3585749954313
 30
0.0
 11
420.1786640724444
 21
211.3585749954313
 31
0.0
  0
LINE
  5
112
330
50
100
AcDbEntity
  8
1
  6
Continuous
 62
     7
100
AcDbLine
 10
418.1786640724444
 20
257.3585749954313
 30
0.0
 11
420.1786640724444
 21
257.3585749954313
 31
0.0
  0
LINE
  5
113
330
50
100
AcDbEntity
  8
1
  6
Continuous
 62
     7
100
AcDbLine
 10
417.6786640724444
 20
256.8585749954313
 30
0.0
 11
417.6786640724444
 21
247.1085749954313
 31
0.0
  0
LINE
  5
114
330
50
100
AcDbEntity
  8
1
  6
Continuous
 62
     7
100
AcDbLine
 10
420.1786640724444
 20
244.8385749954313
 30
0.0
 11
420.1786640724444
 21
257.3585749954313
 31
0.0
  0
LINE
  5
115
330
50
100
AcDbEntity
  8
1
  6
Continuous
 62
     7
100
AcDbLine
 10
420.1786640724444
 20
211.3585749954313
 30
0.0
 11
420.1786640724444
 21
223.8785749954313
 31
0.0
  0
LINE
  5
116
330
50
100
AcDbEntity
  8
1
  6
Continuous
 62
     7
100
AcDbLine
 10
417.6786640724444
 20
211.8585749954313
 30
0.0
 11
417.6786640724444
 21
221.6085749954313
 31
0.0
  0
LINE
  5
117
330
50
100
AcDbEntity
  8
1
  6
Continuous
 62
     7
100
AcDbLine
 10
434.1786640724444
 20
225.0385749954312
 30
0.0
 11
433.0186640724443
 21
223.8785749954313
 31
0.0
  0
LINE
  5
118
330
50
100
AcDbEntity
  8
1
  6
Continuous
 62
     7
100
AcDbLine
 10
433.0186640724443
 20
244.8385749954313
 30
0.0
 11
434.1786640724444
 21
243.6785749954313
 31
0.0
  0
LINE
  5
119
330
50
100
AcDbEntity
  8
1
  6
Continuous
 62
     7
100
AcDbLine
 10
433.0186640724443
 20
223.8785749954313
 30
0.0
 11
422.1878430092243
 21
223.8785749954313
 31
0.0
  0
LINE
  5
11A
330
50
100
AcDbEntity
  8
1
  6
Continuous
 62
     7
100
AcDbLine
 10
433.0186640724443
 20
244.8385749954313
 30
0.0
 11
422.1878430092243
 21
244.8385749954313
 31
0.0
  0
LINE
  5
11B
330
50
100
AcDbEntity
  8
1
  6
Continuous
 62
     7
100
AcDbLine
 10
413.6786640724444
 20
225.6085749954313
 30
0.0
 11
390.5826730010133
 21
225.6085749954313
 31
0.0
  0
LINE
  5
11C
330
50
100
AcDbEntity
  8
1
  6
Continuous
 62
     7
100
AcDbLine
 10
413.6786640724444
 20
243.1085749954313
 30
0.0
 11
400.2786640724444
 21
243.1085749954313
 31
0.0
  0
LINE
  5
11D
330
50
100
AcDbEntity
  8
1
  6
Continuous
 62
     2
100
AcDbLine
 10
422.1878430092243
 20
225.0385749954312
 30
0.0
 11
420.1786640724444
 21
223.8785749954313
 31
0.0
  0
LINE
  5
11E
330
50
100
AcDbEntity
  8
1
  6
Continuous
 62
     7
100
AcDbLine
 10
422.1878430092243
 20
223.8785749954313
 30
0.0
 11
420.1786640724444
 21
223.8785749954313
 31
0.0
  0
LINE
  5
11F
330
50
100
AcDbEntity
  8
1
  6
Continuous
 62
     7
100
AcDbLine
 10
422.1878430092243
 20
225.0385749954312
 30
0.0
 11
422.1878430092243
 21
223.8785749954313
 31
0.0
  0
LINE
  5
120
330
50
100
AcDbEntity
  8
1
  6
Continuous
 62
     2
100
AcDbLine
 10
434.1786640724444
 20
225.0385749954312
 30
0.0
 11
422.1878430092243
 21
225.0385749954312
 31
0.0
  0
LINE
  5
121
330
50
100
AcDbEntity
  8
1
  6
Continuous
 62
     2
100
AcDbLine
 10
422.1878430092243
 20
243.6785749954313
 30
0.0
 11
420.1786640724444
 21
244.8385749954313
 31
0.0
  0
LINE
  5
122
330
50
100
AcDbEntity
  8
1
  6
Continuous
 62
     7
100
AcDbLine
 10
422.1878430092243
 20
244.8385749954313
 30
0.0
 11
420.1786640724444
 21
244.8385749954313
 31
0.0
  0
LINE
  5
123
330
50
100
AcDbEntity
  8
1
  6
Continuous
 62
     7
100
AcDbLine
 10
422.1878430092243
 20
243.6785749954313
 30
0.0
 11
422.1878430092243
 21
244.8385749954313
 31
0.0
  0
LINE
  5
124
330
50
100
AcDbEntity
  8
1
  6
Continuous
 62
     2
100
AcDbLine
 10
422.1878430092243
 20
243.6785749954313
 30
0.0
 11
434.1786640724444
 21
243.6785749954313
 31
0.0
  0
LINE
  5
125
330
50
100
AcDbEntity
  8
1
  6
Continuous
 62
     7
100
AcDbLine
 10
422.1878430092243
 20
225.0385749954312
 30
0.0
 11
422.1878430092243
 21
243.6785749954313
 31
0.0
  0
LINE
  5
126
330
50
100
AcDbEntity
  8
1
  6
Continuous
 62
     7
100
AcDbLine
 10
420.1786640724444
 20
223.8785749954313
 30
0.0
 11
420.1786640724444
 21
244.8385749954313
 31
0.0
  0
LINE
  5
127
330
50
100
AcDbEntity
  8
1
  6
Continuous
 62
     7
100
AcDbLine
 10
141.0130271013934
 20
556.6971971268626
 30
0.0
 11
152.1820221931132
 21
557.4900629456104
 31
0.0
  0
LINE
  5
128
330
50
100
AcDbEntity
  8
1
  6
Continuous
 62
     7
100
AcDbLine
 10
152.1820221931132
 20
557.4900629456104
 30
0.0
 11
154.8130271013946
 21
557.6768330035791
 31
0.0
  0
LINE
  5
129
330
50
100
AcDbEntity
  8
1
  6
Continuous
 62
     7
100
AcDbLine
 10
154.8130271013946
 20
582.723727752028
 30
0.0
 11
152.9133081260102
 21
582.8585852059387
 31
0.0
  0
LINE
  5
12A
330
50
100
AcDbEntity
  8
1
  6
Continuous
 62
     7
100
AcDbLine
 10
123.5130271013941
 20
629.200280377803
 30
0.0
 11
142.5130271013941
 21
629.200280377803
 31
0.0
  0
LINE
  5
12B
330
50
100
AcDbEntity
  8
1
  6
Continuous
 62
     7
100
AcDbLine
 10
123.5130271013941
 20
629.200280377803
 30
0.0
 11
122.5130271013941
 21
628.200280377803
 31
0.0
  0
LINE
  5
12C
330
50
100
AcDbEntity
  8
1
  6
Continuous
 62
     7
100
AcDbLine
 10
122.5130271013941
 20
615.200280377803
 30
0.0
 11
122.5130271013941
 21
628.200280377803
 31
0.0
  0
LINE
  5
12D
330
50
100
AcDbEntity
  8
1
  6
Continuous
 62
     7
100
AcDbLine
 10
122.5130271013941
 20
628.200280377803
 30
0.0
 11
143.5130271013941
 21
628.200280377803
 31
0.0
  0
LINE
  5
12E
330
50
100
AcDbEntity
  8
1
  6
Continuous
 62
     7
100
AcDbLine
 10
143.5130271013941
 20
616.932331185372
 30
0.0
 11
122.5130271013941
 21
616.932331185372
 31
0.0
  0
LINE
  5
12F
330
50
100
AcDbEntity
  8
1
  6
Continuous
 62
     7
100
AcDbLine
 10
143.5130271013941
 20
628.200280377803
 30
0.0
 11
142.5130271013941
 21
629.200280377803
 31
0.0
  0
LINE
  5
130
330
50
100
AcDbEntity
  8
1
  6
Continuous
 62
     7
100
AcDbLine
 10
143.5130271013941
 20
628.200280377803
 30
0.0
 11
143.5130271013941
 21
615.200280377803
 31
0.0
  0
LINE
  5
131
330
50
100
AcDbEntity
  8
1
  6
Continuous
 62
     7
100
AcDbLine
 10
141.7630271013941
 20
594.8284631360962
 30
0.0
 11
141.7630271013941
 21
608.700280377803
 31
0.0
  0
LINE
  5
132
330
50
100
AcDbEntity
  8
1
  6
Continuous
 62
     2
100
AcDbLine
 10
142.5130271013941
 20
629.200280377803
 30
0.0
 11
142.5130271013941
 21
616.932331185372
 31
0.0
  0
LINE
  5
133
330
50
100
AcDbEntity
  8
1
  6
Continuous
 62
     2
100
AcDbLine
 10
142.5130271013941
 20
616.932331185372
 30
0.0
 11
143.5130271013941
 21
615.200280377803
 31
0.0
  0
LINE
  5
134
330
50
100
AcDbEntity
  8
1
  6
Continuous
 62
     7
100
AcDbLine
 10
156.0130271013939
 20
613.200280377803
 30
0.0
 11
156.0130271013939
 21
615.200280377803
 31
0.0
  0
LINE
  5
135
330
50
100
AcDbEntity
  8
1
  6
Continuous
 62
     7
100
AcDbLine
 10
124.2630271013941
 20
589.0665863225304
 30
0.0
 11
124.2630271013941
 21
608.700280377803
 31
0.0
  0
LINE
  5
136
330
50
100
AcDbEntity
  8
1
  6
Continuous
 62
     7
100
AcDbLine
 10
155.5130271013939
 20
612.700280377803
 30
0.0
 11
110.5130271013941
 21
612.700280377803
 31
0.0
  0
LINE
  5
137
330
50
100
AcDbEntity
  8
1
  6
Continuous
 62
     7
100
AcDbLine
 10
110.0130271013941
 20
615.200280377803
 30
0.0
 11
110.0130271013941
 21
613.200280377803
 31
0.0
  0
LINE
  5
138
330
50
100
AcDbEntity
  8
1
  6
Continuous
 62
     7
100
AcDbLine
 10
110.0130271013941
 20
615.200280377803
 30
0.0
 11
156.0130271013939
 21
615.200280377803
 31
0.0
  0
LINE
  5
139
330
50
100
AcDbEntity
  8
1
  6
Continuous
 62
     2
100
AcDbLine
 10
122.5130271013941
 20
615.200280377803
 30
0.0
 11
123.5130271013941
 21
616.932331185372
 31
0.0
  0
LINE
  5
13A
330
50
100
AcDbEntity
  8
1
  6
Continuous
 62
     2
100
AcDbLine
 10
123.5130271013941
 20
616.932331185372
 30
0.0
 11
123.5130271013941
 21
629.200280377803
 31
0.0
  0
LINE
  5
13B
330
50
100
AcDbEntity
  8
1
  6
Continuous
 62
     7
100
AcDbLine
 10
120.4130271013945
 20
254.9085749954313
 30
0.0
 11
120.4130271013945
 21
253.6001965487203
 31
0.0
  0
LINE
  5
13C
330
50
100
AcDbEntity
  8
1
  6
Continuous
 62
     7
100
AcDbLine
 10
120.0130271013944
 20
259.8585749954312
 30
0.0
 11
120.0130271013942
 21
258.3585749954313
 31
0.0
  0
LINE
  5
13D
330
50
100
AcDbEntity
  8
1
  6
Continuous
 62
     7
100
AcDbLine
 10
146.0130271013935
 20
259.8585749954312
 30
0.0
 11
146.0130271013935
 21
258.3585749954313
 31
0.0
  0
LINE
  5
13E
330
50
100
AcDbEntity
  8
1
  6
Continuous
 62
     7
100
AcDbLine
 10
152.3721436923764
 20
221.9398550607214
 30
0.0
 11
133.7810801948243
 21
220.8804410576165
 31
0.0
  0
LINE
  5
13F
330
50
100
AcDbEntity
  8
1
  6
Continuous
 62
     7
100
AcDbLine
 10
120.4130271013945
 20
253.6001965487203
 30
0.0
 11
120.4130271013945
 21
241.5272568826402
 31
0.0
  0
LINE
  5
140
330
50
100
AcDbEntity
  8
1
  6
Continuous
 62
     7
100
AcDbLine
 10
154.8130271013946
 20
222.0789490971545
 30
0.0
 11
152.3721436923764
 21
221.9398550607214
 31
0.0
  0
LINE
  5
141
330
50
100
AcDbEntity
  8
1
  6
Continuous
 62
     7
100
AcDbLine
 10
154.8130271013946
 20
246.638200893708
 30
0.0
 11
153.1578845275102
 21
246.732519393569
 31
0.0
  0
LINE
  5
142
330
50
100
AcDbEntity
  8
1
  6
Continuous
 62
     7
100
AcDbLine
 10
433.0186640724443
 20
223.8785749954313
 30
0.0
 11
433.0186640724443
 21
244.8385749954313
 31
0.0
  0
ARC
  5
143
330
50
100
AcDbEntity
  8
1
  6
Continuous
 62
     7
100
AcDbCircle
 10
118.4130271013945
 20
254.9085749954313
 30
0.0
 40
2.0
100
AcDbArc
 50
0.0
 51
36.86989764585835
  0
ARC
  5
144
330
50
100
AcDbEntity
  8
1
  6
Continuous
 62
     7
100
AcDbCircle
 10
147.6701699585371
 20
254.9888082558547
 30
0.0
 40
2.000000000010933
100
AcDbArc
 50
145.9522676295821
 51
185.8426577750618
  0
ARC
  5
145
330
50
100
AcDbEntity
  8
1
  6
Continuous
 62
     7
100
AcDbCircle
 10
390.5826730010133
 20
210.1085749954313
 30
0.0
 40
15.5
100
AcDbArc
 50
90.0
 51
102.5647403276541
  0
ARC
  5
146
330
50
100
AcDbEntity
  8
1
  6
Continuous
 62
     7
100
AcDbCircle
 10
389.3358069295872
 20
254.9888082558547
 30
0.0
 40
2.000000000010337
100
AcDbArc
 50
145.9522676295666
 51
185.8426577750618
  0
ARC
  5
147
330
50
100
AcDbEntity
  8
1
  6
Continuous
 62
     7
100
AcDbCircle
 10
360.0786640724443
 20
254.9085749954312
 30
0.0
 40
2.0
100
AcDbArc
 50
0.0
 51
36.869897645845
  0
ARC
  5
148
330
50
100
AcDbEntity
  8
1
  6
Continuous
 62
     7
100
AcDbCircle
 10
400.2786640724444
 20
256.1085749954313
 30
0.0
 40
13.00000000001227
100
AcDbArc
 50
185.8426577750614
 51
270.0
  0
ARC
  5
149
330
50
100
AcDbEntity
  8
1
  6
Continuous
 62
     7
100
AcDbCircle
 10
147.6161375172632
 20
254.9127334530414
 30
0.0
 40
1.999999999993782
100
AcDbArc
 50
143.2788714600192
 51
178.1550270729758
  0
ARC
  5
14A
330
50
100
AcDbEntity
  8
1
  6
Continuous
 62
     7
100
AcDbCircle
 10
153.6130271013943
 20
254.7195617270886
 30
0.0
 40
7.99999999999992
100
AcDbArc
 50
260.8737686967908
 51
266.7385203578574
  0
ARC
  5
14B
330
50
100
AcDbEntity
  8
1
  6
Continuous
 62
     7
100
AcDbCircle
 10
133.0130271013935
 20
234.3585749954312
 30
0.0
 40
13.49999999999893
100
AcDbArc
 50
165.6883565795085
 51
273.2614796421484
  0
ARC
  5
14C
330
50
100
AcDbEntity
  8
1
  6
Continuous
 62
     7
100
AcDbCircle
 10
118.4130271013945
 20
254.9085749954313
 30
0.0
 40
2.0
100
AcDbArc
 50
0.0
 51
36.86989764585835
  0
ARC
  5
14D
330
50
100
AcDbEntity
  8
1
  6
Continuous
 62
     7
100
AcDbCircle
 10
104.9130271013945
 20
241.5272568826402
 30
0.0
 40
15.50000000000006
100
AcDbArc
 50
345.6883565795109
 51
0.0
  0
ARC
  5
14E
330
50
100
AcDbEntity
  8
1
  6
Continuous
 62
     7
100
AcDbCircle
 10
133.0130271013935
 20
234.3585749954312
 30
0.0
 40
22.99999999999944
100
AcDbArc
 50
123.2180009059085
 51
327.3201497509074
  0
ARC
  5
14F
330
50
100
AcDbEntity
  8
1
  6
Continuous
 62
     7
100
AcDbCircle
 10
133.0130271013935
 20
234.3585749954312
 30
0.0
 40
23.00000000000094
100
AcDbArc
 50
32.80879508619478
 51
56.52255421993487
  0
ARC
  5
150
330
50
100
AcDbEntity
  8
1
  6
Continuous
 62
     7
100
AcDbCircle
 10
153.6130271013943
 20
254.7195617270886
 30
0.0
 40
7.99999999999956
100
AcDbArc
 50
188.4575806093447
 51
260.8737686967908
  0
ARC
  5
151
330
50
100
AcDbEntity
  8
1
  6
Continuous
 62
     7
100
AcDbCircle
 10
153.6130271013943
 20
254.7195617270886
 30
0.0
 40
8.00000000000293
100
AcDbArc
 50
178.1550270729735
 51
188.4575806093447
  0
ARC
  5
152
330
50
100
AcDbEntity
  8
1
  6
Continuous
 62
     7
100
AcDbCircle
 10
413.6786640724444
 20
247.1085749954313
 30
0.0
 40
4.0
100
AcDbArc
 50
270.0
 51
0.0
  0
ARC
  5
153
330
50
100
AcDbEntity
  8
1
  6
Continuous
 62
     7
100
AcDbCircle
 10
413.6786640724444
 20
221.6085749954313
 30
0.0
 40
4.0
100
AcDbArc
 50
0.0
 51
90.0
  0
ARC
  5
154
330
50
100
AcDbEntity
  8
1
  6
Continuous
 62
     7
100
AcDbCircle
 10
418.1786640724444
 20
211.8585749954313
 30
0.0
 40
0.5
100
AcDbArc
 50
180.0
 51
270.0
  0
ARC
  5
155
330
50
100
AcDbEntity
  8
1
  6
Continuous
 62
     7
100
AcDbCircle
 10
418.1786640724444
 20
256.8585749954313
 30
0.0
 40
0.5
100
AcDbArc
 50
90.0
 51
180.0
  0
ARC
  5
156
330
50
100
AcDbEntity
  8
1
  6
Continuous
 62
     7
100
AcDbCircle
 10
153.7630271013939
 20
594.8284631360962
 30
0.0
 40
11.9999999999998
100
AcDbArc
 50
180.0
 51
265.9394926513531
  0
ARC
  5
157
330
50
100
AcDbEntity
  8
1
  6
Continuous
 62
     7
100
AcDbCircle
 10
94.26302710139407
 20
589.0665863225304
 30
0.0
 40
29.99999999999989
100
AcDbArc
 50
344.8973630808141
 51
0.0
  0
ARC
  5
158
330
50
100
AcDbEntity
  8
1
  6
Continuous
 62
     7
100
AcDbCircle
 10
110.5130271013941
 20
613.200280377803
 30
0.0
 40
0.5
100
AcDbArc
 50
180.0
 51
270.0
  0
ARC
  5
159
330
50
100
AcDbEntity
  8
1
  6
Continuous
 62
     7
100
AcDbCircle
 10
155.5130271013939
 20
613.200280377803
 30
0.0
 40
0.5
100
AcDbArc
 50
270.0
 51
0.0
  0
ARC
  5
15A
330
50
100
AcDbEntity
  8
1
  6
Continuous
 62
     7
100
AcDbCircle
 10
145.7630271013939
 20
608.700280377803
 30
0.0
 40
4.0
100
AcDbArc
 50
90.0
 51
180.0
  0
ARC
  5
15B
330
50
100
AcDbEntity
  8
1
  6
Continuous
 62
     7
100
AcDbCircle
 10
120.2630271013941
 20
608.700280377803
 30
0.0
 40
4.0
100
AcDbArc
 50
0.0
 51
90.0
  0
ENDBLK
  5
52
330
50
100
AcDbEntity
  8
0
100
AcDbBlockEnd
  0
BLOCK
  5
54
330
53
100
AcDbEntity
  8
0
100
AcDbBlockBegin
  2
開示A4
 70
     0
 10
0.0
 20
0.0
 30
0.0
  3
開示A4
  1

  0
POINT
  5
15C
330
53
100
AcDbEntity
  8
1
 62
     4
100
AcDbPoint
 10
93.75
 20
17.0
 30
0.0
  0
POINT
  5
15D
330
53
100
AcDbEntity
  8
1
 62
     4
100
AcDbPoint
 10
85.25
 20
17.0
 30
0.0
  0
POINT
  5
15E
330
53
100
AcDbEntity
  8
1
 62
     4
100
AcDbPoint
 10
106.5
 20
19.00000000000001
 30
0.0
  0
POINT
  5
15F
330
53
100
AcDbEntity
  8
1
 62
     4
100
AcDbPoint
 10
106.5
 20
12.5
 30
0.0
  0
POINT
  5
160
330
53
100
AcDbEntity
  8
1
 62
     4
100
AcDbPoint
 10
112.25
 20
12.5
 30
0.0
  0
POINT
  5
161
330
53
100
AcDbEntity
  8
1
 62
     4
100
AcDbPoint
 10
100.75
 20
12.5
 30
0.0
  0
POINT
  5
162
330
53
100
AcDbEntity
  8
1
 62
     4
100
AcDbPoint
 10
123.5
 20
19.00000000000001
 30
0.0
  0
POINT
  5
163
330
53
100
AcDbEntity
  8
1
 62
     4
100
AcDbPoint
 10
123.5
 20
12.5
 30
0.0
  0
POINT
  5
164
330
53
100
AcDbEntity
  8
1
 62
     4
100
AcDbPoint
 10
129.25
 20
12.5
 30
0.0
  0
POINT
  5
165
330
53
100
AcDbEntity
  8
1
 62
     4
100
AcDbPoint
 10
117.75
 20
12.5
 30
0.0
  0
POINT
  5
166
330
53
100
AcDbEntity
  8
1
 62
     4
100
AcDbPoint
 10
140.5
 20
19.00000000000001
 30
0.0
  0
POINT
  5
167
330
53
100
AcDbEntity
  8
1
 62
     4
100
AcDbPoint
 10
140.5
 20
12.5
 30
0.0
  0
POINT
  5
168
330
53
100
AcDbEntity
  8
1
 62
     4
100
AcDbPoint
 10
146.25
 20
12.5
 30
0.0
  0
POINT
  5
169
330
53
100
AcDbEntity
  8
1
 62
     4
100
AcDbPoint
 10
134.75
 20
12.5
 30
0.0
  0
POINT
  5
16A
330
53
100
AcDbEntity
  8
1
 62
     4
100
AcDbPoint
 10
151.75
 20
12.5
 30
0.0
  0
POINT
  5
16B
330
53
100
AcDbEntity
  8
1
 62
     4
100
AcDbPoint
 10
163.25
 20
12.5
 30
0.0
  0
POINT
  5
16C
330
53
100
AcDbEntity
  8
1
 62
     4
100
AcDbPoint
 10
157.5
 20
12.5
 30
0.0
  0
POINT
  5
16D
330
53
100
AcDbEntity
  8
1
 62
     4
100
AcDbPoint
 10
57.0
 20
14.25
 30
0.0
  0
POINT
  5
16E
330
53
100
AcDbEntity
  8
1
 62
     4
100
AcDbPoint
 10
57.0
 20
22.75000000000001
 30
0.0
  0
POINT
  5
16F
330
53
100
AcDbEntity
  8
1
 62
     4
100
AcDbPoint
 10
47.5
 20
282.0000000000003
 30
0.0
  0
POINT
  5
170
330
53
100
AcDbEntity
  8
1
 62
     4
100
AcDbPoint
 10
157.5
 20
19.00000000000001
 30
0.0
  0
POINT
  5
171
330
53
100
AcDbEntity
  8
1
 62
     4
100
AcDbPoint
 10
57.0
 20
16.25
 30
0.0
  0
POINT
  5
172
330
53
100
AcDbEntity
  8
1
 62
     4
100
AcDbPoint
 10
57.0
 20
24.75000000000001
 30
0.0
  0
POINT
  5
173
330
53
100
AcDbEntity
  8
1
 62
     4
100
AcDbPoint
 10
57.0
 20
20.75000000000001
 30
0.0
  0
POINT
  5
174
330
53
100
AcDbEntity
  8
1
 62
     4
100
AcDbPoint
 10
57.0
 20
12.25
 30
0.0
  0
POINT
  5
175
330
53
100
AcDbEntity
  8
1
 62
     4
100
AcDbPoint
 10
34.0
 20
34.00000000000001
 30
0.0
  0
LINE
  5
176
330
53
100
AcDbEntity
  8
1
  6
Continuous
 62
     7
100
AcDbLine
 10
105.0
 20
10.0
 30
0.0
 11
200.0
 21
10.0
 31
0.0
  0
LINE
  5
177
330
53
100
AcDbEntity
  8
1
  6
Continuous
 62
     2
100
AcDbLine
 10
105.0
 20
10.0
 30
0.0
 11
105.0
 21
5.0
 31
0.0
  0
LINE
  5
178
330
53
100
AcDbEntity
  8
1
  6
Continuous
 62
     7
100
AcDbLine
 10
200.0
 20
148.5
 30
0.0
 11
200.0
 21
287.0000000000003
 31
0.0
  0
LINE
  5
179
330
53
100
AcDbEntity
  8
1
  6
Continuous
 62
     2
100
AcDbLine
 10
200.0
 20
148.5
 30
0.0
 11
205.0
 21
148.5
 31
0.0
  0
LINE
  5
17A
330
53
100
AcDbEntity
  8
1
  6
Continuous
 62
     7
100
AcDbLine
 10
25.0
 20
148.5
 30
0.0
 11
25.0
 21
287.0000000000003
 31
0.0
  0
LINE
  5
17B
330
53
100
AcDbEntity
  8
1
  6
Continuous
 62
     2
100
AcDbLine
 10
25.0
 20
148.5
 30
0.0
 11
20.0
 21
148.5
 31
0.0
  0
LINE
  5
17C
330
53
100
AcDbEntity
  8
1
  6
Continuous
 62
     7
100
AcDbLine
 10
105.0
 20
287.0000000000003
 30
0.0
 11
25.0
 21
287.0000000000003
 31
0.0
  0
LINE
  5
17D
330
53
100
AcDbEntity
  8
1
  6
Continuous
 62
     2
100
AcDbLine
 10
105.0
 20
287.0000000000003
 30
0.0
 11
105.0
 21
292.0000000000003
 31
0.0
  0
LINE
  5
17E
330
53
100
AcDbEntity
  8
1
  6
Continuous
 62
     2
100
AcDbLine
 10
166.0
 20
20.00000000000001
 30
0.0
 11
200.0
 21
20.00000000000001
 31
0.0
  0
LINE
  5
17F
330
53
100
AcDbEntity
  8
1
  6
Continuous
 62
     2
100
AcDbLine
 10
98.0
 20
27.00000000000001
 30
0.0
 11
98.0
 21
9.99999999999999
 31
0.0
  0
LINE
  5
180
330
53
100
AcDbEntity
  8
1
  6
Continuous
 62
     2
100
AcDbLine
 10
115.0
 20
27.00000000000001
 30
0.0
 11
115.0
 21
9.99999999999999
 31
0.0
  0
LINE
  5
181
330
53
100
AcDbEntity
  8
1
  6
Continuous
 62
     2
100
AcDbLine
 10
149.0
 20
27.00000000000001
 30
0.0
 11
149.0
 21
10.0
 31
0.0
  0
LINE
  5
182
330
53
100
AcDbEntity
  8
1
  6
Continuous
 62
     2
100
AcDbLine
 10
132.0
 20
27.00000000000001
 30
0.0
 11
132.0
 21
9.99999999999999
 31
0.0
  0
LINE
  5
183
330
53
100
AcDbEntity
  8
1
  6
Continuous
 62
     2
100
AcDbLine
 10
166.0
 20
27.00000000000001
 30
0.0
 11
166.0
 21
10.0
 31
0.0
  0
LINE
  5
184
330
53
100
AcDbEntity
  8
1
  6
Continuous
 62
     2
100
AcDbLine
 10
55.0
 20
277.0000000000003
 30
0.0
 11
25.0
 21
277.0000000000003
 31
0.0
  0
LINE
  5
185
330
53
100
AcDbEntity
  8
1
  6
Continuous
 62
     7
100
AcDbLine
 10
25.0
 20
10.0
 30
0.0
 11
25.0
 21
148.5
 31
0.0
  0
LINE
  5
186
330
53
100
AcDbEntity
  8
1
  6
Continuous
 62
     2
100
AcDbLine
 10
40.0
 20
287.0000000000003
 30
0.0
 11
40.0
 21
277.0000000000003
 31
0.0
  0
LINE
  5
187
330
53
100
AcDbEntity
  8
1
  6
Continuous
 62
     2
100
AcDbLine
 10
55.0
 20
287.0000000000003
 30
0.0
 11
55.0
 21
277.0000000000003
 31
0.0
  0
LINE
  5
188
330
53
100
AcDbEntity
  8
1
  6
Continuous
 62
     2
100
AcDbLine
 10
33.0
 20
41.00000000000001
 30
0.0
 11
33.0
 21
27.0
 31
0.0
  0
LINE
  5
189
330
53
100
AcDbEntity
  8
1
  6
Continuous
 62
     7
100
AcDbLine
 10
200.0
 20
27.00000000000001
 30
0.0
 11
25.0
 21
27.00000000000001
 31
0.0
  0
LINE
  5
18A
330
53
100
AcDbEntity
  8
1
  6
Continuous
 62
     7
100
AcDbLine
 10
25.0
 20
41.0
 30
0.0
 11
200.0
 21
41.0
 31
0.0
  0
LINE
  5
18B
330
53
100
AcDbEntity
  8
1
  6
PHANTOM
 62
     4
100
AcDbLine
 10
0.0
 20
0.0
 30
0.0
 11
210.0
 21
0.0
 31
0.0
  0
LINE
  5
18C
330
53
100
AcDbEntity
  8
1
  6
PHANTOM
 62
     4
100
AcDbLine
 10
210.0
 20
0.0
 30
0.0
 11
210.0
 21
297.0
 31
0.0
  0
LINE
  5
18D
330
53
100
AcDbEntity
  8
1
  6
PHANTOM
 62
     4
100
AcDbLine
 10
210.0
 20
297.0
 30
0.0
 11
0.0
 21
297.0
 31
0.0
  0
LINE
  5
18E
330
53
100
AcDbEntity
  8
1
  6
PHANTOM
 62
     4
100
AcDbLine
 10
0.0
 20
297.0
 30
0.0
 11
0.0
 21
0.0
 31
0.0
  0
LINE
  5
18F
330
53
100
AcDbEntity
  8
1
  6
Continuous
 62
     7
100
AcDbLine
 10
25.0
 20
10.0
 30
0.0
 11
105.0
 21
10.0
 31
0.0
  0
LINE
  5
190
330
53
100
AcDbEntity
  8
1
  6
Continuous
 62
     7
100
AcDbLine
 10
200.0
 20
10.0
 30
0.0
 11
200.0
 21
148.5
 31
0.0
  0
LINE
  5
191
330
53
100
AcDbEntity
  8
1
  6
Continuous
 62
     7
100
AcDbLine
 10
200.0
 20
287.0000000000003
 30
0.0
 11
105.0
 21
287.0000000000003
 31
0.0
  0
LINE
  5
192
330
53
100
AcDbEntity
  8
1
  6
Continuous
 62
     2
100
AcDbLine
 10
25.0
 20
18.50000000000001
 30
0.0
 11
81.0
 21
18.50000000000001
 31
0.0
  0
LINE
  5
193
330
53
100
AcDbEntity
  8
1
  6
Continuous
 62
     2
100
AcDbLine
 10
33.0
 20
27.0
 30
0.0
 11
33.0
 21
10.0
 31
0.0
  0
LINE
  5
194
330
53
100
AcDbEntity
  8
1
  6
Continuous
 62
     7
100
AcDbLine
 10
191.0
 20
24.70000000000001
 30
0.0
 11
191.0
 21
22.30000000000001
 31
0.0
  0
LINE
  5
195
330
53
100
AcDbEntity
  8
1
  6
Continuous
 62
     7
100
AcDbLine
 10
191.0
 20
24.70000000000001
 30
0.0
 11
196.0
 21
25.50000000000001
 31
0.0
  0
LINE
  5
196
330
53
100
AcDbEntity
  8
1
  6
Continuous
 62
     7
100
AcDbLine
 10
196.0
 20
25.50000000000001
 30
0.0
 11
196.0
 21
21.50000000000001
 31
0.0
  0
LINE
  5
197
330
53
100
AcDbEntity
  8
1
  6
Continuous
 62
     7
100
AcDbLine
 10
196.0
 20
21.50000000000001
 30
0.0
 11
191.0
 21
22.30000000000001
 31
0.0
  0
LINE
  5
198
330
53
100
AcDbEntity
  8
1
  6
DOT_CENTER
 62
     2
100
AcDbLine
 10
184.0
 20
23.50000000000001
 30
0.0
 11
197.0
 21
23.50000000000001
 31
0.0
  0
LINE
  5
199
330
53
100
AcDbEntity
  8
1
  6
DOT_CENTER
 62
     2
100
AcDbLine
 10
187.0
 20
26.50000000000001
 30
0.0
 11
187.0
 21
20.50000000000001
 31
0.0
  0
LINE
  5
19A
330
53
100
AcDbEntity
  8
1
  6
Continuous
 62
     2
100
AcDbLine
 10
81.0
 20
27.00000000000001
 30
0.0
 11
81.0
 21
10.0
 31
0.0
  0
CIRCLE
  5
19B
330
53
100
AcDbEntity
  8
1
  6
Continuous
 62
     7
100
AcDbCircle
 10
103.5
 20
12.5
 30
0.0
 40
0.2999999999999972
  0
CIRCLE
  5
19C
330
53
100
AcDbEntity
  8
1
  6
Continuous
 62
     7
100
AcDbCircle
 10
109.5
 20
12.5
 30
0.0
 40
0.2999999999999972
  0
CIRCLE
  5
19D
330
53
100
AcDbEntity
  8
1
  6
Continuous
 62
     7
100
AcDbCircle
 10
120.5
 20
12.5
 30
0.0
 40
0.2999999999999972
  0
CIRCLE
  5
19E
330
53
100
AcDbEntity
  8
1
  6
Continuous
 62
     7
100
AcDbCircle
 10
126.5
 20
12.5
 30
0.0
 40
0.2999999999999972
  0
CIRCLE
  5
19F
330
53
100
AcDbEntity
  8
1
  6
Continuous
 62
     7
100
AcDbCircle
 10
137.5
 20
12.5
 30
0.0
 40
0.3000000000000114
  0
CIRCLE
  5
1A0
330
53
100
AcDbEntity
  8
1
  6
Continuous
 62
     7
100
AcDbCircle
 10
143.5
 20
12.5
 30
0.0
 40
0.3000000000000114
  0
CIRCLE
  5
1A1
330
53
100
AcDbEntity
  8
1
  6
Continuous
 62
     7
100
AcDbCircle
 10
160.5
 20
12.5
 30
0.0
 40
0.3000000000000114
  0
CIRCLE
  5
1A2
330
53
100
AcDbEntity
  8
1
  6
Continuous
 62
     7
100
AcDbCircle
 10
154.5
 20
12.5
 30
0.0
 40
0.3000000000000114
  0
CIRCLE
  5
1A3
330
53
100
AcDbEntity
  8
1
  6
Continuous
 62
     7
100
AcDbCircle
 10
187.0
 20
23.50000000000001
 30
0.0
 40
1.200000000000102
  0
CIRCLE
  5
1A4
330
53
100
AcDbEntity
  8
1
  6
Continuous
 62
     7
100
AcDbCircle
 10
187.0
 20
23.50000000000001
 30
0.0
 40
2.0
  0
CIRCLE
  5
1A5
330
53
100
AcDbEntity
  8
1
  6
DOT_CENTER
 62
     7
100
AcDbCircle
 10
89.5
 20
16.0
 30
0.0
 40
0.1000000000000227
  0
CIRCLE
  5
1A6
330
53
100
AcDbEntity
  8
1
  6
DOT_CENTER
 62
     7
100
AcDbCircle
 10
89.5
 20
18.0
 30
0.0
 40
0.1000000000000227
  0
MTEXT
  5
1A8
330
53
100
AcDbEntity
  8
1
 62
     7
100
AcDbMText
 10
188.5
 20
15.0
 30
0.0
 40
3.0
 41
0.0
 71
     5
 72
     1
  1
三栄水栓製作所
  7
CONVERTER_11
 73
     1
 44
1.0
  0
MTEXT
  5
1A9
330
53
100
AcDbEntity
  8
1
 62
     7
100
AcDbMText
 10
171.5
 20
15.0
 30
0.0
 40
2.5
 41
0.0
 71
     5
 72
     1
  1
株式会社
  7
CONVERTER_11
 73
     1
 44
1.0
  0
MTEXT
  5
1AA
330
53
100
AcDbEntity
  8
1
 62
     2
100
AcDbMText
 10
32.5
 20
282.0000000000003
 30
0.0
 40
5.0
 41
0.0
 71
     5
 72
     1
  1
図番
  7
CONVERTER_11
 73
     1
 44
0.45454545454545
  0
MTEXT
  5
1AB
330
53
100
AcDbEntity
  8
1
 62
     2
100
AcDbMText
 10
29.0
 20
34.00000000000001
 30
0.0
 40
3.5
 41
0.0
 71
     5
 72
     1
  1
備考
  7
CONVERTER_11
 73
     1
 44
0.45454545454545
  0
MTEXT
  5
1AC
330
53
100
AcDbEntity
  8
1
 62
     2
100
AcDbMText
 10
29.0
 20
22.75
 30
0.0
 40
3.5
 41
0.0
 71
     5
 72
     1
  1
品名
  7
CONVERTER_11
 73
     1
 44
0.72727272727273
  0
MTEXT
  5
1AD
330
53
100
AcDbEntity
  8
1
 62
     2
100
AcDbMText
 10
29.0
 20
14.25
 30
0.0
 40
3.5
 41
0.0
 71
     5
 72
     1
  1
品番
  7
CONVERTER_11
 73
     1
 44
0.72727272727273
  0
MTEXT
  5
1AE
330
53
100
AcDbEntity
  8
1
 62
     2
100
AcDbMText
 10
101.5
 20
25.00000000000001
 30
0.0
 40
3.0
 41
0.0
 71
     5
 72
     1
  1
承認
  7
CONVERTER_11
 73
     1
 44
0.59090909090909
  0
MTEXT
  5
1AF
330
53
100
AcDbEntity
  8
1
 62
     2
100
AcDbMText
 10
175.0
 20
23.50000000000001
 30
0.0
 40
3.5
 41
0.0
 71
     5
 72
     1
  1
第三角法
  7
CONVERTER_11
 73
     1
 44
0.54545454545455
  0
MTEXT
  5
1B0
330
53
100
AcDbEntity
  8
1
 62
     2
100
AcDbMText
 10
118.5
 20
25.00000000000001
 30
0.0
 40
3.0
 41
0.0
 71
     5
 72
     1
  1
検図
  7
CONVERTER_11
 73
     1
 44
0.59090909090909
  0
MTEXT
  5
1B1
330
53
100
AcDbEntity
  8
1
 62
     2
100
AcDbMText
 10
152.5
 20
25.00000000000001
 30
0.0
 40
3.0
 41
0.0
 71
     5
 72
     1
  1
設計
  7
CONVERTER_11
 73
     1
 44
0.59090909090909
  0
MTEXT
  5
1B2
330
53
100
AcDbEntity
  8
1
 62
     2
100
AcDbMText
 10
135.5
 20
25.00000000000001
 30
0.0
 40
3.0
 41
0.0
 71
     5
 72
     1
  1
製図
  7
CONVERTER_11
 73
     1
 44
0.59090909090909
  0
MTEXT
  5
1B3
330
53
100
AcDbEntity
  8
1
 62
     2
100
AcDbMText
 10
89.5
 20
24.00000000000001
 30
0.0
 40
3.5
 41
0.0
 71
     5
 72
     1
  1
尺度
  7
CONVERTER_11
 73
     1
 44
0.54545454545455
  0
MTEXT
  5
1B4
330
53
100
AcDbEntity
  8
1
 62
   250
100
AcDbMText
 10
25.0
 20
5.0
 30
0.0
 40
3.5
 41
0.0
 71
     4
 72
     1
  1
備考欄の文字列 原点位置=4
  7
CONVERTER_11
 73
     1
 44
0.54545454545455
  0
ENDBLK
  5
55
330
53
100
AcDbEntity
  8
0
100
AcDbBlockEnd
  0
BLOCK
  5
1DC
330
1D5
100
AcDbEntity
  8
0
100
AcDbBlockBegin
  2
*D6
 70
     1
 10
0.0
 20
0.0
 30
0.0
  3
*D6
  1

  0
LINE
  5
1D6
330
1D5
100
AcDbEntity
  8
0
  6
Continuous
 62
     2
100
AcDbLine
 10
241.1786640724436
 20
269.3585749954316
 30
0.0
 11
241.1786640724436
 21
234.3585749954311
 31
0.0
  0
LINE
  5
1D7
330
1D5
100
AcDbEntity
  8
0
  6
Continuous
 62
     2
100
AcDbLine
 10
212.0650710784298
 20
269.3585749954316
 30
0.0
 11
243.6786640724436
 21
269.3585749954316
 31
0.0
  0
LINE
  5
1D8
330
1D5
100
AcDbEntity
  8
0
  6
Continuous
 62
     2
100
AcDbLine
 10
336.6808405230724
 20
234.3585749954311
 30
0.0
 11
238.6786640724436
 21
234.3585749954311
 31
0.0
  0
SOLID
  5
1D9
330
1D5
100
AcDbEntity
  8
0
 62
     2
100
AcDbTrace
 10
242.3306234263333
 20
260.6085749954316
 30
0.0
 11
240.0267047185539
 21
260.6085749954316
 31
0.0
 12
241.1786640724436
 22
269.3585749954316
 32
0.0
 13
241.1786640724436
 23
269.3585749954316
 33
0.0
  0
SOLID
  5
1DA
330
1D5
100
AcDbEntity
  8
0
 62
     2
100
AcDbTrace
 10
240.0267047185539
 20
243.1085749954311
 30
0.0
 11
242.3306234263333
 21
243.1085749954311
 31
0.0
 12
241.1786640724436
 22
234.3585749954311
 32
0.0
 13
241.1786640724436
 23
234.3585749954311
 33
0.0
  0
MTEXT
  5
1DB
330
1D5
100
AcDbEntity
  8
0
 62
     7
100
AcDbMText
 10
238.6786640724436
 20
243.6519673549803
 30
0.0
 40
8.75
 41
0.0
 71
     7
 72
     1
  1
35
  7
CONVERTER_12
 11
0.0
 21
1.0
 31
0.0
 73
     1
 44
0.60024009603842
  0
ENDBLK
  5
1DD
330
1D5
100
AcDbEntity
  8
0
100
AcDbBlockEnd
  0
BLOCK
  5
1E7
330
1E0
100
AcDbEntity
  8
0
100
AcDbBlockBegin
  2
*D7
 70
     1
 10
0.0
 20
0.0
 30
0.0
  3
*D7
  1

  0
LINE
  5
1E1
330
1E0
100
AcDbEntity
  8
1
  6
Continuous
 62
     2
100
AcDbLine
 10
132.9876097538611
 20
186.3585749954313
 30
0.0
 11
182.8130271013946
 21
186.3585749954313
 31
0.0
  0
LINE
  5
1E2
330
1E0
100
AcDbEntity
  8
1
  6
Continuous
 62
     2
100
AcDbLine
 10
182.8130271013946
 20
234.3585749954312
 30
0.0
 11
182.8130271013946
 21
183.8585749954313
 31
0.0
  0
LINE
  5
1E3
330
1E0
100
AcDbEntity
  8
1
  6
Continuous
 62
     2
100
AcDbLine
 10
132.9876097538611
 20
206.362538297695
 30
0.0
 11
132.9876097538611
 21
183.8585749954313
 31
0.0
  0
SOLID
  5
1E4
330
1E0
100
AcDbEntity
  8
1
 62
     2
100
AcDbTrace
 10
141.7376097538611
 20
187.510534349321
 30
0.0
 11
141.7376097538611
 21
185.2066156415416
 31
0.0
 12
132.9876097538611
 22
186.3585749954313
 32
0.0
 13
132.9876097538611
 23
186.3585749954313
 33
0.0
  0
SOLID
  5
1E5
330
1E0
100
AcDbEntity
  8
1
 62
     2
100
AcDbTrace
 10
174.0630271013946
 20
185.2066156415416
 30
0.0
 11
174.0630271013946
 21
187.510534349321
 31
0.0
 12
182.8130271013946
 22
186.3585749954313
 32
0.0
 13
182.8130271013946
 23
186.3585749954313
 33
0.0
  0
MTEXT
  5
1E6
330
1E0
100
AcDbEntity
  8
1
 62
     7
100
AcDbMText
 10
151.3378184276278
 20
188.8585749954313
 30
0.0
 40
8.75
 41
0.0
 71
     7
 72
     1
  1
50
  7
CONVERTER_12
 11
0.9999999999970619
 21
2.424068405545306E-6
 31
0.0
 73
     1
 44
0.60024009603842
  0
ENDBLK
  5
1E8
330
1E0
100
AcDbEntity
  8
0
100
AcDbBlockEnd
  0
BLOCK
  5
1F2
330
1EB
100
AcDbEntity
  8
0
100
AcDbBlockBegin
  2
*D8
 70
     1
 10
0.0
 20
0.0
 30
0.0
  3
*D8
  1

  0
LINE
  5
1EC
330
1EB
100
AcDbEntity
  8
0
  6
Continuous
 62
     2
100
AcDbLine
 10
266.1786640724437
 20
234.358574995431
 30
0.0
 11
266.1786640724437
 21
310.3585749954316
 31
0.0
  0
LINE
  5
1ED
330
1EB
100
AcDbEntity
  8
0
  6
Continuous
 62
     2
100
AcDbLine
 10
336.6808405230724
 20
234.358574995431
 30
0.0
 11
263.6786640724437
 21
234.358574995431
 31
0.0
  0
LINE
  5
1EE
330
1EB
100
AcDbEntity
  8
0
  6
Continuous
 62
     2
100
AcDbLine
 10
231.6786640724437
 20
310.3585749954316
 30
0.0
 11
268.6786640724437
 21
310.3585749954316
 31
0.0
  0
SOLID
  5
1EF
330
1EB
100
AcDbEntity
  8
0
 62
     2
100
AcDbTrace
 10
265.026704718554
 20
243.108574995431
 30
0.0
 11
267.3306234263334
 21
243.108574995431
 31
0.0
 12
266.1786640724437
 22
234.358574995431
 32
0.0
 13
266.1786640724437
 23
234.358574995431
 33
0.0
  0
SOLID
  5
1F0
330
1EB
100
AcDbEntity
  8
0
 62
     2
100
AcDbTrace
 10
267.3306234263334
 20
301.6085749954316
 30
0.0
 11
265.026704718554
 21
301.6085749954316
 31
0.0
 12
266.1786640724437
 22
310.3585749954316
 32
0.0
 13
266.1786640724437
 23
310.3585749954316
 33
0.0
  0
MTEXT
  5
1F1
330
1EB
100
AcDbEntity
  8
0
 62
     7
100
AcDbMText
 10
263.6786640724437
 20
261.7960749954314
 30
0.0
 40
8.75
 41
0.0
 71
     7
 72
     1
  1
76
  7
CONVERTER_12
 11
0.0
 21
1.0
 31
0.0
 73
     1
 44
0.60024009603842
  0
ENDBLK
  5
1F3
330
1EB
100
AcDbEntity
  8
0
100
AcDbBlockEnd
  0
BLOCK
  5
1FD
330
1F6
100
AcDbEntity
  8
0
100
AcDbBlockBegin
  2
*D9
 70
     1
 10
0.0
 20
0.0
 30
0.0
  3
*D9
  1

  0
LINE
  5
1F7
330
1F6
100
AcDbEntity
  8
0
  6
Continuous
 62
     2
100
AcDbLine
 10
449.656861965249
 20
186.3585890398166
 30
0.0
 11
434.1786640724444
 21
186.3585890398166
 31
0.0
  0
LINE
  5
1F8
330
1F6
100
AcDbEntity
  8
0
  6
Continuous
 62
     2
100
AcDbLine
 10
434.1786640724444
 20
186.3585890398166
 30
0.0
 11
420.1786640724444
 21
186.3585890398166
 31
0.0
  0
LINE
  5
1F9
330
1F6
100
AcDbEntity
  8
0
  6
Continuous
 62
     2
100
AcDbLine
 10
420.1786640724444
 20
211.3585749954313
 30
0.0
 11
420.1786640724444
 21
183.8585890398166
 31
0.0
  0
LINE
  5
1FA
330
1F6
100
AcDbEntity
  8
0
  6
Continuous
 62
     2
100
AcDbLine
 10
434.1786640724444
 20
225.0385749954312
 30
0.0
 11
434.1786640724444
 21
183.8585890398166
 31
0.0
  0
SOLID
  5
1FB
330
1F6
100
AcDbEntity
  8
0
 62
     2
100
AcDbTrace
 10
441.6786640724444
 20
187.345982771722
 30
0.0
 11
441.6786640724444
 21
185.3711953079111
 31
0.0
 12
434.1786640724444
 22
186.3585890398166
 32
0.0
 13
434.1786640724444
 23
186.3585890398166
 33
0.0
  0
MTEXT
  5
1FC
330
1F6
100
AcDbEntity
  8
0
 62
     7
100
AcDbMText
 10
439.156861965249
 20
188.8585890398166
 30
0.0
 40
8.75
 41
0.0
 71
     7
 72
     1
  1
14
  7
CONVERTER_12
 11
0.9999999999970619
 21
2.424068405545306E-6
 31
0.0
 73
     1
 44
0.60024009603842
  0
ENDBLK
  5
1FE
330
1F6
100
AcDbEntity
  8
0
100
AcDbBlockEnd
  0
BLOCK
  5
200
330
1FF
100
AcDbEntity
  8
0
100
AcDbBlockBegin
  2
_NONE
 70
     0
 10
0.0
 20
0.0
 30
0.0
  3
_NONE
  1

  0
ENDBLK
  5
201
330
1FF
100
AcDbEntity
  8
0
100
AcDbBlockEnd
  0
BLOCK
  5
20B
330
204
100
AcDbEntity
  8
0
100
AcDbBlockBegin
  2
*D11
 70
     1
 10
0.0
 20
0.0
 30
0.0
  3
*D11
  1

  0
LINE
  5
205
330
204
100
AcDbEntity
  8
0
  6
Continuous
 62
     2
100
AcDbLine
 10
459.1786640724445
 20
211.3585749954313
 30
0.0
 11
459.1786640724445
 21
257.3585749954313
 31
0.0
  0
LINE
  5
206
330
204
100
AcDbEntity
  8
0
  6
Continuous
 62
     2
100
AcDbLine
 10
420.1786640724444
 20
257.3585749954313
 30
0.0
 11
461.6786640724445
 21
257.3585749954313
 31
0.0
  0
LINE
  5
207
330
204
100
AcDbEntity
  8
0
  6
Continuous
 62
     2
100
AcDbLine
 10
420.1786640724444
 20
211.3585749954313
 30
0.0
 11
461.6786640724445
 21
211.3585749954313
 31
0.0
  0
SOLID
  5
208
330
204
100
AcDbEntity
  8
0
 62
     2
100
AcDbTrace
 10
458.0267047185548
 20
220.1085749954313
 30
0.0
 11
460.3306234263342
 21
220.1085749954313
 31
0.0
 12
459.1786640724445
 22
211.3585749954313
 32
0.0
 13
459.1786640724445
 23
211.3585749954313
 33
0.0
  0
SOLID
  5
209
330
204
100
AcDbEntity
  8
0
 62
     2
100
AcDbTrace
 10
460.3306234263342
 20
248.6085749954313
 30
0.0
 11
458.0267047185548
 21
248.6085749954313
 31
0.0
 12
459.1786640724445
 22
257.3585749954313
 32
0.0
 13
459.1786640724445
 23
257.3585749954313
 33
0.0
  0
MTEXT
  5
20A
330
204
100
AcDbEntity
  8
0
 62
     7
100
AcDbMText
 10
456.6786640724445
 20
225.8710749954313
 30
0.0
 40
8.75
 41
0.0
 71
     7
 72
     1
  1
\C7;{\Fgdt;n}\C7;46
  7
CONVERTER_12
 11
0.0
 21
1.0
 31
0.0
 73
     1
 44
0.60024009603842
  0
ENDBLK
  5
20C
330
204
100
AcDbEntity
  8
0
100
AcDbBlockEnd
  0
BLOCK
  5
216
330
20F
100
AcDbEntity
  8
0
100
AcDbBlockBegin
  2
*D12
 70
     1
 10
0.0
 20
0.0
 30
0.0
  3
*D12
  1

  0
LINE
  5
210
330
20F
100
AcDbEntity
  8
0
  6
Continuous
 62
     2
100
AcDbLine
 10
420.1786640724444
 20
186.3585749954313
 30
0.0
 11
374.6786640724436
 21
186.3585749954313
 31
0.0
  0
LINE
  5
211
330
20F
100
AcDbEntity
  8
0
  6
Continuous
 62
     2
100
AcDbLine
 10
374.6786640724436
 20
206.362538297695
 30
0.0
 11
374.6786640724436
 21
183.8585749954313
 31
0.0
  0
LINE
  5
212
330
20F
100
AcDbEntity
  8
0
  6
Continuous
 62
     2
100
AcDbLine
 10
420.1786640724444
 20
211.3585749954313
 30
0.0
 11
420.1786640724444
 21
183.8585749954313
 31
0.0
  0
SOLID
  5
213
330
20F
100
AcDbEntity
  8
0
 62
     2
100
AcDbTrace
 10
411.4286640724444
 20
185.2066156415416
 30
0.0
 11
411.4286640724444
 21
187.510534349321
 31
0.0
 12
420.1786640724444
 22
186.3585749954313
 32
0.0
 13
420.1786640724444
 23
186.3585749954313
 33
0.0
  0
SOLID
  5
214
330
20F
100
AcDbEntity
  8
0
 62
     2
100
AcDbTrace
 10
383.4286640724436
 20
187.510534349321
 30
0.0
 11
383.4286640724436
 21
185.2066156415416
 31
0.0
 12
374.6786640724436
 22
186.3585749954313
 32
0.0
 13
374.6786640724436
 23
186.3585749954313
 33
0.0
  0
MTEXT
  5
215
330
20F
100
AcDbEntity
  8
0
 62
     7
100
AcDbMText
 10
390.866164072444
 20
188.8585749954313
 30
0.0
 40
8.75
 41
0.0
 71
     7
 72
     1
  1
46
  7
CONVERTER_12
 11
0.9999999999970619
 21
2.424068405545306E-6
 31
0.0
 73
     1
 44
0.60024009603842
  0
ENDBLK
  5
217
330
20F
100
AcDbEntity
  8
0
100
AcDbBlockEnd
  0
BLOCK
  5
221
330
21A
100
AcDbEntity
  8
0
100
AcDbBlockBegin
  2
*D13
 70
     1
 10
0.0
 20
0.0
 30
0.0
  3
*D13
  1

  0
LINE
  5
21B
330
21A
100
AcDbEntity
  8
0
  6
Continuous
 62
     2
100
AcDbLine
 10
374.6786640724436
 20
186.3585749954313
 30
0.0
 11
204.6786640724436
 21
186.3585749954313
 31
0.0
  0
LINE
  5
21C
330
21A
100
AcDbEntity
  8
0
  6
Continuous
 62
     2
100
AcDbLine
 10
204.6786640724436
 20
266.3585749954316
 30
0.0
 11
204.6786640724436
 21
183.8585749954313
 31
0.0
  0
LINE
  5
21D
330
21A
100
AcDbEntity
  8
0
  6
Continuous
 62
     2
100
AcDbLine
 10
374.6786640724436
 20
206.362538297695
 30
0.0
 11
374.6786640724436
 21
183.8585749954313
 31
0.0
  0
SOLID
  5
21E
330
21A
100
AcDbEntity
  8
0
 62
     2
100
AcDbTrace
 10
365.9286640724436
 20
185.2066156415416
 30
0.0
 11
365.9286640724436
 21
187.510534349321
 31
0.0
 12
374.6786640724436
 22
186.3585749954313
 32
0.0
 13
374.6786640724436
 23
186.3585749954313
 33
0.0
  0
SOLID
  5
21F
330
21A
100
AcDbEntity
  8
0
 62
     2
100
AcDbTrace
 10
213.4286640724436
 20
187.510534349321
 30
0.0
 11
213.4286640724436
 21
185.2066156415416
 31
0.0
 12
204.6786640724436
 22
186.3585749954313
 32
0.0
 13
204.6786640724436
 23
186.3585749954313
 33
0.0
  0
MTEXT
  5
220
330
21A
100
AcDbEntity
  8
0
 62
     7
100
AcDbMText
 10
280.4911640724436
 20
188.8585749954313
 30
0.0
 40
8.75
 41
0.0
 71
     7
 72
     1
  1
170
  7
CONVERTER_12
 11
0.9999999999970619
 21
2.424068405545306E-6
 31
0.0
 73
     1
 44
0.60024009603842
  0
ENDBLK
  5
222
330
21A
100
AcDbEntity
  8
0
100
AcDbBlockEnd
  0
ENDSEC
  0
SECTION
  2
ENTITIES
  0
INSERT
  5
56
330
1F
100
AcDbEntity
  8
0
100
AcDbBlockReference
  2
61-1-16-170
 10
-13.7921191424324
 20
211.720300773572
 30
0.0
 41
1.0
 42
1.0
 43
1.0
  0
INSERT
  5
57
330
1F
100
AcDbEntity
  8
0
100
AcDbBlockReference
  2
32-1-16
 10
352.3256200996435
 20
393.3594146953936
 30
0.0
 41
1.0
 42
1.0
 43
1.0
  0
INSERT
  5
58
330
1F
100
AcDbEntity
  8
1
100
AcDbBlockReference
  2
81-100X-M21
 10
150.833627870687
 20
284.9400354536841
 30
0.0
 41
1.0
 42
1.0
 43
1.0
  0
INSERT
  5
59
330
1F
100
AcDbEntity
  8
1
100
AcDbBlockReference
  2
A205-0
 10
577.6451467268625
 20
43.69255079006827
 30
0.0
 41
1.0
 42
1.0
 43
1.0
  0
INSERT
  5
5A
330
1F
100
AcDbEntity
  8
1
100
AcDbBlockReference
  2
開示A4
 10
0.0
 20
0.0
 30
0.0
 41
2.5
 42
2.5
 43
2.5
  0
LINE
  5
1B5
330
1F
100
AcDbEntity
  8
1
  6
Continuous
 62
     7
100
AcDbLine
 10
374.6786640724436
 20
211.362538297695
 30
0.0
 11
374.6786640724436
 21
206.362538297695
 31
0.0
  0
LINE
  5
1B6
330
1F
100
AcDbEntity
  8
1
  6
DASH_CENTER
 62
     2
100
AcDbLine
 10
436.6786640724436
 20
234.3585749954317
 30
0.0
 11
336.6808405230723
 21
234.3585749954311
 31
0.0
  0
LINE
  5
1B7
330
1F
100
AcDbEntity
  8
0
  6
DASH_CENTER
 62
     2
100
AcDbLine
 10
186.0130271013945
 20
234.3585749954312
 30
0.0
 11
107.0130271013945
 21
234.3585749954312
 31
0.0
  0
LINE
  5
1B8
330
1F
100
AcDbEntity
  8
0
  6
DASH_CENTER
 62
     2
100
AcDbLine
 10
132.9876097538612
 20
316.3585346177333
 30
0.0
 11
132.9876097538611
 21
206.362538297695
 31
0.0
  0
LINE
  5
1B9
330
1F
100
AcDbEntity
  8
1
  6
DASH_CENTER
 62
     2
100
AcDbLine
 10
133.0130271013934
 20
385.5502803778035
 30
0.0
 11
133.0130271013935
 21
636.700280377803
 31
0.0
  0
LINE
  5
1BA
330
1F
100
AcDbEntity
  8
1
  6
DASH_CENTER
 62
     2
100
AcDbLine
 10
144.3872492952555
 20
400.2002803778036
 30
0.0
 11
122.0350758891725
 21
400.2002803778036
 31
0.0
  0
LINE
  5
1BB
330
1F
100
AcDbEntity
  8
1
  6
DASH_CENTER
 62
     2
100
AcDbLine
 10
171.8130271013944
 20
271.4647012053138
 30
0.0
 11
171.8130271013944
 21
211.6087283583757
 31
0.0
  0
LINE
  5
1BC
330
1F
100
AcDbEntity
  8
1
  6
DASH_CENTER
 62
     2
100
AcDbLine
 10
231.6786640724436
 20
302.3585749954317
 30
0.0
 11
347.6786640724436
 21
302.3585749954317
 31
0.0
  0
LINE
  5
1BD
330
1F
100
AcDbEntity
  8
1
  6
DASH_CENTER
 62
     2
100
AcDbLine
 10
204.6786640724436
 20
266.3585749954316
 30
0.0
 11
204.6786640724436
 21
275.3585749954316
 31
0.0
  0
LINE
  5
1BE
330
1F
100
AcDbEntity
  8
1
  6
DASH_CENTER
 62
     2
100
AcDbLine
 10
374.6786640724436
 20
211.362538297695
 30
0.0
 11
374.6786640724436
 21
275.3585749954317
 31
0.0
  0
LINE
  5
1BF
330
1F
100
AcDbEntity
  8
1
  6
Continuous
 62
     2
100
AcDbLine
 10
302.0
 20
239.534393817859
 30
0.0
 11
328.0
 21
239.534393817859
 31
0.0
  0
LINE
  5
1C0
330
1F
100
AcDbEntity
  8
1
  6
Continuous
 62
     2
100
AcDbLine
 10
321.0
 20
275.5735298908845
 30
0.0
 11
348.0
 21
275.5735298908845
 31
0.0
  0
LINE
  5
1C1
330
1F
100
AcDbEntity
  8
1
  6
DASH_CENTER
 62
     2
100
AcDbLine
 10
110.0130271013939
 20
570.2002803778039
 30
0.0
 11
190.5130271013954
 21
570.2002803778039
 31
0.0
  0
ARC
  5
1C2
330
1F
100
AcDbEntity
  8
1
  6
DASH_CENTER
 62
     2
100
AcDbCircle
 10
347.6786640724436
 20
275.3585749954317
 30
0.0
 40
27.0
100
AcDbArc
 50
0.0
 51
90.0
  0
ARC
  5
1C3
330
1F
100
AcDbEntity
  8
0
  6
Continuous
 62
     2
100
AcDbCircle
 10
362.5252378732492
 20
250.5642891480915
 30
0.0
 40
26.48609953112966
100
AcDbArc
 50
127.2877760116103
 51
184.0396076270894
  0
ARC
  5
1C4
330
1F
100
AcDbEntity
  8
1
  6
DASH_CENTER
 62
     2
100
AcDbCircle
 10
231.6786640724436
 20
275.3585749954316
 30
0.0
 40
27.00000000000011
100
AcDbArc
 50
90.0
 51
180.0
  0
SOLID
  5
1C5
330
1F
100
AcDbEntity
  8
0
 62
     2
100
AcDbTrace
 10
340.6334273380496
 20
265.0250945342498
 30
0.0
 11
339.1214160851534
 21
266.763445299536
 31
0.0
 12
346.4794641989926
 22
271.6367027632292
 32
0.0
 13
346.4794641989926
 23
271.6367027632292
 33
0.0
  0
LEADER
  5
1C6
330
1F
100
AcDbEntity
  8
0
  6
Continuous
 62
     2
100
AcDbLeader
  3
Standard
 71
     0
 76
     2
 10
346.4794641989926
 20
271.6367027632292
 30
0.0
 10
345.3300010533918
 20
270.6369038471275
 30
0.0
  0
SOLID
  5
1C7
330
1F
100
AcDbEntity
  8
1
 62
     2
100
AcDbTrace
 10
430.9806274762387
 20
252.99227695549
 30
0.0
 11
432.9758796054299
 21
251.8403176016003
 31
0.0
 12
427.6032535408343
 22
244.8385749954313
 32
0.0
 13
427.6032535408343
 23
244.8385749954313
 33
0.0
  0
LEADER
  5
1C8
330
1F
100
AcDbEntity
  8
1
  6
Continuous
 62
     2
100
AcDbLeader
  3
Standard
 71
     0
 76
     3
 10
427.6032535408343
 20
244.8385749954313
 30
0.0
 10
446.3671372894971
 20
277.3385749954314
 30
0.0
 10
485.0902264394402
 20
277.3385749954314
 30
0.0
  0
SOLID
  5
1C9
330
1F
100
AcDbEntity
  8
0
 62
     2
100
AcDbTrace
 10
335.3464175457405
 20
257.4912945785443
 30
0.0
 11
337.6480197799888
 21
257.3880058213671
 31
0.0
 12
336.1049406618008
 22
248.6984478816312
 32
0.0
 13
336.1049406618008
 23
248.6984478816312
 33
0.0
  0
LEADER
  5
1CA
330
1F
100
AcDbEntity
  8
0
  6
Continuous
 62
     2
100
AcDbLeader
  3
Standard
 71
     0
 76
     2
 10
336.1049406618008
 20
248.6984478816312
 30
0.0
 10
336.198201275877
 20
250.776591172259
 30
0.0
  0
MTEXT
  5
1CB
330
1F
100
AcDbEntity
  8
1
 62
     7
100
AcDbMText
 10
334.3125912803753
 20
283.0735298908845
 30
0.0
 40
12.5
 41
0.0
 71
     5
 72
     1
  1
止水
  7
CONVERTER_11
 73
     1
 44
0.54545454545455
  0
MTEXT
  5
1CC
330
1F
100
AcDbEntity
  8
1
 62
     7
100
AcDbMText
 10
314.6806534021782
 20
247.0343938178589
 30
0.0
 40
12.5
 41
0.0
 71
     5
 72
     1
  1
吐水
  7
CONVERTER_11
 73
     1
 44
0.54545454545455
  0
MTEXT
  5
1CD
330
1F
100
AcDbEntity
  8
0
 62
     7
100
AcDbMText
 10
142.5
 20
56.87500000000004
 30
0.0
 40
8.75
 41
0.0
 71
     5
 72
     1
  1
ミニセラ横形自在水栓
  7
CONVERTER_11
 73
     1
 44
1.0
  0
MTEXT
  5
1CF
330
1F
100
AcDbEntity
  8
0
 62
     7
100
AcDbMText
 10
142.5
 20
35.62500000000001
 30
0.0
 40
8.75
 41
0.0
 71
     5
 72
     1
  1
A205-13
  7
CONVERTER_12
 73
     1
 44
1.32052821128451
  0
MTEXT
  5
1D0
330
1F
100
AcDbEntity
  8
0
 62
     7
100
AcDbMText
 10
466.9817369168115
 20
284.8385749954314
 30
0.0
 40
8.75
 41
0.0
 71
     5
 72
     1
  1
PJ1/2
  7
CONVERTER_12
 73
     1
 44
0.7202881152461
  0
MTEXT
  5
1D1
330
1F
100
AcDbEntity
  8
0
 62
     7
100
AcDbMText
 10
213.125
 20
42.5
 30
0.0
 40
8.75
 41
0.0
 71
     5
 72
     1
  1
1
  7
CONVERTER_12
 73
     1
 44
0.7202881152461
  0
MTEXT
  5
1D2
330
1F
100
AcDbEntity
  8
0
 62
     7
100
AcDbMText
 10
234.375
 20
42.5
 30
0.0
 40
8.75
 41
0.0
 71
     5
 72
     1
  1
2,5
  7
CONVERTER_12
 73
     1
 44
0.7202881152461
  0
MTEXT
  5
1D3
330
1F
100
AcDbEntity
  8
0
 62
     7
100
AcDbMText
 10
85.0
 20
85.00000000000001
 30
0.0
 40
8.75
 41
0.0
 71
     4
 72
     1
  1
JIS
  7
CONVERTER_12
 73
     1
 44
1.32052821128451
  0
MTEXT
  5
1D4
330
1F
100
AcDbEntity
  8
1
 62
     7
100
AcDbMText
 10
302.3125912803753
 20
264.0735298908845
 30
0.0
 40
8.75
 41
0.0
 71
     5
 72
     1
  1
90°
  7
CONVERTER_11
 73
     1
 44
0.54545454545455
  0
DIMENSION
  5
1DF
330
1F
100
AcDbEntity
  8
0
100
AcDbDimension
  2
*D6
 10
241.1786640724436
 20
269.3585749954316
 30
0.0
 11
234.3036640724436
 21
250.2144673549803
 31
0.0
 70
    32
  1
<>
 71
     5
 42
-1.0
 53
90.0
  3
ME10_DIM_10
100
AcDbAlignedDimension
 13
336.6808405230723
 23
234.3585749954311
 33
0.0
 14
212.0650710784296
 24
269.3585749954315
 34
0.0
 50
90.0
100
AcDbRotatedDimension
  0
DIMENSION
  5
1EA
330
1F
100
AcDbEntity
  8
1
100
AcDbDimension
  2
*D7
 10
132.9876097538611
 20
186.3585749954313
 30
0.0
 11
157.9003184276278
 21
193.2335749954313
 31
0.0
 70
    32
  1
50
 71
     5
 42
-1.0
 53
0.00013888888889
  3
ME10_DIM_11
100
AcDbAlignedDimension
 13
182.8130271013945
 23
234.3585749954312
 33
0.0
 14
132.9876097538611
 24
206.362538297695
 34
0.0
100
AcDbRotatedDimension
  0
DIMENSION
  5
1F5
330
1F
100
AcDbEntity
  8
0
100
AcDbDimension
  2
*D8
 10
266.1786640724437
 20
234.358574995431
 30
0.0
 11
259.3036640724437
 21
268.3585749954314
 31
0.0
 70
    32
  1
<>
 71
     5
 42
-1.0
 53
90.0
  3
ME10_DIM_12
100
AcDbAlignedDimension
 13
231.6786640724435
 23
310.3585749954315
 33
0.0
 14
336.6808405230723
 24
234.3585749954311
 34
0.0
 50
90.0
100
AcDbRotatedDimension
  0
DIMENSION
  5
203
330
1F
100
AcDbEntity
  8
0
100
AcDbDimension
  2
*D9
 10
434.1786640724444
 20
186.3585890398166
 30
0.0
 11
444.406861965249
 21
193.2335890398166
 31
0.0
 70
    32
  1
<>
 71
     5
 42
-1.0
 53
0.00013888888889
  3
ME10_DIM_13
100
AcDbAlignedDimension
 13
420.1786640724443
 23
211.3585749954312
 33
0.0
 14
434.1786640724443
 24
225.0385749954311
 34
0.0
100
AcDbRotatedDimension
  0
DIMENSION
  5
20E
330
1F
100
AcDbEntity
  8
0
100
AcDbDimension
  2
*D11
 10
459.1786640724445
 20
211.3585749954313
 30
0.0
 11
452.3036640724445
 21
234.3585749954313
 31
0.0
 70
    32
  1
<>
 71
     5
 42
-1.0
 53
90.0
  3
ME10_DIM_14
100
AcDbAlignedDimension
 13
420.1786640724443
 23
257.3585749954312
 33
0.0
 14
420.1786640724443
 24
211.3585749954312
 34
0.0
 50
90.0
100
AcDbRotatedDimension
  0
DIMENSION
  5
219
330
1F
100
AcDbEntity
  8
0
100
AcDbDimension
  2
*D12
 10
420.1786640724444
 20
186.3585749954313
 30
0.0
 11
397.428664072444
 21
193.2335749954313
 31
0.0
 70
    32
  1
46
 71
     5
 42
-1.0
 53
0.00013888888889
  3
ME10_DIM_15
100
AcDbAlignedDimension
 13
374.6786640724436
 23
206.362538297695
 33
0.0
 14
420.1786640724443
 24
211.3585749954312
 34
0.0
100
AcDbRotatedDimension
  0
DIMENSION
  5
224
330
1F
100
AcDbEntity
  8
0
100
AcDbDimension
  2
*D13
 10
374.6786640724436
 20
186.3585749954313
 30
0.0
 11
289.6786640724436
 21
193.2335749954313
 31
0.0
 70
    32
  1
<>
 71
     5
 42
-1.0
 53
0.00013888888889
  3
ME10_DIM_16
100
AcDbAlignedDimension
 13
204.6786640724436
 23
266.3585749954316
 33
0.0
 14
374.6786640724436
 24
206.362538297695
 34
0.0
100
AcDbRotatedDimension
  0
ENDSEC
  0
SECTION
  2
OBJECTS
  0
DICTIONARY
  5
C
330
0
100
AcDbDictionary
281
     1
  3
ACAD_GROUP
350
D
  3
ACAD_LAYOUT
350
1A
  3
ACAD_MATERIAL
350
3B
  3
ACAD_MLEADERSTYLE
350
227
  3
ACAD_MLINESTYLE
350
17
  3
ACAD_PLOTSETTINGS
350
19
  3
ACAD_PLOTSTYLENAME
350
E
  3
ACAD_VISUALSTYLE
350
2A
  3
AcDbVariableDictionary
350
225
  0
DICTIONARY
  5
D
102
{ACAD_REACTORS
330
C
102
}
330
C
100
AcDbDictionary
281
     1
  0
DICTIONARY
  5
1A
102
{ACAD_REACTORS
330
C
102
}
330
C
100
AcDbDictionary
281
     1
  3
Layout1
350
1E
  3
Layout2
350
26
  3
Model
350
22
  0
DICTIONARY
  5
3B
102
{ACAD_REACTORS
330
C
102
}
330
C
100
AcDbDictionary
281
     1
  3
ByBlock
350
3D
  3
ByLayer
350
3C
  3
Global
350
3E
  0
DICTIONARY
  5
227
102
{ACAD_REACTORS
330
C
102
}
330
C
100
AcDbDictionary
281
     1
  0
DICTIONARY
  5
17
102
{ACAD_REACTORS
330
C
102
}
330
C
100
AcDbDictionary
281
     1
  3
Standard
350
18
  0
DICTIONARY
  5
19
102
{ACAD_REACTORS
330
C
102
}
330
C
100
AcDbDictionary
281
     1
  0
ACDBDICTIONARYWDFLT
  5
E
102
{ACAD_REACTORS
330
C
102
}
330
C
100
AcDbDictionary
281
     1
  3
Normal
350
F
100
AcDbDictionaryWithDefault
340
F
  0
DICTIONARY
  5
2A
102
{ACAD_REACTORS
330
C
102
}
330
C
100
AcDbDictionary
281
     1
  3
2dWireframe
350
2F
  3
3D Hidden
350
31
  3
3dWireframe
350
30
  3
Basic
350
32
  3
Brighten
350
36
  3
ColorChange
350
3A
  3
Conceptual
350
34
  3
Dim
350
35
  3
Facepattern
350
39
  3
Flat
350
2B
  3
FlatWithEdges
350
2C
  3
Gouraud
350
2D
  3
GouraudWithEdges
350
2E
  3
Linepattern
350
38
  3
Realistic
350
33
  3
Thicken
350
37
  0
DICTIONARY
  5
225
102
{ACAD_REACTORS
330
C
102
}
330
C
100
AcDbDictionary
281
     1
  3
DIMASSOC
350
228
  3
HIDETEXT
350
229
  0
LAYOUT
  5
1E
102
{ACAD_REACTORS
330
1A
102
}
330
1A
100
AcDbPlotSettings
  1

  2
none_device
  4

  6

 40
0.0
 41
0.0
 42
0.0
 43
0.0
 44
0.0
 45
0.0
 46
0.0
 47
0.0
 48
0.0
 49
0.0
140
0.0
141
0.0
142
1.0
143
1.0
 70
   688
 72
     0
 73
     0
 74
     5
  7

 75
    16
147
1.0
148
0.0
149
0.0
100
AcDbLayout
  1
Layout1
 70
     1
 71
     1
 10
0.0
 20
0.0
 11
12.0
 21
9.0
 12
0.0
 22
0.0
 32
0.0
 14
1.00000000000000E+20
 24
1.00000000000000E+20
 34
1.00000000000000E+20
 15
-1.00000000000000E+20
 25
-1.00000000000000E+20
 35
-1.00000000000000E+20
146
0.0
 13
0.0
 23
0.0
 33
0.0
 16
1.0
 26
0.0
 36
0.0
 17
0.0
 27
1.0
 37
0.0
 76
     0
330
1B
  0
LAYOUT
  5
26
102
{ACAD_REACTORS
330
1A
102
}
330
1A
100
AcDbPlotSettings
  1

  2
none_device
  4

  6

 40
0.0
 41
0.0
 42
0.0
 43
0.0
 44
0.0
 45
0.0
 46
0.0
 47
0.0
 48
0.0
 49
0.0
140
0.0
141
0.0
142
1.0
143
1.0
 70
   688
 72
     0
 73
     0
 74
     5
  7

 75
    16
147
1.0
148
0.0
149
0.0
100
AcDbLayout
  1
Layout2
 70
     1
 71
     2
 10
0.0
 20
0.0
 11
0.0
 21
0.0
 12
0.0
 22
0.0
 32
0.0
 14
0.0
 24
0.0
 34
0.0
 15
0.0
 25
0.0
 35
0.0
146
0.0
 13
0.0
 23
0.0
 33
0.0
 16
1.0
 26
0.0
 36
0.0
 17
0.0
 27
1.0
 37
0.0
 76
     0
330
23
  0
LAYOUT
  5
22
102
{ACAD_REACTORS
330
1A
102
}
330
1A
100
AcDbPlotSettings
  1

  2
none_device
  4

  6

 40
0.0
 41
0.0
 42
0.0
 43
0.0
 44
0.0
 45
0.0
 46
0.0
 47
0.0
 48
0.0
 49
0.0
140
0.0
141
0.0
142
1.0
143
1.0
 70
  1712
 72
     0
 73
     0
 74
     0
  7

 75
     0
147
1.0
148
0.0
149
0.0
100
AcDbLayout
  1
Model
 70
     1
 71
     0
 10
0.0
 20
0.0
 11
12.0
 21
9.0
 12
0.0
 22
0.0
 32
0.0
 14
0.0
 24
0.0
 34
0.0
 15
525.0
 25
742.5
 35
0.0
146
0.0
 13
0.0
 23
0.0
 33
0.0
 16
1.0
 26
0.0
 36
0.0
 17
0.0
 27
1.0
 37
0.0
 76
     0
330
1F
331
29
  0
MATERIAL
  5
3D
102
{ACAD_REACTORS
330
3B
102
}
102
{ACAD_XDICTIONARY
360
24C
102
}
330
3B
100
AcDbMaterial
  1
ByBlock
  0
MATERIAL
  5
3C
102
{ACAD_REACTORS
330
3B
102
}
102
{ACAD_XDICTIONARY
360
24A
102
}
330
3B
100
AcDbMaterial
  1
ByLayer
  0
MATERIAL
  5
3E
102
{ACAD_REACTORS
330
3B
102
}
102
{ACAD_XDICTIONARY
360
24E
102
}
330
3B
100
AcDbMaterial
  1
Global
  0
MLINESTYLE
  5
18
102
{ACAD_REACTORS
330
17
102
}
330
17
100
AcDbMlineStyle
  2
Standard
 70
     0
  3

 62
   256
 51
90.0
 52
90.0
 71
     2
 49
0.5
 62
   256
  6
BYLAYER
 49
-0.5
 62
   256
  6
BYLAYER
  0
ACDBPLACEHOLDER
  5
F
102
{ACAD_REACTORS
330
E
102
}
330
E
  0
VISUALSTYLE
  5
2F
102
{ACAD_REACTORS
330
2A
102
}
102
{ACAD_XDICTIONARY
360
232
102
}
330
2A
100
AcDbVisualStyle
  2
2dWireframe
 70
     4
 71
     0
 72
     2
 73
     0
 90
        0
 40
-0.6
 41
-30.0
 62
     5
 63
     7
 74
     1
 91
        4
 64
     7
 65
   257
 75
     1
175
     1
 42
1.0
 92
        0
 66
   257
 43
1.0
 76
     1
 77
     6
 78
     2
 67
     7
 79
     5
170
     0
171
     0
290
     0
174
     0
 93
        1
 44
0.0
173
     0
291
     0
 45
0.0
1001
ACAD
1000
AcDbSavedByObjectVersion
1070
     0
  0
VISUALSTYLE
  5
31
102
{ACAD_REACTORS
330
2A
102
}
102
{ACAD_XDICTIONARY
360
236
102
}
330
2A
100
AcDbVisualStyle
  2
3D Hidden
 70
     6
 71
     1
 72
     2
 73
     2
 90
        0
 40
-0.6
 41
-30.0
 62
     5
 63
     7
 74
     2
 91
        2
 64
     7
 65
   257
 75
     2
175
     1
 42
40.0
 92
        0
 66
   257
 43
1.0
 76
     1
 77
     6
 78
     2
 67
     7
 79
     3
170
     0
171
     0
290
     0
174
     0
 93
        1
 44
0.0
173
     0
291
     0
 45
0.0
1001
ACAD
1000
AcDbSavedByObjectVersion
1070
     0
  0
VISUALSTYLE
  5
30
102
{ACAD_REACTORS
330
2A
102
}
102
{ACAD_XDICTIONARY
360
234
102
}
330
2A
100
AcDbVisualStyle
  2
3dWireframe
 70
     5
 71
     0
 72
     2
 73
     0
 90
        0
 40
-0.6
 41
-30.0
 62
     5
 63
     7
 74
     1
 91
        4
 64
     7
 65
   257
 75
     1
175
     1
 42
1.0
 92
        0
 66
   257
 43
1.0
 76
     1
 77
     6
 78
     2
 67
     7
 79
     5
170
     0
171
     0
290
     0
174
     0
 93
        1
 44
0.0
173
     0
291
     0
 45
0.0
1001
ACAD
1000
AcDbSavedByObjectVersion
1070
     0
  0
VISUALSTYLE
  5
32
102
{ACAD_REACTORS
330
2A
102
}
102
{ACAD_XDICTIONARY
360
238
102
}
330
2A
100
AcDbVisualStyle
  2
Basic
 70
     7
 71
     1
 72
     0
 73
     1
 90
        0
 40
-0.6
 41
-30.0
 62
     5
 63
     7
 74
     0
 91
        4
 64
     7
 65
   257
 75
     1
175
     1
 42
1.0
 92
        8
 66
     7
 43
1.0
 76
     1
 77
     6
 78
     2
 67
     7
 79
     5
170
     0
171
     0
290
     0
174
     0
 93
        1
 44
0.0
173
     0
291
     1
 45
0.0
1001
ACAD
1000
AcDbSavedByObjectVersion
1070
     0
  0
VISUALSTYLE
  5
36
102
{ACAD_REACTORS
330
2A
102
}
102
{ACAD_XDICTIONARY
360
240
102
}
330
2A
100
AcDbVisualStyle
  2
Brighten
 70
    12
 71
     2
 72
     2
 73
     0
 90
        0
 40
-0.6
 41
-30.0
 62
     5
 63
     7
 74
     1
 91
        4
 64
     7
 65
   257
 75
     1
175
     1
 42
1.0
 92
        8
 66
     7
 43
1.0
 76
     1
 77
     6
 78
     2
 67
     7
 79
     5
170
     0
171
     0
290
     0
174
     0
 93
        1
 44
50.0
173
     0
291
     1
 45
0.0
1001
ACAD
1000
AcDbSavedByObjectVersion
1070
     0
  0
VISUALSTYLE
  5
3A
102
{ACAD_REACTORS
330
2A
102
}
102
{ACAD_XDICTIONARY
360
248
102
}
330
2A
100
AcDbVisualStyle
  2
ColorChange
 70
    16
 71
     2
 72
     2
 73
     3
 90
        0
 40
-0.6
 41
-30.0
 62
     5
 63
     8
 74
     1
 91
        4
 64
     7
 65
   257
 75
     1
175
     1
 42
1.0
 92
        8
 66
     8
 43
1.0
 76
     1
 77
     6
 78
     2
 67
     7
 79
     5
170
     0
171
     0
290
     0
174
     0
 93
        1
 44
0.0
173
     0
291
     1
 45
0.0
1001
ACAD
1000
AcDbSavedByObjectVersion
1070
     0
  0
VISUALSTYLE
  5
34
102
{ACAD_REACTORS
330
2A
102
}
102
{ACAD_XDICTIONARY
360
23C
102
}
330
2A
100
AcDbVisualStyle
  2
Conceptual
 70
     9
 71
     3
 72
     2
 73
     0
 90
        0
 40
-0.6
 41
-30.0
 62
     5
 63
     7
 74
     2
 91
        2
 64
     7
 65
   257
 75
     1
175
     1
 42
40.0
 92
        8
 66
     7
 43
1.0
 76
     1
 77
     6
 78
     2
 67
     7
 79
     3
170
     0
171
     0
290
     0
174
     0
 93
        1
 44
0.0
173
     0
291
     0
 45
0.0
1001
ACAD
1000
AcDbSavedByObjectVersion
1070
     0
  0
VISUALSTYLE
  5
35
102
{ACAD_REACTORS
330
2A
102
}
102
{ACAD_XDICTIONARY
360
23E
102
}
330
2A
100
AcDbVisualStyle
  2
Dim
 70
    11
 71
     2
 72
     2
 73
     0
 90
        0
 40
-0.6
 41
-30.0
 62
     5
 63
     7
 74
     1
 91
        4
 64
     7
 65
   257
 75
     1
175
     1
 42
1.0
 92
        8
 66
     7
 43
1.0
 76
     1
 77
     6
 78
     2
 67
     7
 79
     5
170
     0
171
     0
290
     0
174
     0
 93
        1
 44
-50.0
173
     0
291
     1
 45
0.0
1001
ACAD
1000
AcDbSavedByObjectVersion
1070
     0
  0
VISUALSTYLE
  5
39
102
{ACAD_REACTORS
330
2A
102
}
102
{ACAD_XDICTIONARY
360
246
102
}
330
2A
100
AcDbVisualStyle
  2
Facepattern
 70
    15
 71
     2
 72
     2
 73
     0
 90
        0
 40
-0.6
 41
-30.0
 62
     5
 63
     7
 74
     1
 91
        4
 64
     7
 65
   257
 75
     1
175
     1
 42
1.0
 92
        8
 66
     7
 43
1.0
 76
     1
 77
     6
 78
     2
 67
     7
 79
     5
170
     0
171
     0
290
     0
174
     0
 93
        1
 44
0.0
173
     0
291
     1
 45
0.0
1001
ACAD
1000
AcDbSavedByObjectVersion
1070
     0
  0
VISUALSTYLE
  5
2B
102
{ACAD_REACTORS
330
2A
102
}
102
{ACAD_XDICTIONARY
360
22A
102
}
330
2A
100
AcDbVisualStyle
  2
Flat
 70
     0
 71
     2
 72
     1
 73
     1
 90
        2
 40
-0.6
 41
30.0
 62
     5
 63
     7
 74
     0
 91
        4
 64
     7
 65
   257
 75
     1
175
     1
 42
1.0
 92
        8
 66
     7
 43
1.0
 76
     1
 77
     6
 78
     2
 67
     7
 79
     5
170
     0
171
     0
290
     0
174
     0
 93
       13
 44
0.0
173
     0
291
     1
 45
0.0
1001
ACAD
1000
AcDbSavedByObjectVersion
1070
     0
  0
VISUALSTYLE
  5
2C
102
{ACAD_REACTORS
330
2A
102
}
102
{ACAD_XDICTIONARY
360
22C
102
}
330
2A
100
AcDbVisualStyle
  2
FlatWithEdges
 70
     1
 71
     2
 72
     1
 73
     1
 90
        2
 40
-0.6
 41
30.0
 62
     5
 63
     7
 74
     1
 91
        4
 64
     7
 65
   257
 75
     1
175
     1
 42
1.0
 92
        0
 66
   257
 43
1.0
 76
     1
 77
     6
 78
     2
 67
     7
 79
     5
170
     0
171
     0
290
     0
174
     0
 93
       13
 44
0.0
173
     0
291
     1
 45
0.0
1001
ACAD
1000
AcDbSavedByObjectVersion
1070
     0
  0
VISUALSTYLE
  5
2D
102
{ACAD_REACTORS
330
2A
102
}
102
{ACAD_XDICTIONARY
360
22E
102
}
330
2A
100
AcDbVisualStyle
  2
Gouraud
 70
     2
 71
     2
 72
     2
 73
     1
 90
        2
 40
-0.6
 41
30.0
 62
     5
 63
     7
 74
     0
 91
        4
 64
     7
 65
   257
 75
     1
175
     1
 42
1.0
 92
        0
 66
     7
 43
1.0
 76
     1
 77
     6
 78
     2
 67
     7
 79
     5
170
     0
171
     0
290
     0
174
     0
 93
       13
 44
0.0
173
     0
291
     1
 45
0.0
1001
ACAD
1000
AcDbSavedByObjectVersion
1070
     0
  0
VISUALSTYLE
  5
2E
102
{ACAD_REACTORS
330
2A
102
}
102
{ACAD_XDICTIONARY
360
230
102
}
330
2A
100
AcDbVisualStyle
  2
GouraudWithEdges
 70
     3
 71
     2
 72
     2
 73
     1
 90
        2
 40
-0.6
 41
30.0
 62
     5
 63
     7
 74
     1
 91
        4
 64
     7
 65
   257
 75
     1
175
     1
 42
1.0
 92
        0
 66
   257
 43
1.0
 76
     1
 77
     6
 78
     2
 67
     7
 79
     5
170
     0
171
     0
290
     0
174
     0
 93
       13
 44
0.0
173
     0
291
     1
 45
0.0
1001
ACAD
1000
AcDbSavedByObjectVersion
1070
     0
  0
VISUALSTYLE
  5
38
102
{ACAD_REACTORS
330
2A
102
}
102
{ACAD_XDICTIONARY
360
244
102
}
330
2A
100
AcDbVisualStyle
  2
Linepattern
 70
    14
 71
     2
 72
     2
 73
     0
 90
        0
 40
-0.6
 41
-30.0
 62
     5
 63
     7
 74
     1
 91
        4
 64
     7
 65
   257
 75
     7
175
     7
 42
1.0
 92
        8
 66
     7
 43
1.0
 76
     1
 77
     6
 78
     2
 67
     7
 79
     5
170
     0
171
     0
290
     0
174
     0
 93
        1
 44
0.0
173
     0
291
     1
 45
0.0
1001
ACAD
1000
AcDbSavedByObjectVersion
1070
     0
  0
VISUALSTYLE
  5
33
102
{ACAD_REACTORS
330
2A
102
}
102
{ACAD_XDICTIONARY
360
23A
102
}
330
2A
100
AcDbVisualStyle
  2
Realistic
 70
     8
 71
     2
 72
     2
 73
     0
 90
        0
 40
-0.6
 41
-30.0
 62
     5
 63
     7
 74
     1
 91
        0
 64
     7
 65
   257
 75
     1
175
     1
 42
1.0
 92
        8
 66
     8
 43
1.0
 76
     1
 77
     6
 78
     2
 67
     7
 79
     5
170
     0
171
     0
290
     0
174
     0
 93
       13
 44
0.0
173
     0
291
     0
 45
0.0
1001
ACAD
1000
AcDbSavedByObjectVersion
1070
     0
  0
VISUALSTYLE
  5
37
102
{ACAD_REACTORS
330
2A
102
}
102
{ACAD_XDICTIONARY
360
242
102
}
330
2A
100
AcDbVisualStyle
  2
Thicken
 70
    13
 71
     2
 72
     2
 73
     0
 90
        0
 40
-0.6
 41
-30.0
 62
     5
 63
     7
 74
     1
 91
        4
 64
     7
 65
   257
 75
     1
175
     1
 42
1.0
 92
       12
 66
     7
 43
1.0
 76
     1
 77
     6
 78
     2
 67
     7
 79
     5
170
     0
171
     0
290
     0
174
     0
 93
        1
 44
0.0
173
     0
291
     1
 45
0.0
1001
ACAD
1000
AcDbSavedByObjectVersion
1070
     0
  0
DICTIONARYVAR
  5
228
102
{ACAD_REACTORS
330
225
102
}
330
225
100
DictionaryVariables
280
     0
  1
2
  0
DICTIONARYVAR
  5
229
102
{ACAD_REACTORS
330
225
102
}
330
225
100
DictionaryVariables
280
     0
  1
1
  0
DICTIONARY
  5
24C
330
3D
100
AcDbDictionary
280
     1
281
     1
  3
ACAD_XREC_ROUNDTRIP
360
24D
  0
DICTIONARY
  5
24A
330
3C
100
AcDbDictionary
280
     1
281
     1
  3
ACAD_XREC_ROUNDTRIP
360
24B
  0
DICTIONARY
  5
24E
330
3E
100
AcDbDictionary
280
     1
281
     1
  3
ACAD_XREC_ROUNDTRIP
360
24F
  0
DICTIONARY
  5
232
330
2F
100
AcDbDictionary
280
     1
281
     1
  3
ACAD_XREC_ROUNDTRIP
360
233
  0
DICTIONARY
  5
236
330
31
100
AcDbDictionary
280
     1
281
     1
  3
ACAD_XREC_ROUNDTRIP
360
237
  0
DICTIONARY
  5
234
330
30
100
AcDbDictionary
280
     1
281
     1
  3
ACAD_XREC_ROUNDTRIP
360
235
  0
DICTIONARY
  5
238
330
32
100
AcDbDictionary
280
     1
281
     1
  3
ACAD_XREC_ROUNDTRIP
360
239
  0
DICTIONARY
  5
240
330
36
100
AcDbDictionary
280
     1
281
     1
  3
ACAD_XREC_ROUNDTRIP
360
241
  0
DICTIONARY
  5
248
330
3A
100
AcDbDictionary
280
     1
281
     1
  3
ACAD_XREC_ROUNDTRIP
360
249
  0
DICTIONARY
  5
23C
330
34
100
AcDbDictionary
280
     1
281
     1
  3
ACAD_XREC_ROUNDTRIP
360
23D
  0
DICTIONARY
  5
23E
330
35
100
AcDbDictionary
280
     1
281
     1
  3
ACAD_XREC_ROUNDTRIP
360
23F
  0
DICTIONARY
  5
246
330
39
100
AcDbDictionary
280
     1
281
     1
  3
ACAD_XREC_ROUNDTRIP
360
247
  0
DICTIONARY
  5
22A
330
2B
100
AcDbDictionary
280
     1
281
     1
  3
ACAD_XREC_ROUNDTRIP
360
22B
  0
DICTIONARY
  5
22C
330
2C
100
AcDbDictionary
280
     1
281
     1
  3
ACAD_XREC_ROUNDTRIP
360
22D
  0
DICTIONARY
  5
22E
330
2D
100
AcDbDictionary
280
     1
281
     1
  3
ACAD_XREC_ROUNDTRIP
360
22F
  0
DICTIONARY
  5
230
330
2E
100
AcDbDictionary
280
     1
281
     1
  3
ACAD_XREC_ROUNDTRIP
360
231
  0
DICTIONARY
  5
244
330
38
100
AcDbDictionary
280
     1
281
     1
  3
ACAD_XREC_ROUNDTRIP
360
245
  0
DICTIONARY
  5
23A
330
33
100
AcDbDictionary
280
     1
281
     1
  3
ACAD_XREC_ROUNDTRIP
360
23B
  0
DICTIONARY
  5
242
330
37
100
AcDbDictionary
280
     1
281
     1
  3
ACAD_XREC_ROUNDTRIP
360
243
  0
XRECORD
  5
24D
102
{ACAD_REACTORS
330
24C
102
}
330
24C
100
AcDbXrecord
280
     1
102
MATERIAL
148
0.0
149
0.0
149
0.0
 93
        0
 94
      127
282
     0
 72
     1
 77
     1
171
     1
175
     1
179
     1
273
     0
  0
XRECORD
  5
24B
102
{ACAD_REACTORS
330
24A
102
}
330
24A
100
AcDbXrecord
280
     1
102
MATERIAL
148
0.0
149
0.0
149
0.0
 93
        0
 94
      127
282
     0
 72
     1
 77
     1
171
     1
175
     1
179
     1
273
     0
  0
XRECORD
  5
24F
102
{ACAD_REACTORS
330
24E
102
}
330
24E
100
AcDbXrecord
280
     1
102
MATERIAL
148
0.0
149
0.0
149
0.0
 93
        0
 94
      127
282
     0
 72
     1
 77
     1
171
     1
175
     1
179
     1
273
     0
  0
XRECORD
  5
233
102
{ACAD_REACTORS
330
232
102
}
330
232
100
AcDbXrecord
280
     1
102
RTVSPropertyOp0
 70
     1
102
RTVSPropertyOp1
 70
     1
102
RTVSPropertyOp2
 70
     1
102
RTVSPropertyOp3
 70
     1
102
RTVSPropertyOp4
 70
     1
102
RTVSPropertyOp5
 70
     1
102
RTVSPropertyOp6
 70
     1
102
RTVSPropertyOp7
 70
     1
102
RTVSPropertyOp8
 70
     1
102
RTVSPropertyOp9
 70
     1
102
RTVSPropertyOp10
 70
     1
102
RTVSPropertyOp11
 70
     1
102
RTVSPropertyOp12
 70
     1
102
RTVSPropertyOp13
 70
     1
102
RTVSPropertyOp14
 70
     1
102
RTVSPropertyOp15
 70
     1
102
RTVSPropertyOp16
 70
     1
102
RTVSPropertyOp17
 70
     1
102
RTVSPropertyOp18
 70
     1
102
RTVSPropertyOp19
 70
     1
102
RTVSPropertyOp20
 70
     1
102
RTVSPropertyOp21
 70
     1
102
RTVSPropertyOp22
 70
     1
102
RTVSPropertyOp23
 70
     1
102
RTVSPropertyOp24
 70
     1
102
RTVSPropertyOp25
 70
     1
102
RTVSPropertyOp26
 70
     1
102
RTVSPropertyOp27
 70
     1
102
RTVSPropertyOp28
 70
     1
102
RTVSPropertyOp29
 70
     1
102
RTVSPropertyOp30
 70
     1
102
RTVSPropertyOp31
 70
     1
102
RTVSPropertyOp32
 70
     1
  0
XRECORD
  5
237
102
{ACAD_REACTORS
330
236
102
}
330
236
100
AcDbXrecord
280
     1
102
RTVSPropertyOp0
 70
     1
102
RTVSPropertyOp1
 70
     1
102
RTVSPropertyOp2
 70
     1
102
RTVSPropertyOp3
 70
     1
102
RTVSPropertyOp4
 70
     1
102
RTVSPropertyOp5
 70
     1
102
RTVSPropertyOp6
 70
     1
102
RTVSPropertyOp7
 70
     1
102
RTVSPropertyOp8
 70
     1
102
RTVSPropertyOp9
 70
     1
102
RTVSPropertyOp10
 70
     1
102
RTVSPropertyOp11
 70
     1
102
RTVSPropertyOp12
 70
     1
102
RTVSPropertyOp13
 70
     1
102
RTVSPropertyOp14
 70
     1
102
RTVSPropertyOp15
 70
     1
102
RTVSPropertyOp16
 70
     1
102
RTVSPropertyOp17
 70
     1
102
RTVSPropertyOp18
 70
     1
102
RTVSPropertyOp19
 70
     1
102
RTVSPropertyOp20
 70
     1
102
RTVSPropertyOp21
 70
     1
102
RTVSPropertyOp22
 70
     1
102
RTVSPropertyOp23
 70
     1
102
RTVSPropertyOp24
 70
     1
102
RTVSPropertyOp25
 70
     1
102
RTVSPropertyOp26
 70
     1
102
RTVSPropertyOp27
 70
     1
102
RTVSPropertyOp28
 70
     1
102
RTVSPropertyOp29
 70
     1
102
RTVSPropertyOp30
 70
     1
102
RTVSPropertyOp31
 70
     1
102
RTVSPropertyOp32
 70
     1
  0
XRECORD
  5
235
102
{ACAD_REACTORS
330
234
102
}
330
234
100
AcDbXrecord
280
     1
102
RTVSPropertyOp0
 70
     1
102
RTVSPropertyOp1
 70
     1
102
RTVSPropertyOp2
 70
     1
102
RTVSPropertyOp3
 70
     1
102
RTVSPropertyOp4
 70
     1
102
RTVSPropertyOp5
 70
     1
102
RTVSPropertyOp6
 70
     1
102
RTVSPropertyOp7
 70
     1
102
RTVSPropertyOp8
 70
     1
102
RTVSPropertyOp9
 70
     1
102
RTVSPropertyOp10
 70
     1
102
RTVSPropertyOp11
 70
     1
102
RTVSPropertyOp12
 70
     1
102
RTVSPropertyOp13
 70
     1
102
RTVSPropertyOp14
 70
     1
102
RTVSPropertyOp15
 70
     1
102
RTVSPropertyOp16
 70
     1
102
RTVSPropertyOp17
 70
     1
102
RTVSPropertyOp18
 70
     1
102
RTVSPropertyOp19
 70
     1
102
RTVSPropertyOp20
 70
     1
102
RTVSPropertyOp21
 70
     1
102
RTVSPropertyOp22
 70
     1
102
RTVSPropertyOp23
 70
     1
102
RTVSPropertyOp24
 70
     1
102
RTVSPropertyOp25
 70
     1
102
RTVSPropertyOp26
 70
     1
102
RTVSPropertyOp27
 70
     1
102
RTVSPropertyOp28
 70
     1
102
RTVSPropertyOp29
 70
     1
102
RTVSPropertyOp30
 70
     1
102
RTVSPropertyOp31
 70
     1
102
RTVSPropertyOp32
 70
     1
  0
XRECORD
  5
239
102
{ACAD_REACTORS
330
238
102
}
330
238
100
AcDbXrecord
280
     1
102
RTVSPropertyOp0
 70
     1
102
RTVSPropertyOp1
 70
     1
102
RTVSPropertyOp2
 70
     1
102
RTVSPropertyOp3
 70
     1
102
RTVSPropertyOp4
 70
     1
102
RTVSPropertyOp5
 70
     1
102
RTVSPropertyOp6
 70
     1
102
RTVSPropertyOp7
 70
     1
102
RTVSPropertyOp8
 70
     1
102
RTVSPropertyOp9
 70
     1
102
RTVSPropertyOp10
 70
     1
102
RTVSPropertyOp11
 70
     1
102
RTVSPropertyOp12
 70
     1
102
RTVSPropertyOp13
 70
     1
102
RTVSPropertyOp14
 70
     1
102
RTVSPropertyOp15
 70
     1
102
RTVSPropertyOp16
 70
     1
102
RTVSPropertyOp17
 70
     1
102
RTVSPropertyOp18
 70
     1
102
RTVSPropertyOp19
 70
     1
102
RTVSPropertyOp20
 70
     1
102
RTVSPropertyOp21
 70
     1
102
RTVSPropertyOp22
 70
     1
102
RTVSPropertyOp23
 70
     1
102
RTVSPropertyOp24
 70
     1
102
RTVSPropertyOp25
 70
     1
102
RTVSPropertyOp26
 70
     1
102
RTVSPropertyOp27
 70
     1
102
RTVSPropertyOp28
 70
     1
102
RTVSPropertyOp29
 70
     1
102
RTVSPropertyOp30
 70
     1
102
RTVSPropertyOp31
 70
     1
102
RTVSPropertyOp32
 70
     1
  0
XRECORD
  5
241
102
{ACAD_REACTORS
330
240
102
}
330
240
100
AcDbXrecord
280
     1
102
RTVSPropertyOp0
 70
     1
102
RTVSPropertyOp1
 70
     1
102
RTVSPropertyOp2
 70
     1
102
RTVSPropertyOp3
 70
     1
102
RTVSPropertyOp4
 70
     1
102
RTVSPropertyOp5
 70
     1
102
RTVSPropertyOp6
 70
     1
102
RTVSPropertyOp7
 70
     1
102
RTVSPropertyOp8
 70
     1
102
RTVSPropertyOp9
 70
     1
102
RTVSPropertyOp10
 70
     1
102
RTVSPropertyOp11
 70
     1
102
RTVSPropertyOp12
 70
     1
102
RTVSPropertyOp13
 70
     1
102
RTVSPropertyOp14
 70
     1
102
RTVSPropertyOp15
 70
     1
102
RTVSPropertyOp16
 70
     1
102
RTVSPropertyOp17
 70
     1
102
RTVSPropertyOp18
 70
     1
102
RTVSPropertyOp19
 70
     1
102
RTVSPropertyOp20
 70
     1
102
RTVSPropertyOp21
 70
     1
102
RTVSPropertyOp22
 70
     1
102
RTVSPropertyOp23
 70
     1
102
RTVSPropertyOp24
 70
     1
102
RTVSPropertyOp25
 70
     1
102
RTVSPropertyOp26
 70
     1
102
RTVSPropertyOp27
 70
     1
102
RTVSPropertyOp28
 70
     1
102
RTVSPropertyOp29
 70
     1
102
RTVSPropertyOp30
 70
     1
102
RTVSPropertyOp31
 70
     1
102
RTVSPropertyOp32
 70
     1
  0
XRECORD
  5
249
102
{ACAD_REACTORS
330
248
102
}
330
248
100
AcDbXrecord
280
     1
102
RTVSPropertyOp0
 70
     1
102
RTVSPropertyOp1
 70
     1
102
RTVSPropertyOp2
 70
     1
102
RTVSPropertyOp3
 70
     1
102
RTVSPropertyOp4
 70
     1
102
RTVSPropertyOp5
 70
     1
102
RTVSPropertyOp6
 70
     1
102
RTVSPropertyOp7
 70
     1
102
RTVSPropertyOp8
 70
     1
102
RTVSPropertyOp9
 70
     1
102
RTVSPropertyOp10
 70
     1
102
RTVSPropertyOp11
 70
     1
102
RTVSPropertyOp12
 70
     1
102
RTVSPropertyOp13
 70
     1
102
RTVSPropertyOp14
 70
     1
102
RTVSPropertyOp15
 70
     1
102
RTVSPropertyOp16
 70
     1
102
RTVSPropertyOp17
 70
     1
102
RTVSPropertyOp18
 70
     1
102
RTVSPropertyOp19
 70
     1
102
RTVSPropertyOp20
 70
     1
102
RTVSPropertyOp21
 70
     1
102
RTVSPropertyOp22
 70
     1
102
RTVSPropertyOp23
 70
     1
102
RTVSPropertyOp24
 70
     1
102
RTVSPropertyOp25
 70
     1
102
RTVSPropertyOp26
 70
     1
102
RTVSPropertyOp27
 70
     1
102
RTVSPropertyOp28
 70
     1
102
RTVSPropertyOp29
 70
     1
102
RTVSPropertyOp30
 70
     1
102
RTVSPropertyOp31
 70
     1
102
RTVSPropertyOp32
 70
     1
  0
XRECORD
  5
23D
102
{ACAD_REACTORS
330
23C
102
}
330
23C
100
AcDbXrecord
280
     1
102
RTVSPropertyOp0
 70
     1
102
RTVSPropertyOp1
 70
     1
102
RTVSPropertyOp2
 70
     1
102
RTVSPropertyOp3
 70
     1
102
RTVSPropertyOp4
 70
     1
102
RTVSPropertyOp5
 70
     1
102
RTVSPropertyOp6
 70
     1
102
RTVSPropertyOp7
 70
     1
102
RTVSPropertyOp8
 70
     1
102
RTVSPropertyOp9
 70
     1
102
RTVSPropertyOp10
 70
     1
102
RTVSPropertyOp11
 70
     1
102
RTVSPropertyOp12
 70
     1
102
RTVSPropertyOp13
 70
     1
102
RTVSPropertyOp14
 70
     1
102
RTVSPropertyOp15
 70
     1
102
RTVSPropertyOp16
 70
     1
102
RTVSPropertyOp17
 70
     1
102
RTVSPropertyOp18
 70
     1
102
RTVSPropertyOp19
 70
     1
102
RTVSPropertyOp20
 70
     1
102
RTVSPropertyOp21
 70
     1
102
RTVSPropertyOp22
 70
     1
102
RTVSPropertyOp23
 70
     1
102
RTVSPropertyOp24
 70
     1
102
RTVSPropertyOp25
 70
     1
102
RTVSPropertyOp26
 70
     1
102
RTVSPropertyOp27
 70
     1
102
RTVSPropertyOp28
 70
     1
102
RTVSPropertyOp29
 70
     1
102
RTVSPropertyOp30
 70
     1
102
RTVSPropertyOp31
 70
     1
102
RTVSPropertyOp32
 70
     1
  0
XRECORD
  5
23F
102
{ACAD_REACTORS
330
23E
102
}
330
23E
100
AcDbXrecord
280
     1
102
RTVSPropertyOp0
 70
     1
102
RTVSPropertyOp1
 70
     1
102
RTVSPropertyOp2
 70
     1
102
RTVSPropertyOp3
 70
     1
102
RTVSPropertyOp4
 70
     1
102
RTVSPropertyOp5
 70
     1
102
RTVSPropertyOp6
 70
     1
102
RTVSPropertyOp7
 70
     1
102
RTVSPropertyOp8
 70
     1
102
RTVSPropertyOp9
 70
     1
102
RTVSPropertyOp10
 70
     1
102
RTVSPropertyOp11
 70
     1
102
RTVSPropertyOp12
 70
     1
102
RTVSPropertyOp13
 70
     1
102
RTVSPropertyOp14
 70
     1
102
RTVSPropertyOp15
 70
     1
102
RTVSPropertyOp16
 70
     1
102
RTVSPropertyOp17
 70
     1
102
RTVSPropertyOp18
 70
     1
102
RTVSPropertyOp19
 70
     1
102
RTVSPropertyOp20
 70
     1
102
RTVSPropertyOp21
 70
     1
102
RTVSPropertyOp22
 70
     1
102
RTVSPropertyOp23
 70
     1
102
RTVSPropertyOp24
 70
     1
102
RTVSPropertyOp25
 70
     1
102
RTVSPropertyOp26
 70
     1
102
RTVSPropertyOp27
 70
     1
102
RTVSPropertyOp28
 70
     1
102
RTVSPropertyOp29
 70
     1
102
RTVSPropertyOp30
 70
     1
102
RTVSPropertyOp31
 70
     1
102
RTVSPropertyOp32
 70
     1
  0
XRECORD
  5
247
102
{ACAD_REACTORS
330
246
102
}
330
246
100
AcDbXrecord
280
     1
102
RTVSPropertyOp0
 70
     1
102
RTVSPropertyOp1
 70
     1
102
RTVSPropertyOp2
 70
     1
102
RTVSPropertyOp3
 70
     1
102
RTVSPropertyOp4
 70
     1
102
RTVSPropertyOp5
 70
     1
102
RTVSPropertyOp6
 70
     1
102
RTVSPropertyOp7
 70
     1
102
RTVSPropertyOp8
 70
     1
102
RTVSPropertyOp9
 70
     1
102
RTVSPropertyOp10
 70
     1
102
RTVSPropertyOp11
 70
     1
102
RTVSPropertyOp12
 70
     1
102
RTVSPropertyOp13
 70
     1
102
RTVSPropertyOp14
 70
     1
102
RTVSPropertyOp15
 70
     1
102
RTVSPropertyOp16
 70
     1
102
RTVSPropertyOp17
 70
     1
102
RTVSPropertyOp18
 70
     1
102
RTVSPropertyOp19
 70
     1
102
RTVSPropertyOp20
 70
     1
102
RTVSPropertyOp21
 70
     1
102
RTVSPropertyOp22
 70
     1
102
RTVSPropertyOp23
 70
     1
102
RTVSPropertyOp24
 70
     1
102
RTVSPropertyOp25
 70
     1
102
RTVSPropertyOp26
 70
     1
102
RTVSPropertyOp27
 70
     1
102
RTVSPropertyOp28
 70
     1
102
RTVSPropertyOp29
 70
     1
102
RTVSPropertyOp30
 70
     1
102
RTVSPropertyOp31
 70
     1
102
RTVSPropertyOp32
 70
     1
  0
XRECORD
  5
22B
102
{ACAD_REACTORS
330
22A
102
}
330
22A
100
AcDbXrecord
280
     1
102
RTVSPropertyOp0
 70
     1
102
RTVSPropertyOp1
 70
     1
102
RTVSPropertyOp2
 70
     1
102
RTVSPropertyOp3
 70
     1
102
RTVSPropertyOp4
 70
     1
102
RTVSPropertyOp5
 70
     1
102
RTVSPropertyOp6
 70
     1
102
RTVSPropertyOp7
 70
     1
102
RTVSPropertyOp8
 70
     1
102
RTVSPropertyOp9
 70
     1
102
RTVSPropertyOp10
 70
     1
102
RTVSPropertyOp11
 70
     1
102
RTVSPropertyOp12
 70
     1
102
RTVSPropertyOp13
 70
     1
102
RTVSPropertyOp14
 70
     1
102
RTVSPropertyOp15
 70
     1
102
RTVSPropertyOp16
 70
     1
102
RTVSPropertyOp17
 70
     1
102
RTVSPropertyOp18
 70
     1
102
RTVSPropertyOp19
 70
     1
102
RTVSPropertyOp20
 70
     1
102
RTVSPropertyOp21
 70
     1
102
RTVSPropertyOp22
 70
     1
102
RTVSPropertyOp23
 70
     1
102
RTVSPropertyOp24
 70
     1
102
RTVSPropertyOp25
 70
     1
102
RTVSPropertyOp26
 70
     1
102
RTVSPropertyOp27
 70
     1
102
RTVSPropertyOp28
 70
     1
102
RTVSPropertyOp29
 70
     1
102
RTVSPropertyOp30
 70
     1
102
RTVSPropertyOp31
 70
     1
102
RTVSPropertyOp32
 70
     1
  0
XRECORD
  5
22D
102
{ACAD_REACTORS
330
22C
102
}
330
22C
100
AcDbXrecord
280
     1
102
RTVSPropertyOp0
 70
     1
102
RTVSPropertyOp1
 70
     1
102
RTVSPropertyOp2
 70
     1
102
RTVSPropertyOp3
 70
     1
102
RTVSPropertyOp4
 70
     1
102
RTVSPropertyOp5
 70
     1
102
RTVSPropertyOp6
 70
     1
102
RTVSPropertyOp7
 70
     1
102
RTVSPropertyOp8
 70
     1
102
RTVSPropertyOp9
 70
     1
102
RTVSPropertyOp10
 70
     1
102
RTVSPropertyOp11
 70
     1
102
RTVSPropertyOp12
 70
     1
102
RTVSPropertyOp13
 70
     1
102
RTVSPropertyOp14
 70
     1
102
RTVSPropertyOp15
 70
     1
102
RTVSPropertyOp16
 70
     1
102
RTVSPropertyOp17
 70
     1
102
RTVSPropertyOp18
 70
     1
102
RTVSPropertyOp19
 70
     1
102
RTVSPropertyOp20
 70
     1
102
RTVSPropertyOp21
 70
     1
102
RTVSPropertyOp22
 70
     1
102
RTVSPropertyOp23
 70
     1
102
RTVSPropertyOp24
 70
     1
102
RTVSPropertyOp25
 70
     1
102
RTVSPropertyOp26
 70
     1
102
RTVSPropertyOp27
 70
     1
102
RTVSPropertyOp28
 70
     1
102
RTVSPropertyOp29
 70
     1
102
RTVSPropertyOp30
 70
     1
102
RTVSPropertyOp31
 70
     1
102
RTVSPropertyOp32
 70
     1
  0
XRECORD
  5
22F
102
{ACAD_REACTORS
330
22E
102
}
330
22E
100
AcDbXrecord
280
     1
102
RTVSPropertyOp0
 70
     1
102
RTVSPropertyOp1
 70
     1
102
RTVSPropertyOp2
 70
     1
102
RTVSPropertyOp3
 70
     1
102
RTVSPropertyOp4
 70
     1
102
RTVSPropertyOp5
 70
     1
102
RTVSPropertyOp6
 70
     1
102
RTVSPropertyOp7
 70
     1
102
RTVSPropertyOp8
 70
     1
102
RTVSPropertyOp9
 70
     1
102
RTVSPropertyOp10
 70
     1
102
RTVSPropertyOp11
 70
     1
102
RTVSPropertyOp12
 70
     1
102
RTVSPropertyOp13
 70
     1
102
RTVSPropertyOp14
 70
     1
102
RTVSPropertyOp15
 70
     1
102
RTVSPropertyOp16
 70
     1
102
RTVSPropertyOp17
 70
     1
102
RTVSPropertyOp18
 70
     1
102
RTVSPropertyOp19
 70
     1
102
RTVSPropertyOp20
 70
     1
102
RTVSPropertyOp21
 70
     1
102
RTVSPropertyOp22
 70
     1
102
RTVSPropertyOp23
 70
     1
102
RTVSPropertyOp24
 70
     1
102
RTVSPropertyOp25
 70
     1
102
RTVSPropertyOp26
 70
     1
102
RTVSPropertyOp27
 70
     1
102
RTVSPropertyOp28
 70
     1
102
RTVSPropertyOp29
 70
     1
102
RTVSPropertyOp30
 70
     1
102
RTVSPropertyOp31
 70
     1
102
RTVSPropertyOp32
 70
     1
  0
XRECORD
  5
231
102
{ACAD_REACTORS
330
230
102
}
330
230
100
AcDbXrecord
280
     1
102
RTVSPropertyOp0
 70
     1
102
RTVSPropertyOp1
 70
     1
102
RTVSPropertyOp2
 70
     1
102
RTVSPropertyOp3
 70
     1
102
RTVSPropertyOp4
 70
     1
102
RTVSPropertyOp5
 70
     1
102
RTVSPropertyOp6
 70
     1
102
RTVSPropertyOp7
 70
     1
102
RTVSPropertyOp8
 70
     1
102
RTVSPropertyOp9
 70
     1
102
RTVSPropertyOp10
 70
     1
102
RTVSPropertyOp11
 70
     1
102
RTVSPropertyOp12
 70
     1
102
RTVSPropertyOp13
 70
     1
102
RTVSPropertyOp14
 70
     1
102
RTVSPropertyOp15
 70
     1
102
RTVSPropertyOp16
 70
     1
102
RTVSPropertyOp17
 70
     1
102
RTVSPropertyOp18
 70
     1
102
RTVSPropertyOp19
 70
     1
102
RTVSPropertyOp20
 70
     1
102
RTVSPropertyOp21
 70
     1
102
RTVSPropertyOp22
 70
     1
102
RTVSPropertyOp23
 70
     1
102
RTVSPropertyOp24
 70
     1
102
RTVSPropertyOp25
 70
     1
102
RTVSPropertyOp26
 70
     1
102
RTVSPropertyOp27
 70
     1
102
RTVSPropertyOp28
 70
     1
102
RTVSPropertyOp29
 70
     1
102
RTVSPropertyOp30
 70
     1
102
RTVSPropertyOp31
 70
     1
102
RTVSPropertyOp32
 70
     1
  0
XRECORD
  5
245
102
{ACAD_REACTORS
330
244
102
}
330
244
100
AcDbXrecord
280
     1
102
RTVSPropertyOp0
 70
     1
102
RTVSPropertyOp1
 70
     1
102
RTVSPropertyOp2
 70
     1
102
RTVSPropertyOp3
 70
     1
102
RTVSPropertyOp4
 70
     1
102
RTVSPropertyOp5
 70
     1
102
RTVSPropertyOp6
 70
     1
102
RTVSPropertyOp7
 70
     1
102
RTVSPropertyOp8
 70
     1
102
RTVSPropertyOp9
 70
     1
102
RTVSPropertyOp10
 70
     1
102
RTVSPropertyOp11
 70
     1
102
RTVSPropertyOp12
 70
     1
102
RTVSPropertyOp13
 70
     1
102
RTVSPropertyOp14
 70
     1
102
RTVSPropertyOp15
 70
     1
102
RTVSPropertyOp16
 70
     1
102
RTVSPropertyOp17
 70
     1
102
RTVSPropertyOp18
 70
     1
102
RTVSPropertyOp19
 70
     1
102
RTVSPropertyOp20
 70
     1
102
RTVSPropertyOp21
 70
     1
102
RTVSPropertyOp22
 70
     1
102
RTVSPropertyOp23
 70
     1
102
RTVSPropertyOp24
 70
     1
102
RTVSPropertyOp25
 70
     1
102
RTVSPropertyOp26
 70
     1
102
RTVSPropertyOp27
 70
     1
102
RTVSPropertyOp28
 70
     1
102
RTVSPropertyOp29
 70
     1
102
RTVSPropertyOp30
 70
     1
102
RTVSPropertyOp31
 70
     1
102
RTVSPropertyOp32
 70
     1
  0
XRECORD
  5
23B
102
{ACAD_REACTORS
330
23A
102
}
330
23A
100
AcDbXrecord
280
     1
102
RTVSPropertyOp0
 70
     1
102
RTVSPropertyOp1
 70
     1
102
RTVSPropertyOp2
 70
     1
102
RTVSPropertyOp3
 70
     1
102
RTVSPropertyOp4
 70
     1
102
RTVSPropertyOp5
 70
     1
102
RTVSPropertyOp6
 70
     1
102
RTVSPropertyOp7
 70
     1
102
RTVSPropertyOp8
 70
     1
102
RTVSPropertyOp9
 70
     1
102
RTVSPropertyOp10
 70
     1
102
RTVSPropertyOp11
 70
     1
102
RTVSPropertyOp12
 70
     1
102
RTVSPropertyOp13
 70
     1
102
RTVSPropertyOp14
 70
     1
102
RTVSPropertyOp15
 70
     1
102
RTVSPropertyOp16
 70
     1
102
RTVSPropertyOp17
 70
     1
102
RTVSPropertyOp18
 70
     1
102
RTVSPropertyOp19
 70
     1
102
RTVSPropertyOp20
 70
     1
102
RTVSPropertyOp21
 70
     1
102
RTVSPropertyOp22
 70
     1
102
RTVSPropertyOp23
 70
     1
102
RTVSPropertyOp24
 70
     1
102
RTVSPropertyOp25
 70
     1
102
RTVSPropertyOp26
 70
     1
102
RTVSPropertyOp27
 70
     1
102
RTVSPropertyOp28
 70
     1
102
RTVSPropertyOp29
 70
     1
102
RTVSPropertyOp30
 70
     1
102
RTVSPropertyOp31
 70
     1
102
RTVSPropertyOp32
 70
     1
  0
XRECORD
  5
243
102
{ACAD_REACTORS
330
242
102
}
330
242
100
AcDbXrecord
280
     1
102
RTVSPropertyOp0
 70
     1
102
RTVSPropertyOp1
 70
     1
102
RTVSPropertyOp2
 70
     1
102
RTVSPropertyOp3
 70
     1
102
RTVSPropertyOp4
 70
     1
102
RTVSPropertyOp5
 70
     1
102
RTVSPropertyOp6
 70
     1
102
RTVSPropertyOp7
 70
     1
102
RTVSPropertyOp8
 70
     1
102
RTVSPropertyOp9
 70
     1
102
RTVSPropertyOp10
 70
     1
102
RTVSPropertyOp11
 70
     1
102
RTVSPropertyOp12
 70
     1
102
RTVSPropertyOp13
 70
     1
102
RTVSPropertyOp14
 70
     1
102
RTVSPropertyOp15
 70
     1
102
RTVSPropertyOp16
 70
     1
102
RTVSPropertyOp17
 70
     1
102
RTVSPropertyOp18
 70
     1
102
RTVSPropertyOp19
 70
     1
102
RTVSPropertyOp20
 70
     1
102
RTVSPropertyOp21
 70
     1
102
RTVSPropertyOp22
 70
     1
102
RTVSPropertyOp23
 70
     1
102
RTVSPropertyOp24
 70
     1
102
RTVSPropertyOp25
 70
     1
102
RTVSPropertyOp26
 70
     1
102
RTVSPropertyOp27
 70
     1
102
RTVSPropertyOp28
 70
     1
102
RTVSPropertyOp29
 70
     1
102
RTVSPropertyOp30
 70
     1
102
RTVSPropertyOp31
 70
     1
102
RTVSPropertyOp32
 70
     1
  0
ENDSEC
  0
EOF
