  0
SECTION
  2
HEADER
  9
$ACADVER
  1
AC1015
  9
$ACADMAINTVER
 70
     6
  9
$DWGCODEPAGE
  3
ANSI_932
  9
$INSBASE
 10
0.0
 20
0.0
 30
0.0
  9
$EXTMIN
 10
0.0
 20
0.0
 30
0.0
  9
$EXTMAX
 10
630.0000630000063
 20
891.000089100009
 30
0.0
  9
$LIMMIN
 10
0.0
 20
0.0
  9
$LIMMAX
 10
12.0
 20
9.0
  9
$ORTHOMODE
 70
     0
  9
$REGENMODE
 70
     1
  9
$FILLMODE
 70
     1
  9
$QTEXTMODE
 70
     0
  9
$MIRRTEXT
 70
     1
  9
$LTSCALE
 40
1.0
  9
$ATTMODE
 70
     1
  9
$TEXTSIZE
 40
0.2
  9
$TRACEWID
 40
0.05
  9
$TEXTSTYLE
  7
Standard
  9
$CLAYER
  8
0
  9
$CELTYPE
  6
ByLayer
  9
$CECOLOR
 62
   256
  9
$CELTSCALE
 40
1.0
  9
$DISPSILH
 70
     0
  9
$DIMSCALE
 40
1.0
  9
$DIMASZ
 40
0.18
  9
$DIMEXO
 40
0.0625
  9
$DIMDLI
 40
0.38
  9
$DIMRND
 40
0.0
  9
$DIMDLE
 40
0.0
  9
$DIMEXE
 40
0.18
  9
$DIMTP
 40
0.0
  9
$DIMTM
 40
0.0
  9
$DIMTXT
 40
0.18
  9
$DIMCEN
 40
0.09
  9
$DIMTSZ
 40
0.0
  9
$DIMTOL
 70
     0
  9
$DIMLIM
 70
     0
  9
$DIMTIH
 70
     1
  9
$DIMTOH
 70
     1
  9
$DIMSE1
 70
     0
  9
$DIMSE2
 70
     0
  9
$DIMTAD
 70
     0
  9
$DIMZIN
 70
     0
  9
$DIMBLK
  1

  9
$DIMASO
 70
     1
  9
$DIMSHO
 70
     1
  9
$DIMPOST
  1

  9
$DIMAPOST
  1

  9
$DIMALT
 70
     0
  9
$DIMALTD
 70
     2
  9
$DIMALTF
 40
25.4
  9
$DIMLFAC
 40
1.0
  9
$DIMTOFL
 70
     0
  9
$DIMTVP
 40
0.0
  9
$DIMTIX
 70
     0
  9
$DIMSOXD
 70
     0
  9
$DIMSAH
 70
     0
  9
$DIMBLK1
  1

  9
$DIMBLK2
  1

  9
$DIMSTYLE
  2
Standard
  9
$DIMCLRD
 70
     0
  9
$DIMCLRE
 70
     0
  9
$DIMCLRT
 70
     0
  9
$DIMTFAC
 40
1.0
  9
$DIMGAP
 40
0.09
  9
$DIMJUST
 70
     0
  9
$DIMSD1
 70
     0
  9
$DIMSD2
 70
     0
  9
$DIMTOLJ
 70
     1
  9
$DIMTZIN
 70
     0
  9
$DIMALTZ
 70
     0
  9
$DIMALTTZ
 70
     0
  9
$DIMUPT
 70
     0
  9
$DIMDEC
 70
     4
  9
$DIMTDEC
 70
     4
  9
$DIMALTU
 70
     2
  9
$DIMALTTD
 70
     2
  9
$DIMTXSTY
  7
Standard
  9
$DIMAUNIT
 70
     0
  9
$DIMADEC
 70
     0
  9
$DIMALTRND
 40
0.0
  9
$DIMAZIN
 70
     0
  9
$DIMDSEP
 70
    46
  9
$DIMATFIT
 70
     3
  9
$DIMFRAC
 70
     0
  9
$DIMLDRBLK
  1

  9
$DIMLUNIT
 70
     2
  9
$DIMLWD
 70
    -2
  9
$DIMLWE
 70
    -2
  9
$DIMTMOVE
 70
     0
  9
$LUNITS
 70
     2
  9
$LUPREC
 70
     4
  9
$SKETCHINC
 40
0.1
  9
$FILLETRAD
 40
0.5
  9
$AUNITS
 70
     0
  9
$AUPREC
 70
     0
  9
$MENU
  1
.
  9
$ELEVATION
 40
0.0
  9
$PELEVATION
 40
0.0
  9
$THICKNESS
 40
0.0
  9
$LIMCHECK
 70
     0
  9
$CHAMFERA
 40
0.5
  9
$CHAMFERB
 40
0.5
  9
$CHAMFERC
 40
1.0
  9
$CHAMFERD
 40
0.0
  9
$SKPOLY
 70
     0
  9
$TDCREATE
 40
2457186.568501794
  9
$TDUCREATE
 40
2457186.193501794
  9
$TDUPDATE
 40
2457186.568502697
  9
$TDUUPDATE
 40
2457186.193502697
  9
$TDINDWG
 40
0.0000000116
  9
$TDUSRTIMER
 40
0.0000000116
  9
$USRTIMER
 70
     1
  9
$ANGBASE
 50
0.0
  9
$ANGDIR
 70
     0
  9
$PDMODE
 70
     0
  9
$PDSIZE
 40
0.0
  9
$PLINEWID
 40
0.0
  9
$SPLFRAME
 70
     0
  9
$SPLINETYPE
 70
     6
  9
$SPLINESEGS
 70
     8
  9
$HANDSEED
  5
241
  9
$SURFTAB1
 70
     6
  9
$SURFTAB2
 70
     6
  9
$SURFTYPE
 70
     6
  9
$SURFU
 70
     6
  9
$SURFV
 70
     6
  9
$UCSBASE
  2

  9
$UCSNAME
  2

  9
$UCSORG
 10
0.0
 20
0.0
 30
0.0
  9
$UCSXDIR
 10
1.0
 20
0.0
 30
0.0
  9
$UCSYDIR
 10
0.0
 20
1.0
 30
0.0
  9
$UCSORTHOREF
  2

  9
$UCSORTHOVIEW
 70
     0
  9
$UCSORGTOP
 10
0.0
 20
0.0
 30
0.0
  9
$UCSORGBOTTOM
 10
0.0
 20
0.0
 30
0.0
  9
$UCSORGLEFT
 10
0.0
 20
0.0
 30
0.0
  9
$UCSORGRIGHT
 10
0.0
 20
0.0
 30
0.0
  9
$UCSORGFRONT
 10
0.0
 20
0.0
 30
0.0
  9
$UCSORGBACK
 10
0.0
 20
0.0
 30
0.0
  9
$PUCSBASE
  2

  9
$PUCSNAME
  2

  9
$PUCSORG
 10
0.0
 20
0.0
 30
0.0
  9
$PUCSXDIR
 10
1.0
 20
0.0
 30
0.0
  9
$PUCSYDIR
 10
0.0
 20
1.0
 30
0.0
  9
$PUCSORTHOREF
  2

  9
$PUCSORTHOVIEW
 70
     0
  9
$PUCSORGTOP
 10
0.0
 20
0.0
 30
0.0
  9
$PUCSORGBOTTOM
 10
0.0
 20
0.0
 30
0.0
  9
$PUCSORGLEFT
 10
0.0
 20
0.0
 30
0.0
  9
$PUCSORGRIGHT
 10
0.0
 20
0.0
 30
0.0
  9
$PUCSORGFRONT
 10
0.0
 20
0.0
 30
0.0
  9
$PUCSORGBACK
 10
0.0
 20
0.0
 30
0.0
  9
$USERI1
 70
     0
  9
$USERI2
 70
     0
  9
$USERI3
 70
     0
  9
$USERI4
 70
     0
  9
$USERI5
 70
     0
  9
$USERR1
 40
18.1
  9
$USERR2
 40
0.0
  9
$USERR3
 40
0.0
  9
$USERR4
 40
0.0
  9
$USERR5
 40
0.0
  9
$WORLDVIEW
 70
     1
  9
$SHADEDGE
 70
     3
  9
$SHADEDIF
 70
    70
  9
$TILEMODE
 70
     1
  9
$MAXACTVP
 70
    64
  9
$PINSBASE
 10
0.0
 20
0.0
 30
0.0
  9
$PLIMCHECK
 70
     0
  9
$PEXTMIN
 10
1.00000000000000E+20
 20
1.00000000000000E+20
 30
1.00000000000000E+20
  9
$PEXTMAX
 10
-1.00000000000000E+20
 20
-1.00000000000000E+20
 30
-1.00000000000000E+20
  9
$PLIMMIN
 10
0.0
 20
0.0
  9
$PLIMMAX
 10
12.0
 20
9.0
  9
$UNITMODE
 70
     0
  9
$VISRETAIN
 70
     1
  9
$PLINEGEN
 70
     0
  9
$PSLTSCALE
 70
     1
  9
$TREEDEPTH
 70
  3020
  9
$CMLSTYLE
  2
Standard
  9
$CMLJUST
 70
     0
  9
$CMLSCALE
 40
1.0
  9
$PROXYGRAPHICS
 70
     1
  9
$MEASUREMENT
 70
     1
  9
$CELWEIGHT
370
    -1
  9
$ENDCAPS
280
     0
  9
$JOINSTYLE
280
     0
  9
$LWDISPLAY
290
     0
  9
$INSUNITS
 70
     4
  9
$HYPERLINKBASE
  1

  9
$STYLESHEET
  1

  9
$XEDIT
290
     1
  9
$CEPSNTYPE
380
     0
  9
$PSTYLEMODE
290
     1
  9
$FINGERPRINTGUID
  2
{0A7E91EC-5438-4B84-9873-95191BB06FA6}
  9
$VERSIONGUID
  2
{FAEB1C32-E019-11D5-929B-00C0DF256EC4}
  9
$EXTNAMES
290
     1
  9
$PSVPSCALE
 40
0.0
  9
$OLESTARTUP
290
     0
  0
ENDSEC
  0
SECTION
  2
CLASSES
  0
CLASS
  1
ACDBDICTIONARYWDFLT
  2
AcDbDictionaryWithDefault
  3
ObjectDBX Classes
 90
        0
280
     0
281
     0
  0
CLASS
  1
VISUALSTYLE
  2
AcDbVisualStyle
  3
ObjectDBX Classes
 90
     4095
280
     0
281
     0
  0
CLASS
  1
MATERIAL
  2
AcDbMaterial
  3
ObjectDBX Classes
 90
     1153
280
     0
281
     0
  0
CLASS
  1
DICTIONARYVAR
  2
AcDbDictionaryVar
  3
ObjectDBX Classes
 90
        0
280
     0
281
     0
  0
CLASS
  1
ACDBPLACEHOLDER
  2
AcDbPlaceHolder
  3
ObjectDBX Classes
 90
        0
280
     0
281
     0
  0
CLASS
  1
LAYOUT
  2
AcDbLayout
  3
ObjectDBX Classes
 90
        0
280
     0
281
     0
  0
ENDSEC
  0
SECTION
  2
TABLES
  0
TABLE
  2
VPORT
  5
8
330
0
100
AcDbSymbolTable
 70
     1
  0
VPORT
  5
29
330
8
100
AcDbSymbolTableRecord
100
AcDbViewportTableRecord
  2
*Active
 70
     0
 10
0.0
 20
0.0
 11
1.0
 21
1.0
 12
315.0000315000032
 22
445.5000445500045
 13
0.0
 23
0.0
 14
0.5
 24
0.5
 15
0.5
 25
0.5
 16
0.0
 26
0.0
 36
1.0
 17
0.0
 27
0.0
 37
0.0
 40
980.1000980100099
 41
1.60267857142857
 42
50.0
 43
0.0
 44
0.0
 50
0.0
 51
0.0
 71
     0
 72
   100
 73
     1
 74
     3
 75
     0
 76
     0
 77
     0
 78
     0
281
     0
 65
     1
110
0.0
120
0.0
130
0.0
111
1.0
121
0.0
131
0.0
112
0.0
122
1.0
132
0.0
 79
     0
146
0.0
  0
ENDTAB
  0
TABLE
  2
LTYPE
  5
5
330
0
100
AcDbSymbolTable
 70
     8
  0
LTYPE
  5
14
330
5
100
AcDbSymbolTableRecord
100
AcDbLinetypeTableRecord
  2
ByBlock
 70
     0
  3

 72
    65
 73
     0
 40
0.0
  0
LTYPE
  5
15
330
5
100
AcDbSymbolTableRecord
100
AcDbLinetypeTableRecord
  2
ByLayer
 70
     0
  3

 72
    65
 73
     0
 40
0.0
  0
LTYPE
  5
16
330
5
100
AcDbSymbolTableRecord
100
AcDbLinetypeTableRecord
  2
Continuous
 70
     0
  3
Solid line
 72
    65
 73
     0
 40
0.0
  0
LTYPE
  5
3F
330
5
100
AcDbSymbolTableRecord
100
AcDbLinetypeTableRecord
  2
DASHED
 70
     0
  3
Dashed
 72
    65
 73
     2
 40
15.0
 49
7.0
 74
     0
 49
-8.0
 74
     0
  0
LTYPE
  5
40
330
5
100
AcDbSymbolTableRecord
100
AcDbLinetypeTableRecord
  2
DOTTED
 70
     0
  3
Dotted
 72
    65
 73
     2
 40
1.0
 49
0.0
 74
     0
 49
-1.0
 74
     0
  0
LTYPE
  5
41
330
5
100
AcDbSymbolTableRecord
100
AcDbLinetypeTableRecord
  2
DOT_CENTER
 70
     0
  3
Dot_Center
 72
    65
 73
     4
 40
14.0
 49
12.0
 74
     0
 49
-1.0
 74
     0
 49
0.0
 74
     0
 49
-1.0
 74
     0
  0
LTYPE
  5
42
330
5
100
AcDbSymbolTableRecord
100
AcDbLinetypeTableRecord
  2
LONG_DASHED
 70
     0
  3
Long_Dashed
 72
    65
 73
     2
 40
15.0
 49
10.0
 74
     0
 49
-5.0
 74
     0
  0
LTYPE
  5
43
330
5
100
AcDbSymbolTableRecord
100
AcDbLinetypeTableRecord
  2
DASH_CENTER
 70
     0
  3
Dash_Center
 72
    65
 73
     4
 40
14.0
 49
11.0
 74
     0
 49
-1.0
 74
     0
 49
1.0
 74
     0
 49
-1.0
 74
     0
  0
LTYPE
  5
44
330
5
100
AcDbSymbolTableRecord
100
AcDbLinetypeTableRecord
  2
PHANTOM
 70
     0
  3
Phantom
 72
    65
 73
     6
 40
13.0
 49
10.0
 74
     0
 49
-1.0
 74
     0
 49
0.0
 74
     0
 49
-1.0
 74
     0
 49
0.0
 74
     0
 49
-1.0
 74
     0
  0
LTYPE
  5
45
330
5
100
AcDbSymbolTableRecord
100
AcDbLinetypeTableRecord
  2
CENTER_DASH_DASH
 70
     0
  3
Center_Dash_Dash
 72
    65
 73
     6
 40
14.0
 49
9.0
 74
     0
 49
-1.0
 74
     0
 49
1.0
 74
     0
 49
-1.0
 74
     0
 49
1.0
 74
     0
 49
-1.0
 74
     0
  0
ENDTAB
  0
TABLE
  2
LAYER
  5
2
330
0
100
AcDbSymbolTable
 70
     2
  0
LAYER
  5
10
330
2
100
AcDbSymbolTableRecord
100
AcDbLayerTableRecord
  2
0
 70
     0
 62
     7
  6
Continuous
370
    -3
390
F
  0
LAYER
  5
46
330
2
100
AcDbSymbolTableRecord
100
AcDbLayerTableRecord
  2
1
 70
     0
 62
     7
  6
Continuous
370
    -3
390
F
  0
ENDTAB
  0
TABLE
  2
STYLE
  5
3
330
0
100
AcDbSymbolTable
 70
     3
  0
STYLE
  5
11
330
3
100
AcDbSymbolTableRecord
100
AcDbTextStyleTableRecord
  2
Standard
 70
     0
 40
0.0
 41
1.0
 50
0.0
 71
     0
 42
0.2
  3
txt
  4

  0
STYLE
  5
A6
330
3
100
AcDbSymbolTableRecord
100
AcDbTextStyleTableRecord
  2
CONVERTER_11
 70
     0
 40
0.0
 41
0.89
 50
0.0
 71
     0
 42
0.2
  3
MS Mincho.ttf
  4

1001
ACAD
1000
MS Mincho
1071
    32785
  0
STYLE
  5
1BD
330
3
100
AcDbSymbolTableRecord
100
AcDbTextStyleTableRecord
  2
CONVERTER_12
 70
     0
 40
0.0
 41
0.9
 50
0.0
 71
     0
 42
0.2
  3
txt.shx
  4

  0
ENDTAB
  0
TABLE
  2
VIEW
  5
6
330
0
100
AcDbSymbolTable
 70
     0
  0
ENDTAB
  0
TABLE
  2
UCS
  5
7
330
0
100
AcDbSymbolTable
 70
     0
  0
ENDTAB
  0
TABLE
  2
APPID
  5
9
330
0
100
AcDbSymbolTable
 70
     1
  0
APPID
  5
12
330
9
100
AcDbSymbolTableRecord
100
AcDbRegAppTableRecord
  2
ACAD
 70
     0
  0
ENDTAB
  0
TABLE
  2
DIMSTYLE
  5
A
330
0
100
AcDbSymbolTable
 70
     8
100
AcDbDimStyleTable
  0
DIMSTYLE
105
27
330
A
100
AcDbSymbolTableRecord
100
AcDbDimStyleTableRecord
  2
Standard
 70
     0
178
     0
340
11
  0
DIMSTYLE
105
1CF
102
{ACAD_REACTORS
330
1D0
102
}
330
A
100
AcDbSymbolTableRecord
100
AcDbDimStyleTableRecord
  2
ME10_DIM_10
 70
     0
 41
10.50000105000011
 42
0.0
 44
3.00000030000003
 73
     0
 74
     0
 77
     1
 78
     8
140
10.50000105000011
147
3.00000030000003
172
     1
173
     1
174
     1
175
     1
176
     2
177
     2
271
     2
178
     7
271
     2
340
1BD
  0
DIMSTYLE
105
1DA
102
{ACAD_REACTORS
330
1DB
102
}
330
A
100
AcDbSymbolTableRecord
100
AcDbDimStyleTableRecord
  2
ME10_DIM_11
 70
     0
  3
{\Fgdt;n}<>
 41
10.50000105000011
 42
0.0
 44
3.00000030000003
 73
     0
 74
     0
 77
     1
 78
     8
140
10.50000105000011
147
3.00000030000003
172
     1
173
     1
174
     1
175
     1
176
     2
177
     2
271
     2
178
     7
271
     2
340
1BD
  0
DIMSTYLE
105
1E5
102
{ACAD_REACTORS
330
1E6
102
}
330
A
100
AcDbSymbolTableRecord
100
AcDbDimStyleTableRecord
  2
ME10_DIM_12
 70
     0
 41
10.50000105000011
 42
0.0
 44
3.00000030000003
 73
     0
 74
     0
 77
     1
 78
     8
140
10.50000105000011
147
3.00000030000003
172
     1
173
     1
174
     1
175
     1
176
     2
177
     2
271
     2
178
     7
271
     2
340
1BD
  0
DIMSTYLE
105
1F0
102
{ACAD_REACTORS
330
1F1
102
}
330
A
100
AcDbSymbolTableRecord
100
AcDbDimStyleTableRecord
  2
ME10_DIM_13
 70
     0
 41
10.50000105000011
 42
0.0
 44
3.00000030000003
 73
     0
 74
     0
 77
     1
 78
     8
140
10.50000105000011
147
3.00000030000003
172
     1
173
     1
174
     1
175
     1
176
     2
177
     2
271
     2
178
     7
271
     2
340
1BD
  0
DIMSTYLE
105
1FB
102
{ACAD_REACTORS
330
1FC
102
}
330
A
100
AcDbSymbolTableRecord
100
AcDbDimStyleTableRecord
  2
ME10_DIM_14
 70
     0
 41
10.50000105000011
 42
0.0
 44
3.00000030000003
 73
     0
 74
     0
 77
     1
 78
     8
140
10.50000105000011
147
3.00000030000003
172
     1
173
     1
174
     1
175
     1
176
     2
177
     2
271
     2
178
     7
271
     2
340
1BD
  0
DIMSTYLE
105
206
102
{ACAD_REACTORS
330
207
102
}
330
A
100
AcDbSymbolTableRecord
100
AcDbDimStyleTableRecord
  2
ME10_DIM_15
 70
     0
 41
10.50000105000011
 42
0.0
 44
3.00000030000003
 73
     0
 74
     0
 77
     1
 78
     8
140
10.50000105000011
147
3.00000030000003
172
     1
173
     1
174
     1
175
     1
176
     2
177
     2
271
     2
178
     7
271
     2
340
1BD
  0
DIMSTYLE
105
214
102
{ACAD_REACTORS
330
215
102
}
330
A
100
AcDbSymbolTableRecord
100
AcDbDimStyleTableRecord
  2
ME10_DIM_16
 70
     0
 41
9.00000090000009
 42
0.0
 44
3.00000030000003
 73
     0
 74
     0
 77
     1
 78
     8
140
10.50000105000011
147
3.00000030000003
172
     1
173
     1
174
     1
175
     1
176
     2
177
     2
271
     2
178
     7
271
     2
340
1BD
343
211
  0
ENDTAB
  0
TABLE
  2
BLOCK_RECORD
  5
1
330
0
100
AcDbSymbolTable
 70
    14
  0
BLOCK_RECORD
  5
1F
330
1
100
AcDbSymbolTableRecord
100
AcDbBlockTableRecord
  2
*Model_Space
340
22
  0
BLOCK_RECORD
  5
1B
330
1
100
AcDbSymbolTableRecord
100
AcDbBlockTableRecord
  2
*Paper_Space
340
1E
  0
BLOCK_RECORD
  5
23
330
1
100
AcDbSymbolTableRecord
100
AcDbBlockTableRecord
  2
*Paper_Space0
340
26
  0
BLOCK_RECORD
  5
47
330
1
100
AcDbSymbolTableRecord
100
AcDbBlockTableRecord
  2
開示A4
340
0
102
{BLKREFS
331
56
102
}
  0
BLOCK_RECORD
  5
4A
330
1
100
AcDbSymbolTableRecord
100
AcDbBlockTableRecord
  2
A20J-60-16-240_300_
340
0
102
{BLKREFS
331
57
102
}
  0
BLOCK_RECORD
  5
4D
330
1
100
AcDbSymbolTableRecord
100
AcDbBlockTableRecord
  2
A205-0
340
0
102
{BLKREFS
331
58
102
}
  0
BLOCK_RECORD
  5
50
330
1
100
AcDbSymbolTableRecord
100
AcDbBlockTableRecord
  2
81-100X-M21
340
0
102
{BLKREFS
331
59
102
}
  0
BLOCK_RECORD
  5
53
330
1
100
AcDbSymbolTableRecord
100
AcDbBlockTableRecord
  2
32-1-16
340
0
102
{BLKREFS
331
5A
102
}
  0
BLOCK_RECORD
  5
1C6
330
1
100
AcDbSymbolTableRecord
100
AcDbBlockTableRecord
  2
*D6
340
0
  0
BLOCK_RECORD
  5
1D1
330
1
100
AcDbSymbolTableRecord
100
AcDbBlockTableRecord
  2
*D7
340
0
  0
BLOCK_RECORD
  5
1DC
330
1
100
AcDbSymbolTableRecord
100
AcDbBlockTableRecord
  2
*D8
340
0
  0
BLOCK_RECORD
  5
1E7
330
1
100
AcDbSymbolTableRecord
100
AcDbBlockTableRecord
  2
*D9
340
0
  0
BLOCK_RECORD
  5
1F2
330
1
100
AcDbSymbolTableRecord
100
AcDbBlockTableRecord
  2
*D10
340
0
  0
BLOCK_RECORD
  5
1FD
330
1
100
AcDbSymbolTableRecord
100
AcDbBlockTableRecord
  2
*D11
340
0
  0
BLOCK_RECORD
  5
208
330
1
100
AcDbSymbolTableRecord
100
AcDbBlockTableRecord
  2
*D12
340
0
  0
BLOCK_RECORD
  5
211
330
1
100
AcDbSymbolTableRecord
100
AcDbBlockTableRecord
  2
_NONE
340
0
  0
ENDTAB
  0
ENDSEC
  0
SECTION
  2
BLOCKS
  0
BLOCK
  5
20
330
1F
100
AcDbEntity
  8
0
100
AcDbBlockBegin
  2
*Model_Space
 70
     0
 10
0.0
 20
0.0
 30
0.0
  3
*Model_Space
  1

  0
ENDBLK
  5
21
330
1F
100
AcDbEntity
  8
0
100
AcDbBlockEnd
  0
BLOCK
  5
1C
330
1B
100
AcDbEntity
 67
     1
  8
0
100
AcDbBlockBegin
  2
*Paper_Space
 70
     0
 10
0.0
 20
0.0
 30
0.0
  3
*Paper_Space
  1

  0
ENDBLK
  5
1D
330
1B
100
AcDbEntity
 67
     1
  8
0
100
AcDbBlockEnd
  0
BLOCK
  5
24
330
23
100
AcDbEntity
  8
0
100
AcDbBlockBegin
  2
*Paper_Space0
 70
     0
 10
0.0
 20
0.0
 30
0.0
  3
*Paper_Space0
  1

  0
ENDBLK
  5
25
330
23
100
AcDbEntity
  8
0
100
AcDbBlockEnd
  0
BLOCK
  5
48
330
47
100
AcDbEntity
  8
0
100
AcDbBlockBegin
  2
開示A4
 70
     0
 10
0.0
 20
0.0
 30
0.0
  3
開示A4
  1

  0
POINT
  5
5B
330
47
100
AcDbEntity
  8
1
 62
     4
100
AcDbPoint
 10
34.0
 20
34.00000000000001
 30
0.0
  0
POINT
  5
5C
330
47
100
AcDbEntity
  8
1
 62
     4
100
AcDbPoint
 10
57.0
 20
12.25
 30
0.0
  0
POINT
  5
5D
330
47
100
AcDbEntity
  8
1
 62
     4
100
AcDbPoint
 10
57.0
 20
20.75000000000001
 30
0.0
  0
POINT
  5
5E
330
47
100
AcDbEntity
  8
1
 62
     4
100
AcDbPoint
 10
57.0
 20
24.75000000000001
 30
0.0
  0
POINT
  5
5F
330
47
100
AcDbEntity
  8
1
 62
     4
100
AcDbPoint
 10
57.0
 20
16.25
 30
0.0
  0
POINT
  5
60
330
47
100
AcDbEntity
  8
1
 62
     4
100
AcDbPoint
 10
157.5
 20
19.00000000000001
 30
0.0
  0
POINT
  5
61
330
47
100
AcDbEntity
  8
1
 62
     4
100
AcDbPoint
 10
47.5
 20
282.0000000000003
 30
0.0
  0
POINT
  5
62
330
47
100
AcDbEntity
  8
1
 62
     4
100
AcDbPoint
 10
57.0
 20
22.75000000000001
 30
0.0
  0
POINT
  5
63
330
47
100
AcDbEntity
  8
1
 62
     4
100
AcDbPoint
 10
57.0
 20
14.25
 30
0.0
  0
POINT
  5
64
330
47
100
AcDbEntity
  8
1
 62
     4
100
AcDbPoint
 10
157.5
 20
12.5
 30
0.0
  0
POINT
  5
65
330
47
100
AcDbEntity
  8
1
 62
     4
100
AcDbPoint
 10
163.25
 20
12.5
 30
0.0
  0
POINT
  5
66
330
47
100
AcDbEntity
  8
1
 62
     4
100
AcDbPoint
 10
151.75
 20
12.5
 30
0.0
  0
POINT
  5
67
330
47
100
AcDbEntity
  8
1
 62
     4
100
AcDbPoint
 10
134.75
 20
12.5
 30
0.0
  0
POINT
  5
68
330
47
100
AcDbEntity
  8
1
 62
     4
100
AcDbPoint
 10
146.25
 20
12.5
 30
0.0
  0
POINT
  5
69
330
47
100
AcDbEntity
  8
1
 62
     4
100
AcDbPoint
 10
140.5
 20
12.5
 30
0.0
  0
POINT
  5
6A
330
47
100
AcDbEntity
  8
1
 62
     4
100
AcDbPoint
 10
140.5
 20
19.00000000000001
 30
0.0
  0
POINT
  5
6B
330
47
100
AcDbEntity
  8
1
 62
     4
100
AcDbPoint
 10
117.75
 20
12.5
 30
0.0
  0
POINT
  5
6C
330
47
100
AcDbEntity
  8
1
 62
     4
100
AcDbPoint
 10
129.25
 20
12.5
 30
0.0
  0
POINT
  5
6D
330
47
100
AcDbEntity
  8
1
 62
     4
100
AcDbPoint
 10
123.5
 20
12.5
 30
0.0
  0
POINT
  5
6E
330
47
100
AcDbEntity
  8
1
 62
     4
100
AcDbPoint
 10
123.5
 20
19.00000000000001
 30
0.0
  0
POINT
  5
6F
330
47
100
AcDbEntity
  8
1
 62
     4
100
AcDbPoint
 10
100.75
 20
12.5
 30
0.0
  0
POINT
  5
70
330
47
100
AcDbEntity
  8
1
 62
     4
100
AcDbPoint
 10
112.25
 20
12.5
 30
0.0
  0
POINT
  5
71
330
47
100
AcDbEntity
  8
1
 62
     4
100
AcDbPoint
 10
106.5
 20
12.5
 30
0.0
  0
POINT
  5
72
330
47
100
AcDbEntity
  8
1
 62
     4
100
AcDbPoint
 10
106.5
 20
19.00000000000001
 30
0.0
  0
POINT
  5
73
330
47
100
AcDbEntity
  8
1
 62
     4
100
AcDbPoint
 10
85.25
 20
17.0
 30
0.0
  0
POINT
  5
74
330
47
100
AcDbEntity
  8
1
 62
     4
100
AcDbPoint
 10
93.75
 20
17.0
 30
0.0
  0
LINE
  5
75
330
47
100
AcDbEntity
  8
1
  6
Continuous
 62
     2
100
AcDbLine
 10
81.0
 20
27.00000000000001
 30
0.0
 11
81.0
 21
10.0
 31
0.0
  0
LINE
  5
76
330
47
100
AcDbEntity
  8
1
  6
DOT_CENTER
 62
     2
100
AcDbLine
 10
187.0
 20
26.50000000000001
 30
0.0
 11
187.0
 21
20.50000000000001
 31
0.0
  0
LINE
  5
77
330
47
100
AcDbEntity
  8
1
  6
DOT_CENTER
 62
     2
100
AcDbLine
 10
184.0
 20
23.50000000000001
 30
0.0
 11
197.0
 21
23.50000000000001
 31
0.0
  0
LINE
  5
78
330
47
100
AcDbEntity
  8
1
  6
Continuous
 62
     7
100
AcDbLine
 10
196.0
 20
21.50000000000001
 30
0.0
 11
191.0
 21
22.30000000000001
 31
0.0
  0
LINE
  5
79
330
47
100
AcDbEntity
  8
1
  6
Continuous
 62
     7
100
AcDbLine
 10
196.0
 20
25.50000000000001
 30
0.0
 11
196.0
 21
21.50000000000001
 31
0.0
  0
LINE
  5
7A
330
47
100
AcDbEntity
  8
1
  6
Continuous
 62
     7
100
AcDbLine
 10
191.0
 20
24.70000000000001
 30
0.0
 11
196.0
 21
25.50000000000001
 31
0.0
  0
LINE
  5
7B
330
47
100
AcDbEntity
  8
1
  6
Continuous
 62
     7
100
AcDbLine
 10
191.0
 20
24.70000000000001
 30
0.0
 11
191.0
 21
22.30000000000001
 31
0.0
  0
LINE
  5
7C
330
47
100
AcDbEntity
  8
1
  6
Continuous
 62
     2
100
AcDbLine
 10
33.0
 20
27.0
 30
0.0
 11
33.0
 21
10.0
 31
0.0
  0
LINE
  5
7D
330
47
100
AcDbEntity
  8
1
  6
Continuous
 62
     2
100
AcDbLine
 10
25.0
 20
18.50000000000001
 30
0.0
 11
81.0
 21
18.50000000000001
 31
0.0
  0
LINE
  5
7E
330
47
100
AcDbEntity
  8
1
  6
Continuous
 62
     7
100
AcDbLine
 10
200.0
 20
287.0000000000003
 30
0.0
 11
105.0
 21
287.0000000000003
 31
0.0
  0
LINE
  5
7F
330
47
100
AcDbEntity
  8
1
  6
Continuous
 62
     7
100
AcDbLine
 10
200.0
 20
10.0
 30
0.0
 11
200.0
 21
148.5
 31
0.0
  0
LINE
  5
80
330
47
100
AcDbEntity
  8
1
  6
Continuous
 62
     7
100
AcDbLine
 10
25.0
 20
10.0
 30
0.0
 11
105.0
 21
10.0
 31
0.0
  0
LINE
  5
81
330
47
100
AcDbEntity
  8
1
  6
PHANTOM
 62
     4
100
AcDbLine
 10
0.0
 20
297.0
 30
0.0
 11
0.0
 21
0.0
 31
0.0
  0
LINE
  5
82
330
47
100
AcDbEntity
  8
1
  6
PHANTOM
 62
     4
100
AcDbLine
 10
210.0
 20
297.0
 30
0.0
 11
0.0
 21
297.0
 31
0.0
  0
LINE
  5
83
330
47
100
AcDbEntity
  8
1
  6
PHANTOM
 62
     4
100
AcDbLine
 10
210.0
 20
0.0
 30
0.0
 11
210.0
 21
297.0
 31
0.0
  0
LINE
  5
84
330
47
100
AcDbEntity
  8
1
  6
PHANTOM
 62
     4
100
AcDbLine
 10
0.0
 20
0.0
 30
0.0
 11
210.0
 21
0.0
 31
0.0
  0
LINE
  5
85
330
47
100
AcDbEntity
  8
1
  6
Continuous
 62
     7
100
AcDbLine
 10
25.0
 20
41.0
 30
0.0
 11
200.0
 21
41.0
 31
0.0
  0
LINE
  5
86
330
47
100
AcDbEntity
  8
1
  6
Continuous
 62
     7
100
AcDbLine
 10
200.0
 20
27.00000000000001
 30
0.0
 11
25.0
 21
27.00000000000001
 31
0.0
  0
LINE
  5
87
330
47
100
AcDbEntity
  8
1
  6
Continuous
 62
     2
100
AcDbLine
 10
33.0
 20
41.00000000000001
 30
0.0
 11
33.0
 21
27.0
 31
0.0
  0
LINE
  5
88
330
47
100
AcDbEntity
  8
1
  6
Continuous
 62
     2
100
AcDbLine
 10
55.0
 20
287.0000000000003
 30
0.0
 11
55.0
 21
277.0000000000003
 31
0.0
  0
LINE
  5
89
330
47
100
AcDbEntity
  8
1
  6
Continuous
 62
     2
100
AcDbLine
 10
40.0
 20
287.0000000000003
 30
0.0
 11
40.0
 21
277.0000000000003
 31
0.0
  0
LINE
  5
8A
330
47
100
AcDbEntity
  8
1
  6
Continuous
 62
     7
100
AcDbLine
 10
25.0
 20
10.0
 30
0.0
 11
25.0
 21
148.5
 31
0.0
  0
LINE
  5
8B
330
47
100
AcDbEntity
  8
1
  6
Continuous
 62
     2
100
AcDbLine
 10
55.0
 20
277.0000000000003
 30
0.0
 11
25.0
 21
277.0000000000003
 31
0.0
  0
LINE
  5
8C
330
47
100
AcDbEntity
  8
1
  6
Continuous
 62
     2
100
AcDbLine
 10
166.0
 20
27.00000000000001
 30
0.0
 11
166.0
 21
10.0
 31
0.0
  0
LINE
  5
8D
330
47
100
AcDbEntity
  8
1
  6
Continuous
 62
     2
100
AcDbLine
 10
132.0
 20
27.00000000000001
 30
0.0
 11
132.0
 21
9.99999999999999
 31
0.0
  0
LINE
  5
8E
330
47
100
AcDbEntity
  8
1
  6
Continuous
 62
     2
100
AcDbLine
 10
149.0
 20
27.00000000000001
 30
0.0
 11
149.0
 21
10.0
 31
0.0
  0
LINE
  5
8F
330
47
100
AcDbEntity
  8
1
  6
Continuous
 62
     2
100
AcDbLine
 10
115.0
 20
27.00000000000001
 30
0.0
 11
115.0
 21
9.99999999999999
 31
0.0
  0
LINE
  5
90
330
47
100
AcDbEntity
  8
1
  6
Continuous
 62
     2
100
AcDbLine
 10
98.0
 20
27.00000000000001
 30
0.0
 11
98.0
 21
9.99999999999999
 31
0.0
  0
LINE
  5
91
330
47
100
AcDbEntity
  8
1
  6
Continuous
 62
     2
100
AcDbLine
 10
166.0
 20
20.00000000000001
 30
0.0
 11
200.0
 21
20.00000000000001
 31
0.0
  0
LINE
  5
92
330
47
100
AcDbEntity
  8
1
  6
Continuous
 62
     2
100
AcDbLine
 10
105.0
 20
287.0000000000003
 30
0.0
 11
105.0
 21
292.0000000000003
 31
0.0
  0
LINE
  5
93
330
47
100
AcDbEntity
  8
1
  6
Continuous
 62
     7
100
AcDbLine
 10
105.0
 20
287.0000000000003
 30
0.0
 11
25.0
 21
287.0000000000003
 31
0.0
  0
LINE
  5
94
330
47
100
AcDbEntity
  8
1
  6
Continuous
 62
     2
100
AcDbLine
 10
25.0
 20
148.5
 30
0.0
 11
20.0
 21
148.5
 31
0.0
  0
LINE
  5
95
330
47
100
AcDbEntity
  8
1
  6
Continuous
 62
     7
100
AcDbLine
 10
25.0
 20
148.5
 30
0.0
 11
25.0
 21
287.0000000000003
 31
0.0
  0
LINE
  5
96
330
47
100
AcDbEntity
  8
1
  6
Continuous
 62
     2
100
AcDbLine
 10
200.0
 20
148.5
 30
0.0
 11
205.0
 21
148.5
 31
0.0
  0
LINE
  5
97
330
47
100
AcDbEntity
  8
1
  6
Continuous
 62
     7
100
AcDbLine
 10
200.0
 20
148.5
 30
0.0
 11
200.0
 21
287.0000000000003
 31
0.0
  0
LINE
  5
98
330
47
100
AcDbEntity
  8
1
  6
Continuous
 62
     2
100
AcDbLine
 10
105.0
 20
10.0
 30
0.0
 11
105.0
 21
5.0
 31
0.0
  0
LINE
  5
99
330
47
100
AcDbEntity
  8
1
  6
Continuous
 62
     7
100
AcDbLine
 10
105.0
 20
10.0
 30
0.0
 11
200.0
 21
10.0
 31
0.0
  0
CIRCLE
  5
9A
330
47
100
AcDbEntity
  8
1
  6
DOT_CENTER
 62
     7
100
AcDbCircle
 10
89.5
 20
18.0
 30
0.0
 40
0.1000000000000227
  0
CIRCLE
  5
9B
330
47
100
AcDbEntity
  8
1
  6
DOT_CENTER
 62
     7
100
AcDbCircle
 10
89.5
 20
16.0
 30
0.0
 40
0.1000000000000227
  0
CIRCLE
  5
9C
330
47
100
AcDbEntity
  8
1
  6
Continuous
 62
     7
100
AcDbCircle
 10
187.0
 20
23.50000000000001
 30
0.0
 40
2.0
  0
CIRCLE
  5
9D
330
47
100
AcDbEntity
  8
1
  6
Continuous
 62
     7
100
AcDbCircle
 10
187.0
 20
23.50000000000001
 30
0.0
 40
1.200000000000102
  0
CIRCLE
  5
9E
330
47
100
AcDbEntity
  8
1
  6
Continuous
 62
     7
100
AcDbCircle
 10
154.5
 20
12.5
 30
0.0
 40
0.3000000000000114
  0
CIRCLE
  5
9F
330
47
100
AcDbEntity
  8
1
  6
Continuous
 62
     7
100
AcDbCircle
 10
160.5
 20
12.5
 30
0.0
 40
0.3000000000000114
  0
CIRCLE
  5
A0
330
47
100
AcDbEntity
  8
1
  6
Continuous
 62
     7
100
AcDbCircle
 10
143.5
 20
12.5
 30
0.0
 40
0.3000000000000114
  0
CIRCLE
  5
A1
330
47
100
AcDbEntity
  8
1
  6
Continuous
 62
     7
100
AcDbCircle
 10
137.5
 20
12.5
 30
0.0
 40
0.3000000000000114
  0
CIRCLE
  5
A2
330
47
100
AcDbEntity
  8
1
  6
Continuous
 62
     7
100
AcDbCircle
 10
126.5
 20
12.5
 30
0.0
 40
0.2999999999999972
  0
CIRCLE
  5
A3
330
47
100
AcDbEntity
  8
1
  6
Continuous
 62
     7
100
AcDbCircle
 10
120.5
 20
12.5
 30
0.0
 40
0.2999999999999972
  0
CIRCLE
  5
A4
330
47
100
AcDbEntity
  8
1
  6
Continuous
 62
     7
100
AcDbCircle
 10
109.5
 20
12.5
 30
0.0
 40
0.2999999999999972
  0
CIRCLE
  5
A5
330
47
100
AcDbEntity
  8
1
  6
Continuous
 62
     7
100
AcDbCircle
 10
103.5
 20
12.5
 30
0.0
 40
0.2999999999999972
  0
MTEXT
  5
A7
330
47
100
AcDbEntity
  8
1
 62
   250
100
AcDbMText
 10
25.0
 20
5.0
 30
0.0
 40
3.5
 41
0.0
 71
     4
 72
     1
  1
備考欄の文字列 原点位置=4
  7
CONVERTER_11
 73
     1
 44
0.54545454545455
  0
MTEXT
  5
A8
330
47
100
AcDbEntity
  8
1
 62
     2
100
AcDbMText
 10
89.5
 20
24.00000000000001
 30
0.0
 40
3.5
 41
0.0
 71
     5
 72
     1
  1
尺度
  7
CONVERTER_11
 73
     1
 44
0.54545454545455
  0
MTEXT
  5
A9
330
47
100
AcDbEntity
  8
1
 62
     2
100
AcDbMText
 10
135.5
 20
25.00000000000001
 30
0.0
 40
3.0
 41
0.0
 71
     5
 72
     1
  1
製図
  7
CONVERTER_11
 73
     1
 44
0.59090909090909
  0
MTEXT
  5
AA
330
47
100
AcDbEntity
  8
1
 62
     2
100
AcDbMText
 10
152.5
 20
25.00000000000001
 30
0.0
 40
3.0
 41
0.0
 71
     5
 72
     1
  1
設計
  7
CONVERTER_11
 73
     1
 44
0.59090909090909
  0
MTEXT
  5
AB
330
47
100
AcDbEntity
  8
1
 62
     2
100
AcDbMText
 10
118.5
 20
25.00000000000001
 30
0.0
 40
3.0
 41
0.0
 71
     5
 72
     1
  1
検図
  7
CONVERTER_11
 73
     1
 44
0.59090909090909
  0
MTEXT
  5
AC
330
47
100
AcDbEntity
  8
1
 62
     2
100
AcDbMText
 10
175.0
 20
23.50000000000001
 30
0.0
 40
3.5
 41
0.0
 71
     5
 72
     1
  1
第三角法
  7
CONVERTER_11
 73
     1
 44
0.54545454545455
  0
MTEXT
  5
AD
330
47
100
AcDbEntity
  8
1
 62
     2
100
AcDbMText
 10
101.5
 20
25.00000000000001
 30
0.0
 40
3.0
 41
0.0
 71
     5
 72
     1
  1
承認
  7
CONVERTER_11
 73
     1
 44
0.59090909090909
  0
MTEXT
  5
AE
330
47
100
AcDbEntity
  8
1
 62
     2
100
AcDbMText
 10
29.0
 20
14.25
 30
0.0
 40
3.5
 41
0.0
 71
     5
 72
     1
  1
品番
  7
CONVERTER_11
 73
     1
 44
0.72727272727273
  0
MTEXT
  5
AF
330
47
100
AcDbEntity
  8
1
 62
     2
100
AcDbMText
 10
29.0
 20
22.75
 30
0.0
 40
3.5
 41
0.0
 71
     5
 72
     1
  1
品名
  7
CONVERTER_11
 73
     1
 44
0.72727272727273
  0
MTEXT
  5
B0
330
47
100
AcDbEntity
  8
1
 62
     2
100
AcDbMText
 10
29.0
 20
34.00000000000001
 30
0.0
 40
3.5
 41
0.0
 71
     5
 72
     1
  1
備考
  7
CONVERTER_11
 73
     1
 44
0.45454545454545
  0
MTEXT
  5
B1
330
47
100
AcDbEntity
  8
1
 62
     2
100
AcDbMText
 10
32.5
 20
282.0000000000003
 30
0.0
 40
5.0
 41
0.0
 71
     5
 72
     1
  1
図番
  7
CONVERTER_11
 73
     1
 44
0.45454545454545
  0
MTEXT
  5
B2
330
47
100
AcDbEntity
  8
1
 62
     7
100
AcDbMText
 10
171.5
 20
15.0
 30
0.0
 40
2.5
 41
0.0
 71
     5
 72
     1
  1
株式会社
  7
CONVERTER_11
 73
     1
 44
1.0
  0
MTEXT
  5
B3
330
47
100
AcDbEntity
  8
1
 62
     7
100
AcDbMText
 10
188.5
 20
15.0
 30
0.0
 40
3.0
 41
0.0
 71
     5
 72
     1
  1
三栄水栓製作所
  7
CONVERTER_11
 73
     1
 44
1.0
  0
ENDBLK
  5
49
330
47
100
AcDbEntity
  8
0
100
AcDbBlockEnd
  0
BLOCK
  5
4B
330
4A
100
AcDbEntity
  8
0
100
AcDbBlockBegin
  2
A20J-60-16-240_300_
 70
     0
 10
278.8079261377311
 20
188.9659314573591
 30
0.0
  3
A20J-60-16-240_300_
  1

  0
LINE
  5
B4
330
4A
100
AcDbEntity
  8
1
  6
Continuous
 62
     7
100
AcDbLine
 10
138.1994034628328
 20
522.1420929191215
 30
0.0
 11
138.1994034628328
 21
436.3417083823728
 31
0.0
  0
LINE
  5
B5
330
4A
100
AcDbEntity
  8
1
  6
Continuous
 62
     7
100
AcDbLine
 10
154.1994034628328
 20
519.5379117725995
 30
0.0
 11
154.1994034628328
 21
436.3417083823728
 31
0.0
  0
LINE
  5
B6
330
4A
100
AcDbEntity
  8
1
  6
Continuous
 62
     7
100
AcDbLine
 10
138.1739861153006
 20
311.0000030000014
 30
0.0
 11
138.1739861153006
 21
339.0000030000014
 31
0.0
  0
LINE
  5
B7
330
4A
100
AcDbEntity
  8
1
  6
Continuous
 62
     7
100
AcDbLine
 10
154.1739861153005
 20
311.0000030000012
 30
0.0
 11
154.1739861153005
 21
339.0000030000014
 31
0.0
  0
LINE
  5
B8
330
4A
100
AcDbEntity
  8
1
  6
Continuous
 62
     7
100
AcDbLine
 10
138.7875791093146
 20
306.0000030000012
 30
0.0
 11
153.5603931212867
 21
306.0000030000012
 31
0.0
  0
LINE
  5
B9
330
4A
100
AcDbEntity
  8
1
  6
Continuous
 62
     7
100
AcDbLine
 10
154.1739861153005
 20
311.0000030000012
 30
0.0
 11
138.1739861153006
 21
311.0000030000014
 31
0.0
  0
LINE
  5
BA
330
4A
100
AcDbEntity
  8
1
  6
Continuous
 62
     7
100
AcDbLine
 10
138.1994034628328
 20
676.3417083823728
 30
0.0
 11
138.1994034628328
 21
523.6420929191215
 31
0.0
  0
LINE
  5
BB
330
4A
100
AcDbEntity
  8
1
  6
Continuous
 62
     7
100
AcDbLine
 10
154.1994034628328
 20
676.3417083823728
 30
0.0
 11
154.1994034628328
 21
521.0379117725995
 31
0.0
  0
LINE
  5
BC
330
4A
100
AcDbEntity
  8
1
  6
Continuous
 62
     7
100
AcDbLine
 10
461.8397255421417
 20
330.5000030000006
 30
0.0
 11
275.8397255421417
 21
330.5000030000006
 31
0.0
  0
LINE
  5
BD
330
4A
100
AcDbEntity
  8
1
  6
Continuous
 62
     7
100
AcDbLine
 10
461.8397255421417
 20
346.5000030000006
 30
0.0
 11
275.8397255421417
 21
346.5000030000006
 31
0.0
  0
LINE
  5
BE
330
4A
100
AcDbEntity
  8
1
  6
Continuous
 62
     7
100
AcDbLine
 10
241.4533185361556
 20
305.5000030000006
 30
0.0
 11
256.2261325481279
 21
305.5000030000006
 31
0.0
  0
LINE
  5
BF
330
4A
100
AcDbEntity
  8
1
  6
Continuous
 62
     7
100
AcDbLine
 10
256.8397255421417
 20
310.5000030000006
 30
0.0
 11
256.8397255421417
 21
311.5000030000006
 31
0.0
  0
LINE
  5
C0
330
4A
100
AcDbEntity
  8
1
  6
Continuous
 62
     7
100
AcDbLine
 10
240.8397255421418
 20
310.5000030000006
 30
0.0
 11
240.8397255421418
 21
311.5000030000006
 31
0.0
  0
LINE
  5
C1
330
4A
100
AcDbEntity
  8
1
  6
Continuous
 62
     7
100
AcDbLine
 10
496.8397255421417
 20
311.5000030000006
 30
0.0
 11
496.8397255421417
 21
306.0000030000006
 31
0.0
  0
LINE
  5
C2
330
4A
100
AcDbEntity
  8
1
  6
Continuous
 62
     7
100
AcDbLine
 10
480.8397255421417
 20
306.0000030000006
 30
0.0
 11
480.8397255421417
 21
311.5000030000006
 31
0.0
  0
LINE
  5
C3
330
4A
100
AcDbEntity
  8
1
  6
Continuous
 62
     7
100
AcDbLine
 10
240.8397255421418
 20
310.5000030000006
 30
0.0
 11
256.8397255421417
 21
310.5000030000006
 31
0.0
  0
ARC
  5
C4
330
4A
100
AcDbEntity
  8
1
  6
Continuous
 62
     7
100
AcDbCircle
 10
146.1994034628328
 20
676.3417083823728
 30
0.0
 40
8.0
100
AcDbArc
 50
0.0
 51
180.0
  0
ARC
  5
C5
330
4A
100
AcDbEntity
  8
1
  6
Continuous
 62
     7
100
AcDbCircle
 10
146.1739861153005
 20
339.0000030000014
 30
0.0
 40
8.0
100
AcDbArc
 50
0.0
 51
180.0
  0
ARC
  5
C6
330
4A
100
AcDbEntity
  8
1
  6
Continuous
 62
     7
100
AcDbCircle
 10
150.9639598205824
 20
308.8562832927788
 30
0.0
 40
3.860026294718213
100
AcDbArc
 50
312.2716554964186
 51
0.0
  0
ARC
  5
C7
330
4A
100
AcDbEntity
  8
1
  6
Continuous
 62
     7
100
AcDbCircle
 10
141.3840124100188
 20
308.8562832927788
 30
0.0
 40
3.860026294718319
100
AcDbArc
 50
146.2642089999679
 51
180.0
  0
ARC
  5
C8
330
4A
100
AcDbEntity
  8
1
  6
Continuous
 62
     7
100
AcDbCircle
 10
141.3840124100188
 20
308.8562832927788
 30
0.0
 40
3.860026294718125
100
AcDbArc
 50
180.0
 51
227.7283445035823
  0
ARC
  5
C9
330
4A
100
AcDbEntity
  8
1
  6
Continuous
 62
     7
100
AcDbCircle
 10
150.9639598205824
 20
308.8562832927788
 30
0.0
 40
3.86002629471821
100
AcDbArc
 50
0.0
 51
33.7357910000302
  0
ARC
  5
CA
330
4A
100
AcDbEntity
  8
1
  6
Continuous
 62
     7
100
AcDbCircle
 10
146.1994034628328
 20
436.3417083823728
 30
0.0
 40
8.650000000000029
100
AcDbArc
 50
157.6465744006684
 51
270.0
  0
ARC
  5
CB
330
4A
100
AcDbEntity
  8
1
  6
Continuous
 62
     7
100
AcDbCircle
 10
146.1994034628328
 20
436.3417083823728
 30
0.0
 40
8.650000000000205
100
AcDbArc
 50
270.0
 51
22.35342559933166
  0
ARC
  5
CC
330
4A
100
AcDbEntity
  8
1
  6
Continuous
 62
     7
100
AcDbCircle
 10
146.1994034628328
 20
436.3417083823728
 30
0.0
 40
8.0
100
AcDbArc
 50
180.0
 51
0.0
  0
ARC
  5
CD
330
4A
100
AcDbEntity
  8
1
  6
Continuous
 62
     7
100
AcDbCircle
 10
253.6296992474236
 20
308.3562832927782
 30
0.0
 40
3.860026294718097
100
AcDbArc
 50
0.0
 51
33.73579100003066
  0
ARC
  5
CE
330
4A
100
AcDbEntity
  8
1
  6
Continuous
 62
     7
100
AcDbCircle
 10
244.04975183686
 20
308.3562832927782
 30
0.0
 40
3.860026294718225
100
AcDbArc
 50
146.26420899997
 51
180.0
  0
ARC
  5
CF
330
4A
100
AcDbEntity
  8
1
  6
Continuous
 62
     7
100
AcDbCircle
 10
253.6296992474236
 20
308.3562832927782
 30
0.0
 40
3.86002629471819
100
AcDbArc
 50
312.2716554964196
 51
0.0
  0
ARC
  5
D0
330
4A
100
AcDbEntity
  8
1
  6
Continuous
 62
     7
100
AcDbCircle
 10
275.8397255421417
 20
311.5000030000006
 30
0.0
 40
19.0
100
AcDbArc
 50
90.0
 51
180.0
  0
ARC
  5
D1
330
4A
100
AcDbEntity
  8
1
  6
Continuous
 62
     7
100
AcDbCircle
 10
275.8397255421417
 20
311.5000030000006
 30
0.0
 40
35.0
100
AcDbArc
 50
90.0
 51
180.0
  0
ARC
  5
D2
330
4A
100
AcDbEntity
  8
1
  6
Continuous
 62
     7
100
AcDbCircle
 10
461.8397255421417
 20
311.5000030000006
 30
0.0
 40
19.0
100
AcDbArc
 50
0.0
 51
90.0
  0
ARC
  5
D3
330
4A
100
AcDbEntity
  8
1
  6
Continuous
 62
     7
100
AcDbCircle
 10
461.8397255421417
 20
311.5000030000006
 30
0.0
 40
35.0
100
AcDbArc
 50
0.0
 51
90.0
  0
ARC
  5
D4
330
4A
100
AcDbEntity
  8
1
  6
Continuous
 62
     7
100
AcDbCircle
 10
244.04975183686
 20
308.3562832927782
 30
0.0
 40
3.860026294718296
100
AcDbArc
 50
180.0
 51
227.7283445035795
  0
ENDBLK
  5
4C
330
4A
100
AcDbEntity
  8
0
100
AcDbBlockEnd
  0
BLOCK
  5
4E
330
4D
100
AcDbEntity
  8
0
100
AcDbBlockBegin
  2
A205-0
 70
     0
 10
621.8062081965608
 20
79.83397879463726
 30
0.0
  3
A205-0
  1

  0
LINE
  5
D5
330
4D
100
AcDbEntity
  8
1
  6
Continuous
 62
     7
100
AcDbLine
 10
531.8397255421426
 20
257.7500030000003
 30
0.0
 11
531.8397255421426
 21
283.2500030000003
 31
0.0
  0
LINE
  5
D6
330
4D
100
AcDbEntity
  8
1
  6
Continuous
 62
     2
100
AcDbLine
 10
136.6994034628335
 20
723.0737591899411
 30
0.0
 11
136.6994034628335
 21
735.3417083823721
 31
0.0
  0
LINE
  5
D7
330
4D
100
AcDbEntity
  8
1
  6
Continuous
 62
     2
100
AcDbLine
 10
135.6994034628335
 20
721.3417083823721
 30
0.0
 11
136.6994034628335
 21
723.0737591899411
 31
0.0
  0
LINE
  5
D8
330
4D
100
AcDbEntity
  8
1
  6
Continuous
 62
     7
100
AcDbLine
 10
123.1994034628334
 20
721.3417083823721
 30
0.0
 11
169.1994034628332
 21
721.3417083823721
 31
0.0
  0
LINE
  5
D9
330
4D
100
AcDbEntity
  8
1
  6
Continuous
 62
     7
100
AcDbLine
 10
123.1994034628334
 20
721.3417083823721
 30
0.0
 11
123.1994034628334
 21
719.3417083823721
 31
0.0
  0
LINE
  5
DA
330
4D
100
AcDbEntity
  8
1
  6
Continuous
 62
     7
100
AcDbLine
 10
168.6994034628332
 20
718.8417083823721
 30
0.0
 11
123.6994034628334
 21
718.8417083823721
 31
0.0
  0
LINE
  5
DB
330
4D
100
AcDbEntity
  8
1
  6
Continuous
 62
     7
100
AcDbLine
 10
137.4494034628335
 20
695.2080143270995
 30
0.0
 11
137.4494034628335
 21
714.8417083823721
 31
0.0
  0
LINE
  5
DC
330
4D
100
AcDbEntity
  8
1
  6
Continuous
 62
     7
100
AcDbLine
 10
169.1994034628332
 20
719.3417083823721
 30
0.0
 11
169.1994034628332
 21
721.3417083823721
 31
0.0
  0
LINE
  5
DD
330
4D
100
AcDbEntity
  8
1
  6
Continuous
 62
     2
100
AcDbLine
 10
155.6994034628335
 20
723.0737591899411
 30
0.0
 11
156.6994034628335
 21
721.3417083823721
 31
0.0
  0
LINE
  5
DE
330
4D
100
AcDbEntity
  8
1
  6
Continuous
 62
     2
100
AcDbLine
 10
155.6994034628335
 20
735.3417083823721
 30
0.0
 11
155.6994034628335
 21
723.0737591899411
 31
0.0
  0
LINE
  5
DF
330
4D
100
AcDbEntity
  8
1
  6
Continuous
 62
     7
100
AcDbLine
 10
154.9494034628335
 20
700.9698911406653
 30
0.0
 11
154.9494034628335
 21
714.8417083823721
 31
0.0
  0
LINE
  5
E0
330
4D
100
AcDbEntity
  8
1
  6
Continuous
 62
     7
100
AcDbLine
 10
156.6994034628335
 20
734.3417083823721
 30
0.0
 11
156.6994034628335
 21
721.3417083823721
 31
0.0
  0
LINE
  5
E1
330
4D
100
AcDbEntity
  8
1
  6
Continuous
 62
     7
100
AcDbLine
 10
156.6994034628335
 20
734.3417083823721
 30
0.0
 11
155.6994034628335
 21
735.3417083823721
 31
0.0
  0
LINE
  5
E2
330
4D
100
AcDbEntity
  8
1
  6
Continuous
 62
     7
100
AcDbLine
 10
156.6994034628335
 20
723.0737591899411
 30
0.0
 11
135.6994034628335
 21
723.0737591899411
 31
0.0
  0
LINE
  5
E3
330
4D
100
AcDbEntity
  8
1
  6
Continuous
 62
     7
100
AcDbLine
 10
135.6994034628335
 20
734.3417083823721
 30
0.0
 11
156.6994034628335
 21
734.3417083823721
 31
0.0
  0
LINE
  5
E4
330
4D
100
AcDbEntity
  8
1
  6
Continuous
 62
     7
100
AcDbLine
 10
135.6994034628335
 20
721.3417083823721
 30
0.0
 11
135.6994034628335
 21
734.3417083823721
 31
0.0
  0
LINE
  5
E5
330
4D
100
AcDbEntity
  8
1
  6
Continuous
 62
     7
100
AcDbLine
 10
136.6994034628335
 20
735.3417083823721
 30
0.0
 11
135.6994034628335
 21
734.3417083823721
 31
0.0
  0
LINE
  5
E6
330
4D
100
AcDbEntity
  8
1
  6
Continuous
 62
     7
100
AcDbLine
 10
136.6994034628335
 20
735.3417083823721
 30
0.0
 11
155.6994034628335
 21
735.3417083823721
 31
0.0
  0
LINE
  5
E7
330
4D
100
AcDbEntity
  8
1
  6
Continuous
 62
     7
100
AcDbLine
 10
167.999403462834
 20
688.8651557565971
 30
0.0
 11
166.0996844874496
 21
689.0000132105077
 31
0.0
  0
LINE
  5
E8
330
4D
100
AcDbEntity
  8
1
  6
Continuous
 62
     7
100
AcDbLine
 10
165.3683985545525
 20
663.6314909501795
 30
0.0
 11
167.999403462834
 21
663.8182610081482
 31
0.0
  0
LINE
  5
E9
330
4D
100
AcDbEntity
  8
1
  6
Continuous
 62
     7
100
AcDbLine
 10
154.1994034628328
 20
662.8386251314317
 30
0.0
 11
165.3683985545525
 21
663.6314909501795
 31
0.0
  0
LINE
  5
EA
330
4D
100
AcDbEntity
  8
1
  6
Continuous
 62
     7
100
AcDbLine
 10
167.999403462833
 20
282.7796288982771
 30
0.0
 11
166.3442608889487
 21
282.8739473981378
 31
0.0
  0
LINE
  5
EB
330
4D
100
AcDbEntity
  8
1
  6
Continuous
 62
     7
100
AcDbLine
 10
133.599403462833
 20
291.0500030000003
 30
0.0
 11
133.599403462833
 21
289.7416245532893
 31
0.0
  0
LINE
  5
EC
330
4D
100
AcDbEntity
  8
1
  6
Continuous
 62
     7
100
AcDbLine
 10
133.199403462833
 20
296.0000030000001
 30
0.0
 11
133.199403462833
 21
292.2500030000001
 31
0.0
  0
LINE
  5
ED
330
4D
100
AcDbEntity
  8
1
  6
Continuous
 62
     7
100
AcDbLine
 10
167.999403462833
 20
258.2203771017235
 30
0.0
 11
165.558520053815
 21
258.0812830652904
 31
0.0
  0
LINE
  5
EE
330
4D
100
AcDbEntity
  8
1
  6
Continuous
 62
     7
100
AcDbLine
 10
133.599403462833
 20
289.7416245532893
 30
0.0
 11
133.599403462833
 21
277.6686848872092
 31
0.0
  0
LINE
  5
EF
330
4D
100
AcDbEntity
  8
1
  6
Continuous
 62
     7
100
AcDbLine
 10
165.558520053815
 20
258.0812830652904
 30
0.0
 11
146.9674565562627
 21
257.0218690621854
 31
0.0
  0
LINE
  5
F0
330
4D
100
AcDbEntity
  8
1
  6
Continuous
 62
     7
100
AcDbLine
 10
159.199403462833
 20
296.0000030000001
 30
0.0
 11
159.199403462833
 21
292.2500030000001
 31
0.0
  0
LINE
  5
F1
330
4D
100
AcDbEntity
  8
1
  6
Continuous
 62
     7
100
AcDbLine
 10
527.8397255421426
 20
279.2500030000003
 30
0.0
 11
514.4397255421424
 21
279.2500030000003
 31
0.0
  0
LINE
  5
F2
330
4D
100
AcDbEntity
  8
1
  6
Continuous
 62
     7
100
AcDbLine
 10
527.8397255421426
 20
261.7500030000003
 30
0.0
 11
504.7437344707115
 21
261.7500030000003
 31
0.0
  0
LINE
  5
F3
330
4D
100
AcDbEntity
  8
1
  6
Continuous
 62
     7
100
AcDbLine
 10
531.8397255421426
 20
248.0000030000003
 30
0.0
 11
531.8397255421426
 21
257.7500030000003
 31
0.0
  0
LINE
  5
F4
330
4D
100
AcDbEntity
  8
1
  6
Continuous
 62
     7
100
AcDbLine
 10
534.3397255421426
 20
247.5000030000003
 30
0.0
 11
534.3397255421426
 21
260.0200030000003
 31
0.0
  0
LINE
  5
F5
330
4D
100
AcDbEntity
  8
1
  6
Continuous
 62
     7
100
AcDbLine
 10
534.3397255421426
 20
280.9800030000004
 30
0.0
 11
534.3397255421426
 21
293.5000030000003
 31
0.0
  0
LINE
  5
F6
330
4D
100
AcDbEntity
  8
1
  6
Continuous
 62
     7
100
AcDbLine
 10
531.8397255421426
 20
293.0000030000003
 30
0.0
 11
531.8397255421426
 21
283.2500030000003
 31
0.0
  0
LINE
  5
F7
330
4D
100
AcDbEntity
  8
1
  6
Continuous
 62
     7
100
AcDbLine
 10
532.3397255421426
 20
293.5000030000003
 30
0.0
 11
534.3397255421426
 21
293.5000030000003
 31
0.0
  0
LINE
  5
F8
330
4D
100
AcDbEntity
  8
1
  6
Continuous
 62
     7
100
AcDbLine
 10
532.3397255421426
 20
247.5000030000003
 30
0.0
 11
534.3397255421426
 21
247.5000030000003
 31
0.0
  0
LINE
  5
F9
330
4D
100
AcDbEntity
  8
1
  6
Continuous
 62
     7
100
AcDbLine
 10
476.6547255421426
 20
294.5000030000003
 30
0.0
 11
484.8397255421417
 21
294.5000030000003
 31
0.0
  0
LINE
  5
FA
330
4D
100
AcDbEntity
  8
1
  6
Continuous
 62
     7
100
AcDbLine
 10
476.6547255421426
 20
294.5000030000003
 30
0.0
 11
475.8397255421426
 21
294.5000030000003
 31
0.0
  0
LINE
  5
FB
330
4D
100
AcDbEntity
  8
1
  6
Continuous
 62
     7
100
AcDbLine
 10
501.8397255421426
 20
294.5000030000003
 30
0.0
 11
501.8397255421426
 21
293.0883815918317
 31
0.0
  0
LINE
  5
FC
330
4D
100
AcDbEntity
  8
1
  6
Continuous
 62
     7
100
AcDbLine
 10
475.8397255421426
 20
294.5000030000003
 30
0.0
 11
475.8397255421426
 21
293.0883815918317
 31
0.0
  0
LINE
  5
FD
330
4D
100
AcDbEntity
  8
1
  6
Continuous
 62
     2
100
AcDbLine
 10
501.0247255421425
 20
294.5000030000003
 30
0.0
 11
501.8397255421426
 21
293.0883815918317
 31
0.0
  0
LINE
  5
FE
330
4D
100
AcDbEntity
  8
1
  6
Continuous
 62
     2
100
AcDbLine
 10
476.6547255421426
 20
294.5000030000003
 30
0.0
 11
475.8397255421426
 21
293.0883815918317
 31
0.0
  0
LINE
  5
FF
330
4D
100
AcDbEntity
  8
1
  6
Continuous
 62
     7
100
AcDbLine
 10
501.8397255421426
 20
293.0883815918317
 30
0.0
 11
501.8397255421426
 21
292.2500030000003
 31
0.0
  0
LINE
  5
100
330
4D
100
AcDbEntity
  8
1
  6
Continuous
 62
     7
100
AcDbLine
 10
475.8397255421426
 20
293.0883815918317
 30
0.0
 11
475.8397255421426
 21
292.2500030000003
 31
0.0
  0
LINE
  5
101
330
4D
100
AcDbEntity
  8
1
  6
Continuous
 62
     7
100
AcDbLine
 10
476.2397255421425
 20
291.0500030000003
 30
0.0
 11
476.2397255421425
 21
279.5271841768694
 31
0.0
  0
LINE
  5
102
330
4D
100
AcDbEntity
  8
1
  6
Continuous
 62
     2
100
AcDbLine
 10
501.0247255421425
 20
296.0000030000003
 30
0.0
 11
501.0247255421425
 21
294.5000030000003
 31
0.0
  0
LINE
  5
103
330
4D
100
AcDbEntity
  8
1
  6
Continuous
 62
     7
100
AcDbLine
 10
501.8397255421426
 20
296.0000030000003
 30
0.0
 11
501.8397255421426
 21
294.5000030000003
 31
0.0
  0
LINE
  5
104
330
4D
100
AcDbEntity
  8
1
  6
Continuous
 62
     2
100
AcDbLine
 10
476.6547255421426
 20
296.0000030000003
 30
0.0
 11
476.6547255421426
 21
294.5000030000003
 31
0.0
  0
LINE
  5
105
330
4D
100
AcDbEntity
  8
1
  6
Continuous
 62
     7
100
AcDbLine
 10
475.8397255421426
 20
296.0000030000003
 30
0.0
 11
475.8397255421426
 21
294.5000030000003
 31
0.0
  0
LINE
  5
106
330
4D
100
AcDbEntity
  8
1
  6
Continuous
 62
     7
100
AcDbLine
 10
492.8397255421418
 20
294.5000030000003
 30
0.0
 11
501.8397255421426
 21
294.5000030000003
 31
0.0
  0
LINE
  5
107
330
4D
100
AcDbEntity
  8
1
  6
Continuous
 62
     7
100
AcDbLine
 10
548.3397255421426
 20
264.0000030000003
 30
0.0
 11
548.3397255421426
 21
261.1800030000003
 31
0.0
  0
LINE
  5
108
330
4D
100
AcDbEntity
  8
1
  6
Continuous
 62
     7
100
AcDbLine
 10
534.3397255421426
 20
260.0200030000003
 30
0.0
 11
534.3397255421426
 21
280.9800030000004
 31
0.0
  0
LINE
  5
109
330
4D
100
AcDbEntity
  8
1
  6
Continuous
 62
     7
100
AcDbLine
 10
548.3397255421426
 20
280.0000030000006
 30
0.0
 11
548.3397255421426
 21
261.0000030000006
 31
0.0
  0
LINE
  5
10A
330
4D
100
AcDbEntity
  8
1
  6
Continuous
 62
     7
100
AcDbLine
 10
548.3397255421426
 20
280.0000030000006
 30
0.0
 11
547.3397255421426
 21
281.0000030000006
 31
0.0
  0
LINE
  5
10B
330
4D
100
AcDbEntity
  8
1
  6
Continuous
 62
     7
100
AcDbLine
 10
534.3397255421426
 20
281.0000030000006
 30
0.0
 11
547.3397255421426
 21
281.0000030000006
 31
0.0
  0
LINE
  5
10C
330
4D
100
AcDbEntity
  8
1
  6
Continuous
 62
     7
100
AcDbLine
 10
547.3397255421426
 20
281.0000030000006
 30
0.0
 11
547.3397255421426
 21
260.0000030000006
 31
0.0
  0
LINE
  5
10D
330
4D
100
AcDbEntity
  8
1
  6
Continuous
 62
     7
100
AcDbLine
 10
536.0717763497115
 20
260.0000030000006
 30
0.0
 11
536.0717763497117
 21
281.0000030000006
 31
0.0
  0
LINE
  5
10E
330
4D
100
AcDbEntity
  8
1
  6
Continuous
 62
     7
100
AcDbLine
 10
547.3397255421426
 20
260.0000030000006
 30
0.0
 11
548.3397255421426
 21
261.0000030000006
 31
0.0
  0
LINE
  5
10F
330
4D
100
AcDbEntity
  8
1
  6
Continuous
 62
     7
100
AcDbLine
 10
547.3397255421426
 20
260.0000030000006
 30
0.0
 11
534.3397255421426
 21
260.0000030000006
 31
0.0
  0
LINE
  5
110
330
4D
100
AcDbEntity
  8
1
  6
Continuous
 62
     2
100
AcDbLine
 10
548.3397255421426
 20
261.0000030000006
 30
0.0
 11
536.0717763497115
 21
261.0000030000006
 31
0.0
  0
LINE
  5
111
330
4D
100
AcDbEntity
  8
1
  6
Continuous
 62
     2
100
AcDbLine
 10
536.0717763497115
 20
261.0000030000006
 30
0.0
 11
534.3397255421426
 21
260.0000030000006
 31
0.0
  0
LINE
  5
112
330
4D
100
AcDbEntity
  8
1
  6
Continuous
 62
     2
100
AcDbLine
 10
534.3397255421426
 20
281.0000030000006
 30
0.0
 11
536.0717763497115
 21
280.0000030000006
 31
0.0
  0
LINE
  5
113
330
4D
100
AcDbEntity
  8
1
  6
Continuous
 62
     2
100
AcDbLine
 10
536.0717763497115
 20
280.0000030000006
 30
0.0
 11
548.3397255421426
 21
280.0000030000006
 31
0.0
  0
ARC
  5
114
330
4D
100
AcDbEntity
  8
1
  6
Continuous
 62
     7
100
AcDbCircle
 10
166.7994034628329
 20
290.8609897316576
 30
0.0
 40
8.000000000003036
100
AcDbArc
 50
178.1550270729749
 51
188.4575806093445
  0
ARC
  5
115
330
4D
100
AcDbEntity
  8
1
  6
Continuous
 62
     7
100
AcDbCircle
 10
166.7994034628329
 20
290.8609897316576
 30
0.0
 40
7.999999999999786
100
AcDbArc
 50
188.4575806093445
 51
260.8737686967882
  0
ARC
  5
116
330
4D
100
AcDbEntity
  8
1
  6
Continuous
 62
     7
100
AcDbCircle
 10
146.199403462833
 20
270.5000030000002
 30
0.0
 40
22.99999999999997
100
AcDbArc
 50
32.80879508619667
 51
56.52255421993713
  0
ARC
  5
117
330
4D
100
AcDbEntity
  8
1
  6
Continuous
 62
     7
100
AcDbCircle
 10
146.199403462833
 20
270.5000030000002
 30
0.0
 40
22.99999999999996
100
AcDbArc
 50
123.2180009059106
 51
327.3201497509062
  0
ARC
  5
118
330
4D
100
AcDbEntity
  8
1
  6
Continuous
 62
     7
100
AcDbCircle
 10
118.099403462833
 20
277.6686848872092
 30
0.0
 40
15.49999999999997
100
AcDbArc
 50
345.6883565795106
 51
0.0
  0
ARC
  5
119
330
4D
100
AcDbEntity
  8
1
  6
Continuous
 62
     7
100
AcDbCircle
 10
131.599403462833
 20
291.0500030000003
 30
0.0
 40
2.0
100
AcDbArc
 50
0.0
 51
36.86989764583995
  0
ARC
  5
11A
330
4D
100
AcDbEntity
  8
1
  6
Continuous
 62
     7
100
AcDbCircle
 10
146.199403462833
 20
270.5000030000002
 30
0.0
 40
13.50000000000001
100
AcDbArc
 50
165.6883565795097
 51
273.2614796421437
  0
ARC
  5
11B
330
4D
100
AcDbEntity
  8
1
  6
Continuous
 62
     7
100
AcDbCircle
 10
166.7994034628329
 20
290.8609897316576
 30
0.0
 40
7.999999999999834
100
AcDbArc
 50
260.8737686967882
 51
266.7385203578566
  0
ARC
  5
11C
330
4D
100
AcDbEntity
  8
1
  6
Continuous
 62
     7
100
AcDbCircle
 10
160.8025138787014
 20
291.0541614576102
 30
0.0
 40
1.999999999992819
100
AcDbArc
 50
143.2788714599935
 51
178.1550270729755
  0
ARC
  5
11D
330
4D
100
AcDbEntity
  8
1
  6
Continuous
 62
     7
100
AcDbCircle
 10
514.4397255421424
 20
292.2500030000003
 30
0.0
 40
13.00000000001209
100
AcDbArc
 50
185.8426577750609
 51
270.0
  0
ARC
  5
11E
330
4D
100
AcDbEntity
  8
1
  6
Continuous
 62
     7
100
AcDbCircle
 10
474.2397255421425
 20
291.0500030000003
 30
0.0
 40
2.0
100
AcDbArc
 50
0.0
 51
36.86989764584142
  0
ARC
  5
11F
330
4D
100
AcDbEntity
  8
1
  6
Continuous
 62
     7
100
AcDbCircle
 10
503.4968683992855
 20
291.1302362604237
 30
0.0
 40
2.000000000010415
100
AcDbArc
 50
145.9522676295691
 51
185.842657775058
  0
ARC
  5
120
330
4D
100
AcDbEntity
  8
1
  6
Continuous
 62
     7
100
AcDbCircle
 10
504.7437344707115
 20
246.2500030000003
 30
0.0
 40
15.49999999999997
100
AcDbArc
 50
90.0
 51
102.564740327654
  0
ARC
  5
121
330
4D
100
AcDbEntity
  8
1
  6
Continuous
 62
     7
100
AcDbCircle
 10
133.4494034628335
 20
714.8417083823721
 30
0.0
 40
4.0
100
AcDbArc
 50
0.0
 51
90.0
  0
ARC
  5
122
330
4D
100
AcDbEntity
  8
1
  6
Continuous
 62
     7
100
AcDbCircle
 10
158.9494034628332
 20
714.8417083823721
 30
0.0
 40
4.0
100
AcDbArc
 50
90.0
 51
180.0
  0
ARC
  5
123
330
4D
100
AcDbEntity
  8
1
  6
Continuous
 62
     7
100
AcDbCircle
 10
168.6994034628332
 20
719.3417083823721
 30
0.0
 40
0.5
100
AcDbArc
 50
270.0
 51
0.0
  0
ARC
  5
124
330
4D
100
AcDbEntity
  8
1
  6
Continuous
 62
     7
100
AcDbCircle
 10
123.6994034628334
 20
719.3417083823721
 30
0.0
 40
0.5
100
AcDbArc
 50
180.0
 51
270.0
  0
ARC
  5
125
330
4D
100
AcDbEntity
  8
1
  6
Continuous
 62
     7
100
AcDbCircle
 10
107.4494034628334
 20
695.2080143270995
 30
0.0
 40
29.99999999999986
100
AcDbArc
 50
344.897363080814
 51
0.0
  0
ARC
  5
126
330
4D
100
AcDbEntity
  8
1
  6
Continuous
 62
     7
100
AcDbCircle
 10
166.9494034628332
 20
700.9698911406653
 30
0.0
 40
11.99999999999972
100
AcDbArc
 50
180.0
 51
265.9394926513535
  0
ARC
  5
127
330
4D
100
AcDbEntity
  8
1
  6
Continuous
 62
     7
100
AcDbCircle
 10
532.3397255421426
 20
293.0000030000003
 30
0.0
 40
0.5
100
AcDbArc
 50
90.0
 51
180.0
  0
ARC
  5
128
330
4D
100
AcDbEntity
  8
1
  6
Continuous
 62
     7
100
AcDbCircle
 10
532.3397255421426
 20
248.0000030000003
 30
0.0
 40
0.5
100
AcDbArc
 50
180.0
 51
270.0
  0
ARC
  5
129
330
4D
100
AcDbEntity
  8
1
  6
Continuous
 62
     7
100
AcDbCircle
 10
527.8397255421426
 20
257.7500030000003
 30
0.0
 40
4.0
100
AcDbArc
 50
0.0
 51
90.0
  0
ARC
  5
12A
330
4D
100
AcDbEntity
  8
1
  6
Continuous
 62
     7
100
AcDbCircle
 10
527.8397255421426
 20
283.2500030000003
 30
0.0
 40
4.0
100
AcDbArc
 50
270.0
 51
0.0
  0
ENDBLK
  5
4F
330
4D
100
AcDbEntity
  8
0
100
AcDbBlockEnd
  0
BLOCK
  5
51
330
50
100
AcDbEntity
  8
0
100
AcDbBlockBegin
  2
81-100X-M21
 70
     0
 10
194.9946893403852
 20
321.0814634582532
 30
0.0
  3
81-100X-M21
  1

  0
LINE
  5
12B
330
50
100
AcDbEntity
  8
1
  6
Continuous
 62
     7
100
AcDbLine
 10
168.1994034628329
 20
691.6417083823727
 30
0.0
 11
168.1994034628329
 21
661.0417083823729
 31
0.0
  0
LINE
  5
12C
330
50
100
AcDbEntity
  8
1
  6
Continuous
 62
     7
100
AcDbLine
 10
180.6994034628329
 20
660.841708382373
 30
0.0
 11
168.3994034628328
 21
660.841708382373
 31
0.0
  0
LINE
  5
12D
330
50
100
AcDbEntity
  8
1
  6
Continuous
 62
     7
100
AcDbLine
 10
180.6994034628329
 20
691.841708382373
 30
0.0
 11
168.3994034628328
 21
691.8417083823729
 31
0.0
  0
LINE
  5
12E
330
50
100
AcDbEntity
  8
1
  6
Continuous
 62
     7
100
AcDbLine
 10
173.6669909468395
 20
286.0000030000002
 30
0.0
 11
168.199403462833
 21
286.0000030000001
 31
0.0
  0
LINE
  5
12F
330
50
100
AcDbEntity
  8
1
  6
Continuous
 62
     7
100
AcDbLine
 10
177.9191038915928
 20
255.0000030000002
 30
0.0
 11
168.199403462833
 21
255.0000030000002
 31
0.0
  0
LINE
  5
130
330
50
100
AcDbEntity
  8
1
  6
Continuous
 62
     7
100
AcDbLine
 10
180.4994034628329
 20
286.0000030000002
 30
0.0
 11
173.6669909468395
 21
286.0000030000002
 31
0.0
  0
LINE
  5
131
330
50
100
AcDbEntity
  8
1
  6
Continuous
 62
     7
100
AcDbLine
 10
180.4994034628329
 20
255.0000030000002
 30
0.0
 11
177.9191038915928
 21
255.0000030000002
 31
0.0
  0
LINE
  5
132
330
50
100
AcDbEntity
  8
1
  6
Continuous
 62
     7
100
AcDbLine
 10
167.999403462833
 20
285.800003
 30
0.0
 11
167.999403462833
 21
282.764014875835
 31
0.0
  0
LINE
  5
133
330
50
100
AcDbEntity
  8
1
  6
Continuous
 62
     7
100
AcDbLine
 10
167.999403462833
 20
256.0000030000002
 30
0.0
 11
167.999403462833
 21
255.2000030000001
 31
0.0
  0
LINE
  5
134
330
50
100
AcDbEntity
  8
1
  6
Continuous
 62
     7
100
AcDbLine
 10
167.999403462833
 20
283.9742731006338
 30
0.0
 11
167.999403462833
 21
256.0000030000002
 31
0.0
  0
LINE
  5
135
330
50
100
AcDbEntity
  8
1
  6
PHANTOM
 62
     5
100
AcDbLine
 10
457.8397255421418
 20
266.5000030000003
 30
0.0
 11
471.3397255421418
 21
266.5000030000003
 31
0.0
  0
LINE
  5
136
330
50
100
AcDbEntity
  8
1
  6
PHANTOM
 62
     5
100
AcDbLine
 10
457.8397255421418
 20
274.5000030000005
 30
0.0
 11
471.3397255421418
 21
274.5000030000005
 31
0.0
  0
LINE
  5
137
330
50
100
AcDbEntity
  8
1
  6
Continuous
 62
     7
100
AcDbLine
 10
484.8397255421417
 20
286.0000030000003
 30
0.0
 11
484.8397255421417
 21
285.4749821318723
 31
0.0
  0
LINE
  5
138
330
50
100
AcDbEntity
  8
1
  6
Continuous
 62
     7
100
AcDbLine
 10
492.8397255421418
 20
286.0000030000003
 30
0.0
 11
492.8397255421418
 21
285.4749821318723
 31
0.0
  0
LINE
  5
139
330
50
100
AcDbEntity
  8
1
  6
Continuous
 62
     7
100
AcDbLine
 10
484.8397255421417
 20
286.0000030000003
 30
0.0
 11
484.8397255421417
 21
286.000002999998
 31
0.0
  0
LINE
  5
13A
330
50
100
AcDbEntity
  8
1
  6
Continuous
 62
     7
100
AcDbLine
 10
484.8397255421417
 20
301.5000030000002
 30
0.0
 11
484.8397255421417
 21
286.0000030000003
 31
0.0
  0
LINE
  5
13B
330
50
100
AcDbEntity
  8
1
  6
Continuous
 62
     7
100
AcDbLine
 10
492.8397255421418
 20
301.5000030000002
 30
0.0
 11
492.8397255421418
 21
286.0000030000003
 31
0.0
  0
LINE
  5
13C
330
50
100
AcDbEntity
  8
1
  6
Continuous
 62
     7
100
AcDbLine
 10
484.8397255421417
 20
254.5000030000002
 30
0.0
 11
484.8397255421417
 21
255.5250238681284
 31
0.0
  0
LINE
  5
13D
330
50
100
AcDbEntity
  8
1
  6
Continuous
 62
     7
100
AcDbLine
 10
492.8397255421417
 20
254.5000030000002
 30
0.0
 11
492.8397255421417
 21
255.5250238681283
 31
0.0
  0
ARC
  5
13E
330
50
100
AcDbEntity
  8
1
  6
Continuous
 62
     7
100
AcDbCircle
 10
185.1994034628337
 20
772.341708382373
 30
0.0
 40
100.0
100
AcDbArc
 50
270.0
 51
274.3338293663742
  0
ARC
  5
13F
330
50
100
AcDbEntity
  8
1
  6
Continuous
 62
     7
100
AcDbCircle
 10
192.4746843617114
 20
676.341708382373
 30
0.0
 40
3.724719101121394
100
AcDbArc
 50
0.0
 51
85.66617063362416
  0
ARC
  5
140
330
50
100
AcDbEntity
  8
1
  6
Continuous
 62
     7
100
AcDbCircle
 10
185.1994034628337
 20
580.3417083823728
 30
0.0
 40
100.0000000000001
100
AcDbArc
 50
85.66617063362587
 51
90.0
  0
ARC
  5
141
330
50
100
AcDbEntity
  8
1
  6
Continuous
 62
     7
100
AcDbCircle
 10
185.1994034628337
 20
772.341708382373
 30
0.0
 40
100.0000000000001
100
AcDbArc
 50
265.6661706336254
 51
270.0
  0
ARC
  5
142
330
50
100
AcDbEntity
  8
1
  6
Continuous
 62
     7
100
AcDbCircle
 10
177.9241225639552
 20
676.341708382373
 30
0.0
 40
3.724719101123696
100
AcDbArc
 50
180.0
 51
265.666170633626
  0
ARC
  5
143
330
50
100
AcDbEntity
  8
1
  6
Continuous
 62
     7
100
AcDbCircle
 10
185.1994034628337
 20
580.3417083823728
 30
0.0
 40
100.0
100
AcDbArc
 50
90.0
 51
94.33382936637453
  0
ARC
  5
144
330
50
100
AcDbEntity
  8
1
  6
Continuous
 62
     7
100
AcDbCircle
 10
177.9241225639552
 20
676.341708382373
 30
0.0
 40
3.724719101123389
100
AcDbArc
 50
94.3338293663741
 51
180.0
  0
ARC
  5
145
330
50
100
AcDbEntity
  8
1
  6
Continuous
 62
     7
100
AcDbCircle
 10
192.4746843617114
 20
676.341708382373
 30
0.0
 40
3.724719101123511
100
AcDbArc
 50
274.3338293663757
 51
0.0
  0
ARC
  5
146
330
50
100
AcDbEntity
  8
1
  6
Continuous
 62
     7
100
AcDbCircle
 10
180.6994034628329
 20
676.341708382373
 30
0.0
 40
15.49999999999991
100
AcDbArc
 50
0.0
 51
90.0
  0
ARC
  5
147
330
50
100
AcDbEntity
  8
1
  6
Continuous
 62
     7
100
AcDbCircle
 10
180.6994034628329
 20
676.341708382373
 30
0.0
 40
15.5
100
AcDbArc
 50
270.0
 51
0.0
  0
ARC
  5
148
330
50
100
AcDbEntity
  8
1
  6
Continuous
 62
     7
100
AcDbCircle
 10
180.499403462833
 20
270.5000030000002
 30
0.0
 40
15.5
100
AcDbArc
 50
0.0
 51
9.36885182365496
  0
ARC
  5
149
330
50
100
AcDbEntity
  8
1
  6
Continuous
 62
     7
100
AcDbCircle
 10
180.499403462833
 20
270.5000030000002
 30
0.0
 40
15.50000000000003
100
AcDbArc
 50
269.9999999999997
 51
331.4977761969168
  0
ARC
  5
14A
330
50
100
AcDbEntity
  8
1
  6
Continuous
 62
     7
100
AcDbCircle
 10
180.499403462833
 20
270.5000030000002
 30
0.0
 40
15.49999999999998
100
AcDbArc
 50
331.4977761969168
 51
0.0
  0
ARC
  5
14B
330
50
100
AcDbEntity
  8
1
  6
Continuous
 62
     7
100
AcDbCircle
 10
180.499403462833
 20
270.5000030000002
 30
0.0
 40
15.49999999999991
100
AcDbArc
 50
9.36885182365496
 51
90.00000000000031
  0
ARC
  5
14C
330
50
100
AcDbEntity
  8
1
  6
Continuous
 62
     7
100
AcDbCircle
 10
184.9994034628329
 20
257.500003
 30
0.0
 40
7.0
100
AcDbArc
 50
270.0
 51
317.3771453921839
  0
ARC
  5
14D
330
50
100
AcDbEntity
  8
1
  6
Continuous
 62
     7
100
AcDbCircle
 10
135.9994034628328
 20
278.0000030000001
 30
0.0
 40
60.00000000000023
100
AcDbArc
 50
336.5872805163927
 51
345.6245513557163
  0
ARC
  5
14E
330
50
100
AcDbEntity
  8
1
  6
Continuous
 62
     7
100
AcDbCircle
 10
184.9994034628329
 20
257.500003
 30
0.0
 40
7.000000000000107
100
AcDbArc
 50
222.6228546078154
 51
270.0
  0
ARC
  5
14F
330
50
100
AcDbEntity
  8
1
  6
Continuous
 62
     7
100
AcDbCircle
 10
233.9994034628328
 20
278.0000030000001
 30
0.0
 40
59.99999999999989
100
AcDbArc
 50
156.5872805163922
 51
171.5155502586236
  0
ARC
  5
150
330
50
100
AcDbEntity
  8
1
  6
Continuous
 62
     7
100
AcDbCircle
 10
184.9994034628329
 20
298.5000030000001
 30
0.0
 40
7.0
100
AcDbArc
 50
90.0
 51
137.3771453921671
  0
ARC
  5
151
330
50
100
AcDbEntity
  8
1
  6
Continuous
 62
     7
100
AcDbCircle
 10
233.9994034628328
 20
278.0000030000001
 30
0.0
 40
59.99999999999988
100
AcDbArc
 50
203.1688797851185
 51
203.4127194836073
  0
ARC
  5
152
330
50
100
AcDbEntity
  8
1
  6
Continuous
 62
     7
100
AcDbCircle
 10
135.9994034628328
 20
278.0000030000001
 30
0.0
 40
60.0
100
AcDbArc
 50
0.0
 51
23.41271948360644
  0
ARC
  5
153
330
50
100
AcDbEntity
  8
1
  6
Continuous
 62
     7
100
AcDbCircle
 10
184.9994034628329
 20
298.5000030000001
 30
0.0
 40
6.999999999999877
100
AcDbArc
 50
42.62285460780517
 51
90.0
  0
ARC
  5
154
330
50
100
AcDbEntity
  8
1
  6
Continuous
 62
     7
100
AcDbCircle
 10
135.9994034628328
 20
278.0000030000001
 30
0.0
 40
60.00000000000001
100
AcDbArc
 50
355.2420766648553
 51
0.0
  0
ARC
  5
155
330
50
100
AcDbEntity
  8
1
  6
PHANTOM
 62
     5
100
AcDbCircle
 10
504.8397255421418
 20
270.5000030000003
 30
0.0
 40
3.999999999999946
100
AcDbArc
 50
280.0000000000011
 51
79.99999999999928
  0
ARC
  5
156
330
50
100
AcDbEntity
  8
1
  6
PHANTOM
 62
     5
100
AcDbCircle
 10
457.8397255421418
 20
270.5000030000003
 30
0.0
 40
4.000000000000227
100
AcDbArc
 50
90.0
 51
270.0
  0
ARC
  5
157
330
50
100
AcDbEntity
  8
1
  6
Continuous
 62
     7
100
AcDbCircle
 10
488.8397255421417
 20
254.5000030000002
 30
0.0
 40
4.0
100
AcDbArc
 50
180.0
 51
0.0
  0
ARC
  5
158
330
50
100
AcDbEntity
  8
1
  6
Continuous
 62
     7
100
AcDbCircle
 10
488.8397255421417
 20
270.5000030000003
 30
0.0
 40
15.50000000000004
100
AcDbArc
 50
284.9552483166433
 51
75.04475168335635
  0
ARC
  5
159
330
50
100
AcDbEntity
  8
1
  6
Continuous
 62
     7
100
AcDbCircle
 10
488.8397255421417
 20
270.5000030000003
 30
0.0
 40
15.50000000000009
100
AcDbArc
 50
104.9552483166433
 51
255.0447516833566
  0
ARC
  5
15A
330
50
100
AcDbEntity
  8
1
  6
Continuous
 62
     7
100
AcDbCircle
 10
488.8397255421417
 20
301.5000030000002
 30
0.0
 40
4.000000000000114
100
AcDbArc
 50
0.0
 51
180.0
  0
SPLINE
  5
15B
330
50
100
AcDbEntity
  8
1
  6
Continuous
 62
     7
100
AcDbSpline
210
0.0
220
0.0
230
1.0
 70
     8
 71
     3
 72
    27
 73
    23
 74
    21
 42
0.000000001
 43
0.0000000001
 44
0.00000001
 40
0.0
 40
0.0
 40
0.0
 40
0.0
 40
0.3521433567560702
 40
0.7044480106676434
 40
1.400800675077271
 40
2.097184225501646
 40
2.769838294033624
 40
3.442561383172321
 40
4.077219721058762
 40
4.712002505240273
 40
5.296741623802306
 40
5.881694777238834
 40
6.408245068039195
 40
6.935160786667794
 40
7.400656982102954
 40
7.866768373608832
 40
8.276154744419216
 40
8.68646528821345
 40
9.055039980230925
 40
9.424428423782693
 40
9.778116410379528
 40
10.13180439006588
 40
10.13180439006588
 40
10.13180439006588
 40
10.13180439006588
 10
484.8397255421417
 20
255.0000030000003
 30
0.0
 10
484.8404566455399
 20
255.1173865176522
 30
0.0
 10
484.8419191919502
 20
255.3522073197123
 30
0.0
 10
484.8573648547974
 20
255.8189326607545
 30
0.0
 10
484.8947340988105
 20
256.3995903909472
 30
0.0
 10
484.9690007115678
 20
257.084272818624
 30
0.0
 10
485.0730764866088
 20
257.7570857808899
 30
0.0
 10
485.2041150150188
 20
258.4042311794836
 30
0.0
 10
485.3642308773075
 20
259.0317769194517
 30
0.0
 10
485.5479280411976
 20
259.6222513908771
 30
0.0
 10
485.7595246733335
 20
260.1856395786509
 30
0.0
 10
485.9902823877359
 20
260.7022975588721
 30
0.0
 10
486.2473887727344
 20
261.1846171270566
 30
0.0
 10
486.5186626778744
 20
261.6128550716976
 30
0.0
 10
486.8142397649465
 20
261.9996464524546
 30
0.0
 10
487.1193651437766
 20
262.3275049864597
 30
0.0
 10
487.4457570262227
 20
262.6068511348159
 30
0.0
 10
487.7786863405865
 20
262.8236922392198
 30
0.0
 10
488.127431674332
 20
262.9855260525244
 30
0.0
 10
488.4803987748534
 20
263.0794321435027
 30
0.0
 10
488.8401931236842
 20
263.1174695685414
 30
0.0
 10
489.0746882445065
 20
263.0866339152521
 30
0.0
 10
489.1919358035776
 20
263.0712160835847
 30
0.0
 11
484.8397255421417
 21
255.0000030000003
 31
0.0
 11
484.8434943612911
 21
255.3521261786952
 31
0.0
 11
484.8548008187391
 21
255.7042493573904
 31
0.0
 11
484.8997968970265
 21
256.3991467499003
 31
0.0
 11
484.9751729960377
 21
257.0914389519385
 31
0.0
 11
485.0781870106449
 21
257.7561581473134
 31
0.0
 11
485.2122633358796
 21
258.4153848864917
 31
0.0
 11
485.3694972587618
 21
259.0302577996256
 31
0.0
 11
485.5588963056137
 21
259.6361267492219
 31
0.0
 11
485.7649887902629
 21
260.1833430907861
 31
0.0
 11
486.0046562362952
 21
260.7169437906769
 31
0.0
 11
486.2530341353465
 21
261.181232093231
 31
0.0
 11
486.5363637423882
 21
261.6254893477003
 31
0.0
 11
486.8199024319985
 21
261.9946675150977
 31
0.0
 11
487.1387999178667
 21
262.3346148971295
 31
0.0
 11
487.4509074933002
 21
262.5995414184372
 31
0.0
 11
487.7954665369506
 21
262.8223278798786
 31
0.0
 11
488.1307963455254
 21
262.9753024614758
 31
0.0
 11
488.4875152807058
 21
263.0712160835848
 31
0.0
 11
488.8397255421418
 21
263.1035135281353
 31
0.0
 11
489.1919358035776
 21
263.0712160835847
 31
0.0
  0
SPLINE
  5
15C
330
50
100
AcDbEntity
  8
1
  6
Continuous
 62
     7
100
AcDbSpline
210
0.0
220
0.0
230
1.0
 70
     8
 71
     3
 72
    25
 73
    21
 74
    19
 42
0.000000001
 43
0.0000000001
 44
0.00000001
 40
0.0
 40
0.0
 40
0.0
 40
0.0
 40
0.3693884349423304
 40
0.7379631240431286
 40
1.148273668939955
 40
1.55766004022563
 40
2.023771432016842
 40
2.489267627625387
 40
3.016183346391014
 40
3.542733637288818
 40
4.127686790808892
 40
4.712425909433157
 40
5.347208693667242
 40
5.981867031589538
 40
6.654590120750402
 40
7.327244189277765
 40
8.023627739649898
 40
8.719980403846744
 40
9.07228505753212
 40
9.424428414581792
 40
9.424428414581792
 40
9.424428414581792
 40
9.424428414581792
 10
489.1919358035776
 20
263.0712160835847
 30
0.0
 10
489.3122331180006
 20
263.0434816711862
 30
0.0
 10
489.55256273316
 20
262.9880739310807
 30
0.0
 10
489.9006008905029
 20
262.8229238473574
 30
0.0
 10
490.2337396218918
 20
262.6070647967951
 30
0.0
 10
490.5600718548123
 20
262.3274389210006
 30
0.0
 10
490.8652152792627
 20
261.9996650101164
 30
0.0
 10
491.1607871930458
 20
261.6128493689314
 30
0.0
 10
491.4320626556618
 20
261.1846187278534
 30
0.0
 10
491.6891685965932
 20
260.7022970772312
 30
0.0
 10
491.9199264423693
 20
260.1856397131501
 30
0.0
 10
492.1315230373948
 20
259.6222513514712
 30
0.0
 10
492.3152202119775
 20
259.0317769303293
 30
0.0
 10
492.4753360712247
 20
258.4042311762834
 30
0.0
 10
492.6063746004296
 20
257.7570857816343
 30
0.0
 10
492.7104503751729
 20
257.0842728182761
 30
0.0
 10
492.784716987873
 20
256.3995903909811
 30
0.0
 10
492.8220862317483
 20
255.8189326608679
 30
0.0
 10
492.8375318938548
 20
255.3522073198434
 30
0.0
 10
492.838994438743
 20
255.117386517749
 30
0.0
 10
492.8397255421417
 20
255.0000029999988
 30
0.0
 11
489.1919358035776
 21
263.0712160835847
 31
0.0
 11
489.5486547387583
 21
262.9753024614758
 31
0.0
 11
489.8839845473331
 21
262.8223278798785
 31
0.0
 11
490.2285435909833
 21
262.5995414184372
 31
0.0
 11
490.540651166417
 21
262.3346148971295
 31
0.0
 11
490.8595486522852
 21
261.9946675150978
 31
0.0
 11
491.1430873418954
 21
261.6254893477003
 31
0.0
 11
491.426416948937
 21
261.181232093231
 31
0.0
 11
491.6747948479884
 21
260.7169437906769
 31
0.0
 11
491.9144622940208
 21
260.1833430907863
 31
0.0
 11
492.1205547786701
 21
259.6361267492221
 31
0.0
 11
492.309953825522
 21
259.0302577996258
 31
0.0
 11
492.467187748404
 21
258.4153848864917
 31
0.0
 11
492.6012640736387
 21
257.7561581473134
 31
0.0
 11
492.7042780882458
 21
257.0914389519385
 31
0.0
 11
492.7796541872571
 21
256.3991467499002
 31
0.0
 11
492.8246502655444
 21
255.7042493573902
 31
0.0
 11
492.8359567229923
 21
255.3521261786944
 31
0.0
 11
492.8397255421417
 21
255.0000029999988
 31
0.0
  0
SPLINE
  5
15D
330
50
100
AcDbEntity
  8
1
  6
Continuous
 62
     7
100
AcDbSpline
210
0.0
220
0.0
230
1.0
 70
     8
 71
     3
 72
    27
 73
    23
 74
    21
 42
0.000000001
 43
0.0000000001
 44
0.00000001
 40
0.0
 40
0.0
 40
0.0
 40
0.0
 40
0.5635691099583315
 40
1.127238557117207
 40
2.238983738624112
 40
3.350752159096016
 40
4.416730897015734
 40
5.482762972378816
 40
6.474560141235973
 40
7.466461889392208
 40
8.358933083414966
 40
9.251594011154227
 40
10.02462150576419
 40
10.79808402885568
 40
11.43923201099743
 40
12.08113212820479
 40
12.5913266308956
 40
13.10432938414694
 40
13.50843920731088
 40
13.91674533165421
 40
14.27825507390663
 40
14.63976480459911
 40
14.63976480459911
 40
14.63976480459911
 40
14.63976480459911
 10
484.8397255421417
 20
286.000002999998
 30
0.0
 10
484.8404554149604
 20
285.8121451616661
 30
0.0
 10
484.8419152879072
 20
285.4363960389917
 30
0.0
 10
484.8572958077972
 20
284.6901969821661
 30
0.0
 10
484.8946028927755
 20
283.761774447185
 30
0.0
 10
484.9685356709873
 20
282.667623160666
 30
0.0
 10
485.0724135025799
 20
281.5912214055149
 30
0.0
 10
485.2027216408206
 20
280.5579614319303
 30
0.0
 10
485.3624976769224
 20
279.5538502456182
 30
0.0
 10
485.5447578397111
 20
278.6123774585589
 30
0.0
 10
485.7558178375929
 20
277.7108674386903
 30
0.0
 10
485.9838448342573
 20
276.8888530082364
 30
0.0
 10
486.2401207873168
 20
276.1169478949931
 30
0.0
 10
486.5063571261052
 20
275.4374794116331
 30
0.0
 10
486.8007012434362
 20
274.8178873737637
 30
0.0
 10
487.0974572401607
 20
274.2978658793191
 30
0.0
 10
487.4232330260744
 20
273.8472699510371
 30
0.0
 10
487.7469854980216
 20
273.4964751051897
 30
0.0
 10
488.1008730084092
 20
273.2262211530427
 30
0.0
 10
488.4622655312108
 20
273.0694796857248
 30
0.0
 10
488.8408629793807
 20
272.9985820977399
 30
0.0
 10
489.078271292613
 20
273.0519108962685
 30
0.0
 10
489.1969754481518
 20
273.0785752916414
 30
0.0
 11
484.8397255421417
 21
286.000002999998
 31
0.0
 11
484.8434857807371
 21
285.4364464445009
 31
0.0
 11
484.8547664965228
 21
284.8728898890039
 31
0.0
 11
484.8996555286582
 21
283.7620513212911
 31
0.0
 11
484.9749841496692
 21
282.6528378073065
 31
0.0
 11
485.0775767666512
 21
281.5918074474256
 31
0.0
 11
485.211713905068
 21
280.5342481754609
 31
0.0
 11
485.3679363053831
 21
279.5548319280484
 31
0.0
 11
485.5576545554561
 21
278.5812426596952
 31
0.0
 11
485.7616641781999
 21
277.7124015316131
 31
0.0
 11
486.0021295889896
 21
276.8527388547832
 31
0.0
 11
486.2465020299908
 21
276.1193538145021
 31
0.0
 11
486.5315216578624
 21
275.4003210711018
 31
0.0
 11
486.8077567072232
 21
274.8217323292092
 31
0.0
 11
487.1300405036891
 21
274.2666026915452
 31
0.0
 11
487.4306151324879
 21
273.8543487373763
 31
0.0
 11
487.7832133438203
 21
273.481727850137
 31
0.0
 11
488.1079637062562
 21
273.241224314447
 31
0.0
 11
488.482475636132
 21
273.0785752916415
 31
0.0
 11
488.8397255421418
 21
273.0232417966877
 31
0.0
 11
489.1969754481518
 21
273.0785752916414
 31
0.0
  0
SPLINE
  5
15E
330
50
100
AcDbEntity
  8
1
  6
Continuous
 62
     7
100
AcDbSpline
210
0.0
220
0.0
230
1.0
 70
     8
 71
     3
 72
    25
 73
    21
 74
    19
 42
0.000000001
 43
0.0000000001
 44
0.00000001
 40
0.0
 40
0.0
 40
0.0
 40
0.0
 40
0.408306115338063
 40
0.8124159427215406
 40
1.325418696420646
 40
1.835613199235087
 40
2.477513316534691
 40
3.118661298731162
 40
3.892123821873783
 40
4.665151316520088
 40
5.557812244293683
 40
6.450283438342112
 40
7.442185186521449
 40
8.433982355394557
 40
9.500014430768378
 40
10.56599316868588
 40
11.67776158913188
 40
12.78950677050816
 40
13.35317621738026
 40
13.91674532635739
 40
13.91674532635739
 40
13.91674532635739
 40
13.91674532635739
 10
489.1969754481518
 20
273.0785752916414
 30
0.0
 10
489.3251236820652
 20
273.1266111999765
 30
0.0
 10
489.5801031332669
 20
273.2221893303343
 30
0.0
 10
489.931935205236
 20
273.4978772938924
 30
0.0
 10
490.2563720248925
 20
273.8468629160959
 30
0.0
 10
490.5819407281798
 20
274.2980063141225
 30
0.0
 10
490.8787653098374
 20
274.8178464886971
 30
0.0
 10
491.1730888599619
 20
275.4374929004337
 30
0.0
 10
491.4393317658918
 20
276.1169440219064
 30
0.0
 10
491.6956057927777
 20
276.8888542272687
 30
0.0
 10
491.9236333803513
 20
277.7108670953874
 30
0.0
 10
492.1346932085592
 20
278.6123775637066
 30
0.0
 10
492.3169534215294
 20
279.553850217998
 30
0.0
 10
492.476729443439
 20
280.557961441723
 30
0.0
 10
492.6070375857173
 20
281.5912214045887
 30
0.0
 10
492.7109154160796
 20
282.6676231627095
 30
0.0
 10
492.7848481948321
 20
283.7617744483429
 30
0.0
 10
492.8221552788496
 20
284.6901969833872
 30
0.0
 10
492.8375358003415
 20
285.4363960397142
 30
0.0
 10
492.8389956693248
 20
285.8121451619941
 30
0.0
 10
492.8397255421418
 20
286.0000030000003
 30
0.0
 11
489.1969754481518
 21
273.0785752916414
 31
0.0
 11
489.5714873780275
 21
273.2412243144469
 31
0.0
 11
489.8962377404633
 21
273.4817278501369
 31
0.0
 11
490.2488359517959
 21
273.8543487373763
 31
0.0
 11
490.5494105805947
 21
274.2666026915452
 31
0.0
 11
490.8716943770605
 21
274.8217323292093
 31
0.0
 11
491.1479294264213
 21
275.4003210711018
 31
0.0
 11
491.432949054293
 21
276.1193538145022
 31
0.0
 11
491.6773214952943
 21
276.8527388547832
 31
0.0
 11
491.9177869060841
 21
277.7124015316131
 31
0.0
 11
492.1217965288278
 21
278.5812426596952
 31
0.0
 11
492.3115147789007
 21
279.5548319280483
 31
0.0
 11
492.4677371792158
 21
280.5342481754609
 31
0.0
 11
492.6018743176325
 21
281.5918074474257
 31
0.0
 11
492.7044669346145
 21
282.6528378073064
 31
0.0
 11
492.7797955556256
 21
283.7620513212909
 31
0.0
 11
492.8246845877609
 21
284.8728898890037
 31
0.0
 11
492.8359653035466
 21
285.4364464445019
 31
0.0
 11
492.8397255421418
 21
286.0000030000003
 31
0.0
  0
ARC
  5
15F
330
50
100
AcDbEntity
  8
1
  6
Continuous
 62
     7
100
AcDbCircle
 10
168.3994034628328
 20
691.6417083823727
 30
0.0
 40
0.2000000000001592
100
AcDbArc
 50
90.0
 51
180.0
  0
ARC
  5
160
330
50
100
AcDbEntity
  8
1
  6
Continuous
 62
     7
100
AcDbCircle
 10
168.3994034628328
 20
661.0417083823729
 30
0.0
 40
0.1999999999999034
100
AcDbArc
 50
180.0
 51
270.0
  0
ARC
  5
161
330
50
100
AcDbEntity
  8
1
  6
Continuous
 62
     7
100
AcDbCircle
 10
177.9191038915928
 20
254.0000030000002
 30
0.0
 40
1.000000000000239
100
AcDbArc
 50
23.16887978511144
 51
90.0
  0
ARC
  5
162
330
50
100
AcDbEntity
  8
1
  6
Continuous
 62
     7
100
AcDbCircle
 10
183.527749401315
 20
256.1456639275303
 30
0.0
 40
5.00000000000014
100
AcDbArc
 50
203.4127194836082
 51
222.6228546078162
  0
ARC
  5
163
330
50
100
AcDbEntity
  8
1
  6
Continuous
 62
     7
100
AcDbCircle
 10
186.4710575243507
 20
256.1456639275303
 30
0.0
 40
5.000000000000036
100
AcDbArc
 50
317.3771453921838
 51
336.5872805163914
  0
ARC
  5
164
330
50
100
AcDbEntity
  8
1
  6
Continuous
 62
     7
100
AcDbCircle
 10
168.199403462833
 20
255.2000030000001
 30
0.0
 40
0.2000000000000171
100
AcDbArc
 50
180.0
 51
270.0
  0
ARC
  5
165
330
50
100
AcDbEntity
  8
1
  6
Continuous
 62
     7
100
AcDbCircle
 10
168.199403462833
 20
285.800003
 30
0.0
 40
0.2000000000001023
100
AcDbArc
 50
90.0
 51
180.0
  0
ARC
  5
166
330
50
100
AcDbEntity
  8
1
  6
Continuous
 62
     7
100
AcDbCircle
 10
173.6669909468395
 20
287.0000030000002
 30
0.0
 40
1.0
100
AcDbArc
 50
270.0
 51
351.5155502586192
  0
ARC
  5
167
330
50
100
AcDbEntity
  8
1
  6
Continuous
 62
     7
100
AcDbCircle
 10
183.5277494013155
 20
299.8543420724703
 30
0.0
 40
5.000000000000137
100
AcDbArc
 50
137.3771453921671
 51
156.5872805163912
  0
ARC
  5
168
330
50
100
AcDbEntity
  8
1
  6
Continuous
 62
     7
100
AcDbCircle
 10
186.4710575243508
 20
299.8543420724695
 30
0.0
 40
4.999999999999959
100
AcDbArc
 50
23.4127194836034
 51
42.62285460780474
  0
ENDBLK
  5
52
330
50
100
AcDbEntity
  8
0
100
AcDbBlockEnd
  0
BLOCK
  5
54
330
53
100
AcDbEntity
  8
0
100
AcDbBlockBegin
  2
32-1-16
 70
     0
 10
396.4866815693418
 20
429.5008426999626
 30
0.0
  3
32-1-16
  1

  0
LINE
  5
169
330
53
100
AcDbEntity
  8
1
  6
Continuous
 62
     7
100
AcDbLine
 10
134.6413824011025
 20
305.0000030000012
 30
0.0
 11
134.699403462833
 21
305.0000030000012
 31
0.0
  0
LINE
  5
16A
330
53
100
AcDbEntity
  8
1
  6
Continuous
 62
     7
100
AcDbLine
 10
133.0124034628331
 20
296.0000030000012
 30
0.0
 11
132.8994034628331
 21
296.0000030000012
 31
0.0
  0
LINE
  5
16B
330
53
100
AcDbEntity
  8
1
  6
Continuous
 62
     7
100
AcDbLine
 10
132.8994034628331
 20
296.0000030000012
 30
0.0
 11
146.199403462833
 21
296.0000030000012
 31
0.0
  0
LINE
  5
16C
330
53
100
AcDbEntity
  8
1
  6
Continuous
 62
     7
100
AcDbLine
 10
152.8514708106579
 20
690.3417083823728
 30
0.0
 11
139.5473361150077
 21
690.3417083823728
 31
0.0
  0
LINE
  5
16D
330
53
100
AcDbEntity
  8
1
  6
Continuous
 62
     7
100
AcDbLine
 10
161.6497927897273
 20
677.5808490714714
 30
0.0
 11
154.9977254419025
 21
689.1025676932742
 31
0.0
  0
LINE
  5
16E
330
53
100
AcDbEntity
  8
1
  6
Continuous
 62
     7
100
AcDbLine
 10
154.9977254419025
 20
663.5808490714714
 30
0.0
 11
161.6497927897273
 21
675.1025676932742
 31
0.0
  0
LINE
  5
16F
330
53
100
AcDbEntity
  8
1
  6
Continuous
 62
     7
100
AcDbLine
 10
155.9673526552642
 20
306.0000030000012
 30
0.0
 11
153.9941514173544
 21
306.0000030000012
 31
0.0
  0
LINE
  5
170
330
53
100
AcDbEntity
  8
1
  6
Continuous
 62
     7
100
AcDbLine
 10
157.699403462833
 20
305.0000030000012
 30
0.0
 11
157.7574245245637
 21
305.0000030000012
 31
0.0
  0
LINE
  5
171
330
53
100
AcDbEntity
  8
1
  6
Continuous
 62
     7
100
AcDbLine
 10
159.4994034628331
 20
296.0000030000012
 30
0.0
 11
159.3864034628331
 21
296.0000030000012
 31
0.0
  0
LINE
  5
172
330
53
100
AcDbEntity
  8
1
  6
Continuous
 62
     7
100
AcDbLine
 10
146.199403462833
 20
296.0000030000012
 30
0.0
 11
159.4994034628331
 21
296.0000030000012
 31
0.0
  0
LINE
  5
173
330
53
100
AcDbEntity
  8
1
  6
Continuous
 62
     7
100
AcDbLine
 10
138.3538208132466
 20
306.0000030000012
 30
0.0
 11
136.4314542704018
 21
306.0000030000012
 31
0.0
  0
LINE
  5
174
330
53
100
AcDbEntity
  8
1
  6
Continuous
 62
     7
100
AcDbLine
 10
137.4010814837635
 20
689.1025676932742
 30
0.0
 11
130.7490141359386
 21
677.5808490714714
 31
0.0
  0
LINE
  5
175
330
53
100
AcDbEntity
  8
1
  6
Continuous
 62
     7
100
AcDbLine
 10
130.7490141359386
 20
675.1025676932742
 30
0.0
 11
137.4010814837635
 21
663.5808490714714
 31
0.0
  0
LINE
  5
176
330
53
100
AcDbEntity
  8
1
  6
Continuous
 62
     7
100
AcDbLine
 10
484.8397255421417
 20
296.0000030000003
 30
0.0
 11
475.5397255421418
 21
296.0000030000003
 31
0.0
  0
LINE
  5
177
330
53
100
AcDbEntity
  8
1
  6
Continuous
 62
     7
100
AcDbLine
 10
502.8397255421417
 20
303.7131802497133
 30
0.0
 11
502.8397255421417
 21
296.5717518211706
 31
0.0
  0
LINE
  5
178
330
53
100
AcDbEntity
  8
1
  6
Continuous
 62
     7
100
AcDbLine
 10
474.8397255421417
 20
296.5717518211706
 30
0.0
 11
474.8397255421417
 21
303.7131802497135
 31
0.0
  0
LINE
  5
179
330
53
100
AcDbEntity
  8
1
  6
Continuous
 62
     7
100
AcDbLine
 10
498.6076747345728
 20
306.0000030000003
 30
0.0
 11
479.0717763497107
 21
306.0000030000003
 31
0.0
  0
LINE
  5
17A
330
53
100
AcDbEntity
  8
1
  6
Continuous
 62
     7
100
AcDbLine
 10
502.1397255421417
 20
296.0000030000003
 30
0.0
 11
493.1076747345728
 21
296.0000030000003
 31
0.0
  0
LINE
  5
17B
330
53
100
AcDbEntity
  8
1
  6
Continuous
 62
     7
100
AcDbLine
 10
477.281704480411
 20
305.0000030000003
 30
0.0
 11
477.3397255421417
 21
305.0000030000003
 31
0.0
  0
LINE
  5
17C
330
53
100
AcDbEntity
  8
1
  6
Continuous
 62
     7
100
AcDbLine
 10
500.3397255421417
 20
305.0000030000003
 30
0.0
 11
500.3977466038724
 21
305.0000030000003
 31
0.0
  0
LINE
  5
17D
330
53
100
AcDbEntity
  8
1
  6
Continuous
 62
     7
100
AcDbLine
 10
493.1076747345728
 20
296.0000030000003
 30
0.0
 11
492.8397255421418
 21
296.0000030000003
 31
0.0
  0
ARC
  5
17E
330
53
100
AcDbEntity
  8
1
  6
Continuous
 62
     7
100
AcDbCircle
 10
135.699403462833
 20
300.1424660354429
 30
0.0
 40
5.000000000000102
100
AcDbArc
 50
105.3375576695541
 51
235.9442022574338
  0
ARC
  5
17F
330
53
100
AcDbEntity
  8
1
  6
Continuous
 62
     7
100
AcDbCircle
 10
146.1994034628329
 20
676.3417083823728
 30
0.0
 40
15.49999999999997
100
AcDbArc
 50
55.41462091516095
 51
64.5853790848391
  0
ARC
  5
180
330
53
100
AcDbEntity
  8
1
  6
Continuous
 62
     7
100
AcDbCircle
 10
146.1994034628329
 20
676.3417083823728
 30
0.0
 40
15.5
100
AcDbArc
 50
0.0
 51
4.58537908483964
  0
ARC
  5
181
330
53
100
AcDbEntity
  8
1
  6
Continuous
 62
     7
100
AcDbCircle
 10
146.1994034628329
 20
676.3417083823728
 30
0.0
 40
15.4999999999999
100
AcDbArc
 50
301.0729509721535
 51
304.5853790848393
  0
ARC
  5
182
330
53
100
AcDbEntity
  8
1
  6
Continuous
 62
     7
100
AcDbCircle
 10
146.1994034628329
 20
676.3417083823728
 30
0.0
 40
15.49999999999974
100
AcDbArc
 50
355.4146209151608
 51
0.0
  0
ARC
  5
183
330
53
100
AcDbEntity
  8
1
  6
Continuous
 62
     7
100
AcDbCircle
 10
156.699403462833
 20
300.1424660354429
 30
0.0
 40
5.000000000000158
100
AcDbArc
 50
304.055797742568
 51
74.6624423304437
  0
ARC
  5
184
330
53
100
AcDbEntity
  8
1
  6
Continuous
 62
     7
100
AcDbCircle
 10
146.1994034628329
 20
676.3417083823728
 30
0.0
 40
15.50000000000006
100
AcDbArc
 50
115.4146209151615
 51
124.5853790848384
  0
ARC
  5
185
330
53
100
AcDbEntity
  8
1
  6
Continuous
 62
     7
100
AcDbCircle
 10
146.1994034628329
 20
676.3417083823728
 30
0.0
 40
15.49999999999964
100
AcDbArc
 50
175.4146209151603
 51
180.0
  0
ARC
  5
186
330
53
100
AcDbEntity
  8
1
  6
Continuous
 62
     7
100
AcDbCircle
 10
146.1994034628329
 20
676.3417083823728
 30
0.0
 40
15.49999999999975
100
AcDbArc
 50
235.4146209151614
 51
238.9270490278461
  0
ARC
  5
187
330
53
100
AcDbEntity
  8
1
  6
Continuous
 62
     7
100
AcDbCircle
 10
146.1994034628329
 20
676.3417083823728
 30
0.0
 40
15.4999999999998
100
AcDbArc
 50
180.0
 51
184.5853790848392
  0
ARC
  5
188
330
53
100
AcDbEntity
  8
1
  6
Continuous
 62
     7
100
AcDbCircle
 10
146.1994034628329
 20
676.3417083823728
 30
0.0
 40
10.76794919243103
100
AcDbArc
 50
317.9829399353528
 51
90.0
  0
ARC
  5
189
330
53
100
AcDbEntity
  8
1
  6
Continuous
 62
     7
100
AcDbCircle
 10
146.1994034628329
 20
676.3417083823728
 30
0.0
 40
10.76794919243127
100
AcDbArc
 50
90.0
 51
222.0170600646469
  0
ARC
  5
18A
330
53
100
AcDbEntity
  8
1
  6
Continuous
 62
     7
100
AcDbCircle
 10
499.3397255421417
 20
300.1424660354419
 30
0.0
 40
5.000000000000017
100
AcDbArc
 50
304.0557977425679
 51
314.4270040008069
  0
ARC
  5
18B
330
53
100
AcDbEntity
  8
1
  6
Continuous
 62
     7
100
AcDbCircle
 10
478.3397255421417
 20
300.1424660354419
 30
0.0
 40
5.000000000000094
100
AcDbArc
 50
105.3375576695538
 51
134.4270040008042
  0
ARC
  5
18C
330
53
100
AcDbEntity
  8
1
  6
Continuous
 62
     7
100
AcDbCircle
 10
478.3397255421417
 20
300.1424660354419
 30
0.0
 40
4.999999999999894
100
AcDbArc
 50
225.5729959991931
 51
235.9442022574331
  0
ARC
  5
18D
330
53
100
AcDbEntity
  8
1
  6
Continuous
 62
     7
100
AcDbCircle
 10
499.3397255421417
 20
300.1424660354419
 30
0.0
 40
4.999999999999975
100
AcDbArc
 50
45.57299599919402
 51
74.66244233044497
  0
SPLINE
  5
18E
330
53
100
AcDbEntity
  8
0
  6
Continuous
 62
     7
100
AcDbSpline
210
0.0
220
0.0
230
1.0
 70
    11
 71
     3
 72
    79
 73
    75
 74
    73
 42
0.000000001
 43
0.0000000001
 44
0.00000001
 40
0.0
 40
0.0
 40
0.0
 40
0.0
 40
0.2910229063171749
 40
0.582034219979011
 40
0.8749339259795239
 40
1.167812540311729
 40
1.463561181730039
 40
1.759282799553803
 40
2.058487804326576
 40
2.357663878865502
 40
2.660503334662493
 40
2.963315618548022
 40
3.269530819653618
 40
3.575723462230681
 40
3.884662737575197
 40
4.193586021287264
 40
4.504289078951653
 40
4.814983875317491
 40
5.126294424223241
 40
5.437604973118026
 40
5.74829976945084
 40
6.059002827059707
 40
6.367926110693956
 40
6.676865385937208
 40
6.98305802838993
 40
7.289273229346023
 40
7.592085513057639
 40
7.89492496865282
 40
8.194101042962593
 40
8.493306047472798
 40
8.789027664996908
 40
9.084776306062222
 40
9.377654919956274
 40
9.670554625323089
 40
9.961565937614825
 40
10.25258885279211
 40
10.54295309049239
 40
10.83331732819167
 40
11.12434024336595
 40
11.41535155565239
 40
11.70825126101194
 40
12.00112987489692
 40
12.29687851595123
 40
12.59260013346255
 40
12.89180513795842
 40
13.19098121225254
 40
13.49382066783056
 40
13.79663295152401
 40
14.10284815246058
 40
14.40904079489295
 40
14.71798007011485
 40
15.0269033537272
 40
15.33760641131336
 40
15.64830120762294
 40
15.95961175649404
 40
16.27092230537547
 40
16.58161710171674
 40
16.89232015935588
 40
17.20124344304244
 40
17.51018271836092
 40
17.8163753609114
 40
18.12259056198952
 40
18.4254028458467
 40
18.7282423016136
 40
19.02741837611978
 40
19.32662338085468
 40
19.62234499863095
 40
19.91809363998182
 40
20.21097225419809
 40
20.50387195993865
 40
20.79488327268854
 40
21.08590618851617
 40
21.37627042760418
 40
21.66663465645644
 40
21.66663465645644
 40
21.66663465645644
 40
21.66663465645644
 10
158.0337156610646
 20
303.699535286844
 30
0.0
 10
157.9373406053495
 20
303.6878596194064
 30
0.0
 10
157.7445943322816
 20
303.6645087548204
 30
0.0
 10
157.4606578249523
 20
303.5951527630548
 30
0.0
 10
157.1833935583271
 20
303.5017100059397
 30
0.0
 10
156.9146411740344
 20
303.3818030202052
 30
0.0
 10
156.6569957901999
 20
303.2377575152126
 30
0.0
 10
156.4117688426957
 20
303.0696909145242
 30
0.0
 10
156.1815054864001
 20
302.8798561815834
 30
0.0
 10
155.9672732776607
 20
302.6687200530346
 30
0.0
 10
155.7713188486879
 20
302.4389404495059
 30
0.0
 10
155.5945615048639
 20
302.1912119173782
 30
0.0
 10
155.4387906707007
 20
301.9284796776325
 30
0.0
 10
155.3048222531391
 20
301.6517286660724
 30
0.0
 10
155.1938992216656
 20
301.3639966883841
 30
0.0
 10
155.1067224291079
 20
301.0666432420318
 30
0.0
 10
155.0439744188312
 20
300.7625972459545
 30
0.0
 10
155.0061740394357
 20
300.4536556502616
 30
0.0
 10
154.9934969657651
 20
300.1424660450164
 30
0.0
 10
155.0061740390703
 20
299.8312764397615
 30
0.0
 10
155.0439744181008
 20
299.5223348440743
 30
0.0
 10
155.1067224280038
 20
299.2182888479158
 30
0.0
 10
155.1938992202116
 20
298.9209354017652
 30
0.0
 10
155.30482225123
 20
298.6332034231899
 30
0.0
 10
155.4387906687069
 20
298.3564524147341
 30
0.0
 10
155.5945615013839
 20
298.0937201632426
 30
0.0
 10
155.7713188488725
 20
297.8459916742137
 30
0.0
 10
155.9672732623808
 20
297.6162119105184
 30
0.0
 10
156.1815055262549
 20
297.4050763724325
 30
0.0
 10
156.4117686760905
 20
297.2152394493229
 30
0.0
 10
156.6569963834846
 20
297.0471809312422
 30
0.0
 10
156.9146389449618
 20
296.9031054294596
 30
0.0
 10
157.1834017626489
 20
296.783309358986
 30
0.0
 10
157.4606272481363
 20
296.6894543621469
 30
0.0
 10
157.7447076014327
 20
296.621627455555
 30
0.0
 10
158.033075081739
 20
296.5809324939248
 30
0.0
 10
158.3237591152117
 20
296.5671667003494
 30
0.0
 10
158.6144431486845
 20
296.5809324938996
 30
0.0
 10
158.9028106289913
 20
296.6216274555045
 30
0.0
 10
159.1868909822884
 20
296.6894543620714
 30
0.0
 10
159.4641164677766
 20
296.7833093588856
 30
0.0
 10
159.7328792854647
 20
296.9031054293344
 30
0.0
 10
159.9905218469433
 20
297.0471809310923
 30
0.0
 10
160.2357495543389
 20
297.2152394491483
 30
0.0
 10
160.4660127041763
 20
297.4050763722335
 30
0.0
 10
160.6802449680521
 20
297.6162119102952
 30
0.0
 10
160.8761993815627
 20
297.8459916739663
 30
0.0
 10
161.0529567290534
 20
298.0937201629712
 30
0.0
 10
161.2087275617327
 20
298.3564524144388
 30
0.0
 10
161.342695979212
 20
298.6332034228708
 30
0.0
 10
161.4536190102334
 20
298.9209354014224
 30
0.0
 10
161.5407958024443
 20
299.2182888475491
 30
0.0
 10
161.6035438123509
 20
299.5223348436837
 30
0.0
 10
161.6413441913854
 20
299.8312764393474
 30
0.0
 10
161.6540212646947
 20
300.1424660445771
 30
0.0
 10
161.641344191029
 20
300.4536556498026
 30
0.0
 10
161.6035438116372
 20
300.7625972454557
 30
0.0
 10
161.5407958013728
 20
301.0666432415661
 30
0.0
 10
161.4536190087994
 20
301.3639966876814
 30
0.0
 10
161.3426959774203
 20
301.6517286661349
 30
0.0
 10
161.2087275595517
 20
301.9284796747467
 30
0.0
 10
161.0529567265799
 20
302.19121192532
 30
0.0
 10
160.8761993784202
 20
302.4389404173537
 30
0.0
 10
160.6802449656072
 20
302.6687201694658
 30
0.0
 10
160.4660126973562
 20
302.8798557497867
 30
0.0
 10
160.2357495618957
 20
303.0696925157056
 30
0.0
 10
159.9905217995601
 20
303.2377516132874
 30
0.0
 10
159.7328794400249
 20
303.381824963698
 30
0.0
 10
159.4641158736104
 20
303.5016289882419
 30
0.0
 10
159.1868931687425
 20
303.5954544211884
 30
0.0
 10
158.9028024990853
 20
303.6633909855314
 30
0.0
 10
158.6144734373357
 20
303.7036775418422
 30
0.0
 10
158.323646326874
 20
303.7189642862363
 30
0.0
 10
158.1303592153068
 20
303.7060116181456
 30
0.0
 10
158.0337156610646
 20
303.699535286844
 30
0.0
 11
158.0337156610646
 21
303.699535286844
 31
0.0
 11
157.7455561647897
 21
303.6588113137576
 31
0.0
 11
157.4624739584073
 21
303.5913424436923
 31
0.0
 11
157.1850499158635
 21
303.4973949150534
 31
0.0
 11
156.9174881637461
 21
303.378279041254
 31
0.0
 11
156.6593557950309
 21
303.2339359117967
 31
0.0
 11
156.4153431424197
 21
303.0668757413811
 31
0.0
 11
156.1844636368889
 21
302.8765647097804
 31
0.0
 11
155.9712883419377
 21
302.6666537354249
 31
0.0
 11
155.7747540179296
 21
302.4362497522983
 31
0.0
 11
155.5987804821299
 21
302.1898180296106
 31
0.0
 11
155.4425833416569
 21
301.9264357927727
 31
0.0
 11
155.3090876536926
 21
301.6508766599949
 31
0.0
 11
155.1979377281355
 21
301.3626247390976
 31
0.0
 11
155.1109610741092
 21
301.0661982610573
 31
0.0
 11
155.0481559997878
 21
300.7619090685143
 31
0.0
 11
155.0103806381163
 21
300.4535192525938
 31
0.0
 11
154.9977254419027
 21
300.1424660354429
 31
0.0
 11
155.0103806381163
 21
299.8314128182919
 31
0.0
 11
155.0481559997878
 21
299.5230230023714
 31
0.0
 11
155.1109610741092
 21
299.2187338098284
 31
0.0
 11
155.1979377281355
 21
298.9223073317881
 31
0.0
 11
155.3090876536926
 21
298.6340554108908
 31
0.0
 11
155.4425833416569
 21
298.3584962781129
 31
0.0
 11
155.5987804821299
 21
298.0951140412751
 31
0.0
 11
155.7747540179295
 21
297.8486823185874
 31
0.0
 11
155.9712883419377
 21
297.6182783354609
 31
0.0
 11
156.1844636368889
 21
297.4083673611054
 31
0.0
 11
156.4153431424197
 21
297.2180563295046
 31
0.0
 11
156.6593557950309
 21
297.0509961590888
 31
0.0
 11
156.9174881637461
 21
296.9066530296316
 31
0.0
 11
157.1850499158635
 21
296.7875371558323
 31
0.0
 11
157.4624739584074
 21
296.6935896271935
 31
0.0
 11
157.7455561647899
 21
296.6261207571283
 31
0.0
 11
158.0337156610647
 21
296.5853967840417
 31
0.0
 11
158.3237591158151
 21
296.5717518211714
 31
0.0
 11
158.6138025705656
 21
296.5853967840416
 31
0.0
 11
158.9019620668405
 21
296.6261207571281
 31
0.0
 11
159.185044273223
 21
296.6935896271934
 31
0.0
 11
159.4624683157668
 21
296.7875371558322
 31
0.0
 11
159.7300300678842
 21
296.9066530296317
 31
0.0
 11
159.9881624365995
 21
297.0509961590888
 31
0.0
 11
160.2321750892106
 21
297.2180563295045
 31
0.0
 11
160.4630545947414
 21
297.4083673611054
 31
0.0
 11
160.6762298896926
 21
297.6182783354609
 31
0.0
 11
160.8727642137008
 21
297.8486823185874
 31
0.0
 11
161.0487377495004
 21
298.0951140412751
 31
0.0
 11
161.2049348899732
 21
298.358496278113
 31
0.0
 11
161.3384305779374
 21
298.6340554108908
 31
0.0
 11
161.4495805034945
 21
298.922307331788
 31
0.0
 11
161.536557157521
 21
299.2187338098284
 31
0.0
 11
161.5993622318426
 21
299.5230230023713
 31
0.0
 11
161.6371375935142
 21
299.8314128182918
 31
0.0
 11
161.6497927897277
 21
300.1424660354429
 31
0.0
 11
161.637137593514
 21
300.4535192525938
 31
0.0
 11
161.5993622318423
 21
300.7619090685143
 31
0.0
 11
161.5365571575208
 21
301.0661982610573
 31
0.0
 11
161.4495805034945
 21
301.3626247390976
 31
0.0
 11
161.3384305779374
 21
301.6508766599949
 31
0.0
 11
161.2049348899732
 21
301.9264357927727
 31
0.0
 11
161.0487377495004
 21
302.1898180296105
 31
0.0
 11
160.8727642137009
 21
302.4362497522983
 31
0.0
 11
160.6762298896926
 21
302.6666537354249
 31
0.0
 11
160.4630545947414
 21
302.8765647097803
 31
0.0
 11
160.2321750892106
 21
303.0668757413811
 31
0.0
 11
159.9881624365995
 21
303.2339359117968
 31
0.0
 11
159.7300300678842
 21
303.378279041254
 31
0.0
 11
159.4624683157668
 21
303.4973949150534
 31
0.0
 11
159.185044273223
 21
303.5913424436922
 31
0.0
 11
158.9019620668405
 21
303.6588113137575
 31
0.0
 11
158.6138025705655
 21
303.699535286844
 31
0.0
 11
158.323759115815
 21
303.7131802497143
 31
0.0
 11
158.0337156610646
 21
303.699535286844
 31
0.0
  0
SPLINE
  5
18F
330
53
100
AcDbEntity
  8
0
  6
Continuous
 62
     7
100
AcDbSpline
210
0.0
220
0.0
230
1.0
 70
    11
 71
     3
 72
    79
 73
    75
 74
    73
 42
0.000000001
 43
0.0000000001
 44
0.00000001
 40
0.0
 40
0.0
 40
0.0
 40
0.0
 40
0.3261189815590065
 40
0.651724222786396
 40
1.007570730085629
 40
1.362786574479275
 40
1.759886311237042
 40
2.15651671136481
 40
2.599210004995424
 40
3.041603623772215
 40
3.528307203253088
 40
4.014826845817829
 40
4.53961631119259
 40
5.064295506276725
 40
5.618233629058182
 40
6.172109434340767
 40
6.744280965421829
 40
7.31642432042387
 40
7.894787041172044
 40
8.473149761923223
 40
9.045293116933731
 40
9.61746464802734
 40
10.17134045332464
 40
10.72527857612072
 40
11.24995777121493
 40
11.77474723659072
 40
12.26126687914163
 40
12.74797045858428
 40
13.19036407729348
 40
13.63305737080652
 40
14.0296877707646
 40
14.4267875072539
 40
14.7820033512624
 40
15.13784985787361
 40
15.46345509697312
 40
15.78957408501974
 40
16.10448971847118
 40
16.41940535192156
 40
16.74552433996505
 40
17.07112957905989
 40
17.42697608566494
 40
17.78219192966673
 40
18.17929166614837
 40
18.5759220660991
 40
19.01861535960444
 40
19.46100897830645
 40
19.94771255774201
 40
20.43423220028651
 40
20.95902166565621
 40
21.48370086074509
 40
22.03763898353652
 40
22.59151478883029
 40
23.16368631992127
 40
23.7358296749302
 40
24.31419239568132
 40
24.89255511643116
 40
25.4646984714369
 40
26.03687000252377
 40
26.59074580781453
 40
27.14468393060671
 40
27.6693631257036
 40
28.19415259109343
 40
28.6806722336741
 40
29.16737581317155
 40
29.60976943196291
 40
30.05246272560407
 40
30.44909312573254
 40
30.84619286246813
 40
31.20140870678669
 40
31.5572552138252
 40
31.88286045347713
 40
32.20897944233192
 40
32.5238950779804
 40
32.83881070538182
 40
32.83881070538182
 40
32.83881070538182
 40
32.83881070538182
 10
152.8251826197227
 20
299.8286495488046
 30
0.0
 10
152.8026253461847
 20
299.7220597926914
 30
0.0
 10
152.7575463438115
 20
299.5090481906469
 30
0.0
 10
152.6230185711602
 20
299.1992296970867
 30
0.0
 10
152.4462744815685
 20
298.9014458500281
 30
0.0
 10
152.2173930686176
 20
298.6102998059869
 30
0.0
 10
151.9481751588999
 20
298.3369075885872
 30
0.0
 10
151.6309050429591
 20
298.0729478612666
 30
0.0
 10
151.2788526222728
 20
297.8299416600404
 30
0.0
 10
150.8829792544765
 20
297.6002874093251
 30
0.0
 10
150.4582708398167
 20
297.3937364501766
 30
0.0
 10
149.9957534664664
 20
297.2047336949876
 30
0.0
 10
149.5105129646813
 20
297.0404199003603
 30
0.0
 10
148.9952714766511
 20
296.8974043985565
 30
0.0
 10
148.4636062158918
 20
296.7802519629599
 30
0.0
 10
147.9111571662908
 20
296.6872780719908
 30
0.0
 10
147.3487663263541
 20
296.6209590130884
 30
0.0
 10
146.7757496761035
 20
296.5806127551082
 30
0.0
 10
146.1994034728278
 20
296.5673224233917
 30
0.0
 10
145.6230572695297
 20
296.5806127552245
 30
0.0
 10
145.0500406193457
 20
296.6209590133287
 30
0.0
 10
144.4876497791685
 20
296.6872780722932
 30
0.0
 10
143.9352007304378
 20
296.7802519634961
 30
0.0
 10
143.403535466514
 20
296.8974043986241
 30
0.0
 10
142.8882939897051
 20
297.0404199023584
 30
0.0
 10
142.4030534475355
 20
297.2047336901807
 30
0.0
 10
141.940536214462
 20
297.3937364689854
 30
0.0
 10
141.5158273002611
 20
297.6002873438273
 30
0.0
 10
141.1199556359035
 20
297.8299418816058
 30
0.0
 10
140.7678972011394
 20
298.0729470686438
 30
0.0
 10
140.4506473244551
 20
298.3369102080475
 30
0.0
 10
140.1813581952941
 20
298.610290417341
 30
0.0
 10
139.9527162031761
 20
298.9014768275496
 30
0.0
 10
139.7751234779278
 20
299.1991175920381
 30
0.0
 10
139.6435104062914
 20
299.5094275099144
 30
0.0
 10
139.5660854302114
 20
299.8235860868224
 30
0.0
 10
139.5381253130948
 20
300.142466035126
 30
0.0
 10
139.5660854302034
 20
300.4613459834287
 30
0.0
 10
139.6435104062755
 20
300.7755045603361
 30
0.0
 10
139.7751234779045
 20
301.0858144782102
 30
0.0
 10
139.9527162031459
 20
301.3834552426963
 30
0.0
 10
140.1813581952573
 20
301.6746416529014
 30
0.0
 10
140.4506473244125
 20
301.9480218621903
 30
0.0
 10
140.7678972010914
 20
302.211985001589
 30
0.0
 10
141.1199556358507
 20
302.4549901886209
 30
0.0
 10
141.5158273002042
 20
302.6846447263919
 30
0.0
 10
141.9405362144019
 20
302.8911956012248
 30
0.0
 10
142.4030534474724
 20
303.0801983800193
 30
0.0
 10
142.88829398964
 20
303.2445121678295
 30
0.0
 10
143.4035354664474
 20
303.3875276715492
 30
0.0
 10
143.9352007303703
 20
303.5046801066601
 30
0.0
 10
144.4876497791009
 20
303.597653997843
 30
0.0
 10
145.050040619278
 20
303.6639730567841
 30
0.0
 10
145.6230572694638
 20
303.7043193148616
 30
0.0
 10
146.1994034727582
 20
303.7176096466615
 30
0.0
 10
146.7757496760514
 20
303.7043193149124
 30
0.0
 10
147.3487663262422
 20
303.6639730568794
 30
0.0
 10
147.911157166403
 20
303.5976539979744
 30
0.0
 10
148.4636062151958
 20
303.5046801067975
 30
0.0
 10
148.9952714788962
 20
303.3875276717165
 30
0.0
 10
149.5105129564955
 20
303.2445121678269
 30
0.0
 10
149.9957534958134
 20
303.0801983804257
 30
0.0
 10
150.4582707387756
 20
302.8911955998502
 30
0.0
 10
150.8829796177308
 20
302.684644730799
 30
0.0
 10
151.2788514022253
 20
302.4549901725557
 30
0.0
 10
151.6309094127537
 20
302.2119850567747
 30
0.0
 10
151.9481607169917
 20
301.948021676339
 30
0.0
 10
152.2174448225589
 20
301.6746423136166
 30
0.0
 10
152.4461037023604
 20
301.3834530556029
 30
0.0
 10
152.6236365681318
 20
301.085822382918
 30
0.0
 10
152.7554552309175
 20
300.7754778012491
 30
0.0
 10
152.832135091448
 20
300.4614448507356
 30
0.0
 10
152.8627869935767
 20
300.142111063697
 30
0.0
 10
152.8377174073376
 20
299.9331367198579
 30
0.0
 10
152.8251826197227
 20
299.8286495488046
 30
0.0
 11
152.8251826197227
 21
299.8286495488046
 31
0.0
 11
152.747009957169
 21
299.5120383846453
 31
0.0
 11
152.6213037020924
 21
299.2116774197536
 31
0.0
 11
152.4397473186573
 21
298.9056316454509
 31
0.0
 11
152.2213852587623
 21
298.6254597220061
 31
0.0
 11
151.943637709387
 21
298.3416560934391
 31
0.0
 11
151.6393381572076
 21
298.0872598341253
 31
0.0
 11
151.2756905318886
 21
297.8347964570674
 31
0.0
 11
150.8933575250095
 21
297.6122350368963
 31
0.0
 11
150.4560889642344
 21
297.3985142376808
 31
0.0
 11
150.0058935365353
 21
297.2140543789695
 31
0.0
 11
149.5090538149208
 21
297.0450742795532
 31
0.0
 11
149.0035671470014
 21
296.9044631622157
 31
0.0
 11
148.4627093399943
 21
296.7847958045906
 31
0.0
 11
147.9165390318774
 21
296.6927284259033
 31
0.0
 11
147.3483390648381
 21
296.6254301462602
 31
0.0
 11
146.7776093867874
 21
296.5852349566454
 31
0.0
 11
146.1994034628329
 21
296.5717684703068
 31
0.0
 11
145.6211975388784
 21
296.5852349566455
 31
0.0
 11
145.0504678608276
 21
296.6254301462604
 31
0.0
 11
144.4822678937884
 21
296.6927284259035
 31
0.0
 11
143.9360975856717
 21
296.7847958045907
 31
0.0
 11
143.3952397786645
 21
296.9044631622157
 31
0.0
 11
142.8897531107451
 21
297.0450742795531
 31
0.0
 11
142.3929133891305
 21
297.2140543789694
 31
0.0
 11
141.9427179614313
 21
297.3985142376807
 31
0.0
 11
141.5054494006563
 21
297.6122350368962
 31
0.0
 11
141.1231163937773
 21
297.8347964570674
 31
0.0
 11
140.7594687684582
 21
298.0872598341253
 31
0.0
 11
140.4551692162788
 21
298.3416560934391
 31
0.0
 11
140.1774216669036
 21
298.6254597220062
 31
0.0
 11
139.9590596070087
 21
298.905631645451
 31
0.0
 11
139.7775032235737
 21
299.2116774197536
 31
0.0
 11
139.651796968497
 21
299.5120383846453
 31
0.0
 11
139.5736243059432
 21
299.8286495488047
 31
0.0
 11
139.5473361150079
 21
300.1424660354429
 31
0.0
 11
139.5736243059432
 21
300.4562825220812
 31
0.0
 11
139.651796968497
 21
300.7728936862404
 31
0.0
 11
139.7775032235737
 21
301.0732546511321
 31
0.0
 11
139.9590596070087
 21
301.3793004254347
 31
0.0
 11
140.1774216669036
 21
301.6594723488795
 31
0.0
 11
140.4551692162787
 21
301.9432759774465
 31
0.0
 11
140.7594687684581
 21
302.1976722367604
 31
0.0
 11
141.1231163937771
 21
302.4501356138185
 31
0.0
 11
141.5054494006562
 21
302.6726970339896
 31
0.0
 11
141.9427179614313
 21
302.8864178332051
 31
0.0
 11
142.3929133891305
 21
303.0708776919164
 31
0.0
 11
142.8897531107451
 21
303.2398577913327
 31
0.0
 11
143.3952397786645
 21
303.38046890867
 31
0.0
 11
143.9360975856717
 21
303.5001362662951
 31
0.0
 11
144.4822678937886
 21
303.5922036449823
 31
0.0
 11
145.0504678608278
 21
303.6595019246254
 31
0.0
 11
145.6211975388785
 21
303.6996971142403
 31
0.0
 11
146.199403462833
 21
303.7131636005789
 31
0.0
 11
146.7776093867874
 21
303.6996971142403
 31
0.0
 11
147.3483390648381
 21
303.6595019246254
 31
0.0
 11
147.9165390318774
 21
303.5922036449824
 31
0.0
 11
148.4627093399942
 21
303.5001362662952
 31
0.0
 11
149.0035671470014
 21
303.38046890867
 31
0.0
 11
149.5090538149208
 21
303.2398577913326
 31
0.0
 11
150.0058935365354
 21
303.0708776919163
 31
0.0
 11
150.4560889642346
 21
302.886417833205
 31
0.0
 11
150.8933575250096
 21
302.6726970339896
 31
0.0
 11
151.2756905318886
 21
302.4501356138185
 31
0.0
 11
151.6393381572076
 21
302.1976722367604
 31
0.0
 11
151.943637709387
 21
301.9432759774465
 31
0.0
 11
152.2213852587623
 21
301.6594723488795
 31
0.0
 11
152.4397473186573
 21
301.3793004254347
 31
0.0
 11
152.6213037020924
 21
301.0732546511321
 31
0.0
 11
152.747009957169
 21
300.7728936862404
 31
0.0
 11
152.8251826197227
 21
300.4562825220812
 31
0.0
 11
152.8514708106579
 21
300.1424660354429
 31
0.0
 11
152.8251826197227
 21
299.8286495488046
 31
0.0
  0
SPLINE
  5
190
330
53
100
AcDbEntity
  8
0
  6
Continuous
 62
     7
100
AcDbSpline
210
0.0
220
0.0
230
1.0
 70
    11
 71
     3
 72
    79
 73
    75
 74
    73
 42
0.000000001
 43
0.0000000001
 44
0.00000001
 40
0.0
 40
0.0
 40
0.0
 40
0.0
 40
0.2910229063172031
 40
0.5820342199791076
 40
0.8749339259796562
 40
1.167812540311884
 40
1.463561181730062
 40
1.759282799553937
 40
2.058487804326732
 40
2.357663878865678
 40
2.66050333466252
 40
2.963315618548092
 40
3.269530819653709
 40
3.575723462230772
 40
3.884662737575255
 40
4.193586021287377
 40
4.50428907895171
 40
4.814983875317555
 40
5.126294424223306
 40
5.437604973118149
 40
5.748299769451022
 40
6.059002827059863
 40
6.367926110694182
 40
6.676865385937328
 40
6.983058028390013
 40
7.289273229346111
 40
7.592085513057694
 40
7.894924968652838
 40
8.194101042962652
 40
8.4933060474729
 40
8.789027664996947
 40
9.084776306062286
 40
9.377654919956333
 40
9.670554625323103
 40
9.96156593761484
 40
10.25258885279222
 40
10.54295309049253
 40
10.83331732819171
 40
11.12434024336588
 40
11.41535155565235
 40
11.70825126101186
 40
12.00112987489675
 40
12.29687851595112
 40
12.59260013346249
 40
12.89180513795838
 40
13.19098121225246
 40
13.49382066783051
 40
13.79663295152391
 40
14.10284815246053
 40
14.40904079489293
 40
14.71798007011483
 40
15.0269033537272
 40
15.33760641131339
 40
15.64830120762297
 40
15.95961175649396
 40
16.27092230537544
 40
16.58161710171665
 40
16.89232015935579
 40
17.20124344304245
 40
17.51018271836084
 40
17.81637536091133
 40
18.12259056198954
 40
18.42540284584678
 40
18.72824230161359
 40
19.02741837611973
 40
19.3266233808547
 40
19.62234499863107
 40
19.9180936399819
 40
20.21097225419813
 40
20.50387195993861
 40
20.79488327268852
 40
21.08590618851602
 40
21.3762704276039
 40
21.66663465645616
 40
21.66663465645616
 40
21.66663465645616
 40
21.66663465645616
 10
134.3650912646012
 20
303.699535286844
 30
0.0
 10
134.4614663203163
 20
303.6878596194064
 30
0.0
 10
134.6542125933843
 20
303.6645087548205
 30
0.0
 10
134.9381491007135
 20
303.5951527630547
 30
0.0
 10
135.215413367339
 20
303.5017100059397
 30
0.0
 10
135.4841657516315
 20
303.381803020205
 30
0.0
 10
135.7418111354661
 20
303.2377575152128
 30
0.0
 10
135.9870380829702
 20
303.0696909145242
 30
0.0
 10
136.2173014392659
 20
302.8798561815834
 30
0.0
 10
136.4315336480053
 20
302.6687200530346
 30
0.0
 10
136.6274880769782
 20
302.4389404495062
 30
0.0
 10
136.804245420802
 20
302.1912119173782
 30
0.0
 10
136.9600162549651
 20
301.9284796776325
 30
0.0
 10
137.0939846725267
 20
301.6517286660722
 30
0.0
 10
137.2049077040003
 20
301.3639966883842
 30
0.0
 10
137.292084496558
 20
301.0666432420319
 30
0.0
 10
137.3548325068348
 20
300.7625972459545
 30
0.0
 10
137.3926328862302
 20
300.4536556502618
 30
0.0
 10
137.4053099599009
 20
300.1424660450164
 30
0.0
 10
137.3926328865956
 20
299.8312764397616
 30
0.0
 10
137.3548325075651
 20
299.5223348440742
 30
0.0
 10
137.2920844976618
 20
299.2182888479158
 30
0.0
 10
137.2049077054542
 20
298.9209354017652
 30
0.0
 10
137.0939846744357
 20
298.6332034231899
 30
0.0
 10
136.960016256959
 20
298.3564524147341
 30
0.0
 10
136.804245424282
 20
298.0937201632425
 30
0.0
 10
136.6274880767936
 20
297.8459916742137
 30
0.0
 10
136.4315336632851
 20
297.6162119105183
 30
0.0
 10
136.2173013994112
 20
297.4050763724325
 30
0.0
 10
135.9870382495755
 20
297.2152394493229
 30
0.0
 10
135.7418105421813
 20
297.0471809312423
 30
0.0
 10
135.4841679807041
 20
296.9031054294596
 30
0.0
 10
135.2154051630171
 20
296.783309358986
 30
0.0
 10
134.9381796775297
 20
296.6894543621469
 30
0.0
 10
134.6540993242333
 20
296.621627455555
 30
0.0
 10
134.3657318439269
 20
296.5809324939246
 30
0.0
 10
134.0750478104543
 20
296.5671667003495
 30
0.0
 10
133.7843637769815
 20
296.5809324938995
 30
0.0
 10
133.4959962966748
 20
296.6216274555046
 30
0.0
 10
133.2119159433777
 20
296.6894543620714
 30
0.0
 10
132.9346904578896
 20
296.7833093588856
 30
0.0
 10
132.6659276402014
 20
296.9031054293344
 30
0.0
 10
132.408285078723
 20
297.0471809310925
 30
0.0
 10
132.1630573713272
 20
297.2152394491485
 30
0.0
 10
131.9327942214898
 20
297.4050763722335
 30
0.0
 10
131.718561957614
 20
297.6162119102952
 30
0.0
 10
131.5226075441035
 20
297.8459916739664
 30
0.0
 10
131.3458501966126
 20
298.0937201629712
 30
0.0
 10
131.1900793639333
 20
298.3564524144389
 30
0.0
 10
131.0561109464539
 20
298.6332034228708
 30
0.0
 10
130.9451879154325
 20
298.9209354014222
 30
0.0
 10
130.8580111232217
 20
299.2182888475492
 30
0.0
 10
130.7952631133152
 20
299.5223348436838
 30
0.0
 10
130.7574627342808
 20
299.8312764393475
 30
0.0
 10
130.7447856609714
 20
300.1424660445772
 30
0.0
 10
130.757462734637
 20
300.4536556498026
 30
0.0
 10
130.7952631140288
 20
300.7625972454558
 30
0.0
 10
130.8580111242931
 20
301.0666432415661
 30
0.0
 10
130.9451879168665
 20
301.3639966876813
 30
0.0
 10
131.0561109482457
 20
301.651728666135
 30
0.0
 10
131.1900793661142
 20
301.9284796747467
 30
0.0
 10
131.3458501990862
 20
302.1912119253202
 30
0.0
 10
131.5226075472459
 20
302.4389404173537
 30
0.0
 10
131.7185619600588
 20
302.6687201694657
 30
0.0
 10
131.9327942283098
 20
302.8798557497868
 30
0.0
 10
132.1630573637703
 20
303.0696925157056
 30
0.0
 10
132.4082851261062
 20
303.2377516132872
 30
0.0
 10
132.6659274856412
 20
303.3818249636979
 30
0.0
 10
132.9346910520558
 20
303.5016289882419
 30
0.0
 10
133.2119137569236
 20
303.5954544211884
 30
0.0
 10
133.4960044265807
 20
303.6633909855316
 30
0.0
 10
133.7843334883302
 20
303.7036775418421
 30
0.0
 10
134.0751605987919
 20
303.7189642862364
 30
0.0
 10
134.268447710359
 20
303.7060116181456
 30
0.0
 10
134.3650912646012
 20
303.699535286844
 30
0.0
 11
134.3650912646012
 21
303.699535286844
 31
0.0
 11
134.6532507608761
 21
303.6588113137576
 31
0.0
 11
134.9363329672586
 21
303.5913424436922
 31
0.0
 11
135.2137570098025
 21
303.4973949150534
 31
0.0
 11
135.4813187619198
 21
303.378279041254
 31
0.0
 11
135.739451130635
 21
303.2339359117968
 31
0.0
 11
135.9834637832462
 21
303.0668757413811
 31
0.0
 11
136.2143432887771
 21
302.8765647097804
 31
0.0
 11
136.4275185837283
 21
302.6666537354249
 31
0.0
 11
136.6240529077364
 21
302.4362497522985
 31
0.0
 11
136.800026443536
 21
302.1898180296106
 31
0.0
 11
136.9562235840089
 21
301.9264357927727
 31
0.0
 11
137.0897192719732
 21
301.6508766599949
 31
0.0
 11
137.2008691975304
 21
301.3626247390976
 31
0.0
 11
137.2878458515567
 21
301.0661982610573
 31
0.0
 11
137.3506509258781
 21
300.7619090685143
 31
0.0
 11
137.3884262875497
 21
300.4535192525938
 31
0.0
 11
137.4010814837632
 21
300.142466035443
 31
0.0
 11
137.3884262875497
 21
299.8314128182919
 31
0.0
 11
137.3506509258781
 21
299.5230230023714
 31
0.0
 11
137.2878458515566
 21
299.2187338098284
 31
0.0
 11
137.2008691975302
 21
298.922307331788
 31
0.0
 11
137.0897192719731
 21
298.6340554108908
 31
0.0
 11
136.9562235840089
 21
298.358496278113
 31
0.0
 11
136.800026443536
 21
298.0951140412751
 31
0.0
 11
136.6240529077364
 21
297.8486823185874
 31
0.0
 11
136.4275185837283
 21
297.6182783354609
 31
0.0
 11
136.2143432887771
 21
297.4083673611054
 31
0.0
 11
135.9834637832462
 21
297.2180563295045
 31
0.0
 11
135.739451130635
 21
297.0509961590889
 31
0.0
 11
135.4813187619198
 21
296.9066530296317
 31
0.0
 11
135.2137570098025
 21
296.7875371558322
 31
0.0
 11
134.9363329672586
 21
296.6935896271935
 31
0.0
 11
134.6532507608761
 21
296.6261207571283
 31
0.0
 11
134.3650912646012
 21
296.5853967840417
 31
0.0
 11
134.0750478098508
 21
296.5717518211714
 31
0.0
 11
133.7850043551004
 21
296.5853967840416
 31
0.0
 11
133.4968448588256
 21
296.6261207571281
 31
0.0
 11
133.2137626524431
 21
296.6935896271934
 31
0.0
 11
132.9363386098993
 21
296.7875371558322
 31
0.0
 11
132.668776857782
 21
296.9066530296317
 31
0.0
 11
132.4106444890668
 21
297.050996159089
 31
0.0
 11
132.1666318364556
 21
297.2180563295046
 31
0.0
 11
131.9357523309246
 21
297.4083673611054
 31
0.0
 11
131.7225770359735
 21
297.6182783354609
 31
0.0
 11
131.5260427119653
 21
297.8486823185874
 31
0.0
 11
131.3500691761656
 21
298.0951140412751
 31
0.0
 11
131.1938720356928
 21
298.358496278113
 31
0.0
 11
131.0603763477285
 21
298.6340554108908
 31
0.0
 11
130.9492264221714
 21
298.922307331788
 31
0.0
 11
130.8622497681451
 21
299.2187338098284
 31
0.0
 11
130.7994446938236
 21
299.5230230023714
 31
0.0
 11
130.761669332152
 21
299.8314128182919
 31
0.0
 11
130.7490141359385
 21
300.1424660354429
 31
0.0
 11
130.761669332152
 21
300.4535192525938
 31
0.0
 11
130.7994446938236
 21
300.7619090685143
 31
0.0
 11
130.8622497681451
 21
301.0661982610573
 31
0.0
 11
130.9492264221714
 21
301.3626247390977
 31
0.0
 11
131.0603763477285
 21
301.6508766599949
 31
0.0
 11
131.1938720356927
 21
301.9264357927727
 31
0.0
 11
131.3500691761656
 21
302.1898180296106
 31
0.0
 11
131.5260427119653
 21
302.4362497522984
 31
0.0
 11
131.7225770359735
 21
302.6666537354249
 31
0.0
 11
131.9357523309246
 21
302.8765647097803
 31
0.0
 11
132.1666318364555
 21
303.0668757413811
 31
0.0
 11
132.4106444890668
 21
303.2339359117968
 31
0.0
 11
132.668776857782
 21
303.378279041254
 31
0.0
 11
132.9363386098993
 21
303.4973949150534
 31
0.0
 11
133.2137626524431
 21
303.5913424436922
 31
0.0
 11
133.4968448588256
 21
303.6588113137576
 31
0.0
 11
133.7850043551004
 21
303.699535286844
 31
0.0
 11
134.0750478098508
 21
303.7131802497143
 31
0.0
 11
134.3650912646012
 21
303.699535286844
 31
0.0
  0
SPLINE
  5
191
330
53
100
AcDbEntity
  8
1
  6
Continuous
 62
     7
100
AcDbSpline
210
0.0
220
0.0
230
1.0
 70
     8
 71
     3
 72
    45
 73
    41
 74
    39
 42
0.000000001
 43
0.0000000001
 44
0.00000001
 40
0.0
 40
0.0
 40
0.0
 40
0.0
 40
0.2504855923913989
 40
0.501152654264569
 40
0.9976070319516808
 40
1.494089457491133
 40
1.976925590205801
 40
2.459822388860715
 40
2.921035295681635
 40
3.382351332272773
 40
3.815601776448232
 40
4.24901369294201
 40
4.650432700713655
 40
5.052091376296021
 40
5.421199499126121
 40
5.790635502078876
 40
6.131267663831864
 40
6.47227141240197
 40
6.79308524401153
 40
7.114166556699366
 40
7.427928541505268
 40
7.74169052631117
 40
8.06277183899884
 40
8.383585670608435
 40
8.724589419178642
 40
9.065221580931599
 40
9.434657583884354
 40
9.803765706714493
 40
10.20542438229688
 40
10.60684339006859
 40
11.04025530656229
 40
11.47350575073784
 40
11.93482178732891
 40
12.3960346941499
 40
12.8789314928048
 40
13.36176762551948
 40
13.85825005105892
 40
14.35470442874601
 40
14.60537149061736
 40
14.85585708300688
 40
14.85585708300688
 40
14.85585708300688
 40
14.85585708300688
 10
481.8397255421471
 20
303.7131802497136
 30
0.0
 10
481.7562276072449
 20
303.7125265617958
 30
0.0
 10
481.5891712457866
 20
303.711218701294
 30
0.0
 10
481.2568709215102
 20
303.6973758089821
 30
0.0
 10
480.8434828183809
 20
303.6639647127678
 30
0.0
 10
480.3558206880766
 20
303.5973965621434
 30
0.0
 10
479.8771242413786
 20
303.5043298074637
 30
0.0
 10
479.4159287367886
 20
303.386798096391
 30
0.0
 10
478.9695703480401
 20
303.2436152237806
 30
0.0
 10
478.5484658451256
 20
303.0786503135742
 30
0.0
 10
478.1479112013404
 20
302.8894334148676
 30
0.0
 10
477.7792146118249
 20
302.6818661974581
 30
0.0
 10
477.4365983200807
 20
302.4519944411966
 30
0.0
 10
477.1310504766498
 20
302.2076111333562
 30
0.0
 10
476.8568980110479
 20
301.9435798839286
 30
0.0
 10
476.6236543461598
 20
301.6688225399774
 30
0.0
 10
476.4267753127657
 20
301.3781219884515
 30
0.0
 10
476.2736757706098
 20
301.0801363340477
 30
0.0
 10
476.1611283001436
 20
300.771435714959
 30
0.0
 10
476.0945767898081
 20
300.4588650781487
 30
0.0
 10
476.0711015331296
 20
300.1424660354419
 30
0.0
 10
476.0945767898082
 20
299.8260669927353
 30
0.0
 10
476.1611283001435
 20
299.513496355925
 30
0.0
 10
476.2736757706098
 20
299.2047957368364
 30
0.0
 10
476.4267753127654
 20
298.9068100824325
 30
0.0
 10
476.6236543461598
 20
298.6161095309064
 30
0.0
 10
476.8568980110477
 20
298.3413521869552
 30
0.0
 10
477.1310504766496
 20
298.0773209375276
 30
0.0
 10
477.4365983200807
 20
297.8329376296873
 30
0.0
 10
477.7792146118247
 20
297.6030658734257
 30
0.0
 10
478.1479112013405
 20
297.3954986560163
 30
0.0
 10
478.5484658451255
 20
297.2062817573095
 30
0.0
 10
478.9695703480401
 20
297.0413168471034
 30
0.0
 10
479.4159287367886
 20
296.8981339744927
 30
0.0
 10
479.8771242413785
 20
296.7806022634203
 30
0.0
 10
480.3558206880766
 20
296.6875355087402
 30
0.0
 10
480.8434828183808
 20
296.6209673581159
 30
0.0
 10
481.2568709215096
 20
296.5875562619021
 30
0.0
 10
481.5891712457847
 20
296.5737133695902
 30
0.0
 10
481.7562276072419
 20
296.5724055090884
 30
0.0
 10
481.8397255421434
 20
296.5717518211706
 30
0.0
 11
481.8397255421471
 21
303.7131802497136
 31
0.0
 11
481.5892626352546
 21
303.7098086586393
 31
0.0
 11
481.338799728362
 21
303.6996938854161
 31
0.0
 11
480.8439801763797
 21
303.659437697009
 31
0.0
 11
480.352083469686
 21
303.5921143792357
 31
0.0
 11
479.8781514421872
 21
303.4998150585695
 31
0.0
 11
479.4103055517865
 21
303.3801925640184
 31
0.0
 11
478.9712164632861
 21
303.2390610013483
 31
0.0
 11
478.5418831115469
 21
303.0702849399014
 31
0.0
 11
478.1503154423535
 21
302.8848645849505
 31
0.0
 11
477.7729870796352
 21
302.6716295121353
 31
0.0
 11
477.4399599604543
 21
302.447508656542
 31
0.0
 11
477.1267986032326
 21
302.1959939327953
 31
0.0
 11
476.8614614741276
 21
301.9394066874149
 31
0.0
 11
476.6229681775724
 21
301.6572650420692
 31
0.0
 11
476.4327324534668
 21
301.3747041828864
 31
0.0
 11
476.2773075868894
 21
301.0711804314908
 31
0.0
 11
476.1683527547451
 21
300.7694349106209
 31
0.0
 11
476.1013572130422
 21
300.4554208870077
 31
0.0
 11
476.0788662312403
 21
300.1424660354419
 31
0.0
 11
476.1013572130422
 21
299.8295111838762
 31
0.0
 11
476.1683527547451
 21
299.5154971602632
 31
0.0
 11
476.2773075868894
 21
299.2137516393932
 31
0.0
 11
476.4327324534667
 21
298.9102278879975
 31
0.0
 11
476.6229681775723
 21
298.6276670288146
 31
0.0
 11
476.8614614741275
 21
298.345525383469
 31
0.0
 11
477.1267986032325
 21
298.0889381380886
 31
0.0
 11
477.4399599604543
 21
297.8374234143419
 31
0.0
 11
477.7729870796352
 21
297.6133025587485
 31
0.0
 11
478.1503154423534
 21
297.4000674859333
 31
0.0
 11
478.5418831115469
 21
297.2146471309824
 31
0.0
 11
478.971216463286
 21
297.0458710695355
 31
0.0
 11
479.4103055517865
 21
296.9047395068653
 31
0.0
 11
479.8781514421872
 21
296.7851170123143
 31
0.0
 11
480.352083469686
 21
296.6928176916481
 31
0.0
 11
480.8439801763797
 21
296.6254943738749
 31
0.0
 11
481.338799728362
 21
296.5852381854679
 31
0.0
 11
481.5892626352528
 21
296.5751234122449
 31
0.0
 11
481.8397255421434
 21
296.5717518211706
 31
0.0
  0
SPLINE
  5
192
330
53
100
AcDbEntity
  8
1
  6
Continuous
 62
     7
100
AcDbSpline
210
0.0
220
0.0
230
1.0
 70
     8
 71
     3
 72
    17
 73
    13
 74
    11
 42
0.000000001
 43
0.0000000001
 44
0.00000001
 40
0.0
 40
0.0
 40
0.0
 40
0.0
 40
0.2504855999114196
 40
0.5011526634880468
 40
0.9976070436379264
 40
1.494089471277347
 40
1.976925605444526
 40
2.459822404314917
 40
2.921035309756556
 40
3.382351340801133
 40
3.393058314636109
 40
3.403764051490389
 40
3.403764051490389
 40
3.403764051490389
 40
3.403764051490389
 10
481.8397255421363
 20
303.7131802497136
 30
0.0
 10
481.9232234816582
 20
303.7125265680295
 30
0.0
 10
482.0902798503774
 20
303.7112187165939
 30
0.0
 10
482.4225801364273
 20
303.6973756998001
 30
0.0
 10
482.8359685643981
 20
303.6639655583555
 30
0.0
 10
483.3236293733704
 20
303.597393491391
 30
0.0
 10
483.8023306021988
 20
303.504340887608
 30
0.0
 10
484.2635086411269
 20
303.3867574809311
 30
0.0
 10
484.7099294123012
 20
303.2437592555774
 30
0.0
 10
484.9996365751931
 20
303.1297471682929
 30
0.0
 10
485.1474009303143
 20
303.0660489720964
 30
0.0
 10
485.1539489369173
 20
303.0632084416155
 30
0.0
 10
485.1572227482382
 20
303.061788251854
 30
0.0
 11
481.8397255421363
 21
303.7131802497136
 31
0.0
 11
482.0901884490289
 21
303.7098086586393
 31
0.0
 11
482.3406513559214
 21
303.6996938854161
 31
0.0
 11
482.8354709079037
 21
303.659437697009
 31
0.0
 11
483.3273676145973
 21
303.5921143792357
 31
0.0
 11
483.801299642096
 21
303.4998150585695
 31
0.0
 11
484.2691455324967
 21
303.3801925640184
 31
0.0
 11
484.7082346209972
 21
303.2390610013483
 31
0.0
 11
485.1375679727367
 21
303.0702849399015
 31
0.0
 11
485.1473996939582
 21
303.0660450607748
 31
0.0
 11
485.1572227482382
 21
303.061788251854
 31
0.0
  0
SPLINE
  5
193
330
53
100
AcDbEntity
  8
1
  6
Continuous
 62
     7
100
AcDbSpline
210
0.0
220
0.0
230
1.0
 70
     8
 71
     3
 72
    17
 73
    13
 74
    11
 42
0.000000001
 43
0.0000000001
 44
0.00000001
 40
0.0
 40
0.0
 40
0.0
 40
0.0
 40
0.2504855999113058
 40
0.5011526634880465
 40
0.9976070436379829
 40
1.494089471277452
 40
1.976925605444732
 40
2.459822404315124
 40
2.921035309756742
 40
3.382351340801203
 40
3.393058314642141
 40
3.403764051502519
 40
3.403764051502519
 40
3.403764051502519
 40
3.403764051502519
 10
495.8397255421471
 20
303.7131802497136
 30
0.0
 10
495.7562276026254
 20
303.7125265680295
 30
0.0
 10
495.589171233906
 20
303.7112187165939
 30
0.0
 10
495.256870947856
 20
303.6973756998
 30
0.0
 10
494.8434825198852
 20
303.6639655583555
 30
0.0
 10
494.3558217109127
 20
303.5973934913911
 30
0.0
 10
493.8771204820846
 20
303.5043408876083
 30
0.0
 10
493.4159424431559
 20
303.3867574809308
 30
0.0
 10
492.9695216719829
 20
303.2437592555789
 30
0.0
 10
492.679814509087
 20
303.1297471682892
 30
0.0
 10
492.5320501539636
 20
303.0660489720941
 30
0.0
 10
492.5255021473567
 20
303.0632084416115
 30
0.0
 10
492.522228336034
 20
303.0617882518494
 30
0.0
 11
495.8397255421471
 21
303.7131802497136
 31
0.0
 11
495.5892626352546
 21
303.7098086586393
 31
0.0
 11
495.338799728362
 21
303.6996938854161
 31
0.0
 11
494.8439801763797
 21
303.659437697009
 31
0.0
 11
494.352083469686
 21
303.5921143792357
 31
0.0
 11
493.8781514421872
 21
303.4998150585696
 31
0.0
 11
493.4103055517865
 21
303.3801925640186
 31
0.0
 11
492.971216463286
 21
303.2390610013483
 31
0.0
 11
492.5418831115467
 21
303.0702849399013
 31
0.0
 11
492.5320513903197
 21
303.0660450607724
 31
0.0
 11
492.522228336034
 21
303.0617882518494
 31
0.0
  0
SPLINE
  5
194
330
53
100
AcDbEntity
  8
1
  6
Continuous
 62
     7
100
AcDbSpline
210
0.0
220
0.0
230
1.0
 70
     8
 71
     3
 72
    45
 73
    41
 74
    39
 42
0.000000001
 43
0.0000000001
 44
0.00000001
 40
0.0
 40
0.0
 40
0.0
 40
0.0
 40
0.2504855923915126
 40
0.5011526542646827
 40
0.9976070319517378
 40
1.494089457491134
 40
1.976925590205634
 40
2.459822388860494
 40
2.921035295681521
 40
3.382351332272765
 40
3.815601776448533
 40
4.249013692942212
 40
4.650432700713809
 40
5.052091376296131
 40
5.42119949912615
 40
5.790635502078941
 40
6.131267663831897
 40
6.472271412402028
 40
6.793085244011608
 40
7.11416655669942
 40
7.427928541505322
 40
7.741690526311224
 40
8.06277183899887
 40
8.383585670608504
 40
8.724589419178658
 40
9.065221580931613
 40
9.434657583884295
 40
9.803765706714517
 40
10.20542438229686
 40
10.60684339006861
 40
11.04025530656246
 40
11.47350575073807
 40
11.93482178732924
 40
12.39603469415023
 40
12.87893149280502
 40
13.36176762551959
 40
13.85825005105897
 40
14.3547044287459
 40
14.60537149061719
 40
14.85585708300688
 40
14.85585708300688
 40
14.85585708300688
 40
14.85585708300688
 10
495.8397255421363
 20
303.7131802497136
 30
0.0
 10
495.9232234770387
 20
303.7125265617959
 30
0.0
 10
496.0902798384968
 20
303.711218701294
 30
0.0
 10
496.4225801627734
 20
303.6973758089821
 30
0.0
 10
496.8359682659026
 20
303.663964712768
 30
0.0
 10
497.3236303962067
 20
303.5973965621434
 30
0.0
 10
497.8023268429047
 20
303.5043298074635
 30
0.0
 10
498.2635223474948
 20
303.3867980963911
 30
0.0
 10
498.7098807362433
 20
303.2436152237805
 30
0.0
 10
499.1309852391578
 20
303.0786503135742
 30
0.0
 10
499.5315398829432
 20
302.8894334148677
 30
0.0
 10
499.9002364724589
 20
302.6818661974581
 30
0.0
 10
500.2428527642028
 20
302.4519944411966
 30
0.0
 10
500.5484006076339
 20
302.2076111333562
 30
0.0
 10
500.8225530732354
 20
301.9435798839285
 30
0.0
 10
501.0557967381238
 20
301.6688225399776
 30
0.0
 10
501.2526757715176
 20
301.3781219884513
 30
0.0
 10
501.4057753136738
 20
301.0801363340477
 30
0.0
 10
501.5183227841401
 20
300.771435714959
 30
0.0
 10
501.5848742944752
 20
300.4588650781486
 30
0.0
 10
501.6083495511537
 20
300.142466035442
 30
0.0
 10
501.5848742944752
 20
299.8260669927352
 30
0.0
 10
501.5183227841401
 20
299.513496355925
 30
0.0
 10
501.4057753136737
 20
299.2047957368364
 30
0.0
 10
501.2526757715181
 20
298.9068100824325
 30
0.0
 10
501.055796738124
 20
298.6161095309066
 30
0.0
 10
500.8225530732358
 20
298.3413521869551
 30
0.0
 10
500.548400607634
 20
298.0773209375276
 30
0.0
 10
500.2428527642027
 20
297.8329376296873
 30
0.0
 10
499.9002364724588
 20
297.6030658734257
 30
0.0
 10
499.5315398829429
 20
297.3954986560163
 30
0.0
 10
499.1309852391577
 20
297.2062817573096
 30
0.0
 10
498.7098807362431
 20
297.0413168471033
 30
0.0
 10
498.2635223474946
 20
296.8981339744927
 30
0.0
 10
497.8023268429048
 20
296.7806022634203
 30
0.0
 10
497.3236303962068
 20
296.6875355087402
 30
0.0
 10
496.8359682659027
 20
296.620967358116
 30
0.0
 10
496.422580162774
 20
296.587556261902
 30
0.0
 10
496.090279838499
 20
296.5737133695903
 30
0.0
 10
495.9232234770417
 20
296.5724055090884
 30
0.0
 10
495.8397255421401
 20
296.5717518211706
 30
0.0
 11
495.8397255421363
 21
303.7131802497136
 31
0.0
 11
496.0901884490289
 21
303.7098086586393
 31
0.0
 11
496.3406513559215
 21
303.6996938854161
 31
0.0
 11
496.8354709079038
 21
303.659437697009
 31
0.0
 11
497.3273676145974
 21
303.5921143792357
 31
0.0
 11
497.801299642096
 21
303.4998150585695
 31
0.0
 11
498.2691455324967
 21
303.3801925640184
 31
0.0
 11
498.7082346209972
 21
303.2390610013483
 31
0.0
 11
499.1375679727365
 21
303.0702849399014
 31
0.0
 11
499.5291356419303
 21
302.8848645849505
 31
0.0
 11
499.9064640046485
 21
302.6716295121353
 31
0.0
 11
500.2394911238293
 21
302.447508656542
 31
0.0
 11
500.5526524810509
 21
302.1959939327953
 31
0.0
 11
500.8179896101558
 21
301.9394066874149
 31
0.0
 11
501.0564829067111
 21
301.6572650420692
 31
0.0
 11
501.2467186308166
 21
301.3747041828864
 31
0.0
 11
501.402143497394
 21
301.0711804314908
 31
0.0
 11
501.5110983295385
 21
300.7694349106209
 31
0.0
 11
501.5780938712412
 21
300.4554208870077
 31
0.0
 11
501.6005848530431
 21
300.1424660354419
 31
0.0
 11
501.5780938712412
 21
299.8295111838762
 31
0.0
 11
501.5110983295385
 21
299.5154971602632
 31
0.0
 11
501.402143497394
 21
299.2137516393932
 31
0.0
 11
501.2467186308168
 21
298.9102278879975
 31
0.0
 11
501.0564829067113
 21
298.6276670288146
 31
0.0
 11
500.8179896101561
 21
298.345525383469
 31
0.0
 11
500.552652481051
 21
298.0889381380886
 31
0.0
 11
500.2394911238293
 21
297.8374234143419
 31
0.0
 11
499.9064640046483
 21
297.6133025587485
 31
0.0
 11
499.5291356419299
 21
297.4000674859333
 31
0.0
 11
499.1375679727364
 21
297.2146471309824
 31
0.0
 11
498.7082346209972
 21
297.0458710695355
 31
0.0
 11
498.2691455324967
 21
296.9047395068653
 31
0.0
 11
497.8012996420961
 21
296.7851170123143
 31
0.0
 11
497.3273676145974
 21
296.6928176916481
 31
0.0
 11
496.8354709079038
 21
296.6254943738749
 31
0.0
 11
496.3406513559216
 21
296.5852381854679
 31
0.0
 11
496.0901884490309
 21
296.5751234122449
 31
0.0
 11
495.8397255421401
 21
296.5717518211706
 31
0.0
  0
SPLINE
  5
195
330
53
100
AcDbEntity
  8
1
  6
Continuous
 62
     7
100
AcDbSpline
210
0.0
220
0.0
230
1.0
 70
     8
 71
     3
 72
    15
 73
    11
 74
     9
 42
0.000000001
 43
0.0000000001
 44
0.00000001
 40
0.0
 40
0.0
 40
0.0
 40
0.0
 40
0.3005600958899169
 40
0.6013520081981778
 40
1.084248806116061
 40
1.567084938328715
 40
2.063567363660261
 40
2.560021741700291
 40
2.810688804479827
 40
3.061174403753887
 40
3.061174403753887
 40
3.061174403753887
 40
3.061174403753887
 10
492.839725542147
 20
297.0942322668769
 30
0.0
 10
492.9338448560467
 20
297.0598504580356
 30
0.0
 10
493.1221560811966
 20
296.9910603360194
 30
0.0
 10
493.4678838730903
 20
296.885250469163
 30
0.0
 10
493.8770903732029
 20
296.7804972748494
 30
0.0
 10
494.3558300531203
 20
296.6875645754798
 30
0.0
 10
494.8434802148076
 20
296.6209593139072
 30
0.0
 10
495.2568712372363
 20
296.5875572677058
 30
0.0
 10
495.5891711836078
 20
296.5737131953202
 30
0.0
 10
495.7562275858436
 20
296.5724054498725
 30
0.0
 10
495.8397255421434
 20
296.5717518211706
 30
0.0
 11
492.839725542147
 21
297.0942322668769
 31
0.0
 11
493.1229423769879
 21
296.9936112157572
 31
0.0
 11
493.4103055517866
 21
296.9047395068653
 31
0.0
 11
493.8781514421875
 21
296.7851170123142
 31
0.0
 11
494.3520834696862
 21
296.6928176916481
 31
0.0
 11
494.8439801763797
 21
296.6254943738749
 31
0.0
 11
495.3387997283621
 21
296.5852381854679
 31
0.0
 11
495.5892626352529
 21
296.5751234122449
 31
0.0
 11
495.8397255421434
 21
296.5717518211706
 31
0.0
  0
SPLINE
  5
196
330
53
100
AcDbEntity
  8
1
  6
Continuous
 62
     7
100
AcDbSpline
210
0.0
220
0.0
230
1.0
 70
     8
 71
     3
 72
    15
 73
    11
 74
     9
 42
0.000000001
 43
0.0000000001
 44
0.00000001
 40
0.0
 40
0.0
 40
0.0
 40
0.0
 40
0.3005600958934613
 40
0.6013520082051199
 40
1.084248806122838
 40
1.567084938335514
 40
2.063567363667173
 40
2.560021741707089
 40
2.810688804486568
 40
3.061174403760912
 40
3.061174403760912
 40
3.061174403760912
 40
3.061174403760912
 10
484.8397255421429
 20
297.0942322668793
 30
0.0
 10
484.7456062282421
 20
297.0598504580376
 30
0.0
 10
484.5572950030901
 20
296.9910603360206
 30
0.0
 10
484.2115672111942
 20
296.8852504691633
 30
0.0
 10
483.8023607110806
 20
296.7804972748497
 30
0.0
 10
483.3236210311634
 20
296.6875645754798
 30
0.0
 10
482.8359708694758
 20
296.6209593139073
 30
0.0
 10
482.4225798470471
 20
296.5875572677058
 30
0.0
 10
482.0902799006757
 20
296.5737131953201
 30
0.0
 10
481.9232234984398
 20
296.5724054498726
 30
0.0
 10
481.8397255421399
 20
296.5717518211706
 30
0.0
 11
484.8397255421429
 21
297.0942322668793
 31
0.0
 11
484.5565087072987
 21
296.9936112157583
 31
0.0
 11
484.2691455324967
 21
296.9047395068654
 31
0.0
 11
483.8012996420961
 21
296.7851170123143
 31
0.0
 11
483.3273676145973
 21
296.6928176916481
 31
0.0
 11
482.8354709079037
 21
296.6254943738749
 31
0.0
 11
482.3406513559214
 21
296.5852381854679
 31
0.0
 11
482.0901884490307
 21
296.5751234122449
 31
0.0
 11
481.8397255421399
 21
296.5717518211706
 31
0.0
  0
ARC
  5
197
330
53
100
AcDbEntity
  8
1
  6
Continuous
 62
     7
100
AcDbCircle
 10
134.699403462833
 20
306.0000030000012
 30
0.0
 40
1.0
100
AcDbArc
 50
270.0
 51
330.0000000000019
  0
ARC
  5
198
330
53
100
AcDbEntity
  8
1
  6
Continuous
 62
     7
100
AcDbCircle
 10
136.4314542704018
 20
305.0000030000012
 30
0.0
 40
1.0
100
AcDbArc
 50
90.0
 51
149.9999999999954
  0
ARC
  5
199
330
53
100
AcDbEntity
  8
1
  6
Continuous
 62
     7
100
AcDbCircle
 10
134.6413824011025
 20
304.0000030000012
 30
0.0
 40
1.0
100
AcDbArc
 50
90.0
 51
105.3375576695549
  0
ARC
  5
19A
330
53
100
AcDbEntity
  8
1
  6
Continuous
 62
     7
100
AcDbCircle
 10
157.699403462833
 20
306.0000030000012
 30
0.0
 40
0.9999999999999589
100
AcDbArc
 50
210.0000000000013
 51
270.0
  0
ARC
  5
19B
330
53
100
AcDbEntity
  8
1
  6
Continuous
 62
     7
100
AcDbCircle
 10
155.9673526552642
 20
305.0000030000012
 30
0.0
 40
0.9999999999999836
100
AcDbArc
 50
30.00000000000054
 51
90.0
  0
ARC
  5
19C
330
53
100
AcDbEntity
  8
1
  6
Continuous
 62
     7
100
AcDbCircle
 10
157.7574245245637
 20
304.0000030000012
 30
0.0
 40
1.000000000000131
100
AcDbArc
 50
74.66244233044496
 51
90.0
  0
ARC
  5
19D
330
53
100
AcDbEntity
  8
1
  6
Continuous
 62
     7
100
AcDbCircle
 10
479.0717763497107
 20
305.0000030000003
 30
0.0
 40
1.000000000000094
100
AcDbArc
 50
137.0585971351255
 51
149.9999999999995
  0
ARC
  5
19E
330
53
100
AcDbEntity
  8
1
  6
Continuous
 62
     7
100
AcDbCircle
 10
477.3397255421417
 20
306.0000030000003
 30
0.0
 40
1.0
100
AcDbArc
 50
270.0
 51
330.0000000000043
  0
ARC
  5
19F
330
53
100
AcDbEntity
  8
1
  6
Continuous
 62
     7
100
AcDbCircle
 10
479.0717763497107
 20
305.0000030000003
 30
0.0
 40
1.0
100
AcDbArc
 50
90.0
 51
137.0585971351255
  0
ARC
  5
1A0
330
53
100
AcDbEntity
  8
1
  6
Continuous
 62
     7
100
AcDbCircle
 10
477.281704480411
 20
304.0000030000003
 30
0.0
 40
1.0
100
AcDbArc
 50
90.0
 51
105.3375576695441
  0
ARC
  5
1A1
330
53
100
AcDbEntity
  8
1
  6
Continuous
 62
     7
100
AcDbCircle
 10
498.6076747345728
 20
305.0000030000003
 30
0.0
 40
1.000000000000033
100
AcDbArc
 50
29.99999999999891
 51
42.94140286487899
  0
ARC
  5
1A2
330
53
100
AcDbEntity
  8
1
  6
Continuous
 62
     7
100
AcDbCircle
 10
500.3397255421417
 20
306.0000030000003
 30
0.0
 40
0.9999999999999836
100
AcDbArc
 50
210.0000000000005
 51
270.0
  0
ARC
  5
1A3
330
53
100
AcDbEntity
  8
1
  6
Continuous
 62
     7
100
AcDbCircle
 10
498.6076747345728
 20
305.0000030000003
 30
0.0
 40
1.000000000000011
100
AcDbArc
 50
42.94140286487899
 51
90.0
  0
ARC
  5
1A4
330
53
100
AcDbEntity
  8
1
  6
Continuous
 62
     7
100
AcDbCircle
 10
500.3977466038724
 20
304.0000030000003
 30
0.0
 40
1.000000000000109
100
AcDbArc
 50
74.66244233044966
 51
90.0
  0
ENDBLK
  5
55
330
53
100
AcDbEntity
  8
0
100
AcDbBlockEnd
  0
BLOCK
  5
1CD
330
1C6
100
AcDbEntity
  8
0
100
AcDbBlockBegin
  2
*D6
 70
     1
 10
0.0
 20
0.0
 30
0.0
  3
*D6
  1

  0
LINE
  5
1C7
330
1C6
100
AcDbEntity
  8
0
  6
Continuous
 62
     2
100
AcDbLine
 10
146.199403462833
 20
217.5000030000004
 30
0.0
 11
195.999403462833
 21
217.5000030000004
 31
0.0
  0
LINE
  5
1C8
330
1C6
100
AcDbEntity
  8
0
  6
Continuous
 62
     2
100
AcDbLine
 10
146.199403462833
 20
238.5000030000004
 30
0.0
 11
146.199403462833
 21
214.5000027000004
 31
0.0
  0
LINE
  5
1C9
330
1C6
100
AcDbEntity
  8
0
  6
Continuous
 62
     2
100
AcDbLine
 10
195.999403462833
 20
270.5000030000003
 30
0.0
 11
195.999403462833
 21
214.5000027000004
 31
0.0
  0
SOLID
  5
1CA
330
1C6
100
AcDbEntity
  8
0
 62
     2
100
AcDbTrace
 10
156.6994045128331
 20
218.8823543629032
 30
0.0
 11
156.6994045128331
 21
216.1176516370976
 31
0.0
 12
146.199403462833
 22
217.5000030000004
 32
0.0
 13
146.199403462833
 23
217.5000030000004
 33
0.0
  0
SOLID
  5
1CB
330
1C6
100
AcDbEntity
  8
0
 62
     2
100
AcDbTrace
 10
185.4994024128329
 20
216.1176516370976
 30
0.0
 11
185.4994024128329
 21
218.8823543629032
 31
0.0
 12
195.999403462833
 22
217.5000030000004
 32
0.0
 13
195.999403462833
 23
217.5000030000004
 33
0.0
  0
MTEXT
  5
1CC
330
1C6
100
AcDbEntity
  8
0
 62
     7
100
AcDbMText
 10
163.2244026753329
 20
220.5000033000005
 30
0.0
 40
10.50000105000011
 41
0.0
 71
     7
 72
     1
  1
50
  7
CONVERTER_12
 11
0.9999999999970619
 21
2.424068405545306E-6
 31
0.0
 73
     1
 44
0.60024009603842
  0
ENDBLK
  5
1CE
330
1C6
100
AcDbEntity
  8
0
100
AcDbBlockEnd
  0
BLOCK
  5
1D8
330
1D1
100
AcDbEntity
  8
0
100
AcDbBlockBegin
  2
*D7
 70
     1
 10
0.0
 20
0.0
 30
0.0
  3
*D7
  1

  0
LINE
  5
1D2
330
1D1
100
AcDbEntity
  8
0
  6
Continuous
 62
     2
100
AcDbLine
 10
578.3397255421426
 20
247.5000030000002
 30
0.0
 11
578.3397255421426
 21
293.5000030000003
 31
0.0
  0
LINE
  5
1D3
330
1D1
100
AcDbEntity
  8
0
  6
Continuous
 62
     2
100
AcDbLine
 10
534.3397255421426
 20
247.5000030000002
 30
0.0
 11
581.3397258421426
 21
247.5000030000002
 31
0.0
  0
LINE
  5
1D4
330
1D1
100
AcDbEntity
  8
0
  6
Continuous
 62
     2
100
AcDbLine
 10
534.3397255421426
 20
293.5000030000003
 30
0.0
 11
581.3397258421426
 21
293.5000030000003
 31
0.0
  0
SOLID
  5
1D5
330
1D1
100
AcDbEntity
  8
0
 62
     2
100
AcDbTrace
 10
576.9573741792398
 20
258.0000040500004
 30
0.0
 11
579.7220769050454
 21
258.0000040500004
 31
0.0
 12
578.3397255421426
 22
247.5000030000002
 32
0.0
 13
578.3397255421426
 23
247.5000030000002
 33
0.0
  0
SOLID
  5
1D6
330
1D1
100
AcDbEntity
  8
0
 62
     2
100
AcDbTrace
 10
579.7220769050454
 20
283.0000019500002
 30
0.0
 11
576.9573741792398
 21
283.0000019500002
 31
0.0
 12
578.3397255421426
 22
293.5000030000003
 32
0.0
 13
578.3397255421426
 23
293.5000030000003
 33
0.0
  0
MTEXT
  5
1D7
330
1D1
100
AcDbEntity
  8
0
 62
     7
100
AcDbMText
 10
575.3397252421425
 20
260.3150019815001
 30
0.0
 40
10.50000105000011
 41
0.0
 71
     7
 72
     1
  1
\C7;{\Fgdt;n}\C7;46
  7
CONVERTER_12
 11
0.0
 21
1.0
 31
0.0
 73
     1
 44
0.60024009603842
  0
ENDBLK
  5
1D9
330
1D1
100
AcDbEntity
  8
0
100
AcDbBlockEnd
  0
BLOCK
  5
1E3
330
1DC
100
AcDbEntity
  8
0
100
AcDbBlockBegin
  2
*D8
 70
     1
 10
0.0
 20
0.0
 30
0.0
  3
*D8
  1

  0
LINE
  5
1DD
330
1DC
100
AcDbEntity
  8
0
  6
Continuous
 62
     2
100
AcDbLine
 10
534.3397255421427
 20
217.5000030000004
 30
0.0
 11
488.8397255421417
 21
217.5000030000004
 31
0.0
  0
LINE
  5
1DE
330
1DC
100
AcDbEntity
  8
0
  6
Continuous
 62
     2
100
AcDbLine
 10
534.3397255421426
 20
247.5000030000004
 30
0.0
 11
534.3397255421426
 21
214.5000027000004
 31
0.0
  0
LINE
  5
1DF
330
1DC
100
AcDbEntity
  8
0
  6
Continuous
 62
     2
100
AcDbLine
 10
488.8397255421417
 20
242.503966302264
 30
0.0
 11
488.8397255421417
 21
214.5000027000004
 31
0.0
  0
SOLID
  5
1E0
330
1DC
100
AcDbEntity
  8
0
 62
     2
100
AcDbTrace
 10
523.8397244921425
 20
216.1176516370976
 30
0.0
 11
523.8397244921425
 21
218.8823543629032
 31
0.0
 12
534.3397255421427
 22
217.5000030000004
 32
0.0
 13
534.3397255421427
 23
217.5000030000004
 33
0.0
  0
SOLID
  5
1E1
330
1DC
100
AcDbEntity
  8
0
 62
     2
100
AcDbTrace
 10
499.3397265921418
 20
218.8823543629032
 30
0.0
 11
499.3397265921418
 21
216.1176516370976
 31
0.0
 12
488.8397255421417
 22
217.5000030000004
 32
0.0
 13
488.8397255421417
 23
217.5000030000004
 33
0.0
  0
MTEXT
  5
1E2
330
1DC
100
AcDbEntity
  8
0
 62
     7
100
AcDbMText
 10
503.714724754642
 20
220.5000033000005
 30
0.0
 40
10.50000105000011
 41
0.0
 71
     7
 72
     1
  1
46
  7
CONVERTER_12
 11
0.9999999999970619
 21
2.424068405545306E-6
 31
0.0
 73
     1
 44
0.60024009603842
  0
ENDBLK
  5
1E4
330
1DC
100
AcDbEntity
  8
0
100
AcDbBlockEnd
  0
BLOCK
  5
1EE
330
1E7
100
AcDbEntity
  8
0
100
AcDbBlockBegin
  2
*D9
 70
     1
 10
0.0
 20
0.0
 30
0.0
  3
*D9
  1

  0
LINE
  5
1E8
330
1E7
100
AcDbEntity
  8
0
  6
Continuous
 62
     2
100
AcDbLine
 10
488.8397255421417
 20
217.5000030000004
 30
0.0
 11
248.8397255421417
 21
217.5000030000004
 31
0.0
  0
LINE
  5
1E9
330
1E7
100
AcDbEntity
  8
0
  6
Continuous
 62
     2
100
AcDbLine
 10
488.8397255421417
 20
242.503966302264
 30
0.0
 11
488.8397255421417
 21
214.5000027000004
 31
0.0
  0
LINE
  5
1EA
330
1E7
100
AcDbEntity
  8
0
  6
Continuous
 62
     2
100
AcDbLine
 10
248.8397255421417
 20
296.5000030000007
 30
0.0
 11
248.8397255421417
 21
214.5000027000004
 31
0.0
  0
SOLID
  5
1EB
330
1E7
100
AcDbEntity
  8
0
 62
     2
100
AcDbTrace
 10
478.3397244921416
 20
216.1176516370976
 30
0.0
 11
478.3397244921416
 21
218.8823543629032
 31
0.0
 12
488.8397255421417
 22
217.5000030000004
 32
0.0
 13
488.8397255421417
 23
217.5000030000004
 33
0.0
  0
SOLID
  5
1EC
330
1E7
100
AcDbEntity
  8
0
 62
     2
100
AcDbTrace
 10
259.3397265921418
 20
218.8823543629032
 30
0.0
 11
259.3397265921418
 21
216.1176516370976
 31
0.0
 12
248.8397255421417
 22
217.5000030000004
 32
0.0
 13
248.8397255421417
 23
217.5000030000004
 33
0.0
  0
MTEXT
  5
1ED
330
1E7
100
AcDbEntity
  8
0
 62
     7
100
AcDbMText
 10
356.2397242821416
 20
220.5000033000005
 30
0.0
 40
10.50000105000011
 41
0.0
 71
     7
 72
     1
  1
240
  7
CONVERTER_12
 11
0.9999999999970619
 21
2.424068405545306E-6
 31
0.0
 73
     1
 44
0.60024009603842
  0
ENDBLK
  5
1EF
330
1E7
100
AcDbEntity
  8
0
100
AcDbBlockEnd
  0
BLOCK
  5
1F9
330
1F2
100
AcDbEntity
  8
0
100
AcDbBlockBegin
  2
*D10
 70
     1
 10
0.0
 20
0.0
 30
0.0
  3
*D10
  1

  0
LINE
  5
1F3
330
1F2
100
AcDbEntity
  8
0
  6
Continuous
 62
     2
100
AcDbLine
 10
317.4897255421417
 20
270.5000030000002
 30
0.0
 11
317.4897255421417
 21
346.5000030000007
 31
0.0
  0
LINE
  5
1F4
330
1F2
100
AcDbEntity
  8
0
  6
Continuous
 62
     2
100
AcDbLine
 10
275.8397255421416
 20
346.5000030000007
 30
0.0
 11
320.4897258421417
 21
346.5000030000007
 31
0.0
  0
LINE
  5
1F5
330
1F2
100
AcDbEntity
  8
0
  6
Continuous
 62
     2
100
AcDbLine
 10
444.8397255421419
 20
270.5000030000002
 30
0.0
 11
314.4897252421417
 21
270.5000030000002
 31
0.0
  0
SOLID
  5
1F6
330
1F2
100
AcDbEntity
  8
0
 62
     2
100
AcDbTrace
 10
316.1073741792389
 20
281.0000040500003
 30
0.0
 11
318.8720769050445
 21
281.0000040500003
 31
0.0
 12
317.4897255421417
 22
270.5000030000002
 32
0.0
 13
317.4897255421417
 23
270.5000030000002
 33
0.0
  0
SOLID
  5
1F7
330
1F2
100
AcDbEntity
  8
0
 62
     2
100
AcDbTrace
 10
318.8720769050445
 20
336.0000019500006
 30
0.0
 11
316.1073741792389
 21
336.0000019500006
 31
0.0
 12
317.4897255421417
 22
346.5000030000007
 32
0.0
 13
317.4897255421417
 23
346.5000030000007
 33
0.0
  0
MTEXT
  5
1F8
330
1F2
100
AcDbEntity
  8
0
 62
     7
100
AcDbMText
 10
314.4897252421417
 20
292.6250022125004
 30
0.0
 40
10.50000105000011
 41
0.0
 71
     7
 72
     1
  1
76
  7
CONVERTER_12
 11
0.0
 21
1.0
 31
0.0
 73
     1
 44
0.60024009603842
  0
ENDBLK
  5
1FA
330
1F2
100
AcDbEntity
  8
0
100
AcDbBlockEnd
  0
BLOCK
  5
204
330
1FD
100
AcDbEntity
  8
0
100
AcDbBlockBegin
  2
*D11
 70
     1
 10
0.0
 20
0.0
 30
0.0
  3
*D11
  1

  0
LINE
  5
1FE
330
1FD
100
AcDbEntity
  8
0
  6
Continuous
 62
     2
100
AcDbLine
 10
287.4897255421417
 20
305.5000030000005
 30
0.0
 11
287.4897255421417
 21
270.5000030000001
 31
0.0
  0
LINE
  5
1FF
330
1FD
100
AcDbEntity
  8
0
  6
Continuous
 62
     2
100
AcDbLine
 10
444.8397255421419
 20
270.5000030000001
 30
0.0
 11
284.4897252421417
 21
270.5000030000001
 31
0.0
  0
LINE
  5
200
330
1FD
100
AcDbEntity
  8
0
  6
Continuous
 62
     2
100
AcDbLine
 10
256.2261325481279
 20
305.5000030000005
 30
0.0
 11
290.4897258421417
 21
305.5000030000005
 31
0.0
  0
SOLID
  5
201
330
1FD
100
AcDbEntity
  8
0
 62
     2
100
AcDbTrace
 10
288.8720769050445
 20
295.0000019500004
 30
0.0
 11
286.1073741792389
 21
295.0000019500004
 31
0.0
 12
287.4897255421417
 22
305.5000030000005
 32
0.0
 13
287.4897255421417
 23
305.5000030000005
 33
0.0
  0
SOLID
  5
202
330
1FD
100
AcDbEntity
  8
0
 62
     2
100
AcDbTrace
 10
286.1073741792389
 20
281.0000040500002
 30
0.0
 11
288.8720769050445
 21
281.0000040500002
 31
0.0
 12
287.4897255421417
 22
270.5000030000001
 32
0.0
 13
287.4897255421417
 23
270.5000030000001
 33
0.0
  0
MTEXT
  5
203
330
1FD
100
AcDbEntity
  8
0
 62
     7
100
AcDbMText
 10
284.4897252421417
 20
280.1250022125004
 30
0.0
 40
10.50000105000011
 41
0.0
 71
     7
 72
     1
  1
35
  7
CONVERTER_12
 11
0.0
 21
1.0
 31
0.0
 73
     1
 44
0.60024009603842
  0
ENDBLK
  5
205
330
1FD
100
AcDbEntity
  8
0
100
AcDbBlockEnd
  0
BLOCK
  5
20F
330
208
100
AcDbEntity
  8
0
100
AcDbBlockBegin
  2
*D12
 70
     1
 10
0.0
 20
0.0
 30
0.0
  3
*D12
  1

  0
LINE
  5
209
330
208
100
AcDbEntity
  8
0
  6
Continuous
 62
     2
100
AcDbLine
 10
573.0635113774441
 20
217.5000030000004
 30
0.0
 11
548.3397255421426
 21
217.5000030000004
 31
0.0
  0
LINE
  5
20A
330
208
100
AcDbEntity
  8
0
  6
Continuous
 62
     2
100
AcDbLine
 10
548.3397255421426
 20
217.5000030000004
 30
0.0
 11
534.3397255421426
 21
217.5000030000004
 31
0.0
  0
LINE
  5
20B
330
208
100
AcDbEntity
  8
0
  6
Continuous
 62
     2
100
AcDbLine
 10
548.3397255421426
 20
261.1800030000003
 30
0.0
 11
548.3397255421426
 21
214.5000027000004
 31
0.0
  0
LINE
  5
20C
330
208
100
AcDbEntity
  8
0
  6
Continuous
 62
     2
100
AcDbLine
 10
534.3397255421426
 20
247.5000030000004
 30
0.0
 11
534.3397255421426
 21
214.5000027000004
 31
0.0
  0
SOLID
  5
20D
330
208
100
AcDbEntity
  8
0
 62
     2
100
AcDbTrace
 10
557.3397264421427
 20
218.6848755967742
 30
0.0
 11
557.3397264421427
 21
216.3151304032266
 31
0.0
 12
548.3397255421426
 22
217.5000030000004
 32
0.0
 13
548.3397255421426
 23
217.5000030000004
 33
0.0
  0
MTEXT
  5
20E
330
208
100
AcDbEntity
  8
0
 62
     7
100
AcDbMText
 10
560.4635101174439
 20
220.5000033000005
 30
0.0
 40
10.50000105000011
 41
0.0
 71
     7
 72
     1
  1
14
  7
CONVERTER_12
 11
0.9999999999970619
 21
2.424068405545306E-6
 31
0.0
 73
     1
 44
0.60024009603842
  0
ENDBLK
  5
210
330
208
100
AcDbEntity
  8
0
100
AcDbBlockEnd
  0
BLOCK
  5
212
330
211
100
AcDbEntity
  8
0
100
AcDbBlockBegin
  2
_NONE
 70
     0
 10
0.0
 20
0.0
 30
0.0
  3
_NONE
  1

  0
ENDBLK
  5
213
330
211
100
AcDbEntity
  8
0
100
AcDbBlockEnd
  0
ENDSEC
  0
SECTION
  2
ENTITIES
  0
INSERT
  5
56
330
1F
100
AcDbEntity
  8
1
100
AcDbBlockReference
  2
開示A4
 10
0.0
 20
0.0
 30
0.0
 41
3.00000030000003
 42
3.00000030000003
 43
3.00000030000003
  0
INSERT
  5
57
330
1F
100
AcDbEntity
  8
1
100
AcDbBlockReference
  2
A20J-60-16-240_300_
 10
278.8079261377311
 20
188.9659314573591
 30
0.0
  0
INSERT
  5
58
330
1F
100
AcDbEntity
  8
1
100
AcDbBlockReference
  2
A205-0
 10
621.8062081965608
 20
79.83397879463726
 30
0.0
  0
INSERT
  5
59
330
1F
100
AcDbEntity
  8
1
100
AcDbBlockReference
  2
81-100X-M21
 10
194.9946893403852
 20
321.0814634582532
 30
0.0
  0
INSERT
  5
5A
330
1F
100
AcDbEntity
  8
0
100
AcDbBlockReference
  2
32-1-16
 10
396.4866815693418
 20
429.5008426999626
 30
0.0
  0
LINE
  5
1A5
330
1F
100
AcDbEntity
  8
1
  6
DASH_CENTER
 62
     2
100
AcDbLine
 10
128.8994034628325
 20
436.3417083823728
 30
0.0
 11
163.499403462833
 21
436.3417083823728
 31
0.0
  0
LINE
  5
1A6
330
1F
100
AcDbEntity
  8
1
  6
DASH_CENTER
 62
     2
100
AcDbLine
 10
275.8397255421417
 20
338.5000030000006
 30
0.0
 11
461.8397255421415
 21
338.5000030000006
 31
0.0
  0
LINE
  5
1A7
330
1F
100
AcDbEntity
  8
1
  6
DASH_CENTER
 62
     2
100
AcDbLine
 10
248.8397255421417
 20
296.5000030000006
 30
0.0
 11
248.8397255421417
 21
311.5000030000006
 31
0.0
  0
LINE
  5
1A8
330
1F
100
AcDbEntity
  8
1
  6
DASH_CENTER
 62
     2
100
AcDbLine
 10
146.1739861153005
 20
353.0000030000014
 30
0.0
 11
146.1739861153007
 21
288.0000030000001
 31
0.0
  0
LINE
  5
1A9
330
1F
100
AcDbEntity
  8
1
  6
Continuous
 62
     2
100
AcDbLine
 10
402.0
 20
307.4416480150377
 30
0.0
 11
432.0
 21
307.4416480150377
 31
0.0
  0
LINE
  5
1AA
330
1F
100
AcDbEntity
  8
1
  6
Continuous
 62
     2
100
AcDbLine
 10
388.9857371518231
 20
274.9025119420123
 30
0.0
 11
420.5462041380241
 21
274.9025119420123
 31
0.0
  0
LINE
  5
1AB
330
1F
100
AcDbEntity
  8
1
  6
DASH_CENTER
 62
     2
100
AcDbLine
 10
488.8397255421417
 20
247.503966302264
 30
0.0
 11
488.8397255421417
 21
311.5000030000006
 31
0.0
  0
LINE
  5
1AC
330
1F
100
AcDbEntity
  8
1
  6
DASH_CENTER
 62
     2
100
AcDbLine
 10
146.1994034628328
 20
421.3577325877354
 30
0.0
 11
146.199403462833
 21
744.5912022709346
 31
0.0
  0
LINE
  5
1AD
330
1F
100
AcDbEntity
  8
1
  6
DASH_CENTER
 62
     2
100
AcDbLine
 10
557.3397255421426
 20
270.5000030000007
 30
0.0
 11
444.8397255421419
 21
270.5000030000001
 31
0.0
  0
LINE
  5
1AE
330
1F
100
AcDbEntity
  8
1
  6
Continuous
 62
     2
100
AcDbLine
 10
488.8397255421417
 20
247.503966302264
 30
0.0
 11
488.8397255421417
 21
242.503966302264
 31
0.0
  0
LINE
  5
1AF
330
1F
100
AcDbEntity
  8
1
  6
DASH_CENTER
 62
     2
100
AcDbLine
 10
146.199403462833
 20
288.0000030000001
 30
0.0
 11
146.199403462833
 21
238.5000030000004
 31
0.0
  0
LINE
  5
1B0
330
1F
100
AcDbEntity
  8
1
  6
DASH_CENTER
 62
     2
100
AcDbLine
 10
205.1994043628349
 20
676.3417083823728
 30
0.0
 11
121.6994025628332
 21
676.3417083823728
 31
0.0
  0
LINE
  5
1B1
330
1F
100
AcDbEntity
  8
1
  6
DASH_CENTER
 62
     2
100
AcDbLine
 10
204.999404362833
 20
270.5000030000002
 30
0.0
 11
114.1994025628331
 21
270.5000030000002
 31
0.0
  0
LINE
  5
1B2
330
1F
100
AcDbEntity
  8
1
  6
DASH_CENTER
 62
     2
100
AcDbLine
 10
184.9994034628327
 20
314.5000039000003
 30
0.0
 11
184.9994034628327
 21
241.5000020999999
 31
0.0
  0
ARC
  5
1B3
330
1F
100
AcDbEntity
  8
1
  6
DASH_CENTER
 62
     2
100
AcDbCircle
 10
461.8397255421417
 20
311.5000030000006
 30
0.0
 40
27.0
100
AcDbArc
 50
0.0
 51
90.00000000000048
  0
ARC
  5
1B4
330
1F
100
AcDbEntity
  8
1
  6
DASH_CENTER
 62
     2
100
AcDbCircle
 10
275.8397255421417
 20
311.5000030000006
 30
0.0
 40
27.0
100
AcDbArc
 50
90.0
 51
180.0
  0
ARC
  5
1B5
330
1F
100
AcDbEntity
  8
0
  6
Continuous
 62
     2
100
AcDbCircle
 10
473.3170912112761
 20
282.2669352262656
 30
0.0
 40
41.40657042293046
100
AcDbArc
 50
129.4182247868578
 51
186.1700564023364
  0
SOLID
  5
1B6
330
1F
100
AcDbEntity
  8
1
 62
     2
100
AcDbTrace
 10
544.8925592852977
 20
290.7844463305153
 30
0.0
 11
547.2868620797574
 21
289.4020949676125
 31
0.0
 12
540.8397101575274
 22
281.0000030000006
 32
0.0
 13
540.8397101575274
 23
281.0000030000006
 33
0.0
  0
LEADER
  5
1B7
330
1F
100
AcDbEntity
  8
1
  6
Continuous
 62
     2
100
AcDbLeader
  3
Standard
 71
     0
 76
     3
 10
540.8397101575274
 20
281.0000030000006
 30
0.0
 10
555.7971127854754
 20
306.9069843008707
 30
0.0
 10
592.5208672407869
 20
306.9069843008707
 30
0.0
  0
SOLID
  5
1B8
330
1F
100
AcDbEntity
  8
0
 62
     2
100
AcDbTrace
 10
440.0096564644265
 20
306.3208902192137
 30
0.0
 11
438.1952427795097
 21
308.4069113461593
 31
0.0
 12
447.0249013990824
 22
314.2548208873824
 32
0.0
 13
447.0249013990824
 23
314.2548208873824
 33
0.0
  0
LEADER
  5
1B9
330
1F
100
AcDbEntity
  8
0
  6
Continuous
 62
     2
100
AcDbLeader
  3
Standard
 71
     0
 76
     2
 10
447.0249013990824
 20
314.2548208873824
 30
0.0
 10
445.8754382534818
 20
313.2550219712807
 30
0.0
  0
SOLID
  5
1BA
330
1F
100
AcDbEntity
  8
0
 62
     2
100
AcDbTrace
 10
431.240150031595
 20
288.3679830972218
 30
0.0
 11
434.0020729888852
 21
288.2440365762146
 31
0.0
 12
432.1503778618908
 22
277.8165660057844
 32
0.0
 13
432.1503778618908
 23
277.8165660057844
 33
0.0
  0
LEADER
  5
1BB
330
1F
100
AcDbEntity
  8
0
  6
Continuous
 62
     2
100
AcDbLeader
  3
Standard
 71
     0
 76
     2
 10
432.1503778618908
 20
277.8165660057844
 30
0.0
 10
432.2436384759669
 20
279.8947092964123
 30
0.0
  0
MTEXT
  5
1BC
330
1F
100
AcDbEntity
  8
1
 62
     7
100
AcDbMText
 10
416.858028480465
 20
316.4416480150377
 30
0.0
 40
15.00000150000015
 41
0.0
 71
     5
 72
     1
  1
止水
  7
CONVERTER_11
 73
     1
 44
0.54545454545455
  0
MTEXT
  5
1BE
330
1F
100
AcDbEntity
  8
1
 62
     7
100
AcDbMText
 10
102.0000000010202
 20
102.00000000102
 30
0.0
 40
10.50000105000011
 41
0.0
 71
     4
 72
     1
  1
JIS
  7
CONVERTER_12
 73
     1
 44
0.7202881152461
  0
MTEXT
  5
1BF
330
1F
100
AcDbEntity
  8
0
 62
     7
100
AcDbMText
 10
255.7500000025575
 20
51.00000000051
 30
0.0
 40
10.50000105000011
 41
0.0
 71
     5
 72
     1
  1
1
  7
CONVERTER_12
 73
     1
 44
0.7202881152461
  0
MTEXT
  5
1C0
330
1F
100
AcDbEntity
  8
0
 62
     7
100
AcDbMText
 10
281.2500000028124
 20
51.00000000051
 30
0.0
 40
10.50000105000011
 41
0.0
 71
     5
 72
     1
  1
3
  7
CONVERTER_12
 73
     1
 44
0.7202881152461
  0
MTEXT
  5
1C1
330
1F
100
AcDbEntity
  8
1
 62
     7
100
AcDbMText
 10
404.7260906022681
 20
283.9025119420124
 30
0.0
 40
15.00000150000015
 41
0.0
 71
     5
 72
     1
  1
吐水
  7
CONVERTER_11
 73
     1
 44
0.54545454545455
  0
MTEXT
  5
1C2
330
1F
100
AcDbEntity
  8
0
 62
     7
100
AcDbMText
 10
571.1589900131311
 20
315.9069843008707
 30
0.0
 40
10.50000105000011
 41
0.0
 71
     5
 72
     1
  1
PJ1/2
  7
CONVERTER_12
 73
     1
 44
0.7202881152461
  0
MTEXT
  5
1C3
330
1F
100
AcDbEntity
  8
0
 62
     7
100
AcDbMText
 10
171.0000171000017
 20
68.25000682500074
 30
0.0
 40
10.50000105000011
 41
0.0
 71
     5
 72
     1
  1
ミニセラ横形自在水栓
  7
CONVERTER_11
 73
     1
 44
1.0
  0
MTEXT
  5
1C4
330
1F
100
AcDbEntity
  8
0
 62
     7
100
AcDbMText
 10
171.0000171000017
 20
42.75000427500044
 30
0.0
 40
10.50000105000011
 41
0.0
 71
     5
 72
     1
  1
A205-L2-13
  7
CONVERTER_12
 73
     1
 44
1.32052821128451
  0
MTEXT
  5
1C5
330
1F
100
AcDbEntity
  8
1
 62
     7
100
AcDbMText
 10
379.858028480465
 20
302.4416480150377
 30
0.0
 40
10.50000105000011
 41
0.0
 71
     5
 72
     1
  1
90°
  7
CONVERTER_11
 73
     1
 44
0.54545454545455
  0
DIMENSION
  5
1D0
330
1F
100
AcDbEntity
  8
0
100
AcDbDimension
  2
*D6
 10
146.199403462833
 20
217.5000030000004
 30
0.0
 11
171.099403462833
 21
225.7500038250005
 31
0.0
 70
    32
  1
50
 71
     5
 42
-1.0
 53
0.00013888888889
  3
ME10_DIM_10
100
AcDbAlignedDimension
 13
195.999403462833
 23
270.5000030000002
 33
0.0
 14
146.199403462833
 24
238.5000030000004
 34
0.0
100
AcDbRotatedDimension
  0
DIMENSION
  5
1DB
330
1F
100
AcDbEntity
  8
0
100
AcDbDimension
  2
*D7
 10
578.3397255421426
 20
247.5000030000002
 30
0.0
 11
570.0897247171425
 21
270.5000030000003
 31
0.0
 70
    32
  1
<>
 71
     5
 42
-1.0
 53
90.0
  3
ME10_DIM_11
100
AcDbAlignedDimension
 13
534.3397255421426
 23
293.5000030000003
 33
0.0
 14
534.3397255421426
 24
247.5000030000003
 34
0.0
 50
90.0
100
AcDbRotatedDimension
  0
DIMENSION
  5
1E6
330
1F
100
AcDbEntity
  8
0
100
AcDbDimension
  2
*D8
 10
534.3397255421427
 20
217.5000030000004
 30
0.0
 11
511.5897255421421
 21
225.7500038250005
 31
0.0
 70
    32
  1
46
 71
     5
 42
-1.0
 53
0.00013888888889
  3
ME10_DIM_12
100
AcDbAlignedDimension
 13
488.8397255421417
 23
242.503966302264
 33
0.0
 14
534.3397255421426
 24
247.5000030000003
 34
0.0
100
AcDbRotatedDimension
  0
DIMENSION
  5
1F1
330
1F
100
AcDbEntity
  8
0
100
AcDbDimension
  2
*D9
 10
488.8397255421417
 20
217.5000030000004
 30
0.0
 11
368.8397255421417
 21
225.7500038250005
 31
0.0
 70
    32
  1
<>
 71
     5
 42
-1.0
 53
0.00013888888889
  3
ME10_DIM_13
100
AcDbAlignedDimension
 13
248.8397255421417
 23
296.5000030000006
 33
0.0
 14
488.8397255421417
 24
242.503966302264
 34
0.0
100
AcDbRotatedDimension
  0
DIMENSION
  5
1FC
330
1F
100
AcDbEntity
  8
0
100
AcDbDimension
  2
*D10
 10
317.4897255421417
 20
270.5000030000002
 30
0.0
 11
309.2397247171416
 21
300.5000030000005
 31
0.0
 70
    32
  1
<>
 71
     5
 42
-1.0
 53
90.0
  3
ME10_DIM_14
100
AcDbAlignedDimension
 13
275.8397255421417
 23
346.5000030000006
 33
0.0
 14
444.8397255421419
 24
270.5000030000001
 34
0.0
 50
90.0
100
AcDbRotatedDimension
  0
DIMENSION
  5
207
330
1F
100
AcDbEntity
  8
0
100
AcDbDimension
  2
*D11
 10
287.4897255421417
 20
305.5000030000005
 30
0.0
 11
279.2397247171416
 21
288.0000030000005
 31
0.0
 70
    32
  1
<>
 71
     5
 42
-1.0
 53
90.0
  3
ME10_DIM_15
100
AcDbAlignedDimension
 13
444.8397255421419
 23
270.5000030000001
 33
0.0
 14
256.2261325481279
 24
305.5000030000006
 34
0.0
 50
90.0
100
AcDbRotatedDimension
  0
DIMENSION
  5
215
330
1F
100
AcDbEntity
  8
0
100
AcDbDimension
  2
*D12
 10
548.3397255421426
 20
217.5000030000004
 30
0.0
 11
566.763510747444
 21
225.7500038250005
 31
0.0
 70
    32
  1
<>
 71
     5
 42
-1.0
 53
0.00013888888889
  3
ME10_DIM_16
100
AcDbAlignedDimension
 13
534.3397255421426
 23
247.5000030000003
 33
0.0
 14
548.3397255421426
 24
261.1800030000003
 34
0.0
100
AcDbRotatedDimension
  0
ENDSEC
  0
SECTION
  2
OBJECTS
  0
DICTIONARY
  5
C
330
0
100
AcDbDictionary
281
     1
  3
ACAD_GROUP
350
D
  3
ACAD_LAYOUT
350
1A
  3
ACAD_MATERIAL
350
3B
  3
ACAD_MLEADERSTYLE
350
218
  3
ACAD_MLINESTYLE
350
17
  3
ACAD_PLOTSETTINGS
350
19
  3
ACAD_PLOTSTYLENAME
350
E
  3
ACAD_VISUALSTYLE
350
2A
  3
AcDbVariableDictionary
350
216
  0
DICTIONARY
  5
D
102
{ACAD_REACTORS
330
C
102
}
330
C
100
AcDbDictionary
281
     1
  0
DICTIONARY
  5
1A
102
{ACAD_REACTORS
330
C
102
}
330
C
100
AcDbDictionary
281
     1
  3
Layout1
350
1E
  3
Layout2
350
26
  3
Model
350
22
  0
DICTIONARY
  5
3B
102
{ACAD_REACTORS
330
C
102
}
330
C
100
AcDbDictionary
281
     1
  3
ByBlock
350
3D
  3
ByLayer
350
3C
  3
Global
350
3E
  0
DICTIONARY
  5
218
102
{ACAD_REACTORS
330
C
102
}
330
C
100
AcDbDictionary
281
     1
  0
DICTIONARY
  5
17
102
{ACAD_REACTORS
330
C
102
}
330
C
100
AcDbDictionary
281
     1
  3
Standard
350
18
  0
DICTIONARY
  5
19
102
{ACAD_REACTORS
330
C
102
}
330
C
100
AcDbDictionary
281
     1
  0
ACDBDICTIONARYWDFLT
  5
E
102
{ACAD_REACTORS
330
C
102
}
330
C
100
AcDbDictionary
281
     1
  3
Normal
350
F
100
AcDbDictionaryWithDefault
340
F
  0
DICTIONARY
  5
2A
102
{ACAD_REACTORS
330
C
102
}
330
C
100
AcDbDictionary
281
     1
  3
2dWireframe
350
2F
  3
3D Hidden
350
31
  3
3dWireframe
350
30
  3
Basic
350
32
  3
Brighten
350
36
  3
ColorChange
350
3A
  3
Conceptual
350
34
  3
Dim
350
35
  3
Facepattern
350
39
  3
Flat
350
2B
  3
FlatWithEdges
350
2C
  3
Gouraud
350
2D
  3
GouraudWithEdges
350
2E
  3
Linepattern
350
38
  3
Realistic
350
33
  3
Thicken
350
37
  0
DICTIONARY
  5
216
102
{ACAD_REACTORS
330
C
102
}
330
C
100
AcDbDictionary
281
     1
  3
DIMASSOC
350
219
  3
HIDETEXT
350
21A
  0
LAYOUT
  5
1E
102
{ACAD_REACTORS
330
1A
102
}
330
1A
100
AcDbPlotSettings
  1

  2
none_device
  4

  6

 40
0.0
 41
0.0
 42
0.0
 43
0.0
 44
0.0
 45
0.0
 46
0.0
 47
0.0
 48
0.0
 49
0.0
140
0.0
141
0.0
142
1.0
143
1.0
 70
   688
 72
     0
 73
     0
 74
     5
  7

 75
    16
147
1.0
148
0.0
149
0.0
100
AcDbLayout
  1
Layout1
 70
     1
 71
     1
 10
0.0
 20
0.0
 11
12.0
 21
9.0
 12
0.0
 22
0.0
 32
0.0
 14
1.00000000000000E+20
 24
1.00000000000000E+20
 34
1.00000000000000E+20
 15
-1.00000000000000E+20
 25
-1.00000000000000E+20
 35
-1.00000000000000E+20
146
0.0
 13
0.0
 23
0.0
 33
0.0
 16
1.0
 26
0.0
 36
0.0
 17
0.0
 27
1.0
 37
0.0
 76
     0
330
1B
  0
LAYOUT
  5
26
102
{ACAD_REACTORS
330
1A
102
}
330
1A
100
AcDbPlotSettings
  1

  2
none_device
  4

  6

 40
0.0
 41
0.0
 42
0.0
 43
0.0
 44
0.0
 45
0.0
 46
0.0
 47
0.0
 48
0.0
 49
0.0
140
0.0
141
0.0
142
1.0
143
1.0
 70
   688
 72
     0
 73
     0
 74
     5
  7

 75
    16
147
1.0
148
0.0
149
0.0
100
AcDbLayout
  1
Layout2
 70
     1
 71
     2
 10
0.0
 20
0.0
 11
0.0
 21
0.0
 12
0.0
 22
0.0
 32
0.0
 14
0.0
 24
0.0
 34
0.0
 15
0.0
 25
0.0
 35
0.0
146
0.0
 13
0.0
 23
0.0
 33
0.0
 16
1.0
 26
0.0
 36
0.0
 17
0.0
 27
1.0
 37
0.0
 76
     0
330
23
  0
LAYOUT
  5
22
102
{ACAD_REACTORS
330
1A
102
}
330
1A
100
AcDbPlotSettings
  1

  2
none_device
  4

  6

 40
0.0
 41
0.0
 42
0.0
 43
0.0
 44
0.0
 45
0.0
 46
0.0
 47
0.0
 48
0.0
 49
0.0
140
0.0
141
0.0
142
1.0
143
1.0
 70
  1712
 72
     0
 73
     0
 74
     0
  7

 75
     0
147
1.0
148
0.0
149
0.0
100
AcDbLayout
  1
Model
 70
     1
 71
     0
 10
0.0
 20
0.0
 11
12.0
 21
9.0
 12
0.0
 22
0.0
 32
0.0
 14
0.0
 24
0.0
 34
0.0
 15
630.0000630000063
 25
891.000089100009
 35
0.0
146
0.0
 13
0.0
 23
0.0
 33
0.0
 16
1.0
 26
0.0
 36
0.0
 17
0.0
 27
1.0
 37
0.0
 76
     0
330
1F
331
29
  0
MATERIAL
  5
3D
102
{ACAD_REACTORS
330
3B
102
}
102
{ACAD_XDICTIONARY
360
23D
102
}
330
3B
100
AcDbMaterial
  1
ByBlock
  0
MATERIAL
  5
3C
102
{ACAD_REACTORS
330
3B
102
}
102
{ACAD_XDICTIONARY
360
23B
102
}
330
3B
100
AcDbMaterial
  1
ByLayer
  0
MATERIAL
  5
3E
102
{ACAD_REACTORS
330
3B
102
}
102
{ACAD_XDICTIONARY
360
23F
102
}
330
3B
100
AcDbMaterial
  1
Global
  0
MLINESTYLE
  5
18
102
{ACAD_REACTORS
330
17
102
}
330
17
100
AcDbMlineStyle
  2
Standard
 70
     0
  3

 62
   256
 51
90.0
 52
90.0
 71
     2
 49
0.5
 62
   256
  6
BYLAYER
 49
-0.5
 62
   256
  6
BYLAYER
  0
ACDBPLACEHOLDER
  5
F
102
{ACAD_REACTORS
330
E
102
}
330
E
  0
VISUALSTYLE
  5
2F
102
{ACAD_REACTORS
330
2A
102
}
102
{ACAD_XDICTIONARY
360
223
102
}
330
2A
100
AcDbVisualStyle
  2
2dWireframe
 70
     4
 71
     0
 72
     2
 73
     0
 90
        0
 40
-0.6
 41
-30.0
 62
     5
 63
     7
 74
     1
 91
        4
 64
     7
 65
   257
 75
     1
175
     1
 42
1.0
 92
        0
 66
   257
 43
1.0
 76
     1
 77
     6
 78
     2
 67
     7
 79
     5
170
     0
171
     0
290
     0
174
     0
 93
        1
 44
0.0
173
     0
291
     0
 45
0.0
1001
ACAD
1000
AcDbSavedByObjectVersion
1070
     0
  0
VISUALSTYLE
  5
31
102
{ACAD_REACTORS
330
2A
102
}
102
{ACAD_XDICTIONARY
360
227
102
}
330
2A
100
AcDbVisualStyle
  2
3D Hidden
 70
     6
 71
     1
 72
     2
 73
     2
 90
        0
 40
-0.6
 41
-30.0
 62
     5
 63
     7
 74
     2
 91
        2
 64
     7
 65
   257
 75
     2
175
     1
 42
40.0
 92
        0
 66
   257
 43
1.0
 76
     1
 77
     6
 78
     2
 67
     7
 79
     3
170
     0
171
     0
290
     0
174
     0
 93
        1
 44
0.0
173
     0
291
     0
 45
0.0
1001
ACAD
1000
AcDbSavedByObjectVersion
1070
     0
  0
VISUALSTYLE
  5
30
102
{ACAD_REACTORS
330
2A
102
}
102
{ACAD_XDICTIONARY
360
225
102
}
330
2A
100
AcDbVisualStyle
  2
3dWireframe
 70
     5
 71
     0
 72
     2
 73
     0
 90
        0
 40
-0.6
 41
-30.0
 62
     5
 63
     7
 74
     1
 91
        4
 64
     7
 65
   257
 75
     1
175
     1
 42
1.0
 92
        0
 66
   257
 43
1.0
 76
     1
 77
     6
 78
     2
 67
     7
 79
     5
170
     0
171
     0
290
     0
174
     0
 93
        1
 44
0.0
173
     0
291
     0
 45
0.0
1001
ACAD
1000
AcDbSavedByObjectVersion
1070
     0
  0
VISUALSTYLE
  5
32
102
{ACAD_REACTORS
330
2A
102
}
102
{ACAD_XDICTIONARY
360
229
102
}
330
2A
100
AcDbVisualStyle
  2
Basic
 70
     7
 71
     1
 72
     0
 73
     1
 90
        0
 40
-0.6
 41
-30.0
 62
     5
 63
     7
 74
     0
 91
        4
 64
     7
 65
   257
 75
     1
175
     1
 42
1.0
 92
        8
 66
     7
 43
1.0
 76
     1
 77
     6
 78
     2
 67
     7
 79
     5
170
     0
171
     0
290
     0
174
     0
 93
        1
 44
0.0
173
     0
291
     1
 45
0.0
1001
ACAD
1000
AcDbSavedByObjectVersion
1070
     0
  0
VISUALSTYLE
  5
36
102
{ACAD_REACTORS
330
2A
102
}
102
{ACAD_XDICTIONARY
360
231
102
}
330
2A
100
AcDbVisualStyle
  2
Brighten
 70
    12
 71
     2
 72
     2
 73
     0
 90
        0
 40
-0.6
 41
-30.0
 62
     5
 63
     7
 74
     1
 91
        4
 64
     7
 65
   257
 75
     1
175
     1
 42
1.0
 92
        8
 66
     7
 43
1.0
 76
     1
 77
     6
 78
     2
 67
     7
 79
     5
170
     0
171
     0
290
     0
174
     0
 93
        1
 44
50.0
173
     0
291
     1
 45
0.0
1001
ACAD
1000
AcDbSavedByObjectVersion
1070
     0
  0
VISUALSTYLE
  5
3A
102
{ACAD_REACTORS
330
2A
102
}
102
{ACAD_XDICTIONARY
360
239
102
}
330
2A
100
AcDbVisualStyle
  2
ColorChange
 70
    16
 71
     2
 72
     2
 73
     3
 90
        0
 40
-0.6
 41
-30.0
 62
     5
 63
     8
 74
     1
 91
        4
 64
     7
 65
   257
 75
     1
175
     1
 42
1.0
 92
        8
 66
     8
 43
1.0
 76
     1
 77
     6
 78
     2
 67
     7
 79
     5
170
     0
171
     0
290
     0
174
     0
 93
        1
 44
0.0
173
     0
291
     1
 45
0.0
1001
ACAD
1000
AcDbSavedByObjectVersion
1070
     0
  0
VISUALSTYLE
  5
34
102
{ACAD_REACTORS
330
2A
102
}
102
{ACAD_XDICTIONARY
360
22D
102
}
330
2A
100
AcDbVisualStyle
  2
Conceptual
 70
     9
 71
     3
 72
     2
 73
     0
 90
        0
 40
-0.6
 41
-30.0
 62
     5
 63
     7
 74
     2
 91
        2
 64
     7
 65
   257
 75
     1
175
     1
 42
40.0
 92
        8
 66
     7
 43
1.0
 76
     1
 77
     6
 78
     2
 67
     7
 79
     3
170
     0
171
     0
290
     0
174
     0
 93
        1
 44
0.0
173
     0
291
     0
 45
0.0
1001
ACAD
1000
AcDbSavedByObjectVersion
1070
     0
  0
VISUALSTYLE
  5
35
102
{ACAD_REACTORS
330
2A
102
}
102
{ACAD_XDICTIONARY
360
22F
102
}
330
2A
100
AcDbVisualStyle
  2
Dim
 70
    11
 71
     2
 72
     2
 73
     0
 90
        0
 40
-0.6
 41
-30.0
 62
     5
 63
     7
 74
     1
 91
        4
 64
     7
 65
   257
 75
     1
175
     1
 42
1.0
 92
        8
 66
     7
 43
1.0
 76
     1
 77
     6
 78
     2
 67
     7
 79
     5
170
     0
171
     0
290
     0
174
     0
 93
        1
 44
-50.0
173
     0
291
     1
 45
0.0
1001
ACAD
1000
AcDbSavedByObjectVersion
1070
     0
  0
VISUALSTYLE
  5
39
102
{ACAD_REACTORS
330
2A
102
}
102
{ACAD_XDICTIONARY
360
237
102
}
330
2A
100
AcDbVisualStyle
  2
Facepattern
 70
    15
 71
     2
 72
     2
 73
     0
 90
        0
 40
-0.6
 41
-30.0
 62
     5
 63
     7
 74
     1
 91
        4
 64
     7
 65
   257
 75
     1
175
     1
 42
1.0
 92
        8
 66
     7
 43
1.0
 76
     1
 77
     6
 78
     2
 67
     7
 79
     5
170
     0
171
     0
290
     0
174
     0
 93
        1
 44
0.0
173
     0
291
     1
 45
0.0
1001
ACAD
1000
AcDbSavedByObjectVersion
1070
     0
  0
VISUALSTYLE
  5
2B
102
{ACAD_REACTORS
330
2A
102
}
102
{ACAD_XDICTIONARY
360
21B
102
}
330
2A
100
AcDbVisualStyle
  2
Flat
 70
     0
 71
     2
 72
     1
 73
     1
 90
        2
 40
-0.6
 41
30.0
 62
     5
 63
     7
 74
     0
 91
        4
 64
     7
 65
   257
 75
     1
175
     1
 42
1.0
 92
        8
 66
     7
 43
1.0
 76
     1
 77
     6
 78
     2
 67
     7
 79
     5
170
     0
171
     0
290
     0
174
     0
 93
       13
 44
0.0
173
     0
291
     1
 45
0.0
1001
ACAD
1000
AcDbSavedByObjectVersion
1070
     0
  0
VISUALSTYLE
  5
2C
102
{ACAD_REACTORS
330
2A
102
}
102
{ACAD_XDICTIONARY
360
21D
102
}
330
2A
100
AcDbVisualStyle
  2
FlatWithEdges
 70
     1
 71
     2
 72
     1
 73
     1
 90
        2
 40
-0.6
 41
30.0
 62
     5
 63
     7
 74
     1
 91
        4
 64
     7
 65
   257
 75
     1
175
     1
 42
1.0
 92
        0
 66
   257
 43
1.0
 76
     1
 77
     6
 78
     2
 67
     7
 79
     5
170
     0
171
     0
290
     0
174
     0
 93
       13
 44
0.0
173
     0
291
     1
 45
0.0
1001
ACAD
1000
AcDbSavedByObjectVersion
1070
     0
  0
VISUALSTYLE
  5
2D
102
{ACAD_REACTORS
330
2A
102
}
102
{ACAD_XDICTIONARY
360
21F
102
}
330
2A
100
AcDbVisualStyle
  2
Gouraud
 70
     2
 71
     2
 72
     2
 73
     1
 90
        2
 40
-0.6
 41
30.0
 62
     5
 63
     7
 74
     0
 91
        4
 64
     7
 65
   257
 75
     1
175
     1
 42
1.0
 92
        0
 66
     7
 43
1.0
 76
     1
 77
     6
 78
     2
 67
     7
 79
     5
170
     0
171
     0
290
     0
174
     0
 93
       13
 44
0.0
173
     0
291
     1
 45
0.0
1001
ACAD
1000
AcDbSavedByObjectVersion
1070
     0
  0
VISUALSTYLE
  5
2E
102
{ACAD_REACTORS
330
2A
102
}
102
{ACAD_XDICTIONARY
360
221
102
}
330
2A
100
AcDbVisualStyle
  2
GouraudWithEdges
 70
     3
 71
     2
 72
     2
 73
     1
 90
        2
 40
-0.6
 41
30.0
 62
     5
 63
     7
 74
     1
 91
        4
 64
     7
 65
   257
 75
     1
175
     1
 42
1.0
 92
        0
 66
   257
 43
1.0
 76
     1
 77
     6
 78
     2
 67
     7
 79
     5
170
     0
171
     0
290
     0
174
     0
 93
       13
 44
0.0
173
     0
291
     1
 45
0.0
1001
ACAD
1000
AcDbSavedByObjectVersion
1070
     0
  0
VISUALSTYLE
  5
38
102
{ACAD_REACTORS
330
2A
102
}
102
{ACAD_XDICTIONARY
360
235
102
}
330
2A
100
AcDbVisualStyle
  2
Linepattern
 70
    14
 71
     2
 72
     2
 73
     0
 90
        0
 40
-0.6
 41
-30.0
 62
     5
 63
     7
 74
     1
 91
        4
 64
     7
 65
   257
 75
     7
175
     7
 42
1.0
 92
        8
 66
     7
 43
1.0
 76
     1
 77
     6
 78
     2
 67
     7
 79
     5
170
     0
171
     0
290
     0
174
     0
 93
        1
 44
0.0
173
     0
291
     1
 45
0.0
1001
ACAD
1000
AcDbSavedByObjectVersion
1070
     0
  0
VISUALSTYLE
  5
33
102
{ACAD_REACTORS
330
2A
102
}
102
{ACAD_XDICTIONARY
360
22B
102
}
330
2A
100
AcDbVisualStyle
  2
Realistic
 70
     8
 71
     2
 72
     2
 73
     0
 90
        0
 40
-0.6
 41
-30.0
 62
     5
 63
     7
 74
     1
 91
        0
 64
     7
 65
   257
 75
     1
175
     1
 42
1.0
 92
        8
 66
     8
 43
1.0
 76
     1
 77
     6
 78
     2
 67
     7
 79
     5
170
     0
171
     0
290
     0
174
     0
 93
       13
 44
0.0
173
     0
291
     0
 45
0.0
1001
ACAD
1000
AcDbSavedByObjectVersion
1070
     0
  0
VISUALSTYLE
  5
37
102
{ACAD_REACTORS
330
2A
102
}
102
{ACAD_XDICTIONARY
360
233
102
}
330
2A
100
AcDbVisualStyle
  2
Thicken
 70
    13
 71
     2
 72
     2
 73
     0
 90
        0
 40
-0.6
 41
-30.0
 62
     5
 63
     7
 74
     1
 91
        4
 64
     7
 65
   257
 75
     1
175
     1
 42
1.0
 92
       12
 66
     7
 43
1.0
 76
     1
 77
     6
 78
     2
 67
     7
 79
     5
170
     0
171
     0
290
     0
174
     0
 93
        1
 44
0.0
173
     0
291
     1
 45
0.0
1001
ACAD
1000
AcDbSavedByObjectVersion
1070
     0
  0
DICTIONARYVAR
  5
219
102
{ACAD_REACTORS
330
216
102
}
330
216
100
DictionaryVariables
280
     0
  1
2
  0
DICTIONARYVAR
  5
21A
102
{ACAD_REACTORS
330
216
102
}
330
216
100
DictionaryVariables
280
     0
  1
1
  0
DICTIONARY
  5
23D
330
3D
100
AcDbDictionary
280
     1
281
     1
  3
ACAD_XREC_ROUNDTRIP
360
23E
  0
DICTIONARY
  5
23B
330
3C
100
AcDbDictionary
280
     1
281
     1
  3
ACAD_XREC_ROUNDTRIP
360
23C
  0
DICTIONARY
  5
23F
330
3E
100
AcDbDictionary
280
     1
281
     1
  3
ACAD_XREC_ROUNDTRIP
360
240
  0
DICTIONARY
  5
223
330
2F
100
AcDbDictionary
280
     1
281
     1
  3
ACAD_XREC_ROUNDTRIP
360
224
  0
DICTIONARY
  5
227
330
31
100
AcDbDictionary
280
     1
281
     1
  3
ACAD_XREC_ROUNDTRIP
360
228
  0
DICTIONARY
  5
225
330
30
100
AcDbDictionary
280
     1
281
     1
  3
ACAD_XREC_ROUNDTRIP
360
226
  0
DICTIONARY
  5
229
330
32
100
AcDbDictionary
280
     1
281
     1
  3
ACAD_XREC_ROUNDTRIP
360
22A
  0
DICTIONARY
  5
231
330
36
100
AcDbDictionary
280
     1
281
     1
  3
ACAD_XREC_ROUNDTRIP
360
232
  0
DICTIONARY
  5
239
330
3A
100
AcDbDictionary
280
     1
281
     1
  3
ACAD_XREC_ROUNDTRIP
360
23A
  0
DICTIONARY
  5
22D
330
34
100
AcDbDictionary
280
     1
281
     1
  3
ACAD_XREC_ROUNDTRIP
360
22E
  0
DICTIONARY
  5
22F
330
35
100
AcDbDictionary
280
     1
281
     1
  3
ACAD_XREC_ROUNDTRIP
360
230
  0
DICTIONARY
  5
237
330
39
100
AcDbDictionary
280
     1
281
     1
  3
ACAD_XREC_ROUNDTRIP
360
238
  0
DICTIONARY
  5
21B
330
2B
100
AcDbDictionary
280
     1
281
     1
  3
ACAD_XREC_ROUNDTRIP
360
21C
  0
DICTIONARY
  5
21D
330
2C
100
AcDbDictionary
280
     1
281
     1
  3
ACAD_XREC_ROUNDTRIP
360
21E
  0
DICTIONARY
  5
21F
330
2D
100
AcDbDictionary
280
     1
281
     1
  3
ACAD_XREC_ROUNDTRIP
360
220
  0
DICTIONARY
  5
221
330
2E
100
AcDbDictionary
280
     1
281
     1
  3
ACAD_XREC_ROUNDTRIP
360
222
  0
DICTIONARY
  5
235
330
38
100
AcDbDictionary
280
     1
281
     1
  3
ACAD_XREC_ROUNDTRIP
360
236
  0
DICTIONARY
  5
22B
330
33
100
AcDbDictionary
280
     1
281
     1
  3
ACAD_XREC_ROUNDTRIP
360
22C
  0
DICTIONARY
  5
233
330
37
100
AcDbDictionary
280
     1
281
     1
  3
ACAD_XREC_ROUNDTRIP
360
234
  0
XRECORD
  5
23E
102
{ACAD_REACTORS
330
23D
102
}
330
23D
100
AcDbXrecord
280
     1
102
MATERIAL
148
0.0
149
0.0
149
0.0
 93
        0
 94
      127
282
     0
 72
     1
 77
     1
171
     1
175
     1
179
     1
273
     0
  0
XRECORD
  5
23C
102
{ACAD_REACTORS
330
23B
102
}
330
23B
100
AcDbXrecord
280
     1
102
MATERIAL
148
0.0
149
0.0
149
0.0
 93
        0
 94
      127
282
     0
 72
     1
 77
     1
171
     1
175
     1
179
     1
273
     0
  0
XRECORD
  5
240
102
{ACAD_REACTORS
330
23F
102
}
330
23F
100
AcDbXrecord
280
     1
102
MATERIAL
148
0.0
149
0.0
149
0.0
 93
        0
 94
      127
282
     0
 72
     1
 77
     1
171
     1
175
     1
179
     1
273
     0
  0
XRECORD
  5
224
102
{ACAD_REACTORS
330
223
102
}
330
223
100
AcDbXrecord
280
     1
102
RTVSPropertyOp0
 70
     1
102
RTVSPropertyOp1
 70
     1
102
RTVSPropertyOp2
 70
     1
102
RTVSPropertyOp3
 70
     1
102
RTVSPropertyOp4
 70
     1
102
RTVSPropertyOp5
 70
     1
102
RTVSPropertyOp6
 70
     1
102
RTVSPropertyOp7
 70
     1
102
RTVSPropertyOp8
 70
     1
102
RTVSPropertyOp9
 70
     1
102
RTVSPropertyOp10
 70
     1
102
RTVSPropertyOp11
 70
     1
102
RTVSPropertyOp12
 70
     1
102
RTVSPropertyOp13
 70
     1
102
RTVSPropertyOp14
 70
     1
102
RTVSPropertyOp15
 70
     1
102
RTVSPropertyOp16
 70
     1
102
RTVSPropertyOp17
 70
     1
102
RTVSPropertyOp18
 70
     1
102
RTVSPropertyOp19
 70
     1
102
RTVSPropertyOp20
 70
     1
102
RTVSPropertyOp21
 70
     1
102
RTVSPropertyOp22
 70
     1
102
RTVSPropertyOp23
 70
     1
102
RTVSPropertyOp24
 70
     1
102
RTVSPropertyOp25
 70
     1
102
RTVSPropertyOp26
 70
     1
102
RTVSPropertyOp27
 70
     1
102
RTVSPropertyOp28
 70
     1
102
RTVSPropertyOp29
 70
     1
102
RTVSPropertyOp30
 70
     1
102
RTVSPropertyOp31
 70
     1
102
RTVSPropertyOp32
 70
     1
  0
XRECORD
  5
228
102
{ACAD_REACTORS
330
227
102
}
330
227
100
AcDbXrecord
280
     1
102
RTVSPropertyOp0
 70
     1
102
RTVSPropertyOp1
 70
     1
102
RTVSPropertyOp2
 70
     1
102
RTVSPropertyOp3
 70
     1
102
RTVSPropertyOp4
 70
     1
102
RTVSPropertyOp5
 70
     1
102
RTVSPropertyOp6
 70
     1
102
RTVSPropertyOp7
 70
     1
102
RTVSPropertyOp8
 70
     1
102
RTVSPropertyOp9
 70
     1
102
RTVSPropertyOp10
 70
     1
102
RTVSPropertyOp11
 70
     1
102
RTVSPropertyOp12
 70
     1
102
RTVSPropertyOp13
 70
     1
102
RTVSPropertyOp14
 70
     1
102
RTVSPropertyOp15
 70
     1
102
RTVSPropertyOp16
 70
     1
102
RTVSPropertyOp17
 70
     1
102
RTVSPropertyOp18
 70
     1
102
RTVSPropertyOp19
 70
     1
102
RTVSPropertyOp20
 70
     1
102
RTVSPropertyOp21
 70
     1
102
RTVSPropertyOp22
 70
     1
102
RTVSPropertyOp23
 70
     1
102
RTVSPropertyOp24
 70
     1
102
RTVSPropertyOp25
 70
     1
102
RTVSPropertyOp26
 70
     1
102
RTVSPropertyOp27
 70
     1
102
RTVSPropertyOp28
 70
     1
102
RTVSPropertyOp29
 70
     1
102
RTVSPropertyOp30
 70
     1
102
RTVSPropertyOp31
 70
     1
102
RTVSPropertyOp32
 70
     1
  0
XRECORD
  5
226
102
{ACAD_REACTORS
330
225
102
}
330
225
100
AcDbXrecord
280
     1
102
RTVSPropertyOp0
 70
     1
102
RTVSPropertyOp1
 70
     1
102
RTVSPropertyOp2
 70
     1
102
RTVSPropertyOp3
 70
     1
102
RTVSPropertyOp4
 70
     1
102
RTVSPropertyOp5
 70
     1
102
RTVSPropertyOp6
 70
     1
102
RTVSPropertyOp7
 70
     1
102
RTVSPropertyOp8
 70
     1
102
RTVSPropertyOp9
 70
     1
102
RTVSPropertyOp10
 70
     1
102
RTVSPropertyOp11
 70
     1
102
RTVSPropertyOp12
 70
     1
102
RTVSPropertyOp13
 70
     1
102
RTVSPropertyOp14
 70
     1
102
RTVSPropertyOp15
 70
     1
102
RTVSPropertyOp16
 70
     1
102
RTVSPropertyOp17
 70
     1
102
RTVSPropertyOp18
 70
     1
102
RTVSPropertyOp19
 70
     1
102
RTVSPropertyOp20
 70
     1
102
RTVSPropertyOp21
 70
     1
102
RTVSPropertyOp22
 70
     1
102
RTVSPropertyOp23
 70
     1
102
RTVSPropertyOp24
 70
     1
102
RTVSPropertyOp25
 70
     1
102
RTVSPropertyOp26
 70
     1
102
RTVSPropertyOp27
 70
     1
102
RTVSPropertyOp28
 70
     1
102
RTVSPropertyOp29
 70
     1
102
RTVSPropertyOp30
 70
     1
102
RTVSPropertyOp31
 70
     1
102
RTVSPropertyOp32
 70
     1
  0
XRECORD
  5
22A
102
{ACAD_REACTORS
330
229
102
}
330
229
100
AcDbXrecord
280
     1
102
RTVSPropertyOp0
 70
     1
102
RTVSPropertyOp1
 70
     1
102
RTVSPropertyOp2
 70
     1
102
RTVSPropertyOp3
 70
     1
102
RTVSPropertyOp4
 70
     1
102
RTVSPropertyOp5
 70
     1
102
RTVSPropertyOp6
 70
     1
102
RTVSPropertyOp7
 70
     1
102
RTVSPropertyOp8
 70
     1
102
RTVSPropertyOp9
 70
     1
102
RTVSPropertyOp10
 70
     1
102
RTVSPropertyOp11
 70
     1
102
RTVSPropertyOp12
 70
     1
102
RTVSPropertyOp13
 70
     1
102
RTVSPropertyOp14
 70
     1
102
RTVSPropertyOp15
 70
     1
102
RTVSPropertyOp16
 70
     1
102
RTVSPropertyOp17
 70
     1
102
RTVSPropertyOp18
 70
     1
102
RTVSPropertyOp19
 70
     1
102
RTVSPropertyOp20
 70
     1
102
RTVSPropertyOp21
 70
     1
102
RTVSPropertyOp22
 70
     1
102
RTVSPropertyOp23
 70
     1
102
RTVSPropertyOp24
 70
     1
102
RTVSPropertyOp25
 70
     1
102
RTVSPropertyOp26
 70
     1
102
RTVSPropertyOp27
 70
     1
102
RTVSPropertyOp28
 70
     1
102
RTVSPropertyOp29
 70
     1
102
RTVSPropertyOp30
 70
     1
102
RTVSPropertyOp31
 70
     1
102
RTVSPropertyOp32
 70
     1
  0
XRECORD
  5
232
102
{ACAD_REACTORS
330
231
102
}
330
231
100
AcDbXrecord
280
     1
102
RTVSPropertyOp0
 70
     1
102
RTVSPropertyOp1
 70
     1
102
RTVSPropertyOp2
 70
     1
102
RTVSPropertyOp3
 70
     1
102
RTVSPropertyOp4
 70
     1
102
RTVSPropertyOp5
 70
     1
102
RTVSPropertyOp6
 70
     1
102
RTVSPropertyOp7
 70
     1
102
RTVSPropertyOp8
 70
     1
102
RTVSPropertyOp9
 70
     1
102
RTVSPropertyOp10
 70
     1
102
RTVSPropertyOp11
 70
     1
102
RTVSPropertyOp12
 70
     1
102
RTVSPropertyOp13
 70
     1
102
RTVSPropertyOp14
 70
     1
102
RTVSPropertyOp15
 70
     1
102
RTVSPropertyOp16
 70
     1
102
RTVSPropertyOp17
 70
     1
102
RTVSPropertyOp18
 70
     1
102
RTVSPropertyOp19
 70
     1
102
RTVSPropertyOp20
 70
     1
102
RTVSPropertyOp21
 70
     1
102
RTVSPropertyOp22
 70
     1
102
RTVSPropertyOp23
 70
     1
102
RTVSPropertyOp24
 70
     1
102
RTVSPropertyOp25
 70
     1
102
RTVSPropertyOp26
 70
     1
102
RTVSPropertyOp27
 70
     1
102
RTVSPropertyOp28
 70
     1
102
RTVSPropertyOp29
 70
     1
102
RTVSPropertyOp30
 70
     1
102
RTVSPropertyOp31
 70
     1
102
RTVSPropertyOp32
 70
     1
  0
XRECORD
  5
23A
102
{ACAD_REACTORS
330
239
102
}
330
239
100
AcDbXrecord
280
     1
102
RTVSPropertyOp0
 70
     1
102
RTVSPropertyOp1
 70
     1
102
RTVSPropertyOp2
 70
     1
102
RTVSPropertyOp3
 70
     1
102
RTVSPropertyOp4
 70
     1
102
RTVSPropertyOp5
 70
     1
102
RTVSPropertyOp6
 70
     1
102
RTVSPropertyOp7
 70
     1
102
RTVSPropertyOp8
 70
     1
102
RTVSPropertyOp9
 70
     1
102
RTVSPropertyOp10
 70
     1
102
RTVSPropertyOp11
 70
     1
102
RTVSPropertyOp12
 70
     1
102
RTVSPropertyOp13
 70
     1
102
RTVSPropertyOp14
 70
     1
102
RTVSPropertyOp15
 70
     1
102
RTVSPropertyOp16
 70
     1
102
RTVSPropertyOp17
 70
     1
102
RTVSPropertyOp18
 70
     1
102
RTVSPropertyOp19
 70
     1
102
RTVSPropertyOp20
 70
     1
102
RTVSPropertyOp21
 70
     1
102
RTVSPropertyOp22
 70
     1
102
RTVSPropertyOp23
 70
     1
102
RTVSPropertyOp24
 70
     1
102
RTVSPropertyOp25
 70
     1
102
RTVSPropertyOp26
 70
     1
102
RTVSPropertyOp27
 70
     1
102
RTVSPropertyOp28
 70
     1
102
RTVSPropertyOp29
 70
     1
102
RTVSPropertyOp30
 70
     1
102
RTVSPropertyOp31
 70
     1
102
RTVSPropertyOp32
 70
     1
  0
XRECORD
  5
22E
102
{ACAD_REACTORS
330
22D
102
}
330
22D
100
AcDbXrecord
280
     1
102
RTVSPropertyOp0
 70
     1
102
RTVSPropertyOp1
 70
     1
102
RTVSPropertyOp2
 70
     1
102
RTVSPropertyOp3
 70
     1
102
RTVSPropertyOp4
 70
     1
102
RTVSPropertyOp5
 70
     1
102
RTVSPropertyOp6
 70
     1
102
RTVSPropertyOp7
 70
     1
102
RTVSPropertyOp8
 70
     1
102
RTVSPropertyOp9
 70
     1
102
RTVSPropertyOp10
 70
     1
102
RTVSPropertyOp11
 70
     1
102
RTVSPropertyOp12
 70
     1
102
RTVSPropertyOp13
 70
     1
102
RTVSPropertyOp14
 70
     1
102
RTVSPropertyOp15
 70
     1
102
RTVSPropertyOp16
 70
     1
102
RTVSPropertyOp17
 70
     1
102
RTVSPropertyOp18
 70
     1
102
RTVSPropertyOp19
 70
     1
102
RTVSPropertyOp20
 70
     1
102
RTVSPropertyOp21
 70
     1
102
RTVSPropertyOp22
 70
     1
102
RTVSPropertyOp23
 70
     1
102
RTVSPropertyOp24
 70
     1
102
RTVSPropertyOp25
 70
     1
102
RTVSPropertyOp26
 70
     1
102
RTVSPropertyOp27
 70
     1
102
RTVSPropertyOp28
 70
     1
102
RTVSPropertyOp29
 70
     1
102
RTVSPropertyOp30
 70
     1
102
RTVSPropertyOp31
 70
     1
102
RTVSPropertyOp32
 70
     1
  0
XRECORD
  5
230
102
{ACAD_REACTORS
330
22F
102
}
330
22F
100
AcDbXrecord
280
     1
102
RTVSPropertyOp0
 70
     1
102
RTVSPropertyOp1
 70
     1
102
RTVSPropertyOp2
 70
     1
102
RTVSPropertyOp3
 70
     1
102
RTVSPropertyOp4
 70
     1
102
RTVSPropertyOp5
 70
     1
102
RTVSPropertyOp6
 70
     1
102
RTVSPropertyOp7
 70
     1
102
RTVSPropertyOp8
 70
     1
102
RTVSPropertyOp9
 70
     1
102
RTVSPropertyOp10
 70
     1
102
RTVSPropertyOp11
 70
     1
102
RTVSPropertyOp12
 70
     1
102
RTVSPropertyOp13
 70
     1
102
RTVSPropertyOp14
 70
     1
102
RTVSPropertyOp15
 70
     1
102
RTVSPropertyOp16
 70
     1
102
RTVSPropertyOp17
 70
     1
102
RTVSPropertyOp18
 70
     1
102
RTVSPropertyOp19
 70
     1
102
RTVSPropertyOp20
 70
     1
102
RTVSPropertyOp21
 70
     1
102
RTVSPropertyOp22
 70
     1
102
RTVSPropertyOp23
 70
     1
102
RTVSPropertyOp24
 70
     1
102
RTVSPropertyOp25
 70
     1
102
RTVSPropertyOp26
 70
     1
102
RTVSPropertyOp27
 70
     1
102
RTVSPropertyOp28
 70
     1
102
RTVSPropertyOp29
 70
     1
102
RTVSPropertyOp30
 70
     1
102
RTVSPropertyOp31
 70
     1
102
RTVSPropertyOp32
 70
     1
  0
XRECORD
  5
238
102
{ACAD_REACTORS
330
237
102
}
330
237
100
AcDbXrecord
280
     1
102
RTVSPropertyOp0
 70
     1
102
RTVSPropertyOp1
 70
     1
102
RTVSPropertyOp2
 70
     1
102
RTVSPropertyOp3
 70
     1
102
RTVSPropertyOp4
 70
     1
102
RTVSPropertyOp5
 70
     1
102
RTVSPropertyOp6
 70
     1
102
RTVSPropertyOp7
 70
     1
102
RTVSPropertyOp8
 70
     1
102
RTVSPropertyOp9
 70
     1
102
RTVSPropertyOp10
 70
     1
102
RTVSPropertyOp11
 70
     1
102
RTVSPropertyOp12
 70
     1
102
RTVSPropertyOp13
 70
     1
102
RTVSPropertyOp14
 70
     1
102
RTVSPropertyOp15
 70
     1
102
RTVSPropertyOp16
 70
     1
102
RTVSPropertyOp17
 70
     1
102
RTVSPropertyOp18
 70
     1
102
RTVSPropertyOp19
 70
     1
102
RTVSPropertyOp20
 70
     1
102
RTVSPropertyOp21
 70
     1
102
RTVSPropertyOp22
 70
     1
102
RTVSPropertyOp23
 70
     1
102
RTVSPropertyOp24
 70
     1
102
RTVSPropertyOp25
 70
     1
102
RTVSPropertyOp26
 70
     1
102
RTVSPropertyOp27
 70
     1
102
RTVSPropertyOp28
 70
     1
102
RTVSPropertyOp29
 70
     1
102
RTVSPropertyOp30
 70
     1
102
RTVSPropertyOp31
 70
     1
102
RTVSPropertyOp32
 70
     1
  0
XRECORD
  5
21C
102
{ACAD_REACTORS
330
21B
102
}
330
21B
100
AcDbXrecord
280
     1
102
RTVSPropertyOp0
 70
     1
102
RTVSPropertyOp1
 70
     1
102
RTVSPropertyOp2
 70
     1
102
RTVSPropertyOp3
 70
     1
102
RTVSPropertyOp4
 70
     1
102
RTVSPropertyOp5
 70
     1
102
RTVSPropertyOp6
 70
     1
102
RTVSPropertyOp7
 70
     1
102
RTVSPropertyOp8
 70
     1
102
RTVSPropertyOp9
 70
     1
102
RTVSPropertyOp10
 70
     1
102
RTVSPropertyOp11
 70
     1
102
RTVSPropertyOp12
 70
     1
102
RTVSPropertyOp13
 70
     1
102
RTVSPropertyOp14
 70
     1
102
RTVSPropertyOp15
 70
     1
102
RTVSPropertyOp16
 70
     1
102
RTVSPropertyOp17
 70
     1
102
RTVSPropertyOp18
 70
     1
102
RTVSPropertyOp19
 70
     1
102
RTVSPropertyOp20
 70
     1
102
RTVSPropertyOp21
 70
     1
102
RTVSPropertyOp22
 70
     1
102
RTVSPropertyOp23
 70
     1
102
RTVSPropertyOp24
 70
     1
102
RTVSPropertyOp25
 70
     1
102
RTVSPropertyOp26
 70
     1
102
RTVSPropertyOp27
 70
     1
102
RTVSPropertyOp28
 70
     1
102
RTVSPropertyOp29
 70
     1
102
RTVSPropertyOp30
 70
     1
102
RTVSPropertyOp31
 70
     1
102
RTVSPropertyOp32
 70
     1
  0
XRECORD
  5
21E
102
{ACAD_REACTORS
330
21D
102
}
330
21D
100
AcDbXrecord
280
     1
102
RTVSPropertyOp0
 70
     1
102
RTVSPropertyOp1
 70
     1
102
RTVSPropertyOp2
 70
     1
102
RTVSPropertyOp3
 70
     1
102
RTVSPropertyOp4
 70
     1
102
RTVSPropertyOp5
 70
     1
102
RTVSPropertyOp6
 70
     1
102
RTVSPropertyOp7
 70
     1
102
RTVSPropertyOp8
 70
     1
102
RTVSPropertyOp9
 70
     1
102
RTVSPropertyOp10
 70
     1
102
RTVSPropertyOp11
 70
     1
102
RTVSPropertyOp12
 70
     1
102
RTVSPropertyOp13
 70
     1
102
RTVSPropertyOp14
 70
     1
102
RTVSPropertyOp15
 70
     1
102
RTVSPropertyOp16
 70
     1
102
RTVSPropertyOp17
 70
     1
102
RTVSPropertyOp18
 70
     1
102
RTVSPropertyOp19
 70
     1
102
RTVSPropertyOp20
 70
     1
102
RTVSPropertyOp21
 70
     1
102
RTVSPropertyOp22
 70
     1
102
RTVSPropertyOp23
 70
     1
102
RTVSPropertyOp24
 70
     1
102
RTVSPropertyOp25
 70
     1
102
RTVSPropertyOp26
 70
     1
102
RTVSPropertyOp27
 70
     1
102
RTVSPropertyOp28
 70
     1
102
RTVSPropertyOp29
 70
     1
102
RTVSPropertyOp30
 70
     1
102
RTVSPropertyOp31
 70
     1
102
RTVSPropertyOp32
 70
     1
  0
XRECORD
  5
220
102
{ACAD_REACTORS
330
21F
102
}
330
21F
100
AcDbXrecord
280
     1
102
RTVSPropertyOp0
 70
     1
102
RTVSPropertyOp1
 70
     1
102
RTVSPropertyOp2
 70
     1
102
RTVSPropertyOp3
 70
     1
102
RTVSPropertyOp4
 70
     1
102
RTVSPropertyOp5
 70
     1
102
RTVSPropertyOp6
 70
     1
102
RTVSPropertyOp7
 70
     1
102
RTVSPropertyOp8
 70
     1
102
RTVSPropertyOp9
 70
     1
102
RTVSPropertyOp10
 70
     1
102
RTVSPropertyOp11
 70
     1
102
RTVSPropertyOp12
 70
     1
102
RTVSPropertyOp13
 70
     1
102
RTVSPropertyOp14
 70
     1
102
RTVSPropertyOp15
 70
     1
102
RTVSPropertyOp16
 70
     1
102
RTVSPropertyOp17
 70
     1
102
RTVSPropertyOp18
 70
     1
102
RTVSPropertyOp19
 70
     1
102
RTVSPropertyOp20
 70
     1
102
RTVSPropertyOp21
 70
     1
102
RTVSPropertyOp22
 70
     1
102
RTVSPropertyOp23
 70
     1
102
RTVSPropertyOp24
 70
     1
102
RTVSPropertyOp25
 70
     1
102
RTVSPropertyOp26
 70
     1
102
RTVSPropertyOp27
 70
     1
102
RTVSPropertyOp28
 70
     1
102
RTVSPropertyOp29
 70
     1
102
RTVSPropertyOp30
 70
     1
102
RTVSPropertyOp31
 70
     1
102
RTVSPropertyOp32
 70
     1
  0
XRECORD
  5
222
102
{ACAD_REACTORS
330
221
102
}
330
221
100
AcDbXrecord
280
     1
102
RTVSPropertyOp0
 70
     1
102
RTVSPropertyOp1
 70
     1
102
RTVSPropertyOp2
 70
     1
102
RTVSPropertyOp3
 70
     1
102
RTVSPropertyOp4
 70
     1
102
RTVSPropertyOp5
 70
     1
102
RTVSPropertyOp6
 70
     1
102
RTVSPropertyOp7
 70
     1
102
RTVSPropertyOp8
 70
     1
102
RTVSPropertyOp9
 70
     1
102
RTVSPropertyOp10
 70
     1
102
RTVSPropertyOp11
 70
     1
102
RTVSPropertyOp12
 70
     1
102
RTVSPropertyOp13
 70
     1
102
RTVSPropertyOp14
 70
     1
102
RTVSPropertyOp15
 70
     1
102
RTVSPropertyOp16
 70
     1
102
RTVSPropertyOp17
 70
     1
102
RTVSPropertyOp18
 70
     1
102
RTVSPropertyOp19
 70
     1
102
RTVSPropertyOp20
 70
     1
102
RTVSPropertyOp21
 70
     1
102
RTVSPropertyOp22
 70
     1
102
RTVSPropertyOp23
 70
     1
102
RTVSPropertyOp24
 70
     1
102
RTVSPropertyOp25
 70
     1
102
RTVSPropertyOp26
 70
     1
102
RTVSPropertyOp27
 70
     1
102
RTVSPropertyOp28
 70
     1
102
RTVSPropertyOp29
 70
     1
102
RTVSPropertyOp30
 70
     1
102
RTVSPropertyOp31
 70
     1
102
RTVSPropertyOp32
 70
     1
  0
XRECORD
  5
236
102
{ACAD_REACTORS
330
235
102
}
330
235
100
AcDbXrecord
280
     1
102
RTVSPropertyOp0
 70
     1
102
RTVSPropertyOp1
 70
     1
102
RTVSPropertyOp2
 70
     1
102
RTVSPropertyOp3
 70
     1
102
RTVSPropertyOp4
 70
     1
102
RTVSPropertyOp5
 70
     1
102
RTVSPropertyOp6
 70
     1
102
RTVSPropertyOp7
 70
     1
102
RTVSPropertyOp8
 70
     1
102
RTVSPropertyOp9
 70
     1
102
RTVSPropertyOp10
 70
     1
102
RTVSPropertyOp11
 70
     1
102
RTVSPropertyOp12
 70
     1
102
RTVSPropertyOp13
 70
     1
102
RTVSPropertyOp14
 70
     1
102
RTVSPropertyOp15
 70
     1
102
RTVSPropertyOp16
 70
     1
102
RTVSPropertyOp17
 70
     1
102
RTVSPropertyOp18
 70
     1
102
RTVSPropertyOp19
 70
     1
102
RTVSPropertyOp20
 70
     1
102
RTVSPropertyOp21
 70
     1
102
RTVSPropertyOp22
 70
     1
102
RTVSPropertyOp23
 70
     1
102
RTVSPropertyOp24
 70
     1
102
RTVSPropertyOp25
 70
     1
102
RTVSPropertyOp26
 70
     1
102
RTVSPropertyOp27
 70
     1
102
RTVSPropertyOp28
 70
     1
102
RTVSPropertyOp29
 70
     1
102
RTVSPropertyOp30
 70
     1
102
RTVSPropertyOp31
 70
     1
102
RTVSPropertyOp32
 70
     1
  0
XRECORD
  5
22C
102
{ACAD_REACTORS
330
22B
102
}
330
22B
100
AcDbXrecord
280
     1
102
RTVSPropertyOp0
 70
     1
102
RTVSPropertyOp1
 70
     1
102
RTVSPropertyOp2
 70
     1
102
RTVSPropertyOp3
 70
     1
102
RTVSPropertyOp4
 70
     1
102
RTVSPropertyOp5
 70
     1
102
RTVSPropertyOp6
 70
     1
102
RTVSPropertyOp7
 70
     1
102
RTVSPropertyOp8
 70
     1
102
RTVSPropertyOp9
 70
     1
102
RTVSPropertyOp10
 70
     1
102
RTVSPropertyOp11
 70
     1
102
RTVSPropertyOp12
 70
     1
102
RTVSPropertyOp13
 70
     1
102
RTVSPropertyOp14
 70
     1
102
RTVSPropertyOp15
 70
     1
102
RTVSPropertyOp16
 70
     1
102
RTVSPropertyOp17
 70
     1
102
RTVSPropertyOp18
 70
     1
102
RTVSPropertyOp19
 70
     1
102
RTVSPropertyOp20
 70
     1
102
RTVSPropertyOp21
 70
     1
102
RTVSPropertyOp22
 70
     1
102
RTVSPropertyOp23
 70
     1
102
RTVSPropertyOp24
 70
     1
102
RTVSPropertyOp25
 70
     1
102
RTVSPropertyOp26
 70
     1
102
RTVSPropertyOp27
 70
     1
102
RTVSPropertyOp28
 70
     1
102
RTVSPropertyOp29
 70
     1
102
RTVSPropertyOp30
 70
     1
102
RTVSPropertyOp31
 70
     1
102
RTVSPropertyOp32
 70
     1
  0
XRECORD
  5
234
102
{ACAD_REACTORS
330
233
102
}
330
233
100
AcDbXrecord
280
     1
102
RTVSPropertyOp0
 70
     1
102
RTVSPropertyOp1
 70
     1
102
RTVSPropertyOp2
 70
     1
102
RTVSPropertyOp3
 70
     1
102
RTVSPropertyOp4
 70
     1
102
RTVSPropertyOp5
 70
     1
102
RTVSPropertyOp6
 70
     1
102
RTVSPropertyOp7
 70
     1
102
RTVSPropertyOp8
 70
     1
102
RTVSPropertyOp9
 70
     1
102
RTVSPropertyOp10
 70
     1
102
RTVSPropertyOp11
 70
     1
102
RTVSPropertyOp12
 70
     1
102
RTVSPropertyOp13
 70
     1
102
RTVSPropertyOp14
 70
     1
102
RTVSPropertyOp15
 70
     1
102
RTVSPropertyOp16
 70
     1
102
RTVSPropertyOp17
 70
     1
102
RTVSPropertyOp18
 70
     1
102
RTVSPropertyOp19
 70
     1
102
RTVSPropertyOp20
 70
     1
102
RTVSPropertyOp21
 70
     1
102
RTVSPropertyOp22
 70
     1
102
RTVSPropertyOp23
 70
     1
102
RTVSPropertyOp24
 70
     1
102
RTVSPropertyOp25
 70
     1
102
RTVSPropertyOp26
 70
     1
102
RTVSPropertyOp27
 70
     1
102
RTVSPropertyOp28
 70
     1
102
RTVSPropertyOp29
 70
     1
102
RTVSPropertyOp30
 70
     1
102
RTVSPropertyOp31
 70
     1
102
RTVSPropertyOp32
 70
     1
  0
ENDSEC
  0
EOF
