  0
SECTION
  2
HEADER
  9
$ACADVER
  1
AC1015
  9
$ACADMAINTVER
 70
     6
  9
$DWGCODEPAGE
  3
ANSI_932
  9
$INSBASE
 10
0.0
 20
0.0
 30
0.0
  9
$EXTMIN
 10
0.0
 20
0.0
 30
0.0
  9
$EXTMAX
 10
630.00063000063
 20
891.0008910008911
 30
0.0
  9
$LIMMIN
 10
0.0
 20
0.0
  9
$LIMMAX
 10
12.0
 20
9.0
  9
$ORTHOMODE
 70
     0
  9
$REGENMODE
 70
     1
  9
$FILLMODE
 70
     1
  9
$QTEXTMODE
 70
     0
  9
$MIRRTEXT
 70
     1
  9
$LTSCALE
 40
1.0
  9
$ATTMODE
 70
     1
  9
$TEXTSIZE
 40
0.2
  9
$TRACEWID
 40
0.05
  9
$TEXTSTYLE
  7
Standard
  9
$CLAYER
  8
0
  9
$CELTYPE
  6
ByLayer
  9
$CECOLOR
 62
   256
  9
$CELTSCALE
 40
1.0
  9
$DISPSILH
 70
     0
  9
$DIMSCALE
 40
1.0
  9
$DIMASZ
 40
0.18
  9
$DIMEXO
 40
0.0625
  9
$DIMDLI
 40
0.38
  9
$DIMRND
 40
0.0
  9
$DIMDLE
 40
0.0
  9
$DIMEXE
 40
0.18
  9
$DIMTP
 40
0.0
  9
$DIMTM
 40
0.0
  9
$DIMTXT
 40
0.18
  9
$DIMCEN
 40
0.09
  9
$DIMTSZ
 40
0.0
  9
$DIMTOL
 70
     0
  9
$DIMLIM
 70
     0
  9
$DIMTIH
 70
     1
  9
$DIMTOH
 70
     1
  9
$DIMSE1
 70
     0
  9
$DIMSE2
 70
     0
  9
$DIMTAD
 70
     0
  9
$DIMZIN
 70
     0
  9
$DIMBLK
  1

  9
$DIMASO
 70
     1
  9
$DIMSHO
 70
     1
  9
$DIMPOST
  1

  9
$DIMAPOST
  1

  9
$DIMALT
 70
     0
  9
$DIMALTD
 70
     2
  9
$DIMALTF
 40
25.4
  9
$DIMLFAC
 40
1.0
  9
$DIMTOFL
 70
     0
  9
$DIMTVP
 40
0.0
  9
$DIMTIX
 70
     0
  9
$DIMSOXD
 70
     0
  9
$DIMSAH
 70
     0
  9
$DIMBLK1
  1

  9
$DIMBLK2
  1

  9
$DIMSTYLE
  2
Standard
  9
$DIMCLRD
 70
     0
  9
$DIMCLRE
 70
     0
  9
$DIMCLRT
 70
     0
  9
$DIMTFAC
 40
1.0
  9
$DIMGAP
 40
0.09
  9
$DIMJUST
 70
     0
  9
$DIMSD1
 70
     0
  9
$DIMSD2
 70
     0
  9
$DIMTOLJ
 70
     1
  9
$DIMTZIN
 70
     0
  9
$DIMALTZ
 70
     0
  9
$DIMALTTZ
 70
     0
  9
$DIMUPT
 70
     0
  9
$DIMDEC
 70
     4
  9
$DIMTDEC
 70
     4
  9
$DIMALTU
 70
     2
  9
$DIMALTTD
 70
     2
  9
$DIMTXSTY
  7
Standard
  9
$DIMAUNIT
 70
     0
  9
$DIMADEC
 70
     0
  9
$DIMALTRND
 40
0.0
  9
$DIMAZIN
 70
     0
  9
$DIMDSEP
 70
    46
  9
$DIMATFIT
 70
     3
  9
$DIMFRAC
 70
     0
  9
$DIMLDRBLK
  1

  9
$DIMLUNIT
 70
     2
  9
$DIMLWD
 70
    -2
  9
$DIMLWE
 70
    -2
  9
$DIMTMOVE
 70
     0
  9
$LUNITS
 70
     2
  9
$LUPREC
 70
     4
  9
$SKETCHINC
 40
0.1
  9
$FILLETRAD
 40
0.5
  9
$AUNITS
 70
     0
  9
$AUPREC
 70
     0
  9
$MENU
  1
.
  9
$ELEVATION
 40
0.0
  9
$PELEVATION
 40
0.0
  9
$THICKNESS
 40
0.0
  9
$LIMCHECK
 70
     0
  9
$CHAMFERA
 40
0.5
  9
$CHAMFERB
 40
0.5
  9
$CHAMFERC
 40
1.0
  9
$CHAMFERD
 40
0.0
  9
$SKPOLY
 70
     0
  9
$TDCREATE
 40
2457186.568704549
  9
$TDUCREATE
 40
2457186.193704549
  9
$TDUPDATE
 40
2457186.568705637
  9
$TDUUPDATE
 40
2457186.193705637
  9
$TDINDWG
 40
0.0000000116
  9
$TDUSRTIMER
 40
0.0000000116
  9
$USRTIMER
 70
     1
  9
$ANGBASE
 50
0.0
  9
$ANGDIR
 70
     0
  9
$PDMODE
 70
     0
  9
$PDSIZE
 40
0.0
  9
$PLINEWID
 40
0.0
  9
$SPLFRAME
 70
     0
  9
$SPLINETYPE
 70
     6
  9
$SPLINESEGS
 70
     8
  9
$HANDSEED
  5
246
  9
$SURFTAB1
 70
     6
  9
$SURFTAB2
 70
     6
  9
$SURFTYPE
 70
     6
  9
$SURFU
 70
     6
  9
$SURFV
 70
     6
  9
$UCSBASE
  2

  9
$UCSNAME
  2

  9
$UCSORG
 10
0.0
 20
0.0
 30
0.0
  9
$UCSXDIR
 10
1.0
 20
0.0
 30
0.0
  9
$UCSYDIR
 10
0.0
 20
1.0
 30
0.0
  9
$UCSORTHOREF
  2

  9
$UCSORTHOVIEW
 70
     0
  9
$UCSORGTOP
 10
0.0
 20
0.0
 30
0.0
  9
$UCSORGBOTTOM
 10
0.0
 20
0.0
 30
0.0
  9
$UCSORGLEFT
 10
0.0
 20
0.0
 30
0.0
  9
$UCSORGRIGHT
 10
0.0
 20
0.0
 30
0.0
  9
$UCSORGFRONT
 10
0.0
 20
0.0
 30
0.0
  9
$UCSORGBACK
 10
0.0
 20
0.0
 30
0.0
  9
$PUCSBASE
  2

  9
$PUCSNAME
  2

  9
$PUCSORG
 10
0.0
 20
0.0
 30
0.0
  9
$PUCSXDIR
 10
1.0
 20
0.0
 30
0.0
  9
$PUCSYDIR
 10
0.0
 20
1.0
 30
0.0
  9
$PUCSORTHOREF
  2

  9
$PUCSORTHOVIEW
 70
     0
  9
$PUCSORGTOP
 10
0.0
 20
0.0
 30
0.0
  9
$PUCSORGBOTTOM
 10
0.0
 20
0.0
 30
0.0
  9
$PUCSORGLEFT
 10
0.0
 20
0.0
 30
0.0
  9
$PUCSORGRIGHT
 10
0.0
 20
0.0
 30
0.0
  9
$PUCSORGFRONT
 10
0.0
 20
0.0
 30
0.0
  9
$PUCSORGBACK
 10
0.0
 20
0.0
 30
0.0
  9
$USERI1
 70
     0
  9
$USERI2
 70
     0
  9
$USERI3
 70
     0
  9
$USERI4
 70
     0
  9
$USERI5
 70
     0
  9
$USERR1
 40
18.1
  9
$USERR2
 40
0.0
  9
$USERR3
 40
0.0
  9
$USERR4
 40
0.0
  9
$USERR5
 40
0.0
  9
$WORLDVIEW
 70
     1
  9
$SHADEDGE
 70
     3
  9
$SHADEDIF
 70
    70
  9
$TILEMODE
 70
     1
  9
$MAXACTVP
 70
    64
  9
$PINSBASE
 10
0.0
 20
0.0
 30
0.0
  9
$PLIMCHECK
 70
     0
  9
$PEXTMIN
 10
1.00000000000000E+20
 20
1.00000000000000E+20
 30
1.00000000000000E+20
  9
$PEXTMAX
 10
-1.00000000000000E+20
 20
-1.00000000000000E+20
 30
-1.00000000000000E+20
  9
$PLIMMIN
 10
0.0
 20
0.0
  9
$PLIMMAX
 10
12.0
 20
9.0
  9
$UNITMODE
 70
     0
  9
$VISRETAIN
 70
     1
  9
$PLINEGEN
 70
     0
  9
$PSLTSCALE
 70
     1
  9
$TREEDEPTH
 70
  3020
  9
$CMLSTYLE
  2
Standard
  9
$CMLJUST
 70
     0
  9
$CMLSCALE
 40
1.0
  9
$PROXYGRAPHICS
 70
     1
  9
$MEASUREMENT
 70
     1
  9
$CELWEIGHT
370
    -1
  9
$ENDCAPS
280
     0
  9
$JOINSTYLE
280
     0
  9
$LWDISPLAY
290
     0
  9
$INSUNITS
 70
     4
  9
$HYPERLINKBASE
  1

  9
$STYLESHEET
  1

  9
$XEDIT
290
     1
  9
$CEPSNTYPE
380
     0
  9
$PSTYLEMODE
290
     1
  9
$FINGERPRINTGUID
  2
{11FA1995-A23C-4317-9540-902CA0843BAE}
  9
$VERSIONGUID
  2
{FAEB1C32-E019-11D5-929B-00C0DF256EC4}
  9
$EXTNAMES
290
     1
  9
$PSVPSCALE
 40
0.0
  9
$OLESTARTUP
290
     0
  0
ENDSEC
  0
SECTION
  2
CLASSES
  0
CLASS
  1
ACDBDICTIONARYWDFLT
  2
AcDbDictionaryWithDefault
  3
ObjectDBX Classes
 90
        0
280
     0
281
     0
  0
CLASS
  1
VISUALSTYLE
  2
AcDbVisualStyle
  3
ObjectDBX Classes
 90
     4095
280
     0
281
     0
  0
CLASS
  1
MATERIAL
  2
AcDbMaterial
  3
ObjectDBX Classes
 90
     1153
280
     0
281
     0
  0
CLASS
  1
DICTIONARYVAR
  2
AcDbDictionaryVar
  3
ObjectDBX Classes
 90
        0
280
     0
281
     0
  0
CLASS
  1
ACDBPLACEHOLDER
  2
AcDbPlaceHolder
  3
ObjectDBX Classes
 90
        0
280
     0
281
     0
  0
CLASS
  1
LAYOUT
  2
AcDbLayout
  3
ObjectDBX Classes
 90
        0
280
     0
281
     0
  0
ENDSEC
  0
SECTION
  2
TABLES
  0
TABLE
  2
VPORT
  5
8
330
0
100
AcDbSymbolTable
 70
     1
  0
VPORT
  5
29
330
8
100
AcDbSymbolTableRecord
100
AcDbViewportTableRecord
  2
*Active
 70
     0
 10
0.0
 20
0.0
 11
1.0
 21
1.0
 12
315.000315000315
 22
445.5004455004456
 13
0.0
 23
0.0
 14
0.5
 24
0.5
 15
0.5
 25
0.5
 16
0.0
 26
0.0
 36
1.0
 17
0.0
 27
0.0
 37
0.0
 40
980.1009801009803
 41
1.60267857142857
 42
50.0
 43
0.0
 44
0.0
 50
0.0
 51
0.0
 71
     0
 72
   100
 73
     1
 74
     3
 75
     0
 76
     0
 77
     0
 78
     0
281
     0
 65
     1
110
0.0
120
0.0
130
0.0
111
1.0
121
0.0
131
0.0
112
0.0
122
1.0
132
0.0
 79
     0
146
0.0
  0
ENDTAB
  0
TABLE
  2
LTYPE
  5
5
330
0
100
AcDbSymbolTable
 70
     8
  0
LTYPE
  5
14
330
5
100
AcDbSymbolTableRecord
100
AcDbLinetypeTableRecord
  2
ByBlock
 70
     0
  3

 72
    65
 73
     0
 40
0.0
  0
LTYPE
  5
15
330
5
100
AcDbSymbolTableRecord
100
AcDbLinetypeTableRecord
  2
ByLayer
 70
     0
  3

 72
    65
 73
     0
 40
0.0
  0
LTYPE
  5
16
330
5
100
AcDbSymbolTableRecord
100
AcDbLinetypeTableRecord
  2
Continuous
 70
     0
  3
Solid line
 72
    65
 73
     0
 40
0.0
  0
LTYPE
  5
3F
330
5
100
AcDbSymbolTableRecord
100
AcDbLinetypeTableRecord
  2
DASHED
 70
     0
  3
Dashed
 72
    65
 73
     2
 40
15.0
 49
7.0
 74
     0
 49
-8.0
 74
     0
  0
LTYPE
  5
40
330
5
100
AcDbSymbolTableRecord
100
AcDbLinetypeTableRecord
  2
DOTTED
 70
     0
  3
Dotted
 72
    65
 73
     2
 40
1.0
 49
0.0
 74
     0
 49
-1.0
 74
     0
  0
LTYPE
  5
41
330
5
100
AcDbSymbolTableRecord
100
AcDbLinetypeTableRecord
  2
DOT_CENTER
 70
     0
  3
Dot_Center
 72
    65
 73
     4
 40
14.0
 49
12.0
 74
     0
 49
-1.0
 74
     0
 49
0.0
 74
     0
 49
-1.0
 74
     0
  0
LTYPE
  5
42
330
5
100
AcDbSymbolTableRecord
100
AcDbLinetypeTableRecord
  2
LONG_DASHED
 70
     0
  3
Long_Dashed
 72
    65
 73
     2
 40
15.0
 49
10.0
 74
     0
 49
-5.0
 74
     0
  0
LTYPE
  5
43
330
5
100
AcDbSymbolTableRecord
100
AcDbLinetypeTableRecord
  2
DASH_CENTER
 70
     0
  3
Dash_Center
 72
    65
 73
     4
 40
14.0
 49
11.0
 74
     0
 49
-1.0
 74
     0
 49
1.0
 74
     0
 49
-1.0
 74
     0
  0
LTYPE
  5
44
330
5
100
AcDbSymbolTableRecord
100
AcDbLinetypeTableRecord
  2
PHANTOM
 70
     0
  3
Phantom
 72
    65
 73
     6
 40
13.0
 49
10.0
 74
     0
 49
-1.0
 74
     0
 49
0.0
 74
     0
 49
-1.0
 74
     0
 49
0.0
 74
     0
 49
-1.0
 74
     0
  0
LTYPE
  5
45
330
5
100
AcDbSymbolTableRecord
100
AcDbLinetypeTableRecord
  2
CENTER_DASH_DASH
 70
     0
  3
Center_Dash_Dash
 72
    65
 73
     6
 40
14.0
 49
9.0
 74
     0
 49
-1.0
 74
     0
 49
1.0
 74
     0
 49
-1.0
 74
     0
 49
1.0
 74
     0
 49
-1.0
 74
     0
  0
ENDTAB
  0
TABLE
  2
LAYER
  5
2
330
0
100
AcDbSymbolTable
 70
     2
  0
LAYER
  5
10
330
2
100
AcDbSymbolTableRecord
100
AcDbLayerTableRecord
  2
0
 70
     0
 62
     7
  6
Continuous
370
    -3
390
F
  0
LAYER
  5
46
330
2
100
AcDbSymbolTableRecord
100
AcDbLayerTableRecord
  2
1
 70
     0
 62
     7
  6
Continuous
370
    -3
390
F
  0
ENDTAB
  0
TABLE
  2
STYLE
  5
3
330
0
100
AcDbSymbolTable
 70
     3
  0
STYLE
  5
11
330
3
100
AcDbSymbolTableRecord
100
AcDbTextStyleTableRecord
  2
Standard
 70
     0
 40
0.0
 41
1.0
 50
0.0
 71
     0
 42
0.2
  3
txt
  4

  0
STYLE
  5
19D
330
3
100
AcDbSymbolTableRecord
100
AcDbTextStyleTableRecord
  2
CONVERTER_11
 70
     0
 40
0.0
 41
0.89
 50
0.0
 71
     0
 42
0.2
  3
MS Mincho.ttf
  4

1001
ACAD
1000
MS Mincho
1071
    32785
  0
STYLE
  5
1C2
330
3
100
AcDbSymbolTableRecord
100
AcDbTextStyleTableRecord
  2
CONVERTER_12
 70
     0
 40
0.0
 41
0.9
 50
0.0
 71
     0
 42
0.2
  3
txt.shx
  4

  0
ENDTAB
  0
TABLE
  2
VIEW
  5
6
330
0
100
AcDbSymbolTable
 70
     0
  0
ENDTAB
  0
TABLE
  2
UCS
  5
7
330
0
100
AcDbSymbolTable
 70
     0
  0
ENDTAB
  0
TABLE
  2
APPID
  5
9
330
0
100
AcDbSymbolTable
 70
     1
  0
APPID
  5
12
330
9
100
AcDbSymbolTableRecord
100
AcDbRegAppTableRecord
  2
ACAD
 70
     0
  0
ENDTAB
  0
TABLE
  2
DIMSTYLE
  5
A
330
0
100
AcDbSymbolTable
 70
     8
100
AcDbDimStyleTable
  0
DIMSTYLE
105
27
330
A
100
AcDbSymbolTableRecord
100
AcDbDimStyleTableRecord
  2
Standard
 70
     0
178
     0
340
11
  0
DIMSTYLE
105
1D7
102
{ACAD_REACTORS
330
1D8
102
}
330
A
100
AcDbSymbolTableRecord
100
AcDbDimStyleTableRecord
  2
ME10_DIM_10
 70
     0
 41
9.000009000009
 42
0.0
 44
3.000003000003
 73
     0
 74
     0
 77
     1
 78
     8
140
10.5000105000105
147
3.000003000003
172
     1
173
     1
174
     1
175
     1
176
     2
177
     2
271
     2
178
     7
271
     2
340
1C2
343
1D4
  0
DIMSTYLE
105
1E2
102
{ACAD_REACTORS
330
1E3
102
}
330
A
100
AcDbSymbolTableRecord
100
AcDbDimStyleTableRecord
  2
ME10_DIM_11
 70
     0
 41
10.5000105000105
 42
0.0
 44
3.000003000003
 73
     0
 74
     0
 77
     1
 78
     8
140
10.5000105000105
147
3.000003000003
172
     1
173
     1
174
     1
175
     1
176
     2
177
     2
271
     2
178
     7
271
     2
340
1C2
  0
DIMSTYLE
105
1ED
102
{ACAD_REACTORS
330
1EE
102
}
330
A
100
AcDbSymbolTableRecord
100
AcDbDimStyleTableRecord
  2
ME10_DIM_12
 70
     0
 41
10.5000105000105
 42
0.0
 44
3.000003000003
 73
     0
 74
     0
 77
     1
 78
     8
140
10.5000105000105
147
3.000003000003
172
     1
173
     1
174
     1
175
     1
176
     2
177
     2
271
     2
178
     7
271
     2
340
1C2
  0
DIMSTYLE
105
1F8
102
{ACAD_REACTORS
330
1F9
102
}
330
A
100
AcDbSymbolTableRecord
100
AcDbDimStyleTableRecord
  2
ME10_DIM_13
 70
     0
 41
10.5000105000105
 42
0.0
 44
3.000003000003
 73
     0
 74
     0
 77
     1
 78
     8
140
10.5000105000105
147
3.000003000003
172
     1
173
     1
174
     1
175
     1
176
     2
177
     2
271
     2
178
     7
271
     2
340
1C2
  0
DIMSTYLE
105
203
102
{ACAD_REACTORS
330
204
102
}
330
A
100
AcDbSymbolTableRecord
100
AcDbDimStyleTableRecord
  2
ME10_DIM_14
 70
     0
 41
10.5000105000105
 42
0.0
 44
3.000003000003
 73
     0
 74
     0
 77
     1
 78
     8
140
10.5000105000105
147
3.000003000003
172
     1
173
     1
174
     1
175
     1
176
     2
177
     2
271
     2
178
     7
271
     2
340
1C2
  0
DIMSTYLE
105
20E
102
{ACAD_REACTORS
330
20F
102
}
330
A
100
AcDbSymbolTableRecord
100
AcDbDimStyleTableRecord
  2
ME10_DIM_15
 70
     0
  3
{\Fgdt;n}<>
 41
10.5000105000105
 42
0.0
 44
3.000003000003
 73
     0
 74
     0
 77
     1
 78
     8
140
10.5000105000105
147
3.000003000003
172
     1
173
     1
174
     1
175
     1
176
     2
177
     2
271
     2
178
     7
271
     2
340
1C2
  0
DIMSTYLE
105
219
102
{ACAD_REACTORS
330
21A
102
}
330
A
100
AcDbSymbolTableRecord
100
AcDbDimStyleTableRecord
  2
ME10_DIM_16
 70
     0
 41
10.5000105000105
 42
0.0
 44
3.000003000003
 73
     0
 74
     0
 77
     1
 78
     8
140
10.5000105000105
147
3.000003000003
172
     1
173
     1
174
     1
175
     1
176
     2
177
     2
271
     2
178
     7
271
     2
340
1C2
  0
ENDTAB
  0
TABLE
  2
BLOCK_RECORD
  5
1
330
0
100
AcDbSymbolTable
 70
    14
  0
BLOCK_RECORD
  5
1F
330
1
100
AcDbSymbolTableRecord
100
AcDbBlockTableRecord
  2
*Model_Space
340
22
  0
BLOCK_RECORD
  5
1B
330
1
100
AcDbSymbolTableRecord
100
AcDbBlockTableRecord
  2
*Paper_Space
340
1E
  0
BLOCK_RECORD
  5
23
330
1
100
AcDbSymbolTableRecord
100
AcDbBlockTableRecord
  2
*Paper_Space0
340
26
  0
BLOCK_RECORD
  5
47
330
1
100
AcDbSymbolTableRecord
100
AcDbBlockTableRecord
  2
61-1-16-300-M2
340
0
102
{BLKREFS
331
56
102
}
  0
BLOCK_RECORD
  5
4A
330
1
100
AcDbSymbolTableRecord
100
AcDbBlockTableRecord
  2
A205-0
340
0
102
{BLKREFS
331
57
102
}
  0
BLOCK_RECORD
  5
4D
330
1
100
AcDbSymbolTableRecord
100
AcDbBlockTableRecord
  2
81-100X-M21
340
0
102
{BLKREFS
331
58
102
}
  0
BLOCK_RECORD
  5
50
330
1
100
AcDbSymbolTableRecord
100
AcDbBlockTableRecord
  2
32-1-16
340
0
102
{BLKREFS
331
59
102
}
  0
BLOCK_RECORD
  5
53
330
1
100
AcDbSymbolTableRecord
100
AcDbBlockTableRecord
  2
開示A4
340
0
102
{BLKREFS
331
5A
102
}
  0
BLOCK_RECORD
  5
1CB
330
1
100
AcDbSymbolTableRecord
100
AcDbBlockTableRecord
  2
*D6
340
0
  0
BLOCK_RECORD
  5
1D4
330
1
100
AcDbSymbolTableRecord
100
AcDbBlockTableRecord
  2
_NONE
340
0
  0
BLOCK_RECORD
  5
1D9
330
1
100
AcDbSymbolTableRecord
100
AcDbBlockTableRecord
  2
*D8
340
0
  0
BLOCK_RECORD
  5
1E4
330
1
100
AcDbSymbolTableRecord
100
AcDbBlockTableRecord
  2
*D9
340
0
  0
BLOCK_RECORD
  5
1EF
330
1
100
AcDbSymbolTableRecord
100
AcDbBlockTableRecord
  2
*D10
340
0
  0
BLOCK_RECORD
  5
1FA
330
1
100
AcDbSymbolTableRecord
100
AcDbBlockTableRecord
  2
*D11
340
0
  0
BLOCK_RECORD
  5
205
330
1
100
AcDbSymbolTableRecord
100
AcDbBlockTableRecord
  2
*D12
340
0
  0
BLOCK_RECORD
  5
210
330
1
100
AcDbSymbolTableRecord
100
AcDbBlockTableRecord
  2
*D13
340
0
  0
ENDTAB
  0
ENDSEC
  0
SECTION
  2
BLOCKS
  0
BLOCK
  5
20
330
1F
100
AcDbEntity
  8
0
100
AcDbBlockBegin
  2
*Model_Space
 70
     0
 10
0.0
 20
0.0
 30
0.0
  3
*Model_Space
  1

  0
ENDBLK
  5
21
330
1F
100
AcDbEntity
  8
0
100
AcDbBlockEnd
  0
BLOCK
  5
1C
330
1B
100
AcDbEntity
 67
     1
  8
0
100
AcDbBlockBegin
  2
*Paper_Space
 70
     0
 10
0.0
 20
0.0
 30
0.0
  3
*Paper_Space
  1

  0
ENDBLK
  5
1D
330
1B
100
AcDbEntity
 67
     1
  8
0
100
AcDbBlockEnd
  0
BLOCK
  5
24
330
23
100
AcDbEntity
  8
0
100
AcDbBlockBegin
  2
*Paper_Space0
 70
     0
 10
0.0
 20
0.0
 30
0.0
  3
*Paper_Space0
  1

  0
ENDBLK
  5
25
330
23
100
AcDbEntity
  8
0
100
AcDbBlockEnd
  0
BLOCK
  5
48
330
47
100
AcDbEntity
  8
0
100
AcDbBlockBegin
  2
61-1-16-300-M2
 70
     0
 10
222.8084331382947
 20
147.9659584573888
 30
0.0
  3
61-1-16-300-M2
  1

  0
LINE
  5
5B
330
47
100
AcDbEntity
  8
1
  6
PHANTOM
 62
     4
100
AcDbLine
 10
219.8402325427052
 20
297.5000300000303
 30
0.0
 11
465.8455880146274
 21
297.5000300000303
 31
0.0
  0
LINE
  5
5C
330
47
100
AcDbEntity
  8
1
  6
PHANTOM
 62
     4
100
AcDbLine
 10
192.8402325427053
 20
261.5000300000302
 30
0.0
 11
192.8402325427053
 21
270.5000300000302
 31
0.0
  0
LINE
  5
5D
330
47
100
AcDbEntity
  8
1
  6
Continuous
 62
     7
100
AcDbLine
 10
184.8402325427053
 20
269.5000300000303
 30
0.0
 11
200.8402325427053
 21
269.5000300000302
 31
0.0
  0
LINE
  5
5E
330
47
100
AcDbEntity
  8
1
  6
Continuous
 62
     7
100
AcDbLine
 10
465.8455880146275
 20
305.5000300000303
 30
0.0
 11
219.8402325427052
 21
305.5000300000303
 31
0.0
  0
LINE
  5
5F
330
47
100
AcDbEntity
  8
1
  6
Continuous
 62
     7
100
AcDbLine
 10
484.8455880146275
 20
265.0000300000303
 30
0.0
 11
484.8455880146275
 21
270.5000300000303
 31
0.0
  0
LINE
  5
60
330
47
100
AcDbEntity
  8
1
  6
Continuous
 62
     7
100
AcDbLine
 10
500.8455880146275
 20
270.5000300000303
 30
0.0
 11
500.8455880146275
 21
265.0000300000303
 31
0.0
  0
LINE
  5
61
330
47
100
AcDbEntity
  8
1
  6
Continuous
 62
     7
100
AcDbLine
 10
184.8402325427053
 20
269.5000300000303
 30
0.0
 11
184.8402325427053
 21
270.5000300000303
 31
0.0
  0
LINE
  5
62
330
47
100
AcDbEntity
  8
1
  6
Continuous
 62
     7
100
AcDbLine
 10
200.8402325427053
 20
269.5000300000302
 30
0.0
 11
200.8402325427053
 21
270.5000300000302
 31
0.0
  0
LINE
  5
63
330
47
100
AcDbEntity
  8
1
  6
Continuous
 62
     7
100
AcDbLine
 10
185.4538255367191
 20
264.5000300000302
 30
0.0
 11
200.2266395486915
 21
264.5000300000302
 31
0.0
  0
LINE
  5
64
330
47
100
AcDbEntity
  8
1
  6
Continuous
 62
     7
100
AcDbLine
 10
465.8455880146275
 20
289.5000300000303
 30
0.0
 11
219.8402325427052
 21
289.5000300000303
 31
0.0
  0
LINE
  5
65
330
47
100
AcDbEntity
  8
1
  6
PHANTOM
 62
     4
100
AcDbLine
 10
110.1744931158641
 20
312.000030000031
 30
0.0
 11
110.1744931158643
 21
247.0000300000298
 31
0.0
  0
LINE
  5
66
330
47
100
AcDbEntity
  8
1
  6
Continuous
 62
     7
100
AcDbLine
 10
118.1999104633965
 20
695.3417353824025
 30
0.0
 11
118.1999104633965
 21
480.0379387726292
 31
0.0
  0
LINE
  5
67
330
47
100
AcDbEntity
  8
1
  6
Continuous
 62
     7
100
AcDbLine
 10
102.1999104633964
 20
695.3417353824025
 30
0.0
 11
102.1999104633964
 21
482.6421199191512
 31
0.0
  0
LINE
  5
68
330
47
100
AcDbEntity
  8
1
  6
Continuous
 62
     7
100
AcDbLine
 10
118.1744931158641
 20
270.0000300000309
 30
0.0
 11
102.1744931158642
 21
270.000030000031
 31
0.0
  0
LINE
  5
69
330
47
100
AcDbEntity
  8
1
  6
Continuous
 62
     7
100
AcDbLine
 10
102.7880861098782
 20
265.0000300000309
 30
0.0
 11
117.5609001218503
 21
265.0000300000309
 31
0.0
  0
LINE
  5
6A
330
47
100
AcDbEntity
  8
1
  6
Continuous
 62
     7
100
AcDbLine
 10
118.1744931158641
 20
270.0000300000309
 30
0.0
 11
118.1744931158641
 21
298.000030000031
 31
0.0
  0
LINE
  5
6B
330
47
100
AcDbEntity
  8
1
  6
Continuous
 62
     7
100
AcDbLine
 10
102.1744931158642
 20
270.000030000031
 30
0.0
 11
102.1744931158642
 21
298.000030000031
 31
0.0
  0
LINE
  5
6C
330
47
100
AcDbEntity
  8
1
  6
Continuous
 62
     7
100
AcDbLine
 10
118.1999104633965
 20
478.5379387726292
 30
0.0
 11
118.1999104633965
 21
395.3417353824024
 31
0.0
  0
LINE
  5
6D
330
47
100
AcDbEntity
  8
1
  6
Continuous
 62
     7
100
AcDbLine
 10
102.1999104633964
 20
481.1421199191512
 30
0.0
 11
102.1999104633964
 21
395.3417353824024
 31
0.0
  0
ARC
  5
6E
330
47
100
AcDbEntity
  8
1
  6
PHANTOM
 62
     4
100
AcDbCircle
 10
465.8455880146275
 20
270.5000300000303
 30
0.0
 40
27.0
100
AcDbArc
 50
0.0
 51
90.00000000000011
  0
ARC
  5
6F
330
47
100
AcDbEntity
  8
1
  6
PHANTOM
 62
     4
100
AcDbCircle
 10
219.8402325427052
 20
270.5000300000302
 30
0.0
 40
27.00000000000006
100
AcDbArc
 50
90.0
 51
180.0
  0
ARC
  5
70
330
47
100
AcDbEntity
  8
1
  6
Continuous
 62
     7
100
AcDbCircle
 10
188.0502588374235
 20
267.3563102928079
 30
0.0
 40
3.86002629471821
100
AcDbArc
 50
180.0
 51
227.7283445035807
  0
ARC
  5
71
330
47
100
AcDbEntity
  8
1
  6
Continuous
 62
     7
100
AcDbCircle
 10
465.8455880146275
 20
270.5000300000303
 30
0.0
 40
35.0
100
AcDbArc
 50
0.0
 51
90.0
  0
ARC
  5
72
330
47
100
AcDbEntity
  8
1
  6
Continuous
 62
     7
100
AcDbCircle
 10
465.8455880146275
 20
270.5000300000303
 30
0.0
 40
19.0
100
AcDbArc
 50
0.0
 51
90.0
  0
ARC
  5
73
330
47
100
AcDbEntity
  8
1
  6
Continuous
 62
     7
100
AcDbCircle
 10
219.8402325427052
 20
270.5000300000302
 30
0.0
 40
35.00000000000006
100
AcDbArc
 50
90.0
 51
179.9999999999999
  0
ARC
  5
74
330
47
100
AcDbEntity
  8
1
  6
Continuous
 62
     7
100
AcDbCircle
 10
219.8402325427052
 20
270.5000300000302
 30
0.0
 40
19.00000000000006
100
AcDbArc
 50
90.0
 51
180.0
  0
ARC
  5
75
330
47
100
AcDbEntity
  8
1
  6
Continuous
 62
     7
100
AcDbCircle
 10
197.6302062479871
 20
267.3563102928079
 30
0.0
 40
3.860026294718332
100
AcDbArc
 50
312.2716554964193
 51
0.0
  0
ARC
  5
76
330
47
100
AcDbEntity
  8
1
  6
Continuous
 62
     7
100
AcDbCircle
 10
188.0502588374235
 20
267.3563102928079
 30
0.0
 40
3.860026294718193
100
AcDbArc
 50
146.2642089999707
 51
180.0
  0
ARC
  5
77
330
47
100
AcDbEntity
  8
1
  6
Continuous
 62
     7
100
AcDbCircle
 10
197.6302062479871
 20
267.3563102928079
 30
0.0
 40
3.860026294718296
100
AcDbArc
 50
0.0
 51
33.73579100002856
  0
ARC
  5
78
330
47
100
AcDbEntity
  8
1
  6
Continuous
 62
     7
100
AcDbCircle
 10
110.1999104633965
 20
395.3417353824024
 30
0.0
 40
8.0000000000001
100
AcDbArc
 50
180.0
 51
0.0
  0
ARC
  5
79
330
47
100
AcDbEntity
  8
1
  6
Continuous
 62
     7
100
AcDbCircle
 10
110.1999104633965
 20
395.3417353824024
 30
0.0
 40
8.650000000000091
100
AcDbArc
 50
270.0
 51
22.35342559933236
  0
ARC
  5
7A
330
47
100
AcDbEntity
  8
1
  6
Continuous
 62
     7
100
AcDbCircle
 10
110.1999104633965
 20
395.3417353824024
 30
0.0
 40
8.650000000000164
100
AcDbArc
 50
157.6465744006679
 51
270.0
  0
ARC
  5
7B
330
47
100
AcDbEntity
  8
1
  6
Continuous
 62
     7
100
AcDbCircle
 10
114.9644668211461
 20
267.8563102928085
 30
0.0
 40
3.860026294718097
100
AcDbArc
 50
0.0
 51
33.73579100003172
  0
ARC
  5
7C
330
47
100
AcDbEntity
  8
1
  6
Continuous
 62
     7
100
AcDbCircle
 10
105.3845194105824
 20
267.8563102928085
 30
0.0
 40
3.860026294718097
100
AcDbArc
 50
180.0
 51
227.7283445035817
  0
ARC
  5
7D
330
47
100
AcDbEntity
  8
1
  6
Continuous
 62
     7
100
AcDbCircle
 10
105.3845194105824
 20
267.8563102928085
 30
0.0
 40
3.860026294718288
100
AcDbArc
 50
146.2642089999686
 51
180.0
  0
ARC
  5
7E
330
47
100
AcDbEntity
  8
1
  6
Continuous
 62
     7
100
AcDbCircle
 10
114.9644668211461
 20
267.8563102928085
 30
0.0
 40
3.860026294718104
100
AcDbArc
 50
312.2716554964181
 51
0.0
  0
ARC
  5
7F
330
47
100
AcDbEntity
  8
1
  6
Continuous
 62
     7
100
AcDbCircle
 10
110.1744931158641
 20
298.000030000031
 30
0.0
 40
8.0
100
AcDbArc
 50
0.0
 51
180.0
  0
ARC
  5
80
330
47
100
AcDbEntity
  8
1
  6
Continuous
 62
     7
100
AcDbCircle
 10
110.1999104633965
 20
695.3417353824025
 30
0.0
 40
8.0
100
AcDbArc
 50
0.0
 51
180.0
  0
ENDBLK
  5
49
330
47
100
AcDbEntity
  8
0
100
AcDbBlockEnd
  0
BLOCK
  5
4B
330
4A
100
AcDbEntity
  8
0
100
AcDbBlockBegin
  2
A205-0
 70
     0
 10
565.8067151971244
 20
38.83400579466696
 30
0.0
  3
A205-0
  1

  0
LINE
  5
81
330
4A
100
AcDbEntity
  8
1
  6
Continuous
 62
     2
100
AcDbLine
 10
540.0722833502751
 20
239.0000300000302
 30
0.0
 11
552.3402325427062
 21
239.0000300000303
 31
0.0
  0
LINE
  5
82
330
4A
100
AcDbEntity
  8
1
  6
Continuous
 62
     2
100
AcDbLine
 10
538.3402325427062
 20
240.0000300000303
 30
0.0
 11
540.0722833502751
 21
239.0000300000302
 31
0.0
  0
LINE
  5
83
330
4A
100
AcDbEntity
  8
1
  6
Continuous
 62
     2
100
AcDbLine
 10
540.072283350275
 20
220.0000300000302
 30
0.0
 11
538.3402325427062
 21
219.0000300000303
 31
0.0
  0
LINE
  5
84
330
4A
100
AcDbEntity
  8
1
  6
Continuous
 62
     2
100
AcDbLine
 10
552.3402325427062
 20
220.0000300000303
 30
0.0
 11
540.072283350275
 21
220.0000300000302
 31
0.0
  0
LINE
  5
85
330
4A
100
AcDbEntity
  8
1
  6
Continuous
 62
     7
100
AcDbLine
 10
551.3402325427062
 20
219.0000300000303
 30
0.0
 11
538.3402325427062
 21
219.0000300000303
 31
0.0
  0
LINE
  5
86
330
4A
100
AcDbEntity
  8
1
  6
Continuous
 62
     7
100
AcDbLine
 10
551.3402325427062
 20
219.0000300000303
 30
0.0
 11
552.3402325427062
 21
220.0000300000303
 31
0.0
  0
LINE
  5
87
330
4A
100
AcDbEntity
  8
1
  6
Continuous
 62
     7
100
AcDbLine
 10
540.072283350275
 20
219.0000300000303
 30
0.0
 11
540.0722833502754
 21
240.0000300000303
 31
0.0
  0
LINE
  5
88
330
4A
100
AcDbEntity
  8
1
  6
Continuous
 62
     7
100
AcDbLine
 10
551.3402325427062
 20
240.0000300000303
 30
0.0
 11
551.3402325427062
 21
219.0000300000303
 31
0.0
  0
LINE
  5
89
330
4A
100
AcDbEntity
  8
1
  6
Continuous
 62
     7
100
AcDbLine
 10
538.3402325427062
 20
240.0000300000303
 30
0.0
 11
551.3402325427062
 21
240.0000300000303
 31
0.0
  0
LINE
  5
8A
330
4A
100
AcDbEntity
  8
1
  6
Continuous
 62
     7
100
AcDbLine
 10
552.3402325427062
 20
239.0000300000303
 30
0.0
 11
551.3402325427062
 21
240.0000300000303
 31
0.0
  0
LINE
  5
8B
330
4A
100
AcDbEntity
  8
1
  6
Continuous
 62
     7
100
AcDbLine
 10
552.3402325427062
 20
239.0000300000303
 30
0.0
 11
552.3402325427062
 21
220.0000300000303
 31
0.0
  0
LINE
  5
8C
330
4A
100
AcDbEntity
  8
1
  6
Continuous
 62
     7
100
AcDbLine
 10
538.3402325427062
 20
219.02003000003
 30
0.0
 11
538.3402325427062
 21
239.98003000003
 31
0.0
  0
LINE
  5
8D
330
4A
100
AcDbEntity
  8
1
  6
Continuous
 62
     7
100
AcDbLine
 10
552.3402325427062
 20
223.00003000003
 30
0.0
 11
552.3402325427062
 21
220.18003000003
 31
0.0
  0
LINE
  5
8E
330
4A
100
AcDbEntity
  8
1
  6
Continuous
 62
     7
100
AcDbLine
 10
496.8402325427053
 20
253.50003000003
 30
0.0
 11
505.8402325427063
 21
253.50003000003
 31
0.0
  0
LINE
  5
8F
330
4A
100
AcDbEntity
  8
1
  6
Continuous
 62
     7
100
AcDbLine
 10
479.8402325427063
 20
255.00003000003
 30
0.0
 11
479.8402325427063
 21
253.50003000003
 31
0.0
  0
LINE
  5
90
330
4A
100
AcDbEntity
  8
1
  6
Continuous
 62
     2
100
AcDbLine
 10
480.6552325427062
 20
255.00003000003
 30
0.0
 11
480.6552325427062
 21
253.50003000003
 31
0.0
  0
LINE
  5
91
330
4A
100
AcDbEntity
  8
1
  6
Continuous
 62
     7
100
AcDbLine
 10
505.8402325427063
 20
255.00003000003
 30
0.0
 11
505.8402325427063
 21
253.50003000003
 31
0.0
  0
LINE
  5
92
330
4A
100
AcDbEntity
  8
1
  6
Continuous
 62
     2
100
AcDbLine
 10
505.0252325427061
 20
255.00003000003
 30
0.0
 11
505.0252325427061
 21
253.50003000003
 31
0.0
  0
LINE
  5
93
330
4A
100
AcDbEntity
  8
1
  6
Continuous
 62
     7
100
AcDbLine
 10
480.2402325427063
 20
250.05003000003
 30
0.0
 11
480.2402325427063
 21
238.527211176899
 31
0.0
  0
LINE
  5
94
330
4A
100
AcDbEntity
  8
1
  6
Continuous
 62
     7
100
AcDbLine
 10
479.8402325427063
 20
252.0884085918613
 30
0.0
 11
479.8402325427063
 21
251.25003000003
 31
0.0
  0
LINE
  5
95
330
4A
100
AcDbEntity
  8
1
  6
Continuous
 62
     7
100
AcDbLine
 10
505.8402325427063
 20
252.0884085918613
 30
0.0
 11
505.8402325427063
 21
251.25003000003
 31
0.0
  0
LINE
  5
96
330
4A
100
AcDbEntity
  8
1
  6
Continuous
 62
     2
100
AcDbLine
 10
480.6552325427062
 20
253.50003000003
 30
0.0
 11
479.8402325427063
 21
252.0884085918613
 31
0.0
  0
LINE
  5
97
330
4A
100
AcDbEntity
  8
1
  6
Continuous
 62
     2
100
AcDbLine
 10
505.0252325427061
 20
253.50003000003
 30
0.0
 11
505.8402325427063
 21
252.0884085918613
 31
0.0
  0
LINE
  5
98
330
4A
100
AcDbEntity
  8
1
  6
Continuous
 62
     7
100
AcDbLine
 10
479.8402325427063
 20
253.50003000003
 30
0.0
 11
479.8402325427063
 21
252.0884085918613
 31
0.0
  0
LINE
  5
99
330
4A
100
AcDbEntity
  8
1
  6
Continuous
 62
     7
100
AcDbLine
 10
505.8402325427063
 20
253.50003000003
 30
0.0
 11
505.8402325427063
 21
252.0884085918613
 31
0.0
  0
LINE
  5
9A
330
4A
100
AcDbEntity
  8
1
  6
Continuous
 62
     7
100
AcDbLine
 10
480.6552325427062
 20
253.50003000003
 30
0.0
 11
479.8402325427063
 21
253.50003000003
 31
0.0
  0
LINE
  5
9B
330
4A
100
AcDbEntity
  8
1
  6
Continuous
 62
     7
100
AcDbLine
 10
480.6552325427062
 20
253.50003000003
 30
0.0
 11
488.8402325427053
 21
253.50003000003
 31
0.0
  0
LINE
  5
9C
330
4A
100
AcDbEntity
  8
1
  6
Continuous
 62
     7
100
AcDbLine
 10
536.3402325427062
 20
206.50003000003
 30
0.0
 11
538.3402325427062
 21
206.50003000003
 31
0.0
  0
LINE
  5
9D
330
4A
100
AcDbEntity
  8
1
  6
Continuous
 62
     7
100
AcDbLine
 10
536.3402325427062
 20
252.50003000003
 30
0.0
 11
538.3402325427062
 21
252.50003000003
 31
0.0
  0
LINE
  5
9E
330
4A
100
AcDbEntity
  8
1
  6
Continuous
 62
     7
100
AcDbLine
 10
535.8402325427062
 20
252.00003000003
 30
0.0
 11
535.8402325427062
 21
242.25003000003
 31
0.0
  0
LINE
  5
9F
330
4A
100
AcDbEntity
  8
1
  6
Continuous
 62
     7
100
AcDbLine
 10
538.3402325427062
 20
239.98003000003
 30
0.0
 11
538.3402325427062
 21
252.50003000003
 31
0.0
  0
LINE
  5
A0
330
4A
100
AcDbEntity
  8
1
  6
Continuous
 62
     7
100
AcDbLine
 10
538.3402325427062
 20
206.50003000003
 30
0.0
 11
538.3402325427062
 21
219.02003000003
 31
0.0
  0
LINE
  5
A1
330
4A
100
AcDbEntity
  8
1
  6
Continuous
 62
     7
100
AcDbLine
 10
535.8402325427062
 20
207.00003000003
 30
0.0
 11
535.8402325427062
 21
216.75003000003
 31
0.0
  0
LINE
  5
A2
330
4A
100
AcDbEntity
  8
1
  6
Continuous
 62
     7
100
AcDbLine
 10
531.8402325427062
 20
220.75003000003
 30
0.0
 11
508.7442414712751
 21
220.75003000003
 31
0.0
  0
LINE
  5
A3
330
4A
100
AcDbEntity
  8
1
  6
Continuous
 62
     7
100
AcDbLine
 10
531.8402325427062
 20
238.25003000003
 30
0.0
 11
518.440232542706
 21
238.25003000003
 31
0.0
  0
LINE
  5
A4
330
4A
100
AcDbEntity
  8
1
  6
Continuous
 62
     7
100
AcDbLine
 10
123.1999104633967
 20
255.0000300000297
 30
0.0
 11
123.1999104633967
 21
251.2500300000298
 31
0.0
  0
LINE
  5
A5
330
4A
100
AcDbEntity
  8
1
  6
Continuous
 62
     7
100
AcDbLine
 10
129.5590270543785
 20
217.0813100653201
 30
0.0
 11
110.9679635568264
 21
216.0218960622151
 31
0.0
  0
LINE
  5
A6
330
4A
100
AcDbEntity
  8
1
  6
Continuous
 62
     7
100
AcDbLine
 10
97.59991046339658
 20
248.741651553319
 30
0.0
 11
97.59991046339658
 21
236.6687118872389
 31
0.0
  0
LINE
  5
A7
330
4A
100
AcDbEntity
  8
1
  6
Continuous
 62
     7
100
AcDbLine
 10
131.9999104633965
 20
217.2204041017532
 30
0.0
 11
129.5590270543785
 21
217.0813100653201
 31
0.0
  0
LINE
  5
A8
330
4A
100
AcDbEntity
  8
1
  6
Continuous
 62
     7
100
AcDbLine
 10
97.19991046339659
 20
255.0000300000297
 30
0.0
 11
97.19991046339659
 21
251.2500300000298
 31
0.0
  0
LINE
  5
A9
330
4A
100
AcDbEntity
  8
1
  6
Continuous
 62
     7
100
AcDbLine
 10
97.59991046339658
 20
250.05003000003
 30
0.0
 11
97.59991046339658
 21
248.741651553319
 31
0.0
  0
LINE
  5
AA
330
4A
100
AcDbEntity
  8
1
  6
Continuous
 62
     7
100
AcDbLine
 10
131.9999104633965
 20
241.7796558983067
 30
0.0
 11
130.3447678895122
 21
241.8739743981675
 31
0.0
  0
LINE
  5
AB
330
4A
100
AcDbEntity
  8
1
  6
Continuous
 62
     7
100
AcDbLine
 10
118.1999104633965
 20
681.8386521314615
 30
0.0
 11
129.3689055551161
 21
682.6315179502092
 31
0.0
  0
LINE
  5
AC
330
4A
100
AcDbEntity
  8
1
  6
Continuous
 62
     7
100
AcDbLine
 10
129.3689055551161
 20
682.6315179502092
 30
0.0
 11
131.9999104633975
 21
682.8182880081779
 31
0.0
  0
LINE
  5
AD
330
4A
100
AcDbEntity
  8
1
  6
Continuous
 62
     7
100
AcDbLine
 10
131.9999104633975
 20
707.8651827566268
 30
0.0
 11
130.1001914880131
 21
708.0000402105375
 31
0.0
  0
LINE
  5
AE
330
4A
100
AcDbEntity
  8
1
  6
Continuous
 62
     7
100
AcDbLine
 10
100.6999104633971
 20
754.3417353824018
 30
0.0
 11
119.6999104633971
 21
754.3417353824018
 31
0.0
  0
LINE
  5
AF
330
4A
100
AcDbEntity
  8
1
  6
Continuous
 62
     7
100
AcDbLine
 10
100.6999104633971
 20
754.3417353824018
 30
0.0
 11
99.69991046339707
 21
753.3417353824018
 31
0.0
  0
LINE
  5
B0
330
4A
100
AcDbEntity
  8
1
  6
Continuous
 62
     7
100
AcDbLine
 10
99.69991046339707
 20
740.3417353824018
 30
0.0
 11
99.69991046339707
 21
753.3417353824018
 31
0.0
  0
LINE
  5
B1
330
4A
100
AcDbEntity
  8
1
  6
Continuous
 62
     7
100
AcDbLine
 10
99.69991046339707
 20
753.3417353824018
 30
0.0
 11
120.6999104633971
 21
753.3417353824018
 31
0.0
  0
LINE
  5
B2
330
4A
100
AcDbEntity
  8
1
  6
Continuous
 62
     7
100
AcDbLine
 10
120.6999104633971
 20
742.0737861899709
 30
0.0
 11
99.69991046339707
 21
742.0737861899709
 31
0.0
  0
LINE
  5
B3
330
4A
100
AcDbEntity
  8
1
  6
Continuous
 62
     7
100
AcDbLine
 10
120.6999104633971
 20
753.3417353824018
 30
0.0
 11
119.6999104633971
 21
754.3417353824018
 31
0.0
  0
LINE
  5
B4
330
4A
100
AcDbEntity
  8
1
  6
Continuous
 62
     7
100
AcDbLine
 10
120.6999104633971
 20
753.3417353824018
 30
0.0
 11
120.6999104633971
 21
740.3417353824018
 31
0.0
  0
LINE
  5
B5
330
4A
100
AcDbEntity
  8
1
  6
Continuous
 62
     7
100
AcDbLine
 10
118.9499104633971
 20
719.969918140695
 30
0.0
 11
118.9499104633971
 21
733.8417353824018
 31
0.0
  0
LINE
  5
B6
330
4A
100
AcDbEntity
  8
1
  6
Continuous
 62
     2
100
AcDbLine
 10
119.6999104633971
 20
754.3417353824018
 30
0.0
 11
119.6999104633971
 21
742.0737861899709
 31
0.0
  0
LINE
  5
B7
330
4A
100
AcDbEntity
  8
1
  6
Continuous
 62
     2
100
AcDbLine
 10
119.6999104633971
 20
742.0737861899709
 30
0.0
 11
120.6999104633971
 21
740.3417353824018
 31
0.0
  0
LINE
  5
B8
330
4A
100
AcDbEntity
  8
1
  6
Continuous
 62
     7
100
AcDbLine
 10
133.1999104633968
 20
738.3417353824018
 30
0.0
 11
133.1999104633968
 21
740.3417353824018
 31
0.0
  0
LINE
  5
B9
330
4A
100
AcDbEntity
  8
1
  6
Continuous
 62
     7
100
AcDbLine
 10
101.4499104633971
 20
714.2080413271292
 30
0.0
 11
101.4499104633971
 21
733.8417353824018
 31
0.0
  0
LINE
  5
BA
330
4A
100
AcDbEntity
  8
1
  6
Continuous
 62
     7
100
AcDbLine
 10
132.6999104633968
 20
737.8417353824018
 30
0.0
 11
87.69991046339709
 21
737.8417353824018
 31
0.0
  0
LINE
  5
BB
330
4A
100
AcDbEntity
  8
1
  6
Continuous
 62
     7
100
AcDbLine
 10
87.19991046339709
 20
740.3417353824018
 30
0.0
 11
87.19991046339709
 21
738.3417353824018
 31
0.0
  0
LINE
  5
BC
330
4A
100
AcDbEntity
  8
1
  6
Continuous
 62
     7
100
AcDbLine
 10
87.19991046339709
 20
740.3417353824018
 30
0.0
 11
133.1999104633968
 21
740.3417353824018
 31
0.0
  0
LINE
  5
BD
330
4A
100
AcDbEntity
  8
1
  6
Continuous
 62
     2
100
AcDbLine
 10
99.69991046339707
 20
740.3417353824018
 30
0.0
 11
100.6999104633971
 21
742.0737861899709
 31
0.0
  0
LINE
  5
BE
330
4A
100
AcDbEntity
  8
1
  6
Continuous
 62
     2
100
AcDbLine
 10
100.6999104633971
 20
742.0737861899709
 30
0.0
 11
100.6999104633971
 21
754.3417353824018
 31
0.0
  0
LINE
  5
BF
330
4A
100
AcDbEntity
  8
1
  6
Continuous
 62
     7
100
AcDbLine
 10
535.8402325427062
 20
216.75003000003
 30
0.0
 11
535.8402325427062
 21
242.25003000003
 31
0.0
  0
ARC
  5
C0
330
4A
100
AcDbEntity
  8
1
  6
Continuous
 62
     7
100
AcDbCircle
 10
508.7442414712751
 20
205.25003000003
 30
0.0
 40
15.5
100
AcDbArc
 50
90.0
 51
102.5647403276541
  0
ARC
  5
C1
330
4A
100
AcDbEntity
  8
1
  6
Continuous
 62
     7
100
AcDbCircle
 10
507.4973753998492
 20
250.1302632604533
 30
0.0
 40
2.000000000010495
100
AcDbArc
 50
145.9522676295658
 51
185.8426577750576
  0
ARC
  5
C2
330
4A
100
AcDbEntity
  8
1
  6
Continuous
 62
     7
100
AcDbCircle
 10
478.2402325427063
 20
250.05003000003
 30
0.0
 40
2.0
100
AcDbArc
 50
0.0
 51
36.86989764584337
  0
ARC
  5
C3
330
4A
100
AcDbEntity
  8
1
  6
Continuous
 62
     7
100
AcDbCircle
 10
518.440232542706
 20
251.25003000003
 30
0.0
 40
13.00000000001216
100
AcDbArc
 50
185.8426577750615
 51
270.0
  0
ARC
  5
C4
330
4A
100
AcDbEntity
  8
1
  6
Continuous
 62
     7
100
AcDbCircle
 10
124.8030208792651
 20
250.0541884576399
 30
0.0
 40
1.999999999992802
100
AcDbArc
 50
143.2788714599941
 51
178.1550270729756
  0
ARC
  5
C5
330
4A
100
AcDbEntity
  8
1
  6
Continuous
 62
     7
100
AcDbCircle
 10
130.7999104633964
 20
249.8610167316873
 30
0.0
 40
7.99999999999991
100
AcDbArc
 50
260.87376869679
 51
266.7385203578568
  0
ARC
  5
C6
330
4A
100
AcDbEntity
  8
1
  6
Continuous
 62
     7
100
AcDbCircle
 10
110.1999104633967
 20
229.5000300000299
 30
0.0
 40
13.5000000000001
100
AcDbArc
 50
165.6883565795102
 51
273.2614796421437
  0
ARC
  5
C7
330
4A
100
AcDbEntity
  8
1
  6
Continuous
 62
     7
100
AcDbCircle
 10
95.59991046339658
 20
250.05003000003
 30
0.0
 40
2.0
100
AcDbArc
 50
0.0
 51
36.86989764583905
  0
ARC
  5
C8
330
4A
100
AcDbEntity
  8
1
  6
Continuous
 62
     7
100
AcDbCircle
 10
82.09991046339658
 20
236.6687118872389
 30
0.0
 40
15.49999999999999
100
AcDbArc
 50
345.6883565795103
 51
0.0
  0
ARC
  5
C9
330
4A
100
AcDbEntity
  8
1
  6
Continuous
 62
     7
100
AcDbCircle
 10
110.1999104633967
 20
229.5000300000299
 30
0.0
 40
23.00000000000005
100
AcDbArc
 50
123.2180009059109
 51
327.320149750906
  0
ARC
  5
CA
330
4A
100
AcDbEntity
  8
1
  6
Continuous
 62
     7
100
AcDbCircle
 10
110.1999104633967
 20
229.5000300000299
 30
0.0
 40
22.99999999999994
100
AcDbArc
 50
32.80879508619647
 51
56.52255421993759
  0
ARC
  5
CB
330
4A
100
AcDbEntity
  8
1
  6
Continuous
 62
     7
100
AcDbCircle
 10
130.7999104633964
 20
249.8610167316873
 30
0.0
 40
7.999999999999772
100
AcDbArc
 50
188.4575806093445
 51
260.87376869679
  0
ARC
  5
CC
330
4A
100
AcDbEntity
  8
1
  6
Continuous
 62
     7
100
AcDbCircle
 10
130.7999104633964
 20
249.8610167316873
 30
0.0
 40
8.000000000002936
100
AcDbArc
 50
178.1550270729749
 51
188.4575806093445
  0
ARC
  5
CD
330
4A
100
AcDbEntity
  8
1
  6
Continuous
 62
     7
100
AcDbCircle
 10
531.8402325427062
 20
242.25003000003
 30
0.0
 40
4.0
100
AcDbArc
 50
270.0
 51
0.0
  0
ARC
  5
CE
330
4A
100
AcDbEntity
  8
1
  6
Continuous
 62
     7
100
AcDbCircle
 10
531.8402325427062
 20
216.75003000003
 30
0.0
 40
4.0
100
AcDbArc
 50
0.0
 51
90.0
  0
ARC
  5
CF
330
4A
100
AcDbEntity
  8
1
  6
Continuous
 62
     7
100
AcDbCircle
 10
536.3402325427062
 20
207.00003000003
 30
0.0
 40
0.5
100
AcDbArc
 50
180.0
 51
270.0
  0
ARC
  5
D0
330
4A
100
AcDbEntity
  8
1
  6
Continuous
 62
     7
100
AcDbCircle
 10
536.3402325427062
 20
252.00003000003
 30
0.0
 40
0.5
100
AcDbArc
 50
90.0
 51
180.0
  0
ARC
  5
D1
330
4A
100
AcDbEntity
  8
1
  6
Continuous
 62
     7
100
AcDbCircle
 10
130.9499104633968
 20
719.969918140695
 30
0.0
 40
11.9999999999997
100
AcDbArc
 50
180.0
 51
265.9394926513531
  0
ARC
  5
D2
330
4A
100
AcDbEntity
  8
1
  6
Continuous
 62
     7
100
AcDbCircle
 10
71.44991046339705
 20
714.2080413271292
 30
0.0
 40
29.99999999999992
100
AcDbArc
 50
344.8973630808141
 51
0.0
  0
ARC
  5
D3
330
4A
100
AcDbEntity
  8
1
  6
Continuous
 62
     7
100
AcDbCircle
 10
87.69991046339709
 20
738.3417353824018
 30
0.0
 40
0.5
100
AcDbArc
 50
180.0
 51
270.0
  0
ARC
  5
D4
330
4A
100
AcDbEntity
  8
1
  6
Continuous
 62
     7
100
AcDbCircle
 10
132.6999104633968
 20
738.3417353824018
 30
0.0
 40
0.5
100
AcDbArc
 50
270.0
 51
0.0
  0
ARC
  5
D5
330
4A
100
AcDbEntity
  8
1
  6
Continuous
 62
     7
100
AcDbCircle
 10
122.9499104633969
 20
733.8417353824018
 30
0.0
 40
4.0
100
AcDbArc
 50
90.0
 51
180.0
  0
ARC
  5
D6
330
4A
100
AcDbEntity
  8
1
  6
Continuous
 62
     7
100
AcDbCircle
 10
97.44991046339707
 20
733.8417353824018
 30
0.0
 40
4.000000000000028
100
AcDbArc
 50
0.0
 51
90.0
  0
ENDBLK
  5
4C
330
4A
100
AcDbEntity
  8
0
100
AcDbBlockEnd
  0
BLOCK
  5
4E
330
4D
100
AcDbEntity
  8
0
100
AcDbBlockBegin
  2
81-100X-M21
 70
     0
 10
138.9951963409487
 20
280.0814904582829
 30
0.0
  3
81-100X-M21
  1

  0
LINE
  5
D7
330
4D
100
AcDbEntity
  8
1
  6
Continuous
 62
     7
100
AcDbLine
 10
496.8402325427053
 20
213.5000300000299
 30
0.0
 11
496.8402325427053
 21
214.525050868158
 31
0.0
  0
LINE
  5
D8
330
4D
100
AcDbEntity
  8
1
  6
Continuous
 62
     7
100
AcDbLine
 10
488.8402325427053
 20
213.5000300000299
 30
0.0
 11
488.8402325427053
 21
214.5250508681581
 31
0.0
  0
LINE
  5
D9
330
4D
100
AcDbEntity
  8
1
  6
Continuous
 62
     7
100
AcDbLine
 10
496.8402325427053
 20
260.5000300000299
 30
0.0
 11
496.8402325427053
 21
245.00003000003
 31
0.0
  0
LINE
  5
DA
330
4D
100
AcDbEntity
  8
1
  6
Continuous
 62
     7
100
AcDbLine
 10
488.8402325427053
 20
260.5000300000299
 30
0.0
 11
488.8402325427053
 21
245.00003000003
 31
0.0
  0
LINE
  5
DB
330
4D
100
AcDbEntity
  8
1
  6
Continuous
 62
     7
100
AcDbLine
 10
488.8402325427053
 20
245.00003000003
 30
0.0
 11
488.8402325427053
 21
245.0000300000276
 31
0.0
  0
LINE
  5
DC
330
4D
100
AcDbEntity
  8
1
  6
Continuous
 62
     7
100
AcDbLine
 10
496.8402325427053
 20
245.00003000003
 30
0.0
 11
496.8402325427053
 21
244.4750091319019
 31
0.0
  0
LINE
  5
DD
330
4D
100
AcDbEntity
  8
1
  6
Continuous
 62
     7
100
AcDbLine
 10
488.8402325427053
 20
245.00003000003
 30
0.0
 11
488.8402325427053
 21
244.4750091319019
 31
0.0
  0
LINE
  5
DE
330
4D
100
AcDbEntity
  8
1
  6
PHANTOM
 62
     5
100
AcDbLine
 10
461.8402325427053
 20
233.5000300000301
 30
0.0
 11
475.3402325427053
 21
233.5000300000301
 31
0.0
  0
LINE
  5
DF
330
4D
100
AcDbEntity
  8
1
  6
PHANTOM
 62
     5
100
AcDbLine
 10
461.8402325427053
 20
225.50003000003
 30
0.0
 11
475.3402325427053
 21
225.50003000003
 31
0.0
  0
LINE
  5
E0
330
4D
100
AcDbEntity
  8
1
  6
PHANTOM
 62
     4
100
AcDbLine
 10
148.9999104633963
 20
266.6061562099123
 30
0.0
 11
148.9999104633963
 21
206.7501833629744
 31
0.0
  0
LINE
  5
E1
330
4D
100
AcDbEntity
  8
1
  6
Continuous
 62
     7
100
AcDbLine
 10
131.9999104633965
 20
242.9743001006634
 30
0.0
 11
131.9999104633965
 21
215.0000300000299
 31
0.0
  0
LINE
  5
E2
330
4D
100
AcDbEntity
  8
1
  6
Continuous
 62
     7
100
AcDbLine
 10
131.9999104633965
 20
215.0000300000299
 30
0.0
 11
131.9999104633965
 21
214.2000300000298
 31
0.0
  0
LINE
  5
E3
330
4D
100
AcDbEntity
  8
1
  6
Continuous
 62
     7
100
AcDbLine
 10
131.9999104633965
 20
244.8000300000296
 30
0.0
 11
131.9999104633965
 21
241.7640418758647
 31
0.0
  0
LINE
  5
E4
330
4D
100
AcDbEntity
  8
1
  6
Continuous
 62
     7
100
AcDbLine
 10
144.4999104633965
 20
214.0000300000299
 30
0.0
 11
141.9196108921564
 21
214.0000300000299
 31
0.0
  0
LINE
  5
E5
330
4D
100
AcDbEntity
  8
1
  6
Continuous
 62
     7
100
AcDbLine
 10
144.4999104633965
 20
245.0000300000299
 30
0.0
 11
137.667497947403
 21
245.0000300000299
 31
0.0
  0
LINE
  5
E6
330
4D
100
AcDbEntity
  8
1
  6
Continuous
 62
     7
100
AcDbLine
 10
141.9196108921564
 20
214.0000300000299
 30
0.0
 11
132.1999104633966
 21
214.0000300000299
 31
0.0
  0
LINE
  5
E7
330
4D
100
AcDbEntity
  8
1
  6
Continuous
 62
     7
100
AcDbLine
 10
137.667497947403
 20
245.0000300000299
 30
0.0
 11
132.1999104633966
 21
245.0000300000297
 31
0.0
  0
LINE
  5
E8
330
4D
100
AcDbEntity
  8
1
  6
Continuous
 62
     7
100
AcDbLine
 10
144.4999104633976
 20
710.8417353824027
 30
0.0
 11
132.1999104633975
 21
710.8417353824026
 31
0.0
  0
LINE
  5
E9
330
4D
100
AcDbEntity
  8
1
  6
Continuous
 62
     7
100
AcDbLine
 10
144.4999104633976
 20
679.8417353824027
 30
0.0
 11
132.1999104633975
 21
679.8417353824027
 31
0.0
  0
LINE
  5
EA
330
4D
100
AcDbEntity
  8
1
  6
Continuous
 62
     7
100
AcDbLine
 10
131.9999104633976
 20
710.6417353824024
 30
0.0
 11
131.9999104633976
 21
680.0417353824026
 31
0.0
  0
ARC
  5
EB
330
4D
100
AcDbEntity
  8
1
  6
Continuous
 62
     7
100
AcDbCircle
 10
492.8402325427053
 20
260.5000300000299
 30
0.0
 40
4.0
100
AcDbArc
 50
0.0
 51
180.0
  0
ARC
  5
EC
330
4D
100
AcDbEntity
  8
1
  6
Continuous
 62
     7
100
AcDbCircle
 10
492.8402325427053
 20
229.50003000003
 30
0.0
 40
15.49999999999998
100
AcDbArc
 50
104.9552483166434
 51
255.0447516833566
  0
ARC
  5
ED
330
4D
100
AcDbEntity
  8
1
  6
Continuous
 62
     7
100
AcDbCircle
 10
492.8402325427053
 20
229.50003000003
 30
0.0
 40
15.50000000000007
100
AcDbArc
 50
284.9552483166432
 51
75.04475168335665
  0
ARC
  5
EE
330
4D
100
AcDbEntity
  8
1
  6
Continuous
 62
     7
100
AcDbCircle
 10
492.8402325427053
 20
213.5000300000299
 30
0.0
 40
4.0
100
AcDbArc
 50
180.0
 51
0.0
  0
ARC
  5
EF
330
4D
100
AcDbEntity
  8
1
  6
PHANTOM
 62
     5
100
AcDbCircle
 10
461.8402325427053
 20
229.50003000003
 30
0.0
 40
4.000000000000114
100
AcDbArc
 50
90.0
 51
270.0
  0
ARC
  5
F0
330
4D
100
AcDbEntity
  8
1
  6
PHANTOM
 62
     5
100
AcDbCircle
 10
508.8402325427053
 20
229.50003000003
 30
0.0
 40
3.999999999999994
100
AcDbArc
 50
280.0000000000027
 51
79.99999999999731
  0
ARC
  5
F1
330
4D
100
AcDbEntity
  8
1
  6
Continuous
 62
     7
100
AcDbCircle
 10
99.99991046339649
 20
237.0000300000297
 30
0.0
 40
59.9999999999999
100
AcDbArc
 50
355.2420766648554
 51
0.0
  0
ARC
  5
F2
330
4D
100
AcDbEntity
  8
1
  6
Continuous
 62
     7
100
AcDbCircle
 10
148.9999104633965
 20
257.5000300000297
 30
0.0
 40
6.999999999999877
100
AcDbArc
 50
42.62285460780517
 51
90.0
  0
ARC
  5
F3
330
4D
100
AcDbEntity
  8
1
  6
Continuous
 62
     7
100
AcDbCircle
 10
99.99991046339649
 20
237.0000300000297
 30
0.0
 40
60.00000000000001
100
AcDbArc
 50
0.0
 51
23.41271948360658
  0
ARC
  5
F4
330
4D
100
AcDbEntity
  8
1
  6
Continuous
 62
     7
100
AcDbCircle
 10
197.9999104633965
 20
237.0000300000297
 30
0.0
 40
59.99999999999994
100
AcDbArc
 50
203.1688797851183
 51
203.4127194836072
  0
ARC
  5
F5
330
4D
100
AcDbEntity
  8
1
  6
Continuous
 62
     7
100
AcDbCircle
 10
148.9999104633965
 20
257.5000300000297
 30
0.0
 40
7.0
100
AcDbArc
 50
90.0
 51
137.3771453921664
  0
ARC
  5
F6
330
4D
100
AcDbEntity
  8
1
  6
Continuous
 62
     7
100
AcDbCircle
 10
197.9999104633965
 20
237.0000300000297
 30
0.0
 40
60.0
100
AcDbArc
 50
156.5872805163922
 51
171.5155502586236
  0
ARC
  5
F7
330
4D
100
AcDbEntity
  8
1
  6
Continuous
 62
     7
100
AcDbCircle
 10
148.9999104633965
 20
216.5000300000297
 30
0.0
 40
7.000000000000189
100
AcDbArc
 50
222.6228546078152
 51
270.0
  0
ARC
  5
F8
330
4D
100
AcDbEntity
  8
1
  6
Continuous
 62
     7
100
AcDbCircle
 10
99.99991046339649
 20
237.0000300000297
 30
0.0
 40
59.99999999999999
100
AcDbArc
 50
336.5872805163928
 51
345.6245513557163
  0
ARC
  5
F9
330
4D
100
AcDbEntity
  8
1
  6
Continuous
 62
     7
100
AcDbCircle
 10
148.9999104633965
 20
216.5000300000297
 30
0.0
 40
7.0
100
AcDbArc
 50
270.0
 51
317.3771453921838
  0
ARC
  5
FA
330
4D
100
AcDbEntity
  8
1
  6
Continuous
 62
     7
100
AcDbCircle
 10
144.4999104633965
 20
229.5000300000299
 30
0.0
 40
15.49999999999999
100
AcDbArc
 50
9.36885182365491
 51
90.0
  0
ARC
  5
FB
330
4D
100
AcDbEntity
  8
1
  6
Continuous
 62
     7
100
AcDbCircle
 10
144.4999104633965
 20
229.5000300000299
 30
0.0
 40
15.50000000000005
100
AcDbArc
 50
331.497776196917
 51
0.0
  0
ARC
  5
FC
330
4D
100
AcDbEntity
  8
1
  6
Continuous
 62
     7
100
AcDbCircle
 10
144.4999104633965
 20
229.5000300000299
 30
0.0
 40
15.5
100
AcDbArc
 50
270.0
 51
331.497776196917
  0
ARC
  5
FD
330
4D
100
AcDbEntity
  8
1
  6
Continuous
 62
     7
100
AcDbCircle
 10
144.4999104633965
 20
229.5000300000299
 30
0.0
 40
15.5
100
AcDbArc
 50
0.0
 51
9.36885182365491
  0
ARC
  5
FE
330
4D
100
AcDbEntity
  8
1
  6
Continuous
 62
     7
100
AcDbCircle
 10
144.4999104633976
 20
695.3417353824027
 30
0.0
 40
15.5
100
AcDbArc
 50
270.0
 51
0.0
  0
ARC
  5
FF
330
4D
100
AcDbEntity
  8
1
  6
Continuous
 62
     7
100
AcDbCircle
 10
144.4999104633976
 20
695.3417353824027
 30
0.0
 40
15.5
100
AcDbArc
 50
0.0
 51
90.0
  0
ARC
  5
100
330
4D
100
AcDbEntity
  8
1
  6
Continuous
 62
     7
100
AcDbCircle
 10
156.275191362276
 20
695.3417353824027
 30
0.0
 40
3.724719101123513
100
AcDbArc
 50
274.3338293663761
 51
0.0
  0
ARC
  5
101
330
4D
100
AcDbEntity
  8
1
  6
Continuous
 62
     7
100
AcDbCircle
 10
141.7246295645199
 20
695.3417353824027
 30
0.0
 40
3.724719101123383
100
AcDbArc
 50
94.33382936637278
 51
180.0
  0
ARC
  5
102
330
4D
100
AcDbEntity
  8
1
  6
Continuous
 62
     7
100
AcDbCircle
 10
148.9999104633985
 20
599.3417353824025
 30
0.0
 40
100.0
100
AcDbArc
 50
90.0
 51
94.33382936637453
  0
ARC
  5
103
330
4D
100
AcDbEntity
  8
1
  6
Continuous
 62
     7
100
AcDbCircle
 10
141.7246295645199
 20
695.3417353824027
 30
0.0
 40
3.724719101123696
100
AcDbArc
 50
180.0
 51
265.6661706336274
  0
ARC
  5
104
330
4D
100
AcDbEntity
  8
1
  6
Continuous
 62
     7
100
AcDbCircle
 10
148.9999104633985
 20
791.3417353824027
 30
0.0
 40
100.0000000000001
100
AcDbArc
 50
265.6661706336254
 51
270.0
  0
ARC
  5
105
330
4D
100
AcDbEntity
  8
1
  6
Continuous
 62
     7
100
AcDbCircle
 10
148.9999104633985
 20
599.3417353824025
 30
0.0
 40
100.0000000000001
100
AcDbArc
 50
85.66617063362598
 51
90.0
  0
ARC
  5
106
330
4D
100
AcDbEntity
  8
1
  6
Continuous
 62
     7
100
AcDbCircle
 10
156.275191362276
 20
695.3417353824027
 30
0.0
 40
3.724719101121622
100
AcDbArc
 50
0.0
 51
85.66617063362372
  0
ARC
  5
107
330
4D
100
AcDbEntity
  8
1
  6
Continuous
 62
     7
100
AcDbCircle
 10
148.9999104633985
 20
791.3417353824027
 30
0.0
 40
100.0
100
AcDbArc
 50
270.0
 51
274.333829366374
  0
SPLINE
  5
108
330
4D
100
AcDbEntity
  8
1
  6
Continuous
 62
     7
100
AcDbSpline
210
0.0
220
0.0
230
1.0
 70
     8
 71
     3
 72
    25
 73
    21
 74
    19
 42
0.000000001
 43
0.0000000001
 44
0.00000001
 40
0.0
 40
0.0
 40
0.0
 40
0.0
 40
0.4083061153378613
 40
0.8124159427213896
 40
1.325418696420552
 40
1.835613199235027
 40
2.477513316534635
 40
3.118661298731157
 40
3.892123821873826
 40
4.665151316520149
 40
5.557812244293687
 40
6.450283438342045
 40
7.442185186521355
 40
8.433982355394388
 40
9.500014430768202
 40
10.5659931686858
 40
11.67776158913187
 40
12.78950677050814
 40
13.35317621738024
 40
13.9167453263574
 40
13.9167453263574
 40
13.9167453263574
 40
13.9167453263574
 10
493.1974824487155
 20
232.0786022916711
 30
0.0
 10
493.3256306826287
 20
232.1266382000061
 30
0.0
 10
493.5806101338308
 20
232.2222163303639
 30
0.0
 10
493.9324422057994
 20
232.497904293922
 30
0.0
 10
494.2568790254563
 20
232.8468899161255
 30
0.0
 10
494.5824477287433
 20
233.298033314152
 30
0.0
 10
494.8792723104013
 20
233.8178734887267
 30
0.0
 10
495.1735958605257
 20
234.4375199004634
 30
0.0
 10
495.4398387664558
 20
235.1169710219361
 30
0.0
 10
495.6961127933414
 20
235.8888812272984
 30
0.0
 10
495.9241403809149
 20
236.7108940954171
 30
0.0
 10
496.1352002091229
 20
237.6124045637363
 30
0.0
 10
496.3174604220931
 20
238.5538772180277
 30
0.0
 10
496.4772364440025
 20
239.5579884417525
 30
0.0
 10
496.6075445862805
 20
240.5912484046182
 30
0.0
 10
496.7114224166435
 20
241.6676501627392
 30
0.0
 10
496.7853551953959
 20
242.7618014483725
 30
0.0
 10
496.8226622794131
 20
243.690223983417
 30
0.0
 10
496.8380428009051
 20
244.4364230397438
 30
0.0
 10
496.8395026698882
 20
244.8121721620237
 30
0.0
 10
496.8402325427053
 20
245.00003000003
 30
0.0
 11
493.1974824487155
 21
232.0786022916711
 31
0.0
 11
493.571994378591
 21
232.2412513144765
 31
0.0
 11
493.8967447410269
 21
232.4817548501666
 31
0.0
 11
494.2493429523595
 21
232.8543757374059
 31
0.0
 11
494.5499175811584
 21
233.2666296915749
 31
0.0
 11
494.8722013776243
 21
233.8217593292389
 31
0.0
 11
495.1484364269851
 21
234.4003480711315
 31
0.0
 11
495.4334560548568
 21
235.1193808145319
 31
0.0
 11
495.677828495858
 21
235.852765854813
 31
0.0
 11
495.9182939066476
 21
236.7124285316428
 31
0.0
 11
496.1223035293914
 21
237.5812696597249
 31
0.0
 11
496.3120217794644
 21
238.5548589280779
 31
0.0
 11
496.4682441797793
 21
239.5342751754904
 31
0.0
 11
496.602381318196
 21
240.5918344474552
 31
0.0
 11
496.7049739351781
 21
241.652864807336
 31
0.0
 11
496.7803025561893
 21
242.7620783213206
 31
0.0
 11
496.8251915883245
 21
243.8729168890334
 31
0.0
 11
496.8364723041101
 21
244.4364734445316
 31
0.0
 11
496.8402325427053
 21
245.00003000003
 31
0.0
  0
SPLINE
  5
109
330
4D
100
AcDbEntity
  8
1
  6
Continuous
 62
     7
100
AcDbSpline
210
0.0
220
0.0
230
1.0
 70
     8
 71
     3
 72
    27
 73
    23
 74
    21
 42
0.000000001
 43
0.0000000001
 44
0.00000001
 40
0.0
 40
0.0
 40
0.0
 40
0.0
 40
0.5635691099583876
 40
1.127238557117263
 40
2.238983738624144
 40
3.350752159096081
 40
4.416730897015708
 40
5.482762972378868
 40
6.474560141235969
 40
7.466461889392159
 40
8.358933083414918
 40
9.251594011154136
 40
10.0246215057641
 40
10.79808402885564
 40
11.43923201099739
 40
12.0811321282047
 40
12.59132663089552
 40
13.10432938414683
 40
13.50843920731072
 40
13.91674533165406
 40
14.27825507390647
 40
14.63976480459912
 40
14.63976480459912
 40
14.63976480459912
 40
14.63976480459912
 10
488.8402325427053
 20
245.0000300000276
 30
0.0
 10
488.8409624155241
 20
244.8121721616957
 30
0.0
 10
488.8424222884706
 20
244.4364230390213
 30
0.0
 10
488.8578028083608
 20
243.6902239821956
 30
0.0
 10
488.8951098933391
 20
242.7618014472146
 30
0.0
 10
488.9690426715509
 20
241.6676501606956
 30
0.0
 10
489.0729205031432
 20
240.5912484055444
 30
0.0
 10
489.2032286413846
 20
239.55798843196
 30
0.0
 10
489.3630046774861
 20
238.5538772456477
 30
0.0
 10
489.5452648402749
 20
237.6124044585886
 30
0.0
 10
489.7563248381568
 20
236.7108944387201
 30
0.0
 10
489.9843518348208
 20
235.888880008266
 30
0.0
 10
490.2406277878807
 20
235.1169748950229
 30
0.0
 10
490.5068641266688
 20
234.4375064116627
 30
0.0
 10
490.801208244
 20
233.8179143737934
 30
0.0
 10
491.0979642407244
 20
233.2978928793487
 30
0.0
 10
491.4237400266379
 20
232.8472969510668
 30
0.0
 10
491.7474924985851
 20
232.4965021052192
 30
0.0
 10
492.1013800089727
 20
232.2262481530723
 30
0.0
 10
492.4627725317745
 20
232.0695066857544
 30
0.0
 10
492.8413699799443
 20
231.9986090977695
 30
0.0
 10
493.0787782931767
 20
232.0519378962982
 30
0.0
 10
493.1974824487155
 20
232.0786022916711
 30
0.0
 11
488.8402325427053
 21
245.0000300000276
 31
0.0
 11
488.8439927813005
 21
244.4364734445305
 31
0.0
 11
488.8552734970863
 21
243.8729168890334
 31
0.0
 11
488.9001625292218
 21
242.7620783213207
 31
0.0
 11
488.9754911502329
 21
241.652864807336
 31
0.0
 11
489.0780837672148
 21
240.5918344474552
 31
0.0
 11
489.2122209056317
 21
239.5342751754905
 31
0.0
 11
489.3684433059468
 21
238.554858928078
 31
0.0
 11
489.5581615560199
 21
237.581269659725
 31
0.0
 11
489.7621711787637
 21
236.7124285316428
 31
0.0
 11
490.0026365895534
 21
235.8527658548129
 31
0.0
 11
490.2470090305545
 21
235.1193808145318
 31
0.0
 11
490.5320286584262
 21
234.4003480711314
 31
0.0
 11
490.808263707787
 21
233.8217593292389
 31
0.0
 11
491.1305475042527
 21
233.2666296915749
 31
0.0
 11
491.4311221330515
 21
232.8543757374059
 31
0.0
 11
491.7837203443839
 21
232.4817548501666
 31
0.0
 11
492.1084707068197
 21
232.2412513144766
 31
0.0
 11
492.4829826366955
 21
232.0786022916711
 31
0.0
 11
492.8402325427053
 21
232.0232687967174
 31
0.0
 11
493.1974824487155
 21
232.0786022916711
 31
0.0
  0
SPLINE
  5
10A
330
4D
100
AcDbEntity
  8
1
  6
Continuous
 62
     7
100
AcDbSpline
210
0.0
220
0.0
230
1.0
 70
     8
 71
     3
 72
    25
 73
    21
 74
    19
 42
0.000000001
 43
0.0000000001
 44
0.00000001
 40
0.0
 40
0.0
 40
0.0
 40
0.0
 40
0.3693884349422533
 40
0.7379631240431033
 40
1.14827366893993
 40
1.557660040225457
 40
2.023771432016689
 40
2.489267627625211
 40
3.016183346390887
 40
3.542733637288743
 40
4.127686790808811
 40
4.712425909433036
 40
5.347208693667094
 40
5.981867031589335
 40
6.654590120750232
 40
7.327244189277595
 40
8.02362773964972
 40
8.719980403846566
 40
9.072285057531916
 40
9.424428414581616
 40
9.424428414581616
 40
9.424428414581616
 40
9.424428414581616
 10
493.1924428041414
 20
222.0712430836143
 30
0.0
 10
493.3127401185644
 20
222.0435086712158
 30
0.0
 10
493.5530697337239
 20
221.9881009311104
 30
0.0
 10
493.9011078910666
 20
221.8229508473871
 30
0.0
 10
494.2342466224557
 20
221.6070917968248
 30
0.0
 10
494.560578855376
 20
221.3274659210303
 30
0.0
 10
494.8657222798263
 20
220.999692010146
 30
0.0
 10
495.1612941936094
 20
220.6128763689611
 30
0.0
 10
495.4325696562256
 20
220.1846457278831
 30
0.0
 10
495.6896755971569
 20
219.7023240772608
 30
0.0
 10
495.9204334429333
 20
219.1856667131798
 30
0.0
 10
496.1320300379582
 20
218.6222783515008
 30
0.0
 10
496.3157272125412
 20
218.0318039303589
 30
0.0
 10
496.4758430717885
 20
217.4042581763131
 30
0.0
 10
496.6068816009931
 20
216.757112781664
 30
0.0
 10
496.7109573757366
 20
216.0842998183058
 30
0.0
 10
496.7852239884364
 20
215.3996173910108
 30
0.0
 10
496.8225932323119
 20
214.8189596608976
 30
0.0
 10
496.8380388944182
 20
214.3522343198732
 30
0.0
 10
496.8395014393067
 20
214.1174135177787
 30
0.0
 10
496.8402325427053
 20
214.0000300000285
 30
0.0
 11
493.1924428041414
 21
222.0712430836143
 31
0.0
 11
493.549161739322
 21
221.9753294615054
 31
0.0
 11
493.8844915478969
 21
221.8223548799082
 31
0.0
 11
494.2290505915471
 21
221.5995684184669
 31
0.0
 11
494.5411581669806
 21
221.3346418971592
 31
0.0
 11
494.8600556528488
 21
220.9946945151275
 31
0.0
 11
495.143594342459
 21
220.62551634773
 31
0.0
 11
495.4269239495006
 21
220.1812590932606
 31
0.0
 11
495.6753018485521
 21
219.7169707907065
 31
0.0
 11
495.9149692945846
 21
219.1833700908159
 31
0.0
 11
496.1210617792337
 21
218.6361537492517
 31
0.0
 11
496.3104608260857
 21
218.0302847996554
 31
0.0
 11
496.4676947489677
 21
217.4154118865214
 31
0.0
 11
496.6017710742022
 21
216.7561851473431
 31
0.0
 11
496.7047850888094
 21
216.0914659519682
 31
0.0
 11
496.7801611878206
 21
215.3991737499299
 31
0.0
 11
496.8251572661079
 21
214.7042763574199
 31
0.0
 11
496.8364637235559
 21
214.3521531787242
 31
0.0
 11
496.8402325427053
 21
214.0000300000285
 31
0.0
  0
SPLINE
  5
10B
330
4D
100
AcDbEntity
  8
1
  6
Continuous
 62
     7
100
AcDbSpline
210
0.0
220
0.0
230
1.0
 70
     8
 71
     3
 72
    27
 73
    23
 74
    21
 42
0.000000001
 43
0.0000000001
 44
0.00000001
 40
0.0
 40
0.0
 40
0.0
 40
0.0
 40
0.3521433567560424
 40
0.7044480106676705
 40
1.400800675077273
 40
2.097184225501676
 40
2.769838294033646
 40
3.442561383172298
 40
4.077219721058794
 40
4.712002505240278
 40
5.296741623802311
 40
5.881694777238813
 40
6.408245068039149
 40
6.935160786667748
 40
7.400656982102999
 40
7.866768373608817
 40
8.276154744419209
 40
8.686465288213427
 40
9.05503998023103
 40
9.424428423782745
 40
9.778116410379514
 40
10.13180439006604
 40
10.13180439006604
 40
10.13180439006604
 40
10.13180439006604
 10
488.8402325427053
 20
214.00003000003
 30
0.0
 10
488.8409636461034
 20
214.1174135176819
 30
0.0
 10
488.8424261925138
 20
214.352234319742
 30
0.0
 10
488.8578718553612
 20
214.8189596607842
 30
0.0
 10
488.8952410993739
 20
215.3996173909768
 30
0.0
 10
488.9695077121316
 20
216.0842998186538
 30
0.0
 10
489.0735834871722
 20
216.7571127809195
 30
0.0
 10
489.2046220155826
 20
217.4042581795134
 30
0.0
 10
489.364737877871
 20
218.0318039194813
 30
0.0
 10
489.5484350417613
 20
218.6222783909068
 30
0.0
 10
489.7600316738972
 20
219.1856665786808
 30
0.0
 10
489.9907893882995
 20
219.7023245589018
 30
0.0
 10
490.247895773298
 20
220.1846441270863
 30
0.0
 10
490.5191696784383
 20
220.6128820717273
 30
0.0
 10
490.8147467655099
 20
220.9996734524843
 30
0.0
 10
491.1198721443401
 20
221.3275319864894
 30
0.0
 10
491.4462640267864
 20
221.6068781348455
 30
0.0
 10
491.7791933411503
 20
221.8237192392494
 30
0.0
 10
492.1279386748956
 20
221.9855530525541
 30
0.0
 10
492.4809057754172
 20
222.0794591435324
 30
0.0
 10
492.8407001242477
 20
222.1174965685709
 30
0.0
 10
493.0751952450705
 20
222.0866609152818
 30
0.0
 10
493.1924428041414
 20
222.0712430836143
 30
0.0
 11
488.8402325427053
 21
214.00003000003
 31
0.0
 11
488.8440013618547
 21
214.3521531787249
 31
0.0
 11
488.8553078193027
 21
214.7042763574201
 31
0.0
 11
488.9003038975902
 21
215.39917374993
 31
0.0
 11
488.9756799966013
 21
216.0914659519682
 31
0.0
 11
489.0786940112084
 21
216.7561851473431
 31
0.0
 11
489.2127703364432
 21
217.4154118865214
 31
0.0
 11
489.3700042593254
 21
218.0302847996553
 31
0.0
 11
489.5594033061773
 21
218.6361537492516
 31
0.0
 11
489.7654957908265
 21
219.1833700908159
 31
0.0
 11
490.0051632368588
 21
219.7169707907065
 31
0.0
 11
490.2535411359102
 21
220.1812590932606
 31
0.0
 11
490.5368707429519
 21
220.62551634773
 31
0.0
 11
490.8204094325621
 21
220.9946945151274
 31
0.0
 11
491.1393069184303
 21
221.3346418971592
 31
0.0
 11
491.4514144938639
 21
221.5995684184668
 31
0.0
 11
491.7959735375142
 21
221.8223548799082
 31
0.0
 11
492.1313033460892
 21
221.9753294615055
 31
0.0
 11
492.4880222812695
 21
222.0712430836145
 31
0.0
 11
492.8402325427054
 21
222.1035405281649
 31
0.0
 11
493.1924428041414
 21
222.0712430836143
 31
0.0
  0
ARC
  5
10C
330
4D
100
AcDbEntity
  8
1
  6
Continuous
 62
     7
100
AcDbCircle
 10
150.4715645249144
 20
258.8543690724992
 30
0.0
 40
4.999999999999959
100
AcDbArc
 50
23.4127194836034
 51
42.62285460780378
  0
ARC
  5
10D
330
4D
100
AcDbEntity
  8
1
  6
Continuous
 62
     7
100
AcDbCircle
 10
147.5282564018791
 20
258.8543690725
 30
0.0
 40
5.000000000000137
100
AcDbArc
 50
137.3771453921671
 51
156.5872805163924
  0
ARC
  5
10E
330
4D
100
AcDbEntity
  8
1
  6
Continuous
 62
     7
100
AcDbCircle
 10
137.667497947403
 20
246.0000300000299
 30
0.0
 40
1.0
100
AcDbArc
 50
270.0
 51
351.5155502586215
  0
ARC
  5
10F
330
4D
100
AcDbEntity
  8
1
  6
Continuous
 62
     7
100
AcDbCircle
 10
132.1999104633966
 20
244.8000300000296
 30
0.0
 40
0.2000000000001023
100
AcDbArc
 50
90.0
 51
180.0
  0
ARC
  5
110
330
4D
100
AcDbEntity
  8
1
  6
Continuous
 62
     7
100
AcDbCircle
 10
132.1999104633966
 20
214.2000300000298
 30
0.0
 40
0.2000000000001023
100
AcDbArc
 50
180.0
 51
270.0
  0
ARC
  5
111
330
4D
100
AcDbEntity
  8
1
  6
Continuous
 62
     7
100
AcDbCircle
 10
150.4715645249142
 20
215.14569092756
 30
0.0
 40
5.000000000000118
100
AcDbArc
 50
317.3771453921842
 51
336.5872805163913
  0
ARC
  5
112
330
4D
100
AcDbEntity
  8
1
  6
Continuous
 62
     7
100
AcDbCircle
 10
147.5282564018785
 20
215.14569092756
 30
0.0
 40
5.000000000000062
100
AcDbArc
 50
203.4127194836086
 51
222.6228546078165
  0
ARC
  5
113
330
4D
100
AcDbEntity
  8
1
  6
Continuous
 62
     7
100
AcDbCircle
 10
141.9196108921564
 20
213.0000300000299
 30
0.0
 40
1.000000000000239
100
AcDbArc
 50
23.16887978511144
 51
90.0
  0
ARC
  5
114
330
4D
100
AcDbEntity
  8
1
  6
Continuous
 62
     7
100
AcDbCircle
 10
132.1999104633975
 20
680.0417353824026
 30
0.0
 40
0.1999999999998749
100
AcDbArc
 50
180.0
 51
270.0
  0
ARC
  5
115
330
4D
100
AcDbEntity
  8
1
  6
Continuous
 62
     7
100
AcDbCircle
 10
132.1999104633975
 20
710.6417353824024
 30
0.0
 40
0.2000000000001592
100
AcDbArc
 50
90.0
 51
180.0
  0
ENDBLK
  5
4F
330
4D
100
AcDbEntity
  8
0
100
AcDbBlockEnd
  0
BLOCK
  5
51
330
50
100
AcDbEntity
  8
0
100
AcDbBlockBegin
  2
32-1-16
 70
     0
 10
340.4871885699056
 20
388.5008696999923
 30
0.0
  3
32-1-16
  1

  0
LINE
  5
116
330
50
100
AcDbEntity
  8
1
  6
Continuous
 62
     7
100
AcDbLine
 10
497.1081817351364
 20
255.00003000003
 30
0.0
 11
496.8402325427053
 21
255.00003000003
 31
0.0
  0
LINE
  5
117
330
50
100
AcDbEntity
  8
1
  6
Continuous
 62
     7
100
AcDbLine
 10
504.3402325427053
 20
264.00003000003
 30
0.0
 11
504.398253604436
 21
264.00003000003
 31
0.0
  0
LINE
  5
118
330
50
100
AcDbEntity
  8
1
  6
Continuous
 62
     7
100
AcDbLine
 10
481.2822114809746
 20
264.00003000003
 30
0.0
 11
481.3402325427053
 21
264.00003000003
 31
0.0
  0
LINE
  5
119
330
50
100
AcDbEntity
  8
1
  6
Continuous
 62
     7
100
AcDbLine
 10
506.1402325427054
 20
255.00003000003
 30
0.0
 11
497.1081817351364
 21
255.00003000003
 31
0.0
  0
LINE
  5
11A
330
50
100
AcDbEntity
  8
1
  6
Continuous
 62
     7
100
AcDbLine
 10
502.6081817351364
 20
265.00003000003
 30
0.0
 11
483.0722833502744
 21
265.00003000003
 31
0.0
  0
LINE
  5
11B
330
50
100
AcDbEntity
  8
1
  6
Continuous
 62
     7
100
AcDbLine
 10
478.8402325427053
 20
255.5717788212002
 30
0.0
 11
478.8402325427053
 21
262.7132072497431
 31
0.0
  0
LINE
  5
11C
330
50
100
AcDbEntity
  8
1
  6
Continuous
 62
     7
100
AcDbLine
 10
506.8402325427053
 20
262.713207249743
 30
0.0
 11
506.8402325427053
 21
255.5717788212002
 31
0.0
  0
LINE
  5
11D
330
50
100
AcDbEntity
  8
1
  6
Continuous
 62
     7
100
AcDbLine
 10
488.8402325427053
 20
255.00003000003
 30
0.0
 11
479.5402325427054
 21
255.00003000003
 31
0.0
  0
LINE
  5
11E
330
50
100
AcDbEntity
  8
1
  6
Continuous
 62
     7
100
AcDbLine
 10
94.74952113650218
 20
694.1025946933039
 30
0.0
 11
101.4015884843271
 21
682.5808760715012
 31
0.0
  0
LINE
  5
11F
330
50
100
AcDbEntity
  8
1
  6
Continuous
 62
     7
100
AcDbLine
 10
101.4015884843271
 20
708.1025946933039
 30
0.0
 11
94.74952113650218
 21
696.5808760715012
 31
0.0
  0
LINE
  5
120
330
50
100
AcDbEntity
  8
1
  6
Continuous
 62
     7
100
AcDbLine
 10
102.3543278138103
 20
265.0000300000309
 30
0.0
 11
100.4319612709655
 21
265.0000300000309
 31
0.0
  0
LINE
  5
121
330
50
100
AcDbEntity
  8
1
  6
Continuous
 62
     7
100
AcDbLine
 10
110.1999104633967
 20
255.0000300000309
 30
0.0
 11
123.4999104633967
 21
255.0000300000309
 31
0.0
  0
LINE
  5
122
330
50
100
AcDbEntity
  8
1
  6
Continuous
 62
     7
100
AcDbLine
 10
123.4999104633967
 20
255.0000300000309
 30
0.0
 11
123.3869104633968
 21
255.0000300000309
 31
0.0
  0
LINE
  5
123
330
50
100
AcDbEntity
  8
1
  6
Continuous
 62
     7
100
AcDbLine
 10
121.6999104633967
 20
264.0000300000309
 30
0.0
 11
121.7579315251274
 21
264.0000300000309
 31
0.0
  0
LINE
  5
124
330
50
100
AcDbEntity
  8
1
  6
Continuous
 62
     7
100
AcDbLine
 10
119.9678596558277
 20
265.0000300000309
 30
0.0
 11
117.9946584179181
 21
265.0000300000309
 31
0.0
  0
LINE
  5
125
330
50
100
AcDbEntity
  8
1
  6
Continuous
 62
     7
100
AcDbLine
 10
118.9982324424662
 20
682.5808760715012
 30
0.0
 11
125.6502997902909
 21
694.1025946933039
 31
0.0
  0
LINE
  5
126
330
50
100
AcDbEntity
  8
1
  6
Continuous
 62
     7
100
AcDbLine
 10
125.6502997902909
 20
696.5808760715012
 30
0.0
 11
118.9982324424662
 21
708.1025946933039
 31
0.0
  0
LINE
  5
127
330
50
100
AcDbEntity
  8
1
  6
Continuous
 62
     7
100
AcDbLine
 10
116.8519778112215
 20
709.3417353824025
 30
0.0
 11
103.5478431155714
 21
709.3417353824025
 31
0.0
  0
LINE
  5
128
330
50
100
AcDbEntity
  8
1
  6
Continuous
 62
     7
100
AcDbLine
 10
96.89991046339668
 20
255.0000300000309
 30
0.0
 11
110.1999104633967
 21
255.0000300000309
 31
0.0
  0
LINE
  5
129
330
50
100
AcDbEntity
  8
1
  6
Continuous
 62
     7
100
AcDbLine
 10
97.01291046339668
 20
255.0000300000309
 30
0.0
 11
96.89991046339668
 21
255.0000300000309
 31
0.0
  0
LINE
  5
12A
330
50
100
AcDbEntity
  8
1
  6
Continuous
 62
     7
100
AcDbLine
 10
98.64188940166618
 20
264.0000300000309
 30
0.0
 11
98.69991046339659
 21
264.0000300000309
 31
0.0
  0
ARC
  5
12B
330
50
100
AcDbEntity
  8
1
  6
Continuous
 62
     7
100
AcDbCircle
 10
503.3402325427053
 20
259.1424930354716
 30
0.0
 40
4.999999999999975
100
AcDbArc
 50
45.57299599919402
 51
74.66244233044463
  0
ARC
  5
12C
330
50
100
AcDbEntity
  8
1
  6
Continuous
 62
     7
100
AcDbCircle
 10
482.3402325427053
 20
259.1424930354716
 30
0.0
 40
4.999999999999975
100
AcDbArc
 50
225.572995999194
 51
235.9442022574331
  0
ARC
  5
12D
330
50
100
AcDbEntity
  8
1
  6
Continuous
 62
     7
100
AcDbCircle
 10
482.3402325427053
 20
259.1424930354716
 30
0.0
 40
4.999999999999955
100
AcDbArc
 50
105.3375576695529
 51
134.4270040008051
  0
ARC
  5
12E
330
50
100
AcDbEntity
  8
1
  6
Continuous
 62
     7
100
AcDbCircle
 10
503.3402325427053
 20
259.1424930354716
 30
0.0
 40
5.00000000000008
100
AcDbArc
 50
304.055797742569
 51
314.427004000806
  0
ARC
  5
12F
330
50
100
AcDbEntity
  8
1
  6
Continuous
 62
     7
100
AcDbCircle
 10
110.1999104633966
 20
695.3417353824025
 30
0.0
 40
10.76794919243127
100
AcDbArc
 50
90.0
 51
222.0170600646469
  0
ARC
  5
130
330
50
100
AcDbEntity
  8
1
  6
Continuous
 62
     7
100
AcDbCircle
 10
110.1999104633966
 20
695.3417353824025
 30
0.0
 40
10.76794919243103
100
AcDbArc
 50
317.9829399353528
 51
90.0
  0
ARC
  5
131
330
50
100
AcDbEntity
  8
1
  6
Continuous
 62
     7
100
AcDbCircle
 10
110.1999104633966
 20
695.3417353824025
 30
0.0
 40
15.49999999999993
100
AcDbArc
 50
180.0
 51
184.5853790848392
  0
ARC
  5
132
330
50
100
AcDbEntity
  8
1
  6
Continuous
 62
     7
100
AcDbCircle
 10
110.1999104633966
 20
695.3417353824025
 30
0.0
 40
15.49999999999981
100
AcDbArc
 50
235.414620915161
 51
238.9270490278461
  0
ARC
  5
133
330
50
100
AcDbEntity
  8
1
  6
Continuous
 62
     7
100
AcDbCircle
 10
110.1999104633966
 20
695.3417353824025
 30
0.0
 40
15.49999999999978
100
AcDbArc
 50
175.4146209151604
 51
180.0
  0
ARC
  5
134
330
50
100
AcDbEntity
  8
1
  6
Continuous
 62
     7
100
AcDbCircle
 10
110.1999104633966
 20
695.3417353824025
 30
0.0
 40
15.50000000000007
100
AcDbArc
 50
115.4146209151615
 51
124.5853790848387
  0
ARC
  5
135
330
50
100
AcDbEntity
  8
1
  6
Continuous
 62
     7
100
AcDbCircle
 10
120.6999104633967
 20
259.1424930354726
 30
0.0
 40
5.000000000000103
100
AcDbArc
 50
304.0557977425671
 51
74.66244233044571
  0
ARC
  5
136
330
50
100
AcDbEntity
  8
1
  6
Continuous
 62
     7
100
AcDbCircle
 10
110.1999104633966
 20
695.3417353824025
 30
0.0
 40
15.49999999999964
100
AcDbArc
 50
355.4146209151608
 51
0.0
  0
ARC
  5
137
330
50
100
AcDbEntity
  8
1
  6
Continuous
 62
     7
100
AcDbCircle
 10
110.1999104633966
 20
695.3417353824025
 30
0.0
 40
15.4999999999999
100
AcDbArc
 50
301.0729509721535
 51
304.5853790848392
  0
ARC
  5
138
330
50
100
AcDbEntity
  8
1
  6
Continuous
 62
     7
100
AcDbCircle
 10
110.1999104633966
 20
695.3417353824025
 30
0.0
 40
15.5
100
AcDbArc
 50
0.0
 51
4.58537908483967
  0
ARC
  5
139
330
50
100
AcDbEntity
  8
1
  6
Continuous
 62
     7
100
AcDbCircle
 10
110.1999104633966
 20
695.3417353824025
 30
0.0
 40
15.49999999999996
100
AcDbArc
 50
55.41462091516099
 51
64.58537908483949
  0
ARC
  5
13A
330
50
100
AcDbEntity
  8
1
  6
Continuous
 62
     7
100
AcDbCircle
 10
99.69991046339659
 20
259.1424930354726
 30
0.0
 40
5.000000000000021
100
AcDbArc
 50
105.3375576695531
 51
235.9442022574337
  0
SPLINE
  5
13B
330
50
100
AcDbEntity
  8
1
  6
Continuous
 62
     7
100
AcDbSpline
210
0.0
220
0.0
230
1.0
 70
     8
 71
     3
 72
    15
 73
    11
 74
     9
 42
0.000000001
 43
0.0000000001
 44
0.00000001
 40
0.0
 40
0.0
 40
0.0
 40
0.0
 40
0.3005600958934422
 40
0.6013520082050259
 40
1.084248806122806
 40
1.567084938335465
 40
2.063567363667192
 40
2.560021741706996
 40
2.810688804486414
 40
3.061174403760816
 40
3.061174403760816
 40
3.061174403760816
 40
3.061174403760816
 10
488.8402325427065
 20
256.094259266909
 30
0.0
 10
488.7461132288058
 20
256.0598774580673
 30
0.0
 10
488.5578020036535
 20
255.9910873360502
 30
0.0
 10
488.212074211758
 20
255.8852774691928
 30
0.0
 10
487.8028677116443
 20
255.7805242748792
 30
0.0
 10
487.324128031727
 20
255.6875915755094
 30
0.0
 10
486.8364778700394
 20
255.6209863139368
 30
0.0
 10
486.4230868476109
 20
255.5875842677352
 30
0.0
 10
486.0907869012394
 20
255.57374019535
 30
0.0
 10
485.9237304990036
 20
255.5724324499022
 30
0.0
 10
485.8402325427036
 20
255.5717788212002
 30
0.0
 11
488.8402325427065
 21
256.094259266909
 31
0.0
 11
488.5570157078623
 21
255.993638215788
 31
0.0
 11
488.2696525330604
 21
255.904766506895
 31
0.0
 11
487.8018066426597
 21
255.7851440123439
 31
0.0
 11
487.327874615161
 21
255.6928446916777
 31
0.0
 11
486.8359779084673
 21
255.6255213739045
 31
0.0
 11
486.3411583564851
 21
255.5852651854975
 31
0.0
 11
486.0906954495944
 21
255.5751504122746
 31
0.0
 11
485.8402325427036
 21
255.5717788212002
 31
0.0
  0
SPLINE
  5
13C
330
50
100
AcDbEntity
  8
1
  6
Continuous
 62
     7
100
AcDbSpline
210
0.0
220
0.0
230
1.0
 70
     8
 71
     3
 72
    15
 73
    11
 74
     9
 42
0.000000001
 43
0.0000000001
 44
0.00000001
 40
0.0
 40
0.0
 40
0.0
 40
0.0
 40
0.3005600958899705
 40
0.601352008198265
 40
1.084248806116072
 40
1.567084938328676
 40
2.06356736366029
 40
2.560021741700263
 40
2.810688804479681
 40
3.061174403753799
 40
3.061174403753799
 40
3.061174403753799
 40
3.061174403753799
 10
496.8402325427107
 20
256.0942592669066
 30
0.0
 10
496.9343518566104
 20
256.0598774580653
 30
0.0
 10
497.1226630817605
 20
255.9910873360491
 30
0.0
 10
497.4683908736536
 20
255.8852774691925
 30
0.0
 10
497.8775973737667
 20
255.7805242748792
 30
0.0
 10
498.3563370536838
 20
255.6875915755094
 30
0.0
 10
498.8439872153714
 20
255.6209863139368
 30
0.0
 10
499.2573782378002
 20
255.5875842677354
 30
0.0
 10
499.5896781841712
 20
255.5737401953498
 30
0.0
 10
499.7567345864072
 20
255.5724324499022
 30
0.0
 10
499.840232542707
 20
255.5717788212002
 30
0.0
 11
496.8402325427107
 21
256.0942592669066
 31
0.0
 11
497.1234493775516
 21
255.9936382157869
 31
0.0
 11
497.4108125523504
 21
255.9047665068949
 31
0.0
 11
497.8786584427511
 21
255.7851440123439
 31
0.0
 11
498.3525904702498
 21
255.6928446916777
 31
0.0
 11
498.8444871769434
 21
255.6255213739045
 31
0.0
 11
499.3393067289257
 21
255.5852651854975
 31
0.0
 11
499.5897696358164
 21
255.5751504122746
 31
0.0
 11
499.840232542707
 21
255.5717788212002
 31
0.0
  0
SPLINE
  5
13D
330
50
100
AcDbEntity
  8
1
  6
Continuous
 62
     7
100
AcDbSpline
210
0.0
220
0.0
230
1.0
 70
     8
 71
     3
 72
    45
 73
    41
 74
    39
 42
0.000000001
 43
0.0000000001
 44
0.00000001
 40
0.0
 40
0.0
 40
0.0
 40
0.0
 40
0.2504855923915134
 40
0.5011526542645676
 40
0.9976070319516792
 40
1.494089457491067
 40
1.976925590205624
 40
2.459822388860538
 40
2.921035295681512
 40
3.382351332272776
 40
3.815601776448544
 40
4.249013692942273
 40
4.650432700713917
 40
5.052091376296159
 40
5.421199499126138
 40
5.790635502078937
 40
6.131267663831925
 40
6.472271412402106
 40
6.793085244011706
 40
7.114166556699474
 40
7.42792854150538
 40
7.741690526311229
 40
8.062771838998986
 40
8.383585670608547
 40
8.724589419178727
 40
9.06522158093173
 40
9.434657583884448
 40
9.80376570671459
 40
10.20542438229697
 40
10.60684339006865
 40
11.04025530656255
 40
11.47350575073822
 40
11.93482178732946
 40
12.39603469415042
 40
12.87893149280522
 40
13.36176762551983
 40
13.85825005105927
 40
14.35470442874619
 40
14.60537149061742
 40
14.855857083007
 40
14.855857083007
 40
14.855857083007
 40
14.855857083007
 10
499.8402325426999
 20
262.7132072497432
 30
0.0
 10
499.9237304776023
 20
262.7125535618254
 30
0.0
 10
500.0907868390604
 20
262.7112457013235
 30
0.0
 10
500.4230871633367
 20
262.6974028090116
 30
0.0
 10
500.836475266466
 20
262.6639917127974
 30
0.0
 10
501.3241373967703
 20
262.5974235621732
 30
0.0
 10
501.8028338434682
 20
262.5043568074932
 30
0.0
 10
502.2640293480583
 20
262.3868250964207
 30
0.0
 10
502.7103877368069
 20
262.2436422238102
 30
0.0
 10
503.1314922397214
 20
262.0786773136037
 30
0.0
 10
503.5320468835067
 20
261.8894604148974
 30
0.0
 10
503.9007434730225
 20
261.6818931974876
 30
0.0
 10
504.2433597647663
 20
261.4520214412262
 30
0.0
 10
504.5489076081975
 20
261.2076381333859
 30
0.0
 10
504.8230600737992
 20
260.9436068839582
 30
0.0
 10
505.0563037386872
 20
260.6688495400072
 30
0.0
 10
505.2531827720814
 20
260.378148988481
 30
0.0
 10
505.4062823142374
 20
260.0801633340773
 30
0.0
 10
505.5188297847036
 20
259.7714627149886
 30
0.0
 10
505.5853812950389
 20
259.4588920781783
 30
0.0
 10
505.6088565517176
 20
259.1424930354717
 30
0.0
 10
505.585381295039
 20
258.8260939927649
 30
0.0
 10
505.5188297847038
 20
258.5135233559547
 30
0.0
 10
505.4062823142376
 20
258.204822736866
 30
0.0
 10
505.2531827720817
 20
257.9068370824621
 30
0.0
 10
505.0563037386875
 20
257.6161365309359
 30
0.0
 10
504.8230600737998
 20
257.3413791869849
 30
0.0
 10
504.5489076081976
 20
257.0773479375572
 30
0.0
 10
504.2433597647664
 20
256.832964629717
 30
0.0
 10
503.9007434730225
 20
256.6030928734555
 30
0.0
 10
503.5320468835068
 20
256.3955256560459
 30
0.0
 10
503.1314922397214
 20
256.2063087573393
 30
0.0
 10
502.7103877368068
 20
256.041343847133
 30
0.0
 10
502.2640293480582
 20
255.8981609745223
 30
0.0
 10
501.8028338434685
 20
255.7806292634498
 30
0.0
 10
501.3241373967702
 20
255.6875625087699
 30
0.0
 10
500.8364752664662
 20
255.6209943581456
 30
0.0
 10
500.4230871633375
 20
255.5875832619316
 30
0.0
 10
500.0907868390624
 20
255.57374036962
 30
0.0
 10
499.9237304776054
 20
255.572432509118
 30
0.0
 10
499.8402325427038
 20
255.5717788212002
 30
0.0
 11
499.8402325426999
 21
262.7132072497432
 31
0.0
 11
500.0906954495925
 21
262.7098356586689
 31
0.0
 11
500.341158356485
 21
262.6997208854457
 31
0.0
 11
500.8359779084673
 21
262.6594646970386
 31
0.0
 11
501.3278746151609
 21
262.5921413792653
 31
0.0
 11
501.8018066426596
 21
262.4998420585991
 31
0.0
 11
502.2696525330604
 21
262.3802195640481
 31
0.0
 11
502.7087416215608
 21
262.239088001378
 31
0.0
 11
503.1380749733001
 21
262.070311939931
 31
0.0
 11
503.5296426424939
 21
261.8848915849802
 31
0.0
 11
503.9069710052121
 21
261.6716565121649
 31
0.0
 11
504.239998124393
 21
261.4475356565716
 31
0.0
 11
504.5531594816146
 21
261.1960209328249
 31
0.0
 11
504.8184966107194
 21
260.9394336874446
 31
0.0
 11
505.0569899072747
 21
260.6572920420989
 31
0.0
 11
505.2472256313803
 21
260.374731182916
 31
0.0
 11
505.4026504979577
 21
260.0712074315204
 31
0.0
 11
505.5116053301022
 21
259.7694619106505
 31
0.0
 11
505.578600871805
 21
259.4554478870373
 31
0.0
 11
505.6010918536069
 21
259.1424930354716
 31
0.0
 11
505.578600871805
 21
258.8295381839059
 31
0.0
 11
505.5116053301022
 21
258.5155241602928
 31
0.0
 11
505.4026504979578
 21
258.2137786394229
 31
0.0
 11
505.2472256313806
 21
257.9102548880272
 31
0.0
 11
505.056989907275
 21
257.6276940288442
 31
0.0
 11
504.8184966107198
 21
257.3455523834986
 31
0.0
 11
504.5531594816148
 21
257.0889651381182
 31
0.0
 11
504.239998124393
 21
256.8374504143716
 31
0.0
 11
503.9069710052121
 21
256.6133295587782
 31
0.0
 11
503.5296426424937
 21
256.4000944859629
 31
0.0
 11
503.1380749733
 21
256.2146741310121
 31
0.0
 11
502.7087416215608
 21
256.0458980695652
 31
0.0
 11
502.2696525330604
 21
255.904766506895
 31
0.0
 11
501.8018066426597
 21
255.7851440123439
 31
0.0
 11
501.327874615161
 21
255.6928446916777
 31
0.0
 11
500.8359779084673
 21
255.6255213739045
 31
0.0
 11
500.3411583564852
 21
255.5852651854975
 31
0.0
 11
500.0906954495945
 21
255.5751504122746
 31
0.0
 11
499.8402325427038
 21
255.5717788212002
 31
0.0
  0
SPLINE
  5
13E
330
50
100
AcDbEntity
  8
1
  6
Continuous
 62
     7
100
AcDbSpline
210
0.0
220
0.0
230
1.0
 70
     8
 71
     3
 72
    17
 73
    13
 74
    11
 42
0.000000001
 43
0.0000000001
 44
0.00000001
 40
0.0
 40
0.0
 40
0.0
 40
0.0
 40
0.2504855999113066
 40
0.501152663488045
 40
0.9976070436379814
 40
1.494089471277386
 40
1.976925605444499
 40
2.459822404314905
 40
2.921035309756506
 40
3.382351340800946
 40
3.393058314642011
 40
3.403764051502471
 40
3.403764051502471
 40
3.403764051502471
 40
3.403764051502471
 10
499.8402325427107
 20
262.7132072497432
 30
0.0
 10
499.7567346031889
 20
262.7125535680591
 30
0.0
 10
499.5896782344697
 20
262.7112457166234
 30
0.0
 10
499.2573779484197
 20
262.6974026998299
 30
0.0
 10
498.8439895204489
 20
262.663992558385
 30
0.0
 10
498.3563287114764
 20
262.5974204914208
 30
0.0
 10
497.8776274826481
 20
262.5043678876378
 30
0.0
 10
497.4164494437201
 20
262.3867844809608
 30
0.0
 10
496.9700286725459
 20
262.2437862556076
 30
0.0
 10
496.6803215096525
 20
262.1297741683206
 30
0.0
 10
496.5325571545272
 20
262.0660759721236
 30
0.0
 10
496.5260091479203
 20
262.0632354416413
 30
0.0
 10
496.5227353365976
 20
262.0618152518791
 30
0.0
 11
499.8402325427107
 21
262.7132072497432
 31
0.0
 11
499.5897696358182
 21
262.7098356586689
 31
0.0
 11
499.3393067289256
 21
262.6997208854457
 31
0.0
 11
498.8444871769432
 21
262.6594646970386
 31
0.0
 11
498.3525904702497
 21
262.5921413792654
 31
0.0
 11
497.878658442751
 21
262.4998420585993
 31
0.0
 11
497.4108125523503
 21
262.3802195640482
 31
0.0
 11
496.9717234638498
 21
262.239088001378
 31
0.0
 11
496.5423901121105
 21
262.0703119399311
 31
0.0
 11
496.5325583908834
 21
262.0660720608021
 31
0.0
 11
496.5227353365976
 21
262.0618152518791
 31
0.0
  0
SPLINE
  5
13F
330
50
100
AcDbEntity
  8
1
  6
Continuous
 62
     7
100
AcDbSpline
210
0.0
220
0.0
230
1.0
 70
     8
 71
     3
 72
    17
 73
    13
 74
    11
 42
0.000000001
 43
0.0000000001
 44
0.00000001
 40
0.0
 40
0.0
 40
0.0
 40
0.0
 40
0.2504855999114203
 40
0.501152663488102
 40
0.997607043637925
 40
1.494089471277394
 40
1.976925605444573
 40
2.459822404314965
 40
2.92103530975662
 40
3.38235134080123
 40
3.393058314636205
 40
3.403764051490381
 40
3.403764051490381
 40
3.403764051490381
 40
3.403764051490381
 10
485.8402325426999
 20
262.7132072497432
 30
0.0
 10
485.9237304822218
 20
262.7125535680591
 30
0.0
 10
486.090786850941
 20
262.7112457166233
 30
0.0
 10
486.4230871369909
 20
262.6974026998298
 30
0.0
 10
486.8364755649616
 20
262.663992558385
 30
0.0
 10
487.324136373934
 20
262.5974204914208
 30
0.0
 10
487.8028376027624
 20
262.5043678876377
 30
0.0
 10
488.2640156416904
 20
262.3867844809606
 30
0.0
 10
488.7104364128652
 20
262.2437862556077
 30
0.0
 10
489.0001435757558
 20
262.1297741683211
 30
0.0
 10
489.1479079308781
 20
262.0660759721261
 30
0.0
 10
489.1544559374807
 20
262.0632354416451
 30
0.0
 10
489.1577297488018
 20
262.0618152518837
 30
0.0
 11
485.8402325426999
 21
262.7132072497432
 31
0.0
 11
486.0906954495925
 21
262.7098356586689
 31
0.0
 11
486.341158356485
 21
262.6997208854457
 31
0.0
 11
486.8359779084673
 21
262.6594646970386
 31
0.0
 11
487.3278746151609
 21
262.5921413792653
 31
0.0
 11
487.8018066426596
 21
262.4998420585991
 31
0.0
 11
488.2696525330604
 21
262.3802195640481
 31
0.0
 11
488.7087416215609
 21
262.2390880013779
 31
0.0
 11
489.1380749733004
 21
262.0703119399311
 31
0.0
 11
489.1479066945219
 21
262.0660720608045
 31
0.0
 11
489.1577297488018
 21
262.0618152518837
 31
0.0
  0
SPLINE
  5
140
330
50
100
AcDbEntity
  8
1
  6
Continuous
 62
     7
100
AcDbSpline
210
0.0
220
0.0
230
1.0
 70
     8
 71
     3
 72
    45
 73
    41
 74
    39
 42
0.000000001
 43
0.0000000001
 44
0.00000001
 40
0.0
 40
0.0
 40
0.0
 40
0.0
 40
0.2504855923913997
 40
0.5011526542645106
 40
0.997607031951679
 40
1.494089457491067
 40
1.976925590205568
 40
2.459822388860482
 40
2.921035295681347
 40
3.382351332272612
 40
3.815601776448123
 40
4.249013692941951
 40
4.650432700713642
 40
5.052091376295973
 40
5.421199499126033
 40
5.790635502078832
 40
6.13126766383182
 40
6.472271412401976
 40
6.793085244011555
 40
7.114166556699312
 40
7.42792854150521
 40
7.741690526311051
 40
8.06277183899882
 40
8.383585670608381
 40
8.724589419178589
 40
9.065221580931592
 40
9.434657583884347
 40
9.803765706714447
 40
10.20542438229679
 40
10.60684339006851
 40
11.04025530656232
 40
11.47350575073788
 40
11.93482178732902
 40
12.39603469415002
 40
12.87893149280499
 40
13.36176762551949
 40
13.85825005105887
 40
14.35470442874597
 40
14.60537149061731
 40
14.85585708300678
 40
14.85585708300678
 40
14.85585708300678
 40
14.85585708300678
 10
485.8402325427107
 20
262.7132072497432
 30
0.0
 10
485.7567346078084
 20
262.7125535618254
 30
0.0
 10
485.5896782463503
 20
262.7112457013235
 30
0.0
 10
485.2573779220738
 20
262.6974028090117
 30
0.0
 10
484.8439898189444
 20
262.6639917127974
 30
0.0
 10
484.3563276886404
 20
262.5974235621732
 30
0.0
 10
483.8776312419424
 20
262.5043568074933
 30
0.0
 10
483.4164357373524
 20
262.3868250964208
 30
0.0
 10
482.9700773486038
 20
262.2436422238102
 30
0.0
 10
482.5489728456895
 20
262.0786773136038
 30
0.0
 10
482.1484182019042
 20
261.8894604148973
 30
0.0
 10
481.7797216123884
 20
261.6818931974876
 30
0.0
 10
481.4371053206443
 20
261.4520214412262
 30
0.0
 10
481.1315574772134
 20
261.2076381333859
 30
0.0
 10
480.8574050116114
 20
260.9436068839584
 30
0.0
 10
480.6241613467234
 20
260.6688495400071
 30
0.0
 10
480.4272823133292
 20
260.3781489884811
 30
0.0
 10
480.2741827711733
 20
260.0801633340772
 30
0.0
 10
480.1616353007071
 20
259.7714627149887
 30
0.0
 10
480.0950837903717
 20
259.4588920781783
 30
0.0
 10
480.0716085336934
 20
259.1424930354716
 30
0.0
 10
480.0950837903717
 20
258.8260939927649
 30
0.0
 10
480.161635300707
 20
258.5135233559545
 30
0.0
 10
480.2741827711734
 20
258.204822736866
 30
0.0
 10
480.4272823133291
 20
257.9068370824622
 30
0.0
 10
480.6241613467233
 20
257.6161365309359
 30
0.0
 10
480.8574050116114
 20
257.3413791869848
 30
0.0
 10
481.1315574772133
 20
257.0773479375574
 30
0.0
 10
481.4371053206443
 20
256.8329646297169
 30
0.0
 10
481.7797216123884
 20
256.6030928734555
 30
0.0
 10
482.1484182019042
 20
256.3955256560459
 30
0.0
 10
482.5489728456893
 20
256.2063087573393
 30
0.0
 10
482.9700773486038
 20
256.041343847133
 30
0.0
 10
483.4164357373524
 20
255.8981609745223
 30
0.0
 10
483.8776312419423
 20
255.7806292634498
 30
0.0
 10
484.3563276886403
 20
255.6875625087699
 30
0.0
 10
484.8439898189445
 20
255.6209943581456
 30
0.0
 10
485.2573779220731
 20
255.5875832619315
 30
0.0
 10
485.5896782463484
 20
255.57374036962
 30
0.0
 10
485.7567346078054
 20
255.572432509118
 30
0.0
 10
485.840232542707
 20
255.5717788212002
 30
0.0
 11
485.8402325427107
 21
262.7132072497432
 31
0.0
 11
485.5897696358182
 21
262.7098356586689
 31
0.0
 11
485.3393067289256
 21
262.6997208854457
 31
0.0
 11
484.8444871769432
 21
262.6594646970386
 31
0.0
 11
484.3525904702497
 21
262.5921413792653
 31
0.0
 11
483.878658442751
 21
262.4998420585991
 31
0.0
 11
483.4108125523503
 21
262.3802195640481
 31
0.0
 11
482.9717234638499
 21
262.239088001378
 31
0.0
 11
482.5423901121106
 21
262.070311939931
 31
0.0
 11
482.1508224429172
 21
261.8848915849802
 31
0.0
 11
481.7734940801988
 21
261.6716565121649
 31
0.0
 11
481.4404669610179
 21
261.4475356565716
 31
0.0
 11
481.1273056037962
 21
261.1960209328249
 31
0.0
 11
480.8619684746912
 21
260.9394336874446
 31
0.0
 11
480.6234751781359
 21
260.6572920420989
 31
0.0
 11
480.4332394540303
 21
260.374731182916
 31
0.0
 11
480.277814587453
 21
260.0712074315204
 31
0.0
 11
480.1688597553086
 21
259.7694619106505
 31
0.0
 11
480.1018642136058
 21
259.4554478870373
 31
0.0
 11
480.079373231804
 21
259.1424930354716
 31
0.0
 11
480.1018642136058
 21
258.8295381839059
 31
0.0
 11
480.1688597553086
 21
258.5155241602928
 31
0.0
 11
480.277814587453
 21
258.2137786394229
 31
0.0
 11
480.4332394540303
 21
257.9102548880272
 31
0.0
 11
480.6234751781359
 21
257.6276940288442
 31
0.0
 11
480.8619684746911
 21
257.3455523834986
 31
0.0
 11
481.1273056037961
 21
257.0889651381182
 31
0.0
 11
481.4404669610179
 21
256.8374504143716
 31
0.0
 11
481.7734940801988
 21
256.6133295587782
 31
0.0
 11
482.1508224429171
 21
256.4000944859629
 31
0.0
 11
482.5423901121106
 21
256.2146741310121
 31
0.0
 11
482.9717234638498
 21
256.0458980695652
 31
0.0
 11
483.4108125523503
 21
255.904766506895
 31
0.0
 11
483.8786584427511
 21
255.7851440123439
 31
0.0
 11
484.3525904702497
 21
255.6928446916777
 31
0.0
 11
484.8444871769433
 21
255.6255213739045
 31
0.0
 11
485.3393067289256
 21
255.5852651854975
 31
0.0
 11
485.5897696358164
 21
255.5751504122746
 31
0.0
 11
485.840232542707
 21
255.5717788212002
 31
0.0
  0
SPLINE
  5
141
330
50
100
AcDbEntity
  8
0
  6
Continuous
 62
     7
100
AcDbSpline
210
0.0
220
0.0
230
1.0
 70
    11
 71
     3
 72
    79
 73
    75
 74
    73
 42
0.000000001
 43
0.0000000001
 44
0.00000001
 40
0.0
 40
0.0
 40
0.0
 40
0.0
 40
0.2910229063171829
 40
0.5820342199791019
 40
0.8749339259796821
 40
1.167812540311861
 40
1.463561181730094
 40
1.759282799553902
 40
2.058487804326683
 40
2.357663878865599
 40
2.660503334662512
 40
2.963315618548084
 40
3.26953081965363
 40
3.575723462230726
 40
3.884662737575161
 40
4.193586021287337
 40
4.504289078951729
 40
4.814983875317518
 40
5.126294424223269
 40
5.437604973118056
 40
5.748299769450875
 40
6.059002827059765
 40
6.36792611069408
 40
6.67686538593729
 40
6.983058028389911
 40
7.28927322934598
 40
7.592085513057556
 40
7.894924968652727
 40
8.194101042962572
 40
8.49330604747282
 40
8.789027664996922
 40
9.0847763060622
 40
9.377654919956244
 40
9.670554625323037
 40
9.961565937614802
 40
10.25258885279216
 40
10.54295309049241
 40
10.8333173281916
 40
11.12434024336578
 40
11.41535155565227
 40
11.70825126101184
 40
12.00112987489672
 40
12.29687851595108
 40
12.59260013346247
 40
12.89180513795828
 40
13.1909812122524
 40
13.49382066783045
 40
13.79663295152387
 40
14.10284815246053
 40
14.40904079489287
 40
14.71798007011487
 40
15.02690335372718
 40
15.33760641131335
 40
15.64830120762293
 40
15.95961175649392
 40
16.27092230537534
 40
16.58161710171655
 40
16.89232015935563
 40
17.20124344304234
 40
17.51018271836076
 40
17.81637536091124
 40
18.1225905619895
 40
18.42540284584677
 40
18.72824230161357
 40
19.02741837611968
 40
19.32662338085461
 40
19.62234499863098
 40
19.91809363998177
 40
20.21097225419805
 40
20.50387195993856
 40
20.79488327268847
 40
21.08590618851597
 40
21.37627042760386
 40
21.66663465645606
 40
21.66663465645606
 40
21.66663465645606
 40
21.66663465645606
 10
98.36559826516486
 20
262.6995622868737
 30
0.0
 10
98.46197332087993
 20
262.6878866194359
 30
0.0
 10
98.65471959394789
 20
262.66453575485
 30
0.0
 10
98.93865610127713
 20
262.5951797630845
 30
0.0
 10
99.21592036790251
 20
262.5017370059693
 30
0.0
 10
99.4846727521952
 20
262.3818300202348
 30
0.0
 10
99.7423181360296
 20
262.2377845152423
 30
0.0
 10
99.98754508353382
 20
262.0697179145538
 30
0.0
 10
100.2178084398295
 20
261.8798831816131
 30
0.0
 10
100.4320406485689
 20
261.6687470530643
 30
0.0
 10
100.6279950775418
 20
261.4389674495358
 30
0.0
 10
100.8047524213656
 20
261.1912389174079
 30
0.0
 10
100.9605232555288
 20
260.9285066776622
 30
0.0
 10
101.0944916730903
 20
260.6517556661021
 30
0.0
 10
101.205414704564
 20
260.3640236884139
 30
0.0
 10
101.2925914971215
 20
260.0666702420615
 30
0.0
 10
101.3553395073984
 20
259.7626242459841
 30
0.0
 10
101.3931398867938
 20
259.4536826502913
 30
0.0
 10
101.4058169604645
 20
259.1424930450461
 30
0.0
 10
101.3931398871593
 20
258.8313034397913
 30
0.0
 10
101.3553395081286
 20
258.522361844104
 30
0.0
 10
101.2925914982255
 20
258.2183158479455
 30
0.0
 10
101.2054147060178
 20
257.9209624017949
 30
0.0
 10
101.0944916749993
 20
257.6332304232196
 30
0.0
 10
100.9605232575226
 20
257.3564794147638
 30
0.0
 10
100.8047524248457
 20
257.0937471632722
 30
0.0
 10
100.6279950773572
 20
256.8460186742434
 30
0.0
 10
100.4320406638488
 20
256.6162389105482
 30
0.0
 10
100.2178083999747
 20
256.4051033724621
 30
0.0
 10
99.98754525013912
 20
256.2152664493526
 30
0.0
 10
99.74231754274487
 20
256.0472079312718
 30
0.0
 10
99.48467498126776
 20
255.9031324294893
 30
0.0
 10
99.21591216358075
 20
255.7833363590156
 30
0.0
 10
98.93868667809335
 20
255.6894813621765
 30
0.0
 10
98.65460632479694
 20
255.6216544555846
 30
0.0
 10
98.36623884449051
 20
255.5809594939544
 30
0.0
 10
98.07555481101791
 20
255.5671937003792
 30
0.0
 10
97.78487077754517
 20
255.5809594939292
 30
0.0
 10
97.49650329723839
 20
255.6216544555342
 30
0.0
 10
97.21242294394135
 20
255.689481362101
 30
0.0
 10
96.93519745845313
 20
255.7833363589153
 30
0.0
 10
96.666434640765
 20
255.9031324293641
 30
0.0
 10
96.40879207928656
 20
256.0472079311222
 30
0.0
 10
96.1635643718909
 20
256.2152664491782
 30
0.0
 10
95.93330122205336
 20
256.4051033722631
 30
0.0
 10
95.71906895817764
 20
256.6162389103249
 30
0.0
 10
95.52311454466712
 20
256.846018673996
 30
0.0
 10
95.34635719717626
 20
257.093747163001
 30
0.0
 10
95.19058636449687
 20
257.3564794144685
 30
0.0
 10
95.05661794701743
 20
257.6332304229005
 30
0.0
 10
94.94569491599613
 20
257.920962401452
 30
0.0
 10
94.85851812378534
 20
258.2183158475789
 30
0.0
 10
94.7957701138789
 20
258.5223618437135
 30
0.0
 10
94.75796973484447
 20
258.8313034393772
 30
0.0
 10
94.7452926615351
 20
259.1424930446069
 30
0.0
 10
94.75796973520067
 20
259.4536826498322
 30
0.0
 10
94.79577011459233
 20
259.7626242454854
 30
0.0
 10
94.85851812485677
 20
260.0666702415958
 30
0.0
 10
94.94569491743012
 20
260.364023687711
 30
0.0
 10
95.0566179488092
 20
260.6517556661648
 30
0.0
 10
95.1905863666778
 20
260.9285066747764
 30
0.0
 10
95.34635719964973
 20
261.1912389253498
 30
0.0
 10
95.52311454780961
 20
261.4389674173834
 30
0.0
 10
95.71906896062245
 20
261.6687471694955
 30
0.0
 10
95.93330122887352
 20
261.8798827498164
 30
0.0
 10
96.16356436433395
 20
262.0697195157353
 30
0.0
 10
96.40879212666977
 20
262.2377786133169
 30
0.0
 10
96.66643448620485
 20
262.3818519637276
 30
0.0
 10
96.93519805261941
 20
262.5016559882716
 30
0.0
 10
97.21242075748725
 20
262.595481421218
 30
0.0
 10
97.49651142714438
 20
262.6634179855612
 30
0.0
 10
97.78484048889392
 20
262.7037045418717
 30
0.0
 10
98.07566759935551
 20
262.7189912862658
 30
0.0
 10
98.26895471092269
 20
262.7060386181753
 30
0.0
 10
98.36559826516486
 20
262.6995622868737
 30
0.0
 11
98.36559826516486
 21
262.6995622868737
 31
0.0
 11
98.65375776143972
 21
262.6588383137872
 31
0.0
 11
98.93683996782227
 21
262.5913694437219
 31
0.0
 11
99.21426401036611
 21
262.497421915083
 31
0.0
 11
99.48182576248344
 21
262.3783060412836
 31
0.0
 11
99.7399581311986
 21
262.2339629118264
 31
0.0
 11
99.98397078380981
 21
262.0669027414107
 31
0.0
 11
100.2148502893407
 21
261.87659170981
 31
0.0
 11
100.4280255842919
 21
261.6666807354546
 31
0.0
 11
100.6245599083001
 21
261.4362767523281
 31
0.0
 11
100.8005334440997
 21
261.1898450296403
 31
0.0
 11
100.9567305845725
 21
260.9264627928025
 31
0.0
 11
101.0902262725368
 21
260.6509036600245
 31
0.0
 11
101.201376198094
 21
260.3626517391273
 31
0.0
 11
101.2883528521203
 21
260.0662252610869
 31
0.0
 11
101.3511579264417
 21
259.7619360685439
 31
0.0
 11
101.3889332881133
 21
259.4535462526235
 31
0.0
 11
101.4015884843269
 21
259.1424930354726
 31
0.0
 11
101.3889332881133
 21
258.8314398183217
 31
0.0
 11
101.3511579264417
 21
258.5230500024011
 31
0.0
 11
101.2883528521202
 21
258.2187608098582
 31
0.0
 11
101.2013761980938
 21
257.9223343318178
 31
0.0
 11
101.0902262725367
 21
257.6340824109205
 31
0.0
 11
100.9567305845725
 21
257.3585232781427
 31
0.0
 11
100.8005334440997
 21
257.0951410413048
 31
0.0
 11
100.6245599083001
 21
256.8487093186171
 31
0.0
 11
100.4280255842919
 21
256.6183053354906
 31
0.0
 11
100.2148502893407
 21
256.4083943611351
 31
0.0
 11
99.98397078380981
 21
256.2180833295342
 31
0.0
 11
99.73995813119859
 21
256.0510231591185
 31
0.0
 11
99.48182576248345
 21
255.9066800296613
 31
0.0
 11
99.21426401036611
 21
255.7875641558619
 31
0.0
 11
98.93683996782227
 21
255.6936166272232
 31
0.0
 11
98.65375776143972
 21
255.6261477571579
 31
0.0
 11
98.36559826516486
 21
255.5854237840713
 31
0.0
 11
98.07555481041449
 21
255.5717788212011
 31
0.0
 11
97.78551135566411
 21
255.5854237840713
 31
0.0
 11
97.49735185938925
 21
255.6261477571578
 31
0.0
 11
97.21426965300675
 21
255.6936166272232
 31
0.0
 11
96.93684561046291
 21
255.7875641558619
 31
0.0
 11
96.66928385834558
 21
255.9066800296614
 31
0.0
 11
96.41115148963037
 21
256.0510231591186
 31
0.0
 11
96.16713883701917
 21
256.2180833295344
 31
0.0
 11
95.93625933148824
 21
256.408394361135
 31
0.0
 11
95.72308403653713
 21
256.6183053354906
 31
0.0
 11
95.52654971252893
 21
256.8487093186171
 31
0.0
 11
95.35057617672925
 21
257.0951410413048
 31
0.0
 11
95.19437903625634
 21
257.3585232781427
 31
0.0
 11
95.0608833482921
 21
257.6340824109205
 31
0.0
 11
94.949733422735
 21
257.9223343318178
 31
0.0
 11
94.8627567687087
 21
258.2187608098582
 31
0.0
 11
94.79995169438725
 21
258.5230500024011
 31
0.0
 11
94.76217633271568
 21
258.8314398183217
 31
0.0
 11
94.74952113650214
 21
259.1424930354726
 31
0.0
 11
94.76217633271568
 21
259.4535462526235
 31
0.0
 11
94.79995169438725
 21
259.761936068544
 31
0.0
 11
94.8627567687087
 21
260.0662252610869
 31
0.0
 11
94.94973342273498
 21
260.3626517391273
 31
0.0
 11
95.0608833482921
 21
260.6509036600246
 31
0.0
 11
95.19437903625631
 21
260.9264627928024
 31
0.0
 11
95.35057617672925
 21
261.1898450296403
 31
0.0
 11
95.52654971252893
 21
261.4362767523281
 31
0.0
 11
95.72308403653713
 21
261.6666807354546
 31
0.0
 11
95.93625933148826
 21
261.87659170981
 31
0.0
 11
96.16713883701917
 21
262.0669027414107
 31
0.0
 11
96.41115148963038
 21
262.2339629118264
 31
0.0
 11
96.66928385834555
 21
262.3783060412836
 31
0.0
 11
96.93684561046294
 21
262.4974219150831
 31
0.0
 11
97.21426965300677
 21
262.5913694437218
 31
0.0
 11
97.49735185938927
 21
262.6588383137872
 31
0.0
 11
97.78551135566411
 21
262.6995622868736
 31
0.0
 11
98.07555481041447
 21
262.7132072497439
 31
0.0
 11
98.36559826516486
 21
262.6995622868737
 31
0.0
  0
SPLINE
  5
142
330
50
100
AcDbEntity
  8
0
  6
Continuous
 62
     7
100
AcDbSpline
210
0.0
220
0.0
230
1.0
 70
    11
 71
     3
 72
    79
 73
    75
 74
    73
 42
0.000000001
 43
0.0000000001
 44
0.00000001
 40
0.0
 40
0.0
 40
0.0
 40
0.0
 40
0.3261189815590548
 40
0.6517242227865077
 40
1.007570730085629
 40
1.362786574479212
 40
1.759886311236999
 40
2.156516711364712
 40
2.599210004995357
 40
3.041603623772173
 40
3.528307203253109
 40
4.014826845817798
 40
4.5396163111925
 40
5.064295506276626
 40
5.618233629058165
 40
6.172109434340781
 40
6.744280965421779
 40
7.316424320423774
 40
7.894787041171936
 40
8.47314976192317
 40
9.045293116933681
 40
9.61746464802738
 40
10.17134045332472
 40
10.72527857612076
 40
11.24995777121494
 40
11.77474723659078
 40
12.2612668791417
 40
12.7479704585844
 40
13.19036407729351
 40
13.63305737080659
 40
14.02968777076461
 40
14.42678750725392
 40
14.78200335126241
 40
15.13784985787353
 40
15.46345509697309
 40
15.78957408501966
 40
16.1044897184712
 40
16.41940535192159
 40
16.74552433996508
 40
17.07112957905991
 40
17.42697608566496
 40
17.78219192966667
 40
18.17929166614838
 40
18.57592206609908
 40
19.01861535960437
 40
19.46100897830635
 40
19.94771255774187
 40
20.43423220028644
 40
20.95902166565614
 40
21.48370086074504
 40
22.03763898353641
 40
22.59151478883012
 40
23.16368631992116
 40
23.73582967493018
 40
24.31419239568135
 40
24.8925551164312
 40
25.46469847143688
 40
26.03687000252373
 40
26.5907458078145
 40
27.14468393060676
 40
27.66936312570364
 40
28.19415259109345
 40
28.68067223367412
 40
29.16737581317159
 40
29.60976943196299
 40
30.05246272560412
 40
30.44909312573252
 40
30.84619286246805
 40
31.20140870678656
 40
31.55725521382507
 40
31.882860453477
 40
32.2089794423318
 40
32.52389507798027
 40
32.83881070538169
 40
32.83881070538169
 40
32.83881070538169
 40
32.83881070538169
 10
116.8256896202862
 20
258.8286765488343
 30
0.0
 10
116.8031323467482
 20
258.722086792721
 30
0.0
 10
116.7580533443751
 20
258.5090751906768
 30
0.0
 10
116.6235255717236
 20
258.1992566971161
 30
0.0
 10
116.446781482132
 20
257.9014728500579
 30
0.0
 10
116.217900069181
 20
257.6103268060166
 30
0.0
 10
115.9486821594636
 20
257.3369345886169
 30
0.0
 10
115.6314120435227
 20
257.0729748612963
 30
0.0
 10
115.2793596228365
 20
256.8299686600699
 30
0.0
 10
114.8834862550402
 20
256.6003144093547
 30
0.0
 10
114.4587778403803
 20
256.3937634502063
 30
0.0
 10
113.99626046703
 20
256.2047606950171
 30
0.0
 10
113.5110199652451
 20
256.0404469003901
 30
0.0
 10
112.9957784772147
 20
255.8974313985863
 30
0.0
 10
112.4641132164555
 20
255.7802789629896
 30
0.0
 10
111.9116641668544
 20
255.6873050720206
 30
0.0
 10
111.3492733269177
 20
255.6209860131181
 30
0.0
 10
110.7762566766671
 20
255.5806397551379
 30
0.0
 10
110.1999104733915
 20
255.5673494234215
 30
0.0
 10
109.6235642700934
 20
255.580639755254
 30
0.0
 10
109.0505476199093
 20
255.6209860133584
 30
0.0
 10
108.488156779732
 20
255.6873050723229
 30
0.0
 10
107.9357077310013
 20
255.7802789635257
 30
0.0
 10
107.4040424670775
 20
255.8974313986539
 30
0.0
 10
106.8888009902686
 20
256.040446902388
 30
0.0
 10
106.4035604480991
 20
256.2047606902104
 30
0.0
 10
105.9410432150255
 20
256.3937634690151
 30
0.0
 10
105.5163343008246
 20
256.6003143438571
 30
0.0
 10
105.1204626364669
 20
256.8299688816353
 30
0.0
 10
104.768404201703
 20
257.0729740686735
 30
0.0
 10
104.4511543250187
 20
257.3369372080773
 30
0.0
 10
104.1818651958577
 20
257.6103174173708
 30
0.0
 10
103.9532232037397
 20
257.9015038275792
 30
0.0
 10
103.7756304784914
 20
258.1991445920678
 30
0.0
 10
103.644017406855
 20
258.5094545099439
 30
0.0
 10
103.5665924307751
 20
258.8236130868523
 30
0.0
 10
103.5386323136584
 20
259.1424930351554
 30
0.0
 10
103.566592430767
 20
259.4613729834584
 30
0.0
 10
103.6440174068391
 20
259.7755315603657
 30
0.0
 10
103.7756304784681
 20
260.08584147824
 30
0.0
 10
103.9532232037094
 20
260.383482242726
 30
0.0
 10
104.181865195821
 20
260.674668652931
 30
0.0
 10
104.4511543249762
 20
260.94804886222
 30
0.0
 10
104.7684042016549
 20
261.2120120016187
 30
0.0
 10
105.1204626364142
 20
261.4550171886505
 30
0.0
 10
105.5163343007677
 20
261.6846717264215
 30
0.0
 10
105.9410432149654
 20
261.8912226012543
 30
0.0
 10
106.403560448036
 20
262.0802253800491
 30
0.0
 10
106.8888009902035
 20
262.2445391678591
 30
0.0
 10
107.4040424670109
 20
262.3875546715788
 30
0.0
 10
107.9357077309339
 20
262.5047071066898
 30
0.0
 10
108.4881567796644
 20
262.5976809978728
 30
0.0
 10
109.0505476198415
 20
262.6640000568138
 30
0.0
 10
109.6235642700273
 20
262.704346314891
 30
0.0
 10
110.1999104733219
 20
262.7176366466914
 30
0.0
 10
110.776256676615
 20
262.7043463149419
 30
0.0
 10
111.3492733268058
 20
262.6640000569092
 30
0.0
 10
111.9116641669666
 20
262.5976809980042
 30
0.0
 10
112.4641132157595
 20
262.5047071068272
 30
0.0
 10
112.9957784794599
 20
262.3875546717462
 30
0.0
 10
113.5110199570592
 20
262.2445391678567
 30
0.0
 10
113.9962604963771
 20
262.0802253804553
 30
0.0
 10
114.4587777393393
 20
261.8912225998798
 30
0.0
 10
114.8834866182944
 20
261.6846717308286
 30
0.0
 10
115.279358402789
 20
261.4550171725854
 30
0.0
 10
115.6314164133173
 20
261.2120120568043
 30
0.0
 10
115.9486677175553
 20
260.9480486763686
 30
0.0
 10
116.2179518231224
 20
260.6746693136462
 30
0.0
 10
116.4466107029239
 20
260.3834800556326
 30
0.0
 10
116.6241435686953
 20
260.0858493829478
 30
0.0
 10
116.755962231481
 20
259.7755048012788
 30
0.0
 10
116.8326420920115
 20
259.4614718507653
 30
0.0
 10
116.8632939941402
 20
259.1421380637267
 30
0.0
 10
116.8382244079011
 20
258.9331637198877
 30
0.0
 10
116.8256896202862
 20
258.8286765488343
 30
0.0
 11
116.8256896202862
 21
258.8286765488343
 31
0.0
 11
116.7475169577325
 21
258.512065384675
 31
0.0
 11
116.6218107026559
 21
258.2117044197832
 31
0.0
 11
116.4402543192208
 21
257.9056586454806
 31
0.0
 11
116.2218922593258
 21
257.6254867220359
 31
0.0
 11
115.9441447099506
 21
257.3416830934688
 31
0.0
 11
115.6398451577712
 21
257.0872868341551
 31
0.0
 11
115.2761975324523
 21
256.834823457097
 31
0.0
 11
114.8938645255732
 21
256.6122620369259
 31
0.0
 11
114.456595964798
 21
256.3985412377104
 31
0.0
 11
114.006400537099
 21
256.2140813789991
 31
0.0
 11
113.5095608154844
 21
256.0451012795829
 31
0.0
 11
113.004074147565
 21
255.9044901622455
 31
0.0
 11
112.4632163405578
 21
255.7848228046203
 31
0.0
 11
111.917046032441
 21
255.6927554259331
 31
0.0
 11
111.3488460654017
 21
255.6254571462899
 31
0.0
 11
110.7781163873511
 21
255.5852619566751
 31
0.0
 11
110.1999104633966
 21
255.5717954703365
 31
0.0
 11
109.621704539442
 21
255.5852619566752
 31
0.0
 11
109.0509748613912
 21
255.62545714629
 31
0.0
 11
108.4827748943519
 21
255.6927554259331
 31
0.0
 11
107.9366045862352
 21
255.7848228046203
 31
0.0
 11
107.3957467792281
 21
255.9044901622455
 31
0.0
 11
106.8902601113087
 21
256.0451012795828
 31
0.0
 11
106.393420389694
 21
256.2140813789991
 31
0.0
 11
105.9432249619949
 21
256.3985412377104
 31
0.0
 11
105.5059564012198
 21
256.6122620369259
 31
0.0
 11
105.1236233943408
 21
256.834823457097
 31
0.0
 11
104.7599757690218
 21
257.0872868341551
 31
0.0
 11
104.4556762168424
 21
257.3416830934688
 31
0.0
 11
104.1779286674672
 21
257.6254867220359
 31
0.0
 11
103.9595666075723
 21
257.9056586454807
 31
0.0
 11
103.7780102241373
 21
258.2117044197832
 31
0.0
 11
103.6523039690606
 21
258.512065384675
 31
0.0
 11
103.5741313065068
 21
258.8286765488343
 31
0.0
 11
103.5478431155716
 21
259.1424930354726
 31
0.0
 11
103.5741313065068
 21
259.4563095221109
 31
0.0
 11
103.6523039690606
 21
259.7729206862701
 31
0.0
 11
103.7780102241373
 21
260.0732816511618
 31
0.0
 11
103.9595666075723
 21
260.3793274254644
 31
0.0
 11
104.1779286674672
 21
260.6594993489091
 31
0.0
 11
104.4556762168423
 21
260.9433029774762
 31
0.0
 11
104.7599757690217
 21
261.19769923679
 31
0.0
 11
105.1236233943407
 21
261.4501626138481
 31
0.0
 11
105.5059564012197
 21
261.6727240340192
 31
0.0
 11
105.9432249619948
 21
261.8864448332347
 31
0.0
 11
106.393420389694
 21
262.0709046919461
 31
0.0
 11
106.8902601113087
 21
262.2398847913624
 31
0.0
 11
107.3957467792281
 21
262.3804959086997
 31
0.0
 11
107.9366045862352
 21
262.5001632663248
 31
0.0
 11
108.482774894352
 21
262.592230645012
 31
0.0
 11
109.0509748613913
 21
262.6595289246551
 31
0.0
 11
109.6217045394421
 21
262.6997241142699
 31
0.0
 11
110.1999104633966
 21
262.7131906006086
 31
0.0
 11
110.7781163873511
 21
262.6997241142699
 31
0.0
 11
111.3488460654017
 21
262.6595289246551
 31
0.0
 11
111.917046032441
 21
262.5922306450121
 31
0.0
 11
112.4632163405578
 21
262.5001632663249
 31
0.0
 11
113.004074147565
 21
262.3804959086997
 31
0.0
 11
113.5095608154845
 21
262.2398847913623
 31
0.0
 11
114.0064005370991
 21
262.0709046919459
 31
0.0
 11
114.4565959647982
 21
261.8864448332346
 31
0.0
 11
114.8938645255733
 21
261.6727240340192
 31
0.0
 11
115.2761975324523
 21
261.4501626138481
 31
0.0
 11
115.6398451577712
 21
261.19769923679
 31
0.0
 11
115.9441447099506
 21
260.9433029774762
 31
0.0
 11
116.2218922593258
 21
260.6594993489092
 31
0.0
 11
116.4402543192208
 21
260.3793274254644
 31
0.0
 11
116.6218107026559
 21
260.0732816511618
 31
0.0
 11
116.7475169577325
 21
259.7729206862701
 31
0.0
 11
116.8256896202862
 21
259.4563095221109
 31
0.0
 11
116.8519778112214
 21
259.1424930354726
 31
0.0
 11
116.8256896202862
 21
258.8286765488343
 31
0.0
  0
SPLINE
  5
143
330
50
100
AcDbEntity
  8
0
  6
Continuous
 62
     7
100
AcDbSpline
210
0.0
220
0.0
230
1.0
 70
    11
 71
     3
 72
    79
 73
    75
 74
    73
 42
0.000000001
 43
0.0000000001
 44
0.00000001
 40
0.0
 40
0.0
 40
0.0
 40
0.0
 40
0.2910229063171688
 40
0.5820342199790464
 40
0.874933925979595
 40
1.167812540311797
 40
1.46356118172999
 40
1.759282799553718
 40
2.058487804326539
 40
2.357663878865515
 40
2.660503334662494
 40
2.963315618548085
 40
3.269530819653674
 40
3.575723462230758
 40
3.884662737575216
 40
4.193586021287388
 40
4.504289078951724
 40
4.814983875317504
 40
5.126294424223312
 40
5.437604973118041
 40
5.748299769450854
 40
6.059002827059722
 40
6.367926110694017
 40
6.676865385937221
 40
6.983058028389919
 40
7.289273229345983
 40
7.592085513057633
 40
7.894924968652851
 40
8.194101042962735
 40
8.493306047472915
 40
8.789027664996958
 40
9.084776306062263
 40
9.377654919956283
 40
9.670554625323142
 40
9.961565937614933
 40
10.25258885279222
 40
10.54295309049243
 40
10.8333173281917
 40
11.124340243366
 40
11.4153515556525
 40
11.70825126101206
 40
12.00112987489696
 40
12.29687851595124
 40
12.59260013346255
 40
12.89180513795841
 40
13.19098121225261
 40
13.49382066783074
 40
13.79663295152409
 40
14.10284815246065
 40
14.40904079489299
 40
14.71798007011496
 40
15.02690335372727
 40
15.33760641131336
 40
15.64830120762304
 40
15.95961175649408
 40
16.27092230537556
 40
16.58161710171678
 40
16.89232015935592
 40
17.20124344304253
 40
17.51018271836091
 40
17.81637536091144
 40
18.12259056198954
 40
18.42540284584679
 40
18.72824230161371
 40
19.02741837611998
 40
19.32662338085482
 40
19.62234499863107
 40
19.91809363998185
 40
20.2109722541981
 40
20.50387195993864
 40
20.79488327268857
 40
21.08590618851619
 40
21.37627042760419
 40
21.66663465645642
 40
21.66663465645642
 40
21.66663465645642
 40
21.66663465645642
 10
122.0342226616282
 20
262.6995622868737
 30
0.0
 10
121.9378476059131
 20
262.687886619436
 30
0.0
 10
121.7451013328452
 20
262.66453575485
 30
0.0
 10
121.461164825516
 20
262.5951797630846
 30
0.0
 10
121.1839005588906
 20
262.5017370059693
 30
0.0
 10
120.915148174598
 20
262.3818300202347
 30
0.0
 10
120.6575027907636
 20
262.2377845152424
 30
0.0
 10
120.4122758432594
 20
262.069717914554
 30
0.0
 10
120.1820124869638
 20
261.8798831816131
 30
0.0
 10
119.9677802782244
 20
261.6687470530643
 30
0.0
 10
119.7718258492513
 20
261.4389674495357
 30
0.0
 10
119.5950685054274
 20
261.1912389174079
 30
0.0
 10
119.4392976712641
 20
260.9285066776622
 30
0.0
 10
119.3053292537027
 20
260.651755666102
 30
0.0
 10
119.1944062222291
 20
260.364023688414
 30
0.0
 10
119.1072294296715
 20
260.0666702420615
 30
0.0
 10
119.0444814193947
 20
259.7626242459841
 30
0.0
 10
119.0066810399993
 20
259.4536826502912
 30
0.0
 10
118.9940039663286
 20
259.142493045046
 30
0.0
 10
119.0066810396339
 20
258.8313034397913
 30
0.0
 10
119.0444814186645
 20
258.522361844104
 30
0.0
 10
119.1072294285675
 20
258.2183158479456
 30
0.0
 10
119.1944062207751
 20
257.9209624017948
 30
0.0
 10
119.3053292517937
 20
257.6332304232196
 30
0.0
 10
119.4392976692704
 20
257.3564794147637
 30
0.0
 10
119.5950685019473
 20
257.0937471632723
 30
0.0
 10
119.771825849436
 20
256.8460186742434
 30
0.0
 10
119.9677802629445
 20
256.6162389105481
 30
0.0
 10
120.1820125268185
 20
256.4051033724622
 30
0.0
 10
120.4122756766541
 20
256.2152664493526
 30
0.0
 10
120.6575033840483
 20
256.0472079312719
 30
0.0
 10
120.9151459455254
 20
255.9031324294893
 30
0.0
 10
121.1839087632125
 20
255.7833363590155
 30
0.0
 10
121.4611342486999
 20
255.6894813621765
 30
0.0
 10
121.7452146019963
 20
255.6216544555845
 30
0.0
 10
122.0335820823027
 20
255.5809594939544
 30
0.0
 10
122.3242661157753
 20
255.5671937003792
 30
0.0
 10
122.6149501492481
 20
255.5809594939292
 30
0.0
 10
122.9033176295549
 20
255.6216544555342
 30
0.0
 10
123.187397982852
 20
255.689481362101
 30
0.0
 10
123.4646234683402
 20
255.7833363589153
 30
0.0
 10
123.7333862860284
 20
255.903132429364
 30
0.0
 10
123.9910288475068
 20
256.047207931122
 30
0.0
 10
124.2362565549024
 20
256.215266449178
 30
0.0
 10
124.4665197047397
 20
256.4051033722632
 30
0.0
 10
124.6807519686157
 20
256.6162389103249
 30
0.0
 10
124.8767063821263
 20
256.846018673996
 30
0.0
 10
125.0534637296171
 20
257.0937471630009
 30
0.0
 10
125.2092345622962
 20
257.3564794144685
 30
0.0
 10
125.3432029797757
 20
257.6332304229005
 30
0.0
 10
125.454126010797
 20
257.9209624014518
 30
0.0
 10
125.5413028030081
 20
258.2183158475788
 30
0.0
 10
125.6040508129147
 20
258.5223618437133
 30
0.0
 10
125.641851191949
 20
258.8313034393771
 30
0.0
 10
125.6545282652583
 20
259.1424930446069
 30
0.0
 10
125.6418511915926
 20
259.4536826498323
 30
0.0
 10
125.6040508122008
 20
259.7626242454854
 30
0.0
 10
125.5413028019365
 20
260.0666702415958
 30
0.0
 10
125.454126009363
 20
260.3640236877109
 30
0.0
 10
125.3432029779839
 20
260.6517556661647
 30
0.0
 10
125.2092345601153
 20
260.9285066747763
 30
0.0
 10
125.0534637271435
 20
261.1912389253497
 30
0.0
 10
124.8767063789839
 20
261.4389674173834
 30
0.0
 10
124.6807519661708
 20
261.6687471694955
 30
0.0
 10
124.4665196979197
 20
261.8798827498163
 30
0.0
 10
124.2362565624593
 20
262.0697195157353
 30
0.0
 10
123.9910288001236
 20
262.2377786133169
 30
0.0
 10
123.7333864405885
 20
262.3818519637276
 30
0.0
 10
123.464622874174
 20
262.5016559882715
 30
0.0
 10
123.1874001693061
 20
262.595481421218
 30
0.0
 10
122.9033094996489
 20
262.663417985561
 30
0.0
 10
122.6149804378993
 20
262.7037045418718
 30
0.0
 10
122.3241533274376
 20
262.7189912862659
 30
0.0
 10
122.1308662158704
 20
262.7060386181753
 30
0.0
 10
122.0342226616282
 20
262.6995622868737
 30
0.0
 11
122.0342226616282
 21
262.6995622868737
 31
0.0
 11
121.7460631653534
 21
262.6588383137872
 31
0.0
 11
121.4629809589709
 21
262.5913694437219
 31
0.0
 11
121.1855569164271
 21
262.4974219150831
 31
0.0
 11
120.9179951643097
 21
262.3783060412836
 31
0.0
 11
120.6598627955946
 21
262.2339629118264
 31
0.0
 11
120.4158501429834
 21
262.0669027414108
 31
0.0
 11
120.1849706374526
 21
261.87659170981
 31
0.0
 11
119.9717953425014
 21
261.6666807354546
 31
0.0
 11
119.7752610184931
 21
261.4362767523281
 31
0.0
 11
119.5992874826934
 21
261.1898450296403
 31
0.0
 11
119.4430903422204
 21
260.9264627928025
 31
0.0
 11
119.3095946542562
 21
260.6509036600245
 31
0.0
 11
119.1984447286991
 21
260.3626517391273
 31
0.0
 11
119.1114680746728
 21
260.0662252610869
 31
0.0
 11
119.0486630003514
 21
259.7619360685439
 31
0.0
 11
119.0108876386799
 21
259.4535462526235
 31
0.0
 11
118.9982324424663
 21
259.1424930354726
 31
0.0
 11
119.0108876386799
 21
258.8314398183217
 31
0.0
 11
119.0486630003514
 21
258.5230500024011
 31
0.0
 11
119.1114680746728
 21
258.2187608098582
 31
0.0
 11
119.1984447286991
 21
257.9223343318178
 31
0.0
 11
119.3095946542562
 21
257.6340824109205
 31
0.0
 11
119.4430903422204
 21
257.3585232781426
 31
0.0
 11
119.5992874826934
 21
257.0951410413048
 31
0.0
 11
119.7752610184931
 21
256.8487093186171
 31
0.0
 11
119.9717953425013
 21
256.6183053354906
 31
0.0
 11
120.1849706374526
 21
256.4083943611351
 31
0.0
 11
120.4158501429834
 21
256.2180833295343
 31
0.0
 11
120.6598627955946
 21
256.0510231591186
 31
0.0
 11
120.9179951643097
 21
255.9066800296613
 31
0.0
 11
121.1855569164271
 21
255.7875641558619
 31
0.0
 11
121.462980958971
 21
255.6936166272232
 31
0.0
 11
121.7460631653535
 21
255.6261477571579
 31
0.0
 11
122.0342226616283
 21
255.5854237840714
 31
0.0
 11
122.3242661163787
 21
255.5717788212011
 31
0.0
 11
122.6143095711291
 21
255.5854237840713
 31
0.0
 11
122.9024690674041
 21
255.6261477571578
 31
0.0
 11
123.1855512737866
 21
255.6936166272232
 31
0.0
 11
123.4629753163305
 21
255.7875641558619
 31
0.0
 11
123.7305370684478
 21
255.9066800296613
 31
0.0
 11
123.988669437163
 21
256.0510231591185
 31
0.0
 11
124.2326820897741
 21
256.2180833295342
 31
0.0
 11
124.4635615953049
 21
256.4083943611351
 31
0.0
 11
124.6767368902562
 21
256.6183053354906
 31
0.0
 11
124.8732712142645
 21
256.8487093186171
 31
0.0
 11
125.0492447500641
 21
257.0951410413048
 31
0.0
 11
125.2054418905368
 21
257.3585232781427
 31
0.0
 11
125.338937578501
 21
257.6340824109205
 31
0.0
 11
125.4500875040582
 21
257.9223343318178
 31
0.0
 11
125.5370641580847
 21
258.2187608098581
 31
0.0
 11
125.5998692324063
 21
258.5230500024009
 31
0.0
 11
125.6376445940778
 21
258.8314398183215
 31
0.0
 11
125.6502997902912
 21
259.1424930354726
 31
0.0
 11
125.6376445940776
 21
259.4535462526235
 31
0.0
 11
125.599869232406
 21
259.761936068544
 31
0.0
 11
125.5370641580845
 21
260.0662252610869
 31
0.0
 11
125.4500875040582
 21
260.3626517391273
 31
0.0
 11
125.338937578501
 21
260.6509036600245
 31
0.0
 11
125.2054418905368
 21
260.9264627928023
 31
0.0
 11
125.0492447500641
 21
261.1898450296402
 31
0.0
 11
124.8732712142645
 21
261.436276752328
 31
0.0
 11
124.6767368902562
 21
261.6666807354546
 31
0.0
 11
124.4635615953049
 21
261.87659170981
 31
0.0
 11
124.2326820897741
 21
262.0669027414107
 31
0.0
 11
123.988669437163
 21
262.2339629118264
 31
0.0
 11
123.7305370684478
 21
262.3783060412836
 31
0.0
 11
123.4629753163305
 21
262.4974219150831
 31
0.0
 11
123.1855512737866
 21
262.5913694437218
 31
0.0
 11
122.9024690674041
 21
262.6588383137871
 31
0.0
 11
122.6143095711291
 21
262.6995622868736
 31
0.0
 11
122.3242661163787
 21
262.713207249744
 31
0.0
 11
122.0342226616282
 21
262.6995622868737
 31
0.0
  0
ARC
  5
144
330
50
100
AcDbEntity
  8
1
  6
Continuous
 62
     7
100
AcDbCircle
 10
504.398253604436
 20
263.00003000003
 30
0.0
 40
0.9999999999999989
100
AcDbArc
 50
74.66244233044796
 51
90.0
  0
ARC
  5
145
330
50
100
AcDbEntity
  8
1
  6
Continuous
 62
     7
100
AcDbCircle
 10
502.6081817351364
 20
264.00003000003
 30
0.0
 40
1.000000000000011
100
AcDbArc
 50
42.94140286487899
 51
90.0
  0
ARC
  5
146
330
50
100
AcDbEntity
  8
1
  6
Continuous
 62
     7
100
AcDbCircle
 10
504.3402325427053
 20
265.00003000003
 30
0.0
 40
0.9999999999998851
100
AcDbArc
 50
210.0000000000038
 51
270.0
  0
ARC
  5
147
330
50
100
AcDbEntity
  8
1
  6
Continuous
 62
     7
100
AcDbCircle
 10
502.6081817351364
 20
264.00003000003
 30
0.0
 40
1.000000000000131
100
AcDbArc
 50
29.99999999999566
 51
42.94140286487899
  0
ARC
  5
148
330
50
100
AcDbEntity
  8
1
  6
Continuous
 62
     7
100
AcDbCircle
 10
481.2822114809746
 20
263.00003000003
 30
0.0
 40
1.0
100
AcDbArc
 50
90.0
 51
105.3375576695395
  0
ARC
  5
149
330
50
100
AcDbEntity
  8
1
  6
Continuous
 62
     7
100
AcDbCircle
 10
483.0722833502744
 20
264.00003000003
 30
0.0
 40
1.0
100
AcDbArc
 50
90.0
 51
137.0585971351299
  0
ARC
  5
14A
330
50
100
AcDbEntity
  8
1
  6
Continuous
 62
     7
100
AcDbCircle
 10
481.3402325427053
 20
265.00003000003
 30
0.0
 40
1.0
100
AcDbArc
 50
270.0
 51
330.0000000000076
  0
ARC
  5
14B
330
50
100
AcDbEntity
  8
1
  6
Continuous
 62
     7
100
AcDbCircle
 10
483.0722833502744
 20
264.00003000003
 30
0.0
 40
1.000000000000177
100
AcDbArc
 50
137.0585971351299
 51
149.9999999999995
  0
ARC
  5
14C
330
50
100
AcDbEntity
  8
1
  6
Continuous
 62
     7
100
AcDbCircle
 10
121.7579315251274
 20
263.0000300000309
 30
0.0
 40
1.000000000000024
100
AcDbArc
 50
74.6624423304551
 51
90.0
  0
ARC
  5
14D
330
50
100
AcDbEntity
  8
1
  6
Continuous
 62
     7
100
AcDbCircle
 10
119.9678596558277
 20
264.0000300000309
 30
0.0
 40
1.000000000000058
100
AcDbArc
 50
29.9999999999981
 51
90.0
  0
ARC
  5
14E
330
50
100
AcDbEntity
  8
1
  6
Continuous
 62
     7
100
AcDbCircle
 10
121.6999104633967
 20
265.0000300000309
 30
0.0
 40
1.000000000000058
100
AcDbArc
 50
209.9999999999981
 51
270.0
  0
ARC
  5
14F
330
50
100
AcDbEntity
  8
1
  6
Continuous
 62
     7
100
AcDbCircle
 10
98.64188940166618
 20
263.0000300000309
 30
0.0
 40
1.0
100
AcDbArc
 50
90.0
 51
105.337557669555
  0
ARC
  5
150
330
50
100
AcDbEntity
  8
1
  6
Continuous
 62
     7
100
AcDbCircle
 10
100.4319612709655
 20
264.0000300000309
 30
0.0
 40
1.0
100
AcDbArc
 50
90.0
 51
149.9999999999966
  0
ARC
  5
151
330
50
100
AcDbEntity
  8
1
  6
Continuous
 62
     7
100
AcDbCircle
 10
98.69991046339659
 20
265.0000300000309
 30
0.0
 40
1.0
100
AcDbArc
 50
270.0
 51
330.0000000000043
  0
ENDBLK
  5
52
330
50
100
AcDbEntity
  8
0
100
AcDbBlockEnd
  0
BLOCK
  5
54
330
53
100
AcDbEntity
  8
0
100
AcDbBlockBegin
  2
開示A4
 70
     0
 10
0.0
 20
0.0
 30
0.0
  3
開示A4
  1

  0
POINT
  5
152
330
53
100
AcDbEntity
  8
1
 62
     4
100
AcDbPoint
 10
34.0
 20
34.00000000000001
 30
0.0
  0
POINT
  5
153
330
53
100
AcDbEntity
  8
1
 62
     4
100
AcDbPoint
 10
57.0
 20
12.25
 30
0.0
  0
POINT
  5
154
330
53
100
AcDbEntity
  8
1
 62
     4
100
AcDbPoint
 10
57.0
 20
20.75000000000001
 30
0.0
  0
POINT
  5
155
330
53
100
AcDbEntity
  8
1
 62
     4
100
AcDbPoint
 10
57.0
 20
24.75000000000001
 30
0.0
  0
POINT
  5
156
330
53
100
AcDbEntity
  8
1
 62
     4
100
AcDbPoint
 10
57.0
 20
16.25
 30
0.0
  0
POINT
  5
157
330
53
100
AcDbEntity
  8
1
 62
     4
100
AcDbPoint
 10
157.5
 20
19.00000000000001
 30
0.0
  0
POINT
  5
158
330
53
100
AcDbEntity
  8
1
 62
     4
100
AcDbPoint
 10
47.5
 20
282.0000000000003
 30
0.0
  0
POINT
  5
159
330
53
100
AcDbEntity
  8
1
 62
     4
100
AcDbPoint
 10
57.0
 20
22.75000000000001
 30
0.0
  0
POINT
  5
15A
330
53
100
AcDbEntity
  8
1
 62
     4
100
AcDbPoint
 10
57.0
 20
14.25
 30
0.0
  0
POINT
  5
15B
330
53
100
AcDbEntity
  8
1
 62
     4
100
AcDbPoint
 10
157.5
 20
12.5
 30
0.0
  0
POINT
  5
15C
330
53
100
AcDbEntity
  8
1
 62
     4
100
AcDbPoint
 10
163.25
 20
12.5
 30
0.0
  0
POINT
  5
15D
330
53
100
AcDbEntity
  8
1
 62
     4
100
AcDbPoint
 10
151.75
 20
12.5
 30
0.0
  0
POINT
  5
15E
330
53
100
AcDbEntity
  8
1
 62
     4
100
AcDbPoint
 10
134.75
 20
12.5
 30
0.0
  0
POINT
  5
15F
330
53
100
AcDbEntity
  8
1
 62
     4
100
AcDbPoint
 10
146.25
 20
12.5
 30
0.0
  0
POINT
  5
160
330
53
100
AcDbEntity
  8
1
 62
     4
100
AcDbPoint
 10
140.5
 20
12.5
 30
0.0
  0
POINT
  5
161
330
53
100
AcDbEntity
  8
1
 62
     4
100
AcDbPoint
 10
140.5
 20
19.00000000000001
 30
0.0
  0
POINT
  5
162
330
53
100
AcDbEntity
  8
1
 62
     4
100
AcDbPoint
 10
117.75
 20
12.5
 30
0.0
  0
POINT
  5
163
330
53
100
AcDbEntity
  8
1
 62
     4
100
AcDbPoint
 10
129.25
 20
12.5
 30
0.0
  0
POINT
  5
164
330
53
100
AcDbEntity
  8
1
 62
     4
100
AcDbPoint
 10
123.5
 20
12.5
 30
0.0
  0
POINT
  5
165
330
53
100
AcDbEntity
  8
1
 62
     4
100
AcDbPoint
 10
123.5
 20
19.00000000000001
 30
0.0
  0
POINT
  5
166
330
53
100
AcDbEntity
  8
1
 62
     4
100
AcDbPoint
 10
100.75
 20
12.5
 30
0.0
  0
POINT
  5
167
330
53
100
AcDbEntity
  8
1
 62
     4
100
AcDbPoint
 10
112.25
 20
12.5
 30
0.0
  0
POINT
  5
168
330
53
100
AcDbEntity
  8
1
 62
     4
100
AcDbPoint
 10
106.5
 20
12.5
 30
0.0
  0
POINT
  5
169
330
53
100
AcDbEntity
  8
1
 62
     4
100
AcDbPoint
 10
106.5
 20
19.00000000000001
 30
0.0
  0
POINT
  5
16A
330
53
100
AcDbEntity
  8
1
 62
     4
100
AcDbPoint
 10
85.25
 20
17.0
 30
0.0
  0
POINT
  5
16B
330
53
100
AcDbEntity
  8
1
 62
     4
100
AcDbPoint
 10
93.75
 20
17.0
 30
0.0
  0
LINE
  5
16C
330
53
100
AcDbEntity
  8
1
  6
Continuous
 62
     2
100
AcDbLine
 10
81.0
 20
27.00000000000001
 30
0.0
 11
81.0
 21
10.0
 31
0.0
  0
LINE
  5
16D
330
53
100
AcDbEntity
  8
1
  6
DOT_CENTER
 62
     2
100
AcDbLine
 10
187.0
 20
26.50000000000001
 30
0.0
 11
187.0
 21
20.50000000000001
 31
0.0
  0
LINE
  5
16E
330
53
100
AcDbEntity
  8
1
  6
DOT_CENTER
 62
     2
100
AcDbLine
 10
184.0
 20
23.50000000000001
 30
0.0
 11
197.0
 21
23.50000000000001
 31
0.0
  0
LINE
  5
16F
330
53
100
AcDbEntity
  8
1
  6
Continuous
 62
     7
100
AcDbLine
 10
196.0
 20
21.50000000000001
 30
0.0
 11
191.0
 21
22.30000000000001
 31
0.0
  0
LINE
  5
170
330
53
100
AcDbEntity
  8
1
  6
Continuous
 62
     7
100
AcDbLine
 10
196.0
 20
25.50000000000001
 30
0.0
 11
196.0
 21
21.50000000000001
 31
0.0
  0
LINE
  5
171
330
53
100
AcDbEntity
  8
1
  6
Continuous
 62
     7
100
AcDbLine
 10
191.0
 20
24.70000000000001
 30
0.0
 11
196.0
 21
25.50000000000001
 31
0.0
  0
LINE
  5
172
330
53
100
AcDbEntity
  8
1
  6
Continuous
 62
     7
100
AcDbLine
 10
191.0
 20
24.70000000000001
 30
0.0
 11
191.0
 21
22.30000000000001
 31
0.0
  0
LINE
  5
173
330
53
100
AcDbEntity
  8
1
  6
Continuous
 62
     2
100
AcDbLine
 10
33.0
 20
27.0
 30
0.0
 11
33.0
 21
10.0
 31
0.0
  0
LINE
  5
174
330
53
100
AcDbEntity
  8
1
  6
Continuous
 62
     2
100
AcDbLine
 10
25.0
 20
18.50000000000001
 30
0.0
 11
81.0
 21
18.50000000000001
 31
0.0
  0
LINE
  5
175
330
53
100
AcDbEntity
  8
1
  6
Continuous
 62
     7
100
AcDbLine
 10
200.0
 20
287.0000000000003
 30
0.0
 11
105.0
 21
287.0000000000003
 31
0.0
  0
LINE
  5
176
330
53
100
AcDbEntity
  8
1
  6
Continuous
 62
     7
100
AcDbLine
 10
200.0
 20
10.0
 30
0.0
 11
200.0
 21
148.5
 31
0.0
  0
LINE
  5
177
330
53
100
AcDbEntity
  8
1
  6
Continuous
 62
     7
100
AcDbLine
 10
25.0
 20
10.0
 30
0.0
 11
105.0
 21
10.0
 31
0.0
  0
LINE
  5
178
330
53
100
AcDbEntity
  8
1
  6
PHANTOM
 62
     4
100
AcDbLine
 10
0.0
 20
297.0
 30
0.0
 11
0.0
 21
0.0
 31
0.0
  0
LINE
  5
179
330
53
100
AcDbEntity
  8
1
  6
PHANTOM
 62
     4
100
AcDbLine
 10
210.0
 20
297.0
 30
0.0
 11
0.0
 21
297.0
 31
0.0
  0
LINE
  5
17A
330
53
100
AcDbEntity
  8
1
  6
PHANTOM
 62
     4
100
AcDbLine
 10
210.0
 20
0.0
 30
0.0
 11
210.0
 21
297.0
 31
0.0
  0
LINE
  5
17B
330
53
100
AcDbEntity
  8
1
  6
PHANTOM
 62
     4
100
AcDbLine
 10
0.0
 20
0.0
 30
0.0
 11
210.0
 21
0.0
 31
0.0
  0
LINE
  5
17C
330
53
100
AcDbEntity
  8
1
  6
Continuous
 62
     7
100
AcDbLine
 10
25.0
 20
41.0
 30
0.0
 11
200.0
 21
41.0
 31
0.0
  0
LINE
  5
17D
330
53
100
AcDbEntity
  8
1
  6
Continuous
 62
     7
100
AcDbLine
 10
200.0
 20
27.00000000000001
 30
0.0
 11
25.0
 21
27.00000000000001
 31
0.0
  0
LINE
  5
17E
330
53
100
AcDbEntity
  8
1
  6
Continuous
 62
     2
100
AcDbLine
 10
33.0
 20
41.00000000000001
 30
0.0
 11
33.0
 21
27.0
 31
0.0
  0
LINE
  5
17F
330
53
100
AcDbEntity
  8
1
  6
Continuous
 62
     2
100
AcDbLine
 10
55.0
 20
287.0000000000003
 30
0.0
 11
55.0
 21
277.0000000000003
 31
0.0
  0
LINE
  5
180
330
53
100
AcDbEntity
  8
1
  6
Continuous
 62
     2
100
AcDbLine
 10
40.0
 20
287.0000000000003
 30
0.0
 11
40.0
 21
277.0000000000003
 31
0.0
  0
LINE
  5
181
330
53
100
AcDbEntity
  8
1
  6
Continuous
 62
     7
100
AcDbLine
 10
25.0
 20
10.0
 30
0.0
 11
25.0
 21
148.5
 31
0.0
  0
LINE
  5
182
330
53
100
AcDbEntity
  8
1
  6
Continuous
 62
     2
100
AcDbLine
 10
55.0
 20
277.0000000000003
 30
0.0
 11
25.0
 21
277.0000000000003
 31
0.0
  0
LINE
  5
183
330
53
100
AcDbEntity
  8
1
  6
Continuous
 62
     2
100
AcDbLine
 10
166.0
 20
27.00000000000001
 30
0.0
 11
166.0
 21
10.0
 31
0.0
  0
LINE
  5
184
330
53
100
AcDbEntity
  8
1
  6
Continuous
 62
     2
100
AcDbLine
 10
132.0
 20
27.00000000000001
 30
0.0
 11
132.0
 21
9.99999999999999
 31
0.0
  0
LINE
  5
185
330
53
100
AcDbEntity
  8
1
  6
Continuous
 62
     2
100
AcDbLine
 10
149.0
 20
27.00000000000001
 30
0.0
 11
149.0
 21
10.0
 31
0.0
  0
LINE
  5
186
330
53
100
AcDbEntity
  8
1
  6
Continuous
 62
     2
100
AcDbLine
 10
115.0
 20
27.00000000000001
 30
0.0
 11
115.0
 21
9.99999999999999
 31
0.0
  0
LINE
  5
187
330
53
100
AcDbEntity
  8
1
  6
Continuous
 62
     2
100
AcDbLine
 10
98.0
 20
27.00000000000001
 30
0.0
 11
98.0
 21
9.99999999999999
 31
0.0
  0
LINE
  5
188
330
53
100
AcDbEntity
  8
1
  6
Continuous
 62
     2
100
AcDbLine
 10
166.0
 20
20.00000000000001
 30
0.0
 11
200.0
 21
20.00000000000001
 31
0.0
  0
LINE
  5
189
330
53
100
AcDbEntity
  8
1
  6
Continuous
 62
     2
100
AcDbLine
 10
105.0
 20
287.0000000000003
 30
0.0
 11
105.0
 21
292.0000000000003
 31
0.0
  0
LINE
  5
18A
330
53
100
AcDbEntity
  8
1
  6
Continuous
 62
     7
100
AcDbLine
 10
105.0
 20
287.0000000000003
 30
0.0
 11
25.0
 21
287.0000000000003
 31
0.0
  0
LINE
  5
18B
330
53
100
AcDbEntity
  8
1
  6
Continuous
 62
     2
100
AcDbLine
 10
25.0
 20
148.5
 30
0.0
 11
20.0
 21
148.5
 31
0.0
  0
LINE
  5
18C
330
53
100
AcDbEntity
  8
1
  6
Continuous
 62
     7
100
AcDbLine
 10
25.0
 20
148.5
 30
0.0
 11
25.0
 21
287.0000000000003
 31
0.0
  0
LINE
  5
18D
330
53
100
AcDbEntity
  8
1
  6
Continuous
 62
     2
100
AcDbLine
 10
200.0
 20
148.5
 30
0.0
 11
205.0
 21
148.5
 31
0.0
  0
LINE
  5
18E
330
53
100
AcDbEntity
  8
1
  6
Continuous
 62
     7
100
AcDbLine
 10
200.0
 20
148.5
 30
0.0
 11
200.0
 21
287.0000000000003
 31
0.0
  0
LINE
  5
18F
330
53
100
AcDbEntity
  8
1
  6
Continuous
 62
     2
100
AcDbLine
 10
105.0
 20
10.0
 30
0.0
 11
105.0
 21
5.0
 31
0.0
  0
LINE
  5
190
330
53
100
AcDbEntity
  8
1
  6
Continuous
 62
     7
100
AcDbLine
 10
105.0
 20
10.0
 30
0.0
 11
200.0
 21
10.0
 31
0.0
  0
CIRCLE
  5
191
330
53
100
AcDbEntity
  8
1
  6
DOT_CENTER
 62
     7
100
AcDbCircle
 10
89.5
 20
18.0
 30
0.0
 40
0.1000000000000227
  0
CIRCLE
  5
192
330
53
100
AcDbEntity
  8
1
  6
DOT_CENTER
 62
     7
100
AcDbCircle
 10
89.5
 20
16.0
 30
0.0
 40
0.1000000000000227
  0
CIRCLE
  5
193
330
53
100
AcDbEntity
  8
1
  6
Continuous
 62
     7
100
AcDbCircle
 10
187.0
 20
23.50000000000001
 30
0.0
 40
2.0
  0
CIRCLE
  5
194
330
53
100
AcDbEntity
  8
1
  6
Continuous
 62
     7
100
AcDbCircle
 10
187.0
 20
23.50000000000001
 30
0.0
 40
1.200000000000102
  0
CIRCLE
  5
195
330
53
100
AcDbEntity
  8
1
  6
Continuous
 62
     7
100
AcDbCircle
 10
154.5
 20
12.5
 30
0.0
 40
0.3000000000000114
  0
CIRCLE
  5
196
330
53
100
AcDbEntity
  8
1
  6
Continuous
 62
     7
100
AcDbCircle
 10
160.5
 20
12.5
 30
0.0
 40
0.3000000000000114
  0
CIRCLE
  5
197
330
53
100
AcDbEntity
  8
1
  6
Continuous
 62
     7
100
AcDbCircle
 10
143.5
 20
12.5
 30
0.0
 40
0.3000000000000114
  0
CIRCLE
  5
198
330
53
100
AcDbEntity
  8
1
  6
Continuous
 62
     7
100
AcDbCircle
 10
137.5
 20
12.5
 30
0.0
 40
0.3000000000000114
  0
CIRCLE
  5
199
330
53
100
AcDbEntity
  8
1
  6
Continuous
 62
     7
100
AcDbCircle
 10
126.5
 20
12.5
 30
0.0
 40
0.2999999999999972
  0
CIRCLE
  5
19A
330
53
100
AcDbEntity
  8
1
  6
Continuous
 62
     7
100
AcDbCircle
 10
120.5
 20
12.5
 30
0.0
 40
0.2999999999999972
  0
CIRCLE
  5
19B
330
53
100
AcDbEntity
  8
1
  6
Continuous
 62
     7
100
AcDbCircle
 10
109.5
 20
12.5
 30
0.0
 40
0.2999999999999972
  0
CIRCLE
  5
19C
330
53
100
AcDbEntity
  8
1
  6
Continuous
 62
     7
100
AcDbCircle
 10
103.5
 20
12.5
 30
0.0
 40
0.2999999999999972
  0
MTEXT
  5
19E
330
53
100
AcDbEntity
  8
1
 62
   250
100
AcDbMText
 10
25.0
 20
5.0
 30
0.0
 40
3.5
 41
0.0
 71
     4
 72
     1
  1
備考欄の文字列 原点位置=4
  7
CONVERTER_11
 73
     1
 44
0.54545454545455
  0
MTEXT
  5
19F
330
53
100
AcDbEntity
  8
1
 62
     2
100
AcDbMText
 10
89.5
 20
24.00000000000001
 30
0.0
 40
3.5
 41
0.0
 71
     5
 72
     1
  1
尺度
  7
CONVERTER_11
 73
     1
 44
0.54545454545455
  0
MTEXT
  5
1A0
330
53
100
AcDbEntity
  8
1
 62
     2
100
AcDbMText
 10
135.5
 20
25.00000000000001
 30
0.0
 40
3.0
 41
0.0
 71
     5
 72
     1
  1
製図
  7
CONVERTER_11
 73
     1
 44
0.59090909090909
  0
MTEXT
  5
1A1
330
53
100
AcDbEntity
  8
1
 62
     2
100
AcDbMText
 10
152.5
 20
25.00000000000001
 30
0.0
 40
3.0
 41
0.0
 71
     5
 72
     1
  1
設計
  7
CONVERTER_11
 73
     1
 44
0.59090909090909
  0
MTEXT
  5
1A2
330
53
100
AcDbEntity
  8
1
 62
     2
100
AcDbMText
 10
118.5
 20
25.00000000000001
 30
0.0
 40
3.0
 41
0.0
 71
     5
 72
     1
  1
検図
  7
CONVERTER_11
 73
     1
 44
0.59090909090909
  0
MTEXT
  5
1A3
330
53
100
AcDbEntity
  8
1
 62
     2
100
AcDbMText
 10
175.0
 20
23.50000000000001
 30
0.0
 40
3.5
 41
0.0
 71
     5
 72
     1
  1
第三角法
  7
CONVERTER_11
 73
     1
 44
0.54545454545455
  0
MTEXT
  5
1A4
330
53
100
AcDbEntity
  8
1
 62
     2
100
AcDbMText
 10
101.5
 20
25.00000000000001
 30
0.0
 40
3.0
 41
0.0
 71
     5
 72
     1
  1
承認
  7
CONVERTER_11
 73
     1
 44
0.59090909090909
  0
MTEXT
  5
1A5
330
53
100
AcDbEntity
  8
1
 62
     2
100
AcDbMText
 10
29.0
 20
14.25
 30
0.0
 40
3.5
 41
0.0
 71
     5
 72
     1
  1
品番
  7
CONVERTER_11
 73
     1
 44
0.72727272727273
  0
MTEXT
  5
1A6
330
53
100
AcDbEntity
  8
1
 62
     2
100
AcDbMText
 10
29.0
 20
22.75
 30
0.0
 40
3.5
 41
0.0
 71
     5
 72
     1
  1
品名
  7
CONVERTER_11
 73
     1
 44
0.72727272727273
  0
MTEXT
  5
1A7
330
53
100
AcDbEntity
  8
1
 62
     2
100
AcDbMText
 10
29.0
 20
34.00000000000001
 30
0.0
 40
3.5
 41
0.0
 71
     5
 72
     1
  1
備考
  7
CONVERTER_11
 73
     1
 44
0.45454545454545
  0
MTEXT
  5
1A8
330
53
100
AcDbEntity
  8
1
 62
     2
100
AcDbMText
 10
32.5
 20
282.0000000000003
 30
0.0
 40
5.0
 41
0.0
 71
     5
 72
     1
  1
図番
  7
CONVERTER_11
 73
     1
 44
0.45454545454545
  0
MTEXT
  5
1A9
330
53
100
AcDbEntity
  8
1
 62
     7
100
AcDbMText
 10
171.5
 20
15.0
 30
0.0
 40
2.5
 41
0.0
 71
     5
 72
     1
  1
株式会社
  7
CONVERTER_11
 73
     1
 44
1.0
  0
MTEXT
  5
1AA
330
53
100
AcDbEntity
  8
1
 62
     7
100
AcDbMText
 10
188.5
 20
15.0
 30
0.0
 40
3.0
 41
0.0
 71
     5
 72
     1
  1
三栄水栓製作所
  7
CONVERTER_11
 73
     1
 44
1.0
  0
ENDBLK
  5
55
330
53
100
AcDbEntity
  8
0
100
AcDbBlockEnd
  0
BLOCK
  5
1D2
330
1CB
100
AcDbEntity
  8
0
100
AcDbBlockBegin
  2
*D6
 70
     1
 10
0.0
 20
0.0
 30
0.0
  3
*D6
  1

  0
LINE
  5
1CC
330
1CB
100
AcDbEntity
  8
0
  6
Continuous
 62
     2
100
AcDbLine
 10
552.3402325427062
 20
176.5000300000301
 30
0.0
 11
538.3402325427062
 21
176.5000300000301
 31
0.0
  0
LINE
  5
1CD
330
1CB
100
AcDbEntity
  8
0
  6
Continuous
 62
     2
100
AcDbLine
 10
572.0065890351783
 20
176.5000300000301
 30
0.0
 11
552.3402325427062
 21
176.5000300000301
 31
0.0
  0
LINE
  5
1CE
330
1CB
100
AcDbEntity
  8
0
  6
Continuous
 62
     2
100
AcDbLine
 10
552.3402325427062
 20
220.1800300000301
 30
0.0
 11
552.3402325427062
 21
173.500027000027
 31
0.0
  0
LINE
  5
1CF
330
1CB
100
AcDbEntity
  8
0
  6
Continuous
 62
     2
100
AcDbLine
 10
538.3402325427062
 20
206.5000300000301
 30
0.0
 11
538.3402325427062
 21
173.500027000027
 31
0.0
  0
SOLID
  5
1D0
330
1CB
100
AcDbEntity
  8
0
 62
     2
100
AcDbTrace
 10
561.3402415427151
 20
177.6849036631903
 30
0.0
 11
561.3402415427151
 21
175.3151563368698
 31
0.0
 12
552.3402325427062
 22
176.5000300000301
 32
0.0
 13
552.3402325427062
 23
176.5000300000301
 33
0.0
  0
MTEXT
  5
1D1
330
1CB
100
AcDbEntity
  8
0
 62
     7
100
AcDbMText
 10
559.4065764351657
 20
179.5000330000331
 30
0.0
 40
10.5000105000105
 41
0.0
 71
     7
 72
     1
  1
14
  7
CONVERTER_12
 11
0.9999999999970619
 21
2.424068405545306E-6
 31
0.0
 73
     1
 44
0.60024009603842
  0
ENDBLK
  5
1D3
330
1CB
100
AcDbEntity
  8
0
100
AcDbBlockEnd
  0
BLOCK
  5
1D5
330
1D4
100
AcDbEntity
  8
0
100
AcDbBlockBegin
  2
_NONE
 70
     0
 10
0.0
 20
0.0
 30
0.0
  3
_NONE
  1

  0
ENDBLK
  5
1D6
330
1D4
100
AcDbEntity
  8
0
100
AcDbBlockEnd
  0
BLOCK
  5
1E0
330
1D9
100
AcDbEntity
  8
0
100
AcDbBlockBegin
  2
*D8
 70
     1
 10
0.0
 20
0.0
 30
0.0
  3
*D8
  1

  0
LINE
  5
1DA
330
1D9
100
AcDbEntity
  8
0
  6
Continuous
 62
     2
100
AcDbLine
 10
237.3921228169361
 20
264.5000300000302
 30
0.0
 11
237.3921228169361
 21
229.5000300000298
 31
0.0
  0
LINE
  5
1DB
330
1D9
100
AcDbEntity
  8
0
  6
Continuous
 62
     2
100
AcDbLine
 10
454.8424089933342
 20
229.5000300000298
 30
0.0
 11
234.392119816933
 21
229.5000300000298
 31
0.0
  0
LINE
  5
1DC
330
1D9
100
AcDbEntity
  8
0
  6
Continuous
 62
     2
100
AcDbLine
 10
200.2266395486915
 20
264.5000300000302
 30
0.0
 11
240.3921258169391
 21
264.5000300000302
 31
0.0
  0
SOLID
  5
1DD
330
1D9
100
AcDbEntity
  8
0
 62
     2
100
AcDbTrace
 10
238.7744754239563
 20
254.0000195000197
 30
0.0
 11
236.0097702099158
 21
254.0000195000197
 31
0.0
 12
237.3921228169361
 22
264.5000300000302
 32
0.0
 13
237.3921228169361
 23
264.5000300000302
 33
0.0
  0
SOLID
  5
1DE
330
1D9
100
AcDbEntity
  8
0
 62
     2
100
AcDbTrace
 10
236.0097702099158
 20
240.0000405000403
 30
0.0
 11
238.7744754239563
 21
240.0000405000403
 31
0.0
 12
237.3921228169361
 22
229.5000300000298
 32
0.0
 13
237.3921228169361
 23
229.5000300000298
 33
0.0
  0
MTEXT
  5
1DF
330
1D9
100
AcDbEntity
  8
0
 62
     7
100
AcDbMText
 10
234.392119816933
 20
239.5566298140572
 30
0.0
 40
10.5000105000105
 41
0.0
 71
     7
 72
     1
  1
35
  7
CONVERTER_12
 11
0.0
 21
1.0
 31
0.0
 73
     1
 44
0.60024009603842
  0
ENDBLK
  5
1E1
330
1D9
100
AcDbEntity
  8
0
100
AcDbBlockEnd
  0
BLOCK
  5
1EB
330
1E4
100
AcDbEntity
  8
0
100
AcDbBlockBegin
  2
*D9
 70
     1
 10
0.0
 20
0.0
 30
0.0
  3
*D9
  1

  0
LINE
  5
1E5
330
1E4
100
AcDbEntity
  8
0
  6
Continuous
 62
     2
100
AcDbLine
 10
267.392122816936
 20
229.5000300000298
 30
0.0
 11
267.392122816936
 21
305.5000300000303
 31
0.0
  0
LINE
  5
1E6
330
1E4
100
AcDbEntity
  8
0
  6
Continuous
 62
     2
100
AcDbLine
 10
454.8424089933342
 20
229.5000300000298
 30
0.0
 11
264.392119816933
 21
229.5000300000298
 31
0.0
  0
LINE
  5
1E7
330
1E4
100
AcDbEntity
  8
0
  6
Continuous
 62
     2
100
AcDbLine
 10
219.8402325427052
 20
305.5000300000303
 30
0.0
 11
270.392125816939
 21
305.5000300000303
 31
0.0
  0
SOLID
  5
1E8
330
1E4
100
AcDbEntity
  8
0
 62
     2
100
AcDbTrace
 10
266.0097702099158
 20
240.0000405000403
 30
0.0
 11
268.7744754239563
 21
240.0000405000403
 31
0.0
 12
267.392122816936
 22
229.5000300000298
 32
0.0
 13
267.392122816936
 23
229.5000300000298
 33
0.0
  0
SOLID
  5
1E9
330
1E4
100
AcDbEntity
  8
0
 62
     2
100
AcDbTrace
 10
268.7744754239563
 20
295.0000195000198
 30
0.0
 11
266.0097702099158
 21
295.0000195000198
 31
0.0
 12
267.392122816936
 22
305.5000300000303
 32
0.0
 13
267.392122816936
 23
305.5000300000303
 33
0.0
  0
MTEXT
  5
1EA
330
1E4
100
AcDbEntity
  8
0
 62
     7
100
AcDbMText
 10
264.392119816933
 20
239.3561880430121
 30
0.0
 40
10.5000105000105
 41
0.0
 71
     7
 72
     1
  1
76
  7
CONVERTER_12
 11
0.0
 21
1.0
 31
0.0
 73
     1
 44
0.60024009603842
  0
ENDBLK
  5
1EC
330
1E4
100
AcDbEntity
  8
0
100
AcDbBlockEnd
  0
BLOCK
  5
1F6
330
1EF
100
AcDbEntity
  8
0
100
AcDbBlockBegin
  2
*D10
 70
     1
 10
0.0
 20
0.0
 30
0.0
  3
*D10
  1

  0
LINE
  5
1F0
330
1EF
100
AcDbEntity
  8
0
  6
Continuous
 62
     2
100
AcDbLine
 10
492.8402325427054
 20
176.5000300000301
 30
0.0
 11
192.8402325427054
 21
176.5000300000301
 31
0.0
  0
LINE
  5
1F1
330
1EF
100
AcDbEntity
  8
0
  6
Continuous
 62
     2
100
AcDbLine
 10
492.8402325427054
 20
201.5039933022938
 30
0.0
 11
492.8402325427054
 21
173.500027000027
 31
0.0
  0
LINE
  5
1F2
330
1EF
100
AcDbEntity
  8
0
  6
Continuous
 62
     2
100
AcDbLine
 10
192.8402325427054
 20
261.5000300000303
 30
0.0
 11
192.8402325427054
 21
173.500027000027
 31
0.0
  0
SOLID
  5
1F3
330
1EF
100
AcDbEntity
  8
0
 62
     2
100
AcDbTrace
 10
482.3402220426949
 20
175.1176773930098
 30
0.0
 11
482.3402220426949
 21
177.8823826070503
 31
0.0
 12
492.8402325427054
 22
176.5000300000301
 32
0.0
 13
492.8402325427054
 23
176.5000300000301
 33
0.0
  0
SOLID
  5
1F4
330
1EF
100
AcDbEntity
  8
0
 62
     2
100
AcDbTrace
 10
203.3402430427159
 20
177.8823826070503
 30
0.0
 11
203.3402430427159
 21
175.1176773930098
 31
0.0
 12
192.8402325427054
 22
176.5000300000301
 32
0.0
 13
192.8402325427054
 23
176.5000300000301
 33
0.0
  0
MTEXT
  5
1F5
330
1EF
100
AcDbEntity
  8
0
 62
     7
100
AcDbMText
 10
330.2402199426929
 20
179.5000330000331
 30
0.0
 40
10.5000105000105
 41
0.0
 71
     7
 72
     1
  1
300
  7
CONVERTER_12
 11
0.9999999999970619
 21
2.424068405545306E-6
 31
0.0
 73
     1
 44
0.60024009603842
  0
ENDBLK
  5
1F7
330
1EF
100
AcDbEntity
  8
0
100
AcDbBlockEnd
  0
BLOCK
  5
201
330
1FA
100
AcDbEntity
  8
0
100
AcDbBlockBegin
  2
*D11
 70
     1
 10
0.0
 20
0.0
 30
0.0
  3
*D11
  1

  0
LINE
  5
1FB
330
1FA
100
AcDbEntity
  8
0
  6
Continuous
 62
     2
100
AcDbLine
 10
538.3402325427062
 20
176.5000300000301
 30
0.0
 11
492.8402325427053
 21
176.5000300000301
 31
0.0
  0
LINE
  5
1FC
330
1FA
100
AcDbEntity
  8
0
  6
Continuous
 62
     2
100
AcDbLine
 10
538.3402325427062
 20
206.5000300000301
 30
0.0
 11
538.3402325427062
 21
173.500027000027
 31
0.0
  0
LINE
  5
1FD
330
1FA
100
AcDbEntity
  8
0
  6
Continuous
 62
     2
100
AcDbLine
 10
492.8402325427053
 20
201.5039933022938
 30
0.0
 11
492.8402325427053
 21
173.500027000027
 31
0.0
  0
SOLID
  5
1FE
330
1FA
100
AcDbEntity
  8
0
 62
     2
100
AcDbTrace
 10
527.8402220426957
 20
175.1176773930098
 30
0.0
 11
527.8402220426957
 21
177.8823826070503
 31
0.0
 12
538.3402325427062
 22
176.5000300000301
 32
0.0
 13
538.3402325427062
 23
176.5000300000301
 33
0.0
  0
SOLID
  5
1FF
330
1FA
100
AcDbEntity
  8
0
 62
     2
100
AcDbTrace
 10
503.3402430427158
 20
177.8823826070503
 30
0.0
 11
503.3402430427158
 21
175.1176773930098
 31
0.0
 12
492.8402325427053
 22
176.5000300000301
 32
0.0
 13
492.8402325427053
 23
176.5000300000301
 33
0.0
  0
MTEXT
  5
200
330
1FA
100
AcDbEntity
  8
0
 62
     7
100
AcDbMText
 10
507.7152246676981
 20
179.5000330000331
 30
0.0
 40
10.5000105000105
 41
0.0
 71
     7
 72
     1
  1
46
  7
CONVERTER_12
 11
0.9999999999970619
 21
2.424068405545306E-6
 31
0.0
 73
     1
 44
0.60024009603842
  0
ENDBLK
  5
202
330
1FA
100
AcDbEntity
  8
0
100
AcDbBlockEnd
  0
BLOCK
  5
20C
330
205
100
AcDbEntity
  8
0
100
AcDbBlockBegin
  2
*D12
 70
     1
 10
0.0
 20
0.0
 30
0.0
  3
*D12
  1

  0
LINE
  5
206
330
205
100
AcDbEntity
  8
0
  6
Continuous
 62
     2
100
AcDbLine
 10
582.3402325427063
 20
206.50003000003
 30
0.0
 11
582.3402325427063
 21
252.50003000003
 31
0.0
  0
LINE
  5
207
330
205
100
AcDbEntity
  8
0
  6
Continuous
 62
     2
100
AcDbLine
 10
538.3402325427062
 20
206.50003000003
 30
0.0
 11
585.3402355427093
 21
206.50003000003
 31
0.0
  0
LINE
  5
208
330
205
100
AcDbEntity
  8
0
  6
Continuous
 62
     2
100
AcDbLine
 10
538.3402325427062
 20
252.50003000003
 30
0.0
 11
585.3402355427093
 21
252.50003000003
 31
0.0
  0
SOLID
  5
209
330
205
100
AcDbEntity
  8
0
 62
     2
100
AcDbTrace
 10
580.957879935686
 20
217.0000405000405
 30
0.0
 11
583.7225851497266
 21
217.0000405000405
 31
0.0
 12
582.3402325427063
 22
206.50003000003
 32
0.0
 13
582.3402325427063
 23
206.50003000003
 33
0.0
  0
SOLID
  5
20A
330
205
100
AcDbEntity
  8
0
 62
     2
100
AcDbTrace
 10
583.7225851497266
 20
242.0000195000195
 30
0.0
 11
580.957879935686
 21
242.0000195000195
 31
0.0
 12
582.3402325427063
 22
252.50003000003
 32
0.0
 13
582.3402325427063
 23
252.50003000003
 33
0.0
  0
MTEXT
  5
20B
330
205
100
AcDbEntity
  8
0
 62
     7
100
AcDbMText
 10
579.3402295427034
 20
219.3150198150198
 30
0.0
 40
10.5000105000105
 41
0.0
 71
     7
 72
     1
  1
\C7;{\Fgdt;n}\C7;46
  7
CONVERTER_12
 11
0.0
 21
1.0
 31
0.0
 73
     1
 44
0.60024009603842
  0
ENDBLK
  5
20D
330
205
100
AcDbEntity
  8
0
100
AcDbBlockEnd
  0
BLOCK
  5
217
330
210
100
AcDbEntity
  8
0
100
AcDbBlockBegin
  2
*D13
 70
     1
 10
0.0
 20
0.0
 30
0.0
  3
*D13
  1

  0
LINE
  5
211
330
210
100
AcDbEntity
  8
1
  6
Continuous
 62
     2
100
AcDbLine
 10
159.9999104633965
 20
176.5000440444161
 30
0.0
 11
110.1744931158642
 21
176.5000440444161
 31
0.0
  0
LINE
  5
212
330
210
100
AcDbEntity
  8
1
  6
Continuous
 62
     2
100
AcDbLine
 10
110.1744931158642
 20
197.5000350444071
 30
0.0
 11
110.1744931158642
 21
173.5000410444131
 31
0.0
  0
LINE
  5
213
330
210
100
AcDbEntity
  8
1
  6
Continuous
 62
     2
100
AcDbLine
 10
159.9999104633965
 20
229.5000300000299
 30
0.0
 11
159.9999104633965
 21
173.5000410444131
 31
0.0
  0
SOLID
  5
214
330
210
100
AcDbEntity
  8
1
 62
     2
100
AcDbTrace
 10
149.499899963386
 20
175.1176914373959
 30
0.0
 11
149.499899963386
 21
177.8823966514364
 31
0.0
 12
159.9999104633965
 22
176.5000440444161
 32
0.0
 13
159.9999104633965
 23
176.5000440444161
 33
0.0
  0
SOLID
  5
215
330
210
100
AcDbEntity
  8
1
 62
     2
100
AcDbTrace
 10
120.6745036158747
 20
177.8823966514364
 30
0.0
 11
120.6745036158747
 21
175.1176914373959
 31
0.0
 12
110.1744931158642
 22
176.5000440444161
 32
0.0
 13
110.1744931158642
 23
176.5000440444161
 33
0.0
  0
MTEXT
  5
216
330
210
100
AcDbEntity
  8
1
 62
     7
100
AcDbMText
 10
127.2121939146224
 20
179.5000470444191
 30
0.0
 40
10.5000105000105
 41
0.0
 71
     7
 72
     1
  1
50
  7
CONVERTER_12
 11
0.9999999999970619
 21
2.424068405545306E-6
 31
0.0
 73
     1
 44
0.60024009603842
  0
ENDBLK
  5
218
330
210
100
AcDbEntity
  8
0
100
AcDbBlockEnd
  0
ENDSEC
  0
SECTION
  2
ENTITIES
  0
INSERT
  5
56
330
1F
100
AcDbEntity
  8
1
100
AcDbBlockReference
  2
61-1-16-300-M2
 10
222.8084331382947
 20
147.9659584573888
 30
0.0
  0
INSERT
  5
57
330
1F
100
AcDbEntity
  8
1
100
AcDbBlockReference
  2
A205-0
 10
565.8067151971244
 20
38.83400579466696
 30
0.0
  0
INSERT
  5
58
330
1F
100
AcDbEntity
  8
1
100
AcDbBlockReference
  2
81-100X-M21
 10
138.9951963409487
 20
280.0814904582829
 30
0.0
  0
INSERT
  5
59
330
1F
100
AcDbEntity
  8
0
100
AcDbBlockReference
  2
32-1-16
 10
340.4871885699056
 20
388.5008696999923
 30
0.0
  0
INSERT
  5
5A
330
1F
100
AcDbEntity
  8
1
100
AcDbBlockReference
  2
開示A4
 10
0.0
 20
0.0
 30
0.0
 41
3.000003000003
 42
3.000003000003
 43
3.000003000003
  0
LINE
  5
1AB
330
1F
100
AcDbEntity
  8
1
  6
Continuous
 62
     2
100
AcDbLine
 10
397.609304864962
 20
234.9750509217653
 30
0.0
 11
430.1690211723142
 21
234.9750509217653
 31
0.0
  0
LINE
  5
1AC
330
1F
100
AcDbEntity
  8
1
  6
Continuous
 62
     2
100
AcDbLine
 10
409.3228613413871
 20
269.0141869947909
 30
0.0
 11
439.69869423788
 21
269.0141869947909
 31
0.0
  0
LINE
  5
1AD
330
1F
100
AcDbEntity
  8
0
  6
DASH_CENTER
 62
     2
100
AcDbLine
 10
163.1999104633966
 20
229.5000300000299
 30
0.0
 11
84.19991046339658
 21
229.5000300000299
 31
0.0
  0
LINE
  5
1AE
330
1F
100
AcDbEntity
  8
1
  6
Continuous
 62
     2
100
AcDbLine
 10
492.8402325427053
 20
206.5039933022937
 30
0.0
 11
492.8402325427053
 21
201.5039933022937
 31
0.0
  0
LINE
  5
1AF
330
1F
100
AcDbEntity
  8
1
  6
DASH_CENTER
 62
     2
100
AcDbLine
 10
561.3402325427062
 20
229.5000300000305
 30
0.0
 11
454.8424089933342
 21
229.5000300000298
 31
0.0
  0
LINE
  5
1B0
330
1F
100
AcDbEntity
  8
1
  6
DASH_CENTER
 62
     2
100
AcDbLine
 10
110.1999104633965
 20
380.3577595877651
 30
0.0
 11
110.1999104633967
 21
760.3417353824017
 31
0.0
  0
LINE
  5
1B1
330
1F
100
AcDbEntity
  8
1
  6
DASH_CENTER
 62
     2
100
AcDbLine
 10
121.3759971664379
 20
395.3417353824024
 30
0.0
 11
99.02382376035497
 21
395.3417353824024
 31
0.0
  0
LINE
  5
1B2
330
1F
100
AcDbEntity
  8
1
  6
DASH_CENTER
 62
     2
100
AcDbLine
 10
492.8402325427053
 20
206.5039933022937
 30
0.0
 11
492.8402325427053
 21
270.5000300000302
 31
0.0
  0
LINE
  5
1B3
330
1F
100
AcDbEntity
  8
1
  6
DASH_CENTER
 62
     2
100
AcDbLine
 10
110.1744931158642
 20
197.5000350444071
 30
0.0
 11
110.1744931158642
 21
315.00003900004
 31
0.0
  0
LINE
  5
1B4
330
1F
100
AcDbEntity
  8
1
  6
DASH_CENTER
 62
     2
100
AcDbLine
 10
148.9999104633965
 20
273.5000390000387
 30
0.0
 11
148.9999104633965
 21
200.5000210000207
 31
0.0
  0
LINE
  5
1B5
330
1F
100
AcDbEntity
  8
1
  6
DASH_CENTER
 62
     2
100
AcDbLine
 10
85.69990146338783
 20
695.3417353824025
 30
0.0
 11
168.9999194634061
 21
695.3417353824027
 31
0.0
  0
LINE
  5
1B6
330
1F
100
AcDbEntity
  8
1
  6
DASH_CENTER
 62
     2
100
AcDbLine
 10
192.8402325427053
 20
261.5000300000302
 30
0.0
 11
192.8402325427053
 21
270.5000300000302
 31
0.0
  0
LINE
  5
1B7
330
1F
100
AcDbEntity
  8
1
  6
DASH_CENTER
 62
     2
100
AcDbLine
 10
219.8402325427052
 20
297.5000300000303
 30
0.0
 11
465.8455880146274
 21
297.5000300000303
 31
0.0
  0
ARC
  5
1B8
330
1F
100
AcDbEntity
  8
0
  6
Continuous
 62
     2
100
AcDbCircle
 10
478.9429830059997
 20
242.025323069364
 30
0.0
 40
38.71431117627475
100
AcDbArc
 50
123.449766634975
 51
180.2015982504537
  0
ARC
  5
1B9
330
1F
100
AcDbEntity
  8
1
  6
DASH_CENTER
 62
     2
100
AcDbCircle
 10
219.8402325427052
 20
270.5000300000302
 30
0.0
 40
27.00000000000006
100
AcDbArc
 50
90.0
 51
180.0
  0
ARC
  5
1BA
330
1F
100
AcDbEntity
  8
1
  6
DASH_CENTER
 62
     2
100
AcDbCircle
 10
465.8455880146275
 20
270.5000300000303
 30
0.0
 40
27.0
100
AcDbArc
 50
0.0
 51
90.00000000000011
  0
SOLID
  5
1BB
330
1F
100
AcDbEntity
  8
1
 62
     2
100
AcDbTrace
 10
549.7591107218287
 20
249.7844821365529
 30
0.0
 11
552.1534156711631
 21
248.4021295295327
 31
0.0
 12
545.7062579464907
 22
240.0000300000303
 32
0.0
 13
545.7062579464907
 23
240.0000300000303
 33
0.0
  0
LEADER
  5
1BC
330
1F
100
AcDbEntity
  8
1
  6
Continuous
 62
     2
100
AcDbLeader
  3
Standard
 71
     0
 76
     3
 10
545.7062579464907
 20
240.0000300000303
 30
0.0
 10
561.8720481632748
 20
268.0
 30
0.0
 10
596.3577888354364
 20
268.0
 30
0.0
  0
SOLID
  5
1BD
330
1F
100
AcDbEntity
  8
0
 62
     2
100
AcDbTrace
 10
439.3186828257623
 20
252.44053157326
 30
0.0
 11
442.0806082687857
 21
252.3165849407004
 31
0.0
 12
440.2289114752622
 22
241.8891049855376
 32
0.0
 13
440.2289114752622
 23
241.8891049855376
 33
0.0
  0
LEADER
  5
1BE
330
1F
100
AcDbEntity
  8
0
  6
Continuous
 62
     2
100
AcDbLeader
  3
Standard
 71
     0
 76
     2
 10
440.2289114752622
 20
241.8891049855376
 30
0.0
 10
440.3221720893387
 20
243.9672482761654
 30
0.0
  0
SOLID
  5
1BF
330
1F
100
AcDbEntity
  8
0
 62
     2
100
AcDbTrace
 10
450.5881837640711
 20
266.3934220584225
 30
0.0
 11
448.7737684461803
 21
268.479445062789
 31
0.0
 12
457.603435012454
 22
274.3273598671356
 32
0.0
 13
457.603435012454
 23
274.3273598671356
 33
0.0
  0
LEADER
  5
1C0
330
1F
100
AcDbEntity
  8
0
  6
Continuous
 62
     2
100
AcDbLeader
  3
Standard
 71
     0
 76
     2
 10
457.603435012454
 20
274.3273598671356
 30
0.0
 10
456.4539718668532
 20
273.3275609510339
 30
0.0
  0
MTEXT
  5
1C1
330
1F
100
AcDbEntity
  8
1
 62
     7
100
AcDbMText
 10
380.9365620938366
 20
263.5141869947909
 30
0.0
 40
10.5000105000105
 41
0.0
 71
     5
 72
     1
  1
90°
  7
CONVERTER_11
 73
     1
 44
0.54545454545455
  0
MTEXT
  5
1C3
330
1F
100
AcDbEntity
  8
1
 62
     7
100
AcDbMText
 10
102.0000000010201
 20
102.00000000102
 30
0.0
 40
10.5000105000105
 41
0.0
 71
     4
 72
     1
  1
JIS
  7
CONVERTER_12
 73
     1
 44
0.7202881152461
  0
MTEXT
  5
1C4
330
1F
100
AcDbEntity
  8
0
 62
     7
100
AcDbMText
 10
255.7500000025574
 20
51.00000000051
 30
0.0
 40
10.5000105000105
 41
0.0
 71
     5
 72
     1
  1
1
  7
CONVERTER_12
 73
     1
 44
0.7202881152461
  0
MTEXT
  5
1C5
330
1F
100
AcDbEntity
  8
0
 62
     7
100
AcDbMText
 10
281.2500000028123
 20
51.00000000051
 30
0.0
 40
10.5000105000105
 41
0.0
 71
     5
 72
     1
  1
3
  7
CONVERTER_12
 73
     1
 44
0.7202881152461
  0
MTEXT
  5
1C6
330
1F
100
AcDbEntity
  8
0
 62
     7
100
AcDbMText
 10
171.000171000171
 20
42.75004275004275
 30
0.0
 40
10.5000105000105
 41
0.0
 71
     5
 72
     1
  1
A205-L3-13
  7
CONVERTER_12
 73
     1
 44
1.32052821128451
  0
MTEXT
  5
1C7
330
1F
100
AcDbEntity
  8
0
 62
     7
100
AcDbMText
 10
171.000171000171
 20
68.25006825006828
 30
0.0
 40
10.5000105000105
 41
0.0
 71
     5
 72
     1
  1
ミニセラ横形自在水栓
  7
CONVERTER_11
 73
     1
 44
1.0
  0
MTEXT
  5
1C8
330
1F
100
AcDbEntity
  8
0
 62
     7
100
AcDbMText
 10
578.6149184993557
 20
277.0
 30
0.0
 40
10.5000105000105
 41
0.0
 71
     5
 72
     1
  1
PJ1/2
  7
CONVERTER_12
 73
     1
 44
0.7202881152461
  0
MTEXT
  5
1C9
330
1F
100
AcDbEntity
  8
1
 62
     7
100
AcDbMText
 10
423.9365620938366
 20
279.5141869947909
 30
0.0
 40
15.000015000015
 41
0.0
 71
     5
 72
     1
  1
止水
  7
CONVERTER_11
 73
     1
 44
0.54545454545455
  0
MTEXT
  5
1CA
330
1F
100
AcDbEntity
  8
1
 62
     7
100
AcDbMText
 10
413.8046242156397
 20
245.4750509217653
 30
0.0
 40
15.000015000015
 41
0.0
 71
     5
 72
     1
  1
吐水
  7
CONVERTER_11
 73
     1
 44
0.54545454545455
  0
DIMENSION
  5
1D8
330
1F
100
AcDbEntity
  8
0
100
AcDbDimension
  2
*D6
 10
552.3402325427062
 20
176.5000300000301
 30
0.0
 11
565.706582735172
 21
184.7500382500383
 31
0.0
 70
    32
  1
<>
 71
     5
 42
-1.0
 53
0.00013888888889
  3
ME10_DIM_10
100
AcDbAlignedDimension
 13
538.3402325427062
 23
206.50003000003
 33
0.0
 14
552.3402325427062
 24
220.18003000003
 34
0.0
100
AcDbRotatedDimension
  0
DIMENSION
  5
1E3
330
1F
100
AcDbEntity
  8
0
100
AcDbDimension
  2
*D8
 10
237.3921228169361
 20
264.5000300000302
 30
0.0
 11
229.1421145669278
 21
247.4316376890651
 31
0.0
 70
    32
  1
<>
 71
     5
 42
-1.0
 53
90.0
  3
ME10_DIM_11
100
AcDbAlignedDimension
 13
454.8424089933342
 23
229.5000300000298
 33
0.0
 14
200.2266395486915
 24
264.5000300000302
 34
0.0
 50
90.0
100
AcDbRotatedDimension
  0
DIMENSION
  5
1EE
330
1F
100
AcDbEntity
  8
0
100
AcDbDimension
  2
*D9
 10
267.392122816936
 20
229.5000300000298
 30
0.0
 11
259.1421145669278
 21
247.23119591802
 31
0.0
 70
    32
  1
<>
 71
     5
 42
-1.0
 53
90.0
  3
ME10_DIM_12
100
AcDbAlignedDimension
 13
219.8402325427052
 23
305.5000300000303
 33
0.0
 14
454.8424089933342
 24
229.5000300000298
 34
0.0
 50
90.0
100
AcDbRotatedDimension
  0
DIMENSION
  5
1F9
330
1F
100
AcDbEntity
  8
0
100
AcDbDimension
  2
*D10
 10
492.8402325427054
 20
176.5000300000301
 30
0.0
 11
342.8402325427055
 21
184.7500382500383
 31
0.0
 70
    32
  1
<>
 71
     5
 42
-1.0
 53
0.00013888888889
  3
ME10_DIM_13
100
AcDbAlignedDimension
 13
192.8402325427053
 23
261.5000300000302
 33
0.0
 14
492.8402325427053
 24
201.5039933022937
 34
0.0
100
AcDbRotatedDimension
  0
DIMENSION
  5
204
330
1F
100
AcDbEntity
  8
0
100
AcDbDimension
  2
*D11
 10
538.3402325427062
 20
176.5000300000301
 30
0.0
 11
515.590232542706
 21
184.7500382500383
 31
0.0
 70
    32
  1
46
 71
     5
 42
-1.0
 53
0.00013888888889
  3
ME10_DIM_14
100
AcDbAlignedDimension
 13
492.8402325427053
 23
201.5039933022937
 33
0.0
 14
538.3402325427062
 24
206.50003000003
 34
0.0
100
AcDbRotatedDimension
  0
DIMENSION
  5
20F
330
1F
100
AcDbEntity
  8
0
100
AcDbDimension
  2
*D12
 10
582.3402325427063
 20
206.50003000003
 30
0.0
 11
574.090224292698
 21
229.50003000003
 31
0.0
 70
    32
  1
<>
 71
     5
 42
-1.0
 53
90.0
  3
ME10_DIM_15
100
AcDbAlignedDimension
 13
538.3402325427062
 23
252.50003000003
 33
0.0
 14
538.3402325427062
 24
206.50003000003
 34
0.0
 50
90.0
100
AcDbRotatedDimension
  0
DIMENSION
  5
21A
330
1F
100
AcDbEntity
  8
1
100
AcDbDimension
  2
*D13
 10
159.9999104633965
 20
176.5000440444161
 30
0.0
 11
135.0872017896303
 21
184.7500522944244
 31
0.0
 70
    32
  1
50
 71
     5
 42
-1.0
 53
0.00013888888889
  3
ME10_DIM_16
100
AcDbAlignedDimension
 13
110.1744931158642
 23
197.5000350444071
 33
0.0
 14
159.9999104633965
 24
229.5000300000299
 34
0.0
100
AcDbRotatedDimension
  0
ENDSEC
  0
SECTION
  2
OBJECTS
  0
DICTIONARY
  5
C
330
0
100
AcDbDictionary
281
     1
  3
ACAD_GROUP
350
D
  3
ACAD_LAYOUT
350
1A
  3
ACAD_MATERIAL
350
3B
  3
ACAD_MLEADERSTYLE
350
21D
  3
ACAD_MLINESTYLE
350
17
  3
ACAD_PLOTSETTINGS
350
19
  3
ACAD_PLOTSTYLENAME
350
E
  3
ACAD_VISUALSTYLE
350
2A
  3
AcDbVariableDictionary
350
21B
  0
DICTIONARY
  5
D
102
{ACAD_REACTORS
330
C
102
}
330
C
100
AcDbDictionary
281
     1
  0
DICTIONARY
  5
1A
102
{ACAD_REACTORS
330
C
102
}
330
C
100
AcDbDictionary
281
     1
  3
Layout1
350
1E
  3
Layout2
350
26
  3
Model
350
22
  0
DICTIONARY
  5
3B
102
{ACAD_REACTORS
330
C
102
}
330
C
100
AcDbDictionary
281
     1
  3
ByBlock
350
3D
  3
ByLayer
350
3C
  3
Global
350
3E
  0
DICTIONARY
  5
21D
102
{ACAD_REACTORS
330
C
102
}
330
C
100
AcDbDictionary
281
     1
  0
DICTIONARY
  5
17
102
{ACAD_REACTORS
330
C
102
}
330
C
100
AcDbDictionary
281
     1
  3
Standard
350
18
  0
DICTIONARY
  5
19
102
{ACAD_REACTORS
330
C
102
}
330
C
100
AcDbDictionary
281
     1
  0
ACDBDICTIONARYWDFLT
  5
E
102
{ACAD_REACTORS
330
C
102
}
330
C
100
AcDbDictionary
281
     1
  3
Normal
350
F
100
AcDbDictionaryWithDefault
340
F
  0
DICTIONARY
  5
2A
102
{ACAD_REACTORS
330
C
102
}
330
C
100
AcDbDictionary
281
     1
  3
2dWireframe
350
2F
  3
3D Hidden
350
31
  3
3dWireframe
350
30
  3
Basic
350
32
  3
Brighten
350
36
  3
ColorChange
350
3A
  3
Conceptual
350
34
  3
Dim
350
35
  3
Facepattern
350
39
  3
Flat
350
2B
  3
FlatWithEdges
350
2C
  3
Gouraud
350
2D
  3
GouraudWithEdges
350
2E
  3
Linepattern
350
38
  3
Realistic
350
33
  3
Thicken
350
37
  0
DICTIONARY
  5
21B
102
{ACAD_REACTORS
330
C
102
}
330
C
100
AcDbDictionary
281
     1
  3
DIMASSOC
350
21E
  3
HIDETEXT
350
21F
  0
LAYOUT
  5
1E
102
{ACAD_REACTORS
330
1A
102
}
330
1A
100
AcDbPlotSettings
  1

  2
none_device
  4

  6

 40
0.0
 41
0.0
 42
0.0
 43
0.0
 44
0.0
 45
0.0
 46
0.0
 47
0.0
 48
0.0
 49
0.0
140
0.0
141
0.0
142
1.0
143
1.0
 70
   688
 72
     0
 73
     0
 74
     5
  7

 75
    16
147
1.0
148
0.0
149
0.0
100
AcDbLayout
  1
Layout1
 70
     1
 71
     1
 10
0.0
 20
0.0
 11
12.0
 21
9.0
 12
0.0
 22
0.0
 32
0.0
 14
1.00000000000000E+20
 24
1.00000000000000E+20
 34
1.00000000000000E+20
 15
-1.00000000000000E+20
 25
-1.00000000000000E+20
 35
-1.00000000000000E+20
146
0.0
 13
0.0
 23
0.0
 33
0.0
 16
1.0
 26
0.0
 36
0.0
 17
0.0
 27
1.0
 37
0.0
 76
     0
330
1B
  0
LAYOUT
  5
26
102
{ACAD_REACTORS
330
1A
102
}
330
1A
100
AcDbPlotSettings
  1

  2
none_device
  4

  6

 40
0.0
 41
0.0
 42
0.0
 43
0.0
 44
0.0
 45
0.0
 46
0.0
 47
0.0
 48
0.0
 49
0.0
140
0.0
141
0.0
142
1.0
143
1.0
 70
   688
 72
     0
 73
     0
 74
     5
  7

 75
    16
147
1.0
148
0.0
149
0.0
100
AcDbLayout
  1
Layout2
 70
     1
 71
     2
 10
0.0
 20
0.0
 11
0.0
 21
0.0
 12
0.0
 22
0.0
 32
0.0
 14
0.0
 24
0.0
 34
0.0
 15
0.0
 25
0.0
 35
0.0
146
0.0
 13
0.0
 23
0.0
 33
0.0
 16
1.0
 26
0.0
 36
0.0
 17
0.0
 27
1.0
 37
0.0
 76
     0
330
23
  0
LAYOUT
  5
22
102
{ACAD_REACTORS
330
1A
102
}
330
1A
100
AcDbPlotSettings
  1

  2
none_device
  4

  6

 40
0.0
 41
0.0
 42
0.0
 43
0.0
 44
0.0
 45
0.0
 46
0.0
 47
0.0
 48
0.0
 49
0.0
140
0.0
141
0.0
142
1.0
143
1.0
 70
  1712
 72
     0
 73
     0
 74
     0
  7

 75
     0
147
1.0
148
0.0
149
0.0
100
AcDbLayout
  1
Model
 70
     1
 71
     0
 10
0.0
 20
0.0
 11
12.0
 21
9.0
 12
0.0
 22
0.0
 32
0.0
 14
0.0
 24
0.0
 34
0.0
 15
630.00063000063
 25
891.0008910008911
 35
0.0
146
0.0
 13
0.0
 23
0.0
 33
0.0
 16
1.0
 26
0.0
 36
0.0
 17
0.0
 27
1.0
 37
0.0
 76
     0
330
1F
331
29
  0
MATERIAL
  5
3D
102
{ACAD_REACTORS
330
3B
102
}
102
{ACAD_XDICTIONARY
360
242
102
}
330
3B
100
AcDbMaterial
  1
ByBlock
  0
MATERIAL
  5
3C
102
{ACAD_REACTORS
330
3B
102
}
102
{ACAD_XDICTIONARY
360
240
102
}
330
3B
100
AcDbMaterial
  1
ByLayer
  0
MATERIAL
  5
3E
102
{ACAD_REACTORS
330
3B
102
}
102
{ACAD_XDICTIONARY
360
244
102
}
330
3B
100
AcDbMaterial
  1
Global
  0
MLINESTYLE
  5
18
102
{ACAD_REACTORS
330
17
102
}
330
17
100
AcDbMlineStyle
  2
Standard
 70
     0
  3

 62
   256
 51
90.0
 52
90.0
 71
     2
 49
0.5
 62
   256
  6
BYLAYER
 49
-0.5
 62
   256
  6
BYLAYER
  0
ACDBPLACEHOLDER
  5
F
102
{ACAD_REACTORS
330
E
102
}
330
E
  0
VISUALSTYLE
  5
2F
102
{ACAD_REACTORS
330
2A
102
}
102
{ACAD_XDICTIONARY
360
228
102
}
330
2A
100
AcDbVisualStyle
  2
2dWireframe
 70
     4
 71
     0
 72
     2
 73
     0
 90
        0
 40
-0.6
 41
-30.0
 62
     5
 63
     7
 74
     1
 91
        4
 64
     7
 65
   257
 75
     1
175
     1
 42
1.0
 92
        0
 66
   257
 43
1.0
 76
     1
 77
     6
 78
     2
 67
     7
 79
     5
170
     0
171
     0
290
     0
174
     0
 93
        1
 44
0.0
173
     0
291
     0
 45
0.0
1001
ACAD
1000
AcDbSavedByObjectVersion
1070
     0
  0
VISUALSTYLE
  5
31
102
{ACAD_REACTORS
330
2A
102
}
102
{ACAD_XDICTIONARY
360
22C
102
}
330
2A
100
AcDbVisualStyle
  2
3D Hidden
 70
     6
 71
     1
 72
     2
 73
     2
 90
        0
 40
-0.6
 41
-30.0
 62
     5
 63
     7
 74
     2
 91
        2
 64
     7
 65
   257
 75
     2
175
     1
 42
40.0
 92
        0
 66
   257
 43
1.0
 76
     1
 77
     6
 78
     2
 67
     7
 79
     3
170
     0
171
     0
290
     0
174
     0
 93
        1
 44
0.0
173
     0
291
     0
 45
0.0
1001
ACAD
1000
AcDbSavedByObjectVersion
1070
     0
  0
VISUALSTYLE
  5
30
102
{ACAD_REACTORS
330
2A
102
}
102
{ACAD_XDICTIONARY
360
22A
102
}
330
2A
100
AcDbVisualStyle
  2
3dWireframe
 70
     5
 71
     0
 72
     2
 73
     0
 90
        0
 40
-0.6
 41
-30.0
 62
     5
 63
     7
 74
     1
 91
        4
 64
     7
 65
   257
 75
     1
175
     1
 42
1.0
 92
        0
 66
   257
 43
1.0
 76
     1
 77
     6
 78
     2
 67
     7
 79
     5
170
     0
171
     0
290
     0
174
     0
 93
        1
 44
0.0
173
     0
291
     0
 45
0.0
1001
ACAD
1000
AcDbSavedByObjectVersion
1070
     0
  0
VISUALSTYLE
  5
32
102
{ACAD_REACTORS
330
2A
102
}
102
{ACAD_XDICTIONARY
360
22E
102
}
330
2A
100
AcDbVisualStyle
  2
Basic
 70
     7
 71
     1
 72
     0
 73
     1
 90
        0
 40
-0.6
 41
-30.0
 62
     5
 63
     7
 74
     0
 91
        4
 64
     7
 65
   257
 75
     1
175
     1
 42
1.0
 92
        8
 66
     7
 43
1.0
 76
     1
 77
     6
 78
     2
 67
     7
 79
     5
170
     0
171
     0
290
     0
174
     0
 93
        1
 44
0.0
173
     0
291
     1
 45
0.0
1001
ACAD
1000
AcDbSavedByObjectVersion
1070
     0
  0
VISUALSTYLE
  5
36
102
{ACAD_REACTORS
330
2A
102
}
102
{ACAD_XDICTIONARY
360
236
102
}
330
2A
100
AcDbVisualStyle
  2
Brighten
 70
    12
 71
     2
 72
     2
 73
     0
 90
        0
 40
-0.6
 41
-30.0
 62
     5
 63
     7
 74
     1
 91
        4
 64
     7
 65
   257
 75
     1
175
     1
 42
1.0
 92
        8
 66
     7
 43
1.0
 76
     1
 77
     6
 78
     2
 67
     7
 79
     5
170
     0
171
     0
290
     0
174
     0
 93
        1
 44
50.0
173
     0
291
     1
 45
0.0
1001
ACAD
1000
AcDbSavedByObjectVersion
1070
     0
  0
VISUALSTYLE
  5
3A
102
{ACAD_REACTORS
330
2A
102
}
102
{ACAD_XDICTIONARY
360
23E
102
}
330
2A
100
AcDbVisualStyle
  2
ColorChange
 70
    16
 71
     2
 72
     2
 73
     3
 90
        0
 40
-0.6
 41
-30.0
 62
     5
 63
     8
 74
     1
 91
        4
 64
     7
 65
   257
 75
     1
175
     1
 42
1.0
 92
        8
 66
     8
 43
1.0
 76
     1
 77
     6
 78
     2
 67
     7
 79
     5
170
     0
171
     0
290
     0
174
     0
 93
        1
 44
0.0
173
     0
291
     1
 45
0.0
1001
ACAD
1000
AcDbSavedByObjectVersion
1070
     0
  0
VISUALSTYLE
  5
34
102
{ACAD_REACTORS
330
2A
102
}
102
{ACAD_XDICTIONARY
360
232
102
}
330
2A
100
AcDbVisualStyle
  2
Conceptual
 70
     9
 71
     3
 72
     2
 73
     0
 90
        0
 40
-0.6
 41
-30.0
 62
     5
 63
     7
 74
     2
 91
        2
 64
     7
 65
   257
 75
     1
175
     1
 42
40.0
 92
        8
 66
     7
 43
1.0
 76
     1
 77
     6
 78
     2
 67
     7
 79
     3
170
     0
171
     0
290
     0
174
     0
 93
        1
 44
0.0
173
     0
291
     0
 45
0.0
1001
ACAD
1000
AcDbSavedByObjectVersion
1070
     0
  0
VISUALSTYLE
  5
35
102
{ACAD_REACTORS
330
2A
102
}
102
{ACAD_XDICTIONARY
360
234
102
}
330
2A
100
AcDbVisualStyle
  2
Dim
 70
    11
 71
     2
 72
     2
 73
     0
 90
        0
 40
-0.6
 41
-30.0
 62
     5
 63
     7
 74
     1
 91
        4
 64
     7
 65
   257
 75
     1
175
     1
 42
1.0
 92
        8
 66
     7
 43
1.0
 76
     1
 77
     6
 78
     2
 67
     7
 79
     5
170
     0
171
     0
290
     0
174
     0
 93
        1
 44
-50.0
173
     0
291
     1
 45
0.0
1001
ACAD
1000
AcDbSavedByObjectVersion
1070
     0
  0
VISUALSTYLE
  5
39
102
{ACAD_REACTORS
330
2A
102
}
102
{ACAD_XDICTIONARY
360
23C
102
}
330
2A
100
AcDbVisualStyle
  2
Facepattern
 70
    15
 71
     2
 72
     2
 73
     0
 90
        0
 40
-0.6
 41
-30.0
 62
     5
 63
     7
 74
     1
 91
        4
 64
     7
 65
   257
 75
     1
175
     1
 42
1.0
 92
        8
 66
     7
 43
1.0
 76
     1
 77
     6
 78
     2
 67
     7
 79
     5
170
     0
171
     0
290
     0
174
     0
 93
        1
 44
0.0
173
     0
291
     1
 45
0.0
1001
ACAD
1000
AcDbSavedByObjectVersion
1070
     0
  0
VISUALSTYLE
  5
2B
102
{ACAD_REACTORS
330
2A
102
}
102
{ACAD_XDICTIONARY
360
220
102
}
330
2A
100
AcDbVisualStyle
  2
Flat
 70
     0
 71
     2
 72
     1
 73
     1
 90
        2
 40
-0.6
 41
30.0
 62
     5
 63
     7
 74
     0
 91
        4
 64
     7
 65
   257
 75
     1
175
     1
 42
1.0
 92
        8
 66
     7
 43
1.0
 76
     1
 77
     6
 78
     2
 67
     7
 79
     5
170
     0
171
     0
290
     0
174
     0
 93
       13
 44
0.0
173
     0
291
     1
 45
0.0
1001
ACAD
1000
AcDbSavedByObjectVersion
1070
     0
  0
VISUALSTYLE
  5
2C
102
{ACAD_REACTORS
330
2A
102
}
102
{ACAD_XDICTIONARY
360
222
102
}
330
2A
100
AcDbVisualStyle
  2
FlatWithEdges
 70
     1
 71
     2
 72
     1
 73
     1
 90
        2
 40
-0.6
 41
30.0
 62
     5
 63
     7
 74
     1
 91
        4
 64
     7
 65
   257
 75
     1
175
     1
 42
1.0
 92
        0
 66
   257
 43
1.0
 76
     1
 77
     6
 78
     2
 67
     7
 79
     5
170
     0
171
     0
290
     0
174
     0
 93
       13
 44
0.0
173
     0
291
     1
 45
0.0
1001
ACAD
1000
AcDbSavedByObjectVersion
1070
     0
  0
VISUALSTYLE
  5
2D
102
{ACAD_REACTORS
330
2A
102
}
102
{ACAD_XDICTIONARY
360
224
102
}
330
2A
100
AcDbVisualStyle
  2
Gouraud
 70
     2
 71
     2
 72
     2
 73
     1
 90
        2
 40
-0.6
 41
30.0
 62
     5
 63
     7
 74
     0
 91
        4
 64
     7
 65
   257
 75
     1
175
     1
 42
1.0
 92
        0
 66
     7
 43
1.0
 76
     1
 77
     6
 78
     2
 67
     7
 79
     5
170
     0
171
     0
290
     0
174
     0
 93
       13
 44
0.0
173
     0
291
     1
 45
0.0
1001
ACAD
1000
AcDbSavedByObjectVersion
1070
     0
  0
VISUALSTYLE
  5
2E
102
{ACAD_REACTORS
330
2A
102
}
102
{ACAD_XDICTIONARY
360
226
102
}
330
2A
100
AcDbVisualStyle
  2
GouraudWithEdges
 70
     3
 71
     2
 72
     2
 73
     1
 90
        2
 40
-0.6
 41
30.0
 62
     5
 63
     7
 74
     1
 91
        4
 64
     7
 65
   257
 75
     1
175
     1
 42
1.0
 92
        0
 66
   257
 43
1.0
 76
     1
 77
     6
 78
     2
 67
     7
 79
     5
170
     0
171
     0
290
     0
174
     0
 93
       13
 44
0.0
173
     0
291
     1
 45
0.0
1001
ACAD
1000
AcDbSavedByObjectVersion
1070
     0
  0
VISUALSTYLE
  5
38
102
{ACAD_REACTORS
330
2A
102
}
102
{ACAD_XDICTIONARY
360
23A
102
}
330
2A
100
AcDbVisualStyle
  2
Linepattern
 70
    14
 71
     2
 72
     2
 73
     0
 90
        0
 40
-0.6
 41
-30.0
 62
     5
 63
     7
 74
     1
 91
        4
 64
     7
 65
   257
 75
     7
175
     7
 42
1.0
 92
        8
 66
     7
 43
1.0
 76
     1
 77
     6
 78
     2
 67
     7
 79
     5
170
     0
171
     0
290
     0
174
     0
 93
        1
 44
0.0
173
     0
291
     1
 45
0.0
1001
ACAD
1000
AcDbSavedByObjectVersion
1070
     0
  0
VISUALSTYLE
  5
33
102
{ACAD_REACTORS
330
2A
102
}
102
{ACAD_XDICTIONARY
360
230
102
}
330
2A
100
AcDbVisualStyle
  2
Realistic
 70
     8
 71
     2
 72
     2
 73
     0
 90
        0
 40
-0.6
 41
-30.0
 62
     5
 63
     7
 74
     1
 91
        0
 64
     7
 65
   257
 75
     1
175
     1
 42
1.0
 92
        8
 66
     8
 43
1.0
 76
     1
 77
     6
 78
     2
 67
     7
 79
     5
170
     0
171
     0
290
     0
174
     0
 93
       13
 44
0.0
173
     0
291
     0
 45
0.0
1001
ACAD
1000
AcDbSavedByObjectVersion
1070
     0
  0
VISUALSTYLE
  5
37
102
{ACAD_REACTORS
330
2A
102
}
102
{ACAD_XDICTIONARY
360
238
102
}
330
2A
100
AcDbVisualStyle
  2
Thicken
 70
    13
 71
     2
 72
     2
 73
     0
 90
        0
 40
-0.6
 41
-30.0
 62
     5
 63
     7
 74
     1
 91
        4
 64
     7
 65
   257
 75
     1
175
     1
 42
1.0
 92
       12
 66
     7
 43
1.0
 76
     1
 77
     6
 78
     2
 67
     7
 79
     5
170
     0
171
     0
290
     0
174
     0
 93
        1
 44
0.0
173
     0
291
     1
 45
0.0
1001
ACAD
1000
AcDbSavedByObjectVersion
1070
     0
  0
DICTIONARYVAR
  5
21E
102
{ACAD_REACTORS
330
21B
102
}
330
21B
100
DictionaryVariables
280
     0
  1
2
  0
DICTIONARYVAR
  5
21F
102
{ACAD_REACTORS
330
21B
102
}
330
21B
100
DictionaryVariables
280
     0
  1
1
  0
DICTIONARY
  5
242
330
3D
100
AcDbDictionary
280
     1
281
     1
  3
ACAD_XREC_ROUNDTRIP
360
243
  0
DICTIONARY
  5
240
330
3C
100
AcDbDictionary
280
     1
281
     1
  3
ACAD_XREC_ROUNDTRIP
360
241
  0
DICTIONARY
  5
244
330
3E
100
AcDbDictionary
280
     1
281
     1
  3
ACAD_XREC_ROUNDTRIP
360
245
  0
DICTIONARY
  5
228
330
2F
100
AcDbDictionary
280
     1
281
     1
  3
ACAD_XREC_ROUNDTRIP
360
229
  0
DICTIONARY
  5
22C
330
31
100
AcDbDictionary
280
     1
281
     1
  3
ACAD_XREC_ROUNDTRIP
360
22D
  0
DICTIONARY
  5
22A
330
30
100
AcDbDictionary
280
     1
281
     1
  3
ACAD_XREC_ROUNDTRIP
360
22B
  0
DICTIONARY
  5
22E
330
32
100
AcDbDictionary
280
     1
281
     1
  3
ACAD_XREC_ROUNDTRIP
360
22F
  0
DICTIONARY
  5
236
330
36
100
AcDbDictionary
280
     1
281
     1
  3
ACAD_XREC_ROUNDTRIP
360
237
  0
DICTIONARY
  5
23E
330
3A
100
AcDbDictionary
280
     1
281
     1
  3
ACAD_XREC_ROUNDTRIP
360
23F
  0
DICTIONARY
  5
232
330
34
100
AcDbDictionary
280
     1
281
     1
  3
ACAD_XREC_ROUNDTRIP
360
233
  0
DICTIONARY
  5
234
330
35
100
AcDbDictionary
280
     1
281
     1
  3
ACAD_XREC_ROUNDTRIP
360
235
  0
DICTIONARY
  5
23C
330
39
100
AcDbDictionary
280
     1
281
     1
  3
ACAD_XREC_ROUNDTRIP
360
23D
  0
DICTIONARY
  5
220
330
2B
100
AcDbDictionary
280
     1
281
     1
  3
ACAD_XREC_ROUNDTRIP
360
221
  0
DICTIONARY
  5
222
330
2C
100
AcDbDictionary
280
     1
281
     1
  3
ACAD_XREC_ROUNDTRIP
360
223
  0
DICTIONARY
  5
224
330
2D
100
AcDbDictionary
280
     1
281
     1
  3
ACAD_XREC_ROUNDTRIP
360
225
  0
DICTIONARY
  5
226
330
2E
100
AcDbDictionary
280
     1
281
     1
  3
ACAD_XREC_ROUNDTRIP
360
227
  0
DICTIONARY
  5
23A
330
38
100
AcDbDictionary
280
     1
281
     1
  3
ACAD_XREC_ROUNDTRIP
360
23B
  0
DICTIONARY
  5
230
330
33
100
AcDbDictionary
280
     1
281
     1
  3
ACAD_XREC_ROUNDTRIP
360
231
  0
DICTIONARY
  5
238
330
37
100
AcDbDictionary
280
     1
281
     1
  3
ACAD_XREC_ROUNDTRIP
360
239
  0
XRECORD
  5
243
102
{ACAD_REACTORS
330
242
102
}
330
242
100
AcDbXrecord
280
     1
102
MATERIAL
148
0.0
149
0.0
149
0.0
 93
        0
 94
      127
282
     0
 72
     1
 77
     1
171
     1
175
     1
179
     1
273
     0
  0
XRECORD
  5
241
102
{ACAD_REACTORS
330
240
102
}
330
240
100
AcDbXrecord
280
     1
102
MATERIAL
148
0.0
149
0.0
149
0.0
 93
        0
 94
      127
282
     0
 72
     1
 77
     1
171
     1
175
     1
179
     1
273
     0
  0
XRECORD
  5
245
102
{ACAD_REACTORS
330
244
102
}
330
244
100
AcDbXrecord
280
     1
102
MATERIAL
148
0.0
149
0.0
149
0.0
 93
        0
 94
      127
282
     0
 72
     1
 77
     1
171
     1
175
     1
179
     1
273
     0
  0
XRECORD
  5
229
102
{ACAD_REACTORS
330
228
102
}
330
228
100
AcDbXrecord
280
     1
102
RTVSPropertyOp0
 70
     1
102
RTVSPropertyOp1
 70
     1
102
RTVSPropertyOp2
 70
     1
102
RTVSPropertyOp3
 70
     1
102
RTVSPropertyOp4
 70
     1
102
RTVSPropertyOp5
 70
     1
102
RTVSPropertyOp6
 70
     1
102
RTVSPropertyOp7
 70
     1
102
RTVSPropertyOp8
 70
     1
102
RTVSPropertyOp9
 70
     1
102
RTVSPropertyOp10
 70
     1
102
RTVSPropertyOp11
 70
     1
102
RTVSPropertyOp12
 70
     1
102
RTVSPropertyOp13
 70
     1
102
RTVSPropertyOp14
 70
     1
102
RTVSPropertyOp15
 70
     1
102
RTVSPropertyOp16
 70
     1
102
RTVSPropertyOp17
 70
     1
102
RTVSPropertyOp18
 70
     1
102
RTVSPropertyOp19
 70
     1
102
RTVSPropertyOp20
 70
     1
102
RTVSPropertyOp21
 70
     1
102
RTVSPropertyOp22
 70
     1
102
RTVSPropertyOp23
 70
     1
102
RTVSPropertyOp24
 70
     1
102
RTVSPropertyOp25
 70
     1
102
RTVSPropertyOp26
 70
     1
102
RTVSPropertyOp27
 70
     1
102
RTVSPropertyOp28
 70
     1
102
RTVSPropertyOp29
 70
     1
102
RTVSPropertyOp30
 70
     1
102
RTVSPropertyOp31
 70
     1
102
RTVSPropertyOp32
 70
     1
  0
XRECORD
  5
22D
102
{ACAD_REACTORS
330
22C
102
}
330
22C
100
AcDbXrecord
280
     1
102
RTVSPropertyOp0
 70
     1
102
RTVSPropertyOp1
 70
     1
102
RTVSPropertyOp2
 70
     1
102
RTVSPropertyOp3
 70
     1
102
RTVSPropertyOp4
 70
     1
102
RTVSPropertyOp5
 70
     1
102
RTVSPropertyOp6
 70
     1
102
RTVSPropertyOp7
 70
     1
102
RTVSPropertyOp8
 70
     1
102
RTVSPropertyOp9
 70
     1
102
RTVSPropertyOp10
 70
     1
102
RTVSPropertyOp11
 70
     1
102
RTVSPropertyOp12
 70
     1
102
RTVSPropertyOp13
 70
     1
102
RTVSPropertyOp14
 70
     1
102
RTVSPropertyOp15
 70
     1
102
RTVSPropertyOp16
 70
     1
102
RTVSPropertyOp17
 70
     1
102
RTVSPropertyOp18
 70
     1
102
RTVSPropertyOp19
 70
     1
102
RTVSPropertyOp20
 70
     1
102
RTVSPropertyOp21
 70
     1
102
RTVSPropertyOp22
 70
     1
102
RTVSPropertyOp23
 70
     1
102
RTVSPropertyOp24
 70
     1
102
RTVSPropertyOp25
 70
     1
102
RTVSPropertyOp26
 70
     1
102
RTVSPropertyOp27
 70
     1
102
RTVSPropertyOp28
 70
     1
102
RTVSPropertyOp29
 70
     1
102
RTVSPropertyOp30
 70
     1
102
RTVSPropertyOp31
 70
     1
102
RTVSPropertyOp32
 70
     1
  0
XRECORD
  5
22B
102
{ACAD_REACTORS
330
22A
102
}
330
22A
100
AcDbXrecord
280
     1
102
RTVSPropertyOp0
 70
     1
102
RTVSPropertyOp1
 70
     1
102
RTVSPropertyOp2
 70
     1
102
RTVSPropertyOp3
 70
     1
102
RTVSPropertyOp4
 70
     1
102
RTVSPropertyOp5
 70
     1
102
RTVSPropertyOp6
 70
     1
102
RTVSPropertyOp7
 70
     1
102
RTVSPropertyOp8
 70
     1
102
RTVSPropertyOp9
 70
     1
102
RTVSPropertyOp10
 70
     1
102
RTVSPropertyOp11
 70
     1
102
RTVSPropertyOp12
 70
     1
102
RTVSPropertyOp13
 70
     1
102
RTVSPropertyOp14
 70
     1
102
RTVSPropertyOp15
 70
     1
102
RTVSPropertyOp16
 70
     1
102
RTVSPropertyOp17
 70
     1
102
RTVSPropertyOp18
 70
     1
102
RTVSPropertyOp19
 70
     1
102
RTVSPropertyOp20
 70
     1
102
RTVSPropertyOp21
 70
     1
102
RTVSPropertyOp22
 70
     1
102
RTVSPropertyOp23
 70
     1
102
RTVSPropertyOp24
 70
     1
102
RTVSPropertyOp25
 70
     1
102
RTVSPropertyOp26
 70
     1
102
RTVSPropertyOp27
 70
     1
102
RTVSPropertyOp28
 70
     1
102
RTVSPropertyOp29
 70
     1
102
RTVSPropertyOp30
 70
     1
102
RTVSPropertyOp31
 70
     1
102
RTVSPropertyOp32
 70
     1
  0
XRECORD
  5
22F
102
{ACAD_REACTORS
330
22E
102
}
330
22E
100
AcDbXrecord
280
     1
102
RTVSPropertyOp0
 70
     1
102
RTVSPropertyOp1
 70
     1
102
RTVSPropertyOp2
 70
     1
102
RTVSPropertyOp3
 70
     1
102
RTVSPropertyOp4
 70
     1
102
RTVSPropertyOp5
 70
     1
102
RTVSPropertyOp6
 70
     1
102
RTVSPropertyOp7
 70
     1
102
RTVSPropertyOp8
 70
     1
102
RTVSPropertyOp9
 70
     1
102
RTVSPropertyOp10
 70
     1
102
RTVSPropertyOp11
 70
     1
102
RTVSPropertyOp12
 70
     1
102
RTVSPropertyOp13
 70
     1
102
RTVSPropertyOp14
 70
     1
102
RTVSPropertyOp15
 70
     1
102
RTVSPropertyOp16
 70
     1
102
RTVSPropertyOp17
 70
     1
102
RTVSPropertyOp18
 70
     1
102
RTVSPropertyOp19
 70
     1
102
RTVSPropertyOp20
 70
     1
102
RTVSPropertyOp21
 70
     1
102
RTVSPropertyOp22
 70
     1
102
RTVSPropertyOp23
 70
     1
102
RTVSPropertyOp24
 70
     1
102
RTVSPropertyOp25
 70
     1
102
RTVSPropertyOp26
 70
     1
102
RTVSPropertyOp27
 70
     1
102
RTVSPropertyOp28
 70
     1
102
RTVSPropertyOp29
 70
     1
102
RTVSPropertyOp30
 70
     1
102
RTVSPropertyOp31
 70
     1
102
RTVSPropertyOp32
 70
     1
  0
XRECORD
  5
237
102
{ACAD_REACTORS
330
236
102
}
330
236
100
AcDbXrecord
280
     1
102
RTVSPropertyOp0
 70
     1
102
RTVSPropertyOp1
 70
     1
102
RTVSPropertyOp2
 70
     1
102
RTVSPropertyOp3
 70
     1
102
RTVSPropertyOp4
 70
     1
102
RTVSPropertyOp5
 70
     1
102
RTVSPropertyOp6
 70
     1
102
RTVSPropertyOp7
 70
     1
102
RTVSPropertyOp8
 70
     1
102
RTVSPropertyOp9
 70
     1
102
RTVSPropertyOp10
 70
     1
102
RTVSPropertyOp11
 70
     1
102
RTVSPropertyOp12
 70
     1
102
RTVSPropertyOp13
 70
     1
102
RTVSPropertyOp14
 70
     1
102
RTVSPropertyOp15
 70
     1
102
RTVSPropertyOp16
 70
     1
102
RTVSPropertyOp17
 70
     1
102
RTVSPropertyOp18
 70
     1
102
RTVSPropertyOp19
 70
     1
102
RTVSPropertyOp20
 70
     1
102
RTVSPropertyOp21
 70
     1
102
RTVSPropertyOp22
 70
     1
102
RTVSPropertyOp23
 70
     1
102
RTVSPropertyOp24
 70
     1
102
RTVSPropertyOp25
 70
     1
102
RTVSPropertyOp26
 70
     1
102
RTVSPropertyOp27
 70
     1
102
RTVSPropertyOp28
 70
     1
102
RTVSPropertyOp29
 70
     1
102
RTVSPropertyOp30
 70
     1
102
RTVSPropertyOp31
 70
     1
102
RTVSPropertyOp32
 70
     1
  0
XRECORD
  5
23F
102
{ACAD_REACTORS
330
23E
102
}
330
23E
100
AcDbXrecord
280
     1
102
RTVSPropertyOp0
 70
     1
102
RTVSPropertyOp1
 70
     1
102
RTVSPropertyOp2
 70
     1
102
RTVSPropertyOp3
 70
     1
102
RTVSPropertyOp4
 70
     1
102
RTVSPropertyOp5
 70
     1
102
RTVSPropertyOp6
 70
     1
102
RTVSPropertyOp7
 70
     1
102
RTVSPropertyOp8
 70
     1
102
RTVSPropertyOp9
 70
     1
102
RTVSPropertyOp10
 70
     1
102
RTVSPropertyOp11
 70
     1
102
RTVSPropertyOp12
 70
     1
102
RTVSPropertyOp13
 70
     1
102
RTVSPropertyOp14
 70
     1
102
RTVSPropertyOp15
 70
     1
102
RTVSPropertyOp16
 70
     1
102
RTVSPropertyOp17
 70
     1
102
RTVSPropertyOp18
 70
     1
102
RTVSPropertyOp19
 70
     1
102
RTVSPropertyOp20
 70
     1
102
RTVSPropertyOp21
 70
     1
102
RTVSPropertyOp22
 70
     1
102
RTVSPropertyOp23
 70
     1
102
RTVSPropertyOp24
 70
     1
102
RTVSPropertyOp25
 70
     1
102
RTVSPropertyOp26
 70
     1
102
RTVSPropertyOp27
 70
     1
102
RTVSPropertyOp28
 70
     1
102
RTVSPropertyOp29
 70
     1
102
RTVSPropertyOp30
 70
     1
102
RTVSPropertyOp31
 70
     1
102
RTVSPropertyOp32
 70
     1
  0
XRECORD
  5
233
102
{ACAD_REACTORS
330
232
102
}
330
232
100
AcDbXrecord
280
     1
102
RTVSPropertyOp0
 70
     1
102
RTVSPropertyOp1
 70
     1
102
RTVSPropertyOp2
 70
     1
102
RTVSPropertyOp3
 70
     1
102
RTVSPropertyOp4
 70
     1
102
RTVSPropertyOp5
 70
     1
102
RTVSPropertyOp6
 70
     1
102
RTVSPropertyOp7
 70
     1
102
RTVSPropertyOp8
 70
     1
102
RTVSPropertyOp9
 70
     1
102
RTVSPropertyOp10
 70
     1
102
RTVSPropertyOp11
 70
     1
102
RTVSPropertyOp12
 70
     1
102
RTVSPropertyOp13
 70
     1
102
RTVSPropertyOp14
 70
     1
102
RTVSPropertyOp15
 70
     1
102
RTVSPropertyOp16
 70
     1
102
RTVSPropertyOp17
 70
     1
102
RTVSPropertyOp18
 70
     1
102
RTVSPropertyOp19
 70
     1
102
RTVSPropertyOp20
 70
     1
102
RTVSPropertyOp21
 70
     1
102
RTVSPropertyOp22
 70
     1
102
RTVSPropertyOp23
 70
     1
102
RTVSPropertyOp24
 70
     1
102
RTVSPropertyOp25
 70
     1
102
RTVSPropertyOp26
 70
     1
102
RTVSPropertyOp27
 70
     1
102
RTVSPropertyOp28
 70
     1
102
RTVSPropertyOp29
 70
     1
102
RTVSPropertyOp30
 70
     1
102
RTVSPropertyOp31
 70
     1
102
RTVSPropertyOp32
 70
     1
  0
XRECORD
  5
235
102
{ACAD_REACTORS
330
234
102
}
330
234
100
AcDbXrecord
280
     1
102
RTVSPropertyOp0
 70
     1
102
RTVSPropertyOp1
 70
     1
102
RTVSPropertyOp2
 70
     1
102
RTVSPropertyOp3
 70
     1
102
RTVSPropertyOp4
 70
     1
102
RTVSPropertyOp5
 70
     1
102
RTVSPropertyOp6
 70
     1
102
RTVSPropertyOp7
 70
     1
102
RTVSPropertyOp8
 70
     1
102
RTVSPropertyOp9
 70
     1
102
RTVSPropertyOp10
 70
     1
102
RTVSPropertyOp11
 70
     1
102
RTVSPropertyOp12
 70
     1
102
RTVSPropertyOp13
 70
     1
102
RTVSPropertyOp14
 70
     1
102
RTVSPropertyOp15
 70
     1
102
RTVSPropertyOp16
 70
     1
102
RTVSPropertyOp17
 70
     1
102
RTVSPropertyOp18
 70
     1
102
RTVSPropertyOp19
 70
     1
102
RTVSPropertyOp20
 70
     1
102
RTVSPropertyOp21
 70
     1
102
RTVSPropertyOp22
 70
     1
102
RTVSPropertyOp23
 70
     1
102
RTVSPropertyOp24
 70
     1
102
RTVSPropertyOp25
 70
     1
102
RTVSPropertyOp26
 70
     1
102
RTVSPropertyOp27
 70
     1
102
RTVSPropertyOp28
 70
     1
102
RTVSPropertyOp29
 70
     1
102
RTVSPropertyOp30
 70
     1
102
RTVSPropertyOp31
 70
     1
102
RTVSPropertyOp32
 70
     1
  0
XRECORD
  5
23D
102
{ACAD_REACTORS
330
23C
102
}
330
23C
100
AcDbXrecord
280
     1
102
RTVSPropertyOp0
 70
     1
102
RTVSPropertyOp1
 70
     1
102
RTVSPropertyOp2
 70
     1
102
RTVSPropertyOp3
 70
     1
102
RTVSPropertyOp4
 70
     1
102
RTVSPropertyOp5
 70
     1
102
RTVSPropertyOp6
 70
     1
102
RTVSPropertyOp7
 70
     1
102
RTVSPropertyOp8
 70
     1
102
RTVSPropertyOp9
 70
     1
102
RTVSPropertyOp10
 70
     1
102
RTVSPropertyOp11
 70
     1
102
RTVSPropertyOp12
 70
     1
102
RTVSPropertyOp13
 70
     1
102
RTVSPropertyOp14
 70
     1
102
RTVSPropertyOp15
 70
     1
102
RTVSPropertyOp16
 70
     1
102
RTVSPropertyOp17
 70
     1
102
RTVSPropertyOp18
 70
     1
102
RTVSPropertyOp19
 70
     1
102
RTVSPropertyOp20
 70
     1
102
RTVSPropertyOp21
 70
     1
102
RTVSPropertyOp22
 70
     1
102
RTVSPropertyOp23
 70
     1
102
RTVSPropertyOp24
 70
     1
102
RTVSPropertyOp25
 70
     1
102
RTVSPropertyOp26
 70
     1
102
RTVSPropertyOp27
 70
     1
102
RTVSPropertyOp28
 70
     1
102
RTVSPropertyOp29
 70
     1
102
RTVSPropertyOp30
 70
     1
102
RTVSPropertyOp31
 70
     1
102
RTVSPropertyOp32
 70
     1
  0
XRECORD
  5
221
102
{ACAD_REACTORS
330
220
102
}
330
220
100
AcDbXrecord
280
     1
102
RTVSPropertyOp0
 70
     1
102
RTVSPropertyOp1
 70
     1
102
RTVSPropertyOp2
 70
     1
102
RTVSPropertyOp3
 70
     1
102
RTVSPropertyOp4
 70
     1
102
RTVSPropertyOp5
 70
     1
102
RTVSPropertyOp6
 70
     1
102
RTVSPropertyOp7
 70
     1
102
RTVSPropertyOp8
 70
     1
102
RTVSPropertyOp9
 70
     1
102
RTVSPropertyOp10
 70
     1
102
RTVSPropertyOp11
 70
     1
102
RTVSPropertyOp12
 70
     1
102
RTVSPropertyOp13
 70
     1
102
RTVSPropertyOp14
 70
     1
102
RTVSPropertyOp15
 70
     1
102
RTVSPropertyOp16
 70
     1
102
RTVSPropertyOp17
 70
     1
102
RTVSPropertyOp18
 70
     1
102
RTVSPropertyOp19
 70
     1
102
RTVSPropertyOp20
 70
     1
102
RTVSPropertyOp21
 70
     1
102
RTVSPropertyOp22
 70
     1
102
RTVSPropertyOp23
 70
     1
102
RTVSPropertyOp24
 70
     1
102
RTVSPropertyOp25
 70
     1
102
RTVSPropertyOp26
 70
     1
102
RTVSPropertyOp27
 70
     1
102
RTVSPropertyOp28
 70
     1
102
RTVSPropertyOp29
 70
     1
102
RTVSPropertyOp30
 70
     1
102
RTVSPropertyOp31
 70
     1
102
RTVSPropertyOp32
 70
     1
  0
XRECORD
  5
223
102
{ACAD_REACTORS
330
222
102
}
330
222
100
AcDbXrecord
280
     1
102
RTVSPropertyOp0
 70
     1
102
RTVSPropertyOp1
 70
     1
102
RTVSPropertyOp2
 70
     1
102
RTVSPropertyOp3
 70
     1
102
RTVSPropertyOp4
 70
     1
102
RTVSPropertyOp5
 70
     1
102
RTVSPropertyOp6
 70
     1
102
RTVSPropertyOp7
 70
     1
102
RTVSPropertyOp8
 70
     1
102
RTVSPropertyOp9
 70
     1
102
RTVSPropertyOp10
 70
     1
102
RTVSPropertyOp11
 70
     1
102
RTVSPropertyOp12
 70
     1
102
RTVSPropertyOp13
 70
     1
102
RTVSPropertyOp14
 70
     1
102
RTVSPropertyOp15
 70
     1
102
RTVSPropertyOp16
 70
     1
102
RTVSPropertyOp17
 70
     1
102
RTVSPropertyOp18
 70
     1
102
RTVSPropertyOp19
 70
     1
102
RTVSPropertyOp20
 70
     1
102
RTVSPropertyOp21
 70
     1
102
RTVSPropertyOp22
 70
     1
102
RTVSPropertyOp23
 70
     1
102
RTVSPropertyOp24
 70
     1
102
RTVSPropertyOp25
 70
     1
102
RTVSPropertyOp26
 70
     1
102
RTVSPropertyOp27
 70
     1
102
RTVSPropertyOp28
 70
     1
102
RTVSPropertyOp29
 70
     1
102
RTVSPropertyOp30
 70
     1
102
RTVSPropertyOp31
 70
     1
102
RTVSPropertyOp32
 70
     1
  0
XRECORD
  5
225
102
{ACAD_REACTORS
330
224
102
}
330
224
100
AcDbXrecord
280
     1
102
RTVSPropertyOp0
 70
     1
102
RTVSPropertyOp1
 70
     1
102
RTVSPropertyOp2
 70
     1
102
RTVSPropertyOp3
 70
     1
102
RTVSPropertyOp4
 70
     1
102
RTVSPropertyOp5
 70
     1
102
RTVSPropertyOp6
 70
     1
102
RTVSPropertyOp7
 70
     1
102
RTVSPropertyOp8
 70
     1
102
RTVSPropertyOp9
 70
     1
102
RTVSPropertyOp10
 70
     1
102
RTVSPropertyOp11
 70
     1
102
RTVSPropertyOp12
 70
     1
102
RTVSPropertyOp13
 70
     1
102
RTVSPropertyOp14
 70
     1
102
RTVSPropertyOp15
 70
     1
102
RTVSPropertyOp16
 70
     1
102
RTVSPropertyOp17
 70
     1
102
RTVSPropertyOp18
 70
     1
102
RTVSPropertyOp19
 70
     1
102
RTVSPropertyOp20
 70
     1
102
RTVSPropertyOp21
 70
     1
102
RTVSPropertyOp22
 70
     1
102
RTVSPropertyOp23
 70
     1
102
RTVSPropertyOp24
 70
     1
102
RTVSPropertyOp25
 70
     1
102
RTVSPropertyOp26
 70
     1
102
RTVSPropertyOp27
 70
     1
102
RTVSPropertyOp28
 70
     1
102
RTVSPropertyOp29
 70
     1
102
RTVSPropertyOp30
 70
     1
102
RTVSPropertyOp31
 70
     1
102
RTVSPropertyOp32
 70
     1
  0
XRECORD
  5
227
102
{ACAD_REACTORS
330
226
102
}
330
226
100
AcDbXrecord
280
     1
102
RTVSPropertyOp0
 70
     1
102
RTVSPropertyOp1
 70
     1
102
RTVSPropertyOp2
 70
     1
102
RTVSPropertyOp3
 70
     1
102
RTVSPropertyOp4
 70
     1
102
RTVSPropertyOp5
 70
     1
102
RTVSPropertyOp6
 70
     1
102
RTVSPropertyOp7
 70
     1
102
RTVSPropertyOp8
 70
     1
102
RTVSPropertyOp9
 70
     1
102
RTVSPropertyOp10
 70
     1
102
RTVSPropertyOp11
 70
     1
102
RTVSPropertyOp12
 70
     1
102
RTVSPropertyOp13
 70
     1
102
RTVSPropertyOp14
 70
     1
102
RTVSPropertyOp15
 70
     1
102
RTVSPropertyOp16
 70
     1
102
RTVSPropertyOp17
 70
     1
102
RTVSPropertyOp18
 70
     1
102
RTVSPropertyOp19
 70
     1
102
RTVSPropertyOp20
 70
     1
102
RTVSPropertyOp21
 70
     1
102
RTVSPropertyOp22
 70
     1
102
RTVSPropertyOp23
 70
     1
102
RTVSPropertyOp24
 70
     1
102
RTVSPropertyOp25
 70
     1
102
RTVSPropertyOp26
 70
     1
102
RTVSPropertyOp27
 70
     1
102
RTVSPropertyOp28
 70
     1
102
RTVSPropertyOp29
 70
     1
102
RTVSPropertyOp30
 70
     1
102
RTVSPropertyOp31
 70
     1
102
RTVSPropertyOp32
 70
     1
  0
XRECORD
  5
23B
102
{ACAD_REACTORS
330
23A
102
}
330
23A
100
AcDbXrecord
280
     1
102
RTVSPropertyOp0
 70
     1
102
RTVSPropertyOp1
 70
     1
102
RTVSPropertyOp2
 70
     1
102
RTVSPropertyOp3
 70
     1
102
RTVSPropertyOp4
 70
     1
102
RTVSPropertyOp5
 70
     1
102
RTVSPropertyOp6
 70
     1
102
RTVSPropertyOp7
 70
     1
102
RTVSPropertyOp8
 70
     1
102
RTVSPropertyOp9
 70
     1
102
RTVSPropertyOp10
 70
     1
102
RTVSPropertyOp11
 70
     1
102
RTVSPropertyOp12
 70
     1
102
RTVSPropertyOp13
 70
     1
102
RTVSPropertyOp14
 70
     1
102
RTVSPropertyOp15
 70
     1
102
RTVSPropertyOp16
 70
     1
102
RTVSPropertyOp17
 70
     1
102
RTVSPropertyOp18
 70
     1
102
RTVSPropertyOp19
 70
     1
102
RTVSPropertyOp20
 70
     1
102
RTVSPropertyOp21
 70
     1
102
RTVSPropertyOp22
 70
     1
102
RTVSPropertyOp23
 70
     1
102
RTVSPropertyOp24
 70
     1
102
RTVSPropertyOp25
 70
     1
102
RTVSPropertyOp26
 70
     1
102
RTVSPropertyOp27
 70
     1
102
RTVSPropertyOp28
 70
     1
102
RTVSPropertyOp29
 70
     1
102
RTVSPropertyOp30
 70
     1
102
RTVSPropertyOp31
 70
     1
102
RTVSPropertyOp32
 70
     1
  0
XRECORD
  5
231
102
{ACAD_REACTORS
330
230
102
}
330
230
100
AcDbXrecord
280
     1
102
RTVSPropertyOp0
 70
     1
102
RTVSPropertyOp1
 70
     1
102
RTVSPropertyOp2
 70
     1
102
RTVSPropertyOp3
 70
     1
102
RTVSPropertyOp4
 70
     1
102
RTVSPropertyOp5
 70
     1
102
RTVSPropertyOp6
 70
     1
102
RTVSPropertyOp7
 70
     1
102
RTVSPropertyOp8
 70
     1
102
RTVSPropertyOp9
 70
     1
102
RTVSPropertyOp10
 70
     1
102
RTVSPropertyOp11
 70
     1
102
RTVSPropertyOp12
 70
     1
102
RTVSPropertyOp13
 70
     1
102
RTVSPropertyOp14
 70
     1
102
RTVSPropertyOp15
 70
     1
102
RTVSPropertyOp16
 70
     1
102
RTVSPropertyOp17
 70
     1
102
RTVSPropertyOp18
 70
     1
102
RTVSPropertyOp19
 70
     1
102
RTVSPropertyOp20
 70
     1
102
RTVSPropertyOp21
 70
     1
102
RTVSPropertyOp22
 70
     1
102
RTVSPropertyOp23
 70
     1
102
RTVSPropertyOp24
 70
     1
102
RTVSPropertyOp25
 70
     1
102
RTVSPropertyOp26
 70
     1
102
RTVSPropertyOp27
 70
     1
102
RTVSPropertyOp28
 70
     1
102
RTVSPropertyOp29
 70
     1
102
RTVSPropertyOp30
 70
     1
102
RTVSPropertyOp31
 70
     1
102
RTVSPropertyOp32
 70
     1
  0
XRECORD
  5
239
102
{ACAD_REACTORS
330
238
102
}
330
238
100
AcDbXrecord
280
     1
102
RTVSPropertyOp0
 70
     1
102
RTVSPropertyOp1
 70
     1
102
RTVSPropertyOp2
 70
     1
102
RTVSPropertyOp3
 70
     1
102
RTVSPropertyOp4
 70
     1
102
RTVSPropertyOp5
 70
     1
102
RTVSPropertyOp6
 70
     1
102
RTVSPropertyOp7
 70
     1
102
RTVSPropertyOp8
 70
     1
102
RTVSPropertyOp9
 70
     1
102
RTVSPropertyOp10
 70
     1
102
RTVSPropertyOp11
 70
     1
102
RTVSPropertyOp12
 70
     1
102
RTVSPropertyOp13
 70
     1
102
RTVSPropertyOp14
 70
     1
102
RTVSPropertyOp15
 70
     1
102
RTVSPropertyOp16
 70
     1
102
RTVSPropertyOp17
 70
     1
102
RTVSPropertyOp18
 70
     1
102
RTVSPropertyOp19
 70
     1
102
RTVSPropertyOp20
 70
     1
102
RTVSPropertyOp21
 70
     1
102
RTVSPropertyOp22
 70
     1
102
RTVSPropertyOp23
 70
     1
102
RTVSPropertyOp24
 70
     1
102
RTVSPropertyOp25
 70
     1
102
RTVSPropertyOp26
 70
     1
102
RTVSPropertyOp27
 70
     1
102
RTVSPropertyOp28
 70
     1
102
RTVSPropertyOp29
 70
     1
102
RTVSPropertyOp30
 70
     1
102
RTVSPropertyOp31
 70
     1
102
RTVSPropertyOp32
 70
     1
  0
ENDSEC
  0
EOF
