  0
SECTION
  2
HEADER
  9
$ACADVER
  1
AC1015
  9
$ACADMAINTVER
 70
     6
  9
$DWGCODEPAGE
  3
ANSI_932
  9
$INSBASE
 10
0.0
 20
0.0
 30
0.0
  9
$EXTMIN
 10
0.0
 20
0.0
 30
0.0
  9
$EXTMAX
 10
525.0
 20
742.5
 30
0.0
  9
$LIMMIN
 10
0.0
 20
0.0
  9
$LIMMAX
 10
12.0
 20
9.0
  9
$ORTHOMODE
 70
     0
  9
$REGENMODE
 70
     1
  9
$FILLMODE
 70
     1
  9
$QTEXTMODE
 70
     0
  9
$MIRRTEXT
 70
     1
  9
$LTSCALE
 40
1.0
  9
$ATTMODE
 70
     1
  9
$TEXTSIZE
 40
0.2
  9
$TRACEWID
 40
0.05
  9
$TEXTSTYLE
  7
Standard
  9
$CLAYER
  8
0
  9
$CELTYPE
  6
ByLayer
  9
$CECOLOR
 62
   256
  9
$CELTSCALE
 40
1.0
  9
$DISPSILH
 70
     0
  9
$DIMSCALE
 40
1.0
  9
$DIMASZ
 40
0.18
  9
$DIMEXO
 40
0.0625
  9
$DIMDLI
 40
0.38
  9
$DIMRND
 40
0.0
  9
$DIMDLE
 40
0.0
  9
$DIMEXE
 40
0.18
  9
$DIMTP
 40
0.0
  9
$DIMTM
 40
0.0
  9
$DIMTXT
 40
0.18
  9
$DIMCEN
 40
0.09
  9
$DIMTSZ
 40
0.0
  9
$DIMTOL
 70
     0
  9
$DIMLIM
 70
     0
  9
$DIMTIH
 70
     1
  9
$DIMTOH
 70
     1
  9
$DIMSE1
 70
     0
  9
$DIMSE2
 70
     0
  9
$DIMTAD
 70
     0
  9
$DIMZIN
 70
     0
  9
$DIMBLK
  1

  9
$DIMASO
 70
     1
  9
$DIMSHO
 70
     1
  9
$DIMPOST
  1

  9
$DIMAPOST
  1

  9
$DIMALT
 70
     0
  9
$DIMALTD
 70
     2
  9
$DIMALTF
 40
25.4
  9
$DIMLFAC
 40
1.0
  9
$DIMTOFL
 70
     0
  9
$DIMTVP
 40
0.0
  9
$DIMTIX
 70
     0
  9
$DIMSOXD
 70
     0
  9
$DIMSAH
 70
     0
  9
$DIMBLK1
  1

  9
$DIMBLK2
  1

  9
$DIMSTYLE
  2
Standard
  9
$DIMCLRD
 70
     0
  9
$DIMCLRE
 70
     0
  9
$DIMCLRT
 70
     0
  9
$DIMTFAC
 40
1.0
  9
$DIMGAP
 40
0.09
  9
$DIMJUST
 70
     0
  9
$DIMSD1
 70
     0
  9
$DIMSD2
 70
     0
  9
$DIMTOLJ
 70
     1
  9
$DIMTZIN
 70
     0
  9
$DIMALTZ
 70
     0
  9
$DIMALTTZ
 70
     0
  9
$DIMUPT
 70
     0
  9
$DIMDEC
 70
     4
  9
$DIMTDEC
 70
     4
  9
$DIMALTU
 70
     2
  9
$DIMALTTD
 70
     2
  9
$DIMTXSTY
  7
Standard
  9
$DIMAUNIT
 70
     0
  9
$DIMADEC
 70
     0
  9
$DIMALTRND
 40
0.0
  9
$DIMAZIN
 70
     0
  9
$DIMDSEP
 70
    46
  9
$DIMATFIT
 70
     3
  9
$DIMFRAC
 70
     0
  9
$DIMLDRBLK
  1

  9
$DIMLUNIT
 70
     2
  9
$DIMLWD
 70
    -2
  9
$DIMLWE
 70
    -2
  9
$DIMTMOVE
 70
     0
  9
$LUNITS
 70
     2
  9
$LUPREC
 70
     4
  9
$SKETCHINC
 40
0.1
  9
$FILLETRAD
 40
0.5
  9
$AUNITS
 70
     0
  9
$AUPREC
 70
     0
  9
$MENU
  1
.
  9
$ELEVATION
 40
0.0
  9
$PELEVATION
 40
0.0
  9
$THICKNESS
 40
0.0
  9
$LIMCHECK
 70
     0
  9
$CHAMFERA
 40
0.5
  9
$CHAMFERB
 40
0.5
  9
$CHAMFERC
 40
1.0
  9
$CHAMFERD
 40
0.0
  9
$SKPOLY
 70
     0
  9
$TDCREATE
 40
2457186.568994884
  9
$TDUCREATE
 40
2457186.193994884
  9
$TDUPDATE
 40
2457186.568995787
  9
$TDUUPDATE
 40
2457186.193995787
  9
$TDINDWG
 40
0.0000000116
  9
$TDUSRTIMER
 40
0.0000000116
  9
$USRTIMER
 70
     1
  9
$ANGBASE
 50
0.0
  9
$ANGDIR
 70
     0
  9
$PDMODE
 70
     0
  9
$PDSIZE
 40
0.0
  9
$PLINEWID
 40
0.0
  9
$SPLFRAME
 70
     0
  9
$SPLINETYPE
 70
     6
  9
$SPLINESEGS
 70
     8
  9
$HANDSEED
  5
280
  9
$SURFTAB1
 70
     6
  9
$SURFTAB2
 70
     6
  9
$SURFTYPE
 70
     6
  9
$SURFU
 70
     6
  9
$SURFV
 70
     6
  9
$UCSBASE
  2

  9
$UCSNAME
  2

  9
$UCSORG
 10
0.0
 20
0.0
 30
0.0
  9
$UCSXDIR
 10
1.0
 20
0.0
 30
0.0
  9
$UCSYDIR
 10
0.0
 20
1.0
 30
0.0
  9
$UCSORTHOREF
  2

  9
$UCSORTHOVIEW
 70
     0
  9
$UCSORGTOP
 10
0.0
 20
0.0
 30
0.0
  9
$UCSORGBOTTOM
 10
0.0
 20
0.0
 30
0.0
  9
$UCSORGLEFT
 10
0.0
 20
0.0
 30
0.0
  9
$UCSORGRIGHT
 10
0.0
 20
0.0
 30
0.0
  9
$UCSORGFRONT
 10
0.0
 20
0.0
 30
0.0
  9
$UCSORGBACK
 10
0.0
 20
0.0
 30
0.0
  9
$PUCSBASE
  2

  9
$PUCSNAME
  2

  9
$PUCSORG
 10
0.0
 20
0.0
 30
0.0
  9
$PUCSXDIR
 10
1.0
 20
0.0
 30
0.0
  9
$PUCSYDIR
 10
0.0
 20
1.0
 30
0.0
  9
$PUCSORTHOREF
  2

  9
$PUCSORTHOVIEW
 70
     0
  9
$PUCSORGTOP
 10
0.0
 20
0.0
 30
0.0
  9
$PUCSORGBOTTOM
 10
0.0
 20
0.0
 30
0.0
  9
$PUCSORGLEFT
 10
0.0
 20
0.0
 30
0.0
  9
$PUCSORGRIGHT
 10
0.0
 20
0.0
 30
0.0
  9
$PUCSORGFRONT
 10
0.0
 20
0.0
 30
0.0
  9
$PUCSORGBACK
 10
0.0
 20
0.0
 30
0.0
  9
$USERI1
 70
     0
  9
$USERI2
 70
     0
  9
$USERI3
 70
     0
  9
$USERI4
 70
     0
  9
$USERI5
 70
     0
  9
$USERR1
 40
18.1
  9
$USERR2
 40
0.0
  9
$USERR3
 40
0.0
  9
$USERR4
 40
0.0
  9
$USERR5
 40
0.0
  9
$WORLDVIEW
 70
     1
  9
$SHADEDGE
 70
     3
  9
$SHADEDIF
 70
    70
  9
$TILEMODE
 70
     1
  9
$MAXACTVP
 70
    64
  9
$PINSBASE
 10
0.0
 20
0.0
 30
0.0
  9
$PLIMCHECK
 70
     0
  9
$PEXTMIN
 10
1.00000000000000E+20
 20
1.00000000000000E+20
 30
1.00000000000000E+20
  9
$PEXTMAX
 10
-1.00000000000000E+20
 20
-1.00000000000000E+20
 30
-1.00000000000000E+20
  9
$PLIMMIN
 10
0.0
 20
0.0
  9
$PLIMMAX
 10
12.0
 20
9.0
  9
$UNITMODE
 70
     0
  9
$VISRETAIN
 70
     1
  9
$PLINEGEN
 70
     0
  9
$PSLTSCALE
 70
     1
  9
$TREEDEPTH
 70
  3020
  9
$CMLSTYLE
  2
Standard
  9
$CMLJUST
 70
     0
  9
$CMLSCALE
 40
1.0
  9
$PROXYGRAPHICS
 70
     1
  9
$MEASUREMENT
 70
     1
  9
$CELWEIGHT
370
    -1
  9
$ENDCAPS
280
     0
  9
$JOINSTYLE
280
     0
  9
$LWDISPLAY
290
     0
  9
$INSUNITS
 70
     4
  9
$HYPERLINKBASE
  1

  9
$STYLESHEET
  1

  9
$XEDIT
290
     1
  9
$CEPSNTYPE
380
     0
  9
$PSTYLEMODE
290
     1
  9
$FINGERPRINTGUID
  2
{8BC155EB-B976-44BC-BA14-5458015AE2AC}
  9
$VERSIONGUID
  2
{FAEB1C32-E019-11D5-929B-00C0DF256EC4}
  9
$EXTNAMES
290
     1
  9
$PSVPSCALE
 40
0.0
  9
$OLESTARTUP
290
     0
  0
ENDSEC
  0
SECTION
  2
CLASSES
  0
CLASS
  1
ACDBDICTIONARYWDFLT
  2
AcDbDictionaryWithDefault
  3
ObjectDBX Classes
 90
        0
280
     0
281
     0
  0
CLASS
  1
VISUALSTYLE
  2
AcDbVisualStyle
  3
ObjectDBX Classes
 90
     4095
280
     0
281
     0
  0
CLASS
  1
MATERIAL
  2
AcDbMaterial
  3
ObjectDBX Classes
 90
     1153
280
     0
281
     0
  0
CLASS
  1
DICTIONARYVAR
  2
AcDbDictionaryVar
  3
ObjectDBX Classes
 90
        0
280
     0
281
     0
  0
CLASS
  1
ACDBPLACEHOLDER
  2
AcDbPlaceHolder
  3
ObjectDBX Classes
 90
        0
280
     0
281
     0
  0
CLASS
  1
LAYOUT
  2
AcDbLayout
  3
ObjectDBX Classes
 90
        0
280
     0
281
     0
  0
ENDSEC
  0
SECTION
  2
TABLES
  0
TABLE
  2
VPORT
  5
8
330
0
100
AcDbSymbolTable
 70
     1
  0
VPORT
  5
29
330
8
100
AcDbSymbolTableRecord
100
AcDbViewportTableRecord
  2
*Active
 70
     0
 10
0.0
 20
0.0
 11
1.0
 21
1.0
 12
262.5
 22
371.25
 13
0.0
 23
0.0
 14
0.5
 24
0.5
 15
0.5
 25
0.5
 16
0.0
 26
0.0
 36
1.0
 17
0.0
 27
0.0
 37
0.0
 40
816.7500000000001
 41
1.60267857142857
 42
50.0
 43
0.0
 44
0.0
 50
0.0
 51
0.0
 71
     0
 72
   100
 73
     1
 74
     3
 75
     0
 76
     0
 77
     0
 78
     0
281
     0
 65
     1
110
0.0
120
0.0
130
0.0
111
1.0
121
0.0
131
0.0
112
0.0
122
1.0
132
0.0
 79
     0
146
0.0
  0
ENDTAB
  0
TABLE
  2
LTYPE
  5
5
330
0
100
AcDbSymbolTable
 70
     8
  0
LTYPE
  5
14
330
5
100
AcDbSymbolTableRecord
100
AcDbLinetypeTableRecord
  2
ByBlock
 70
     0
  3

 72
    65
 73
     0
 40
0.0
  0
LTYPE
  5
15
330
5
100
AcDbSymbolTableRecord
100
AcDbLinetypeTableRecord
  2
ByLayer
 70
     0
  3

 72
    65
 73
     0
 40
0.0
  0
LTYPE
  5
16
330
5
100
AcDbSymbolTableRecord
100
AcDbLinetypeTableRecord
  2
Continuous
 70
     0
  3
Solid line
 72
    65
 73
     0
 40
0.0
  0
LTYPE
  5
3F
330
5
100
AcDbSymbolTableRecord
100
AcDbLinetypeTableRecord
  2
DASHED
 70
     0
  3
Dashed
 72
    65
 73
     2
 40
15.0
 49
7.0
 74
     0
 49
-8.0
 74
     0
  0
LTYPE
  5
40
330
5
100
AcDbSymbolTableRecord
100
AcDbLinetypeTableRecord
  2
DOTTED
 70
     0
  3
Dotted
 72
    65
 73
     2
 40
1.0
 49
0.0
 74
     0
 49
-1.0
 74
     0
  0
LTYPE
  5
41
330
5
100
AcDbSymbolTableRecord
100
AcDbLinetypeTableRecord
  2
DOT_CENTER
 70
     0
  3
Dot_Center
 72
    65
 73
     4
 40
14.0
 49
12.0
 74
     0
 49
-1.0
 74
     0
 49
0.0
 74
     0
 49
-1.0
 74
     0
  0
LTYPE
  5
42
330
5
100
AcDbSymbolTableRecord
100
AcDbLinetypeTableRecord
  2
LONG_DASHED
 70
     0
  3
Long_Dashed
 72
    65
 73
     2
 40
15.0
 49
10.0
 74
     0
 49
-5.0
 74
     0
  0
LTYPE
  5
43
330
5
100
AcDbSymbolTableRecord
100
AcDbLinetypeTableRecord
  2
DASH_CENTER
 70
     0
  3
Dash_Center
 72
    65
 73
     4
 40
14.0
 49
11.0
 74
     0
 49
-1.0
 74
     0
 49
1.0
 74
     0
 49
-1.0
 74
     0
  0
LTYPE
  5
44
330
5
100
AcDbSymbolTableRecord
100
AcDbLinetypeTableRecord
  2
PHANTOM
 70
     0
  3
Phantom
 72
    65
 73
     6
 40
13.0
 49
10.0
 74
     0
 49
-1.0
 74
     0
 49
0.0
 74
     0
 49
-1.0
 74
     0
 49
0.0
 74
     0
 49
-1.0
 74
     0
  0
LTYPE
  5
45
330
5
100
AcDbSymbolTableRecord
100
AcDbLinetypeTableRecord
  2
CENTER_DASH_DASH
 70
     0
  3
Center_Dash_Dash
 72
    65
 73
     6
 40
14.0
 49
9.0
 74
     0
 49
-1.0
 74
     0
 49
1.0
 74
     0
 49
-1.0
 74
     0
 49
1.0
 74
     0
 49
-1.0
 74
     0
  0
ENDTAB
  0
TABLE
  2
LAYER
  5
2
330
0
100
AcDbSymbolTable
 70
     2
  0
LAYER
  5
10
330
2
100
AcDbSymbolTableRecord
100
AcDbLayerTableRecord
  2
0
 70
     0
 62
     7
  6
Continuous
370
    -3
390
F
  0
LAYER
  5
46
330
2
100
AcDbSymbolTableRecord
100
AcDbLayerTableRecord
  2
1
 70
     0
 62
     7
  6
Continuous
370
    -3
390
F
  0
ENDTAB
  0
TABLE
  2
STYLE
  5
3
330
0
100
AcDbSymbolTable
 70
     3
  0
STYLE
  5
11
330
3
100
AcDbSymbolTableRecord
100
AcDbTextStyleTableRecord
  2
Standard
 70
     0
 40
0.0
 41
1.0
 50
0.0
 71
     0
 42
0.2
  3
txt
  4

  0
STYLE
  5
AA
330
3
100
AcDbSymbolTableRecord
100
AcDbTextStyleTableRecord
  2
CONVERTER_11
 70
     0
 40
0.0
 41
0.89
 50
0.0
 71
     0
 42
0.2
  3
MS Mincho.ttf
  4

1001
ACAD
1000
MS Mincho
1071
    32785
  0
STYLE
  5
1FA
330
3
100
AcDbSymbolTableRecord
100
AcDbTextStyleTableRecord
  2
CONVERTER_12
 70
     0
 40
0.0
 41
0.9
 50
0.0
 71
     0
 42
0.2
  3
txt.shx
  4

  0
ENDTAB
  0
TABLE
  2
VIEW
  5
6
330
0
100
AcDbSymbolTable
 70
     0
  0
ENDTAB
  0
TABLE
  2
UCS
  5
7
330
0
100
AcDbSymbolTable
 70
     0
  0
ENDTAB
  0
TABLE
  2
APPID
  5
9
330
0
100
AcDbSymbolTable
 70
     1
  0
APPID
  5
12
330
9
100
AcDbSymbolTableRecord
100
AcDbRegAppTableRecord
  2
ACAD
 70
     0
  0
ENDTAB
  0
TABLE
  2
DIMSTYLE
  5
A
330
0
100
AcDbSymbolTable
 70
     8
100
AcDbDimStyleTable
  0
DIMSTYLE
105
27
330
A
100
AcDbSymbolTableRecord
100
AcDbDimStyleTableRecord
  2
Standard
 70
     0
178
     0
340
11
  0
DIMSTYLE
105
20D
102
{ACAD_REACTORS
330
20E
102
}
330
A
100
AcDbSymbolTableRecord
100
AcDbDimStyleTableRecord
  2
ME10_DIM_10
 70
     0
 41
8.75
 42
0.0
 44
2.5
 73
     0
 74
     0
 77
     1
 78
     8
140
8.75
147
2.5
172
     1
173
     1
174
     1
175
     1
176
     2
177
     2
271
     2
178
     7
271
     2
340
1FA
  0
DIMSTYLE
105
218
102
{ACAD_REACTORS
330
219
102
}
330
A
100
AcDbSymbolTableRecord
100
AcDbDimStyleTableRecord
  2
ME10_DIM_11
 70
     0
  3
{\Fgdt;n}<>
 41
8.75
 42
0.0
 44
2.5
 73
     0
 74
     0
 77
     1
 78
     8
140
8.75
147
2.5
172
     1
173
     1
174
     1
175
     1
176
     2
177
     2
271
     2
178
     7
271
     2
340
1FA
  0
DIMSTYLE
105
225
102
{ACAD_REACTORS
330
226
102
}
330
A
100
AcDbSymbolTableRecord
100
AcDbDimStyleTableRecord
  2
ME10_DIM_12
 70
     0
 41
8.75
 42
0.0
 44
2.5
 73
     0
 74
     0
 77
     1
 78
     8
140
8.75
147
2.5
172
     1
173
     1
174
     1
175
     1
176
     2
177
     2
271
     2
178
     7
271
     2
340
1FA
  0
DIMSTYLE
105
230
102
{ACAD_REACTORS
330
231
102
}
330
A
100
AcDbSymbolTableRecord
100
AcDbDimStyleTableRecord
  2
ME10_DIM_13
 70
     0
 41
8.75
 42
0.0
 44
2.5
 73
     0
 74
     0
 77
     1
 78
     8
140
8.75
147
2.5
172
     1
173
     1
174
     1
175
     1
176
     2
177
     2
271
     2
178
     7
271
     2
340
1FA
  0
DIMSTYLE
105
23D
102
{ACAD_REACTORS
330
23E
102
}
330
A
100
AcDbSymbolTableRecord
100
AcDbDimStyleTableRecord
  2
ME10_DIM_14
 70
     0
 41
8.75
 42
0.0
 44
2.5
 73
     0
 74
     0
 77
     1
 78
     8
140
8.75
147
2.5
172
     1
173
     1
174
     1
175
     1
176
     2
177
     2
271
     2
178
     7
271
     2
340
1FA
  0
DIMSTYLE
105
248
102
{ACAD_REACTORS
330
249
102
}
330
A
100
AcDbSymbolTableRecord
100
AcDbDimStyleTableRecord
  2
ME10_DIM_15
 70
     0
 41
8.75
 42
0.0
 44
2.5
 73
     0
 74
     0
 77
     1
 78
     8
140
8.75
147
2.5
172
     1
173
     1
174
     1
175
     1
176
     2
177
     2
271
     2
178
     7
271
     2
340
1FA
  0
DIMSTYLE
105
253
102
{ACAD_REACTORS
330
254
102
}
330
A
100
AcDbSymbolTableRecord
100
AcDbDimStyleTableRecord
  2
ME10_DIM_16
 70
     0
 41
8.75
 42
0.0
 44
2.5
 73
     0
 74
     0
 77
     1
 78
     8
140
8.75
147
2.5
172
     1
173
     1
174
     1
175
     1
176
     2
177
     2
271
     2
178
     7
271
     2
340
1FA
  0
ENDTAB
  0
TABLE
  2
BLOCK_RECORD
  5
1
330
0
100
AcDbSymbolTable
 70
    14
  0
BLOCK_RECORD
  5
1F
330
1
100
AcDbSymbolTableRecord
100
AcDbBlockTableRecord
  2
*Model_Space
340
22
  0
BLOCK_RECORD
  5
1B
330
1
100
AcDbSymbolTableRecord
100
AcDbBlockTableRecord
  2
*Paper_Space
340
1E
  0
BLOCK_RECORD
  5
23
330
1
100
AcDbSymbolTableRecord
100
AcDbBlockTableRecord
  2
*Paper_Space0
340
26
  0
BLOCK_RECORD
  5
47
330
1
100
AcDbSymbolTableRecord
100
AcDbBlockTableRecord
  2
開示A4
340
0
102
{BLKREFS
331
59
102
}
  0
BLOCK_RECORD
  5
4A
330
1
100
AcDbSymbolTableRecord
100
AcDbBlockTableRecord
  2
30-111
340
0
102
{BLKREFS
331
5A
102
}
  0
BLOCK_RECORD
  5
4D
330
1
100
AcDbSymbolTableRecord
100
AcDbBlockTableRecord
  2
32-1-16
340
0
102
{BLKREFS
331
5B
102
}
  0
BLOCK_RECORD
  5
50
330
1
100
AcDbSymbolTableRecord
100
AcDbBlockTableRecord
  2
A205-0
340
0
102
{BLKREFS
331
5C
102
}
  0
BLOCK_RECORD
  5
53
330
1
100
AcDbSymbolTableRecord
100
AcDbBlockTableRecord
  2
81-100X-M21
340
0
102
{BLKREFS
331
5D
102
}
  0
BLOCK_RECORD
  5
56
330
1
100
AcDbSymbolTableRecord
100
AcDbBlockTableRecord
  2
61-2-16-170
340
0
102
{BLKREFS
331
5E
102
}
  0
BLOCK_RECORD
  5
204
330
1
100
AcDbSymbolTableRecord
100
AcDbBlockTableRecord
  2
*D7
340
0
  0
BLOCK_RECORD
  5
20F
330
1
100
AcDbSymbolTableRecord
100
AcDbBlockTableRecord
  2
*D8
340
0
  0
BLOCK_RECORD
  5
21A
330
1
100
AcDbSymbolTableRecord
100
AcDbBlockTableRecord
  2
*D9
340
0
  0
BLOCK_RECORD
  5
227
330
1
100
AcDbSymbolTableRecord
100
AcDbBlockTableRecord
  2
*D10
340
0
  0
BLOCK_RECORD
  5
232
330
1
100
AcDbSymbolTableRecord
100
AcDbBlockTableRecord
  2
*D11
340
0
  0
BLOCK_RECORD
  5
23F
330
1
100
AcDbSymbolTableRecord
100
AcDbBlockTableRecord
  2
*D12
340
0
  0
BLOCK_RECORD
  5
24A
330
1
100
AcDbSymbolTableRecord
100
AcDbBlockTableRecord
  2
*D13
340
0
  0
ENDTAB
  0
ENDSEC
  0
SECTION
  2
BLOCKS
  0
BLOCK
  5
20
330
1F
100
AcDbEntity
  8
0
100
AcDbBlockBegin
  2
*Model_Space
 70
     0
 10
0.0
 20
0.0
 30
0.0
  3
*Model_Space
  1

  0
ENDBLK
  5
21
330
1F
100
AcDbEntity
  8
0
100
AcDbBlockEnd
  0
BLOCK
  5
1C
330
1B
100
AcDbEntity
 67
     1
  8
0
100
AcDbBlockBegin
  2
*Paper_Space
 70
     0
 10
0.0
 20
0.0
 30
0.0
  3
*Paper_Space
  1

  0
ENDBLK
  5
1D
330
1B
100
AcDbEntity
 67
     1
  8
0
100
AcDbBlockEnd
  0
BLOCK
  5
24
330
23
100
AcDbEntity
  8
0
100
AcDbBlockBegin
  2
*Paper_Space0
 70
     0
 10
0.0
 20
0.0
 30
0.0
  3
*Paper_Space0
  1

  0
ENDBLK
  5
25
330
23
100
AcDbEntity
  8
0
100
AcDbBlockEnd
  0
BLOCK
  5
48
330
47
100
AcDbEntity
  8
0
100
AcDbBlockBegin
  2
開示A4
 70
     0
 10
0.0
 20
0.0
 30
0.0
  3
開示A4
  1

  0
POINT
  5
5F
330
47
100
AcDbEntity
  8
1
 62
     4
100
AcDbPoint
 10
34.0
 20
34.00000000000001
 30
0.0
  0
POINT
  5
60
330
47
100
AcDbEntity
  8
1
 62
     4
100
AcDbPoint
 10
57.0
 20
12.25
 30
0.0
  0
POINT
  5
61
330
47
100
AcDbEntity
  8
1
 62
     4
100
AcDbPoint
 10
57.0
 20
20.75000000000001
 30
0.0
  0
POINT
  5
62
330
47
100
AcDbEntity
  8
1
 62
     4
100
AcDbPoint
 10
57.0
 20
24.75000000000001
 30
0.0
  0
POINT
  5
63
330
47
100
AcDbEntity
  8
1
 62
     4
100
AcDbPoint
 10
57.0
 20
16.25
 30
0.0
  0
POINT
  5
64
330
47
100
AcDbEntity
  8
1
 62
     4
100
AcDbPoint
 10
157.5
 20
19.00000000000001
 30
0.0
  0
POINT
  5
65
330
47
100
AcDbEntity
  8
1
 62
     4
100
AcDbPoint
 10
47.5
 20
282.0000000000003
 30
0.0
  0
POINT
  5
66
330
47
100
AcDbEntity
  8
1
 62
     4
100
AcDbPoint
 10
57.0
 20
22.75000000000001
 30
0.0
  0
POINT
  5
67
330
47
100
AcDbEntity
  8
1
 62
     4
100
AcDbPoint
 10
57.0
 20
14.25
 30
0.0
  0
POINT
  5
68
330
47
100
AcDbEntity
  8
1
 62
     4
100
AcDbPoint
 10
157.5
 20
12.5
 30
0.0
  0
POINT
  5
69
330
47
100
AcDbEntity
  8
1
 62
     4
100
AcDbPoint
 10
163.25
 20
12.5
 30
0.0
  0
POINT
  5
6A
330
47
100
AcDbEntity
  8
1
 62
     4
100
AcDbPoint
 10
151.75
 20
12.5
 30
0.0
  0
POINT
  5
6B
330
47
100
AcDbEntity
  8
1
 62
     4
100
AcDbPoint
 10
134.75
 20
12.5
 30
0.0
  0
POINT
  5
6C
330
47
100
AcDbEntity
  8
1
 62
     4
100
AcDbPoint
 10
146.25
 20
12.5
 30
0.0
  0
POINT
  5
6D
330
47
100
AcDbEntity
  8
1
 62
     4
100
AcDbPoint
 10
140.5
 20
12.5
 30
0.0
  0
POINT
  5
6E
330
47
100
AcDbEntity
  8
1
 62
     4
100
AcDbPoint
 10
140.5
 20
19.00000000000001
 30
0.0
  0
POINT
  5
6F
330
47
100
AcDbEntity
  8
1
 62
     4
100
AcDbPoint
 10
117.75
 20
12.5
 30
0.0
  0
POINT
  5
70
330
47
100
AcDbEntity
  8
1
 62
     4
100
AcDbPoint
 10
129.25
 20
12.5
 30
0.0
  0
POINT
  5
71
330
47
100
AcDbEntity
  8
1
 62
     4
100
AcDbPoint
 10
123.5
 20
12.5
 30
0.0
  0
POINT
  5
72
330
47
100
AcDbEntity
  8
1
 62
     4
100
AcDbPoint
 10
123.5
 20
19.00000000000001
 30
0.0
  0
POINT
  5
73
330
47
100
AcDbEntity
  8
1
 62
     4
100
AcDbPoint
 10
100.75
 20
12.5
 30
0.0
  0
POINT
  5
74
330
47
100
AcDbEntity
  8
1
 62
     4
100
AcDbPoint
 10
112.25
 20
12.5
 30
0.0
  0
POINT
  5
75
330
47
100
AcDbEntity
  8
1
 62
     4
100
AcDbPoint
 10
106.5
 20
12.5
 30
0.0
  0
POINT
  5
76
330
47
100
AcDbEntity
  8
1
 62
     4
100
AcDbPoint
 10
106.5
 20
19.00000000000001
 30
0.0
  0
POINT
  5
77
330
47
100
AcDbEntity
  8
1
 62
     4
100
AcDbPoint
 10
85.25
 20
17.0
 30
0.0
  0
POINT
  5
78
330
47
100
AcDbEntity
  8
1
 62
     4
100
AcDbPoint
 10
93.75
 20
17.0
 30
0.0
  0
LINE
  5
79
330
47
100
AcDbEntity
  8
1
  6
Continuous
 62
     2
100
AcDbLine
 10
81.0
 20
27.00000000000001
 30
0.0
 11
81.0
 21
10.0
 31
0.0
  0
LINE
  5
7A
330
47
100
AcDbEntity
  8
1
  6
DOT_CENTER
 62
     2
100
AcDbLine
 10
187.0
 20
26.50000000000001
 30
0.0
 11
187.0
 21
20.50000000000001
 31
0.0
  0
LINE
  5
7B
330
47
100
AcDbEntity
  8
1
  6
DOT_CENTER
 62
     2
100
AcDbLine
 10
184.0
 20
23.50000000000001
 30
0.0
 11
197.0
 21
23.50000000000001
 31
0.0
  0
LINE
  5
7C
330
47
100
AcDbEntity
  8
1
  6
Continuous
 62
     7
100
AcDbLine
 10
196.0
 20
21.50000000000001
 30
0.0
 11
191.0
 21
22.30000000000001
 31
0.0
  0
LINE
  5
7D
330
47
100
AcDbEntity
  8
1
  6
Continuous
 62
     7
100
AcDbLine
 10
196.0
 20
25.50000000000001
 30
0.0
 11
196.0
 21
21.50000000000001
 31
0.0
  0
LINE
  5
7E
330
47
100
AcDbEntity
  8
1
  6
Continuous
 62
     7
100
AcDbLine
 10
191.0
 20
24.70000000000001
 30
0.0
 11
196.0
 21
25.50000000000001
 31
0.0
  0
LINE
  5
7F
330
47
100
AcDbEntity
  8
1
  6
Continuous
 62
     7
100
AcDbLine
 10
191.0
 20
24.70000000000001
 30
0.0
 11
191.0
 21
22.30000000000001
 31
0.0
  0
LINE
  5
80
330
47
100
AcDbEntity
  8
1
  6
Continuous
 62
     2
100
AcDbLine
 10
33.0
 20
27.0
 30
0.0
 11
33.0
 21
10.0
 31
0.0
  0
LINE
  5
81
330
47
100
AcDbEntity
  8
1
  6
Continuous
 62
     2
100
AcDbLine
 10
25.0
 20
18.50000000000001
 30
0.0
 11
81.0
 21
18.50000000000001
 31
0.0
  0
LINE
  5
82
330
47
100
AcDbEntity
  8
1
  6
Continuous
 62
     7
100
AcDbLine
 10
200.0
 20
287.0000000000003
 30
0.0
 11
105.0
 21
287.0000000000003
 31
0.0
  0
LINE
  5
83
330
47
100
AcDbEntity
  8
1
  6
Continuous
 62
     7
100
AcDbLine
 10
200.0
 20
10.0
 30
0.0
 11
200.0
 21
148.5
 31
0.0
  0
LINE
  5
84
330
47
100
AcDbEntity
  8
1
  6
Continuous
 62
     7
100
AcDbLine
 10
25.0
 20
10.0
 30
0.0
 11
105.0
 21
10.0
 31
0.0
  0
LINE
  5
85
330
47
100
AcDbEntity
  8
1
  6
PHANTOM
 62
     4
100
AcDbLine
 10
0.0
 20
297.0
 30
0.0
 11
0.0
 21
0.0
 31
0.0
  0
LINE
  5
86
330
47
100
AcDbEntity
  8
1
  6
PHANTOM
 62
     4
100
AcDbLine
 10
210.0
 20
297.0
 30
0.0
 11
0.0
 21
297.0
 31
0.0
  0
LINE
  5
87
330
47
100
AcDbEntity
  8
1
  6
PHANTOM
 62
     4
100
AcDbLine
 10
210.0
 20
0.0
 30
0.0
 11
210.0
 21
297.0
 31
0.0
  0
LINE
  5
88
330
47
100
AcDbEntity
  8
1
  6
PHANTOM
 62
     4
100
AcDbLine
 10
0.0
 20
0.0
 30
0.0
 11
210.0
 21
0.0
 31
0.0
  0
LINE
  5
89
330
47
100
AcDbEntity
  8
1
  6
Continuous
 62
     7
100
AcDbLine
 10
25.0
 20
41.0
 30
0.0
 11
200.0
 21
41.0
 31
0.0
  0
LINE
  5
8A
330
47
100
AcDbEntity
  8
1
  6
Continuous
 62
     7
100
AcDbLine
 10
200.0
 20
27.00000000000001
 30
0.0
 11
25.0
 21
27.00000000000001
 31
0.0
  0
LINE
  5
8B
330
47
100
AcDbEntity
  8
1
  6
Continuous
 62
     2
100
AcDbLine
 10
33.0
 20
41.00000000000001
 30
0.0
 11
33.0
 21
27.0
 31
0.0
  0
LINE
  5
8C
330
47
100
AcDbEntity
  8
1
  6
Continuous
 62
     2
100
AcDbLine
 10
55.0
 20
287.0000000000003
 30
0.0
 11
55.0
 21
277.0000000000003
 31
0.0
  0
LINE
  5
8D
330
47
100
AcDbEntity
  8
1
  6
Continuous
 62
     2
100
AcDbLine
 10
40.0
 20
287.0000000000003
 30
0.0
 11
40.0
 21
277.0000000000003
 31
0.0
  0
LINE
  5
8E
330
47
100
AcDbEntity
  8
1
  6
Continuous
 62
     7
100
AcDbLine
 10
25.0
 20
10.0
 30
0.0
 11
25.0
 21
148.5
 31
0.0
  0
LINE
  5
8F
330
47
100
AcDbEntity
  8
1
  6
Continuous
 62
     2
100
AcDbLine
 10
55.0
 20
277.0000000000003
 30
0.0
 11
25.0
 21
277.0000000000003
 31
0.0
  0
LINE
  5
90
330
47
100
AcDbEntity
  8
1
  6
Continuous
 62
     2
100
AcDbLine
 10
166.0
 20
27.00000000000001
 30
0.0
 11
166.0
 21
10.0
 31
0.0
  0
LINE
  5
91
330
47
100
AcDbEntity
  8
1
  6
Continuous
 62
     2
100
AcDbLine
 10
132.0
 20
27.00000000000001
 30
0.0
 11
132.0
 21
9.99999999999999
 31
0.0
  0
LINE
  5
92
330
47
100
AcDbEntity
  8
1
  6
Continuous
 62
     2
100
AcDbLine
 10
149.0
 20
27.00000000000001
 30
0.0
 11
149.0
 21
10.0
 31
0.0
  0
LINE
  5
93
330
47
100
AcDbEntity
  8
1
  6
Continuous
 62
     2
100
AcDbLine
 10
115.0
 20
27.00000000000001
 30
0.0
 11
115.0
 21
9.99999999999999
 31
0.0
  0
LINE
  5
94
330
47
100
AcDbEntity
  8
1
  6
Continuous
 62
     2
100
AcDbLine
 10
98.0
 20
27.00000000000001
 30
0.0
 11
98.0
 21
9.99999999999999
 31
0.0
  0
LINE
  5
95
330
47
100
AcDbEntity
  8
1
  6
Continuous
 62
     2
100
AcDbLine
 10
166.0
 20
20.00000000000001
 30
0.0
 11
200.0
 21
20.00000000000001
 31
0.0
  0
LINE
  5
96
330
47
100
AcDbEntity
  8
1
  6
Continuous
 62
     2
100
AcDbLine
 10
105.0
 20
287.0000000000003
 30
0.0
 11
105.0
 21
292.0000000000003
 31
0.0
  0
LINE
  5
97
330
47
100
AcDbEntity
  8
1
  6
Continuous
 62
     7
100
AcDbLine
 10
105.0
 20
287.0000000000003
 30
0.0
 11
25.0
 21
287.0000000000003
 31
0.0
  0
LINE
  5
98
330
47
100
AcDbEntity
  8
1
  6
Continuous
 62
     2
100
AcDbLine
 10
25.0
 20
148.5
 30
0.0
 11
20.0
 21
148.5
 31
0.0
  0
LINE
  5
99
330
47
100
AcDbEntity
  8
1
  6
Continuous
 62
     7
100
AcDbLine
 10
25.0
 20
148.5
 30
0.0
 11
25.0
 21
287.0000000000003
 31
0.0
  0
LINE
  5
9A
330
47
100
AcDbEntity
  8
1
  6
Continuous
 62
     2
100
AcDbLine
 10
200.0
 20
148.5
 30
0.0
 11
205.0
 21
148.5
 31
0.0
  0
LINE
  5
9B
330
47
100
AcDbEntity
  8
1
  6
Continuous
 62
     7
100
AcDbLine
 10
200.0
 20
148.5
 30
0.0
 11
200.0
 21
287.0000000000003
 31
0.0
  0
LINE
  5
9C
330
47
100
AcDbEntity
  8
1
  6
Continuous
 62
     2
100
AcDbLine
 10
105.0
 20
10.0
 30
0.0
 11
105.0
 21
5.0
 31
0.0
  0
LINE
  5
9D
330
47
100
AcDbEntity
  8
1
  6
Continuous
 62
     7
100
AcDbLine
 10
105.0
 20
10.0
 30
0.0
 11
200.0
 21
10.0
 31
0.0
  0
CIRCLE
  5
9E
330
47
100
AcDbEntity
  8
1
  6
DOT_CENTER
 62
     7
100
AcDbCircle
 10
89.5
 20
18.0
 30
0.0
 40
0.1000000000000227
  0
CIRCLE
  5
9F
330
47
100
AcDbEntity
  8
1
  6
DOT_CENTER
 62
     7
100
AcDbCircle
 10
89.5
 20
16.0
 30
0.0
 40
0.1000000000000227
  0
CIRCLE
  5
A0
330
47
100
AcDbEntity
  8
1
  6
Continuous
 62
     7
100
AcDbCircle
 10
187.0
 20
23.50000000000001
 30
0.0
 40
2.0
  0
CIRCLE
  5
A1
330
47
100
AcDbEntity
  8
1
  6
Continuous
 62
     7
100
AcDbCircle
 10
187.0
 20
23.50000000000001
 30
0.0
 40
1.200000000000102
  0
CIRCLE
  5
A2
330
47
100
AcDbEntity
  8
1
  6
Continuous
 62
     7
100
AcDbCircle
 10
154.5
 20
12.5
 30
0.0
 40
0.3000000000000114
  0
CIRCLE
  5
A3
330
47
100
AcDbEntity
  8
1
  6
Continuous
 62
     7
100
AcDbCircle
 10
160.5
 20
12.5
 30
0.0
 40
0.3000000000000114
  0
CIRCLE
  5
A4
330
47
100
AcDbEntity
  8
1
  6
Continuous
 62
     7
100
AcDbCircle
 10
143.5
 20
12.5
 30
0.0
 40
0.3000000000000114
  0
CIRCLE
  5
A5
330
47
100
AcDbEntity
  8
1
  6
Continuous
 62
     7
100
AcDbCircle
 10
137.5
 20
12.5
 30
0.0
 40
0.3000000000000114
  0
CIRCLE
  5
A6
330
47
100
AcDbEntity
  8
1
  6
Continuous
 62
     7
100
AcDbCircle
 10
126.5
 20
12.5
 30
0.0
 40
0.2999999999999972
  0
CIRCLE
  5
A7
330
47
100
AcDbEntity
  8
1
  6
Continuous
 62
     7
100
AcDbCircle
 10
120.5
 20
12.5
 30
0.0
 40
0.2999999999999972
  0
CIRCLE
  5
A8
330
47
100
AcDbEntity
  8
1
  6
Continuous
 62
     7
100
AcDbCircle
 10
109.5
 20
12.5
 30
0.0
 40
0.2999999999999972
  0
CIRCLE
  5
A9
330
47
100
AcDbEntity
  8
1
  6
Continuous
 62
     7
100
AcDbCircle
 10
103.5
 20
12.5
 30
0.0
 40
0.2999999999999972
  0
MTEXT
  5
AB
330
47
100
AcDbEntity
  8
1
 62
   250
100
AcDbMText
 10
25.0
 20
5.0
 30
0.0
 40
3.5
 41
0.0
 71
     4
 72
     1
  1
備考欄の文字列 原点位置=4
  7
CONVERTER_11
 73
     1
 44
0.54545454545455
  0
MTEXT
  5
AC
330
47
100
AcDbEntity
  8
1
 62
     2
100
AcDbMText
 10
89.5
 20
24.00000000000001
 30
0.0
 40
3.5
 41
0.0
 71
     5
 72
     1
  1
尺度
  7
CONVERTER_11
 73
     1
 44
0.54545454545455
  0
MTEXT
  5
AD
330
47
100
AcDbEntity
  8
1
 62
     2
100
AcDbMText
 10
135.5
 20
25.00000000000001
 30
0.0
 40
3.0
 41
0.0
 71
     5
 72
     1
  1
製図
  7
CONVERTER_11
 73
     1
 44
0.59090909090909
  0
MTEXT
  5
AE
330
47
100
AcDbEntity
  8
1
 62
     2
100
AcDbMText
 10
152.5
 20
25.00000000000001
 30
0.0
 40
3.0
 41
0.0
 71
     5
 72
     1
  1
設計
  7
CONVERTER_11
 73
     1
 44
0.59090909090909
  0
MTEXT
  5
AF
330
47
100
AcDbEntity
  8
1
 62
     2
100
AcDbMText
 10
118.5
 20
25.00000000000001
 30
0.0
 40
3.0
 41
0.0
 71
     5
 72
     1
  1
検図
  7
CONVERTER_11
 73
     1
 44
0.59090909090909
  0
MTEXT
  5
B0
330
47
100
AcDbEntity
  8
1
 62
     2
100
AcDbMText
 10
175.0
 20
23.50000000000001
 30
0.0
 40
3.5
 41
0.0
 71
     5
 72
     1
  1
第三角法
  7
CONVERTER_11
 73
     1
 44
0.54545454545455
  0
MTEXT
  5
B1
330
47
100
AcDbEntity
  8
1
 62
     2
100
AcDbMText
 10
101.5
 20
25.00000000000001
 30
0.0
 40
3.0
 41
0.0
 71
     5
 72
     1
  1
承認
  7
CONVERTER_11
 73
     1
 44
0.59090909090909
  0
MTEXT
  5
B2
330
47
100
AcDbEntity
  8
1
 62
     2
100
AcDbMText
 10
29.0
 20
14.25
 30
0.0
 40
3.5
 41
0.0
 71
     5
 72
     1
  1
品番
  7
CONVERTER_11
 73
     1
 44
0.72727272727273
  0
MTEXT
  5
B3
330
47
100
AcDbEntity
  8
1
 62
     2
100
AcDbMText
 10
29.0
 20
22.75
 30
0.0
 40
3.5
 41
0.0
 71
     5
 72
     1
  1
品名
  7
CONVERTER_11
 73
     1
 44
0.72727272727273
  0
MTEXT
  5
B4
330
47
100
AcDbEntity
  8
1
 62
     2
100
AcDbMText
 10
29.0
 20
34.00000000000001
 30
0.0
 40
3.5
 41
0.0
 71
     5
 72
     1
  1
備考
  7
CONVERTER_11
 73
     1
 44
0.45454545454545
  0
MTEXT
  5
B5
330
47
100
AcDbEntity
  8
1
 62
     2
100
AcDbMText
 10
32.5
 20
282.0000000000003
 30
0.0
 40
5.0
 41
0.0
 71
     5
 72
     1
  1
図番
  7
CONVERTER_11
 73
     1
 44
0.45454545454545
  0
MTEXT
  5
B6
330
47
100
AcDbEntity
  8
1
 62
     7
100
AcDbMText
 10
171.5
 20
15.0
 30
0.0
 40
2.5
 41
0.0
 71
     5
 72
     1
  1
株式会社
  7
CONVERTER_11
 73
     1
 44
1.0
  0
MTEXT
  5
B7
330
47
100
AcDbEntity
  8
1
 62
     7
100
AcDbMText
 10
188.5
 20
15.0
 30
0.0
 40
3.0
 41
0.0
 71
     5
 72
     1
  1
三栄水栓製作所
  7
CONVERTER_11
 73
     1
 44
1.0
  0
ENDBLK
  5
49
330
47
100
AcDbEntity
  8
0
100
AcDbBlockEnd
  0
BLOCK
  5
4B
330
4A
100
AcDbEntity
  8
0
100
AcDbBlockBegin
  2
30-111
 70
     0
 10
1394.519187358918
 20
135.2590293453731
 30
0.0
  3
30-111
  1

  0
LINE
  5
B8
330
4A
100
AcDbEntity
  8
1
  6
Continuous
 62
     7
100
AcDbLine
 10
111.6405561454615
 20
264.2398955371918
 30
0.0
 11
123.3905561454615
 21
264.2398955371918
 31
0.0
  0
LINE
  5
B9
330
4A
100
AcDbEntity
  8
1
  6
Continuous
 62
     7
100
AcDbLine
 10
135.1405561454615
 20
264.2398955371918
 30
0.0
 11
134.9405561454614
 21
264.4398955371918
 31
0.0
  0
LINE
  5
BA
330
4A
100
AcDbEntity
  8
1
  6
Continuous
 62
     7
100
AcDbLine
 10
111.6405561454615
 20
249.4398955371918
 30
0.0
 11
123.3905561454615
 21
249.4398955371918
 31
0.0
  0
LINE
  5
BB
330
4A
100
AcDbEntity
  8
1
  6
Continuous
 62
     7
100
AcDbLine
 10
111.6405561454615
 20
249.4398955371918
 30
0.0
 11
111.6405561454615
 21
264.2398955371918
 31
0.0
  0
LINE
  5
BC
330
4A
100
AcDbEntity
  8
1
  6
Continuous
 62
     7
100
AcDbLine
 10
134.0405561454616
 20
247.4398955371918
 30
0.0
 11
112.7405561454615
 21
247.4398955371918
 31
0.0
  0
LINE
  5
BD
330
4A
100
AcDbEntity
  8
1
  6
Continuous
 62
     7
100
AcDbLine
 10
135.1405561454615
 20
264.2398955371918
 30
0.0
 11
135.1405561454615
 21
249.4398955371918
 31
0.0
  0
LINE
  5
BE
330
4A
100
AcDbEntity
  8
1
  6
Continuous
 62
     7
100
AcDbLine
 10
111.8405561454615
 20
264.4398955371918
 30
0.0
 11
134.9405561454614
 21
264.4398955371918
 31
0.0
  0
LINE
  5
BF
330
4A
100
AcDbEntity
  8
1
  6
PHANTOM
 62
     4
100
AcDbLine
 10
123.3905561454615
 20
267.4398955371918
 30
0.0
 11
123.3905561454615
 21
245.9398955371918
 31
0.0
  0
LINE
  5
C0
330
4A
100
AcDbEntity
  8
1
  6
Continuous
 62
     7
100
AcDbLine
 10
111.6405561454615
 20
264.2398955371918
 30
0.0
 11
111.8405561454615
 21
264.4398955371918
 31
0.0
  0
LINE
  5
C1
330
4A
100
AcDbEntity
  8
1
  6
Continuous
 62
     7
100
AcDbLine
 10
123.3905561454615
 20
249.4398955371918
 30
0.0
 11
135.1405561454615
 21
249.4398955371918
 31
0.0
  0
LINE
  5
C2
330
4A
100
AcDbEntity
  8
1
  6
Continuous
 62
     7
100
AcDbLine
 10
123.3905561454615
 20
264.2398955371918
 30
0.0
 11
135.1405561454615
 21
264.2398955371918
 31
0.0
  0
LINE
  5
C3
330
4A
100
AcDbEntity
  8
1
  6
Continuous
 62
     7
100
AcDbLine
 10
195.0874529667485
 20
264.2398955371918
 30
0.0
 11
206.8374529667485
 21
264.2398955371918
 31
0.0
  0
LINE
  5
C4
330
4A
100
AcDbEntity
  8
1
  6
Continuous
 62
     7
100
AcDbLine
 10
195.0874529667485
 20
249.4398955371918
 30
0.0
 11
206.8374529667485
 21
249.4398955371918
 31
0.0
  0
LINE
  5
C5
330
4A
100
AcDbEntity
  8
1
  6
Continuous
 62
     7
100
AcDbLine
 10
183.3374529667485
 20
264.2398955371918
 30
0.0
 11
183.5374529667486
 21
264.4398955371918
 31
0.0
  0
LINE
  5
C6
330
4A
100
AcDbEntity
  8
1
  6
Continuous
 62
     7
100
AcDbLine
 10
183.5374529667486
 20
264.4398955371918
 30
0.0
 11
206.6374529667485
 21
264.4398955371918
 31
0.0
  0
LINE
  5
C7
330
4A
100
AcDbEntity
  8
1
  6
Continuous
 62
     7
100
AcDbLine
 10
206.8374529667485
 20
264.2398955371918
 30
0.0
 11
206.8374529667485
 21
249.4398955371918
 31
0.0
  0
LINE
  5
C8
330
4A
100
AcDbEntity
  8
1
  6
Continuous
 62
     7
100
AcDbLine
 10
205.7374529667486
 20
247.4398955371918
 30
0.0
 11
184.4374529667484
 21
247.4398955371918
 31
0.0
  0
LINE
  5
C9
330
4A
100
AcDbEntity
  8
1
  6
Continuous
 62
     7
100
AcDbLine
 10
183.3374529667485
 20
249.4398955371918
 30
0.0
 11
183.3374529667485
 21
264.2398955371918
 31
0.0
  0
LINE
  5
CA
330
4A
100
AcDbEntity
  8
1
  6
Continuous
 62
     7
100
AcDbLine
 10
183.3374529667485
 20
249.4398955371918
 30
0.0
 11
195.0874529667485
 21
249.4398955371918
 31
0.0
  0
LINE
  5
CB
330
4A
100
AcDbEntity
  8
1
  6
Continuous
 62
     7
100
AcDbLine
 10
206.8374529667485
 20
264.2398955371918
 30
0.0
 11
206.6374529667485
 21
264.4398955371918
 31
0.0
  0
LINE
  5
CC
330
4A
100
AcDbEntity
  8
1
  6
Continuous
 62
     7
100
AcDbLine
 10
183.3374529667485
 20
264.2398955371918
 30
0.0
 11
195.0874529667485
 21
264.2398955371918
 31
0.0
  0
ARC
  5
CD
330
4A
100
AcDbEntity
  8
1
  6
Continuous
 62
     7
100
AcDbCircle
 10
123.4159734929935
 20
395.3816009195643
 30
0.0
 40
11.7248246436889
100
AcDbArc
 50
0.0
 51
46.97534735392031
  0
ARC
  5
CE
330
4A
100
AcDbEntity
  8
1
  6
Continuous
 62
     7
100
AcDbCircle
 10
123.4159734929935
 20
395.3816009195643
 30
0.0
 40
11.72482464368929
100
AcDbArc
 50
133.0246526460801
 51
0.0
  0
ARC
  5
CF
330
4A
100
AcDbEntity
  8
1
  6
Continuous
 62
     7
100
AcDbCircle
 10
120.6068118126225
 20
256.1309549202534
 30
0.0
 40
15.99999999999967
100
AcDbArc
 50
327.0988561860946
 51
335.2795563279588
  0
ARC
  5
D0
330
4A
100
AcDbEntity
  8
1
  6
Continuous
 62
     7
100
AcDbCircle
 10
126.1743004783015
 20
256.1309549202534
 30
0.0
 40
16.00000000000047
100
AcDbArc
 50
204.7204436720397
 51
212.9011438139037
  0
ARC
  5
D1
330
4A
100
AcDbEntity
  8
1
  6
Continuous
 62
     7
100
AcDbCircle
 10
197.8711972995884
 20
256.1309549202534
 30
0.0
 40
16.00000000000039
100
AcDbArc
 50
204.7204436720398
 51
212.9011438139037
  0
ARC
  5
D2
330
4A
100
AcDbEntity
  8
1
  6
Continuous
 62
     7
100
AcDbCircle
 10
192.3037086339095
 20
256.1309549202534
 30
0.0
 40
15.99999999999966
100
AcDbArc
 50
327.0988561860945
 51
335.2795563279588
  0
ENDBLK
  5
4C
330
4A
100
AcDbEntity
  8
0
100
AcDbBlockEnd
  0
BLOCK
  5
4E
330
4D
100
AcDbEntity
  8
0
100
AcDbBlockBegin
  2
32-1-16
 70
     0
 10
897.0785573537496
 20
504.5047259841081
 30
0.0
  3
32-1-16
  1

  0
LINE
  5
D3
330
4D
100
AcDbEntity
  8
1
  6
Continuous
 62
     7
100
AcDbLine
 10
135.1405561454615
 20
255.039895537192
 30
0.0
 11
135.6009734929944
 21
255.039895537192
 31
0.0
  0
LINE
  5
D4
330
4D
100
AcDbEntity
  8
1
  6
Continuous
 62
     7
100
AcDbLine
 10
135.6009734929944
 20
255.039895537192
 30
0.0
 11
136.6029734929946
 21
255.0398955371928
 31
0.0
  0
LINE
  5
D5
330
4D
100
AcDbEntity
  8
1
  6
Continuous
 62
     7
100
AcDbLine
 10
136.6029734929946
 20
255.0398955371928
 30
0.0
 11
136.7159734929944
 21
255.0398955371928
 31
0.0
  0
LINE
  5
D6
330
4D
100
AcDbEntity
  8
1
  6
Continuous
 62
     7
100
AcDbLine
 10
361.0816104640444
 20
255.039895537192
 30
0.0
 11
351.7816104640444
 21
255.039895537192
 31
0.0
  0
LINE
  5
D7
330
4D
100
AcDbEntity
  8
1
  6
Continuous
 62
     7
100
AcDbLine
 10
379.0816104640444
 20
262.753072786905
 30
0.0
 11
379.0816104640444
 21
255.6116443583622
 31
0.0
  0
LINE
  5
D8
330
4D
100
AcDbEntity
  8
1
  6
Continuous
 62
     7
100
AcDbLine
 10
351.0816104640444
 20
255.6116443583622
 30
0.0
 11
351.0816104640444
 21
262.7530727869051
 31
0.0
  0
LINE
  5
D9
330
4D
100
AcDbEntity
  8
1
  6
Continuous
 62
     7
100
AcDbLine
 10
374.8495596564756
 20
265.039895537192
 30
0.0
 11
355.3136612716135
 21
265.039895537192
 31
0.0
  0
LINE
  5
DA
330
4D
100
AcDbEntity
  8
1
  6
Continuous
 62
     7
100
AcDbLine
 10
378.3816104640434
 20
255.039895537192
 30
0.0
 11
369.3495596564756
 21
255.039895537192
 31
0.0
  0
LINE
  5
DB
330
4D
100
AcDbEntity
  8
1
  6
Continuous
 62
     7
100
AcDbLine
 10
353.5235894023135
 20
264.039895537192
 30
0.0
 11
353.5816104640444
 21
264.039895537192
 31
0.0
  0
LINE
  5
DC
330
4D
100
AcDbEntity
  8
1
  6
Continuous
 62
     7
100
AcDbLine
 10
376.5816104640444
 20
264.039895537192
 30
0.0
 11
376.6396315257746
 21
264.039895537192
 31
0.0
  0
LINE
  5
DD
330
4D
100
AcDbEntity
  8
1
  6
Continuous
 62
     7
100
AcDbLine
 10
369.3495596564756
 20
255.039895537192
 30
0.0
 11
369.0816104640444
 21
255.039895537192
 31
0.0
  0
LINE
  5
DE
330
4D
100
AcDbEntity
  8
1
  6
Continuous
 62
     7
100
AcDbLine
 10
107.9655841660997
 20
564.1424602304658
 30
0.0
 11
114.6176515139244
 21
552.6207416086631
 31
0.0
  0
LINE
  5
DF
330
4D
100
AcDbEntity
  8
1
  6
Continuous
 62
     7
100
AcDbLine
 10
114.6176515139244
 20
578.1424602304658
 30
0.0
 11
107.9655841660997
 21
566.6207416086631
 31
0.0
  0
LINE
  5
E0
330
4D
100
AcDbEntity
  8
1
  6
Continuous
 62
     7
100
AcDbLine
 10
136.7159734929944
 20
255.0398955371928
 30
0.0
 11
136.6029734929946
 21
255.0398955371928
 31
0.0
  0
LINE
  5
E1
330
4D
100
AcDbEntity
  8
1
  6
Continuous
 62
     7
100
AcDbLine
 10
132.2142954720634
 20
552.6207416086631
 30
0.0
 11
138.8663628198885
 21
564.1424602304658
 31
0.0
  0
LINE
  5
E2
330
4D
100
AcDbEntity
  8
1
  6
Continuous
 62
     7
100
AcDbLine
 10
138.8663628198885
 20
566.6207416086631
 30
0.0
 11
132.2142954720634
 21
578.1424602304658
 31
0.0
  0
LINE
  5
E3
330
4D
100
AcDbEntity
  8
1
  6
Continuous
 62
     7
100
AcDbLine
 10
130.0680408408196
 20
579.3816009195643
 30
0.0
 11
116.7639061451685
 21
579.3816009195643
 31
0.0
  0
LINE
  5
E4
330
4D
100
AcDbEntity
  8
1
  6
Continuous
 62
     7
100
AcDbLine
 10
110.115973492994
 20
255.0398955371928
 30
0.0
 11
111.6405561454615
 21
255.0398955371928
 31
0.0
  0
LINE
  5
E5
330
4D
100
AcDbEntity
  8
1
  6
Continuous
 62
     7
100
AcDbLine
 10
110.2289734929941
 20
255.0398955371928
 30
0.0
 11
110.115973492994
 21
255.0398955371928
 31
0.0
  0
ARC
  5
E6
330
4D
100
AcDbEntity
  8
1
  6
Continuous
 62
     7
100
AcDbCircle
 10
375.5816104640444
 20
259.1823585726335
 30
0.0
 40
4.999999999999373
100
AcDbArc
 50
304.0557977425588
 51
314.4270040008067
  0
ARC
  5
E7
330
4D
100
AcDbEntity
  8
1
  6
Continuous
 62
     7
100
AcDbCircle
 10
354.5816104640444
 20
259.1823585726335
 30
0.0
 40
5.00000000000015
100
AcDbArc
 50
105.337557669561
 51
134.4270040008046
  0
ARC
  5
E8
330
4D
100
AcDbEntity
  8
1
  6
Continuous
 62
     7
100
AcDbCircle
 10
354.5816104640444
 20
259.1823585726335
 30
0.0
 40
4.999999999999915
100
AcDbArc
 50
225.5729959991934
 51
235.9442022574315
  0
ARC
  5
E9
330
4D
100
AcDbEntity
  8
1
  6
Continuous
 62
     7
100
AcDbCircle
 10
375.5816104640444
 20
259.1823585726335
 30
0.0
 40
5.000000000000057
100
AcDbArc
 50
45.57299599919494
 51
74.66244233044652
  0
ARC
  5
EA
330
4D
100
AcDbEntity
  8
1
  6
Continuous
 62
     7
100
AcDbCircle
 10
123.4159734929945
 20
565.3816009195643
 30
0.0
 40
10.76794919243139
100
AcDbArc
 50
90.0
 51
222.0170600646473
  0
ARC
  5
EB
330
4D
100
AcDbEntity
  8
1
  6
Continuous
 62
     7
100
AcDbCircle
 10
123.4159734929945
 20
565.3816009195643
 30
0.0
 40
10.76794919243104
100
AcDbArc
 50
317.9829399353528
 51
90.0
  0
ARC
  5
EC
330
4D
100
AcDbEntity
  8
1
  6
Continuous
 62
     7
100
AcDbCircle
 10
123.4159734929945
 20
565.3816009195643
 30
0.0
 40
15.5000000000003
100
AcDbArc
 50
180.0
 51
184.5853790848391
  0
ARC
  5
ED
330
4D
100
AcDbEntity
  8
1
  6
Continuous
 62
     7
100
AcDbCircle
 10
123.4159734929945
 20
565.3816009195643
 30
0.0
 40
15.50000000000006
100
AcDbArc
 50
235.414620915159
 51
238.9270490278463
  0
ARC
  5
EE
330
4D
100
AcDbEntity
  8
1
  6
Continuous
 62
     7
100
AcDbCircle
 10
123.4159734929945
 20
565.3816009195643
 30
0.0
 40
15.50000000000015
100
AcDbArc
 50
175.4146209151601
 51
180.0
  0
ARC
  5
EF
330
4D
100
AcDbEntity
  8
1
  6
Continuous
 62
     7
100
AcDbCircle
 10
123.4159734929945
 20
565.3816009195643
 30
0.0
 40
15.50000000000041
100
AcDbArc
 50
115.4146209151642
 51
124.5853790848405
  0
ARC
  5
F0
330
4D
100
AcDbEntity
  8
1
  6
Continuous
 62
     7
100
AcDbCircle
 10
133.9159734929945
 20
259.1823585726345
 30
0.0
 40
5.000000000000023
100
AcDbArc
 50
304.0557977425663
 51
74.66244233044682
  0
ARC
  5
F1
330
4D
100
AcDbEntity
  8
1
  6
Continuous
 62
     7
100
AcDbCircle
 10
123.4159734929945
 20
565.3816009195643
 30
0.0
 40
15.49999999999936
100
AcDbArc
 50
355.4146209151606
 51
0.0
  0
ARC
  5
F2
330
4D
100
AcDbEntity
  8
1
  6
Continuous
 62
     7
100
AcDbCircle
 10
123.4159734929945
 20
565.3816009195643
 30
0.0
 40
15.49999999999981
100
AcDbArc
 50
301.0729509721538
 51
304.5853790848374
  0
ARC
  5
F3
330
4D
100
AcDbEntity
  8
1
  6
Continuous
 62
     7
100
AcDbCircle
 10
123.4159734929945
 20
565.3816009195643
 30
0.0
 40
15.50000000000001
100
AcDbArc
 50
0.0
 51
4.58537908484017
  0
ARC
  5
F4
330
4D
100
AcDbEntity
  8
1
  6
Continuous
 62
     7
100
AcDbCircle
 10
123.4159734929945
 20
565.3816009195643
 30
0.0
 40
15.49999999999957
100
AcDbArc
 50
55.41462091516306
 51
64.58537908483878
  0
ARC
  5
F5
330
4D
100
AcDbEntity
  8
1
  6
Continuous
 62
     7
100
AcDbCircle
 10
112.9159734929945
 20
259.1823585726345
 30
0.0
 40
5.000000000000309
100
AcDbArc
 50
105.3375576695627
 51
235.944202257428
  0
SPLINE
  5
F6
330
4D
100
AcDbEntity
  8
0
  6
Continuous
 62
     7
100
AcDbSpline
210
0.0
220
0.0
230
1.0
 70
     8
 71
     3
 72
    47
 73
    43
 74
    41
 42
0.000000001
 43
0.0000000001
 44
0.00000001
 40
0.0
 40
0.0
 40
0.0
 40
0.0
 40
0.0551720733526926
 40
0.1104184501814086
 40
0.4007826867734832
 40
0.6911469244116557
 40
0.9821698396274634
 40
1.273181151973377
 40
1.566080857399899
 40
1.858959471347907
 40
2.154708112462671
 40
2.450429730027372
 40
2.749634734571761
 40
3.048810808907672
 40
3.351650264522461
 40
3.654462548246118
 40
3.960677749207735
 40
4.266870391658787
 40
4.575809666892956
 40
4.884732950509913
 40
5.195436008092432
 40
5.506130804388936
 40
5.817441353235862
 40
6.128751902080781
 40
6.439446698371389
 40
6.75014975594399
 40
7.059073039546641
 40
7.368012314761596
 40
7.674204957187886
 40
7.980420158118331
 40
8.283232441803682
 40
8.586071897370758
 40
8.885247971648004
 40
9.184452976118978
 40
9.480174593591602
 40
9.775923234587017
 40
10.06880184837551
 40
10.3617015535744
 40
10.65271286556168
 40
10.94373578010379
 40
11.23410001597864
 40
11.52446424719348
 40
11.52446424719348
 40
11.52446424719348
 40
11.52446424719348
 10
135.1405561453714
 20
255.6375659451775
 30
0.0
 10
135.1588064378791
 20
255.6352926899156
 30
0.0
 10
135.1953316029524
 20
255.6307431288427
 30
0.0
 10
135.3282382725911
 20
255.617165688486
 30
0.0
 10
135.5403397767966
 20
255.6070332428743
 30
0.0
 10
135.8310103120055
 20
255.6208320049131
 30
0.0
 10
136.1193814168309
 20
255.6615181133292
 30
0.0
 10
136.4034607970797
 20
255.7293473966158
 30
0.0
 10
136.6806865450815
 20
255.8232017523586
 30
0.0
 10
136.9494492923412
 20
255.9429979950205
 30
0.0
 10
137.2070918730781
 20
256.0870734499704
 30
0.0
 10
137.4523195755047
 20
256.2551319804322
 30
0.0
 10
137.6825827269122
 20
256.4449688999748
 30
0.0
 10
137.8968149905925
 20
256.6561044388325
 30
0.0
 10
138.0927694043849
 20
256.8858842021491
 30
0.0
 10
138.2695267520299
 20
257.1336126911294
 30
0.0
 10
138.4252975848978
 20
257.3963449425004
 30
0.0
 10
138.5592660025567
 20
257.6730959508702
 30
0.0
 10
138.6701890337596
 20
257.9608279293633
 30
0.0
 10
138.7573658261509
 20
258.2581813754424
 30
0.0
 10
138.8201138362376
 20
258.5622273715355
 30
0.0
 10
138.8579142154526
 20
258.8711689671636
 30
0.0
 10
138.8705912889429
 20
259.1823585723614
 30
0.0
 10
138.8579142154587
 20
259.493548177557
 30
0.0
 10
138.8201138362501
 20
259.802489773181
 30
0.0
 10
138.7573658261706
 20
260.106535769261
 30
0.0
 10
138.6701890337852
 20
260.4038892153432
 30
0.0
 10
138.5592660025973
 20
260.6916211937593
 30
0.0
 10
138.4252975849253
 20
260.9683722023273
 30
0.0
 10
138.2695267521561
 20
261.2311044528489
 30
0.0
 10
138.0927694042076
 20
261.4788329448206
 30
0.0
 10
137.8968149916159
 20
261.7086126968588
 30
0.0
 10
137.6825827236004
 20
261.91974827709
 30
0.0
 10
137.4523195883941
 20
262.109585042901
 30
0.0
 10
137.2070918263393
 20
262.277644140347
 30
0.0
 10
136.9494494671252
 20
262.4217174906004
 30
0.0
 10
136.6806859010995
 20
262.5415215148992
 30
0.0
 10
136.4034631967368
 20
262.6353469476794
 30
0.0
 10
136.1193725278965
 20
262.7032835111967
 30
0.0
 10
135.8310434677325
 20
262.7435700685204
 30
0.0
 10
135.5402163583497
 20
262.7588568065911
 30
0.0
 10
135.3469292462542
 20
262.74590415539
 30
0.0
 10
135.2502856912256
 20
262.7394278240356
 30
0.0
 11
135.1405561453714
 21
255.6375659451775
 31
0.0
 11
135.1953298888081
 21
255.6309481304773
 31
0.0
 11
135.2502856912262
 21
255.6252893212333
 31
0.0
 11
135.5403291459766
 21
255.611644358363
 31
0.0
 11
135.8303726007267
 21
255.6252893212332
 31
0.0
 11
136.1185320970013
 21
255.6660132943197
 31
0.0
 11
136.4016143033836
 21
255.7334821643851
 31
0.0
 11
136.6790383459274
 21
255.8274296930239
 31
0.0
 11
136.9466000980449
 21
255.9465455668233
 31
0.0
 11
137.2047324667604
 21
256.0908886962805
 31
0.0
 11
137.4487451193717
 21
256.2579488666962
 31
0.0
 11
137.6796246249026
 21
256.448259898297
 31
0.0
 11
137.8927999198538
 21
256.6581708726525
 31
0.0
 11
138.089334243862
 21
256.888574855779
 31
0.0
 11
138.2653077796616
 21
257.1350065784667
 31
0.0
 11
138.4215049201344
 21
257.3983888153045
 31
0.0
 11
138.5550006080987
 21
257.6739479480823
 31
0.0
 11
138.6661505336559
 21
257.9621998689796
 31
0.0
 11
138.7531271876822
 21
258.2586263470199
 31
0.0
 11
138.8159322620036
 21
258.5629155395628
 31
0.0
 11
138.8537076236752
 21
258.8713053554835
 31
0.0
 11
138.8663628198889
 21
259.1823585726344
 31
0.0
 11
138.8537076236752
 21
259.4934117897853
 31
0.0
 11
138.8159322620036
 21
259.8018016057059
 31
0.0
 11
138.7531271876822
 21
260.1060907982488
 31
0.0
 11
138.6661505336559
 21
260.4025172762892
 31
0.0
 11
138.5550006080987
 21
260.6907691971865
 31
0.0
 11
138.4215049201343
 21
260.9663283299643
 31
0.0
 11
138.2653077796616
 21
261.2297105668021
 31
0.0
 11
138.089334243862
 21
261.4761422894899
 31
0.0
 11
137.8927999198538
 21
261.7065462726165
 31
0.0
 11
137.6796246249026
 21
261.916457246972
 31
0.0
 11
137.4487451193717
 21
262.1067682785726
 31
0.0
 11
137.2047324667604
 21
262.2738284489884
 31
0.0
 11
136.9466000980449
 21
262.4181715784456
 31
0.0
 11
136.6790383459274
 21
262.537287452245
 31
0.0
 11
136.4016143033836
 21
262.6312349808837
 31
0.0
 11
136.1185320970013
 21
262.698703850949
 31
0.0
 11
135.8303726007267
 21
262.7394278240355
 31
0.0
 11
135.5403291459764
 21
262.7530727869058
 31
0.0
 11
135.2502856912256
 21
262.7394278240356
 31
0.0
  0
SPLINE
  5
F7
330
4D
100
AcDbEntity
  8
0
  6
Continuous
 62
     7
100
AcDbSpline
210
0.0
220
0.0
230
1.0
 70
     8
 71
     3
 72
    47
 73
    43
 74
    41
 42
0.000000001
 43
0.0000000001
 44
0.00000001
 40
0.0
 40
0.0
 40
0.0
 40
0.0
 40
0.0295935708723941
 40
0.0592107701565561
 40
0.3495750066193847
 40
0.6399392443380596
 40
0.930962159596129
 40
1.221973471969646
 40
1.514873177416729
 40
1.807751791380665
 40
2.103500432508591
 40
2.399222050084521
 40
2.698427054638699
 40
2.99760312898322
 40
3.300442584605741
 40
3.603254868336512
 40
3.909470069304587
 40
4.215662711761276
 40
4.524601987000819
 40
4.833525270622797
 40
5.144228328209858
 40
5.454923124510432
 40
5.766233673361143
 40
6.077544222209429
 40
6.388239018503131
 40
6.69894207607839
 40
7.007865359683391
 40
7.316804634900154
 40
7.622997277328027
 40
7.929212478259712
 40
8.23202476194579
 40
8.53486421751318
 40
8.834040291790158
 40
9.133245296260515
 40
9.428966913731953
 40
9.724715554725286
 40
10.01759416851108
 40
10.31049387370637
 40
10.60150518568858
 40
10.89252810022299
 40
11.18289233609074
 40
11.47325656735538
 40
11.47325656735538
 40
11.47325656735538
 40
11.47325656735538
 10
111.6405561453245
 20
255.6313913588856
 30
0.0
 10
111.6307510408607
 20
255.630309144567
 30
0.0
 10
111.6111330020534
 20
255.6281438628377
 30
0.0
 10
111.4951689795442
 20
255.6167289626312
 30
0.0
 10
111.2916038611562
 20
255.6070455048775
 30
0.0
 10
111.0009375734795
 20
255.6208287105815
 30
0.0
 10
110.7125653280739
 20
255.6615189962729
 30
0.0
 10
110.4284862540433
 20
255.7293471580058
 30
0.0
 10
110.1512604234675
 20
255.8232018161573
 30
0.0
 10
109.8824976984126
 20
255.9429979774823
 30
0.0
 10
109.6248551116617
 20
256.0870734544511
 30
0.0
 10
109.3796274108488
 20
256.2551319789966
 30
0.0
 10
109.1493642589984
 20
256.4449689001559
 30
0.0
 10
108.9351319954332
 20
256.6561044385895
 30
0.0
 10
108.7391775816058
 20
256.8858842020314
 30
0.0
 10
108.5624202339668
 20
257.1336126909869
 30
0.0
 10
108.4066494010946
 20
257.3963449423726
 30
0.0
 10
108.2726809834345
 20
257.6730959507457
 30
0.0
 10
108.1617579522301
 20
257.9608279292448
 30
0.0
 10
108.0745811598374
 20
258.2581813753283
 30
0.0
 10
108.0118331497494
 20
258.562227371426
 30
0.0
 10
107.9740327705335
 20
258.8711689670579
 30
0.0
 10
107.9613556970422
 20
259.1823585722595
 30
0.0
 10
107.9740327705253
 20
259.4935481774585
 30
0.0
 10
108.0118331497329
 20
259.8024897730857
 30
0.0
 10
108.0745811598116
 20
260.1065357691687
 30
0.0
 10
108.161757952196
 20
260.4038892152535
 30
0.0
 10
108.2726809833828
 20
260.6916211936722
 30
0.0
 10
108.4066494010534
 20
260.9683722022423
 30
0.0
 10
108.5624202338217
 20
261.231104452766
 30
0.0
 10
108.7391775817691
 20
261.4788329447396
 30
0.0
 10
108.9351319943592
 20
261.7086126967793
 30
0.0
 10
109.1493642623731
 20
261.9197482770119
 30
0.0
 10
109.3796273975775
 20
262.1095850428242
 30
0.0
 10
109.6248551596299
 20
262.2776441402713
 30
0.0
 10
109.8824975188411
 20
262.4217174905256
 30
0.0
 10
110.1512610848632
 20
262.5415215148256
 30
0.0
 10
110.4284837892216
 20
262.6353469476071
 30
0.0
 10
110.7125744580557
 20
262.7032835111261
 30
0.0
 10
111.0009035182125
 20
262.7435700684566
 30
0.0
 10
111.2917306276043
 20
262.7588568065364
 30
0.0
 10
111.4850177397173
 20
262.7459041553911
 30
0.0
 10
111.5816612947625
 20
262.7394278240356
 30
0.0
 11
111.6405561453245
 21
255.6313913588856
 31
0.0
 11
111.6111348628965
 21
255.6282026311794
 31
0.0
 11
111.5816612947627
 21
255.6252893212333
 31
0.0
 11
111.2916178400117
 21
255.611644358363
 31
0.0
 11
111.0015743852613
 21
255.6252893212332
 31
0.0
 11
110.7134148889866
 21
255.6660132943197
 31
0.0
 11
110.4303326826042
 21
255.733482164385
 31
0.0
 11
110.1529086400603
 21
255.8274296930238
 31
0.0
 11
109.885346887943
 21
255.9465455668233
 31
0.0
 11
109.6272145192278
 21
256.0908886962806
 31
0.0
 11
109.3832018666166
 21
256.2579488666963
 31
0.0
 11
109.1523223610857
 21
256.448259898297
 31
0.0
 11
108.9391470661346
 21
256.6581708726525
 31
0.0
 11
108.7426127421264
 21
256.888574855779
 31
0.0
 11
108.5666392063267
 21
257.1350065784667
 31
0.0
 11
108.4104420658538
 21
257.3983888153045
 31
0.0
 11
108.2769463778895
 21
257.6739479480823
 31
0.0
 11
108.1657964523324
 21
257.9621998689796
 31
0.0
 11
108.0788197983061
 21
258.25862634702
 31
0.0
 11
108.0160147239847
 21
258.5629155395629
 31
0.0
 11
107.9782393623131
 21
258.8713053554835
 31
0.0
 11
107.9655841660995
 21
259.1823585726345
 31
0.0
 11
107.9782393623131
 21
259.4934117897853
 31
0.0
 11
108.0160147239847
 21
259.8018016057059
 31
0.0
 11
108.0788197983061
 21
260.1060907982488
 31
0.0
 11
108.1657964523324
 21
260.4025172762892
 31
0.0
 11
108.2769463778895
 21
260.6907691971865
 31
0.0
 11
108.4104420658537
 21
260.9663283299643
 31
0.0
 11
108.5666392063267
 21
261.2297105668022
 31
0.0
 11
108.7426127421264
 21
261.4761422894899
 31
0.0
 11
108.9391470661346
 21
261.7065462726165
 31
0.0
 11
109.1523223610857
 21
261.9164572469719
 31
0.0
 11
109.3832018666166
 21
262.1067682785726
 31
0.0
 11
109.6272145192278
 21
262.2738284489884
 31
0.0
 11
109.885346887943
 21
262.4181715784455
 31
0.0
 11
110.1529086400604
 21
262.537287452245
 31
0.0
 11
110.4303326826042
 21
262.6312349808837
 31
0.0
 11
110.7134148889866
 21
262.6987038509491
 31
0.0
 11
111.0015743852613
 21
262.7394278240355
 31
0.0
 11
111.2916178400116
 21
262.7530727869058
 31
0.0
 11
111.5816612947625
 21
262.7394278240356
 31
0.0
  0
SPLINE
  5
F8
330
4D
100
AcDbEntity
  8
1
  6
Continuous
 62
     7
100
AcDbSpline
210
0.0
220
0.0
230
1.0
 70
     8
 71
     3
 72
    45
 73
    41
 74
    39
 42
0.000000001
 43
0.0000000001
 44
0.00000001
 40
0.0
 40
0.0
 40
0.0
 40
0.0
 40
0.2504855923916255
 40
0.501152654264791
 40
0.9976070319518462
 40
1.494089457491298
 40
1.976925590205855
 40
2.459822388860398
 40
2.921035295681101
 40
3.38235133227226
 40
3.815601776447874
 40
4.249013692941651
 40
4.65043270071317
 40
5.052091376295536
 40
5.421199499125757
 40
5.790635502078695
 40
6.131267663831841
 40
6.472271412401946
 40
6.793085244011487
 40
7.114166556699347
 40
7.4279285415052
 40
7.74169052631111
 40
8.06277183899886
 40
8.383585670608381
 40
8.724589419178459
 40
9.065221580931352
 40
9.434657583884144
 40
9.803765706714488
 40
10.20542438229714
 40
10.60684339006886
 40
11.04025530656254
 40
11.47350575073828
 40
11.93482178732942
 40
12.39603469415015
 40
12.87893149280472
 40
13.36176762551922
 40
13.85825005105872
 40
14.35470442874616
 40
14.60537149061739
 40
14.85585708300663
 40
14.85585708300663
 40
14.85585708300663
 40
14.85585708300663
 10
358.0816104640494
 20
262.7530727869052
 30
0.0
 10
357.9981125291471
 20
262.7524190989874
 30
0.0
 10
357.8310561676888
 20
262.7511112384857
 30
0.0
 10
357.4987558434123
 20
262.7372683461738
 30
0.0
 10
357.085367740283
 20
262.7038572499597
 30
0.0
 10
356.5977056099789
 20
262.6372890993351
 30
0.0
 10
356.1190091632807
 20
262.5442223446555
 30
0.0
 10
355.6578136586913
 20
262.4266906335827
 30
0.0
 10
355.2114552699427
 20
262.2835077609722
 30
0.0
 10
354.7903507670285
 20
262.1185428507659
 30
0.0
 10
354.3897961232432
 20
261.9293259520592
 30
0.0
 10
354.0210995337274
 20
261.7217587346497
 30
0.0
 10
353.6784832419836
 20
261.4918869783883
 30
0.0
 10
353.3729353985525
 20
261.2475036705479
 30
0.0
 10
353.0987829329505
 20
260.9834724211203
 30
0.0
 10
352.8655392680623
 20
260.7087150771691
 30
0.0
 10
352.6686602346677
 20
260.4180145256432
 30
0.0
 10
352.5155606925119
 20
260.1200288712391
 30
0.0
 10
352.403013222046
 20
259.8113282521506
 30
0.0
 10
352.3364617117102
 20
259.4987576153403
 30
0.0
 10
352.3129864550318
 20
259.1823585726336
 30
0.0
 10
352.3364617117102
 20
258.8659595299268
 30
0.0
 10
352.4030132220459
 20
258.5533888931167
 30
0.0
 10
352.5155606925119
 20
258.2446882740279
 30
0.0
 10
352.6686602346676
 20
257.9467026196242
 30
0.0
 10
352.8655392680618
 20
257.6560020680981
 30
0.0
 10
353.0987829329499
 20
257.3812447241469
 30
0.0
 10
353.3729353985518
 20
257.1172134747193
 30
0.0
 10
353.6784832419834
 20
256.8728301668791
 30
0.0
 10
354.0210995337274
 20
256.6429584106174
 30
0.0
 10
354.3897961232432
 20
256.4353911932079
 30
0.0
 10
354.7903507670284
 20
256.2461742945013
 30
0.0
 10
355.2114552699427
 20
256.081209384295
 30
0.0
 10
355.6578136586913
 20
255.9380265116845
 30
0.0
 10
356.1190091632808
 20
255.8204948006118
 30
0.0
 10
356.5977056099789
 20
255.727428045932
 30
0.0
 10
357.0853677402831
 20
255.6608598953077
 30
0.0
 10
357.498755843412
 20
255.6274487990935
 30
0.0
 10
357.8310561676872
 20
255.613605906782
 30
0.0
 10
357.998112529144
 20
255.61229804628
 30
0.0
 10
358.0816104640455
 20
255.6116443583622
 30
0.0
 11
358.0816104640494
 21
262.7530727869052
 31
0.0
 11
357.8311475571567
 21
262.7497011958309
 31
0.0
 11
357.5806846502641
 21
262.7395864226079
 31
0.0
 11
357.0858650982818
 21
262.6993302342008
 31
0.0
 11
356.5939683915881
 21
262.6320069164274
 31
0.0
 11
356.1200363640895
 21
262.5397075957612
 31
0.0
 11
355.6521904736891
 21
262.4200851012101
 31
0.0
 11
355.2131013851889
 21
262.27895353854
 31
0.0
 11
354.7837680334497
 21
262.110177477093
 31
0.0
 11
354.3922003642562
 21
261.9247571221422
 31
0.0
 11
354.0148720015379
 21
261.711522049327
 31
0.0
 11
353.6818448823571
 21
261.4874011937337
 31
0.0
 11
353.3686835251354
 21
261.235886469987
 31
0.0
 11
353.1033463960303
 21
260.9792992246066
 31
0.0
 11
352.8648530994748
 21
260.6971575792609
 31
0.0
 11
352.6746173753689
 21
260.414596720078
 31
0.0
 11
352.5191925087917
 21
260.1110729686824
 31
0.0
 11
352.4102376766473
 21
259.8093274478124
 31
0.0
 11
352.3432421349444
 21
259.4953134241993
 31
0.0
 11
352.3207511531424
 21
259.1823585726336
 31
0.0
 11
352.3432421349444
 21
258.8694037210678
 31
0.0
 11
352.4102376766473
 21
258.5553896974548
 31
0.0
 11
352.5191925087916
 21
258.2536441765848
 31
0.0
 11
352.6746173753688
 21
257.9501204251892
 31
0.0
 11
352.8648530994742
 21
257.6675595660063
 31
0.0
 11
353.1033463960295
 21
257.3854179206606
 31
0.0
 11
353.3686835251348
 21
257.1288306752803
 31
0.0
 11
353.6818448823569
 21
256.8773159515336
 31
0.0
 11
354.0148720015379
 21
256.6531950959402
 31
0.0
 11
354.392200364256
 21
256.439960023125
 31
0.0
 11
354.7837680334497
 21
256.2545396681741
 31
0.0
 11
355.2131013851889
 21
256.0857636067272
 31
0.0
 11
355.6521904736891
 21
255.944632044057
 31
0.0
 11
356.1200363640895
 21
255.825009549506
 31
0.0
 11
356.5939683915881
 21
255.7327102288398
 31
0.0
 11
357.0858650982818
 21
255.6653869110665
 31
0.0
 11
357.5806846502645
 21
255.6251307226595
 31
0.0
 11
357.8311475571552
 21
255.6150159494366
 31
0.0
 11
358.0816104640455
 21
255.6116443583622
 31
0.0
  0
SPLINE
  5
F9
330
4D
100
AcDbEntity
  8
1
  6
Continuous
 62
     7
100
AcDbSpline
210
0.0
220
0.0
230
1.0
 70
     8
 71
     3
 72
    17
 73
    13
 74
    11
 42
0.000000001
 43
0.0000000001
 44
0.00000001
 40
0.0
 40
0.0
 40
0.0
 40
0.0
 40
0.250485599911703
 40
0.5011526634884391
 40
0.9976070436382621
 40
1.494089471277739
 40
1.976925605444918
 40
2.459822404315379
 40
2.921035309757179
 40
3.382351340801757
 40
3.393058314636553
 40
3.403764051490393
 40
3.403764051490393
 40
3.403764051490393
 40
3.403764051490393
 10
358.0816104640385
 20
262.7530727869052
 30
0.0
 10
358.1651084035603
 20
262.7524191052211
 30
0.0
 10
358.3321647722798
 20
262.7511112537854
 30
0.0
 10
358.6644650583299
 20
262.7372682369921
 30
0.0
 10
359.0778534863006
 20
262.7038580955472
 30
0.0
 10
359.5655142952731
 20
262.6372860285829
 30
0.0
 10
360.0442155241013
 20
262.5442334247998
 30
0.0
 10
360.5053935630296
 20
262.4266500181228
 30
0.0
 10
360.9518143342042
 20
262.2836517927694
 30
0.0
 10
361.2415214970952
 20
262.1696397054839
 30
0.0
 10
361.389285852217
 20
262.1059415092882
 30
0.0
 10
361.3958338588195
 20
262.1031009788073
 30
0.0
 10
361.3991076701404
 20
262.1016807890458
 30
0.0
 11
358.0816104640385
 21
262.7530727869052
 31
0.0
 11
358.3320733709314
 21
262.7497011958309
 31
0.0
 11
358.582536277824
 21
262.7395864226079
 31
0.0
 11
359.0773558298062
 21
262.6993302342008
 31
0.0
 11
359.5692525364998
 21
262.6320069164274
 31
0.0
 11
360.0431845639986
 21
262.5397075957612
 31
0.0
 11
360.5110304543994
 21
262.4200851012101
 31
0.0
 11
360.9501195429
 21
262.27895353854
 31
0.0
 11
361.3794528946395
 21
262.1101774770931
 31
0.0
 11
361.3892846158608
 21
262.1059375979665
 31
0.0
 11
361.3991076701404
 21
262.1016807890458
 31
0.0
  0
SPLINE
  5
FA
330
4D
100
AcDbEntity
  8
1
  6
Continuous
 62
     7
100
AcDbSpline
210
0.0
220
0.0
230
1.0
 70
     8
 71
     3
 72
    17
 73
    13
 74
    11
 42
0.000000001
 43
0.0000000001
 44
0.00000001
 40
0.0
 40
0.0
 40
0.0
 40
0.0
 40
0.250485599910908
 40
0.5011526634877009
 40
0.9976070436379771
 40
1.494089471277615
 40
1.976925605444895
 40
2.459822404315231
 40
2.921035309756796
 40
3.382351340801077
 40
3.393058314642015
 40
3.403764051502312
 40
3.403764051502312
 40
3.403764051502312
 40
3.403764051502312
 10
372.0816104640494
 20
262.7530727869052
 30
0.0
 10
371.9981125245278
 20
262.752419105221
 30
0.0
 10
371.8310561558085
 20
262.7511112537854
 30
0.0
 10
371.4987558697587
 20
262.7372682369919
 30
0.0
 10
371.0853674417877
 20
262.7038580955472
 30
0.0
 10
370.5977066328148
 20
262.6372860285828
 30
0.0
 10
370.1190054039866
 20
262.5442334248
 30
0.0
 10
369.6578273650586
 20
262.4266500181225
 30
0.0
 10
369.2114065938832
 20
262.2836517927706
 30
0.0
 10
368.9216994309936
 20
262.1696397054807
 30
0.0
 10
368.7739350758657
 20
262.1059415092858
 30
0.0
 10
368.7673870692594
 20
262.1031009788033
 30
0.0
 10
368.7641132579365
 20
262.1016807890411
 30
0.0
 11
372.0816104640494
 21
262.7530727869052
 31
0.0
 11
371.8311475571573
 21
262.7497011958309
 31
0.0
 11
371.5806846502646
 21
262.7395864226078
 31
0.0
 11
371.0858650982819
 21
262.6993302342007
 31
0.0
 11
370.5939683915881
 21
262.6320069164274
 31
0.0
 11
370.1200363640893
 21
262.5397075957613
 31
0.0
 11
369.6521904736886
 21
262.4200851012102
 31
0.0
 11
369.2131013851882
 21
262.27895353854
 31
0.0
 11
368.7837680334491
 21
262.1101774770931
 31
0.0
 11
368.7739363122221
 21
262.1059375979642
 31
0.0
 11
368.7641132579365
 21
262.1016807890411
 31
0.0
  0
SPLINE
  5
FB
330
4D
100
AcDbEntity
  8
1
  6
Continuous
 62
     7
100
AcDbSpline
210
0.0
220
0.0
230
1.0
 70
     8
 71
     3
 72
    45
 73
    41
 74
    39
 42
0.000000001
 43
0.0000000001
 44
0.00000001
 40
0.0
 40
0.0
 40
0.0
 40
0.0
 40
0.250485592391796
 40
0.5011526542649615
 40
0.9976070319520165
 40
1.494089457491412
 40
1.976925590205969
 40
2.459822388860952
 40
2.921035295682088
 40
3.382351332273352
 40
3.815601776449017
 40
4.249013692942795
 40
4.650432700714267
 40
5.052091376296322
 40
5.421199499126257
 40
5.790635502079195
 40
6.13126766383231
 40
6.472271412402415
 40
6.793085244011936
 40
7.114166556699772
 40
7.427928541505626
 40
7.741690526311536
 40
8.062771838999248
 40
8.38358567060877
 40
8.724589419178823
 40
9.065221580931842
 40
9.43465758388456
 40
9.803765706714659
 40
10.20542438229687
 40
10.60684339006854
 40
11.04025530656232
 40
11.47350575073801
 40
11.93482178732931
 40
12.39603469415036
 40
12.87893149280532
 40
13.36176762551993
 40
13.85825005105931
 40
14.35470442874613
 40
14.60537149061736
 40
14.85585708300717
 40
14.85585708300717
 40
14.85585708300717
 40
14.85585708300717
 10
372.0816104640385
 20
262.7530727869052
 30
0.0
 10
372.1651083989409
 20
262.7524190989874
 30
0.0
 10
372.3321647603992
 20
262.7511112384857
 30
0.0
 10
372.6644650846757
 20
262.7372683461738
 30
0.0
 10
373.0778531878051
 20
262.7038572499596
 30
0.0
 10
373.5655153181091
 20
262.6372890993353
 30
0.0
 10
374.0442117648073
 20
262.5442223446553
 30
0.0
 10
374.5054072693974
 20
262.4266906335827
 30
0.0
 10
374.9517656581459
 20
262.2835077609723
 30
0.0
 10
375.3728701610605
 20
262.1185428507658
 30
0.0
 10
375.7734248048459
 20
261.9293259520593
 30
0.0
 10
376.1421213943615
 20
261.7217587346497
 30
0.0
 10
376.4847376861053
 20
261.4918869783884
 30
0.0
 10
376.7902855295362
 20
261.2475036705479
 30
0.0
 10
377.0644379951377
 20
260.9834724211201
 30
0.0
 10
377.297681660026
 20
260.7087150771691
 30
0.0
 10
377.4945606934204
 20
260.4180145256431
 30
0.0
 10
377.6476602355763
 20
260.1200288712392
 30
0.0
 10
377.7602077060424
 20
259.8113282521506
 30
0.0
 10
377.8267592163776
 20
259.4987576153403
 30
0.0
 10
377.8502344730563
 20
259.1823585726336
 30
0.0
 10
377.8267592163776
 20
258.8659595299268
 30
0.0
 10
377.7602077060423
 20
258.5533888931166
 30
0.0
 10
377.6476602355763
 20
258.244688274028
 30
0.0
 10
377.4945606934206
 20
257.946702619624
 30
0.0
 10
377.2976816600263
 20
257.6560020680982
 30
0.0
 10
377.0644379951384
 20
257.3812447241469
 30
0.0
 10
376.7902855295365
 20
257.1172134747193
 30
0.0
 10
376.4847376861055
 20
256.872830166879
 30
0.0
 10
376.1421213943617
 20
256.6429584106176
 30
0.0
 10
375.7734248048458
 20
256.4353911932079
 30
0.0
 10
375.3728701610605
 20
256.2461742945013
 30
0.0
 10
374.951765658146
 20
256.0812093842951
 30
0.0
 10
374.5054072693973
 20
255.9380265116843
 30
0.0
 10
374.0442117648073
 20
255.8204948006119
 30
0.0
 10
373.5655153181092
 20
255.727428045932
 30
0.0
 10
373.0778531878051
 20
255.6608598953078
 30
0.0
 10
372.6644650846765
 20
255.6274487990935
 30
0.0
 10
372.3321647604014
 20
255.613605906782
 30
0.0
 10
372.1651083989443
 20
255.61229804628
 30
0.0
 10
372.0816104640426
 20
255.6116443583622
 30
0.0
 11
372.0816104640385
 21
262.7530727869052
 31
0.0
 11
372.3320733709314
 21
262.7497011958309
 31
0.0
 11
372.582536277824
 21
262.7395864226079
 31
0.0
 11
373.0773558298063
 21
262.6993302342008
 31
0.0
 11
373.5692525364998
 21
262.6320069164274
 31
0.0
 11
374.0431845639985
 21
262.5397075957612
 31
0.0
 11
374.5110304543994
 21
262.4200851012101
 31
0.0
 11
374.9501195429
 21
262.27895353854
 31
0.0
 11
375.3794528946393
 21
262.110177477093
 31
0.0
 11
375.7710205638329
 21
261.9247571221422
 31
0.0
 11
376.1483489265512
 21
261.711522049327
 31
0.0
 11
376.4813760457319
 21
261.4874011937337
 31
0.0
 11
376.7945374029532
 21
261.235886469987
 31
0.0
 11
377.0598745320579
 21
260.9792992246066
 31
0.0
 11
377.2983678286134
 21
260.6971575792609
 31
0.0
 11
377.4886035527193
 21
260.414596720078
 31
0.0
 11
377.6440284192965
 21
260.1110729686824
 31
0.0
 11
377.7529832514408
 21
259.8093274478124
 31
0.0
 11
377.8199787931436
 21
259.4953134241993
 31
0.0
 11
377.8424697749456
 21
259.1823585726336
 31
0.0
 11
377.8199787931436
 21
258.8694037210678
 31
0.0
 11
377.7529832514408
 21
258.5553896974548
 31
0.0
 11
377.6440284192965
 21
258.2536441765848
 31
0.0
 11
377.4886035527194
 21
257.9501204251892
 31
0.0
 11
377.2983678286138
 21
257.6675595660063
 31
0.0
 11
377.0598745320586
 21
257.3854179206606
 31
0.0
 11
376.7945374029537
 21
257.1288306752803
 31
0.0
 11
376.4813760457321
 21
256.8773159515336
 31
0.0
 11
376.1483489265512
 21
256.6531950959402
 31
0.0
 11
375.7710205638329
 21
256.439960023125
 31
0.0
 11
375.3794528946393
 21
256.2545396681741
 31
0.0
 11
374.9501195428999
 21
256.0857636067272
 31
0.0
 11
374.5110304543994
 21
255.944632044057
 31
0.0
 11
374.0431845639986
 21
255.825009549506
 31
0.0
 11
373.5692525364998
 21
255.7327102288398
 31
0.0
 11
373.0773558298063
 21
255.6653869110665
 31
0.0
 11
372.5825362778242
 21
255.6251307226595
 31
0.0
 11
372.3320733709335
 21
255.6150159494366
 31
0.0
 11
372.0816104640426
 21
255.6116443583622
 31
0.0
  0
SPLINE
  5
FC
330
4D
100
AcDbEntity
  8
1
  6
Continuous
 62
     7
100
AcDbSpline
210
0.0
220
0.0
230
1.0
 70
     8
 71
     3
 72
    15
 73
    11
 74
     9
 42
0.000000001
 43
0.0000000001
 44
0.00000001
 40
0.0
 40
0.0
 40
0.0
 40
0.0
 40
0.3005600958900431
 40
0.6013520081982497
 40
1.084248806115726
 40
1.56708493832833
 40
2.063567363660057
 40
2.560021741700322
 40
2.810688804479968
 40
3.061174403754483
 40
3.061174403754483
 40
3.061174403754483
 40
3.061174403754483
 10
369.0816104640494
 20
256.1341248040686
 30
0.0
 10
369.1757297779491
 20
256.0997429952272
 30
0.0
 10
369.3640410030993
 20
256.0309528732112
 30
0.0
 10
369.7097687949925
 20
255.9251430063546
 30
0.0
 10
370.118975295105
 20
255.8203898120412
 30
0.0
 10
370.5977149750223
 20
255.7274571126715
 30
0.0
 10
371.0853651367099
 20
255.660851851099
 30
0.0
 10
371.4987561591387
 20
255.6274498048973
 30
0.0
 10
371.8310561055105
 20
255.6136057325119
 30
0.0
 10
371.9981125077464
 20
255.6122979870641
 30
0.0
 10
372.0816104640464
 20
255.6116443583622
 30
0.0
 11
369.0816104640494
 21
256.1341248040686
 31
0.0
 11
369.3648272988904
 21
256.0335037529489
 31
0.0
 11
369.6521904736891
 21
255.944632044057
 31
0.0
 11
370.1200363640895
 21
255.825009549506
 31
0.0
 11
370.5939683915882
 21
255.7327102288398
 31
0.0
 11
371.0858650982819
 21
255.6653869110665
 31
0.0
 11
371.5806846502645
 21
255.6251307226595
 31
0.0
 11
371.8311475571554
 21
255.6150159494366
 31
0.0
 11
372.0816104640464
 21
255.6116443583622
 31
0.0
  0
SPLINE
  5
FD
330
4D
100
AcDbEntity
  8
1
  6
Continuous
 62
     7
100
AcDbSpline
210
0.0
220
0.0
230
1.0
 70
     8
 71
     3
 72
    15
 73
    11
 74
     9
 42
0.000000001
 43
0.0000000001
 44
0.00000001
 40
0.0
 40
0.0
 40
0.0
 40
0.0
 40
0.3005600958933541
 40
0.6013520082050923
 40
1.084248806122962
 40
1.567084938335621
 40
2.063567363667235
 40
2.560021741706934
 40
2.810688804486352
 40
3.061174403760811
 40
3.061174403760811
 40
3.061174403760811
 40
3.061174403760811
 10
361.0816104640455
 20
256.134124804071
 30
0.0
 10
360.9874911501449
 20
256.0997429952293
 30
0.0
 10
360.7991799249925
 20
256.0309528732121
 30
0.0
 10
360.4534521330971
 20
255.9251430063549
 30
0.0
 10
360.044245632983
 20
255.8203898120412
 30
0.0
 10
359.5655059530658
 20
255.7274571126715
 30
0.0
 10
359.0778557913783
 20
255.6608518510989
 30
0.0
 10
358.66446476895
 20
255.6274498048973
 30
0.0
 10
358.3321648225784
 20
255.6136057325119
 30
0.0
 10
358.1651084203426
 20
255.6122979870642
 30
0.0
 10
358.0816104640426
 20
255.6116443583622
 30
0.0
 11
361.0816104640455
 21
256.134124804071
 31
0.0
 11
360.7983936292015
 21
256.03350375295
 31
0.0
 11
360.5110304543994
 21
255.944632044057
 31
0.0
 11
360.0431845639986
 21
255.825009549506
 31
0.0
 11
359.5692525364998
 21
255.7327102288398
 31
0.0
 11
359.0773558298063
 21
255.6653869110665
 31
0.0
 11
358.5825362778242
 21
255.6251307226595
 31
0.0
 11
358.3320733709335
 21
255.6150159494366
 31
0.0
 11
358.0816104640426
 21
255.6116443583622
 31
0.0
  0
ARC
  5
FE
330
4D
100
AcDbEntity
  8
1
  6
Continuous
 62
     7
100
AcDbCircle
 10
355.3136612716135
 20
264.039895537192
 30
0.0
 40
1.0000000000001
100
AcDbArc
 50
137.0585971351347
 51
150.0000000000157
  0
ARC
  5
FF
330
4D
100
AcDbEntity
  8
1
  6
Continuous
 62
     7
100
AcDbCircle
 10
353.5816104640444
 20
265.039895537192
 30
0.0
 40
1.0
100
AcDbArc
 50
270.0
 51
329.9999999999913
  0
ARC
  5
100
330
4D
100
AcDbEntity
  8
1
  6
Continuous
 62
     7
100
AcDbCircle
 10
355.3136612716135
 20
264.039895537192
 30
0.0
 40
1.0
100
AcDbArc
 50
90.0
 51
137.0585971351347
  0
ARC
  5
101
330
4D
100
AcDbEntity
  8
1
  6
Continuous
 62
     7
100
AcDbCircle
 10
353.5235894023135
 20
263.039895537192
 30
0.0
 40
1.0
100
AcDbArc
 50
90.0
 51
105.3375576695726
  0
ARC
  5
102
330
4D
100
AcDbEntity
  8
1
  6
Continuous
 62
     7
100
AcDbCircle
 10
374.8495596564756
 20
264.039895537192
 30
0.0
 40
0.9999999999994421
100
AcDbArc
 50
30.00000000001846
 51
42.94140286487865
  0
ARC
  5
103
330
4D
100
AcDbEntity
  8
1
  6
Continuous
 62
     7
100
AcDbCircle
 10
376.5816104640444
 20
265.039895537192
 30
0.0
 40
1.000000000000476
100
AcDbArc
 50
209.9999999999842
 51
270.0
  0
ARC
  5
104
330
4D
100
AcDbEntity
  8
1
  6
Continuous
 62
     7
100
AcDbCircle
 10
374.8495596564756
 20
264.039895537192
 30
0.0
 40
0.9999999999998502
100
AcDbArc
 50
42.94140286487865
 51
90.0
  0
ARC
  5
105
330
4D
100
AcDbEntity
  8
1
  6
Continuous
 62
     7
100
AcDbCircle
 10
376.6396315257746
 20
263.039895537192
 30
0.0
 40
0.9999999999999795
100
AcDbArc
 50
74.66244233042738
 51
90.0
  0
ENDBLK
  5
4F
330
4D
100
AcDbEntity
  8
0
100
AcDbBlockEnd
  0
BLOCK
  5
51
330
50
100
AcDbEntity
  8
0
100
AcDbBlockBegin
  2
A205-0
 70
     0
 10
568.0480931184634
 20
38.87387133182898
 30
0.0
  3
A205-0
  1

  0
LINE
  5
106
330
50
100
AcDbEntity
  8
1
  6
Continuous
 62
     7
100
AcDbLine
 10
111.2309734929945
 20
253.539895537192
 30
0.0
 11
110.4159734929945
 21
253.539895537192
 31
0.0
  0
LINE
  5
107
330
50
100
AcDbEntity
  8
1
  6
Continuous
 62
     7
100
AcDbLine
 10
136.4159734929945
 20
253.539895537192
 30
0.0
 11
136.4159734929945
 21
252.1282741290233
 31
0.0
  0
LINE
  5
108
330
50
100
AcDbEntity
  8
1
  6
Continuous
 62
     7
100
AcDbLine
 10
110.4159734929945
 20
253.539895537192
 30
0.0
 11
110.4159734929945
 21
252.1282741290233
 31
0.0
  0
LINE
  5
109
330
50
100
AcDbEntity
  8
1
  6
Continuous
 62
     2
100
AcDbLine
 10
135.6009734929944
 20
253.539895537192
 30
0.0
 11
136.4159734929945
 21
252.1282741290233
 31
0.0
  0
LINE
  5
10A
330
50
100
AcDbEntity
  8
1
  6
Continuous
 62
     2
100
AcDbLine
 10
111.2309734929945
 20
253.539895537192
 30
0.0
 11
110.4159734929945
 21
252.1282741290233
 31
0.0
  0
LINE
  5
10B
330
50
100
AcDbEntity
  8
1
  6
Continuous
 62
     7
100
AcDbLine
 10
136.4159734929945
 20
252.1282741290233
 30
0.0
 11
136.4159734929945
 21
251.2898955371919
 31
0.0
  0
LINE
  5
10C
330
50
100
AcDbEntity
  8
1
  6
Continuous
 62
     7
100
AcDbLine
 10
110.4159734929945
 20
252.1282741290233
 30
0.0
 11
110.4159734929945
 21
251.2898955371919
 31
0.0
  0
LINE
  5
10D
330
50
100
AcDbEntity
  8
1
  6
Continuous
 62
     2
100
AcDbLine
 10
135.6009734929944
 20
255.039895537192
 30
0.0
 11
135.6009734929944
 21
253.539895537192
 31
0.0
  0
LINE
  5
10E
330
50
100
AcDbEntity
  8
1
  6
Continuous
 62
     7
100
AcDbLine
 10
136.4159734929945
 20
255.0398955371919
 30
0.0
 11
136.4159734929945
 21
253.539895537192
 31
0.0
  0
LINE
  5
10F
330
50
100
AcDbEntity
  8
1
  6
Continuous
 62
     2
100
AcDbLine
 10
111.2309734929945
 20
255.039895537192
 30
0.0
 11
111.2309734929945
 21
253.539895537192
 31
0.0
  0
LINE
  5
110
330
50
100
AcDbEntity
  8
1
  6
Continuous
 62
     7
100
AcDbLine
 10
110.4159734929945
 20
255.0398955371919
 30
0.0
 11
110.4159734929945
 21
253.539895537192
 31
0.0
  0
LINE
  5
111
330
50
100
AcDbEntity
  8
1
  6
Continuous
 62
     7
100
AcDbLine
 10
110.4159734929945
 20
253.539895537192
 30
0.0
 11
110.4159734929945
 21
251.2898955371919
 31
0.0
  0
LINE
  5
112
330
50
100
AcDbEntity
  8
1
  6
Continuous
 62
     7
100
AcDbLine
 10
136.4159734929945
 20
253.539895537192
 30
0.0
 11
136.4159734929945
 21
251.2898955371919
 31
0.0
  0
LINE
  5
113
330
50
100
AcDbEntity
  8
1
  6
Continuous
 62
     7
100
AcDbLine
 10
369.0816104640444
 20
253.539895537192
 30
0.0
 11
378.0816104640444
 21
253.539895537192
 31
0.0
  0
LINE
  5
114
330
50
100
AcDbEntity
  8
1
  6
Continuous
 62
     7
100
AcDbLine
 10
352.0816104640444
 20
255.039895537192
 30
0.0
 11
352.0816104640444
 21
253.539895537192
 31
0.0
  0
LINE
  5
115
330
50
100
AcDbEntity
  8
1
  6
Continuous
 62
     2
100
AcDbLine
 10
352.8966104640444
 20
255.039895537192
 30
0.0
 11
352.8966104640444
 21
253.539895537192
 31
0.0
  0
LINE
  5
116
330
50
100
AcDbEntity
  8
1
  6
Continuous
 62
     7
100
AcDbLine
 10
378.0816104640444
 20
255.039895537192
 30
0.0
 11
378.0816104640444
 21
253.539895537192
 31
0.0
  0
LINE
  5
117
330
50
100
AcDbEntity
  8
1
  6
Continuous
 62
     2
100
AcDbLine
 10
377.2666104640446
 20
255.039895537192
 30
0.0
 11
377.2666104640446
 21
253.539895537192
 31
0.0
  0
LINE
  5
118
330
50
100
AcDbEntity
  8
1
  6
Continuous
 62
     7
100
AcDbLine
 10
424.5816104640444
 20
238.859895537192
 30
0.0
 11
424.5816104640444
 21
223.039895537192
 31
0.0
  0
LINE
  5
119
330
50
100
AcDbEntity
  8
1
  6
Continuous
 62
     7
100
AcDbLine
 10
352.4816104640445
 20
250.0898955371919
 30
0.0
 11
352.4816104640445
 21
238.567076714061
 31
0.0
  0
LINE
  5
11A
330
50
100
AcDbEntity
  8
1
  6
Continuous
 62
     7
100
AcDbLine
 10
352.0816104640444
 20
252.1282741290233
 30
0.0
 11
352.0816104640444
 21
251.289895537192
 31
0.0
  0
LINE
  5
11B
330
50
100
AcDbEntity
  8
1
  6
Continuous
 62
     7
100
AcDbLine
 10
378.0816104640444
 20
252.1282741290233
 30
0.0
 11
378.0816104640444
 21
251.289895537192
 31
0.0
  0
LINE
  5
11C
330
50
100
AcDbEntity
  8
1
  6
Continuous
 62
     2
100
AcDbLine
 10
352.8966104640444
 20
253.539895537192
 30
0.0
 11
352.0816104640444
 21
252.1282741290233
 31
0.0
  0
LINE
  5
11D
330
50
100
AcDbEntity
  8
1
  6
Continuous
 62
     2
100
AcDbLine
 10
377.2666104640446
 20
253.539895537192
 30
0.0
 11
378.0816104640444
 21
252.1282741290233
 31
0.0
  0
LINE
  5
11E
330
50
100
AcDbEntity
  8
1
  6
Continuous
 62
     7
100
AcDbLine
 10
352.0816104640444
 20
253.539895537192
 30
0.0
 11
352.0816104640444
 21
252.1282741290233
 31
0.0
  0
LINE
  5
11F
330
50
100
AcDbEntity
  8
1
  6
Continuous
 62
     7
100
AcDbLine
 10
378.0816104640444
 20
253.539895537192
 30
0.0
 11
378.0816104640444
 21
252.1282741290233
 31
0.0
  0
LINE
  5
120
330
50
100
AcDbEntity
  8
1
  6
Continuous
 62
     7
100
AcDbLine
 10
352.8966104640444
 20
253.539895537192
 30
0.0
 11
352.0816104640444
 21
253.539895537192
 31
0.0
  0
LINE
  5
121
330
50
100
AcDbEntity
  8
1
  6
Continuous
 62
     7
100
AcDbLine
 10
352.8966104640444
 20
253.539895537192
 30
0.0
 11
361.0816104640444
 21
253.539895537192
 31
0.0
  0
LINE
  5
122
330
50
100
AcDbEntity
  8
1
  6
Continuous
 62
     7
100
AcDbLine
 10
408.5816104640444
 20
206.539895537192
 30
0.0
 11
410.5816104640444
 21
206.539895537192
 31
0.0
  0
LINE
  5
123
330
50
100
AcDbEntity
  8
1
  6
Continuous
 62
     7
100
AcDbLine
 10
408.5816104640444
 20
252.539895537192
 30
0.0
 11
410.5816104640444
 21
252.539895537192
 31
0.0
  0
LINE
  5
124
330
50
100
AcDbEntity
  8
1
  6
Continuous
 62
     7
100
AcDbLine
 10
408.0816104640444
 20
252.039895537192
 30
0.0
 11
408.0816104640444
 21
242.289895537192
 31
0.0
  0
LINE
  5
125
330
50
100
AcDbEntity
  8
1
  6
Continuous
 62
     7
100
AcDbLine
 10
410.5816104640444
 20
240.019895537192
 30
0.0
 11
410.5816104640444
 21
252.539895537192
 31
0.0
  0
LINE
  5
126
330
50
100
AcDbEntity
  8
1
  6
Continuous
 62
     7
100
AcDbLine
 10
410.5816104640444
 20
206.539895537192
 30
0.0
 11
410.5816104640444
 21
219.059895537192
 31
0.0
  0
LINE
  5
127
330
50
100
AcDbEntity
  8
1
  6
Continuous
 62
     7
100
AcDbLine
 10
408.0816104640444
 20
207.039895537192
 30
0.0
 11
408.0816104640444
 21
216.789895537192
 31
0.0
  0
LINE
  5
128
330
50
100
AcDbEntity
  8
1
  6
Continuous
 62
     7
100
AcDbLine
 10
424.5816104640444
 20
223.039895537192
 30
0.0
 11
424.5816104640444
 21
220.2198955371919
 31
0.0
  0
LINE
  5
129
330
50
100
AcDbEntity
  8
1
  6
Continuous
 62
     7
100
AcDbLine
 10
424.5816104640444
 20
220.2198955371919
 30
0.0
 11
423.4216104640445
 21
219.059895537192
 31
0.0
  0
LINE
  5
12A
330
50
100
AcDbEntity
  8
1
  6
Continuous
 62
     7
100
AcDbLine
 10
423.4216104640445
 20
240.019895537192
 30
0.0
 11
424.5816104640444
 21
238.859895537192
 31
0.0
  0
LINE
  5
12B
330
50
100
AcDbEntity
  8
1
  6
Continuous
 62
     7
100
AcDbLine
 10
423.4216104640445
 20
219.059895537192
 30
0.0
 11
412.5907894008244
 21
219.059895537192
 31
0.0
  0
LINE
  5
12C
330
50
100
AcDbEntity
  8
1
  6
Continuous
 62
     7
100
AcDbLine
 10
423.4216104640445
 20
240.019895537192
 30
0.0
 11
412.5907894008244
 21
240.019895537192
 31
0.0
  0
LINE
  5
12D
330
50
100
AcDbEntity
  8
1
  6
Continuous
 62
     7
100
AcDbLine
 10
404.0816104640444
 20
220.789895537192
 30
0.0
 11
380.9856193926134
 21
220.789895537192
 31
0.0
  0
LINE
  5
12E
330
50
100
AcDbEntity
  8
1
  6
Continuous
 62
     7
100
AcDbLine
 10
404.0816104640444
 20
238.289895537192
 30
0.0
 11
390.6816104640454
 21
238.289895537192
 31
0.0
  0
LINE
  5
12F
330
50
100
AcDbEntity
  8
1
  6
Continuous
 62
     2
100
AcDbLine
 10
412.5907894008244
 20
220.2198955371919
 30
0.0
 11
410.5816104640444
 21
219.059895537192
 31
0.0
  0
LINE
  5
130
330
50
100
AcDbEntity
  8
1
  6
Continuous
 62
     7
100
AcDbLine
 10
412.5907894008244
 20
219.059895537192
 30
0.0
 11
410.5816104640444
 21
219.059895537192
 31
0.0
  0
LINE
  5
131
330
50
100
AcDbEntity
  8
1
  6
Continuous
 62
     7
100
AcDbLine
 10
412.5907894008244
 20
220.2198955371919
 30
0.0
 11
412.5907894008244
 21
219.059895537192
 31
0.0
  0
LINE
  5
132
330
50
100
AcDbEntity
  8
1
  6
Continuous
 62
     2
100
AcDbLine
 10
424.5816104640444
 20
220.2198955371919
 30
0.0
 11
412.5907894008244
 21
220.2198955371919
 31
0.0
  0
LINE
  5
133
330
50
100
AcDbEntity
  8
1
  6
Continuous
 62
     2
100
AcDbLine
 10
412.5907894008244
 20
238.859895537192
 30
0.0
 11
410.5816104640444
 21
240.019895537192
 31
0.0
  0
LINE
  5
134
330
50
100
AcDbEntity
  8
1
  6
Continuous
 62
     7
100
AcDbLine
 10
412.5907894008244
 20
240.019895537192
 30
0.0
 11
410.5816104640444
 21
240.019895537192
 31
0.0
  0
LINE
  5
135
330
50
100
AcDbEntity
  8
1
  6
Continuous
 62
     7
100
AcDbLine
 10
412.5907894008244
 20
238.859895537192
 30
0.0
 11
412.5907894008244
 21
240.019895537192
 31
0.0
  0
LINE
  5
136
330
50
100
AcDbEntity
  8
1
  6
Continuous
 62
     2
100
AcDbLine
 10
412.5907894008244
 20
238.859895537192
 30
0.0
 11
424.5816104640444
 21
238.859895537192
 31
0.0
  0
LINE
  5
137
330
50
100
AcDbEntity
  8
1
  6
Continuous
 62
     7
100
AcDbLine
 10
412.5907894008244
 20
220.2198955371919
 30
0.0
 11
412.5907894008244
 21
238.859895537192
 31
0.0
  0
LINE
  5
138
330
50
100
AcDbEntity
  8
1
  6
Continuous
 62
     7
100
AcDbLine
 10
410.5816104640444
 20
219.059895537192
 30
0.0
 11
410.5816104640444
 21
240.019895537192
 31
0.0
  0
LINE
  5
139
330
50
100
AcDbEntity
  8
1
  6
Continuous
 62
     7
100
AcDbLine
 10
131.4159734929935
 20
551.8785176686233
 30
0.0
 11
142.5849685847136
 21
552.671383487371
 31
0.0
  0
LINE
  5
13A
330
50
100
AcDbEntity
  8
1
  6
Continuous
 62
     7
100
AcDbLine
 10
142.5849685847136
 20
552.671383487371
 30
0.0
 11
145.2159734929955
 21
552.8581535453397
 31
0.0
  0
LINE
  5
13B
330
50
100
AcDbEntity
  8
1
  6
Continuous
 62
     7
100
AcDbLine
 10
145.2159734929955
 20
577.9050482937887
 30
0.0
 11
143.3162545176106
 21
578.0399057476993
 31
0.0
  0
LINE
  5
13C
330
50
100
AcDbEntity
  8
1
  6
Continuous
 62
     7
100
AcDbLine
 10
113.9159734929945
 20
624.3816009195637
 30
0.0
 11
132.9159734929945
 21
624.3816009195637
 31
0.0
  0
LINE
  5
13D
330
50
100
AcDbEntity
  8
1
  6
Continuous
 62
     7
100
AcDbLine
 10
113.9159734929945
 20
624.3816009195637
 30
0.0
 11
112.9159734929945
 21
623.3816009195637
 31
0.0
  0
LINE
  5
13E
330
50
100
AcDbEntity
  8
1
  6
Continuous
 62
     7
100
AcDbLine
 10
112.9159734929945
 20
610.3816009195637
 30
0.0
 11
112.9159734929945
 21
623.3816009195637
 31
0.0
  0
LINE
  5
13F
330
50
100
AcDbEntity
  8
1
  6
Continuous
 62
     7
100
AcDbLine
 10
112.9159734929945
 20
623.3816009195637
 30
0.0
 11
133.9159734929945
 21
623.3816009195637
 31
0.0
  0
LINE
  5
140
330
50
100
AcDbEntity
  8
1
  6
Continuous
 62
     7
100
AcDbLine
 10
133.9159734929945
 20
612.1136517271327
 30
0.0
 11
112.9159734929945
 21
612.1136517271327
 31
0.0
  0
LINE
  5
141
330
50
100
AcDbEntity
  8
1
  6
Continuous
 62
     7
100
AcDbLine
 10
133.9159734929945
 20
623.3816009195637
 30
0.0
 11
132.9159734929945
 21
624.3816009195637
 31
0.0
  0
LINE
  5
142
330
50
100
AcDbEntity
  8
1
  6
Continuous
 62
     7
100
AcDbLine
 10
133.9159734929945
 20
623.3816009195637
 30
0.0
 11
133.9159734929945
 21
610.3816009195637
 31
0.0
  0
LINE
  5
143
330
50
100
AcDbEntity
  8
1
  6
Continuous
 62
     7
100
AcDbLine
 10
132.1659734929945
 20
590.0097836778568
 30
0.0
 11
132.1659734929945
 21
603.8816009195637
 31
0.0
  0
LINE
  5
144
330
50
100
AcDbEntity
  8
1
  6
Continuous
 62
     2
100
AcDbLine
 10
132.9159734929945
 20
624.3816009195637
 30
0.0
 11
132.9159734929945
 21
612.1136517271327
 31
0.0
  0
LINE
  5
145
330
50
100
AcDbEntity
  8
1
  6
Continuous
 62
     2
100
AcDbLine
 10
132.9159734929945
 20
612.1136517271327
 30
0.0
 11
133.9159734929945
 21
610.3816009195637
 31
0.0
  0
LINE
  5
146
330
50
100
AcDbEntity
  8
1
  6
Continuous
 62
     7
100
AcDbLine
 10
146.4159734929945
 20
608.3816009195637
 30
0.0
 11
146.4159734929945
 21
610.3816009195637
 31
0.0
  0
LINE
  5
147
330
50
100
AcDbEntity
  8
1
  6
Continuous
 62
     7
100
AcDbLine
 10
114.6659734929945
 20
584.247906864291
 30
0.0
 11
114.6659734929945
 21
603.8816009195637
 31
0.0
  0
LINE
  5
148
330
50
100
AcDbEntity
  8
1
  6
Continuous
 62
     7
100
AcDbLine
 10
145.9159734929945
 20
607.8816009195637
 30
0.0
 11
100.9159734929946
 21
607.8816009195637
 31
0.0
  0
LINE
  5
149
330
50
100
AcDbEntity
  8
1
  6
Continuous
 62
     7
100
AcDbLine
 10
100.4159734929946
 20
610.3816009195637
 30
0.0
 11
100.4159734929946
 21
608.3816009195637
 31
0.0
  0
LINE
  5
14A
330
50
100
AcDbEntity
  8
1
  6
Continuous
 62
     7
100
AcDbLine
 10
100.4159734929946
 20
610.3816009195637
 30
0.0
 11
146.4159734929945
 21
610.3816009195637
 31
0.0
  0
LINE
  5
14B
330
50
100
AcDbEntity
  8
1
  6
Continuous
 62
     2
100
AcDbLine
 10
112.9159734929945
 20
610.3816009195637
 30
0.0
 11
113.9159734929945
 21
612.1136517271327
 31
0.0
  0
LINE
  5
14C
330
50
100
AcDbEntity
  8
1
  6
Continuous
 62
     2
100
AcDbLine
 10
113.9159734929945
 20
612.1136517271327
 30
0.0
 11
113.9159734929945
 21
624.3816009195637
 31
0.0
  0
LINE
  5
14D
330
50
100
AcDbEntity
  8
1
  6
Continuous
 62
     7
100
AcDbLine
 10
110.8159734929955
 20
250.089895537192
 30
0.0
 11
110.8159734929955
 21
248.781517090481
 31
0.0
  0
LINE
  5
14E
330
50
100
AcDbEntity
  8
1
  6
Continuous
 62
     7
100
AcDbLine
 10
110.4159734929945
 20
255.0398955371919
 30
0.0
 11
110.4159734929945
 21
253.539895537192
 31
0.0
  0
LINE
  5
14F
330
50
100
AcDbEntity
  8
1
  6
Continuous
 62
     7
100
AcDbLine
 10
136.4159734929945
 20
255.0398955371919
 30
0.0
 11
136.4159734929945
 21
253.539895537192
 31
0.0
  0
LINE
  5
150
330
50
100
AcDbEntity
  8
1
  6
Continuous
 62
     7
100
AcDbLine
 10
142.7750900839765
 20
217.1211756024821
 30
0.0
 11
124.1840265864245
 21
216.0617615993772
 31
0.0
  0
LINE
  5
151
330
50
100
AcDbEntity
  8
1
  6
Continuous
 62
     7
100
AcDbLine
 10
110.8159734929955
 20
248.781517090481
 30
0.0
 11
110.8159734929955
 21
236.7085774244009
 31
0.0
  0
LINE
  5
152
330
50
100
AcDbEntity
  8
1
  6
Continuous
 62
     7
100
AcDbLine
 10
145.2159734929955
 20
217.2602696389152
 30
0.0
 11
142.7750900839765
 21
217.1211756024821
 31
0.0
  0
LINE
  5
153
330
50
100
AcDbEntity
  8
1
  6
Continuous
 62
     7
100
AcDbLine
 10
145.2159734929955
 20
241.8195214354687
 30
0.0
 11
143.5608309191105
 21
241.9138399353297
 31
0.0
  0
LINE
  5
154
330
50
100
AcDbEntity
  8
1
  6
Continuous
 62
     7
100
AcDbLine
 10
408.0816104640444
 20
216.789895537192
 30
0.0
 11
408.0816104640444
 21
242.289895537192
 31
0.0
  0
LINE
  5
155
330
50
100
AcDbEntity
  8
1
  6
Continuous
 62
     7
100
AcDbLine
 10
423.4216104640445
 20
240.019895537192
 30
0.0
 11
423.4216104640445
 21
219.059895537192
 31
0.0
  0
LINE
  5
156
330
50
100
AcDbEntity
  8
1
  6
Continuous
 62
     7
100
AcDbLine
 10
135.1405561454615
 20
253.539895537192
 30
0.0
 11
136.4159734929945
 21
253.539895537192
 31
0.0
  0
LINE
  5
157
330
50
100
AcDbEntity
  8
1
  6
Continuous
 62
     7
100
AcDbLine
 10
110.4159734929945
 20
253.539895537192
 30
0.0
 11
111.6405561454615
 21
253.5398955371921
 31
0.0
  0
ARC
  5
158
330
50
100
AcDbEntity
  8
1
  6
Continuous
 62
     7
100
AcDbCircle
 10
108.815973492995
 20
250.089895537192
 30
0.0
 40
2.000000000000497
100
AcDbArc
 50
0.0
 51
36.86989764585046
  0
ARC
  5
159
330
50
100
AcDbEntity
  8
1
  6
Continuous
 62
     7
100
AcDbCircle
 10
138.0731163501375
 20
250.1701287976154
 30
0.0
 40
2.000000000010454
100
AcDbArc
 50
145.9522676295718
 51
185.8426577750624
  0
ARC
  5
15A
330
50
100
AcDbEntity
  8
1
  6
Continuous
 62
     7
100
AcDbCircle
 10
380.9856193926134
 20
205.289895537192
 30
0.0
 40
15.5
100
AcDbArc
 50
90.0
 51
102.5647403276508
  0
ARC
  5
15B
330
50
100
AcDbEntity
  8
1
  6
Continuous
 62
     7
100
AcDbCircle
 10
379.7387533211875
 20
250.1701287976154
 30
0.0
 40
2.00000000001062
100
AcDbArc
 50
145.9522676295721
 51
185.8426577750628
  0
ARC
  5
15C
330
50
100
AcDbEntity
  8
1
  6
Continuous
 62
     7
100
AcDbCircle
 10
350.4816104640445
 20
250.0898955371919
 30
0.0
 40
2.0
100
AcDbArc
 50
0.0
 51
36.86989764584794
  0
ARC
  5
15D
330
50
100
AcDbEntity
  8
1
  6
Continuous
 62
     7
100
AcDbCircle
 10
390.6816104640454
 20
251.289895537192
 30
0.0
 40
13.00000000001256
100
AcDbArc
 50
185.8426577750613
 51
270.0
  0
ARC
  5
15E
330
50
100
AcDbEntity
  8
1
  6
Continuous
 62
     7
100
AcDbCircle
 10
138.0190839088634
 20
250.0940539948021
 30
0.0
 40
1.999999999993139
100
AcDbArc
 50
143.2788714600044
 51
178.1550270729758
  0
ARC
  5
15F
330
50
100
AcDbEntity
  8
1
  6
Continuous
 62
     7
100
AcDbCircle
 10
144.0159734929946
 20
249.9008822688493
 30
0.0
 40
7.99999999999991
100
AcDbArc
 50
260.87376869679
 51
266.7385203578574
  0
ARC
  5
160
330
50
100
AcDbEntity
  8
1
  6
Continuous
 62
     7
100
AcDbCircle
 10
123.4159734929945
 20
229.5398955371919
 30
0.0
 40
13.49999999999932
100
AcDbArc
 50
165.6883565795089
 51
273.2614796421449
  0
ARC
  5
161
330
50
100
AcDbEntity
  8
1
  6
Continuous
 62
     7
100
AcDbCircle
 10
108.815973492995
 20
250.089895537192
 30
0.0
 40
2.000000000000497
100
AcDbArc
 50
0.0
 51
36.86989764585046
  0
ARC
  5
162
330
50
100
AcDbEntity
  8
1
  6
Continuous
 62
     7
100
AcDbCircle
 10
95.315973492995
 20
236.7085774244009
 30
0.0
 40
15.50000000000016
100
AcDbArc
 50
345.688356579511
 51
0.0
  0
ARC
  5
163
330
50
100
AcDbEntity
  8
1
  6
Continuous
 62
     7
100
AcDbCircle
 10
123.4159734929945
 20
229.5398955371919
 30
0.0
 40
22.99999999999944
100
AcDbArc
 50
123.2180009059085
 51
327.3201497509062
  0
ARC
  5
164
330
50
100
AcDbEntity
  8
1
  6
Continuous
 62
     7
100
AcDbCircle
 10
123.4159734929945
 20
229.5398955371919
 30
0.0
 40
23.00000000000027
100
AcDbArc
 50
32.80879508619593
 51
56.52255421993484
  0
ARC
  5
165
330
50
100
AcDbEntity
  8
1
  6
Continuous
 62
     7
100
AcDbCircle
 10
144.0159734929946
 20
249.9008822688493
 30
0.0
 40
7.999999999998858
100
AcDbArc
 50
188.4575806093455
 51
260.87376869679
  0
ARC
  5
166
330
50
100
AcDbEntity
  8
1
  6
Continuous
 62
     7
100
AcDbCircle
 10
144.0159734929946
 20
249.9008822688493
 30
0.0
 40
8.000000000003043
100
AcDbArc
 50
178.1550270729735
 51
188.4575806093455
  0
ARC
  5
167
330
50
100
AcDbEntity
  8
1
  6
Continuous
 62
     7
100
AcDbCircle
 10
404.0816104640444
 20
242.289895537192
 30
0.0
 40
4.0
100
AcDbArc
 50
270.0
 51
0.0
  0
ARC
  5
168
330
50
100
AcDbEntity
  8
1
  6
Continuous
 62
     7
100
AcDbCircle
 10
404.0816104640444
 20
216.789895537192
 30
0.0
 40
4.0
100
AcDbArc
 50
0.0
 51
90.0
  0
ARC
  5
169
330
50
100
AcDbEntity
  8
1
  6
Continuous
 62
     7
100
AcDbCircle
 10
408.5816104640444
 20
207.039895537192
 30
0.0
 40
0.5
100
AcDbArc
 50
180.0
 51
270.0
  0
ARC
  5
16A
330
50
100
AcDbEntity
  8
1
  6
Continuous
 62
     7
100
AcDbCircle
 10
408.5816104640444
 20
252.039895537192
 30
0.0
 40
0.5
100
AcDbArc
 50
90.0
 51
180.0
  0
ARC
  5
16B
330
50
100
AcDbEntity
  8
1
  6
Continuous
 62
     7
100
AcDbCircle
 10
144.1659734929945
 20
590.0097836778568
 30
0.0
 40
12.0
100
AcDbArc
 50
180.0
 51
265.939492651352
  0
ARC
  5
16C
330
50
100
AcDbEntity
  8
1
  6
Continuous
 62
     7
100
AcDbCircle
 10
84.66597349299457
 20
584.247906864291
 30
0.0
 40
30.00000000000037
100
AcDbArc
 50
344.8973630808144
 51
0.0
  0
ARC
  5
16D
330
50
100
AcDbEntity
  8
1
  6
Continuous
 62
     7
100
AcDbCircle
 10
100.9159734929946
 20
608.3816009195637
 30
0.0
 40
0.5
100
AcDbArc
 50
180.0
 51
270.0
  0
ARC
  5
16E
330
50
100
AcDbEntity
  8
1
  6
Continuous
 62
     7
100
AcDbCircle
 10
145.9159734929945
 20
608.3816009195637
 30
0.0
 40
0.5
100
AcDbArc
 50
270.0
 51
0.0
  0
ARC
  5
16F
330
50
100
AcDbEntity
  8
1
  6
Continuous
 62
     7
100
AcDbCircle
 10
136.1659734929945
 20
603.8816009195637
 30
0.0
 40
4.0
100
AcDbArc
 50
90.0
 51
180.0
  0
ARC
  5
170
330
50
100
AcDbEntity
  8
1
  6
Continuous
 62
     7
100
AcDbCircle
 10
110.6659734929945
 20
603.8816009195637
 30
0.0
 40
4.0
100
AcDbArc
 50
0.0
 51
90.0
  0
ENDBLK
  5
52
330
50
100
AcDbEntity
  8
0
100
AcDbBlockEnd
  0
BLOCK
  5
54
330
53
100
AcDbEntity
  8
0
100
AcDbBlockBegin
  2
81-100X-M21
 70
     0
 10
15.71125937054694
 20
399.1554275380861
 30
0.0
  3
81-100X-M21
  1

  0
LINE
  5
171
330
53
100
AcDbEntity
  8
1
  6
Continuous
 62
     7
100
AcDbLine
 10
145.4159734929945
 20
580.6816009195643
 30
0.0
 11
145.4159734929945
 21
550.0816009195646
 31
0.0
  0
LINE
  5
172
330
53
100
AcDbEntity
  8
1
  6
Continuous
 62
     7
100
AcDbLine
 10
157.9159734929945
 20
549.8816009195646
 30
0.0
 11
145.6159734929945
 21
549.8816009195646
 31
0.0
  0
LINE
  5
173
330
53
100
AcDbEntity
  8
1
  6
Continuous
 62
     7
100
AcDbLine
 10
157.9159734929945
 20
580.8816009195646
 30
0.0
 11
145.6159734929945
 21
580.8816009195646
 31
0.0
  0
LINE
  5
174
330
53
100
AcDbEntity
  8
1
  6
Continuous
 62
     7
100
AcDbLine
 10
369.0816104640444
 20
213.5398955371919
 30
0.0
 11
369.0816104640444
 21
214.56491640532
 31
0.0
  0
LINE
  5
175
330
53
100
AcDbEntity
  8
1
  6
Continuous
 62
     7
100
AcDbLine
 10
361.0816104640444
 20
213.5398955371919
 30
0.0
 11
361.0816104640444
 21
214.5649164053201
 31
0.0
  0
LINE
  5
176
330
53
100
AcDbEntity
  8
1
  6
Continuous
 62
     7
100
AcDbLine
 10
369.0816104640444
 20
260.5398955371919
 30
0.0
 11
369.0816104640444
 21
245.039895537192
 31
0.0
  0
LINE
  5
177
330
53
100
AcDbEntity
  8
1
  6
Continuous
 62
     7
100
AcDbLine
 10
361.0816104640444
 20
260.5398955371919
 30
0.0
 11
361.0816104640444
 21
245.039895537192
 31
0.0
  0
LINE
  5
178
330
53
100
AcDbEntity
  8
1
  6
Continuous
 62
     7
100
AcDbLine
 10
361.0816104640444
 20
245.039895537192
 30
0.0
 11
361.0816104640444
 21
245.0398955371896
 31
0.0
  0
LINE
  5
179
330
53
100
AcDbEntity
  8
1
  6
Continuous
 62
     7
100
AcDbLine
 10
369.0816104640444
 20
245.039895537192
 30
0.0
 11
369.0816104640444
 21
244.5148746690639
 31
0.0
  0
LINE
  5
17A
330
53
100
AcDbEntity
  8
1
  6
Continuous
 62
     7
100
AcDbLine
 10
361.0816104640444
 20
245.039895537192
 30
0.0
 11
361.0816104640444
 21
244.5148746690639
 31
0.0
  0
LINE
  5
17B
330
53
100
AcDbEntity
  8
1
  6
PHANTOM
 62
     5
100
AcDbLine
 10
334.0816104640444
 20
233.5398955371921
 30
0.0
 11
347.5816104640444
 21
233.5398955371921
 31
0.0
  0
LINE
  5
17C
330
53
100
AcDbEntity
  8
1
  6
PHANTOM
 62
     5
100
AcDbLine
 10
334.0816104640444
 20
225.539895537192
 30
0.0
 11
347.5816104640444
 21
225.539895537192
 31
0.0
  0
LINE
  5
17D
330
53
100
AcDbEntity
  8
1
  6
Continuous
 62
     7
100
AcDbLine
 10
150.8835609770015
 20
245.0398955371919
 30
0.0
 11
145.4159734929956
 21
245.0398955371918
 31
0.0
  0
LINE
  5
17E
330
53
100
AcDbEntity
  8
1
  6
Continuous
 62
     7
100
AcDbLine
 10
155.1356739217545
 20
214.0398955371919
 30
0.0
 11
145.4159734929956
 21
214.0398955371919
 31
0.0
  0
LINE
  5
17F
330
53
100
AcDbEntity
  8
1
  6
Continuous
 62
     7
100
AcDbLine
 10
157.7159734929955
 20
245.0398955371919
 30
0.0
 11
150.8835609770015
 21
245.0398955371919
 31
0.0
  0
LINE
  5
180
330
53
100
AcDbEntity
  8
1
  6
Continuous
 62
     7
100
AcDbLine
 10
157.7159734929955
 20
214.0398955371919
 30
0.0
 11
155.1356739217545
 21
214.0398955371919
 31
0.0
  0
LINE
  5
181
330
53
100
AcDbEntity
  8
1
  6
Continuous
 62
     7
100
AcDbLine
 10
145.2159734929955
 20
244.8398955371917
 30
0.0
 11
145.2159734929955
 21
241.8039074130268
 31
0.0
  0
LINE
  5
182
330
53
100
AcDbEntity
  8
1
  6
Continuous
 62
     7
100
AcDbLine
 10
145.2159734929955
 20
215.0398955371919
 30
0.0
 11
145.2159734929955
 21
214.2398955371918
 31
0.0
  0
LINE
  5
183
330
53
100
AcDbEntity
  8
1
  6
Continuous
 62
     7
100
AcDbLine
 10
145.2159734929955
 20
241.8039074130268
 30
0.0
 11
145.2159734929955
 21
215.0398955371919
 31
0.0
  0
ARC
  5
184
330
53
100
AcDbEntity
  8
1
  6
Continuous
 62
     7
100
AcDbCircle
 10
162.4159734929945
 20
661.3816009195646
 30
0.0
 40
100.0
100
AcDbArc
 50
270.0
 51
274.3338293663742
  0
ARC
  5
185
330
53
100
AcDbEntity
  8
1
  6
Continuous
 62
     7
100
AcDbCircle
 10
169.6912543918725
 20
565.3816009195646
 30
0.0
 40
3.72471910112202
100
AcDbArc
 50
0.0
 51
85.66617063362865
  0
ARC
  5
186
330
53
100
AcDbEntity
  8
1
  6
Continuous
 62
     7
100
AcDbCircle
 10
162.4159734929945
 20
469.3816009195643
 30
0.0
 40
100.0000000000003
100
AcDbArc
 50
85.6661706336259
 51
90.0
  0
ARC
  5
187
330
53
100
AcDbEntity
  8
1
  6
Continuous
 62
     7
100
AcDbCircle
 10
162.4159734929945
 20
661.3816009195646
 30
0.0
 40
100.0
100
AcDbArc
 50
265.6661706336259
 51
270.0
  0
ARC
  5
188
330
53
100
AcDbEntity
  8
1
  6
Continuous
 62
     7
100
AcDbCircle
 10
155.1406925941164
 20
565.3816009195646
 30
0.0
 40
3.724719101123981
100
AcDbArc
 50
180.0
 51
265.6661706336321
  0
ARC
  5
189
330
53
100
AcDbEntity
  8
1
  6
Continuous
 62
     7
100
AcDbCircle
 10
162.4159734929945
 20
469.3816009195643
 30
0.0
 40
100.0000000000001
100
AcDbArc
 50
90.0
 51
94.33382936637406
  0
ARC
  5
18A
330
53
100
AcDbEntity
  8
1
  6
Continuous
 62
     7
100
AcDbCircle
 10
155.1406925941164
 20
565.3816009195646
 30
0.0
 40
3.724719101123472
100
AcDbArc
 50
94.33382936636787
 51
180.0
  0
ARC
  5
18B
330
53
100
AcDbEntity
  8
1
  6
Continuous
 62
     7
100
AcDbCircle
 10
169.6912543918725
 20
565.3816009195646
 30
0.0
 40
3.724719101123489
100
AcDbArc
 50
274.3338293663713
 51
0.0
  0
ARC
  5
18C
330
53
100
AcDbEntity
  8
1
  6
Continuous
 62
     7
100
AcDbCircle
 10
157.9159734929945
 20
565.3816009195646
 30
0.0
 40
15.5
100
AcDbArc
 50
0.0
 51
90.0
  0
ARC
  5
18D
330
53
100
AcDbEntity
  8
1
  6
Continuous
 62
     7
100
AcDbCircle
 10
157.9159734929945
 20
565.3816009195646
 30
0.0
 40
15.5
100
AcDbArc
 50
270.0
 51
0.0
  0
ARC
  5
18E
330
53
100
AcDbEntity
  8
1
  6
Continuous
 62
     7
100
AcDbCircle
 10
365.0816104640444
 20
260.5398955371919
 30
0.0
 40
4.0
100
AcDbArc
 50
0.0
 51
180.0
  0
ARC
  5
18F
330
53
100
AcDbEntity
  8
1
  6
Continuous
 62
     7
100
AcDbCircle
 10
365.0816104640444
 20
229.539895537192
 30
0.0
 40
15.49999999999996
100
AcDbArc
 50
104.9552483166434
 51
255.0447516833566
  0
ARC
  5
190
330
53
100
AcDbEntity
  8
1
  6
Continuous
 62
     7
100
AcDbCircle
 10
365.0816104640444
 20
229.539895537192
 30
0.0
 40
15.50000000000007
100
AcDbArc
 50
284.9552483166432
 51
75.04475168335662
  0
ARC
  5
191
330
53
100
AcDbEntity
  8
1
  6
Continuous
 62
     7
100
AcDbCircle
 10
365.0816104640444
 20
213.5398955371919
 30
0.0
 40
4.0
100
AcDbArc
 50
180.0
 51
0.0
  0
ARC
  5
192
330
53
100
AcDbEntity
  8
1
  6
PHANTOM
 62
     5
100
AcDbCircle
 10
334.0816104640444
 20
229.539895537192
 30
0.0
 40
4.000000000000114
100
AcDbArc
 50
90.0
 51
270.0
  0
ARC
  5
193
330
53
100
AcDbEntity
  8
1
  6
PHANTOM
 62
     5
100
AcDbCircle
 10
381.0816104640444
 20
229.539895537192
 30
0.0
 40
4.000000000000033
100
AcDbArc
 50
280.0000000000059
 51
79.99999999999412
  0
ARC
  5
194
330
53
100
AcDbEntity
  8
1
  6
Continuous
 62
     7
100
AcDbCircle
 10
157.7159734929955
 20
229.5398955371919
 30
0.0
 40
15.5
100
AcDbArc
 50
0.0
 51
9.36885182365563
  0
ARC
  5
195
330
53
100
AcDbEntity
  8
1
  6
Continuous
 62
     7
100
AcDbCircle
 10
157.7159734929955
 20
229.5398955371919
 30
0.0
 40
15.5
100
AcDbArc
 50
270.0
 51
331.4977761969172
  0
ARC
  5
196
330
53
100
AcDbEntity
  8
1
  6
Continuous
 62
     7
100
AcDbCircle
 10
157.7159734929955
 20
229.5398955371919
 30
0.0
 40
15.50000000000001
100
AcDbArc
 50
331.4977761969172
 51
0.0
  0
ARC
  5
197
330
53
100
AcDbEntity
  8
1
  6
Continuous
 62
     7
100
AcDbCircle
 10
157.7159734929955
 20
229.5398955371919
 30
0.0
 40
15.49999999999934
100
AcDbArc
 50
9.36885182365563
 51
90.0
  0
ARC
  5
198
330
53
100
AcDbEntity
  8
1
  6
Continuous
 62
     7
100
AcDbCircle
 10
162.2159734929955
 20
216.5398955371918
 30
0.0
 40
7.0
100
AcDbArc
 50
270.0
 51
317.3771453921822
  0
ARC
  5
199
330
53
100
AcDbEntity
  8
1
  6
Continuous
 62
     7
100
AcDbCircle
 10
113.2159734929955
 20
237.0398955371918
 30
0.0
 40
59.99999999999963
100
AcDbArc
 50
336.5872805163925
 51
345.6245513557163
  0
ARC
  5
19A
330
53
100
AcDbEntity
  8
1
  6
Continuous
 62
     7
100
AcDbCircle
 10
162.2159734929955
 20
216.5398955371918
 30
0.0
 40
7.000000000000628
100
AcDbArc
 50
222.6228546078119
 51
270.0
  0
ARC
  5
19B
330
53
100
AcDbEntity
  8
1
  6
Continuous
 62
     7
100
AcDbCircle
 10
211.2159734929955
 20
237.0398955371918
 30
0.0
 40
60.00000000000081
100
AcDbArc
 50
156.5872805163925
 51
171.5155502586236
  0
ARC
  5
19C
330
53
100
AcDbEntity
  8
1
  6
Continuous
 62
     7
100
AcDbCircle
 10
162.2159734929955
 20
257.5398955371918
 30
0.0
 40
6.999999999999886
100
AcDbArc
 50
90.0
 51
137.3771453921664
  0
ARC
  5
19D
330
53
100
AcDbEntity
  8
1
  6
Continuous
 62
     7
100
AcDbCircle
 10
211.2159734929955
 20
237.0398955371918
 30
0.0
 40
60.00000000000005
100
AcDbArc
 50
203.1688797851183
 51
203.4127194836071
  0
ARC
  5
19E
330
53
100
AcDbEntity
  8
1
  6
Continuous
 62
     7
100
AcDbCircle
 10
113.2159734929955
 20
237.0398955371918
 30
0.0
 40
59.99999999999999
100
AcDbArc
 50
0.0
 51
23.41271948360686
  0
ARC
  5
19F
330
53
100
AcDbEntity
  8
1
  6
Continuous
 62
     7
100
AcDbCircle
 10
162.2159734929955
 20
257.5398955371918
 30
0.0
 40
6.999999999999675
100
AcDbArc
 50
42.62285460780543
 51
90.0
  0
ARC
  5
1A0
330
53
100
AcDbEntity
  8
1
  6
Continuous
 62
     7
100
AcDbCircle
 10
113.2159734929955
 20
237.0398955371918
 30
0.0
 40
59.99999999999919
100
AcDbArc
 50
355.2420766648553
 51
0.0
  0
SPLINE
  5
1A1
330
53
100
AcDbEntity
  8
1
  6
Continuous
 62
     7
100
AcDbSpline
210
0.0
220
0.0
230
1.0
 70
     8
 71
     3
 72
    25
 73
    21
 74
    19
 42
0.000000001
 43
0.0000000001
 44
0.00000001
 40
0.0
 40
0.0
 40
0.0
 40
0.0
 40
0.4083061153381855
 40
0.8124159427217426
 40
1.325418696420769
 40
1.835613199235177
 40
2.477513316534671
 40
3.118661298731094
 40
3.892123821873705
 40
4.665151316520038
 40
5.557812244293648
 40
6.450283438342073
 40
7.442185186521415
 40
8.433982355394457
 40
9.500014430768243
 40
10.56599316868585
 40
11.67776158913192
 40
12.78950677050819
 40
13.35317621738026
 40
13.91674532635741
 40
13.91674532635741
 40
13.91674532635741
 40
13.91674532635741
 10
365.4388603700545
 20
232.1184678288331
 30
0.0
 10
365.5670086039679
 20
232.1665037371681
 30
0.0
 10
365.8219880551699
 20
232.2620818675259
 30
0.0
 10
366.1738201271389
 20
232.537769831084
 30
0.0
 10
366.4982569467953
 20
232.8867554532875
 30
0.0
 10
366.8238256500824
 20
233.337898851314
 30
0.0
 10
367.1206502317401
 20
233.8577390258887
 30
0.0
 10
367.4149737818643
 20
234.4773854376254
 30
0.0
 10
367.6812166877941
 20
235.1568365590981
 30
0.0
 10
367.93749071468
 20
235.9287467644604
 30
0.0
 10
368.1655183022535
 20
236.7507596325791
 30
0.0
 10
368.3765781304617
 20
237.6522701008983
 30
0.0
 10
368.5588383434322
 20
238.5937427551897
 30
0.0
 10
368.7186143653416
 20
239.5978539789146
 30
0.0
 10
368.8489225076199
 20
240.6311139417803
 30
0.0
 10
368.9528003379825
 20
241.7075156999011
 30
0.0
 10
369.026733116735
 20
242.8016669855346
 30
0.0
 10
369.0640402007522
 20
243.730089520579
 30
0.0
 10
369.0794207222442
 20
244.4762885769059
 30
0.0
 10
369.0808805912274
 20
244.8520376991858
 30
0.0
 10
369.0816104640444
 20
245.039895537192
 30
0.0
 11
365.4388603700545
 21
232.1184678288331
 31
0.0
 11
365.8133722999303
 21
232.2811168516386
 31
0.0
 11
366.1381226623662
 21
232.5216203873286
 31
0.0
 11
366.4907208736986
 21
232.894241274568
 31
0.0
 11
366.7912955024975
 21
233.3064952287369
 31
0.0
 11
367.1135792989631
 21
233.8616248664009
 31
0.0
 11
367.3898143483237
 21
234.4402136082935
 31
0.0
 11
367.6748339761953
 21
235.1592463516939
 31
0.0
 11
367.9192064171965
 21
235.892631391975
 31
0.0
 11
368.1596718279864
 21
236.7522940688048
 31
0.0
 11
368.3636814507303
 21
237.621135196887
 31
0.0
 11
368.5533997008034
 21
238.59472446524
 31
0.0
 11
368.7096221011184
 21
239.5741407126525
 31
0.0
 11
368.8437592395351
 21
240.6316999846172
 31
0.0
 11
368.9463518565173
 21
241.692730344498
 31
0.0
 11
369.0216804775285
 21
242.8019438584826
 31
0.0
 11
369.0665695096636
 21
243.9127824261954
 31
0.0
 11
369.0778502254492
 21
244.4763389816936
 31
0.0
 11
369.0816104640444
 21
245.039895537192
 31
0.0
  0
SPLINE
  5
1A2
330
53
100
AcDbEntity
  8
1
  6
Continuous
 62
     7
100
AcDbSpline
210
0.0
220
0.0
230
1.0
 70
     8
 71
     3
 72
    27
 73
    23
 74
    21
 42
0.000000001
 43
0.0000000001
 44
0.00000001
 40
0.0
 40
0.0
 40
0.0
 40
0.0
 40
0.5635691099583588
 40
1.127238557117232
 40
2.238983738624126
 40
3.350752159096018
 40
4.416730897015674
 40
5.482762972378778
 40
6.474560141235933
 40
7.466461889392172
 40
8.358933083414945
 40
9.251594011154156
 40
10.02462150576406
 40
10.79808402885571
 40
11.43923201099753
 40
12.08113212820481
 40
12.59132663089556
 40
13.10432938414694
 40
13.50843920731082
 40
13.91674533165427
 40
14.2782550739068
 40
14.63976480459929
 40
14.63976480459929
 40
14.63976480459929
 40
14.63976480459929
 10
361.0816104640444
 20
245.0398955371896
 30
0.0
 10
361.0823403368631
 20
244.8520376988577
 30
0.0
 10
361.0838002098097
 20
244.4762885761834
 30
0.0
 10
361.0991807296995
 20
243.7300895193576
 30
0.0
 10
361.1364878146778
 20
242.8016669843767
 30
0.0
 10
361.2104205928891
 20
241.7075156978576
 30
0.0
 10
361.3142984244818
 20
240.6311139427065
 30
0.0
 10
361.4446065627227
 20
239.5978539691221
 30
0.0
 10
361.604382598825
 20
238.5937427828098
 30
0.0
 10
361.7866427616135
 20
237.6522699957505
 30
0.0
 10
361.9977027594957
 20
236.7507599758821
 30
0.0
 10
362.2257297561594
 20
235.9287455454281
 30
0.0
 10
362.4820057092191
 20
235.1568404321848
 30
0.0
 10
362.7482420480075
 20
234.4773719488247
 30
0.0
 10
363.0425861653389
 20
233.8577799109554
 30
0.0
 10
363.3393421620632
 20
233.3377584165107
 30
0.0
 10
363.6651179479769
 20
232.8871624882288
 30
0.0
 10
363.988870419924
 20
232.5363676423813
 30
0.0
 10
364.3427579303117
 20
232.2661136902343
 30
0.0
 10
364.7041504531135
 20
232.1093722229166
 30
0.0
 10
365.0827479012834
 20
232.0384746349315
 30
0.0
 10
365.3201562145158
 20
232.0918034334603
 30
0.0
 10
365.4388603700545
 20
232.1184678288331
 30
0.0
 11
361.0816104640444
 21
245.0398955371896
 31
0.0
 11
361.0853707026396
 21
244.4763389816925
 31
0.0
 11
361.0966514184252
 21
243.9127824261955
 31
0.0
 11
361.1415404505603
 21
242.8019438584827
 31
0.0
 11
361.2168690715712
 21
241.692730344498
 31
0.0
 11
361.3194616885531
 21
240.6316999846172
 31
0.0
 11
361.4535988269701
 21
239.5741407126526
 31
0.0
 11
361.6098212272855
 21
238.5947244652401
 31
0.0
 11
361.7995394773587
 21
237.621135196887
 31
0.0
 11
362.0035491001025
 21
236.7522940688048
 31
0.0
 11
362.244014510892
 21
235.8926313919749
 31
0.0
 11
362.488386951893
 21
235.1592463516938
 31
0.0
 11
362.7734065797649
 21
234.4402136082934
 31
0.0
 11
363.0496416291259
 21
233.8616248664009
 31
0.0
 11
363.3719254255916
 21
233.3064952287369
 31
0.0
 11
363.6725000543904
 21
232.894241274568
 31
0.0
 11
364.0250982657228
 21
232.5216203873286
 31
0.0
 11
364.3498486281587
 21
232.2811168516387
 31
0.0
 11
364.7243605580346
 21
232.1184678288332
 31
0.0
 11
365.0816104640445
 21
232.0631343338794
 31
0.0
 11
365.4388603700545
 21
232.1184678288331
 31
0.0
  0
SPLINE
  5
1A3
330
53
100
AcDbEntity
  8
1
  6
Continuous
 62
     7
100
AcDbSpline
210
0.0
220
0.0
230
1.0
 70
     8
 71
     3
 72
    25
 73
    21
 74
    19
 42
0.000000001
 43
0.0000000001
 44
0.00000001
 40
0.0
 40
0.0
 40
0.0
 40
0.0
 40
0.3693884349420961
 40
0.7379631240429578
 40
1.148273668939832
 40
1.557660040225315
 40
2.023771432016472
 40
2.489267627624984
 40
3.016183346390636
 40
3.542733637288436
 40
4.127686790808437
 40
4.712425909432789
 40
5.347208693666865
 40
5.981867031589119
 40
6.65459012074996
 40
7.327244189277304
 40
8.02362773964942
 40
8.71998040384622
 40
9.072285057531571
 40
9.4244284145813
 40
9.4244284145813
 40
9.4244284145813
 40
9.4244284145813
 10
365.4338207254805
 20
222.1111086207764
 30
0.0
 10
365.5541180399033
 20
222.0833742083778
 30
0.0
 10
365.7944476550627
 20
222.0279664682725
 30
0.0
 10
366.1424858124057
 20
221.8628163845491
 30
0.0
 10
366.4756245437947
 20
221.646957333987
 30
0.0
 10
366.8019567767149
 20
221.3673314581923
 30
0.0
 10
367.1071002011649
 20
221.0395575473079
 30
0.0
 10
367.4026721149484
 20
220.6527419061233
 30
0.0
 10
367.6739475775641
 20
220.2245112650451
 30
0.0
 10
367.9310535184956
 20
219.7421896144228
 30
0.0
 10
368.1618113642714
 20
219.2255322503418
 30
0.0
 10
368.373407959297
 20
218.6621438886629
 30
0.0
 10
368.55710513388
 20
218.0716694675209
 30
0.0
 10
368.7172209931271
 20
217.4441237134751
 30
0.0
 10
368.8482595223317
 20
216.796978318826
 30
0.0
 10
368.9523352970754
 20
216.1241653554679
 30
0.0
 10
369.0266019097755
 20
215.4394829281729
 30
0.0
 10
369.0639711536509
 20
214.8588251980598
 30
0.0
 10
369.0794168157576
 20
214.3920998570353
 30
0.0
 10
369.0808793606456
 20
214.1572790549408
 30
0.0
 10
369.0816104640444
 20
214.0398955371906
 30
0.0
 11
365.4338207254805
 21
222.1111086207764
 31
0.0
 11
365.7905396606609
 21
222.0151949986675
 31
0.0
 11
366.1258694692358
 21
221.8622204170703
 31
0.0
 11
366.4704285128861
 21
221.6394339556289
 31
0.0
 11
366.7825360883195
 21
221.3745074343213
 31
0.0
 11
367.1014335741875
 21
221.0345600522895
 31
0.0
 11
367.3849722637977
 21
220.665381884892
 31
0.0
 11
367.6683018708394
 21
220.2211246304227
 31
0.0
 11
367.9166797698907
 21
219.7568363278686
 31
0.0
 11
368.1563472159229
 21
219.223235627978
 31
0.0
 11
368.3624397005724
 21
218.6760192864137
 31
0.0
 11
368.5518387474244
 21
218.0701503368174
 31
0.0
 11
368.7090726703063
 21
217.4552774236834
 31
0.0
 11
368.8431489955409
 21
216.7960506845052
 31
0.0
 11
368.9461630101481
 21
216.1313314891302
 31
0.0
 11
369.0215391091594
 21
215.439039287092
 31
0.0
 11
369.066535187447
 21
214.744141894582
 31
0.0
 11
369.077841644895
 21
214.3920187158863
 31
0.0
 11
369.0816104640444
 21
214.0398955371906
 31
0.0
  0
SPLINE
  5
1A4
330
53
100
AcDbEntity
  8
1
  6
Continuous
 62
     7
100
AcDbSpline
210
0.0
220
0.0
230
1.0
 70
     8
 71
     3
 72
    27
 73
    23
 74
    21
 42
0.000000001
 43
0.0000000001
 44
0.00000001
 40
0.0
 40
0.0
 40
0.0
 40
0.0
 40
0.3521433567560696
 40
0.7044480106676922
 40
1.40080067507733
 40
2.097184225501695
 40
2.769838294033717
 40
3.442561383172369
 40
4.077219721058879
 40
4.712002505240241
 40
5.296741623802213
 40
5.881694777238695
 40
6.408245068039109
 40
6.935160786667868
 40
7.400656982103325
 40
7.866768373609164
 40
8.276154744419443
 40
8.686465288213597
 40
9.055039980231177
 40
9.424428423782945
 40
9.778116410379718
 40
10.13180439006623
 40
10.13180439006623
 40
10.13180439006623
 40
10.13180439006623
 10
361.0816104640444
 20
214.039895537192
 30
0.0
 10
361.0823415674425
 20
214.1572790548439
 30
0.0
 10
361.0838041138529
 20
214.3920998569041
 30
0.0
 10
361.0992497766998
 20
214.8588251979461
 30
0.0
 10
361.1366190207124
 20
215.439482928139
 30
0.0
 10
361.2108856334702
 20
216.1241653558158
 30
0.0
 10
361.3149614085112
 20
216.7969783180815
 30
0.0
 10
361.4459999369215
 20
217.4441237166754
 30
0.0
 10
361.6061157992099
 20
218.0716694566433
 30
0.0
 10
361.7898129630999
 20
218.6621439280688
 30
0.0
 10
362.0014095952358
 20
219.2255321158427
 30
0.0
 10
362.2321673096379
 20
219.7421900960639
 30
0.0
 10
362.4892736946365
 20
220.2245096642484
 30
0.0
 10
362.7605475997771
 20
220.6527476088893
 30
0.0
 10
363.0561246868492
 20
221.0395389896462
 30
0.0
 10
363.3612500656794
 20
221.3673975236514
 30
0.0
 10
363.6876419481252
 20
221.6467436720075
 30
0.0
 10
364.0205712624894
 20
221.8635847764116
 30
0.0
 10
364.3693165962345
 20
222.025418589716
 30
0.0
 10
364.7222836967564
 20
222.1193246806945
 30
0.0
 10
365.0820780455866
 20
222.1573621057328
 30
0.0
 10
365.3165731664096
 20
222.1265264524439
 30
0.0
 10
365.4338207254805
 20
222.1111086207764
 30
0.0
 11
361.0816104640444
 21
214.039895537192
 31
0.0
 11
361.0853792831937
 21
214.3920187158869
 31
0.0
 11
361.0966857406415
 21
214.7441418945821
 31
0.0
 11
361.1416818189286
 21
215.4390392870921
 31
0.0
 11
361.21705791794
 21
216.1313314891302
 31
0.0
 11
361.3200719325474
 21
216.7960506845052
 31
0.0
 11
361.4541482577822
 21
217.4552774236834
 31
0.0
 11
361.6113821806644
 21
218.0701503368174
 31
0.0
 11
361.800781227516
 21
218.6760192864136
 31
0.0
 11
362.0068737121651
 21
219.2232356279779
 31
0.0
 11
362.2465411581973
 21
219.7568363278685
 31
0.0
 11
362.4949190572487
 21
220.2211246304227
 31
0.0
 11
362.7782486642907
 21
220.665381884892
 31
0.0
 11
363.0617873539013
 21
221.0345600522895
 31
0.0
 11
363.3806848397695
 21
221.3745074343213
 31
0.0
 11
363.6927924152029
 21
221.6394339556289
 31
0.0
 11
364.0373514588532
 21
221.8622204170703
 31
0.0
 11
364.3726812674282
 21
222.0151949986675
 31
0.0
 11
364.7294002026086
 21
222.1111086207765
 31
0.0
 11
365.0816104640444
 21
222.1434060653269
 31
0.0
 11
365.4338207254805
 21
222.1111086207764
 31
0.0
  0
ARC
  5
1A5
330
53
100
AcDbEntity
  8
1
  6
Continuous
 62
     7
100
AcDbCircle
 10
145.6159734929945
 20
580.6816009195643
 30
0.0
 40
0.2000000000002728
100
AcDbArc
 50
90.0
 51
180.0
  0
ARC
  5
1A6
330
53
100
AcDbEntity
  8
1
  6
Continuous
 62
     7
100
AcDbCircle
 10
145.6159734929945
 20
550.0816009195646
 30
0.0
 40
0.1999999999999886
100
AcDbArc
 50
180.0
 51
270.0
  0
ARC
  5
1A7
330
53
100
AcDbEntity
  8
1
  6
Continuous
 62
     7
100
AcDbCircle
 10
155.1356739217545
 20
213.0398955371919
 30
0.0
 40
1.000000000000996
100
AcDbArc
 50
23.16887978509286
 51
90.0
  0
ARC
  5
1A8
330
53
100
AcDbEntity
  8
1
  6
Continuous
 62
     7
100
AcDbCircle
 10
160.7443194314776
 20
215.1855564647221
 30
0.0
 40
5.000000000000551
100
AcDbArc
 50
203.4127194836076
 51
222.6228546078112
  0
ARC
  5
1A9
330
53
100
AcDbEntity
  8
1
  6
Continuous
 62
     7
100
AcDbCircle
 10
163.6876275545126
 20
215.1855564647221
 30
0.0
 40
5.000000000000368
100
AcDbArc
 50
317.3771453921864
 51
336.587280516391
  0
ARC
  5
1AA
330
53
100
AcDbEntity
  8
1
  6
Continuous
 62
     7
100
AcDbCircle
 10
145.4159734929945
 20
214.2398955371918
 30
0.0
 40
0.1999999999990223
100
AcDbArc
 50
180.0
 51
270.0000000003094
  0
ARC
  5
1AB
330
53
100
AcDbEntity
  8
1
  6
Continuous
 62
     7
100
AcDbCircle
 10
145.4159734929945
 20
244.8398955371917
 30
0.0
 40
0.2000000000001023
100
AcDbArc
 50
89.9999999996906
 51
180.0
  0
ARC
  5
1AC
330
53
100
AcDbEntity
  8
1
  6
Continuous
 62
     7
100
AcDbCircle
 10
150.8835609770015
 20
246.0398955371919
 30
0.0
 40
1.0
100
AcDbArc
 50
270.0
 51
351.5155502586247
  0
ARC
  5
1AD
330
53
100
AcDbEntity
  8
1
  6
Continuous
 62
     7
100
AcDbCircle
 10
160.7443194314776
 20
258.8942346096622
 30
0.0
 40
4.999999999999704
100
AcDbArc
 50
137.3771453921643
 51
156.5872805163954
  0
ARC
  5
1AE
330
53
100
AcDbEntity
  8
1
  6
Continuous
 62
     7
100
AcDbCircle
 10
163.6876275545135
 20
258.8942346096613
 30
0.0
 40
4.999999999999203
100
AcDbArc
 50
23.41271948360716
 51
42.62285460780502
  0
ENDBLK
  5
55
330
53
100
AcDbEntity
  8
0
100
AcDbBlockEnd
  0
BLOCK
  5
57
330
56
100
AcDbEntity
  8
0
100
AcDbBlockBegin
  2
61-2-16-170
 70
     0
 10
885.6636568848776
 20
588.804176072235
 30
0.0
  3
61-2-16-170
  1

  0
LINE
  5
1AF
330
56
100
AcDbEntity
  8
1
  6
Continuous
 62
     7
100
AcDbLine
 10
131.4159734929935
 20
565.3816009195643
 30
0.0
 11
131.4159734929935
 21
395.3816009195643
 31
0.0
  0
LINE
  5
1B0
330
56
100
AcDbEntity
  8
1
  6
Continuous
 62
     7
100
AcDbLine
 10
115.4159734929935
 20
565.3816009195643
 30
0.0
 11
115.4159734929935
 21
395.3816009195643
 31
0.0
  0
LINE
  5
1B1
330
56
100
AcDbEntity
  8
1
  6
Continuous
 62
     7
100
AcDbLine
 10
131.4159734929935
 20
269.0554986639416
 30
0.0
 11
131.4159734929935
 21
297.5398955371931
 31
0.0
  0
LINE
  5
1B2
330
56
100
AcDbEntity
  8
1
  6
Continuous
 62
     7
100
AcDbLine
 10
115.4159734929935
 20
269.0554986639416
 30
0.0
 11
115.4159734929935
 21
297.5398955371931
 31
0.0
  0
LINE
  5
1B3
330
56
100
AcDbEntity
  8
1
  6
Continuous
 62
     7
100
AcDbLine
 10
357.0852588501425
 20
265.039895537192
 30
0.0
 11
357.0920267292939
 21
272.5398955371917
 31
0.0
  0
LINE
  5
1B4
330
56
100
AcDbEntity
  8
1
  6
Continuous
 62
     7
100
AcDbLine
 10
186.8005998841604
 20
269.0554986639416
 30
0.0
 11
186.0916149256284
 21
269.0561384405443
 31
0.0
  0
LINE
  5
1B5
330
56
100
AcDbEntity
  8
1
  6
Continuous
 62
     7
100
AcDbLine
 10
186.8005998841604
 20
269.0554986639416
 30
0.0
 11
203.4167584747436
 21
269.0554986639416
 31
0.0
  0
LINE
  5
1B6
330
56
100
AcDbEntity
  8
1
  6
Continuous
 62
     2
100
AcDbLine
 10
184.7644487637574
 20
264.4398955371918
 30
0.0
 11
184.7654571219675
 21
265.5573337189591
 31
0.0
  0
LINE
  5
1B7
330
56
100
AcDbEntity
  8
1
  6
Continuous
 62
     7
100
AcDbLine
 10
206.0874574453794
 20
264.4398955371918
 30
0.0
 11
206.0884484403484
 21
265.5380921951709
 31
0.0
  0
LINE
  5
1B8
330
56
100
AcDbEntity
  8
1
  6
Continuous
 62
     7
100
AcDbLine
 10
373.0920332436668
 20
272.5398955371917
 30
0.0
 11
373.0852653645145
 21
265.039895537192
 31
0.0
  0
LINE
  5
1B9
330
56
100
AcDbEntity
  8
1
  6
Continuous
 62
     7
100
AcDbLine
 10
204.0916075969635
 20
269.0398955371917
 30
0.0
 11
203.4167584747436
 21
269.0405045101658
 31
0.0
  0
LINE
  5
1BA
330
56
100
AcDbEntity
  8
1
  6
Continuous
 62
     2
100
AcDbLine
 10
184.7654571219675
 20
265.5573337189591
 30
0.0
 11
184.7659010049406
 21
266.0492340948862
 31
0.0
  0
LINE
  5
1BB
330
56
100
AcDbEntity
  8
1
  6
Continuous
 62
     7
100
AcDbLine
 10
184.0884573976066
 20
265.5579446326018
 30
0.0
 11
206.0884484403484
 21
265.5380921951709
 31
0.0
  0
LINE
  5
1BC
330
56
100
AcDbEntity
  8
1
  6
Continuous
 62
     7
100
AcDbLine
 10
184.0884573976066
 20
265.5579446326018
 30
0.0
 11
184.0874484881185
 21
264.4398955371918
 31
0.0
  0
LINE
  5
1BD
330
56
100
AcDbEntity
  8
1
  6
Continuous
 62
     7
100
AcDbLine
 10
187.2670541483194
 20
269.0550777431296
 30
0.0
 11
186.8005998841604
 21
269.0554986639416
 31
0.0
  0
LINE
  5
1BE
330
56
100
AcDbEntity
  8
1
  6
Continuous
 62
     2
100
AcDbLine
 10
205.4118925989615
 20
266.0306034847408
 30
0.0
 11
205.4114487159875
 21
265.5387031088136
 31
0.0
  0
LINE
  5
1BF
330
56
100
AcDbEntity
  8
1
  6
Continuous
 62
     2
100
AcDbLine
 10
205.4114487159875
 20
265.5387031088136
 30
0.0
 11
205.4104571697405
 21
264.4398955371918
 31
0.0
  0
LINE
  5
1C0
330
56
100
AcDbEntity
  8
1
  6
Continuous
 62
     7
100
AcDbLine
 10
340.0816104640435
 20
289.5398955371917
 30
0.0
 11
220.0816104640435
 21
289.5398955371917
 31
0.0
  0
LINE
  5
1C1
330
56
100
AcDbEntity
  8
1
  6
Continuous
 62
     7
100
AcDbLine
 10
220.0816104640435
 20
305.5398955371918
 30
0.0
 11
340.0816104640435
 21
305.5398955371918
 31
0.0
  0
LINE
  5
1C2
330
56
100
AcDbEntity
  8
1
  6
Continuous
 62
     7
100
AcDbLine
 10
203.0816104640444
 20
269.0398955371917
 30
0.0
 11
203.0816104640435
 21
272.5398955371917
 31
0.0
  0
LINE
  5
1C3
330
56
100
AcDbEntity
  8
1
  6
Continuous
 62
     7
100
AcDbLine
 10
187.0816104640444
 20
269.0398955371917
 30
0.0
 11
187.0816104640435
 21
272.5398955371917
 31
0.0
  0
LINE
  5
1C4
330
56
100
AcDbEntity
  8
1
  6
Continuous
 62
     2
100
AcDbLine
 10
133.7203943974048
 20
265.5387031088136
 30
0.0
 11
133.7194028511578
 21
264.4398955371918
 31
0.0
  0
LINE
  5
1C5
330
56
100
AcDbEntity
  8
1
  6
Continuous
 62
     2
100
AcDbLine
 10
133.7208382803788
 20
266.0306034847408
 30
0.0
 11
133.7203943974048
 21
265.5387031088136
 31
0.0
  0
LINE
  5
1C6
330
56
100
AcDbEntity
  8
1
  6
Continuous
 62
     7
100
AcDbLine
 10
115.5759998297367
 20
269.0550777431296
 30
0.0
 11
115.1095455655777
 21
269.0554986639416
 31
0.0
  0
LINE
  5
1C7
330
56
100
AcDbEntity
  8
1
  6
Continuous
 62
     7
100
AcDbLine
 10
112.3974030790239
 20
265.5579446326018
 30
0.0
 11
112.3963941695358
 21
264.4398955371918
 31
0.0
  0
LINE
  5
1C8
330
56
100
AcDbEntity
  8
1
  6
Continuous
 62
     7
100
AcDbLine
 10
112.3974030790239
 20
265.5579446326018
 30
0.0
 11
134.3973941217657
 21
265.5380921951709
 31
0.0
  0
LINE
  5
1C9
330
56
100
AcDbEntity
  8
1
  6
Continuous
 62
     2
100
AcDbLine
 10
113.0744028033848
 20
265.5573337189591
 30
0.0
 11
113.0748466863579
 21
266.0492340948862
 31
0.0
  0
LINE
  5
1CA
330
56
100
AcDbEntity
  8
1
  6
Continuous
 62
     7
100
AcDbLine
 10
132.4005532783808
 20
269.0398955371917
 30
0.0
 11
131.7257041561609
 21
269.0405045101658
 31
0.0
  0
LINE
  5
1CB
330
56
100
AcDbEntity
  8
1
  6
Continuous
 62
     7
100
AcDbLine
 10
134.3964031267967
 20
264.4398955371918
 30
0.0
 11
134.3973941217657
 21
265.5380921951709
 31
0.0
  0
LINE
  5
1CC
330
56
100
AcDbEntity
  8
1
  6
Continuous
 62
     2
100
AcDbLine
 10
113.0733944451747
 20
264.4398955371918
 30
0.0
 11
113.0744028033848
 21
265.5573337189591
 31
0.0
  0
LINE
  5
1CD
330
56
100
AcDbEntity
  8
1
  6
Continuous
 62
     7
100
AcDbLine
 10
115.1095455655777
 20
269.0554986639416
 30
0.0
 11
115.4159734929935
 21
269.0554986639416
 31
0.0
  0
LINE
  5
1CE
330
56
100
AcDbEntity
  8
1
  6
Continuous
 62
     7
100
AcDbLine
 10
115.1095455655777
 20
269.0554986639416
 30
0.0
 11
114.4005606070457
 21
269.0561384405443
 31
0.0
  0
LINE
  5
1CF
330
56
100
AcDbEntity
  8
1
  6
Continuous
 62
     7
100
AcDbLine
 10
131.4159734929935
 20
269.0554986639416
 30
0.0
 11
131.7257041561609
 21
269.0554986639416
 31
0.0
  0
LINE
  5
1D0
330
56
100
AcDbEntity
  8
1
  6
Continuous
 62
     7
100
AcDbLine
 10
115.4159734929935
 20
269.0554986639416
 30
0.0
 11
131.4159734929935
 21
269.0554986639416
 31
0.0
  0
ARC
  5
1D1
330
56
100
AcDbEntity
  8
1
  6
Continuous
 62
     7
100
AcDbCircle
 10
123.4159734929935
 20
395.3816009195643
 30
0.0
 40
10.74259383071839
100
AcDbArc
 50
138.1332607465825
 51
0.0
  0
ARC
  5
1D2
330
56
100
AcDbEntity
  8
1
  6
Continuous
 62
     7
100
AcDbCircle
 10
123.4159734929935
 20
395.3816009195643
 30
0.0
 40
10.74259383071801
100
AcDbArc
 50
0.0
 51
41.86673925341759
  0
ARC
  5
1D3
330
56
100
AcDbEntity
  8
1
  6
Continuous
 62
     7
100
AcDbCircle
 10
123.4159734929935
 20
395.3816009195643
 30
0.0
 40
8.650000000000091
100
AcDbArc
 50
270.0
 51
22.35342559933205
  0
ARC
  5
1D4
330
56
100
AcDbEntity
  8
1
  6
Continuous
 62
     7
100
AcDbCircle
 10
123.4159734929935
 20
395.3816009195643
 30
0.0
 40
8.0
100
AcDbArc
 50
180.0
 51
0.0
  0
ARC
  5
1D5
330
56
100
AcDbEntity
  8
1
  6
Continuous
 62
     7
100
AcDbCircle
 10
123.4159734929935
 20
395.3816009195643
 30
0.0
 40
8.65000000000005
100
AcDbArc
 50
157.646574400668
 51
270.0
  0
ARC
  5
1D6
330
56
100
AcDbEntity
  8
1
  6
Continuous
 62
     7
100
AcDbCircle
 10
123.4159734929935
 20
565.3816009195643
 30
0.0
 40
7.999999999999986
100
AcDbArc
 50
0.0
 51
180.0
  0
ARC
  5
1D7
330
56
100
AcDbEntity
  8
1
  6
Continuous
 62
     7
100
AcDbCircle
 10
123.4159734929935
 20
297.5398955371931
 30
0.0
 40
7.999999999999986
100
AcDbArc
 50
0.0
 51
180.0
  0
ARC
  5
1D8
330
56
100
AcDbEntity
  8
1
  6
Continuous
 62
     7
100
AcDbCircle
 10
182.0917445042264
 20
269.0239419813324
 30
0.0
 40
3.999999999999814
100
AcDbArc
 50
299.9456465707122
 51
311.9544136714046
  0
ARC
  5
1D9
330
56
100
AcDbEntity
  8
1
  6
Continuous
 62
     7
100
AcDbCircle
 10
209.0761677666515
 20
269.4325275719956
 30
0.0
 40
4.999999999999428
100
AcDbArc
 50
184.5038685853691
 51
222.8737213594501
  0
ARC
  5
1DA
330
56
100
AcDbEntity
  8
1
  6
Continuous
 62
     7
100
AcDbCircle
 10
181.1077714828216
 20
269.457765802147
 30
0.0
 40
5.000000000000083
100
AcDbArc
 50
317.0228730921756
 51
355.3927258662504
  0
ARC
  5
1DB
330
56
100
AcDbEntity
  8
1
  6
Continuous
 62
     7
100
AcDbCircle
 10
208.0914133971246
 20
269.0004802990563
 30
0.0
 40
3.999999999999649
100
AcDbArc
 50
227.9421807802102
 51
239.9509478808953
  0
ARC
  5
1DC
330
56
100
AcDbEntity
  8
1
  6
Continuous
 62
     7
100
AcDbCircle
 10
340.0816104640435
 20
272.5398955371917
 30
0.0
 40
33.0
100
AcDbArc
 50
0.0
 51
90.0
  0
ARC
  5
1DD
330
56
100
AcDbEntity
  8
1
  6
Continuous
 62
     7
100
AcDbCircle
 10
340.0816104640435
 20
272.5398955371917
 30
0.0
 40
17.0
100
AcDbArc
 50
0.0
 51
90.0
  0
ARC
  5
1DE
330
56
100
AcDbEntity
  8
1
  6
Continuous
 62
     7
100
AcDbCircle
 10
220.0816104640435
 20
272.5398955371917
 30
0.0
 40
33.00000000000011
100
AcDbArc
 50
90.0
 51
180.0
  0
ARC
  5
1DF
330
56
100
AcDbEntity
  8
1
  6
Continuous
 62
     7
100
AcDbCircle
 10
220.0816104640435
 20
272.5398955371917
 30
0.0
 40
17.0
100
AcDbArc
 50
90.0
 51
180.0
  0
ARC
  5
1E0
330
56
100
AcDbEntity
  8
1
  6
Continuous
 62
     7
100
AcDbCircle
 10
136.4003590785419
 20
269.0004802990563
 30
0.0
 40
3.99999999999963
100
AcDbArc
 50
227.9421807802105
 51
239.9509478808953
  0
ARC
  5
1E1
330
56
100
AcDbEntity
  8
1
  6
Continuous
 62
     7
100
AcDbCircle
 10
109.4167171642389
 20
269.457765802147
 30
0.0
 40
5.000000000000083
100
AcDbArc
 50
317.0228730921756
 51
355.3927258662504
  0
ARC
  5
1E2
330
56
100
AcDbEntity
  8
1
  6
Continuous
 62
     7
100
AcDbCircle
 10
137.3851134480688
 20
269.4325275719956
 30
0.0
 40
4.999999999999428
100
AcDbArc
 50
184.5038685853691
 51
222.8737213594503
  0
ARC
  5
1E3
330
56
100
AcDbEntity
  8
1
  6
Continuous
 62
     7
100
AcDbCircle
 10
110.4006901856437
 20
269.0239419813324
 30
0.0
 40
3.999999999999821
100
AcDbArc
 50
299.9456465707124
 51
311.9544136714047
  0
ENDBLK
  5
58
330
56
100
AcDbEntity
  8
0
100
AcDbBlockEnd
  0
BLOCK
  5
20B
330
204
100
AcDbEntity
  8
0
100
AcDbBlockBegin
  2
*D7
 70
     1
 10
0.0
 20
0.0
 30
0.0
  3
*D7
  1

  0
LINE
  5
205
330
204
100
AcDbEntity
  8
0
  6
Continuous
 62
     2
100
AcDbLine
 10
410.5816104640444
 20
181.539895537192
 30
0.0
 11
365.0816104640444
 21
181.539895537192
 31
0.0
  0
LINE
  5
206
330
204
100
AcDbEntity
  8
0
  6
Continuous
 62
     2
100
AcDbLine
 10
410.5816104640444
 20
206.539895537192
 30
0.0
 11
410.5816104640444
 21
179.039895537192
 31
0.0
  0
LINE
  5
207
330
204
100
AcDbEntity
  8
0
  6
Continuous
 62
     2
100
AcDbLine
 10
365.0816104640444
 20
201.5438588394557
 30
0.0
 11
365.0816104640444
 21
179.039895537192
 31
0.0
  0
SOLID
  5
208
330
204
100
AcDbEntity
  8
0
 62
     2
100
AcDbTrace
 10
401.8316104640444
 20
180.3879361833023
 30
0.0
 11
401.8316104640444
 21
182.6918548910817
 31
0.0
 12
410.5816104640444
 22
181.539895537192
 32
0.0
 13
410.5816104640444
 23
181.539895537192
 33
0.0
  0
SOLID
  5
209
330
204
100
AcDbEntity
  8
0
 62
     2
100
AcDbTrace
 10
373.8316104640444
 20
182.6918548910817
 30
0.0
 11
373.8316104640444
 21
180.3879361833023
 31
0.0
 12
365.0816104640444
 22
181.539895537192
 32
0.0
 13
365.0816104640444
 23
181.539895537192
 33
0.0
  0
MTEXT
  5
20A
330
204
100
AcDbEntity
  8
0
 62
     7
100
AcDbMText
 10
381.2691104640444
 20
184.039895537192
 30
0.0
 40
8.75
 41
0.0
 71
     7
 72
     1
  1
46
  7
CONVERTER_12
 11
0.9999999999970619
 21
2.424068405545306E-6
 31
0.0
 73
     1
 44
0.60024009603842
  0
ENDBLK
  5
20C
330
204
100
AcDbEntity
  8
0
100
AcDbBlockEnd
  0
BLOCK
  5
216
330
20F
100
AcDbEntity
  8
0
100
AcDbBlockBegin
  2
*D8
 70
     1
 10
0.0
 20
0.0
 30
0.0
  3
*D8
  1

  0
LINE
  5
210
330
20F
100
AcDbEntity
  8
0
  6
Continuous
 62
     2
100
AcDbLine
 10
449.5816104640444
 20
206.539895537192
 30
0.0
 11
449.5816104640444
 21
252.539895537192
 31
0.0
  0
LINE
  5
211
330
20F
100
AcDbEntity
  8
0
  6
Continuous
 62
     2
100
AcDbLine
 10
410.5816104640444
 20
206.539895537192
 30
0.0
 11
452.0816104640444
 21
206.539895537192
 31
0.0
  0
LINE
  5
212
330
20F
100
AcDbEntity
  8
0
  6
Continuous
 62
     2
100
AcDbLine
 10
410.5816104640444
 20
252.539895537192
 30
0.0
 11
452.0816104640444
 21
252.539895537192
 31
0.0
  0
SOLID
  5
213
330
20F
100
AcDbEntity
  8
0
 62
     2
100
AcDbTrace
 10
448.4296511101547
 20
215.289895537192
 30
0.0
 11
450.7335698179341
 21
215.289895537192
 31
0.0
 12
449.5816104640444
 22
206.539895537192
 32
0.0
 13
449.5816104640444
 23
206.539895537192
 33
0.0
  0
SOLID
  5
214
330
20F
100
AcDbEntity
  8
0
 62
     2
100
AcDbTrace
 10
450.7335698179341
 20
243.789895537192
 30
0.0
 11
448.4296511101547
 21
243.789895537192
 31
0.0
 12
449.5816104640444
 22
252.539895537192
 32
0.0
 13
449.5816104640444
 23
252.539895537192
 33
0.0
  0
MTEXT
  5
215
330
20F
100
AcDbEntity
  8
0
 62
     7
100
AcDbMText
 10
447.0816104640444
 20
221.052395537192
 30
0.0
 40
8.75
 41
0.0
 71
     7
 72
     1
  1
\C7;{\Fgdt;n}\C7;46
  7
CONVERTER_12
 11
0.0
 21
1.0
 31
0.0
 73
     1
 44
0.60024009603842
  0
ENDBLK
  5
217
330
20F
100
AcDbEntity
  8
0
100
AcDbBlockEnd
  0
BLOCK
  5
223
330
21A
100
AcDbEntity
  8
0
100
AcDbBlockBegin
  2
*D9
 70
     1
 10
0.0
 20
0.0
 30
0.0
  3
*D9
  1

  0
LINE
  5
21B
330
21A
100
AcDbEntity
  8
0
  6
Continuous
 62
     2
100
AcDbLine
 10
410.5816104640444
 20
181.539895537192
 30
0.0
 11
393.0816104640444
 21
181.539895537192
 31
0.0
  0
LINE
  5
21C
330
21A
100
AcDbEntity
  8
0
  6
Continuous
 62
     2
100
AcDbLine
 10
424.5816104640444
 20
181.539895537192
 30
0.0
 11
410.5816104640444
 21
181.539895537192
 31
0.0
  0
LINE
  5
21D
330
21A
100
AcDbEntity
  8
0
  6
Continuous
 62
     2
100
AcDbLine
 10
442.0816104640444
 20
181.539895537192
 30
0.0
 11
424.5816104640444
 21
181.539895537192
 31
0.0
  0
LINE
  5
21E
330
21A
100
AcDbEntity
  8
0
  6
Continuous
 62
     2
100
AcDbLine
 10
424.5816104640444
 20
220.2198955371919
 30
0.0
 11
424.5816104640444
 21
179.039895537192
 31
0.0
  0
LINE
  5
21F
330
21A
100
AcDbEntity
  8
0
  6
Continuous
 62
     2
100
AcDbLine
 10
410.5816104640444
 20
206.539895537192
 30
0.0
 11
410.5816104640444
 21
179.039895537192
 31
0.0
  0
SOLID
  5
220
330
21A
100
AcDbEntity
  8
0
 62
     2
100
AcDbTrace
 10
433.3316104640444
 20
182.6918548910817
 30
0.0
 11
433.3316104640444
 21
180.3879361833023
 31
0.0
 12
424.5816104640444
 22
181.539895537192
 32
0.0
 13
424.5816104640444
 23
181.539895537192
 33
0.0
  0
SOLID
  5
221
330
21A
100
AcDbEntity
  8
0
 62
     2
100
AcDbTrace
 10
401.8316104640444
 20
180.3879361833023
 30
0.0
 11
401.8316104640444
 21
182.6918548910817
 31
0.0
 12
410.5816104640444
 22
181.539895537192
 32
0.0
 13
410.5816104640444
 23
181.539895537192
 33
0.0
  0
MTEXT
  5
222
330
21A
100
AcDbEntity
  8
0
 62
     7
100
AcDbMText
 10
412.3316104640444
 20
184.039895537192
 30
0.0
 40
8.75
 41
0.0
 71
     7
 72
     1
  1
14
  7
CONVERTER_12
 11
0.9999999999970619
 21
2.424068405545306E-6
 31
0.0
 73
     1
 44
0.60024009603842
  0
ENDBLK
  5
224
330
21A
100
AcDbEntity
  8
0
100
AcDbBlockEnd
  0
BLOCK
  5
22E
330
227
100
AcDbEntity
  8
0
100
AcDbBlockBegin
  2
*D10
 70
     1
 10
0.0
 20
0.0
 30
0.0
  3
*D10
  1

  0
LINE
  5
228
330
227
100
AcDbEntity
  8
1
  6
Continuous
 62
     2
100
AcDbLine
 10
123.3905561454615
 20
181.539895537192
 30
0.0
 11
173.2159734929955
 21
181.539895537192
 31
0.0
  0
LINE
  5
229
330
227
100
AcDbEntity
  8
1
  6
Continuous
 62
     2
100
AcDbLine
 10
123.3905561454615
 20
201.5438588394557
 30
0.0
 11
123.3905561454615
 21
179.039895537192
 31
0.0
  0
LINE
  5
22A
330
227
100
AcDbEntity
  8
1
  6
Continuous
 62
     2
100
AcDbLine
 10
173.2159734929955
 20
229.5398955371919
 30
0.0
 11
173.2159734929955
 21
179.039895537192
 31
0.0
  0
SOLID
  5
22B
330
227
100
AcDbEntity
  8
1
 62
     2
100
AcDbTrace
 10
132.1405561454615
 20
182.6918548910817
 30
0.0
 11
132.1405561454615
 21
180.3879361833023
 31
0.0
 12
123.3905561454615
 22
181.539895537192
 32
0.0
 13
123.3905561454615
 23
181.539895537192
 33
0.0
  0
SOLID
  5
22C
330
227
100
AcDbEntity
  8
1
 62
     2
100
AcDbTrace
 10
164.4659734929955
 20
180.3879361833023
 30
0.0
 11
164.4659734929955
 21
182.6918548910817
 31
0.0
 12
173.2159734929955
 22
181.539895537192
 32
0.0
 13
173.2159734929955
 23
181.539895537192
 33
0.0
  0
MTEXT
  5
22D
330
227
100
AcDbEntity
  8
1
 62
     7
100
AcDbMText
 10
141.7407648192285
 20
184.039895537192
 30
0.0
 40
8.75
 41
0.0
 71
     7
 72
     1
  1
50
  7
CONVERTER_12
 11
0.9999999999970619
 21
2.424068405545306E-6
 31
0.0
 73
     1
 44
0.60024009603842
  0
ENDBLK
  5
22F
330
227
100
AcDbEntity
  8
0
100
AcDbBlockEnd
  0
BLOCK
  5
23B
330
232
100
AcDbEntity
  8
0
100
AcDbBlockBegin
  2
*D11
 70
     1
 10
0.0
 20
0.0
 30
0.0
  3
*D11
  1

  0
LINE
  5
233
330
232
100
AcDbEntity
  8
1
  6
Continuous
 62
     2
100
AcDbLine
 10
229.0816104640444
 20
264.9398955371918
 30
0.0
 11
229.0816104640444
 21
247.4398955371918
 31
0.0
  0
LINE
  5
234
330
232
100
AcDbEntity
  8
1
  6
Continuous
 62
     2
100
AcDbLine
 10
229.0816104640444
 20
247.4398955371918
 30
0.0
 11
229.0816104640444
 21
229.5398955371918
 31
0.0
  0
LINE
  5
235
330
232
100
AcDbEntity
  8
1
  6
Continuous
 62
     2
100
AcDbLine
 10
229.0816104640444
 20
229.5398955371918
 30
0.0
 11
229.0816104640444
 21
212.0398955371918
 31
0.0
  0
LINE
  5
236
330
232
100
AcDbEntity
  8
1
  6
Continuous
 62
     2
100
AcDbLine
 10
205.7374529667486
 20
247.4398955371918
 30
0.0
 11
231.5816104640444
 21
247.4398955371918
 31
0.0
  0
LINE
  5
237
330
232
100
AcDbEntity
  8
1
  6
Continuous
 62
     2
100
AcDbLine
 10
327.0837869146726
 20
229.5398955371918
 30
0.0
 11
226.5816104640444
 21
229.5398955371918
 31
0.0
  0
SOLID
  5
238
330
232
100
AcDbEntity
  8
1
 62
     2
100
AcDbTrace
 10
227.9296511101547
 20
256.1898955371918
 30
0.0
 11
230.2335698179341
 21
256.1898955371918
 31
0.0
 12
229.0816104640444
 22
247.4398955371918
 32
0.0
 13
229.0816104640444
 23
247.4398955371918
 33
0.0
  0
SOLID
  5
239
330
232
100
AcDbEntity
  8
1
 62
     2
100
AcDbTrace
 10
230.2335698179341
 20
220.7898955371918
 30
0.0
 11
227.9296511101547
 21
220.7898955371918
 31
0.0
 12
229.0816104640444
 22
229.5398955371918
 32
0.0
 13
229.0816104640444
 23
229.5398955371918
 33
0.0
  0
MTEXT
  5
23A
330
232
100
AcDbEntity
  8
1
 62
     7
100
AcDbMText
 10
226.5816104640444
 20
232.6458735852971
 30
0.0
 40
8.75
 41
0.0
 71
     7
 72
     1
  1
18
  7
CONVERTER_12
 11
0.0
 21
1.0
 31
0.0
 73
     1
 44
0.60024009603842
  0
ENDBLK
  5
23C
330
232
100
AcDbEntity
  8
0
100
AcDbBlockEnd
  0
BLOCK
  5
246
330
23F
100
AcDbEntity
  8
0
100
AcDbBlockBegin
  2
*D12
 70
     1
 10
0.0
 20
0.0
 30
0.0
  3
*D12
  1

  0
LINE
  5
240
330
23F
100
AcDbEntity
  8
1
  6
Continuous
 62
     2
100
AcDbLine
 10
195.0816104640444
 20
181.539895537192
 30
0.0
 11
365.0816104640444
 21
181.539895537192
 31
0.0
  0
LINE
  5
241
330
23F
100
AcDbEntity
  8
1
  6
Continuous
 62
     2
100
AcDbLine
 10
195.0816104640444
 20
246.5385128397671
 30
0.0
 11
195.0816104640444
 21
179.039895537192
 31
0.0
  0
LINE
  5
242
330
23F
100
AcDbEntity
  8
1
  6
Continuous
 62
     2
100
AcDbLine
 10
365.0816104640444
 20
201.5438588394557
 30
0.0
 11
365.0816104640444
 21
179.039895537192
 31
0.0
  0
SOLID
  5
243
330
23F
100
AcDbEntity
  8
1
 62
     2
100
AcDbTrace
 10
203.8316104640444
 20
182.6918548910817
 30
0.0
 11
203.8316104640444
 21
180.3879361833023
 31
0.0
 12
195.0816104640444
 22
181.539895537192
 32
0.0
 13
195.0816104640444
 23
181.539895537192
 33
0.0
  0
SOLID
  5
244
330
23F
100
AcDbEntity
  8
1
 62
     2
100
AcDbTrace
 10
356.3316104640444
 20
180.3879361833023
 30
0.0
 11
356.3316104640444
 21
182.6918548910817
 31
0.0
 12
365.0816104640444
 22
181.539895537192
 32
0.0
 13
365.0816104640444
 23
181.539895537192
 33
0.0
  0
MTEXT
  5
245
330
23F
100
AcDbEntity
  8
1
 62
     7
100
AcDbMText
 10
273.743792429396
 20
184.039895537192
 30
0.0
 40
8.75
 41
0.0
 71
     7
 72
     1
  1
170
  7
CONVERTER_12
 11
0.9999999999970619
 21
2.424068405545306E-6
 31
0.0
 73
     1
 44
0.60024009603842
  0
ENDBLK
  5
247
330
23F
100
AcDbEntity
  8
0
100
AcDbBlockEnd
  0
BLOCK
  5
251
330
24A
100
AcDbEntity
  8
0
100
AcDbBlockBegin
  2
*D13
 70
     1
 10
0.0
 20
0.0
 30
0.0
  3
*D13
  1

  0
LINE
  5
24B
330
24A
100
AcDbEntity
  8
1
  6
Continuous
 62
     2
100
AcDbLine
 10
254.0816104640445
 20
305.5398955371918
 30
0.0
 11
254.0816104640445
 21
229.5398955371918
 31
0.0
  0
LINE
  5
24C
330
24A
100
AcDbEntity
  8
1
  6
Continuous
 62
     2
100
AcDbLine
 10
220.0816104640435
 20
305.5398955371918
 30
0.0
 11
256.5816104640445
 21
305.5398955371918
 31
0.0
  0
LINE
  5
24D
330
24A
100
AcDbEntity
  8
1
  6
Continuous
 62
     2
100
AcDbLine
 10
327.0837869146727
 20
229.5398955371918
 30
0.0
 11
251.5816104640445
 21
229.5398955371918
 31
0.0
  0
SOLID
  5
24E
330
24A
100
AcDbEntity
  8
1
 62
     2
100
AcDbTrace
 10
255.2335698179342
 20
296.7898955371918
 30
0.0
 11
252.9296511101548
 21
296.7898955371918
 31
0.0
 12
254.0816104640445
 22
305.5398955371918
 32
0.0
 13
254.0816104640445
 23
305.5398955371918
 33
0.0
  0
SOLID
  5
24F
330
24A
100
AcDbEntity
  8
1
 62
     2
100
AcDbTrace
 10
252.9296511101548
 20
238.2898955371918
 30
0.0
 11
255.2335698179342
 21
238.2898955371918
 31
0.0
 12
254.0816104640445
 22
229.5398955371918
 32
0.0
 13
254.0816104640445
 23
229.5398955371918
 33
0.0
  0
MTEXT
  5
250
330
24A
100
AcDbEntity
  8
1
 62
     7
100
AcDbMText
 10
251.5816104640445
 20
256.9773955371921
 30
0.0
 40
8.75
 41
0.0
 71
     7
 72
     1
  1
76
  7
CONVERTER_12
 11
0.0
 21
1.0
 31
0.0
 73
     1
 44
0.60024009603842
  0
ENDBLK
  5
252
330
24A
100
AcDbEntity
  8
0
100
AcDbBlockEnd
  0
ENDSEC
  0
SECTION
  2
ENTITIES
  0
INSERT
  5
59
330
1F
100
AcDbEntity
  8
1
100
AcDbBlockReference
  2
開示A4
 10
0.0
 20
0.0
 30
0.0
 41
2.5
 42
2.5
 43
2.5
  0
INSERT
  5
5A
330
1F
100
AcDbEntity
  8
1
100
AcDbBlockReference
  2
30-111
 10
1394.519187358918
 20
135.2590293453731
 30
0.0
 41
1.0
 42
1.0
 43
1.0
  0
INSERT
  5
5B
330
1F
100
AcDbEntity
  8
0
100
AcDbBlockReference
  2
32-1-16
 10
897.0785573537495
 20
504.5047259841081
 30
0.0
 41
1.0
 42
1.0
 43
1.0
  0
INSERT
  5
5C
330
1F
100
AcDbEntity
  8
1
100
AcDbBlockReference
  2
A205-0
 10
568.0480931184633
 20
38.87387133182897
 30
0.0
 41
1.0
 42
1.0
 43
1.0
  0
INSERT
  5
5D
330
1F
100
AcDbEntity
  8
1
100
AcDbBlockReference
  2
81-100X-M21
 10
15.71125937054694
 20
399.155427538086
 30
0.0
 41
1.0
 42
1.0
 43
1.0
  0
INSERT
  5
5E
330
1F
100
AcDbEntity
  8
0
100
AcDbBlockReference
  2
61-2-16-170
 10
885.6636568848775
 20
588.8041760722349
 30
0.0
 41
1.0
 42
1.0
 43
1.0
  0
LINE
  5
1E4
330
1F
100
AcDbEntity
  8
1
  6
Continuous
 62
     2
100
AcDbLine
 10
298.765125339789
 20
234.2157143596197
 30
0.0
 11
323.781533943316
 21
234.2157143596197
 31
0.0
  0
LINE
  5
1E5
330
1F
100
AcDbEntity
  8
1
  6
Continuous
 62
     2
100
AcDbLine
 10
310.0
 20
271.2548504326452
 30
0.0
 11
336.0
 21
271.2548504326452
 31
0.0
  0
LINE
  5
1E6
330
1F
100
AcDbEntity
  8
1
  6
Continuous
 62
     2
100
AcDbLine
 10
365.0816104640444
 20
206.5438588394557
 30
0.0
 11
365.0816104640444
 21
201.5438588394557
 31
0.0
  0
LINE
  5
1E7
330
1F
100
AcDbEntity
  8
1
  6
DASH_CENTER
 62
     2
100
AcDbLine
 10
427.0816104640444
 20
229.5398955371924
 30
0.0
 11
327.0837869146726
 21
229.5398955371918
 31
0.0
  0
LINE
  5
1E8
330
1F
100
AcDbEntity
  8
0
  6
DASH_CENTER
 62
     2
100
AcDbLine
 10
176.4159734929956
 20
229.5398955371919
 30
0.0
 11
97.41597349299502
 21
229.5398955371919
 31
0.0
  0
LINE
  5
1E9
330
1F
100
AcDbEntity
  8
0
  6
DASH_CENTER
 62
     2
100
AcDbLine
 10
123.3905561454615
 20
311.539855159494
 30
0.0
 11
123.3905561454615
 21
201.5438588394557
 31
0.0
  0
LINE
  5
1EA
330
1F
100
AcDbEntity
  8
1
  6
DASH_CENTER
 62
     2
100
AcDbLine
 10
123.4159734929935
 20
376.1567762758754
 30
0.0
 11
123.4159734929945
 21
633.6310948081264
 31
0.0
  0
LINE
  5
1EB
330
1F
100
AcDbEntity
  8
1
  6
DASH_CENTER
 62
     2
100
AcDbLine
 10
162.2159734929944
 20
266.6460217470745
 30
0.0
 11
162.2159734929944
 21
206.7900489001364
 31
0.0
  0
LINE
  5
1EC
330
1F
100
AcDbEntity
  8
1
  6
DASH_CENTER
 62
     2
100
AcDbLine
 10
365.0816104640444
 20
206.5438588394557
 30
0.0
 11
365.0816104640444
 21
272.5398955371917
 31
0.0
  0
LINE
  5
1ED
330
1F
100
AcDbEntity
  8
1
  6
DASH_CENTER
 62
     2
100
AcDbLine
 10
220.0816104640435
 20
297.5398955371924
 30
0.0
 11
340.0816104640435
 21
297.5398955371924
 31
0.0
  0
LINE
  5
1EE
330
1F
100
AcDbEntity
  8
1
  6
DASH_CENTER
 62
     2
100
AcDbLine
 10
195.0816104640428
 20
272.5398955371917
 30
0.0
 11
195.0816104640444
 21
246.5385128397671
 31
0.0
  0
LINE
  5
1EF
330
1F
100
AcDbEntity
  8
1
  6
DASH_CENTER
 62
     2
100
AcDbLine
 10
100.4159734929944
 20
565.3816009195643
 30
0.0
 11
180.9159734929941
 21
565.3816009195646
 31
0.0
  0
LINE
  5
1F0
330
1F
100
AcDbEntity
  8
1
  6
DASH_CENTER
 62
     2
100
AcDbLine
 10
142.6407981366829
 20
395.3816009195643
 30
0.0
 11
104.1911488493046
 21
395.3816009195643
 31
0.0
  0
ARC
  5
1F1
330
1F
100
AcDbEntity
  8
0
  6
Continuous
 62
     2
100
AcDbCircle
 10
352.9281842648495
 20
245.7456096898522
 30
0.0
 40
26.48609953112929
100
AcDbArc
 50
127.2877760116094
 51
184.0396076270894
  0
ARC
  5
1F2
330
1F
100
AcDbEntity
  8
1
  6
DASH_CENTER
 62
     2
100
AcDbCircle
 10
340.0816104640435
 20
272.5398955371917
 30
0.0
 40
25.00000000000091
100
AcDbArc
 50
0.0
 51
90.0
  0
ARC
  5
1F3
330
1F
100
AcDbEntity
  8
1
  6
DASH_CENTER
 62
     2
100
AcDbCircle
 10
220.0816104640435
 20
272.5398955371917
 30
0.0
 40
25.00000000000074
100
AcDbArc
 50
90.0
 51
180.0
  0
SOLID
  5
1F4
330
1F
100
AcDbEntity
  8
1
 62
     2
100
AcDbTrace
 10
420.3789843994489
 20
248.1735974972507
 30
0.0
 11
422.3742365286401
 21
247.021638143361
 31
0.0
 12
417.0016104640445
 22
240.019895537192
 32
0.0
 13
417.0016104640445
 23
240.019895537192
 33
0.0
  0
LEADER
  5
1F5
330
1F
100
AcDbEntity
  8
1
  6
Continuous
 62
     2
100
AcDbLeader
  3
Standard
 71
     0
 76
     3
 10
417.0016104640445
 20
240.019895537192
 30
0.0
 10
429.509366978148
 20
261.68396530832
 30
0.0
 10
464.89524600978
 20
261.68396530832
 30
0.0
  0
SOLID
  5
1F6
330
1F
100
AcDbEntity
  8
0
 62
     2
100
AcDbTrace
 10
331.0363737296496
 20
260.2064150760112
 30
0.0
 11
329.5243624767537
 21
261.9447658412976
 31
0.0
 12
336.8824105905935
 22
266.8180233049899
 32
0.0
 13
336.8824105905935
 23
266.8180233049899
 33
0.0
  0
LEADER
  5
1F7
330
1F
100
AcDbEntity
  8
0
  6
DASH_CENTER
 62
     2
100
AcDbLeader
  3
Standard
 71
     0
 76
     2
 10
336.8824105905935
 20
266.8180233049899
 30
0.0
 10
335.7329474449925
 20
265.8182243888882
 30
0.0
  0
SOLID
  5
1F8
330
1F
100
AcDbEntity
  8
0
 62
     2
100
AcDbTrace
 10
325.7493639373411
 20
252.672615120305
 30
0.0
 11
328.0509661715894
 21
252.5693263631277
 31
0.0
 12
326.5078870534014
 22
243.8797684233919
 32
0.0
 13
326.5078870534014
 23
243.8797684233919
 33
0.0
  0
LEADER
  5
1F9
330
1F
100
AcDbEntity
  8
0
  6
Continuous
 62
     2
100
AcDbLeader
  3
Standard
 71
     0
 76
     2
 10
326.5078870534014
 20
243.8797684233919
 30
0.0
 10
326.6011476674776
 20
245.9579117140197
 30
0.0
  0
MTEXT
  5
1FB
330
1F
100
AcDbEntity
  8
0
 62
     7
100
AcDbMText
 10
85.00000000000011
 20
85.0
 30
0.0
 40
8.75
 41
0.0
 71
     4
 72
     1
  1
JIS
  7
CONVERTER_12
 73
     1
 44
1.32052821128451
  0
MTEXT
  5
1FC
330
1F
100
AcDbEntity
  8
0
 62
     7
100
AcDbMText
 10
234.3750000000001
 20
42.5
 30
0.0
 40
8.75
 41
0.0
 71
     5
 72
     1
  1
2,5
  7
CONVERTER_12
 73
     1
 44
0.7202881152461
  0
MTEXT
  5
1FD
330
1F
100
AcDbEntity
  8
0
 62
     7
100
AcDbMText
 10
213.1250000000001
 20
42.5
 30
0.0
 40
8.75
 41
0.0
 71
     5
 72
     1
  1
1
  7
CONVERTER_12
 73
     1
 44
0.7202881152461
  0
MTEXT
  5
1FE
330
1F
100
AcDbEntity
  8
1
 62
     7
100
AcDbMText
 10
322.7155376719755
 20
278.7548504326452
 30
0.0
 40
12.5
 41
0.0
 71
     5
 72
     1
  1
止水
  7
CONVERTER_11
 73
     1
 44
0.54545454545455
  0
MTEXT
  5
1FF
330
1F
100
AcDbEntity
  8
1
 62
     7
100
AcDbMText
 10
311.0835997937786
 20
241.7157143596197
 30
0.0
 40
12.5
 41
0.0
 71
     5
 72
     1
  1
吐水
  7
CONVERTER_11
 73
     1
 44
0.54545454545455
  0
MTEXT
  5
200
330
1F
100
AcDbEntity
  8
0
 62
     7
100
AcDbMText
 10
142.5
 20
56.87500000000003
 30
0.0
 40
8.75
 41
0.0
 71
     5
 72
     1
  1
ミニセラ泡沫横形自在水栓
  7
CONVERTER_11
 73
     1
 44
1.0
  0
MTEXT
  5
201
330
1F
100
AcDbEntity
  8
0
 62
     7
100
AcDbMText
 10
142.5
 20
35.625
 30
0.0
 40
8.75
 41
0.0
 71
     5
 72
     1
  1
A205H-13
  7
CONVERTER_12
 73
     1
 44
1.32052821128451
  0
MTEXT
  5
202
330
1F
100
AcDbEntity
  8
0
 62
     7
100
AcDbMText
 10
447.202306493964
 20
269.18396530832
 30
0.0
 40
8.75
 41
0.0
 71
     5
 72
     1
  1
PJ1/2
  7
CONVERTER_12
 73
     1
 44
0.7202881152461
  0
MTEXT
  5
203
330
1F
100
AcDbEntity
  8
1
 62
     7
100
AcDbMText
 10
298.7155376719755
 20
261.7548504326452
 30
0.0
 40
8.75
 41
0.0
 71
     5
 72
     1
  1
90°
  7
CONVERTER_11
 73
     1
 44
0.54545454545455
  0
DIMENSION
  5
20E
330
1F
100
AcDbEntity
  8
0
100
AcDbDimension
  2
*D7
 10
410.5816104640444
 20
181.539895537192
 30
0.0
 11
387.8316104640444
 21
188.414895537192
 31
0.0
 70
    32
  1
46
 71
     5
 42
-1.0
 53
0.00013888888889
  3
ME10_DIM_10
100
AcDbAlignedDimension
 13
365.0816104640444
 23
201.5438588394557
 33
0.0
 14
410.5816104640443
 24
206.539895537192
 34
0.0
100
AcDbRotatedDimension
  0
DIMENSION
  5
219
330
1F
100
AcDbEntity
  8
0
100
AcDbDimension
  2
*D8
 10
449.5816104640444
 20
206.539895537192
 30
0.0
 11
442.7066104640444
 21
229.539895537192
 31
0.0
 70
    32
  1
<>
 71
     5
 42
-1.0
 53
90.0
  3
ME10_DIM_11
100
AcDbAlignedDimension
 13
410.5816104640443
 23
252.5398955371919
 33
0.0
 14
410.5816104640443
 24
206.539895537192
 34
0.0
 50
90.0
100
AcDbRotatedDimension
  0
DIMENSION
  5
226
330
1F
100
AcDbEntity
  8
0
100
AcDbDimension
  2
*D9
 10
424.5816104640444
 20
181.539895537192
 30
0.0
 11
417.5816104640444
 21
188.414895537192
 31
0.0
 70
    32
  1
<>
 71
     5
 42
-1.0
 53
0.00013888888889
  3
ME10_DIM_12
100
AcDbAlignedDimension
 13
410.5816104640443
 23
206.539895537192
 33
0.0
 14
424.5816104640443
 24
220.2198955371918
 34
0.0
100
AcDbRotatedDimension
  0
DIMENSION
  5
231
330
1F
100
AcDbEntity
  8
1
100
AcDbDimension
  2
*D10
 10
123.3905561454615
 20
181.539895537192
 30
0.0
 11
148.3032648192285
 21
188.414895537192
 31
0.0
 70
    32
  1
50
 71
     5
 42
-1.0
 53
0.00013888888889
  3
ME10_DIM_13
100
AcDbAlignedDimension
 13
173.2159734929955
 23
229.5398955371919
 33
0.0
 14
123.3905561454615
 24
201.5438588394557
 34
0.0
100
AcDbRotatedDimension
  0
DIMENSION
  5
23E
330
1F
100
AcDbEntity
  8
1
100
AcDbDimension
  2
*D11
 10
229.0816104640444
 20
247.4398955371918
 30
0.0
 11
222.2066104640444
 21
237.8958735852971
 31
0.0
 70
    32
  1
18
 71
     5
 42
-1.0
 53
90.0
  3
ME10_DIM_14
100
AcDbAlignedDimension
 13
327.0837869146726
 23
229.5398955371918
 33
0.0
 14
205.7374529667485
 24
247.4398955371917
 34
0.0
 50
90.0
100
AcDbRotatedDimension
  0
DIMENSION
  5
249
330
1F
100
AcDbEntity
  8
1
100
AcDbDimension
  2
*D12
 10
195.0816104640444
 20
181.539895537192
 30
0.0
 11
282.931292429396
 21
188.414895537192
 31
0.0
 70
    32
  1
<>
 71
     5
 42
-1.0
 53
0.00013888888889
  3
ME10_DIM_15
100
AcDbAlignedDimension
 13
365.0816104640444
 23
201.5438588394557
 33
0.0
 14
195.0816104640444
 24
246.5385128397671
 34
0.0
100
AcDbRotatedDimension
  0
DIMENSION
  5
254
330
1F
100
AcDbEntity
  8
1
100
AcDbDimension
  2
*D13
 10
254.0816104640445
 20
305.5398955371918
 30
0.0
 11
247.2066104640445
 21
263.5398955371921
 31
0.0
 70
    32
  1
<>
 71
     5
 42
-1.0
 53
90.0
  3
ME10_DIM_16
100
AcDbAlignedDimension
 13
327.0837869146726
 23
229.5398955371918
 33
0.0
 14
220.0816104640435
 24
305.5398955371917
 34
0.0
 50
90.0
100
AcDbRotatedDimension
  0
ENDSEC
  0
SECTION
  2
OBJECTS
  0
DICTIONARY
  5
C
330
0
100
AcDbDictionary
281
     1
  3
ACAD_GROUP
350
D
  3
ACAD_LAYOUT
350
1A
  3
ACAD_MATERIAL
350
3B
  3
ACAD_MLEADERSTYLE
350
257
  3
ACAD_MLINESTYLE
350
17
  3
ACAD_PLOTSETTINGS
350
19
  3
ACAD_PLOTSTYLENAME
350
E
  3
ACAD_VISUALSTYLE
350
2A
  3
AcDbVariableDictionary
350
255
  0
DICTIONARY
  5
D
102
{ACAD_REACTORS
330
C
102
}
330
C
100
AcDbDictionary
281
     1
  0
DICTIONARY
  5
1A
102
{ACAD_REACTORS
330
C
102
}
330
C
100
AcDbDictionary
281
     1
  3
Layout1
350
1E
  3
Layout2
350
26
  3
Model
350
22
  0
DICTIONARY
  5
3B
102
{ACAD_REACTORS
330
C
102
}
330
C
100
AcDbDictionary
281
     1
  3
ByBlock
350
3D
  3
ByLayer
350
3C
  3
Global
350
3E
  0
DICTIONARY
  5
257
102
{ACAD_REACTORS
330
C
102
}
330
C
100
AcDbDictionary
281
     1
  0
DICTIONARY
  5
17
102
{ACAD_REACTORS
330
C
102
}
330
C
100
AcDbDictionary
281
     1
  3
Standard
350
18
  0
DICTIONARY
  5
19
102
{ACAD_REACTORS
330
C
102
}
330
C
100
AcDbDictionary
281
     1
  0
ACDBDICTIONARYWDFLT
  5
E
102
{ACAD_REACTORS
330
C
102
}
330
C
100
AcDbDictionary
281
     1
  3
Normal
350
F
100
AcDbDictionaryWithDefault
340
F
  0
DICTIONARY
  5
2A
102
{ACAD_REACTORS
330
C
102
}
330
C
100
AcDbDictionary
281
     1
  3
2dWireframe
350
2F
  3
3D Hidden
350
31
  3
3dWireframe
350
30
  3
Basic
350
32
  3
Brighten
350
36
  3
ColorChange
350
3A
  3
Conceptual
350
34
  3
Dim
350
35
  3
Facepattern
350
39
  3
Flat
350
2B
  3
FlatWithEdges
350
2C
  3
Gouraud
350
2D
  3
GouraudWithEdges
350
2E
  3
Linepattern
350
38
  3
Realistic
350
33
  3
Thicken
350
37
  0
DICTIONARY
  5
255
102
{ACAD_REACTORS
330
C
102
}
330
C
100
AcDbDictionary
281
     1
  3
DIMASSOC
350
258
  3
HIDETEXT
350
259
  0
LAYOUT
  5
1E
102
{ACAD_REACTORS
330
1A
102
}
330
1A
100
AcDbPlotSettings
  1

  2
none_device
  4

  6

 40
0.0
 41
0.0
 42
0.0
 43
0.0
 44
0.0
 45
0.0
 46
0.0
 47
0.0
 48
0.0
 49
0.0
140
0.0
141
0.0
142
1.0
143
1.0
 70
   688
 72
     0
 73
     0
 74
     5
  7

 75
    16
147
1.0
148
0.0
149
0.0
100
AcDbLayout
  1
Layout1
 70
     1
 71
     1
 10
0.0
 20
0.0
 11
12.0
 21
9.0
 12
0.0
 22
0.0
 32
0.0
 14
1.00000000000000E+20
 24
1.00000000000000E+20
 34
1.00000000000000E+20
 15
-1.00000000000000E+20
 25
-1.00000000000000E+20
 35
-1.00000000000000E+20
146
0.0
 13
0.0
 23
0.0
 33
0.0
 16
1.0
 26
0.0
 36
0.0
 17
0.0
 27
1.0
 37
0.0
 76
     0
330
1B
  0
LAYOUT
  5
26
102
{ACAD_REACTORS
330
1A
102
}
330
1A
100
AcDbPlotSettings
  1

  2
none_device
  4

  6

 40
0.0
 41
0.0
 42
0.0
 43
0.0
 44
0.0
 45
0.0
 46
0.0
 47
0.0
 48
0.0
 49
0.0
140
0.0
141
0.0
142
1.0
143
1.0
 70
   688
 72
     0
 73
     0
 74
     5
  7

 75
    16
147
1.0
148
0.0
149
0.0
100
AcDbLayout
  1
Layout2
 70
     1
 71
     2
 10
0.0
 20
0.0
 11
0.0
 21
0.0
 12
0.0
 22
0.0
 32
0.0
 14
0.0
 24
0.0
 34
0.0
 15
0.0
 25
0.0
 35
0.0
146
0.0
 13
0.0
 23
0.0
 33
0.0
 16
1.0
 26
0.0
 36
0.0
 17
0.0
 27
1.0
 37
0.0
 76
     0
330
23
  0
LAYOUT
  5
22
102
{ACAD_REACTORS
330
1A
102
}
330
1A
100
AcDbPlotSettings
  1

  2
none_device
  4

  6

 40
0.0
 41
0.0
 42
0.0
 43
0.0
 44
0.0
 45
0.0
 46
0.0
 47
0.0
 48
0.0
 49
0.0
140
0.0
141
0.0
142
1.0
143
1.0
 70
  1712
 72
     0
 73
     0
 74
     0
  7

 75
     0
147
1.0
148
0.0
149
0.0
100
AcDbLayout
  1
Model
 70
     1
 71
     0
 10
0.0
 20
0.0
 11
12.0
 21
9.0
 12
0.0
 22
0.0
 32
0.0
 14
0.0
 24
0.0
 34
0.0
 15
525.0
 25
742.5
 35
0.0
146
0.0
 13
0.0
 23
0.0
 33
0.0
 16
1.0
 26
0.0
 36
0.0
 17
0.0
 27
1.0
 37
0.0
 76
     0
330
1F
331
29
  0
MATERIAL
  5
3D
102
{ACAD_REACTORS
330
3B
102
}
102
{ACAD_XDICTIONARY
360
27C
102
}
330
3B
100
AcDbMaterial
  1
ByBlock
  0
MATERIAL
  5
3C
102
{ACAD_REACTORS
330
3B
102
}
102
{ACAD_XDICTIONARY
360
27A
102
}
330
3B
100
AcDbMaterial
  1
ByLayer
  0
MATERIAL
  5
3E
102
{ACAD_REACTORS
330
3B
102
}
102
{ACAD_XDICTIONARY
360
27E
102
}
330
3B
100
AcDbMaterial
  1
Global
  0
MLINESTYLE
  5
18
102
{ACAD_REACTORS
330
17
102
}
330
17
100
AcDbMlineStyle
  2
Standard
 70
     0
  3

 62
   256
 51
90.0
 52
90.0
 71
     2
 49
0.5
 62
   256
  6
BYLAYER
 49
-0.5
 62
   256
  6
BYLAYER
  0
ACDBPLACEHOLDER
  5
F
102
{ACAD_REACTORS
330
E
102
}
330
E
  0
VISUALSTYLE
  5
2F
102
{ACAD_REACTORS
330
2A
102
}
102
{ACAD_XDICTIONARY
360
262
102
}
330
2A
100
AcDbVisualStyle
  2
2dWireframe
 70
     4
 71
     0
 72
     2
 73
     0
 90
        0
 40
-0.6
 41
-30.0
 62
     5
 63
     7
 74
     1
 91
        4
 64
     7
 65
   257
 75
     1
175
     1
 42
1.0
 92
        0
 66
   257
 43
1.0
 76
     1
 77
     6
 78
     2
 67
     7
 79
     5
170
     0
171
     0
290
     0
174
     0
 93
        1
 44
0.0
173
     0
291
     0
 45
0.0
1001
ACAD
1000
AcDbSavedByObjectVersion
1070
     0
  0
VISUALSTYLE
  5
31
102
{ACAD_REACTORS
330
2A
102
}
102
{ACAD_XDICTIONARY
360
266
102
}
330
2A
100
AcDbVisualStyle
  2
3D Hidden
 70
     6
 71
     1
 72
     2
 73
     2
 90
        0
 40
-0.6
 41
-30.0
 62
     5
 63
     7
 74
     2
 91
        2
 64
     7
 65
   257
 75
     2
175
     1
 42
40.0
 92
        0
 66
   257
 43
1.0
 76
     1
 77
     6
 78
     2
 67
     7
 79
     3
170
     0
171
     0
290
     0
174
     0
 93
        1
 44
0.0
173
     0
291
     0
 45
0.0
1001
ACAD
1000
AcDbSavedByObjectVersion
1070
     0
  0
VISUALSTYLE
  5
30
102
{ACAD_REACTORS
330
2A
102
}
102
{ACAD_XDICTIONARY
360
264
102
}
330
2A
100
AcDbVisualStyle
  2
3dWireframe
 70
     5
 71
     0
 72
     2
 73
     0
 90
        0
 40
-0.6
 41
-30.0
 62
     5
 63
     7
 74
     1
 91
        4
 64
     7
 65
   257
 75
     1
175
     1
 42
1.0
 92
        0
 66
   257
 43
1.0
 76
     1
 77
     6
 78
     2
 67
     7
 79
     5
170
     0
171
     0
290
     0
174
     0
 93
        1
 44
0.0
173
     0
291
     0
 45
0.0
1001
ACAD
1000
AcDbSavedByObjectVersion
1070
     0
  0
VISUALSTYLE
  5
32
102
{ACAD_REACTORS
330
2A
102
}
102
{ACAD_XDICTIONARY
360
268
102
}
330
2A
100
AcDbVisualStyle
  2
Basic
 70
     7
 71
     1
 72
     0
 73
     1
 90
        0
 40
-0.6
 41
-30.0
 62
     5
 63
     7
 74
     0
 91
        4
 64
     7
 65
   257
 75
     1
175
     1
 42
1.0
 92
        8
 66
     7
 43
1.0
 76
     1
 77
     6
 78
     2
 67
     7
 79
     5
170
     0
171
     0
290
     0
174
     0
 93
        1
 44
0.0
173
     0
291
     1
 45
0.0
1001
ACAD
1000
AcDbSavedByObjectVersion
1070
     0
  0
VISUALSTYLE
  5
36
102
{ACAD_REACTORS
330
2A
102
}
102
{ACAD_XDICTIONARY
360
270
102
}
330
2A
100
AcDbVisualStyle
  2
Brighten
 70
    12
 71
     2
 72
     2
 73
     0
 90
        0
 40
-0.6
 41
-30.0
 62
     5
 63
     7
 74
     1
 91
        4
 64
     7
 65
   257
 75
     1
175
     1
 42
1.0
 92
        8
 66
     7
 43
1.0
 76
     1
 77
     6
 78
     2
 67
     7
 79
     5
170
     0
171
     0
290
     0
174
     0
 93
        1
 44
50.0
173
     0
291
     1
 45
0.0
1001
ACAD
1000
AcDbSavedByObjectVersion
1070
     0
  0
VISUALSTYLE
  5
3A
102
{ACAD_REACTORS
330
2A
102
}
102
{ACAD_XDICTIONARY
360
278
102
}
330
2A
100
AcDbVisualStyle
  2
ColorChange
 70
    16
 71
     2
 72
     2
 73
     3
 90
        0
 40
-0.6
 41
-30.0
 62
     5
 63
     8
 74
     1
 91
        4
 64
     7
 65
   257
 75
     1
175
     1
 42
1.0
 92
        8
 66
     8
 43
1.0
 76
     1
 77
     6
 78
     2
 67
     7
 79
     5
170
     0
171
     0
290
     0
174
     0
 93
        1
 44
0.0
173
     0
291
     1
 45
0.0
1001
ACAD
1000
AcDbSavedByObjectVersion
1070
     0
  0
VISUALSTYLE
  5
34
102
{ACAD_REACTORS
330
2A
102
}
102
{ACAD_XDICTIONARY
360
26C
102
}
330
2A
100
AcDbVisualStyle
  2
Conceptual
 70
     9
 71
     3
 72
     2
 73
     0
 90
        0
 40
-0.6
 41
-30.0
 62
     5
 63
     7
 74
     2
 91
        2
 64
     7
 65
   257
 75
     1
175
     1
 42
40.0
 92
        8
 66
     7
 43
1.0
 76
     1
 77
     6
 78
     2
 67
     7
 79
     3
170
     0
171
     0
290
     0
174
     0
 93
        1
 44
0.0
173
     0
291
     0
 45
0.0
1001
ACAD
1000
AcDbSavedByObjectVersion
1070
     0
  0
VISUALSTYLE
  5
35
102
{ACAD_REACTORS
330
2A
102
}
102
{ACAD_XDICTIONARY
360
26E
102
}
330
2A
100
AcDbVisualStyle
  2
Dim
 70
    11
 71
     2
 72
     2
 73
     0
 90
        0
 40
-0.6
 41
-30.0
 62
     5
 63
     7
 74
     1
 91
        4
 64
     7
 65
   257
 75
     1
175
     1
 42
1.0
 92
        8
 66
     7
 43
1.0
 76
     1
 77
     6
 78
     2
 67
     7
 79
     5
170
     0
171
     0
290
     0
174
     0
 93
        1
 44
-50.0
173
     0
291
     1
 45
0.0
1001
ACAD
1000
AcDbSavedByObjectVersion
1070
     0
  0
VISUALSTYLE
  5
39
102
{ACAD_REACTORS
330
2A
102
}
102
{ACAD_XDICTIONARY
360
276
102
}
330
2A
100
AcDbVisualStyle
  2
Facepattern
 70
    15
 71
     2
 72
     2
 73
     0
 90
        0
 40
-0.6
 41
-30.0
 62
     5
 63
     7
 74
     1
 91
        4
 64
     7
 65
   257
 75
     1
175
     1
 42
1.0
 92
        8
 66
     7
 43
1.0
 76
     1
 77
     6
 78
     2
 67
     7
 79
     5
170
     0
171
     0
290
     0
174
     0
 93
        1
 44
0.0
173
     0
291
     1
 45
0.0
1001
ACAD
1000
AcDbSavedByObjectVersion
1070
     0
  0
VISUALSTYLE
  5
2B
102
{ACAD_REACTORS
330
2A
102
}
102
{ACAD_XDICTIONARY
360
25A
102
}
330
2A
100
AcDbVisualStyle
  2
Flat
 70
     0
 71
     2
 72
     1
 73
     1
 90
        2
 40
-0.6
 41
30.0
 62
     5
 63
     7
 74
     0
 91
        4
 64
     7
 65
   257
 75
     1
175
     1
 42
1.0
 92
        8
 66
     7
 43
1.0
 76
     1
 77
     6
 78
     2
 67
     7
 79
     5
170
     0
171
     0
290
     0
174
     0
 93
       13
 44
0.0
173
     0
291
     1
 45
0.0
1001
ACAD
1000
AcDbSavedByObjectVersion
1070
     0
  0
VISUALSTYLE
  5
2C
102
{ACAD_REACTORS
330
2A
102
}
102
{ACAD_XDICTIONARY
360
25C
102
}
330
2A
100
AcDbVisualStyle
  2
FlatWithEdges
 70
     1
 71
     2
 72
     1
 73
     1
 90
        2
 40
-0.6
 41
30.0
 62
     5
 63
     7
 74
     1
 91
        4
 64
     7
 65
   257
 75
     1
175
     1
 42
1.0
 92
        0
 66
   257
 43
1.0
 76
     1
 77
     6
 78
     2
 67
     7
 79
     5
170
     0
171
     0
290
     0
174
     0
 93
       13
 44
0.0
173
     0
291
     1
 45
0.0
1001
ACAD
1000
AcDbSavedByObjectVersion
1070
     0
  0
VISUALSTYLE
  5
2D
102
{ACAD_REACTORS
330
2A
102
}
102
{ACAD_XDICTIONARY
360
25E
102
}
330
2A
100
AcDbVisualStyle
  2
Gouraud
 70
     2
 71
     2
 72
     2
 73
     1
 90
        2
 40
-0.6
 41
30.0
 62
     5
 63
     7
 74
     0
 91
        4
 64
     7
 65
   257
 75
     1
175
     1
 42
1.0
 92
        0
 66
     7
 43
1.0
 76
     1
 77
     6
 78
     2
 67
     7
 79
     5
170
     0
171
     0
290
     0
174
     0
 93
       13
 44
0.0
173
     0
291
     1
 45
0.0
1001
ACAD
1000
AcDbSavedByObjectVersion
1070
     0
  0
VISUALSTYLE
  5
2E
102
{ACAD_REACTORS
330
2A
102
}
102
{ACAD_XDICTIONARY
360
260
102
}
330
2A
100
AcDbVisualStyle
  2
GouraudWithEdges
 70
     3
 71
     2
 72
     2
 73
     1
 90
        2
 40
-0.6
 41
30.0
 62
     5
 63
     7
 74
     1
 91
        4
 64
     7
 65
   257
 75
     1
175
     1
 42
1.0
 92
        0
 66
   257
 43
1.0
 76
     1
 77
     6
 78
     2
 67
     7
 79
     5
170
     0
171
     0
290
     0
174
     0
 93
       13
 44
0.0
173
     0
291
     1
 45
0.0
1001
ACAD
1000
AcDbSavedByObjectVersion
1070
     0
  0
VISUALSTYLE
  5
38
102
{ACAD_REACTORS
330
2A
102
}
102
{ACAD_XDICTIONARY
360
274
102
}
330
2A
100
AcDbVisualStyle
  2
Linepattern
 70
    14
 71
     2
 72
     2
 73
     0
 90
        0
 40
-0.6
 41
-30.0
 62
     5
 63
     7
 74
     1
 91
        4
 64
     7
 65
   257
 75
     7
175
     7
 42
1.0
 92
        8
 66
     7
 43
1.0
 76
     1
 77
     6
 78
     2
 67
     7
 79
     5
170
     0
171
     0
290
     0
174
     0
 93
        1
 44
0.0
173
     0
291
     1
 45
0.0
1001
ACAD
1000
AcDbSavedByObjectVersion
1070
     0
  0
VISUALSTYLE
  5
33
102
{ACAD_REACTORS
330
2A
102
}
102
{ACAD_XDICTIONARY
360
26A
102
}
330
2A
100
AcDbVisualStyle
  2
Realistic
 70
     8
 71
     2
 72
     2
 73
     0
 90
        0
 40
-0.6
 41
-30.0
 62
     5
 63
     7
 74
     1
 91
        0
 64
     7
 65
   257
 75
     1
175
     1
 42
1.0
 92
        8
 66
     8
 43
1.0
 76
     1
 77
     6
 78
     2
 67
     7
 79
     5
170
     0
171
     0
290
     0
174
     0
 93
       13
 44
0.0
173
     0
291
     0
 45
0.0
1001
ACAD
1000
AcDbSavedByObjectVersion
1070
     0
  0
VISUALSTYLE
  5
37
102
{ACAD_REACTORS
330
2A
102
}
102
{ACAD_XDICTIONARY
360
272
102
}
330
2A
100
AcDbVisualStyle
  2
Thicken
 70
    13
 71
     2
 72
     2
 73
     0
 90
        0
 40
-0.6
 41
-30.0
 62
     5
 63
     7
 74
     1
 91
        4
 64
     7
 65
   257
 75
     1
175
     1
 42
1.0
 92
       12
 66
     7
 43
1.0
 76
     1
 77
     6
 78
     2
 67
     7
 79
     5
170
     0
171
     0
290
     0
174
     0
 93
        1
 44
0.0
173
     0
291
     1
 45
0.0
1001
ACAD
1000
AcDbSavedByObjectVersion
1070
     0
  0
DICTIONARYVAR
  5
258
102
{ACAD_REACTORS
330
255
102
}
330
255
100
DictionaryVariables
280
     0
  1
2
  0
DICTIONARYVAR
  5
259
102
{ACAD_REACTORS
330
255
102
}
330
255
100
DictionaryVariables
280
     0
  1
1
  0
DICTIONARY
  5
27C
330
3D
100
AcDbDictionary
280
     1
281
     1
  3
ACAD_XREC_ROUNDTRIP
360
27D
  0
DICTIONARY
  5
27A
330
3C
100
AcDbDictionary
280
     1
281
     1
  3
ACAD_XREC_ROUNDTRIP
360
27B
  0
DICTIONARY
  5
27E
330
3E
100
AcDbDictionary
280
     1
281
     1
  3
ACAD_XREC_ROUNDTRIP
360
27F
  0
DICTIONARY
  5
262
330
2F
100
AcDbDictionary
280
     1
281
     1
  3
ACAD_XREC_ROUNDTRIP
360
263
  0
DICTIONARY
  5
266
330
31
100
AcDbDictionary
280
     1
281
     1
  3
ACAD_XREC_ROUNDTRIP
360
267
  0
DICTIONARY
  5
264
330
30
100
AcDbDictionary
280
     1
281
     1
  3
ACAD_XREC_ROUNDTRIP
360
265
  0
DICTIONARY
  5
268
330
32
100
AcDbDictionary
280
     1
281
     1
  3
ACAD_XREC_ROUNDTRIP
360
269
  0
DICTIONARY
  5
270
330
36
100
AcDbDictionary
280
     1
281
     1
  3
ACAD_XREC_ROUNDTRIP
360
271
  0
DICTIONARY
  5
278
330
3A
100
AcDbDictionary
280
     1
281
     1
  3
ACAD_XREC_ROUNDTRIP
360
279
  0
DICTIONARY
  5
26C
330
34
100
AcDbDictionary
280
     1
281
     1
  3
ACAD_XREC_ROUNDTRIP
360
26D
  0
DICTIONARY
  5
26E
330
35
100
AcDbDictionary
280
     1
281
     1
  3
ACAD_XREC_ROUNDTRIP
360
26F
  0
DICTIONARY
  5
276
330
39
100
AcDbDictionary
280
     1
281
     1
  3
ACAD_XREC_ROUNDTRIP
360
277
  0
DICTIONARY
  5
25A
330
2B
100
AcDbDictionary
280
     1
281
     1
  3
ACAD_XREC_ROUNDTRIP
360
25B
  0
DICTIONARY
  5
25C
330
2C
100
AcDbDictionary
280
     1
281
     1
  3
ACAD_XREC_ROUNDTRIP
360
25D
  0
DICTIONARY
  5
25E
330
2D
100
AcDbDictionary
280
     1
281
     1
  3
ACAD_XREC_ROUNDTRIP
360
25F
  0
DICTIONARY
  5
260
330
2E
100
AcDbDictionary
280
     1
281
     1
  3
ACAD_XREC_ROUNDTRIP
360
261
  0
DICTIONARY
  5
274
330
38
100
AcDbDictionary
280
     1
281
     1
  3
ACAD_XREC_ROUNDTRIP
360
275
  0
DICTIONARY
  5
26A
330
33
100
AcDbDictionary
280
     1
281
     1
  3
ACAD_XREC_ROUNDTRIP
360
26B
  0
DICTIONARY
  5
272
330
37
100
AcDbDictionary
280
     1
281
     1
  3
ACAD_XREC_ROUNDTRIP
360
273
  0
XRECORD
  5
27D
102
{ACAD_REACTORS
330
27C
102
}
330
27C
100
AcDbXrecord
280
     1
102
MATERIAL
148
0.0
149
0.0
149
0.0
 93
        0
 94
      127
282
     0
 72
     1
 77
     1
171
     1
175
     1
179
     1
273
     0
  0
XRECORD
  5
27B
102
{ACAD_REACTORS
330
27A
102
}
330
27A
100
AcDbXrecord
280
     1
102
MATERIAL
148
0.0
149
0.0
149
0.0
 93
        0
 94
      127
282
     0
 72
     1
 77
     1
171
     1
175
     1
179
     1
273
     0
  0
XRECORD
  5
27F
102
{ACAD_REACTORS
330
27E
102
}
330
27E
100
AcDbXrecord
280
     1
102
MATERIAL
148
0.0
149
0.0
149
0.0
 93
        0
 94
      127
282
     0
 72
     1
 77
     1
171
     1
175
     1
179
     1
273
     0
  0
XRECORD
  5
263
102
{ACAD_REACTORS
330
262
102
}
330
262
100
AcDbXrecord
280
     1
102
RTVSPropertyOp0
 70
     1
102
RTVSPropertyOp1
 70
     1
102
RTVSPropertyOp2
 70
     1
102
RTVSPropertyOp3
 70
     1
102
RTVSPropertyOp4
 70
     1
102
RTVSPropertyOp5
 70
     1
102
RTVSPropertyOp6
 70
     1
102
RTVSPropertyOp7
 70
     1
102
RTVSPropertyOp8
 70
     1
102
RTVSPropertyOp9
 70
     1
102
RTVSPropertyOp10
 70
     1
102
RTVSPropertyOp11
 70
     1
102
RTVSPropertyOp12
 70
     1
102
RTVSPropertyOp13
 70
     1
102
RTVSPropertyOp14
 70
     1
102
RTVSPropertyOp15
 70
     1
102
RTVSPropertyOp16
 70
     1
102
RTVSPropertyOp17
 70
     1
102
RTVSPropertyOp18
 70
     1
102
RTVSPropertyOp19
 70
     1
102
RTVSPropertyOp20
 70
     1
102
RTVSPropertyOp21
 70
     1
102
RTVSPropertyOp22
 70
     1
102
RTVSPropertyOp23
 70
     1
102
RTVSPropertyOp24
 70
     1
102
RTVSPropertyOp25
 70
     1
102
RTVSPropertyOp26
 70
     1
102
RTVSPropertyOp27
 70
     1
102
RTVSPropertyOp28
 70
     1
102
RTVSPropertyOp29
 70
     1
102
RTVSPropertyOp30
 70
     1
102
RTVSPropertyOp31
 70
     1
102
RTVSPropertyOp32
 70
     1
  0
XRECORD
  5
267
102
{ACAD_REACTORS
330
266
102
}
330
266
100
AcDbXrecord
280
     1
102
RTVSPropertyOp0
 70
     1
102
RTVSPropertyOp1
 70
     1
102
RTVSPropertyOp2
 70
     1
102
RTVSPropertyOp3
 70
     1
102
RTVSPropertyOp4
 70
     1
102
RTVSPropertyOp5
 70
     1
102
RTVSPropertyOp6
 70
     1
102
RTVSPropertyOp7
 70
     1
102
RTVSPropertyOp8
 70
     1
102
RTVSPropertyOp9
 70
     1
102
RTVSPropertyOp10
 70
     1
102
RTVSPropertyOp11
 70
     1
102
RTVSPropertyOp12
 70
     1
102
RTVSPropertyOp13
 70
     1
102
RTVSPropertyOp14
 70
     1
102
RTVSPropertyOp15
 70
     1
102
RTVSPropertyOp16
 70
     1
102
RTVSPropertyOp17
 70
     1
102
RTVSPropertyOp18
 70
     1
102
RTVSPropertyOp19
 70
     1
102
RTVSPropertyOp20
 70
     1
102
RTVSPropertyOp21
 70
     1
102
RTVSPropertyOp22
 70
     1
102
RTVSPropertyOp23
 70
     1
102
RTVSPropertyOp24
 70
     1
102
RTVSPropertyOp25
 70
     1
102
RTVSPropertyOp26
 70
     1
102
RTVSPropertyOp27
 70
     1
102
RTVSPropertyOp28
 70
     1
102
RTVSPropertyOp29
 70
     1
102
RTVSPropertyOp30
 70
     1
102
RTVSPropertyOp31
 70
     1
102
RTVSPropertyOp32
 70
     1
  0
XRECORD
  5
265
102
{ACAD_REACTORS
330
264
102
}
330
264
100
AcDbXrecord
280
     1
102
RTVSPropertyOp0
 70
     1
102
RTVSPropertyOp1
 70
     1
102
RTVSPropertyOp2
 70
     1
102
RTVSPropertyOp3
 70
     1
102
RTVSPropertyOp4
 70
     1
102
RTVSPropertyOp5
 70
     1
102
RTVSPropertyOp6
 70
     1
102
RTVSPropertyOp7
 70
     1
102
RTVSPropertyOp8
 70
     1
102
RTVSPropertyOp9
 70
     1
102
RTVSPropertyOp10
 70
     1
102
RTVSPropertyOp11
 70
     1
102
RTVSPropertyOp12
 70
     1
102
RTVSPropertyOp13
 70
     1
102
RTVSPropertyOp14
 70
     1
102
RTVSPropertyOp15
 70
     1
102
RTVSPropertyOp16
 70
     1
102
RTVSPropertyOp17
 70
     1
102
RTVSPropertyOp18
 70
     1
102
RTVSPropertyOp19
 70
     1
102
RTVSPropertyOp20
 70
     1
102
RTVSPropertyOp21
 70
     1
102
RTVSPropertyOp22
 70
     1
102
RTVSPropertyOp23
 70
     1
102
RTVSPropertyOp24
 70
     1
102
RTVSPropertyOp25
 70
     1
102
RTVSPropertyOp26
 70
     1
102
RTVSPropertyOp27
 70
     1
102
RTVSPropertyOp28
 70
     1
102
RTVSPropertyOp29
 70
     1
102
RTVSPropertyOp30
 70
     1
102
RTVSPropertyOp31
 70
     1
102
RTVSPropertyOp32
 70
     1
  0
XRECORD
  5
269
102
{ACAD_REACTORS
330
268
102
}
330
268
100
AcDbXrecord
280
     1
102
RTVSPropertyOp0
 70
     1
102
RTVSPropertyOp1
 70
     1
102
RTVSPropertyOp2
 70
     1
102
RTVSPropertyOp3
 70
     1
102
RTVSPropertyOp4
 70
     1
102
RTVSPropertyOp5
 70
     1
102
RTVSPropertyOp6
 70
     1
102
RTVSPropertyOp7
 70
     1
102
RTVSPropertyOp8
 70
     1
102
RTVSPropertyOp9
 70
     1
102
RTVSPropertyOp10
 70
     1
102
RTVSPropertyOp11
 70
     1
102
RTVSPropertyOp12
 70
     1
102
RTVSPropertyOp13
 70
     1
102
RTVSPropertyOp14
 70
     1
102
RTVSPropertyOp15
 70
     1
102
RTVSPropertyOp16
 70
     1
102
RTVSPropertyOp17
 70
     1
102
RTVSPropertyOp18
 70
     1
102
RTVSPropertyOp19
 70
     1
102
RTVSPropertyOp20
 70
     1
102
RTVSPropertyOp21
 70
     1
102
RTVSPropertyOp22
 70
     1
102
RTVSPropertyOp23
 70
     1
102
RTVSPropertyOp24
 70
     1
102
RTVSPropertyOp25
 70
     1
102
RTVSPropertyOp26
 70
     1
102
RTVSPropertyOp27
 70
     1
102
RTVSPropertyOp28
 70
     1
102
RTVSPropertyOp29
 70
     1
102
RTVSPropertyOp30
 70
     1
102
RTVSPropertyOp31
 70
     1
102
RTVSPropertyOp32
 70
     1
  0
XRECORD
  5
271
102
{ACAD_REACTORS
330
270
102
}
330
270
100
AcDbXrecord
280
     1
102
RTVSPropertyOp0
 70
     1
102
RTVSPropertyOp1
 70
     1
102
RTVSPropertyOp2
 70
     1
102
RTVSPropertyOp3
 70
     1
102
RTVSPropertyOp4
 70
     1
102
RTVSPropertyOp5
 70
     1
102
RTVSPropertyOp6
 70
     1
102
RTVSPropertyOp7
 70
     1
102
RTVSPropertyOp8
 70
     1
102
RTVSPropertyOp9
 70
     1
102
RTVSPropertyOp10
 70
     1
102
RTVSPropertyOp11
 70
     1
102
RTVSPropertyOp12
 70
     1
102
RTVSPropertyOp13
 70
     1
102
RTVSPropertyOp14
 70
     1
102
RTVSPropertyOp15
 70
     1
102
RTVSPropertyOp16
 70
     1
102
RTVSPropertyOp17
 70
     1
102
RTVSPropertyOp18
 70
     1
102
RTVSPropertyOp19
 70
     1
102
RTVSPropertyOp20
 70
     1
102
RTVSPropertyOp21
 70
     1
102
RTVSPropertyOp22
 70
     1
102
RTVSPropertyOp23
 70
     1
102
RTVSPropertyOp24
 70
     1
102
RTVSPropertyOp25
 70
     1
102
RTVSPropertyOp26
 70
     1
102
RTVSPropertyOp27
 70
     1
102
RTVSPropertyOp28
 70
     1
102
RTVSPropertyOp29
 70
     1
102
RTVSPropertyOp30
 70
     1
102
RTVSPropertyOp31
 70
     1
102
RTVSPropertyOp32
 70
     1
  0
XRECORD
  5
279
102
{ACAD_REACTORS
330
278
102
}
330
278
100
AcDbXrecord
280
     1
102
RTVSPropertyOp0
 70
     1
102
RTVSPropertyOp1
 70
     1
102
RTVSPropertyOp2
 70
     1
102
RTVSPropertyOp3
 70
     1
102
RTVSPropertyOp4
 70
     1
102
RTVSPropertyOp5
 70
     1
102
RTVSPropertyOp6
 70
     1
102
RTVSPropertyOp7
 70
     1
102
RTVSPropertyOp8
 70
     1
102
RTVSPropertyOp9
 70
     1
102
RTVSPropertyOp10
 70
     1
102
RTVSPropertyOp11
 70
     1
102
RTVSPropertyOp12
 70
     1
102
RTVSPropertyOp13
 70
     1
102
RTVSPropertyOp14
 70
     1
102
RTVSPropertyOp15
 70
     1
102
RTVSPropertyOp16
 70
     1
102
RTVSPropertyOp17
 70
     1
102
RTVSPropertyOp18
 70
     1
102
RTVSPropertyOp19
 70
     1
102
RTVSPropertyOp20
 70
     1
102
RTVSPropertyOp21
 70
     1
102
RTVSPropertyOp22
 70
     1
102
RTVSPropertyOp23
 70
     1
102
RTVSPropertyOp24
 70
     1
102
RTVSPropertyOp25
 70
     1
102
RTVSPropertyOp26
 70
     1
102
RTVSPropertyOp27
 70
     1
102
RTVSPropertyOp28
 70
     1
102
RTVSPropertyOp29
 70
     1
102
RTVSPropertyOp30
 70
     1
102
RTVSPropertyOp31
 70
     1
102
RTVSPropertyOp32
 70
     1
  0
XRECORD
  5
26D
102
{ACAD_REACTORS
330
26C
102
}
330
26C
100
AcDbXrecord
280
     1
102
RTVSPropertyOp0
 70
     1
102
RTVSPropertyOp1
 70
     1
102
RTVSPropertyOp2
 70
     1
102
RTVSPropertyOp3
 70
     1
102
RTVSPropertyOp4
 70
     1
102
RTVSPropertyOp5
 70
     1
102
RTVSPropertyOp6
 70
     1
102
RTVSPropertyOp7
 70
     1
102
RTVSPropertyOp8
 70
     1
102
RTVSPropertyOp9
 70
     1
102
RTVSPropertyOp10
 70
     1
102
RTVSPropertyOp11
 70
     1
102
RTVSPropertyOp12
 70
     1
102
RTVSPropertyOp13
 70
     1
102
RTVSPropertyOp14
 70
     1
102
RTVSPropertyOp15
 70
     1
102
RTVSPropertyOp16
 70
     1
102
RTVSPropertyOp17
 70
     1
102
RTVSPropertyOp18
 70
     1
102
RTVSPropertyOp19
 70
     1
102
RTVSPropertyOp20
 70
     1
102
RTVSPropertyOp21
 70
     1
102
RTVSPropertyOp22
 70
     1
102
RTVSPropertyOp23
 70
     1
102
RTVSPropertyOp24
 70
     1
102
RTVSPropertyOp25
 70
     1
102
RTVSPropertyOp26
 70
     1
102
RTVSPropertyOp27
 70
     1
102
RTVSPropertyOp28
 70
     1
102
RTVSPropertyOp29
 70
     1
102
RTVSPropertyOp30
 70
     1
102
RTVSPropertyOp31
 70
     1
102
RTVSPropertyOp32
 70
     1
  0
XRECORD
  5
26F
102
{ACAD_REACTORS
330
26E
102
}
330
26E
100
AcDbXrecord
280
     1
102
RTVSPropertyOp0
 70
     1
102
RTVSPropertyOp1
 70
     1
102
RTVSPropertyOp2
 70
     1
102
RTVSPropertyOp3
 70
     1
102
RTVSPropertyOp4
 70
     1
102
RTVSPropertyOp5
 70
     1
102
RTVSPropertyOp6
 70
     1
102
RTVSPropertyOp7
 70
     1
102
RTVSPropertyOp8
 70
     1
102
RTVSPropertyOp9
 70
     1
102
RTVSPropertyOp10
 70
     1
102
RTVSPropertyOp11
 70
     1
102
RTVSPropertyOp12
 70
     1
102
RTVSPropertyOp13
 70
     1
102
RTVSPropertyOp14
 70
     1
102
RTVSPropertyOp15
 70
     1
102
RTVSPropertyOp16
 70
     1
102
RTVSPropertyOp17
 70
     1
102
RTVSPropertyOp18
 70
     1
102
RTVSPropertyOp19
 70
     1
102
RTVSPropertyOp20
 70
     1
102
RTVSPropertyOp21
 70
     1
102
RTVSPropertyOp22
 70
     1
102
RTVSPropertyOp23
 70
     1
102
RTVSPropertyOp24
 70
     1
102
RTVSPropertyOp25
 70
     1
102
RTVSPropertyOp26
 70
     1
102
RTVSPropertyOp27
 70
     1
102
RTVSPropertyOp28
 70
     1
102
RTVSPropertyOp29
 70
     1
102
RTVSPropertyOp30
 70
     1
102
RTVSPropertyOp31
 70
     1
102
RTVSPropertyOp32
 70
     1
  0
XRECORD
  5
277
102
{ACAD_REACTORS
330
276
102
}
330
276
100
AcDbXrecord
280
     1
102
RTVSPropertyOp0
 70
     1
102
RTVSPropertyOp1
 70
     1
102
RTVSPropertyOp2
 70
     1
102
RTVSPropertyOp3
 70
     1
102
RTVSPropertyOp4
 70
     1
102
RTVSPropertyOp5
 70
     1
102
RTVSPropertyOp6
 70
     1
102
RTVSPropertyOp7
 70
     1
102
RTVSPropertyOp8
 70
     1
102
RTVSPropertyOp9
 70
     1
102
RTVSPropertyOp10
 70
     1
102
RTVSPropertyOp11
 70
     1
102
RTVSPropertyOp12
 70
     1
102
RTVSPropertyOp13
 70
     1
102
RTVSPropertyOp14
 70
     1
102
RTVSPropertyOp15
 70
     1
102
RTVSPropertyOp16
 70
     1
102
RTVSPropertyOp17
 70
     1
102
RTVSPropertyOp18
 70
     1
102
RTVSPropertyOp19
 70
     1
102
RTVSPropertyOp20
 70
     1
102
RTVSPropertyOp21
 70
     1
102
RTVSPropertyOp22
 70
     1
102
RTVSPropertyOp23
 70
     1
102
RTVSPropertyOp24
 70
     1
102
RTVSPropertyOp25
 70
     1
102
RTVSPropertyOp26
 70
     1
102
RTVSPropertyOp27
 70
     1
102
RTVSPropertyOp28
 70
     1
102
RTVSPropertyOp29
 70
     1
102
RTVSPropertyOp30
 70
     1
102
RTVSPropertyOp31
 70
     1
102
RTVSPropertyOp32
 70
     1
  0
XRECORD
  5
25B
102
{ACAD_REACTORS
330
25A
102
}
330
25A
100
AcDbXrecord
280
     1
102
RTVSPropertyOp0
 70
     1
102
RTVSPropertyOp1
 70
     1
102
RTVSPropertyOp2
 70
     1
102
RTVSPropertyOp3
 70
     1
102
RTVSPropertyOp4
 70
     1
102
RTVSPropertyOp5
 70
     1
102
RTVSPropertyOp6
 70
     1
102
RTVSPropertyOp7
 70
     1
102
RTVSPropertyOp8
 70
     1
102
RTVSPropertyOp9
 70
     1
102
RTVSPropertyOp10
 70
     1
102
RTVSPropertyOp11
 70
     1
102
RTVSPropertyOp12
 70
     1
102
RTVSPropertyOp13
 70
     1
102
RTVSPropertyOp14
 70
     1
102
RTVSPropertyOp15
 70
     1
102
RTVSPropertyOp16
 70
     1
102
RTVSPropertyOp17
 70
     1
102
RTVSPropertyOp18
 70
     1
102
RTVSPropertyOp19
 70
     1
102
RTVSPropertyOp20
 70
     1
102
RTVSPropertyOp21
 70
     1
102
RTVSPropertyOp22
 70
     1
102
RTVSPropertyOp23
 70
     1
102
RTVSPropertyOp24
 70
     1
102
RTVSPropertyOp25
 70
     1
102
RTVSPropertyOp26
 70
     1
102
RTVSPropertyOp27
 70
     1
102
RTVSPropertyOp28
 70
     1
102
RTVSPropertyOp29
 70
     1
102
RTVSPropertyOp30
 70
     1
102
RTVSPropertyOp31
 70
     1
102
RTVSPropertyOp32
 70
     1
  0
XRECORD
  5
25D
102
{ACAD_REACTORS
330
25C
102
}
330
25C
100
AcDbXrecord
280
     1
102
RTVSPropertyOp0
 70
     1
102
RTVSPropertyOp1
 70
     1
102
RTVSPropertyOp2
 70
     1
102
RTVSPropertyOp3
 70
     1
102
RTVSPropertyOp4
 70
     1
102
RTVSPropertyOp5
 70
     1
102
RTVSPropertyOp6
 70
     1
102
RTVSPropertyOp7
 70
     1
102
RTVSPropertyOp8
 70
     1
102
RTVSPropertyOp9
 70
     1
102
RTVSPropertyOp10
 70
     1
102
RTVSPropertyOp11
 70
     1
102
RTVSPropertyOp12
 70
     1
102
RTVSPropertyOp13
 70
     1
102
RTVSPropertyOp14
 70
     1
102
RTVSPropertyOp15
 70
     1
102
RTVSPropertyOp16
 70
     1
102
RTVSPropertyOp17
 70
     1
102
RTVSPropertyOp18
 70
     1
102
RTVSPropertyOp19
 70
     1
102
RTVSPropertyOp20
 70
     1
102
RTVSPropertyOp21
 70
     1
102
RTVSPropertyOp22
 70
     1
102
RTVSPropertyOp23
 70
     1
102
RTVSPropertyOp24
 70
     1
102
RTVSPropertyOp25
 70
     1
102
RTVSPropertyOp26
 70
     1
102
RTVSPropertyOp27
 70
     1
102
RTVSPropertyOp28
 70
     1
102
RTVSPropertyOp29
 70
     1
102
RTVSPropertyOp30
 70
     1
102
RTVSPropertyOp31
 70
     1
102
RTVSPropertyOp32
 70
     1
  0
XRECORD
  5
25F
102
{ACAD_REACTORS
330
25E
102
}
330
25E
100
AcDbXrecord
280
     1
102
RTVSPropertyOp0
 70
     1
102
RTVSPropertyOp1
 70
     1
102
RTVSPropertyOp2
 70
     1
102
RTVSPropertyOp3
 70
     1
102
RTVSPropertyOp4
 70
     1
102
RTVSPropertyOp5
 70
     1
102
RTVSPropertyOp6
 70
     1
102
RTVSPropertyOp7
 70
     1
102
RTVSPropertyOp8
 70
     1
102
RTVSPropertyOp9
 70
     1
102
RTVSPropertyOp10
 70
     1
102
RTVSPropertyOp11
 70
     1
102
RTVSPropertyOp12
 70
     1
102
RTVSPropertyOp13
 70
     1
102
RTVSPropertyOp14
 70
     1
102
RTVSPropertyOp15
 70
     1
102
RTVSPropertyOp16
 70
     1
102
RTVSPropertyOp17
 70
     1
102
RTVSPropertyOp18
 70
     1
102
RTVSPropertyOp19
 70
     1
102
RTVSPropertyOp20
 70
     1
102
RTVSPropertyOp21
 70
     1
102
RTVSPropertyOp22
 70
     1
102
RTVSPropertyOp23
 70
     1
102
RTVSPropertyOp24
 70
     1
102
RTVSPropertyOp25
 70
     1
102
RTVSPropertyOp26
 70
     1
102
RTVSPropertyOp27
 70
     1
102
RTVSPropertyOp28
 70
     1
102
RTVSPropertyOp29
 70
     1
102
RTVSPropertyOp30
 70
     1
102
RTVSPropertyOp31
 70
     1
102
RTVSPropertyOp32
 70
     1
  0
XRECORD
  5
261
102
{ACAD_REACTORS
330
260
102
}
330
260
100
AcDbXrecord
280
     1
102
RTVSPropertyOp0
 70
     1
102
RTVSPropertyOp1
 70
     1
102
RTVSPropertyOp2
 70
     1
102
RTVSPropertyOp3
 70
     1
102
RTVSPropertyOp4
 70
     1
102
RTVSPropertyOp5
 70
     1
102
RTVSPropertyOp6
 70
     1
102
RTVSPropertyOp7
 70
     1
102
RTVSPropertyOp8
 70
     1
102
RTVSPropertyOp9
 70
     1
102
RTVSPropertyOp10
 70
     1
102
RTVSPropertyOp11
 70
     1
102
RTVSPropertyOp12
 70
     1
102
RTVSPropertyOp13
 70
     1
102
RTVSPropertyOp14
 70
     1
102
RTVSPropertyOp15
 70
     1
102
RTVSPropertyOp16
 70
     1
102
RTVSPropertyOp17
 70
     1
102
RTVSPropertyOp18
 70
     1
102
RTVSPropertyOp19
 70
     1
102
RTVSPropertyOp20
 70
     1
102
RTVSPropertyOp21
 70
     1
102
RTVSPropertyOp22
 70
     1
102
RTVSPropertyOp23
 70
     1
102
RTVSPropertyOp24
 70
     1
102
RTVSPropertyOp25
 70
     1
102
RTVSPropertyOp26
 70
     1
102
RTVSPropertyOp27
 70
     1
102
RTVSPropertyOp28
 70
     1
102
RTVSPropertyOp29
 70
     1
102
RTVSPropertyOp30
 70
     1
102
RTVSPropertyOp31
 70
     1
102
RTVSPropertyOp32
 70
     1
  0
XRECORD
  5
275
102
{ACAD_REACTORS
330
274
102
}
330
274
100
AcDbXrecord
280
     1
102
RTVSPropertyOp0
 70
     1
102
RTVSPropertyOp1
 70
     1
102
RTVSPropertyOp2
 70
     1
102
RTVSPropertyOp3
 70
     1
102
RTVSPropertyOp4
 70
     1
102
RTVSPropertyOp5
 70
     1
102
RTVSPropertyOp6
 70
     1
102
RTVSPropertyOp7
 70
     1
102
RTVSPropertyOp8
 70
     1
102
RTVSPropertyOp9
 70
     1
102
RTVSPropertyOp10
 70
     1
102
RTVSPropertyOp11
 70
     1
102
RTVSPropertyOp12
 70
     1
102
RTVSPropertyOp13
 70
     1
102
RTVSPropertyOp14
 70
     1
102
RTVSPropertyOp15
 70
     1
102
RTVSPropertyOp16
 70
     1
102
RTVSPropertyOp17
 70
     1
102
RTVSPropertyOp18
 70
     1
102
RTVSPropertyOp19
 70
     1
102
RTVSPropertyOp20
 70
     1
102
RTVSPropertyOp21
 70
     1
102
RTVSPropertyOp22
 70
     1
102
RTVSPropertyOp23
 70
     1
102
RTVSPropertyOp24
 70
     1
102
RTVSPropertyOp25
 70
     1
102
RTVSPropertyOp26
 70
     1
102
RTVSPropertyOp27
 70
     1
102
RTVSPropertyOp28
 70
     1
102
RTVSPropertyOp29
 70
     1
102
RTVSPropertyOp30
 70
     1
102
RTVSPropertyOp31
 70
     1
102
RTVSPropertyOp32
 70
     1
  0
XRECORD
  5
26B
102
{ACAD_REACTORS
330
26A
102
}
330
26A
100
AcDbXrecord
280
     1
102
RTVSPropertyOp0
 70
     1
102
RTVSPropertyOp1
 70
     1
102
RTVSPropertyOp2
 70
     1
102
RTVSPropertyOp3
 70
     1
102
RTVSPropertyOp4
 70
     1
102
RTVSPropertyOp5
 70
     1
102
RTVSPropertyOp6
 70
     1
102
RTVSPropertyOp7
 70
     1
102
RTVSPropertyOp8
 70
     1
102
RTVSPropertyOp9
 70
     1
102
RTVSPropertyOp10
 70
     1
102
RTVSPropertyOp11
 70
     1
102
RTVSPropertyOp12
 70
     1
102
RTVSPropertyOp13
 70
     1
102
RTVSPropertyOp14
 70
     1
102
RTVSPropertyOp15
 70
     1
102
RTVSPropertyOp16
 70
     1
102
RTVSPropertyOp17
 70
     1
102
RTVSPropertyOp18
 70
     1
102
RTVSPropertyOp19
 70
     1
102
RTVSPropertyOp20
 70
     1
102
RTVSPropertyOp21
 70
     1
102
RTVSPropertyOp22
 70
     1
102
RTVSPropertyOp23
 70
     1
102
RTVSPropertyOp24
 70
     1
102
RTVSPropertyOp25
 70
     1
102
RTVSPropertyOp26
 70
     1
102
RTVSPropertyOp27
 70
     1
102
RTVSPropertyOp28
 70
     1
102
RTVSPropertyOp29
 70
     1
102
RTVSPropertyOp30
 70
     1
102
RTVSPropertyOp31
 70
     1
102
RTVSPropertyOp32
 70
     1
  0
XRECORD
  5
273
102
{ACAD_REACTORS
330
272
102
}
330
272
100
AcDbXrecord
280
     1
102
RTVSPropertyOp0
 70
     1
102
RTVSPropertyOp1
 70
     1
102
RTVSPropertyOp2
 70
     1
102
RTVSPropertyOp3
 70
     1
102
RTVSPropertyOp4
 70
     1
102
RTVSPropertyOp5
 70
     1
102
RTVSPropertyOp6
 70
     1
102
RTVSPropertyOp7
 70
     1
102
RTVSPropertyOp8
 70
     1
102
RTVSPropertyOp9
 70
     1
102
RTVSPropertyOp10
 70
     1
102
RTVSPropertyOp11
 70
     1
102
RTVSPropertyOp12
 70
     1
102
RTVSPropertyOp13
 70
     1
102
RTVSPropertyOp14
 70
     1
102
RTVSPropertyOp15
 70
     1
102
RTVSPropertyOp16
 70
     1
102
RTVSPropertyOp17
 70
     1
102
RTVSPropertyOp18
 70
     1
102
RTVSPropertyOp19
 70
     1
102
RTVSPropertyOp20
 70
     1
102
RTVSPropertyOp21
 70
     1
102
RTVSPropertyOp22
 70
     1
102
RTVSPropertyOp23
 70
     1
102
RTVSPropertyOp24
 70
     1
102
RTVSPropertyOp25
 70
     1
102
RTVSPropertyOp26
 70
     1
102
RTVSPropertyOp27
 70
     1
102
RTVSPropertyOp28
 70
     1
102
RTVSPropertyOp29
 70
     1
102
RTVSPropertyOp30
 70
     1
102
RTVSPropertyOp31
 70
     1
102
RTVSPropertyOp32
 70
     1
  0
ENDSEC
  0
EOF
