  0
SECTION
  2
HEADER
  9
$ACADVER
  1
AC1015
  9
$ACADMAINTVER
 70
     6
  9
$DWGCODEPAGE
  3
ANSI_932
  9
$INSBASE
 10
0.0
 20
0.0
 30
0.0
  9
$EXTMIN
 10
0.0
 20
0.0
 30
0.0
  9
$EXTMAX
 10
525.0
 20
742.5
 30
0.0
  9
$LIMMIN
 10
0.0
 20
0.0
  9
$LIMMAX
 10
12.0
 20
9.0
  9
$ORTHOMODE
 70
     0
  9
$REGENMODE
 70
     1
  9
$FILLMODE
 70
     1
  9
$QTEXTMODE
 70
     0
  9
$MIRRTEXT
 70
     1
  9
$LTSCALE
 40
1.0
  9
$ATTMODE
 70
     1
  9
$TEXTSIZE
 40
0.2
  9
$TRACEWID
 40
0.05
  9
$TEXTSTYLE
  7
Standard
  9
$CLAYER
  8
0
  9
$CELTYPE
  6
ByLayer
  9
$CECOLOR
 62
   256
  9
$CELTSCALE
 40
1.0
  9
$DISPSILH
 70
     0
  9
$DIMSCALE
 40
1.0
  9
$DIMASZ
 40
0.18
  9
$DIMEXO
 40
0.0625
  9
$DIMDLI
 40
0.38
  9
$DIMRND
 40
0.0
  9
$DIMDLE
 40
0.0
  9
$DIMEXE
 40
0.18
  9
$DIMTP
 40
0.0
  9
$DIMTM
 40
0.0
  9
$DIMTXT
 40
0.18
  9
$DIMCEN
 40
0.09
  9
$DIMTSZ
 40
0.0
  9
$DIMTOL
 70
     0
  9
$DIMLIM
 70
     0
  9
$DIMTIH
 70
     1
  9
$DIMTOH
 70
     1
  9
$DIMSE1
 70
     0
  9
$DIMSE2
 70
     0
  9
$DIMTAD
 70
     0
  9
$DIMZIN
 70
     0
  9
$DIMBLK
  1

  9
$DIMASO
 70
     1
  9
$DIMSHO
 70
     1
  9
$DIMPOST
  1

  9
$DIMAPOST
  1

  9
$DIMALT
 70
     0
  9
$DIMALTD
 70
     2
  9
$DIMALTF
 40
25.4
  9
$DIMLFAC
 40
1.0
  9
$DIMTOFL
 70
     0
  9
$DIMTVP
 40
0.0
  9
$DIMTIX
 70
     0
  9
$DIMSOXD
 70
     0
  9
$DIMSAH
 70
     0
  9
$DIMBLK1
  1

  9
$DIMBLK2
  1

  9
$DIMSTYLE
  2
Standard
  9
$DIMCLRD
 70
     0
  9
$DIMCLRE
 70
     0
  9
$DIMCLRT
 70
     0
  9
$DIMTFAC
 40
1.0
  9
$DIMGAP
 40
0.09
  9
$DIMJUST
 70
     0
  9
$DIMSD1
 70
     0
  9
$DIMSD2
 70
     0
  9
$DIMTOLJ
 70
     1
  9
$DIMTZIN
 70
     0
  9
$DIMALTZ
 70
     0
  9
$DIMALTTZ
 70
     0
  9
$DIMUPT
 70
     0
  9
$DIMDEC
 70
     4
  9
$DIMTDEC
 70
     4
  9
$DIMALTU
 70
     2
  9
$DIMALTTD
 70
     2
  9
$DIMTXSTY
  7
Standard
  9
$DIMAUNIT
 70
     0
  9
$DIMADEC
 70
     0
  9
$DIMALTRND
 40
0.0
  9
$DIMAZIN
 70
     0
  9
$DIMDSEP
 70
    46
  9
$DIMATFIT
 70
     3
  9
$DIMFRAC
 70
     0
  9
$DIMLDRBLK
  1

  9
$DIMLUNIT
 70
     2
  9
$DIMLWD
 70
    -2
  9
$DIMLWE
 70
    -2
  9
$DIMTMOVE
 70
     0
  9
$LUNITS
 70
     2
  9
$LUPREC
 70
     4
  9
$SKETCHINC
 40
0.1
  9
$FILLETRAD
 40
0.5
  9
$AUNITS
 70
     0
  9
$AUPREC
 70
     0
  9
$MENU
  1
.
  9
$ELEVATION
 40
0.0
  9
$PELEVATION
 40
0.0
  9
$THICKNESS
 40
0.0
  9
$LIMCHECK
 70
     0
  9
$CHAMFERA
 40
0.5
  9
$CHAMFERB
 40
0.5
  9
$CHAMFERC
 40
1.0
  9
$CHAMFERD
 40
0.0
  9
$SKPOLY
 70
     0
  9
$TDCREATE
 40
2456556.596483669
  9
$TDUCREATE
 40
2456556.221483669
  9
$TDUPDATE
 40
2456556.596486921
  9
$TDUUPDATE
 40
2456556.221486921
  9
$TDINDWG
 40
0.0000000116
  9
$TDUSRTIMER
 40
0.0000000116
  9
$USRTIMER
 70
     1
  9
$ANGBASE
 50
0.0
  9
$ANGDIR
 70
     0
  9
$PDMODE
 70
     0
  9
$PDSIZE
 40
0.0
  9
$PLINEWID
 40
0.0
  9
$SPLFRAME
 70
     0
  9
$SPLINETYPE
 70
     6
  9
$SPLINESEGS
 70
     8
  9
$HANDSEED
  5
2A0
  9
$SURFTAB1
 70
     6
  9
$SURFTAB2
 70
     6
  9
$SURFTYPE
 70
     6
  9
$SURFU
 70
     6
  9
$SURFV
 70
     6
  9
$UCSBASE
  2

  9
$UCSNAME
  2

  9
$UCSORG
 10
0.0
 20
0.0
 30
0.0
  9
$UCSXDIR
 10
1.0
 20
0.0
 30
0.0
  9
$UCSYDIR
 10
0.0
 20
1.0
 30
0.0
  9
$UCSORTHOREF
  2

  9
$UCSORTHOVIEW
 70
     0
  9
$UCSORGTOP
 10
0.0
 20
0.0
 30
0.0
  9
$UCSORGBOTTOM
 10
0.0
 20
0.0
 30
0.0
  9
$UCSORGLEFT
 10
0.0
 20
0.0
 30
0.0
  9
$UCSORGRIGHT
 10
0.0
 20
0.0
 30
0.0
  9
$UCSORGFRONT
 10
0.0
 20
0.0
 30
0.0
  9
$UCSORGBACK
 10
0.0
 20
0.0
 30
0.0
  9
$PUCSBASE
  2

  9
$PUCSNAME
  2

  9
$PUCSORG
 10
0.0
 20
0.0
 30
0.0
  9
$PUCSXDIR
 10
1.0
 20
0.0
 30
0.0
  9
$PUCSYDIR
 10
0.0
 20
1.0
 30
0.0
  9
$PUCSORTHOREF
  2

  9
$PUCSORTHOVIEW
 70
     0
  9
$PUCSORGTOP
 10
0.0
 20
0.0
 30
0.0
  9
$PUCSORGBOTTOM
 10
0.0
 20
0.0
 30
0.0
  9
$PUCSORGLEFT
 10
0.0
 20
0.0
 30
0.0
  9
$PUCSORGRIGHT
 10
0.0
 20
0.0
 30
0.0
  9
$PUCSORGFRONT
 10
0.0
 20
0.0
 30
0.0
  9
$PUCSORGBACK
 10
0.0
 20
0.0
 30
0.0
  9
$USERI1
 70
     0
  9
$USERI2
 70
     0
  9
$USERI3
 70
     0
  9
$USERI4
 70
     0
  9
$USERI5
 70
     0
  9
$USERR1
 40
18.1
  9
$USERR2
 40
0.0
  9
$USERR3
 40
0.0
  9
$USERR4
 40
0.0
  9
$USERR5
 40
0.0
  9
$WORLDVIEW
 70
     1
  9
$SHADEDGE
 70
     3
  9
$SHADEDIF
 70
    70
  9
$TILEMODE
 70
     1
  9
$MAXACTVP
 70
    64
  9
$PINSBASE
 10
0.0
 20
0.0
 30
0.0
  9
$PLIMCHECK
 70
     0
  9
$PEXTMIN
 10
1.00000000000000E+20
 20
1.00000000000000E+20
 30
1.00000000000000E+20
  9
$PEXTMAX
 10
-1.00000000000000E+20
 20
-1.00000000000000E+20
 30
-1.00000000000000E+20
  9
$PLIMMIN
 10
0.0
 20
0.0
  9
$PLIMMAX
 10
12.0
 20
9.0
  9
$UNITMODE
 70
     0
  9
$VISRETAIN
 70
     1
  9
$PLINEGEN
 70
     0
  9
$PSLTSCALE
 70
     1
  9
$TREEDEPTH
 70
  3020
  9
$CMLSTYLE
  2
Standard
  9
$CMLJUST
 70
     0
  9
$CMLSCALE
 40
1.0
  9
$PROXYGRAPHICS
 70
     1
  9
$MEASUREMENT
 70
     1
  9
$CELWEIGHT
370
    -1
  9
$ENDCAPS
280
     0
  9
$JOINSTYLE
280
     0
  9
$LWDISPLAY
290
     0
  9
$INSUNITS
 70
     4
  9
$HYPERLINKBASE
  1

  9
$STYLESHEET
  1

  9
$XEDIT
290
     1
  9
$CEPSNTYPE
380
     0
  9
$PSTYLEMODE
290
     1
  9
$FINGERPRINTGUID
  2
{EE1DACFF-2BD1-4B8C-90E7-EF697E0CDBBF}
  9
$VERSIONGUID
  2
{FAEB1C32-E019-11D5-929B-00C0DF256EC4}
  9
$EXTNAMES
290
     1
  9
$PSVPSCALE
 40
0.0
  9
$OLESTARTUP
290
     0
  0
ENDSEC
  0
SECTION
  2
CLASSES
  0
CLASS
  1
ACDBDICTIONARYWDFLT
  2
AcDbDictionaryWithDefault
  3
ObjectDBX Classes
 90
        0
280
     0
281
     0
  0
CLASS
  1
VISUALSTYLE
  2
AcDbVisualStyle
  3
ObjectDBX Classes
 90
     4095
280
     0
281
     0
  0
CLASS
  1
MATERIAL
  2
AcDbMaterial
  3
ObjectDBX Classes
 90
     1153
280
     0
281
     0
  0
CLASS
  1
DICTIONARYVAR
  2
AcDbDictionaryVar
  3
ObjectDBX Classes
 90
        0
280
     0
281
     0
  0
CLASS
  1
ACDBPLACEHOLDER
  2
AcDbPlaceHolder
  3
ObjectDBX Classes
 90
        0
280
     0
281
     0
  0
CLASS
  1
LAYOUT
  2
AcDbLayout
  3
ObjectDBX Classes
 90
        0
280
     0
281
     0
  0
ENDSEC
  0
SECTION
  2
TABLES
  0
TABLE
  2
VPORT
  5
8
330
0
100
AcDbSymbolTable
 70
     1
  0
VPORT
  5
29
330
8
100
AcDbSymbolTableRecord
100
AcDbViewportTableRecord
  2
*Active
 70
     0
 10
0.0
 20
0.0
 11
1.0
 21
1.0
 12
262.5
 22
371.25
 13
0.0
 23
0.0
 14
0.5
 24
0.5
 15
0.5
 25
0.5
 16
0.0
 26
0.0
 36
1.0
 17
0.0
 27
0.0
 37
0.0
 40
816.7500000000001
 41
1.60267857142857
 42
50.0
 43
0.0
 44
0.0
 50
0.0
 51
0.0
 71
     0
 72
   100
 73
     1
 74
     3
 75
     0
 76
     0
 77
     0
 78
     0
281
     0
 65
     1
110
0.0
120
0.0
130
0.0
111
1.0
121
0.0
131
0.0
112
0.0
122
1.0
132
0.0
 79
     0
146
0.0
  0
ENDTAB
  0
TABLE
  2
LTYPE
  5
5
330
0
100
AcDbSymbolTable
 70
     8
  0
LTYPE
  5
14
330
5
100
AcDbSymbolTableRecord
100
AcDbLinetypeTableRecord
  2
ByBlock
 70
     0
  3

 72
    65
 73
     0
 40
0.0
  0
LTYPE
  5
15
330
5
100
AcDbSymbolTableRecord
100
AcDbLinetypeTableRecord
  2
ByLayer
 70
     0
  3

 72
    65
 73
     0
 40
0.0
  0
LTYPE
  5
16
330
5
100
AcDbSymbolTableRecord
100
AcDbLinetypeTableRecord
  2
Continuous
 70
     0
  3
Solid line
 72
    65
 73
     0
 40
0.0
  0
LTYPE
  5
3F
330
5
100
AcDbSymbolTableRecord
100
AcDbLinetypeTableRecord
  2
DASHED
 70
     0
  3
Dashed
 72
    65
 73
     2
 40
15.0
 49
7.0
 74
     0
 49
-8.0
 74
     0
  0
LTYPE
  5
40
330
5
100
AcDbSymbolTableRecord
100
AcDbLinetypeTableRecord
  2
DOTTED
 70
     0
  3
Dotted
 72
    65
 73
     2
 40
1.0
 49
0.0
 74
     0
 49
-1.0
 74
     0
  0
LTYPE
  5
41
330
5
100
AcDbSymbolTableRecord
100
AcDbLinetypeTableRecord
  2
DOT_CENTER
 70
     0
  3
Dot_Center
 72
    65
 73
     4
 40
14.0
 49
12.0
 74
     0
 49
-1.0
 74
     0
 49
0.0
 74
     0
 49
-1.0
 74
     0
  0
LTYPE
  5
42
330
5
100
AcDbSymbolTableRecord
100
AcDbLinetypeTableRecord
  2
LONG_DASHED
 70
     0
  3
Long_Dashed
 72
    65
 73
     2
 40
15.0
 49
10.0
 74
     0
 49
-5.0
 74
     0
  0
LTYPE
  5
43
330
5
100
AcDbSymbolTableRecord
100
AcDbLinetypeTableRecord
  2
DASH_CENTER
 70
     0
  3
Dash_Center
 72
    65
 73
     4
 40
14.0
 49
11.0
 74
     0
 49
-1.0
 74
     0
 49
1.0
 74
     0
 49
-1.0
 74
     0
  0
LTYPE
  5
44
330
5
100
AcDbSymbolTableRecord
100
AcDbLinetypeTableRecord
  2
PHANTOM
 70
     0
  3
Phantom
 72
    65
 73
     6
 40
13.0
 49
10.0
 74
     0
 49
-1.0
 74
     0
 49
0.0
 74
     0
 49
-1.0
 74
     0
 49
0.0
 74
     0
 49
-1.0
 74
     0
  0
LTYPE
  5
45
330
5
100
AcDbSymbolTableRecord
100
AcDbLinetypeTableRecord
  2
CENTER_DASH_DASH
 70
     0
  3
Center_Dash_Dash
 72
    65
 73
     6
 40
14.0
 49
9.0
 74
     0
 49
-1.0
 74
     0
 49
1.0
 74
     0
 49
-1.0
 74
     0
 49
1.0
 74
     0
 49
-1.0
 74
     0
  0
ENDTAB
  0
TABLE
  2
LAYER
  5
2
330
0
100
AcDbSymbolTable
 70
     2
  0
LAYER
  5
10
330
2
100
AcDbSymbolTableRecord
100
AcDbLayerTableRecord
  2
0
 70
     0
 62
     7
  6
Continuous
370
    -3
390
F
  0
LAYER
  5
46
330
2
100
AcDbSymbolTableRecord
100
AcDbLayerTableRecord
  2
1
 70
     0
 62
     7
  6
Continuous
370
    -3
390
F
  0
ENDTAB
  0
TABLE
  2
STYLE
  5
3
330
0
100
AcDbSymbolTable
 70
     3
  0
STYLE
  5
11
330
3
100
AcDbSymbolTableRecord
100
AcDbTextStyleTableRecord
  2
Standard
 70
     0
 40
0.0
 41
1.0
 50
0.0
 71
     0
 42
0.2
  3
txt
  4

  0
STYLE
  5
200
330
3
100
AcDbSymbolTableRecord
100
AcDbTextStyleTableRecord
  2
CONVERTER_11
 70
     0
 40
0.0
 41
0.89
 50
0.0
 71
     0
 42
0.2
  3
MS Mincho.ttf
  4

1001
ACAD
1000
MS Mincho
1071
    32785
  0
STYLE
  5
21E
330
3
100
AcDbSymbolTableRecord
100
AcDbTextStyleTableRecord
  2
CONVERTER_12
 70
     0
 40
0.0
 41
0.9
 50
0.0
 71
     0
 42
0.2
  3
txt.shx
  4

  0
ENDTAB
  0
TABLE
  2
VIEW
  5
6
330
0
100
AcDbSymbolTable
 70
     0
  0
ENDTAB
  0
TABLE
  2
UCS
  5
7
330
0
100
AcDbSymbolTable
 70
     0
  0
ENDTAB
  0
TABLE
  2
APPID
  5
9
330
0
100
AcDbSymbolTable
 70
     1
  0
APPID
  5
12
330
9
100
AcDbSymbolTableRecord
100
AcDbRegAppTableRecord
  2
ACAD
 70
     0
  0
ENDTAB
  0
TABLE
  2
DIMSTYLE
  5
A
330
0
100
AcDbSymbolTable
 70
     8
100
AcDbDimStyleTable
  0
DIMSTYLE
105
27
330
A
100
AcDbSymbolTableRecord
100
AcDbDimStyleTableRecord
  2
Standard
 70
     0
178
     0
340
11
  0
DIMSTYLE
105
22E
102
{ACAD_REACTORS
330
22F
102
}
330
A
100
AcDbSymbolTableRecord
100
AcDbDimStyleTableRecord
  2
ME10_DIM_10
 70
     0
 41
8.75
 42
0.0
 44
2.5
 73
     0
 74
     0
 77
     1
 78
     8
140
8.75
147
2.5
172
     1
173
     1
174
     1
175
     1
176
     2
177
     2
271
     2
178
     7
271
     2
340
200
  0
DIMSTYLE
105
239
102
{ACAD_REACTORS
330
23A
102
}
330
A
100
AcDbSymbolTableRecord
100
AcDbDimStyleTableRecord
  2
ME10_DIM_11
 70
     0
 41
8.75
 42
0.0
 44
2.5
 73
     0
 74
     0
 77
     1
 78
     8
140
8.75
147
2.5
172
     1
173
     1
174
     1
175
     1
176
     2
177
     2
271
     2
178
     7
271
     2
340
21E
  0
DIMSTYLE
105
244
102
{ACAD_REACTORS
330
245
102
}
330
A
100
AcDbSymbolTableRecord
100
AcDbDimStyleTableRecord
  2
ME10_DIM_12
 70
     0
 41
8.75
 42
0.0
 44
2.5
 73
     0
 74
     0
 77
     1
 78
     8
140
8.75
147
2.5
172
     1
173
     1
174
     1
175
     1
176
     2
177
     2
271
     2
178
     7
271
     2
340
21E
  0
DIMSTYLE
105
24F
102
{ACAD_REACTORS
330
250
102
}
330
A
100
AcDbSymbolTableRecord
100
AcDbDimStyleTableRecord
  2
ME10_DIM_13
 70
     0
 41
8.75
 42
0.0
 44
2.5
 73
     0
 74
     0
 77
     1
 78
     8
140
8.75
147
2.5
172
     1
173
     1
174
     1
175
     1
176
     2
177
     2
271
     2
178
     7
271
     2
340
21E
  0
DIMSTYLE
105
25A
102
{ACAD_REACTORS
330
25B
102
}
330
A
100
AcDbSymbolTableRecord
100
AcDbDimStyleTableRecord
  2
ME10_DIM_14
 70
     0
 41
8.75
 42
0.0
 44
2.5
 73
     0
 74
     0
 77
     1
 78
     8
140
8.75
147
2.5
172
     1
173
     1
174
     1
175
     1
176
     2
177
     2
271
     2
178
     7
271
     2
340
21E
  0
DIMSTYLE
105
265
102
{ACAD_REACTORS
330
266
102
}
330
A
100
AcDbSymbolTableRecord
100
AcDbDimStyleTableRecord
  2
ME10_DIM_15
 70
     0
  3
{\Fgdt;n}<>
 41
8.75
 42
0.0
 44
2.5
 73
     0
 74
     0
 77
     1
 78
     8
140
8.75
147
2.5
172
     1
173
     1
174
     1
175
     1
176
     2
177
     2
271
     2
178
     7
271
     2
340
21E
  0
DIMSTYLE
105
273
102
{ACAD_REACTORS
330
274
102
}
330
A
100
AcDbSymbolTableRecord
100
AcDbDimStyleTableRecord
  2
ME10_DIM_16
 70
     0
 41
7.5
 42
0.0
 44
2.5
 73
     0
 74
     0
 77
     1
 78
     8
140
8.75
147
2.5
172
     1
173
     1
174
     1
175
     1
176
     2
177
     2
271
     2
178
     7
271
     2
340
21E
343
270
  0
ENDTAB
  0
TABLE
  2
BLOCK_RECORD
  5
1
330
0
100
AcDbSymbolTable
 70
    19
  0
BLOCK_RECORD
  5
1F
330
1
100
AcDbSymbolTableRecord
100
AcDbBlockTableRecord
  2
*Model_Space
340
22
  0
BLOCK_RECORD
  5
1B
330
1
100
AcDbSymbolTableRecord
100
AcDbBlockTableRecord
  2
*Paper_Space
340
1E
  0
BLOCK_RECORD
  5
23
330
1
100
AcDbSymbolTableRecord
100
AcDbBlockTableRecord
  2
*Paper_Space0
340
26
  0
BLOCK_RECORD
  5
47
330
1
100
AcDbSymbolTableRecord
100
AcDbBlockTableRecord
  2
32-1-16
340
0
102
{BLKREFS
331
4E
102
}
  0
BLOCK_RECORD
  5
4A
330
1
100
AcDbSymbolTableRecord
100
AcDbBlockTableRecord
  2
61-1-16-170
340
0
102
{BLKREFS
331
4F
102
}
  0
BLOCK_RECORD
  5
4D
330
1
100
AcDbSymbolTableRecord
100
AcDbBlockTableRecord
  2
61-1X-16-170
340
0
102
{BLKREFS
331
6B
102
}
  0
BLOCK_RECORD
  5
52
330
1
100
AcDbSymbolTableRecord
100
AcDbBlockTableRecord
  2
A20-0-13
340
0
102
{BLKREFS
331
6C
102
}
  0
BLOCK_RECORD
  5
55
330
1
100
AcDbSymbolTableRecord
100
AcDbBlockTableRecord
  2
21-1C
340
0
102
{BLKREFS
331
62
102
}
  0
BLOCK_RECORD
  5
58
330
1
100
AcDbSymbolTableRecord
100
AcDbBlockTableRecord
  2
42-1
340
0
102
{BLKREFS
331
63
102
}
  0
BLOCK_RECORD
  5
5B
330
1
100
AcDbSymbolTableRecord
100
AcDbBlockTableRecord
  2
37-1-13
340
0
102
{BLKREFS
331
64
102
}
  0
BLOCK_RECORD
  5
5E
330
1
100
AcDbSymbolTableRecord
100
AcDbBlockTableRecord
  2
36-1A-13-M4
340
0
102
{BLKREFS
331
65
102
}
  0
BLOCK_RECORD
  5
61
330
1
100
AcDbSymbolTableRecord
100
AcDbBlockTableRecord
  2
R10A-13
340
0
102
{BLKREFS
331
6D
102
}
  0
BLOCK_RECORD
  5
68
330
1
100
AcDbSymbolTableRecord
100
AcDbBlockTableRecord
  2
開示A4
340
0
102
{BLKREFS
331
6E
102
}
  0
BLOCK_RECORD
  5
225
330
1
100
AcDbSymbolTableRecord
100
AcDbBlockTableRecord
  2
*D11
340
0
  0
BLOCK_RECORD
  5
230
330
1
100
AcDbSymbolTableRecord
100
AcDbBlockTableRecord
  2
*D12
340
0
  0
BLOCK_RECORD
  5
23B
330
1
100
AcDbSymbolTableRecord
100
AcDbBlockTableRecord
  2
*D13
340
0
  0
BLOCK_RECORD
  5
246
330
1
100
AcDbSymbolTableRecord
100
AcDbBlockTableRecord
  2
*D14
340
0
  0
BLOCK_RECORD
  5
251
330
1
100
AcDbSymbolTableRecord
100
AcDbBlockTableRecord
  2
*D15
340
0
  0
BLOCK_RECORD
  5
25C
330
1
100
AcDbSymbolTableRecord
100
AcDbBlockTableRecord
  2
*D16
340
0
  0
BLOCK_RECORD
  5
267
330
1
100
AcDbSymbolTableRecord
100
AcDbBlockTableRecord
  2
*D17
340
0
  0
BLOCK_RECORD
  5
270
330
1
100
AcDbSymbolTableRecord
100
AcDbBlockTableRecord
  2
_NONE
340
0
  0
ENDTAB
  0
ENDSEC
  0
SECTION
  2
BLOCKS
  0
BLOCK
  5
20
330
1F
100
AcDbEntity
  8
0
100
AcDbBlockBegin
  2
*Model_Space
 70
     0
 10
0.0
 20
0.0
 30
0.0
  3
*Model_Space
  1

  0
ENDBLK
  5
21
330
1F
100
AcDbEntity
  8
0
100
AcDbBlockEnd
  0
BLOCK
  5
1C
330
1B
100
AcDbEntity
 67
     1
  8
0
100
AcDbBlockBegin
  2
*Paper_Space
 70
     0
 10
0.0
 20
0.0
 30
0.0
  3
*Paper_Space
  1

  0
ENDBLK
  5
1D
330
1B
100
AcDbEntity
 67
     1
  8
0
100
AcDbBlockEnd
  0
BLOCK
  5
24
330
23
100
AcDbEntity
  8
0
100
AcDbBlockBegin
  2
*Paper_Space0
 70
     0
 10
0.0
 20
0.0
 30
0.0
  3
*Paper_Space0
  1

  0
ENDBLK
  5
25
330
23
100
AcDbEntity
  8
0
100
AcDbBlockEnd
  0
BLOCK
  5
48
330
47
100
AcDbEntity
  8
0
100
AcDbBlockBegin
  2
32-1-16
 70
     0
 10
187.9019112083787
 20
485.8491420378471
 30
0.0
  3
32-1-16
  1

  0
LINE
  5
6F
330
47
100
AcDbEntity
  8
1
  6
Continuous
 62
     7
100
AcDbLine
 10
97.66424377497572
 20
561.9167954885164
 30
0.0
 11
104.3163111228006
 21
550.3950768667137
 31
0.0
  0
LINE
  5
70
330
47
100
AcDbEntity
  8
1
  6
Continuous
 62
     7
100
AcDbLine
 10
104.3163111228006
 20
575.9167954885164
 30
0.0
 11
97.66424377497572
 21
564.3950768667137
 31
0.0
  0
LINE
  5
71
330
47
100
AcDbEntity
  8
1
  6
Continuous
 62
     7
100
AcDbLine
 10
105.2690504522838
 20
262.8142307952434
 30
0.0
 11
103.3466839094388
 21
262.8142307952434
 31
0.0
  0
LINE
  5
72
330
47
100
AcDbEntity
  8
1
  6
Continuous
 62
     7
100
AcDbLine
 10
113.1146331018701
 20
252.8142307952434
 30
0.0
 11
126.4146331018701
 21
252.8142307952434
 31
0.0
  0
LINE
  5
73
330
47
100
AcDbEntity
  8
1
  6
Continuous
 62
     7
100
AcDbLine
 10
126.4146331018701
 20
252.8142307952434
 30
0.0
 11
126.3016331018701
 21
252.8142307952434
 31
0.0
  0
LINE
  5
74
330
47
100
AcDbEntity
  8
1
  6
Continuous
 62
     7
100
AcDbLine
 10
124.6146331018701
 20
261.8142307952434
 30
0.0
 11
124.6726541636006
 21
261.8142307952434
 31
0.0
  0
LINE
  5
75
330
47
100
AcDbEntity
  8
1
  6
Continuous
 62
     7
100
AcDbLine
 10
122.8825822943012
 20
262.8142307952434
 30
0.0
 11
120.9093810563914
 21
262.8142307952434
 31
0.0
  0
LINE
  5
76
330
47
100
AcDbEntity
  8
1
  6
Continuous
 62
     7
100
AcDbLine
 10
121.9129550809397
 20
550.3950768667137
 30
0.0
 11
128.5650224287646
 21
561.9167954885164
 31
0.0
  0
LINE
  5
77
330
47
100
AcDbEntity
  8
1
  6
Continuous
 62
     7
100
AcDbLine
 10
128.5650224287646
 20
564.3950768667137
 30
0.0
 11
121.9129550809397
 21
575.9167954885164
 31
0.0
  0
LINE
  5
78
330
47
100
AcDbEntity
  8
1
  6
Continuous
 62
     7
100
AcDbLine
 10
119.7667004496951
 20
577.155936177615
 30
0.0
 11
106.462565754045
 21
577.155936177615
 31
0.0
  0
LINE
  5
79
330
47
100
AcDbEntity
  8
1
  6
Continuous
 62
     7
100
AcDbLine
 10
99.81463310187002
 20
252.8142307952434
 30
0.0
 11
113.1146331018701
 21
252.8142307952434
 31
0.0
  0
LINE
  5
7A
330
47
100
AcDbEntity
  8
1
  6
Continuous
 62
     7
100
AcDbLine
 10
99.92763310187011
 20
252.8142307952434
 30
0.0
 11
99.81463310187002
 21
252.8142307952434
 31
0.0
  0
LINE
  5
7B
330
47
100
AcDbEntity
  8
1
  6
Continuous
 62
     7
100
AcDbLine
 10
101.5566120401395
 20
261.8142307952434
 30
0.0
 11
101.6146331018701
 21
261.8142307952434
 31
0.0
  0
LINE
  5
7C
330
47
100
AcDbEntity
  8
1
  6
Continuous
 62
     7
100
AcDbLine
 10
395.6209805849632
 20
261.8142307952426
 30
0.0
 11
416.8889297773942
 21
261.8142307952426
 31
0.0
  0
LINE
  5
7D
330
47
100
AcDbEntity
  8
1
  6
Continuous
 62
     7
100
AcDbLine
 10
420.2549551811786
 20
260.5274080449556
 30
0.0
 11
420.2549551811786
 21
253.3859796164128
 31
0.0
  0
LINE
  5
7E
330
47
100
AcDbEntity
  8
1
  6
Continuous
 62
     7
100
AcDbLine
 10
392.2549551811786
 20
253.3859796164128
 30
0.0
 11
392.2549551811786
 21
260.5274080449557
 31
0.0
  0
LINE
  5
7F
330
47
100
AcDbEntity
  8
1
  6
Continuous
 62
     7
100
AcDbLine
 10
416.0229043736098
 20
262.8142307952426
 30
0.0
 11
396.4870059887475
 21
262.8142307952426
 31
0.0
  0
LINE
  5
80
330
47
100
AcDbEntity
  8
1
  6
Continuous
 62
     7
100
AcDbLine
 10
419.5549551811786
 20
252.8142307952426
 30
0.0
 11
412.4595333380831
 21
252.8142307952426
 31
0.0
  0
LINE
  5
81
330
47
100
AcDbEntity
  8
1
  6
Continuous
 62
     7
100
AcDbLine
 10
394.696934119448
 20
261.8142307952426
 30
0.0
 11
394.7549551811786
 21
261.8142307952426
 31
0.0
  0
LINE
  5
82
330
47
100
AcDbEntity
  8
1
  6
Continuous
 62
     7
100
AcDbLine
 10
393.0679551811786
 20
252.8142307952426
 30
0.0
 11
392.9549551811786
 21
252.8142307952426
 31
0.0
  0
LINE
  5
83
330
47
100
AcDbEntity
  8
1
  6
Continuous
 62
     7
100
AcDbLine
 10
417.7549551811786
 20
261.8142307952426
 30
0.0
 11
417.8129762429093
 21
261.8142307952426
 31
0.0
  0
LINE
  5
84
330
47
100
AcDbEntity
  8
1
  6
Continuous
 62
     7
100
AcDbLine
 10
400.0621974920216
 20
252.8142307952426
 30
0.0
 11
392.9549551811786
 21
252.8142307952426
 31
0.0
  0
ARC
  5
85
330
47
100
AcDbEntity
  8
1
  6
Continuous
 62
     7
100
AcDbCircle
 10
113.11463310187
 20
563.155936177615
 30
0.0
 40
10.76794919243127
100
AcDbArc
 50
89.99999999999947
 51
222.0170600646476
  0
ARC
  5
86
330
47
100
AcDbEntity
  8
1
  6
Continuous
 62
     7
100
AcDbCircle
 10
113.11463310187
 20
563.155936177615
 30
0.0
 40
10.7679491924311
100
AcDbArc
 50
317.9829399353531
 51
89.99999999999947
  0
ARC
  5
87
330
47
100
AcDbEntity
  8
1
  6
Continuous
 62
     7
100
AcDbCircle
 10
113.11463310187
 20
563.155936177615
 30
0.0
 40
15.49999999999969
100
AcDbArc
 50
180.0
 51
184.5853790848392
  0
ARC
  5
88
330
47
100
AcDbEntity
  8
1
  6
Continuous
 62
     7
100
AcDbCircle
 10
113.11463310187
 20
563.155936177615
 30
0.0
 40
15.49999999999975
100
AcDbArc
 50
235.4146209151613
 51
238.9270490278466
  0
ARC
  5
89
330
47
100
AcDbEntity
  8
1
  6
Continuous
 62
     7
100
AcDbCircle
 10
113.11463310187
 20
563.155936177615
 30
0.0
 40
15.49999999999964
100
AcDbArc
 50
175.4146209151603
 51
180.0
  0
ARC
  5
8A
330
47
100
AcDbEntity
  8
1
  6
Continuous
 62
     7
100
AcDbCircle
 10
113.11463310187
 20
563.155936177615
 30
0.0
 40
15.49999999999998
100
AcDbArc
 50
115.4146209151608
 51
124.5853790848384
  0
ARC
  5
8B
330
47
100
AcDbEntity
  8
1
  6
Continuous
 62
     7
100
AcDbCircle
 10
123.6146331018701
 20
256.956693830685
 30
0.0
 40
5.000000000000032
100
AcDbArc
 50
304.0557977425676
 51
74.66244233044556
  0
ARC
  5
8C
330
47
100
AcDbEntity
  8
1
  6
Continuous
 62
     7
100
AcDbCircle
 10
113.11463310187
 20
563.155936177615
 30
0.0
 40
15.49999999999994
100
AcDbArc
 50
355.4146209151608
 51
0.0
  0
ARC
  5
8D
330
47
100
AcDbEntity
  8
1
  6
Continuous
 62
     7
100
AcDbCircle
 10
113.11463310187
 20
563.155936177615
 30
0.0
 40
15.49999999999985
100
AcDbArc
 50
301.072950972154
 51
304.5853790848395
  0
ARC
  5
8E
330
47
100
AcDbEntity
  8
1
  6
Continuous
 62
     7
100
AcDbCircle
 10
113.11463310187
 20
563.155936177615
 30
0.0
 40
15.5
100
AcDbArc
 50
0.0
 51
4.58537908483958
  0
ARC
  5
8F
330
47
100
AcDbEntity
  8
1
  6
Continuous
 62
     7
100
AcDbCircle
 10
113.11463310187
 20
563.155936177615
 30
0.0
 40
15.50000000000002
100
AcDbArc
 50
55.41462091516068
 51
64.58537908483883
  0
ARC
  5
90
330
47
100
AcDbEntity
  8
1
  6
Continuous
 62
     7
100
AcDbCircle
 10
102.6146331018701
 20
256.956693830685
 30
0.0
 40
5.000000000000044
100
AcDbArc
 50
105.3375576695541
 51
235.9442022574316
  0
ARC
  5
91
330
47
100
AcDbEntity
  8
1
  6
Continuous
 62
     7
100
AcDbCircle
 10
416.7549551811786
 20
256.9566938306842
 30
0.0
 40
4.999999999999993
100
AcDbArc
 50
304.0557977425681
 51
314.4270040008062
  0
ARC
  5
92
330
47
100
AcDbEntity
  8
1
  6
Continuous
 62
     7
100
AcDbCircle
 10
395.7549551811786
 20
256.9566938306842
 30
0.0
 40
4.999999999999985
100
AcDbArc
 50
105.3375576695541
 51
134.4270040008051
  0
ARC
  5
93
330
47
100
AcDbEntity
  8
1
  6
Continuous
 62
     7
100
AcDbCircle
 10
395.7549551811786
 20
256.9566938306842
 30
0.0
 40
4.999999999999956
100
AcDbArc
 50
225.5729959991938
 51
235.9442022574319
  0
ARC
  5
94
330
47
100
AcDbEntity
  8
1
  6
Continuous
 62
     7
100
AcDbCircle
 10
416.7549551811786
 20
256.9566938306842
 30
0.0
 40
5.000000000000016
100
AcDbArc
 50
45.57299599919448
 51
74.66244233044588
  0
SPLINE
  5
95
330
47
100
AcDbEntity
  8
0
  6
Continuous
 62
     7
100
AcDbSpline
210
0.0
220
0.0
230
1.0
 70
    11
 71
     3
 72
    79
 73
    75
 74
    73
 42
0.000000001
 43
0.0000000001
 44
0.00000001
 40
0.0
 40
0.0
 40
0.0
 40
0.0
 40
0.291022906317219
 40
0.5820342199790551
 40
0.8749339259795768
 40
1.167812540311792
 40
1.463561181729997
 40
1.759282799553793
 40
2.058487804326614
 40
2.35766387886552
 40
2.660503334662365
 40
2.963315618547908
 40
3.269530819653411
 40
3.575723462230501
 40
3.884662737575027
 40
4.193586021287144
 40
4.50428907895143
 40
4.814983875317334
 40
5.1262944242232
 40
5.437604973117988
 40
5.748299769450811
 40
6.059002827059637
 40
6.367926110693944
 40
6.6768653859371
 40
6.983058028389785
 40
7.289273229345911
 40
7.592085513057526
 40
7.894924968652686
 40
8.19410104296248
 40
8.493306047472627
 40
8.789027664996638
 40
9.084776306062004
 40
9.377654919956074
 40
9.670554625322861
 40
9.961565937614536
 40
10.25258885279192
 40
10.54295309049222
 40
10.83331732819145
 40
11.12434024336564
 40
11.4153515556521
 40
11.70825126101163
 40
12.00112987489657
 40
12.2968785159509
 40
12.59260013346228
 40
12.89180513795804
 40
13.19098121225213
 40
13.49382066783021
 40
13.79663295152359
 40
14.10284815246026
 40
14.40904079489258
 40
14.71798007011447
 40
15.02690335372684
 40
15.33760641131297
 40
15.64830120762261
 40
15.9596117564936
 40
16.27092230537514
 40
16.58161710171641
 40
16.89232015935561
 40
17.20124344304221
 40
17.51018271836069
 40
17.81637536091111
 40
18.12259056198926
 40
18.42540284584645
 40
18.72824230161319
 40
19.02741837611942
 40
19.32662338085432
 40
19.62234499863062
 40
19.91809363998139
 40
20.21097225419764
 40
20.50387195993817
 40
20.79488327268811
 40
21.08590618851563
 40
21.37627042760358
 40
21.66663465645581
 40
21.66663465645581
 40
21.66663465645581
 40
21.66663465645581
 10
101.2803209036383
 20
260.5137630820861
 30
0.0
 10
101.3766959593534
 20
260.5020874146485
 30
0.0
 10
101.5694422324213
 20
260.4787365500624
 30
0.0
 10
101.8533787397506
 20
260.4093805582969
 30
0.0
 10
102.1306430063759
 20
260.3159378011817
 30
0.0
 10
102.3993953906685
 20
260.1960308154472
 30
0.0
 10
102.657040774503
 20
260.0519853104547
 30
0.0
 10
102.9022677220072
 20
259.8839187097663
 30
0.0
 10
103.1325310783028
 20
259.6940839768254
 30
0.0
 10
103.3467632870422
 20
259.4829478482766
 30
0.0
 10
103.5427177160152
 20
259.2531682447482
 30
0.0
 10
103.719475059839
 20
259.0054397126204
 30
0.0
 10
103.8752458940022
 20
258.7427074728748
 30
0.0
 10
104.0092143115636
 20
258.4659564613145
 30
0.0
 10
104.1201373430373
 20
258.1782244836265
 30
0.0
 10
104.2073141355948
 20
257.880871037274
 30
0.0
 10
104.2700621458717
 20
257.5768250411967
 30
0.0
 10
104.3078625252671
 20
257.2678834455038
 30
0.0
 10
104.3205395989379
 20
256.9566938402584
 30
0.0
 10
104.3078625256326
 20
256.6455042350037
 30
0.0
 10
104.2700621466019
 20
256.3365626393164
 30
0.0
 10
104.2073141366989
 20
256.032516643158
 30
0.0
 10
104.1201373444912
 20
255.7351631970073
 30
0.0
 10
104.0092143134726
 20
255.4474312184321
 30
0.0
 10
103.8752458959959
 20
255.1706802099762
 30
0.0
 10
103.7194750633191
 20
254.9079479584846
 30
0.0
 10
103.5427177158306
 20
254.6602194694559
 30
0.0
 10
103.3467633023221
 20
254.4304397057605
 30
0.0
 10
103.1325310384481
 20
254.2193041676747
 30
0.0
 10
102.9022678886125
 20
254.029467244565
 30
0.0
 10
102.6570401812183
 20
253.8614087264845
 30
0.0
 10
102.3993976197412
 20
253.7173332247017
 30
0.0
 10
102.1306348020541
 20
253.5975371542282
 30
0.0
 10
101.8534093165668
 20
253.5036821573889
 30
0.0
 10
101.5693289632704
 20
253.4358552507971
 30
0.0
 10
101.280961482964
 20
253.3951602891669
 30
0.0
 10
100.9902774494913
 20
253.3813944955916
 30
0.0
 10
100.6995934160186
 20
253.3951602891418
 30
0.0
 10
100.4112259357118
 20
253.4358552507467
 30
0.0
 10
100.1271455824147
 20
253.5036821573135
 30
0.0
 10
99.84992009692652
 20
253.5975371541278
 30
0.0
 10
99.58115727923843
 20
253.7173332245766
 30
0.0
 10
99.3235147177599
 20
253.8614087263345
 30
0.0
 10
99.0782870103643
 20
254.0294672443907
 30
0.0
 10
98.84802386052692
 20
254.2193041674757
 30
0.0
 10
98.63379159665106
 20
254.4304397055373
 30
0.0
 10
98.4378371831405
 20
254.6602194692085
 30
0.0
 10
98.2610798356497
 20
254.9079479582133
 30
0.0
 10
98.10530900297042
 20
255.170680209681
 30
0.0
 10
97.97134058549105
 20
255.4474312181129
 30
0.0
 10
97.86041755446965
 20
255.7351631966644
 30
0.0
 10
97.77324076225892
 20
256.0325166427913
 30
0.0
 10
97.71049275235244
 20
256.3365626389258
 30
0.0
 10
97.67269237331791
 20
256.6455042345896
 30
0.0
 10
97.66001530000852
 20
256.9566938398194
 30
0.0
 10
97.67269237367408
 20
257.2678834450447
 30
0.0
 10
97.71049275306592
 20
257.5768250406981
 30
0.0
 10
97.77324076333026
 20
257.8808710368083
 30
0.0
 10
97.8604175559037
 20
258.1782244829237
 30
0.0
 10
97.97134058728275
 20
258.4659564613773
 30
0.0
 10
98.10530900515137
 20
258.742707469989
 30
0.0
 10
98.26107983812318
 20
259.0054397205624
 30
0.0
 10
98.43783718628296
 20
259.2531682125959
 30
0.0
 10
98.63379159909597
 20
259.4829479647078
 30
0.0
 10
98.84802386734694
 20
259.6940835450288
 30
0.0
 10
99.07828700280737
 20
259.8839203109477
 30
0.0
 10
99.32351476514314
 20
260.0519794085294
 30
0.0
 10
99.58115712467814
 20
260.19605275894
 30
0.0
 10
99.84992069109278
 20
260.315856783484
 30
0.0
 10
100.1271433959605
 20
260.4096822164305
 30
0.0
 10
100.4112340656177
 20
260.4776187807736
 30
0.0
 10
100.6995631273673
 20
260.5179053370843
 30
0.0
 10
100.990390237829
 20
260.5331920814784
 30
0.0
 10
101.1836773493961
 20
260.5202394133879
 30
0.0
 10
101.2803209036383
 20
260.5137630820861
 30
0.0
 11
101.2803209036383
 21
260.5137630820861
 31
0.0
 11
101.5684803999132
 21
260.4730391089996
 31
0.0
 11
101.8515626062957
 21
260.4055702389343
 31
0.0
 11
102.1289866488395
 21
260.3116227102955
 31
0.0
 11
102.3965484009568
 21
260.192506836496
 31
0.0
 11
102.654680769672
 21
260.0481637070388
 31
0.0
 11
102.8986934222832
 21
259.8811035366231
 31
0.0
 11
103.1295729278141
 21
259.6907925050224
 31
0.0
 11
103.3427482227652
 21
259.480881530667
 31
0.0
 11
103.5392825467734
 21
259.2504775475406
 31
0.0
 11
103.715256082573
 21
259.0040458248528
 31
0.0
 11
103.8714532230459
 21
258.740663588015
 31
0.0
 11
104.0049489110101
 21
258.4651044552371
 31
0.0
 11
104.1160988365673
 21
258.1768525343398
 31
0.0
 11
104.2030754905936
 21
257.8804260562994
 31
0.0
 11
104.2658805649151
 21
257.5761368637566
 31
0.0
 11
104.3036559265866
 21
257.267747047836
 31
0.0
 11
104.3163111228002
 21
256.956693830685
 31
0.0
 11
104.3036559265866
 21
256.6456406135341
 31
0.0
 11
104.2658805649151
 21
256.3372507976135
 31
0.0
 11
104.2030754905935
 21
256.0329616050706
 31
0.0
 11
104.1160988365672
 21
255.7365351270302
 31
0.0
 11
104.0049489110101
 21
255.448283206133
 31
0.0
 11
103.8714532230459
 21
255.1727240733551
 31
0.0
 11
103.715256082573
 21
254.9093418365172
 31
0.0
 11
103.5392825467734
 21
254.6629101138295
 31
0.0
 11
103.3427482227652
 21
254.432506130703
 31
0.0
 11
103.1295729278141
 21
254.2225951563476
 31
0.0
 11
102.8986934222832
 21
254.0322841247468
 31
0.0
 11
102.6546807696721
 21
253.8652239543311
 31
0.0
 11
102.3965484009569
 21
253.7208808248739
 31
0.0
 11
102.1289866488395
 21
253.6017649510744
 31
0.0
 11
101.8515626062957
 21
253.5078174224357
 31
0.0
 11
101.5684803999132
 21
253.4403485523704
 31
0.0
 11
101.2803209036383
 21
253.3996245792839
 31
0.0
 11
100.9902774488879
 21
253.3859796164136
 31
0.0
 11
100.7002339941375
 21
253.3996245792838
 31
0.0
 11
100.4120744978626
 21
253.4403485523703
 31
0.0
 11
100.1289922914801
 21
253.5078174224356
 31
0.0
 11
99.85156824893633
 21
253.6017649510744
 31
0.0
 11
99.58400649681894
 21
253.7208808248739
 31
0.0
 11
99.32587412810375
 21
253.8652239543311
 31
0.0
 11
99.08186147549259
 21
254.0322841247468
 31
0.0
 11
98.85098196996174
 21
254.2225951563476
 31
0.0
 11
98.63780667501058
 21
254.432506130703
 31
0.0
 11
98.44127235100231
 21
254.6629101138295
 31
0.0
 11
98.2652988152027
 21
254.9093418365173
 31
0.0
 11
98.10910167472986
 21
255.1727240733551
 31
0.0
 11
97.97560598676566
 21
255.4482832061329
 31
0.0
 11
97.86445606120856
 21
255.7365351270302
 31
0.0
 11
97.77747940718226
 21
256.0329616050706
 31
0.0
 11
97.71467433286077
 21
256.3372507976135
 31
0.0
 11
97.67689897118913
 21
256.6456406135341
 31
0.0
 11
97.66424377497555
 21
256.956693830685
 31
0.0
 11
97.67689897118913
 21
257.267747047836
 31
0.0
 11
97.71467433286077
 21
257.5761368637566
 31
0.0
 11
97.77747940718226
 21
257.8804260562995
 31
0.0
 11
97.86445606120854
 21
258.1768525343399
 31
0.0
 11
97.97560598676566
 21
258.4651044552372
 31
0.0
 11
98.10910167472986
 21
258.740663588015
 31
0.0
 11
98.26529881520268
 21
259.0040458248528
 31
0.0
 11
98.44127235100231
 21
259.2504775475405
 31
0.0
 11
98.63780667501055
 21
259.4808815306669
 31
0.0
 11
98.85098196996174
 21
259.6907925050224
 31
0.0
 11
99.0818614754926
 21
259.8811035366232
 31
0.0
 11
99.32587412810373
 21
260.0481637070389
 31
0.0
 11
99.58400649681889
 21
260.1925068364961
 31
0.0
 11
99.85156824893626
 21
260.3116227102955
 31
0.0
 11
100.1289922914801
 21
260.4055702389343
 31
0.0
 11
100.4120744978626
 21
260.4730391089996
 31
0.0
 11
100.7002339941375
 21
260.5137630820861
 31
0.0
 11
100.9902774488879
 21
260.5274080449564
 31
0.0
 11
101.2803209036383
 21
260.5137630820861
 31
0.0
  0
SPLINE
  5
96
330
47
100
AcDbEntity
  8
0
  6
Continuous
 62
     7
100
AcDbSpline
210
0.0
220
0.0
230
1.0
 70
    11
 71
     3
 72
    79
 73
    75
 74
    73
 42
0.000000001
 43
0.0000000001
 44
0.00000001
 40
0.0
 40
0.0
 40
0.0
 40
0.0
 40
0.3261189815590133
 40
0.6517242227864716
 40
1.007570730085642
 40
1.362786574479202
 40
1.75988631123697
 40
2.15651671136477
 40
2.599210004995401
 40
3.04160362377218
 40
3.528307203253078
 40
4.014826845817823
 40
4.539616311192574
 40
5.064295506276657
 40
5.618233629058135
 40
6.172109434340705
 40
6.744280965421714
 40
7.316424320423794
 40
7.894787041172055
 40
8.473149761923244
 40
9.045293116933697
 40
9.617464648027399
 40
10.17134045332476
 40
10.72527857612082
 40
11.24995777121497
 40
11.7747472365907
 40
12.26126687914164
 40
12.74797045858432
 40
13.1903640772935
 40
13.63305737080655
 40
14.02968777076464
 40
14.42678750725399
 40
14.78200335126249
 40
15.13784985787365
 40
15.4634550969732
 40
15.7895740850197
 40
16.10448971847113
 40
16.41940535192163
 40
16.74552433996512
 40
17.07112957906003
 40
17.42697608566507
 40
17.78219192966687
 40
18.17929166614854
 40
18.57592206609923
 40
19.01861535960454
 40
19.46100897830655
 40
19.94771255774208
 40
20.43423220028658
 40
20.95902166565621
 40
21.48370086074509
 40
22.03763898353646
 40
22.59151478883018
 40
23.16368631992119
 40
23.73582967493016
 40
24.31419239568134
 40
24.8925551164313
 40
25.46469847143709
 40
26.03687000252394
 40
26.59074580781465
 40
27.14468393060685
 40
27.6693631257037
 40
28.19415259109348
 40
28.68067223367416
 40
29.16737581317165
 40
29.60976943196304
 40
30.05246272560418
 40
30.44909312573261
 40
30.8461928624681
 40
31.20140870678661
 40
31.55725521382513
 40
31.88286045347717
 40
32.20897944233197
 40
32.52389507798051
 40
32.83881070538187
 40
32.83881070538187
 40
32.83881070538187
 40
32.83881070538187
 10
119.7404122587597
 20
256.6428773440468
 30
0.0
 10
119.7178549852217
 20
256.5362875879335
 30
0.0
 10
119.6727759828485
 20
256.3232759858892
 30
0.0
 10
119.5382482101971
 20
256.0134574923287
 30
0.0
 10
119.3615041206055
 20
255.7156736452703
 30
0.0
 10
119.1326227076545
 20
255.4245276012292
 30
0.0
 10
118.863404797937
 20
255.1511353838294
 30
0.0
 10
118.5461346819962
 20
254.8871756565087
 30
0.0
 10
118.1940822613099
 20
254.6441694552825
 30
0.0
 10
117.7982088935136
 20
254.4145152045672
 30
0.0
 10
117.3735004788538
 20
254.2079642454189
 30
0.0
 10
116.9109831055035
 20
254.0189614902296
 30
0.0
 10
116.4257426037185
 20
253.8546476956024
 30
0.0
 10
115.9105011156882
 20
253.7116321937988
 30
0.0
 10
115.3788358549289
 20
253.5944797582021
 30
0.0
 10
114.826386805328
 20
253.5015058672332
 30
0.0
 10
114.2639959653912
 20
253.4351868083306
 30
0.0
 10
113.6909793151405
 20
253.3948405503504
 30
0.0
 10
113.1146331118649
 20
253.3815502186341
 30
0.0
 10
112.5382869085667
 20
253.3948405504665
 30
0.0
 10
111.9652702583827
 20
253.435186808571
 30
0.0
 10
111.4028794182055
 20
253.5015058675353
 30
0.0
 10
110.8504303694747
 20
253.5944797587383
 30
0.0
 10
110.3187651055509
 20
253.7116321938662
 30
0.0
 10
109.8035236287421
 20
253.8546476976005
 30
0.0
 10
109.3182830865725
 20
254.0189614854228
 30
0.0
 10
108.8557658534992
 20
254.2079642642278
 30
0.0
 10
108.4310569392981
 20
254.4145151390695
 30
0.0
 10
108.0351852749405
 20
254.6441696768479
 30
0.0
 10
107.6831268401764
 20
254.887174863886
 30
0.0
 10
107.3658769634923
 20
255.1511380032899
 30
0.0
 10
107.0965878343311
 20
255.4245182125833
 30
0.0
 10
106.867945842213
 20
255.7157046227917
 30
0.0
 10
106.6903531169646
 20
256.0133453872803
 30
0.0
 10
106.5587400453283
 20
256.3236553051565
 30
0.0
 10
106.4813150692484
 20
256.6378138820646
 30
0.0
 10
106.4533549521317
 20
256.956693830368
 30
0.0
 10
106.4813150692404
 20
257.2755737786709
 30
0.0
 10
106.5587400453126
 20
257.5897323555781
 30
0.0
 10
106.6903531169414
 20
257.9000422734526
 30
0.0
 10
106.8679458421828
 20
258.1976830379386
 30
0.0
 10
107.0965878342943
 20
258.4888694481435
 30
0.0
 10
107.3658769634497
 20
258.7622496574326
 30
0.0
 10
107.6831268401284
 20
259.0262127968311
 30
0.0
 10
108.0351852748878
 20
259.269217983863
 30
0.0
 10
108.4310569392413
 20
259.4988725216339
 30
0.0
 10
108.855765853439
 20
259.7054233964668
 30
0.0
 10
109.3182830865095
 20
259.8944261752614
 30
0.0
 10
109.803523628677
 20
260.0587399630714
 30
0.0
 10
110.3187651054844
 20
260.2017554667913
 30
0.0
 10
110.8504303694073
 20
260.3189079019022
 30
0.0
 10
111.4028794181378
 20
260.4118817930853
 30
0.0
 10
111.9652702583149
 20
260.4782008520261
 30
0.0
 10
112.5382869085007
 20
260.5185471101035
 30
0.0
 10
113.1146331117953
 20
260.5318374419038
 30
0.0
 10
113.6909793150884
 20
260.5185471101544
 30
0.0
 10
114.2639959652793
 20
260.4782008521216
 30
0.0
 10
114.8263868054402
 20
260.4118817932165
 30
0.0
 10
115.3788358542329
 20
260.3189079020396
 30
0.0
 10
115.9105011179333
 20
260.2017554669586
 30
0.0
 10
116.4257425955326
 20
260.0587399630691
 30
0.0
 10
116.9109831348505
 20
259.8944261756679
 30
0.0
 10
117.3735003778127
 20
259.7054233950923
 30
0.0
 10
117.7982092567678
 20
259.498872526041
 30
0.0
 10
118.1940810412625
 20
259.2692179677979
 30
0.0
 10
118.5461390517907
 20
259.0262128520167
 30
0.0
 10
118.8633903560288
 20
258.7622494715812
 30
0.0
 10
119.1326744615959
 20
258.4888701088588
 30
0.0
 10
119.3613333413974
 20
258.1976808508451
 30
0.0
 10
119.5388662071689
 20
257.9000501781604
 30
0.0
 10
119.6706848699545
 20
257.5897055964913
 30
0.0
 10
119.747364730485
 20
257.2756726459777
 30
0.0
 10
119.7780166326138
 20
256.9563388589392
 30
0.0
 10
119.7529470463747
 20
256.7473645151
 30
0.0
 10
119.7404122587597
 20
256.6428773440468
 30
0.0
 11
119.7404122587597
 21
256.6428773440468
 31
0.0
 11
119.662239596206
 21
256.3262661798875
 31
0.0
 11
119.5365333411294
 21
256.0259052149958
 31
0.0
 11
119.3549769576943
 21
255.7198594406931
 31
0.0
 11
119.1366148977993
 21
255.4396875172484
 31
0.0
 11
118.8588673484241
 21
255.1558838886813
 31
0.0
 11
118.5545677962447
 21
254.9014876293675
 31
0.0
 11
118.1909201709257
 21
254.6490242523095
 31
0.0
 11
117.8085871640466
 21
254.4264628321384
 31
0.0
 11
117.3713186032715
 21
254.212742032923
 31
0.0
 11
116.9211231755724
 21
254.0282821742116
 31
0.0
 11
116.4242834539579
 21
253.8593020747953
 31
0.0
 11
115.9187967860385
 21
253.7186909574579
 31
0.0
 11
115.3779389790314
 21
253.5990235998328
 31
0.0
 11
114.8317686709145
 21
253.5069562211456
 31
0.0
 11
114.2635687038753
 21
253.4396579415024
 31
0.0
 11
113.6928390258246
 21
253.3994627518876
 31
0.0
 11
113.11463310187
 21
253.385996265549
 31
0.0
 11
112.5364271779154
 21
253.3994627518877
 31
0.0
 11
111.9656974998646
 21
253.4396579415025
 31
0.0
 11
111.3974975328254
 21
253.5069562211456
 31
0.0
 11
110.8513272247086
 21
253.5990235998328
 31
0.0
 11
110.3104694177015
 21
253.7186909574579
 31
0.0
 11
109.8049827497821
 21
253.8593020747953
 31
0.0
 11
109.3081430281675
 21
254.0282821742115
 31
0.0
 11
108.8579476004684
 21
254.2127420329229
 31
0.0
 11
108.4206790396933
 21
254.4264628321384
 31
0.0
 11
108.0383460328143
 21
254.6490242523095
 31
0.0
 11
107.6746984074953
 21
254.9014876293676
 31
0.0
 11
107.3703988553158
 21
255.1558838886814
 31
0.0
 11
107.0926513059406
 21
255.4396875172484
 31
0.0
 11
106.8742892460456
 21
255.7198594406932
 31
0.0
 11
106.6927328626106
 21
256.0259052149958
 31
0.0
 11
106.5670266075339
 21
256.3262661798875
 31
0.0
 11
106.4888539449802
 21
256.6428773440468
 31
0.0
 11
106.4625657540449
 21
256.956693830685
 31
0.0
 11
106.4888539449802
 21
257.2705103173233
 31
0.0
 11
106.567026607534
 21
257.5871214814826
 31
0.0
 11
106.6927328626106
 21
257.8874824463743
 31
0.0
 11
106.8742892460457
 21
258.193528220677
 31
0.0
 11
107.0926513059406
 21
258.4737001441217
 31
0.0
 11
107.3703988553158
 21
258.7575037726887
 31
0.0
 11
107.6746984074952
 21
259.0119000320025
 31
0.0
 11
108.0383460328142
 21
259.2643634090605
 31
0.0
 11
108.4206790396933
 21
259.4869248292317
 31
0.0
 11
108.8579476004684
 21
259.7006456284471
 31
0.0
 11
109.3081430281675
 21
259.8851054871585
 31
0.0
 11
109.8049827497821
 21
260.0540855865748
 31
0.0
 11
110.3104694177015
 21
260.1946967039121
 31
0.0
 11
110.8513272247086
 21
260.3143640615372
 31
0.0
 11
111.3974975328254
 21
260.4064314402244
 31
0.0
 11
111.9656974998647
 21
260.4737297198675
 31
0.0
 11
112.5364271779154
 21
260.5139249094824
 31
0.0
 11
113.11463310187
 21
260.527391395821
 31
0.0
 11
113.6928390258246
 21
260.5139249094824
 31
0.0
 11
114.2635687038753
 21
260.4737297198675
 31
0.0
 11
114.8317686709145
 21
260.4064314402244
 31
0.0
 11
115.3779389790313
 21
260.3143640615373
 31
0.0
 11
115.9187967860385
 21
260.1946967039121
 31
0.0
 11
116.4242834539579
 21
260.0540855865747
 31
0.0
 11
116.9211231755725
 21
259.8851054871584
 31
0.0
 11
117.3713186032716
 21
259.7006456284471
 31
0.0
 11
117.8085871640467
 21
259.4869248292317
 31
0.0
 11
118.1909201709257
 21
259.2643634090605
 31
0.0
 11
118.5545677962447
 21
259.0119000320025
 31
0.0
 11
118.8588673484241
 21
258.7575037726887
 31
0.0
 11
119.1366148977993
 21
258.4737001441217
 31
0.0
 11
119.3549769576943
 21
258.193528220677
 31
0.0
 11
119.5365333411294
 21
257.8874824463743
 31
0.0
 11
119.662239596206
 21
257.5871214814826
 31
0.0
 11
119.7404122587597
 21
257.2705103173233
 31
0.0
 11
119.766700449695
 21
256.956693830685
 31
0.0
 11
119.7404122587597
 21
256.6428773440468
 31
0.0
  0
SPLINE
  5
97
330
47
100
AcDbEntity
  8
0
  6
Continuous
 62
     7
100
AcDbSpline
210
0.0
220
0.0
230
1.0
 70
    11
 71
     3
 72
    79
 73
    75
 74
    73
 42
0.000000001
 43
0.0000000001
 44
0.00000001
 40
0.0
 40
0.0
 40
0.0
 40
0.0
 40
0.2910229063172471
 40
0.5820342199790971
 40
0.8749339259796005
 40
1.167812540311793
 40
1.46356118173001
 40
1.759282799553826
 40
2.058487804326647
 40
2.357663878865653
 40
2.660503334662578
 40
2.963315618548028
 40
3.269530819653525
 40
3.575723462230557
 40
3.88466273757502
 40
4.193586021287196
 40
4.504289078951544
 40
4.814983875317451
 40
5.126294424223317
 40
5.437604973118105
 40
5.748299769450987
 40
6.059002827059813
 40
6.367926110694112
 40
6.676865385937274
 40
6.983058028389933
 40
7.289273229346033
 40
7.592085513057665
 40
7.894924968652843
 40
8.194101042962648
 40
8.493306047472835
 40
8.789027664996869
 40
9.084776306062212
 40
9.377654919956258
 40
9.670554625323046
 40
9.961565937614797
 40
10.25258885279218
 40
10.54295309049249
 40
10.83331732819178
 40
11.124340243366
 40
11.41535155565247
 40
11.70825126101202
 40
12.00112987489694
 40
12.29687851595125
 40
12.59260013346261
 40
12.89180513795843
 40
13.1909812122525
 40
13.49382066783056
 40
13.79663295152396
 40
14.10284815246059
 40
14.40904079489296
 40
14.71798007011486
 40
15.02690335372718
 40
15.33760641131331
 40
15.64830120762301
 40
15.959611756494
 40
16.27092230537553
 40
16.58161710171686
 40
16.892320159356
 40
17.20124344304261
 40
17.51018271836099
 40
17.81637536091154
 40
18.12259056198958
 40
18.42540284584683
 40
18.72824230161361
 40
19.02741837611985
 40
19.32662338085477
 40
19.62234499863111
 40
19.91809363998192
 40
20.21097225419809
 40
20.50387195993864
 40
20.79488327268851
 40
21.08590618851607
 40
21.37627042760408
 40
21.66663465645638
 40
21.66663465645638
 40
21.66663465645638
 40
21.66663465645638
 10
124.9489453001017
 20
260.5137630820861
 30
0.0
 10
124.8525702443866
 20
260.5020874146484
 30
0.0
 10
124.6598239713187
 20
260.4787365500624
 30
0.0
 10
124.3758874639894
 20
260.4093805582969
 30
0.0
 10
124.098623197364
 20
260.3159378011817
 30
0.0
 10
123.8298708130715
 20
260.1960308154474
 30
0.0
 10
123.5722254292369
 20
260.0519853104548
 30
0.0
 10
123.3269984817328
 20
259.8839187097664
 30
0.0
 10
123.0967351254372
 20
259.6940839768255
 30
0.0
 10
122.8825029166978
 20
259.4829478482765
 30
0.0
 10
122.6865484877248
 20
259.2531682447482
 30
0.0
 10
122.5097911439009
 20
259.0054397126204
 30
0.0
 10
122.3540203097378
 20
258.7427074728748
 30
0.0
 10
122.2200518921763
 20
258.4659564613146
 30
0.0
 10
122.1091288607027
 20
258.1782244836265
 30
0.0
 10
122.0219520681451
 20
257.8808710372741
 30
0.0
 10
121.9592040578682
 20
257.5768250411967
 30
0.0
 10
121.9214036784728
 20
257.2678834455039
 30
0.0
 10
121.908726604802
 20
256.9566938402584
 30
0.0
 10
121.9214036781073
 20
256.6455042350037
 30
0.0
 10
121.959204057138
 20
256.3365626393163
 30
0.0
 10
122.021952067041
 20
256.032516643158
 30
0.0
 10
122.1091288592487
 20
255.7351631970072
 30
0.0
 10
122.2200518902673
 20
255.4474312184321
 30
0.0
 10
122.354020307744
 20
255.1706802099762
 30
0.0
 10
122.5097911404208
 20
254.9079479584847
 30
0.0
 10
122.6865484879093
 20
254.6602194694557
 30
0.0
 10
122.8825029014179
 20
254.4304397057605
 30
0.0
 10
123.0967351652919
 20
254.2193041676747
 30
0.0
 10
123.3269983151275
 20
254.0294672445651
 30
0.0
 10
123.5722260225218
 20
253.8614087264845
 30
0.0
 10
123.8298685839988
 20
253.7173332247017
 30
0.0
 10
124.098631401686
 20
253.5975371542282
 30
0.0
 10
124.3758568871732
 20
253.503682157389
 30
0.0
 10
124.6599372404697
 20
253.4358552507971
 30
0.0
 10
124.9483047207762
 20
253.395160289167
 30
0.0
 10
125.2389887542488
 20
253.3813944955916
 30
0.0
 10
125.5296727877216
 20
253.3951602891417
 30
0.0
 10
125.8180402680285
 20
253.4358552507467
 30
0.0
 10
126.1021206213254
 20
253.5036821573136
 30
0.0
 10
126.3793461068136
 20
253.5975371541278
 30
0.0
 10
126.6481089245018
 20
253.7173332245766
 30
0.0
 10
126.9057514859803
 20
253.8614087263345
 30
0.0
 10
127.1509791933759
 20
254.0294672443906
 30
0.0
 10
127.3812423432133
 20
254.2193041674757
 30
0.0
 10
127.5954746070892
 20
254.4304397055373
 30
0.0
 10
127.7914290205997
 20
254.6602194692085
 30
0.0
 10
127.9681863680905
 20
254.9079479582133
 30
0.0
 10
128.1239572007698
 20
255.1706802096811
 30
0.0
 10
128.2579256182492
 20
255.4474312181129
 30
0.0
 10
128.3688486492706
 20
255.7351631966644
 30
0.0
 10
128.4560254414814
 20
256.0325166427913
 30
0.0
 10
128.5187734513879
 20
256.3365626389259
 30
0.0
 10
128.5565738304223
 20
256.6455042345895
 30
0.0
 10
128.5692509037317
 20
256.9566938398194
 30
0.0
 10
128.5565738300662
 20
257.2678834450447
 30
0.0
 10
128.5187734506744
 20
257.5768250406981
 30
0.0
 10
128.45602544041
 20
257.8808710368083
 30
0.0
 10
128.3688486478366
 20
258.1782244829236
 30
0.0
 10
128.2579256164575
 20
258.4659564613772
 30
0.0
 10
128.1239571985889
 20
258.742707469989
 30
0.0
 10
127.968186365617
 20
259.0054397205623
 30
0.0
 10
127.7914290174573
 20
259.2531682125958
 30
0.0
 10
127.5954746046442
 20
259.4829479647078
 30
0.0
 10
127.3812423363932
 20
259.6940835450288
 30
0.0
 10
127.1509792009328
 20
259.8839203109478
 30
0.0
 10
126.9057514385971
 20
260.0519794085294
 30
0.0
 10
126.648109079062
 20
260.1960527589401
 30
0.0
 10
126.3793455126474
 20
260.3158567834839
 30
0.0
 10
126.1021228077796
 20
260.4096822164305
 30
0.0
 10
125.8180321381224
 20
260.4776187807735
 30
0.0
 10
125.5297030763729
 20
260.5179053370844
 30
0.0
 10
125.2388759659112
 20
260.5331920814784
 30
0.0
 10
125.0455888543439
 20
260.5202394133878
 30
0.0
 10
124.9489453001017
 20
260.5137630820861
 30
0.0
 11
124.9489453001017
 21
260.5137630820861
 31
0.0
 11
124.6607858038268
 21
260.4730391089996
 31
0.0
 11
124.3777035974443
 21
260.4055702389343
 31
0.0
 11
124.1002795549005
 21
260.3116227102955
 31
0.0
 11
123.8327178027832
 21
260.1925068364961
 31
0.0
 11
123.574585434068
 21
260.048163707039
 31
0.0
 11
123.3305727814568
 21
259.8811035366232
 31
0.0
 11
123.0996932759259
 21
259.6907925050224
 31
0.0
 11
122.8865179809748
 21
259.4808815306669
 31
0.0
 11
122.6899836569665
 21
259.2504775475405
 31
0.0
 11
122.5140101211669
 21
259.0040458248528
 31
0.0
 11
122.357812980694
 21
258.740663588015
 31
0.0
 11
122.2243172927298
 21
258.4651044552372
 31
0.0
 11
122.1131673671727
 21
258.1768525343399
 31
0.0
 11
122.0261907131464
 21
257.8804260562995
 31
0.0
 11
121.9633856388249
 21
257.5761368637566
 31
0.0
 11
121.9256102771533
 21
257.267747047836
 31
0.0
 11
121.9129550809397
 21
256.956693830685
 31
0.0
 11
121.9256102771533
 21
256.6456406135341
 31
0.0
 11
121.9633856388249
 21
256.3372507976135
 31
0.0
 11
122.0261907131464
 21
256.0329616050706
 31
0.0
 11
122.1131673671727
 21
255.7365351270302
 31
0.0
 11
122.2243172927298
 21
255.4482832061329
 31
0.0
 11
122.357812980694
 21
255.1727240733551
 31
0.0
 11
122.5140101211669
 21
254.9093418365172
 31
0.0
 11
122.6899836569665
 21
254.6629101138295
 31
0.0
 11
122.8865179809747
 21
254.432506130703
 31
0.0
 11
123.099693275926
 21
254.2225951563476
 31
0.0
 11
123.3305727814568
 21
254.0322841247468
 31
0.0
 11
123.574585434068
 21
253.8652239543311
 31
0.0
 11
123.8327178027832
 21
253.7208808248739
 31
0.0
 11
124.1002795549005
 21
253.6017649510744
 31
0.0
 11
124.3777035974444
 21
253.5078174224357
 31
0.0
 11
124.6607858038269
 21
253.4403485523704
 31
0.0
 11
124.9489453001018
 21
253.3996245792839
 31
0.0
 11
125.2389887548522
 21
253.3859796164136
 31
0.0
 11
125.5290322096027
 21
253.3996245792838
 31
0.0
 11
125.8171917058776
 21
253.4403485523703
 31
0.0
 11
126.1002739122601
 21
253.5078174224357
 31
0.0
 11
126.3776979548039
 21
253.6017649510745
 31
0.0
 11
126.6452597069213
 21
253.7208808248739
 31
0.0
 11
126.9033920756365
 21
253.8652239543311
 31
0.0
 11
127.1474047282476
 21
254.0322841247468
 31
0.0
 11
127.3782842337785
 21
254.2225951563476
 31
0.0
 11
127.5914595287296
 21
254.432506130703
 31
0.0
 11
127.7879938527379
 21
254.6629101138295
 31
0.0
 11
127.9639673885375
 21
254.9093418365173
 31
0.0
 11
128.1201645290104
 21
255.1727240733551
 31
0.0
 11
128.2536602169746
 21
255.4482832061329
 31
0.0
 11
128.3648101425317
 21
255.7365351270302
 31
0.0
 11
128.4517867965581
 21
256.0329616050705
 31
0.0
 11
128.5145918708795
 21
256.3372507976134
 31
0.0
 11
128.5523672325511
 21
256.6456406135341
 31
0.0
 11
128.5650224287647
 21
256.956693830685
 31
0.0
 11
128.5523672325511
 21
257.267747047836
 31
0.0
 11
128.5145918708795
 21
257.5761368637566
 31
0.0
 11
128.451786796558
 21
257.8804260562995
 31
0.0
 11
128.3648101425317
 21
258.1768525343399
 31
0.0
 11
128.2536602169746
 21
258.4651044552371
 31
0.0
 11
128.1201645290104
 21
258.740663588015
 31
0.0
 11
127.9639673885375
 21
259.0040458248527
 31
0.0
 11
127.7879938527379
 21
259.2504775475405
 31
0.0
 11
127.5914595287296
 21
259.4808815306669
 31
0.0
 11
127.3782842337785
 21
259.6907925050224
 31
0.0
 11
127.1474047282476
 21
259.8811035366232
 31
0.0
 11
126.9033920756364
 21
260.048163707039
 31
0.0
 11
126.6452597069212
 21
260.1925068364961
 31
0.0
 11
126.3776979548039
 21
260.3116227102955
 31
0.0
 11
126.1002739122601
 21
260.4055702389343
 31
0.0
 11
125.8171917058776
 21
260.4730391089996
 31
0.0
 11
125.5290322096027
 21
260.5137630820861
 31
0.0
 11
125.2389887548522
 21
260.5274080449564
 31
0.0
 11
124.9489453001017
 21
260.5137630820861
 31
0.0
  0
SPLINE
  5
98
330
47
100
AcDbEntity
  8
1
  6
Continuous
 62
     7
100
AcDbSpline
210
0.0
220
0.0
230
1.0
 70
     8
 71
     3
 72
    59
 73
    55
 74
    53
 42
0.000000001
 43
0.0000000001
 44
0.00000001
 40
0.0
 40
0.0
 40
0.0
 40
0.0
 40
0.3328651827688205
 40
0.6657611041850532
 40
1.06741978033292
 40
1.468838788479069
 40
1.902250705269093
 40
2.335501149688922
 40
2.796817186514518
 40
3.258030093562367
 40
3.740926892458173
 40
4.223763025437805
 40
4.720245451316864
 40
5.216699829651247
 40
5.717807156448739
 40
6.21891448324048
 40
6.715368861556736
 40
7.211851287406938
 40
7.694687420347391
 40
8.177584219193056
 40
8.638797126179416
 40
9.10011316292416
 40
9.533363607236925
 40
9.966775523862742
 40
10.36819453175413
 40
10.76985320745529
 40
11.13896133039563
 40
11.50839733346175
 40
11.84902949532369
 40
12.19003324400938
 40
12.51084707573411
 40
12.83192838854507
 40
13.14569037347722
 40
13.45945235841435
 40
13.78053367123848
 40
14.10134750298393
 40
14.44235125169565
 40
14.78298341358513
 40
15.15241941667951
 40
15.52152753964401
 40
15.92318621536477
 40
16.32460522326749
 40
16.75801713989548
 40
17.19126758419983
 40
17.65258362092375
 40
18.11379652787718
 40
18.59669332667594
 40
19.07952945955602
 40
19.57601188533011
 40
20.07246626355047
 40
20.57357359020806
 40
21.07468091669958
 40
21.30241171257353
 40
21.52997847746145
 40
21.52997847746145
 40
21.52997847746145
 40
21.52997847746145
 10
404.4269436776522
 20
258.5289813534906
 30
0.0
 10
404.3556713356692
 20
258.6141292576308
 30
0.0
 10
404.2131200653372
 20
258.7844329246504
 30
0.0
 10
403.9537741820084
 20
259.0290373122781
 30
0.0
 10
403.65820242924
 20
259.2663233815172
 30
0.0
 10
403.3154311229701
 20
259.4960644906134
 30
0.0
 10
402.9467791972182
 20
259.7036693347735
 30
0.0
 10
402.5462121270597
 20
259.8928758310023
 30
0.0
 10
402.1251111362517
 20
260.0578434221241
 30
0.0
 10
401.6787518620351
 20
260.2010266218827
 30
0.0
 10
401.2175562752132
 20
260.3185540787609
 30
0.0
 10
400.7388611046445
 20
260.4116378221897
 30
0.0
 10
400.2511938160076
 20
260.478140637954
 30
0.0
 10
399.7545760046812
 20
260.5185261956106
 30
0.0
 10
399.2549551905674
 20
260.5318696769962
 30
0.0
 10
398.755334374551
 20
260.5185261963911
 30
0.0
 10
398.2587165689381
 20
260.4781406339807
 30
0.0
 10
397.7710492597371
 20
260.4116378354106
 30
0.0
 10
397.2923541640259
 20
260.3185540288443
 30
0.0
 10
396.8311583039224
 20
260.2010268022822
 30
0.0
 10
396.3848000061823
 20
260.057842779548
 30
0.0
 10
395.9636954794358
 20
259.8928781687669
 30
0.0
 10
395.5631408415649
 20
259.7036611943083
 30
0.0
 10
395.1944442504423
 20
259.4960939962685
 30
0.0
 10
394.8518279590367
 20
259.2662222349948
 30
0.0
 10
394.5462801154728
 20
259.0218389282587
 30
0.0
 10
394.2721276498726
 20
258.7578076783815
 30
0.0
 10
394.0388839849677
 20
258.483050334373
 30
0.0
 10
393.8420049515751
 20
258.1923497826909
 30
0.0
 10
393.6889054094306
 20
257.8943641281589
 30
0.0
 10
393.5763579389862
 20
257.585663508935
 30
0.0
 10
393.509806428684
 20
257.2730928719938
 30
0.0
 10
393.4863311720486
 20
256.9566938291564
 30
0.0
 10
393.5098064287798
 20
256.6402947863219
 30
0.0
 10
393.5763579391761
 20
256.3277241493876
 30
0.0
 10
393.688905409711
 20
256.019023530176
 30
0.0
 10
393.8420049519422
 20
255.7210378756602
 30
0.0
 10
394.0388839854165
 20
255.4303373240028
 30
0.0
 10
394.2721276503968
 20
255.155579980016
 30
0.0
 10
394.5462801160646
 20
254.8915487302034
 30
0.0
 10
394.8518279596909
 20
254.6471654233998
 30
0.0
 10
395.1944442511364
 20
254.4172936626206
 30
0.0
 10
395.5631408423427
 20
254.2097264628856
 30
0.0
 10
395.9636954800716
 20
254.0205094953278
 30
0.0
 10
396.3848000075096
 20
253.8555448576106
 30
0.0
 10
396.8311583026572
 20
253.7123609387395
 30
0.0
 10
397.2923541728663
 20
253.5948333076893
 30
0.0
 10
397.7710492300731
 20
253.5017510397169
 30
0.0
 10
398.2587166866815
 20
253.4352423451115
 30
0.0
 10
398.7553339370385
 20
253.3948789820831
 30
0.0
 10
399.2549568430855
 20
253.381451923669
 30
0.0
 10
399.6649851750777
 20
253.3926584979983
 30
0.0
 10
399.9831566917485
 20
253.4133554723634
 30
0.0
 10
400.1342212279222
 20
253.4280197408432
 30
0.0
 10
400.2097262835455
 20
253.4353492368341
 30
0.0
 11
404.4269436776522
 21
258.5289813534906
 31
0.0
 11
404.2083257053855
 21
258.7799901550544
 31
0.0
 11
403.9678821200886
 21
259.0102217280375
 31
0.0
 11
403.6547207628669
 21
259.2617364517842
 31
0.0
 11
403.321693643686
 21
259.4858573073776
 31
0.0
 11
402.9443652809678
 21
259.6990923801929
 31
0.0
 11
402.5527976117742
 21
259.8845127351437
 31
0.0
 11
402.1234642600351
 21
260.0532887965907
 31
0.0
 11
401.6843751715346
 21
260.1944203592608
 31
0.0
 11
401.2165292811338
 21
260.3140428538119
 31
0.0
 11
400.7425972536349
 21
260.406342174478
 31
0.0
 11
400.2507005469413
 21
260.4736654922513
 31
0.0
 11
399.7558809949589
 21
260.5139216806585
 31
0.0
 11
399.2549551811793
 21
260.5274080449558
 31
0.0
 11
398.7540293673995
 21
260.5139216806585
 31
0.0
 11
398.2592098154173
 21
260.4736654922514
 31
0.0
 11
397.7673131087237
 21
260.4063421744781
 31
0.0
 11
397.2933810812249
 21
260.3140428538119
 31
0.0
 11
396.8255351908242
 21
260.1944203592608
 31
0.0
 11
396.3864461023238
 21
260.0532887965907
 31
0.0
 11
395.9571127505845
 21
259.8845127351437
 31
0.0
 11
395.5655450813911
 21
259.699092380193
 31
0.0
 11
395.1882167186728
 21
259.4858573073777
 31
0.0
 11
394.855189599492
 21
259.2617364517843
 31
0.0
 11
394.5420282422702
 21
259.0102217280376
 31
0.0
 11
394.2766911131652
 21
258.7536344826573
 31
0.0
 11
394.03819781661
 21
258.4714928373115
 31
0.0
 11
393.8479620925045
 21
258.1889319781287
 31
0.0
 11
393.6925372259271
 21
257.8854082267331
 31
0.0
 11
393.5835823937826
 21
257.5836627058632
 31
0.0
 11
393.5165868520798
 21
257.26964868225
 31
0.0
 11
393.4940958702779
 21
256.9566938306842
 31
0.0
 11
393.5165868520799
 21
256.6437389791185
 31
0.0
 11
393.5835823937826
 21
256.3297249555054
 31
0.0
 11
393.692537225927
 21
256.0279794346354
 31
0.0
 11
393.8479620925042
 21
255.7244556832398
 31
0.0
 11
394.0381978166099
 21
255.4418948240569
 31
0.0
 11
394.2766911131652
 21
255.1597531787112
 31
0.0
 11
394.5420282422702
 21
254.9031659333309
 31
0.0
 11
394.855189599492
 21
254.6516512095842
 31
0.0
 11
395.1882167186728
 21
254.4275303539908
 31
0.0
 11
395.565545081391
 21
254.2142952811757
 31
0.0
 11
395.9571127505845
 21
254.0288749262247
 31
0.0
 11
396.3864461023237
 21
253.8600988647778
 31
0.0
 11
396.8255351908242
 21
253.7189673021076
 31
0.0
 11
397.293381081225
 21
253.5993448075566
 31
0.0
 11
397.7673131087237
 21
253.5070454868904
 31
0.0
 11
398.2592098154173
 21
253.4397221691171
 31
0.0
 11
398.7540293673995
 21
253.3994659807101
 31
0.0
 11
399.2549551811792
 21
253.3859796164128
 31
0.0
 11
399.7558809949589
 21
253.3994659807101
 31
0.0
 11
399.9831108418074
 21
253.4145627468382
 31
0.0
 11
400.2097262835455
 21
253.4353492368341
 31
0.0
  0
SPLINE
  5
99
330
47
100
AcDbEntity
  8
1
  6
Continuous
 62
     7
100
AcDbSpline
210
0.0
220
0.0
230
1.0
 70
     8
 71
     3
 72
    59
 73
    55
 74
    53
 42
0.000000001
 43
0.0000000001
 44
0.00000001
 40
0.0
 40
0.0
 40
0.0
 40
0.0
 40
0.3328651827722386
 40
0.6657611041919272
 40
1.067419780339874
 40
1.468838788486023
 40
1.902250705275998
 40
2.335501149695826
 40
2.796817186521423
 40
3.258030093569217
 40
3.740926892465078
 40
4.223763025444543
 40
4.720245451323547
 40
5.21669982965793
 40
5.717807156455535
 40
6.218914483247106
 40
6.715368861563362
 40
7.211851287413564
 40
7.694687420353906
 40
8.177584219199735
 40
8.638797126186311
 40
9.100113162931002
 40
9.533363607243922
 40
9.96677552386969
 40
10.36819453176112
 40
10.7698532074622
 40
11.13896133040241
 40
11.5083973334686
 40
11.84902949533057
 40
12.19003324401624
 40
12.51084707574094
 40
12.83192838855188
 40
13.14569037348403
 40
13.45945235842116
 40
13.78053367124528
 40
14.10134750299075
 40
14.44235125170249
 40
14.782983413592
 40
15.15241941668642
 40
15.52152753965084
 40
15.92318621537138
 40
16.32460522327414
 40
16.75801713990228
 40
17.19126758420663
 40
17.65258362093061
 40
18.11379652788404
 40
18.59669332668274
 40
19.07952945956294
 40
19.57601188533719
 40
20.07246626355749
 40
20.57357359021509
 40
21.0746809167066
 40
21.30241171258021
 40
21.52997847746779
 40
21.52997847746779
 40
21.52997847746779
 40
21.52997847746779
 10
408.0829666847022
 20
258.5289813534852
 30
0.0
 10
408.1542390266857
 20
258.6141292576264
 30
0.0
 10
408.2967902970188
 20
258.7844329246481
 30
0.0
 10
408.5561361803496
 20
259.0290373122772
 30
0.0
 10
408.8517079331189
 20
259.2663233815172
 30
0.0
 10
409.1944792393887
 20
259.4960644906133
 30
0.0
 10
409.5631311651406
 20
259.7036693347736
 30
0.0
 10
409.9636982352993
 20
259.8928758310022
 30
0.0
 10
410.3847992261068
 20
260.0578434221241
 30
0.0
 10
410.8311585003237
 20
260.2010266218827
 30
0.0
 10
411.2923540871456
 20
260.3185540787609
 30
0.0
 10
411.7710492577141
 20
260.4116378221898
 30
0.0
 10
412.258716546351
 20
260.478140637954
 30
0.0
 10
412.7553343576774
 20
260.5185261956107
 30
0.0
 10
413.2549551717913
 20
260.5318696769962
 30
0.0
 10
413.7545759878076
 20
260.5185261963911
 30
0.0
 10
414.2511937934204
 20
260.4781406339807
 30
0.0
 10
414.7388611026212
 20
260.4116378354107
 30
0.0
 10
415.2175561983328
 20
260.3185540288442
 30
0.0
 10
415.678752058436
 20
260.2010268022822
 30
0.0
 10
416.1251103561763
 20
260.057842779548
 30
0.0
 10
416.5462148829232
 20
259.8928781687667
 30
0.0
 10
416.9467695207938
 20
259.7036611943084
 30
0.0
 10
417.3154661119167
 20
259.4960939962684
 30
0.0
 10
417.6580824033221
 20
259.2662222349948
 30
0.0
 10
417.963630246886
 20
259.0218389282587
 30
0.0
 10
418.2377827124858
 20
258.7578076783814
 30
0.0
 10
418.4710263773911
 20
258.483050334373
 30
0.0
 10
418.6679054107836
 20
258.192349782691
 30
0.0
 10
418.8210049529282
 20
257.8943641281588
 30
0.0
 10
418.9335524233725
 20
257.5856635089351
 30
0.0
 10
419.0001039336742
 20
257.2730928719936
 30
0.0
 10
419.0235791903101
 20
256.9566938291565
 30
0.0
 10
419.0001039335789
 20
256.6402947863219
 30
0.0
 10
418.9335524231826
 20
256.3277241493874
 30
0.0
 10
418.8210049526479
 20
256.0190235301761
 30
0.0
 10
418.6679054104164
 20
255.7210378756602
 30
0.0
 10
418.4710263769421
 20
255.4303373240028
 30
0.0
 10
418.2377827119617
 20
255.1555799800159
 30
0.0
 10
417.9636302462943
 20
254.8915487302036
 30
0.0
 10
417.658082402668
 20
254.6471654233996
 30
0.0
 10
417.3154661112225
 20
254.4172936626206
 30
0.0
 10
416.946769520016
 20
254.2097264628857
 30
0.0
 10
416.5462148822871
 20
254.0205094953276
 30
0.0
 10
416.1251103548491
 20
253.8555448576107
 30
0.0
 10
415.6787520597013
 20
253.7123609387395
 30
0.0
 10
415.2175561894927
 20
253.5948333076892
 30
0.0
 10
414.7388611322855
 20
253.5017510397169
 30
0.0
 10
414.251193675677
 20
253.4352423451115
 30
0.0
 10
413.75457642532
 20
253.3948789820832
 30
0.0
 10
413.2549535192729
 20
253.381451923669
 30
0.0
 10
412.8449251872808
 20
253.3926584979982
 30
0.0
 10
412.5267536706106
 20
253.4133554723635
 30
0.0
 10
412.3756891344368
 20
253.4280197408431
 30
0.0
 10
412.3001840788137
 20
253.435349236834
 30
0.0
 11
408.0829666847022
 21
258.5289813534852
 31
0.0
 11
408.3015846569708
 21
258.7799901550519
 31
0.0
 11
408.5420282422702
 21
259.0102217280375
 31
0.0
 11
408.855189599492
 21
259.2617364517842
 31
0.0
 11
409.1882167186728
 21
259.4858573073776
 31
0.0
 11
409.565545081391
 21
259.6990923801929
 31
0.0
 11
409.9571127505845
 21
259.8845127351437
 31
0.0
 11
410.3864461023237
 21
260.0532887965907
 31
0.0
 11
410.8255351908242
 21
260.1944203592608
 31
0.0
 11
411.293381081225
 21
260.3140428538119
 31
0.0
 11
411.7673131087237
 21
260.406342174478
 31
0.0
 11
412.2592098154172
 21
260.4736654922513
 31
0.0
 11
412.7540293673996
 21
260.5139216806585
 31
0.0
 11
413.2549551811794
 21
260.5274080449558
 31
0.0
 11
413.7558809949589
 21
260.5139216806585
 31
0.0
 11
414.2507005469412
 21
260.4736654922514
 31
0.0
 11
414.7425972536348
 21
260.4063421744781
 31
0.0
 11
415.2165292811335
 21
260.3140428538119
 31
0.0
 11
415.6843751715344
 21
260.1944203592608
 31
0.0
 11
416.123464260035
 21
260.0532887965907
 31
0.0
 11
416.5527976117742
 21
259.8845127351437
 31
0.0
 11
416.9443652809678
 21
259.699092380193
 31
0.0
 11
417.321693643686
 21
259.4858573073777
 31
0.0
 11
417.6547207628669
 21
259.2617364517843
 31
0.0
 11
417.9678821200885
 21
259.0102217280376
 31
0.0
 11
418.2332192491934
 21
258.7536344826573
 31
0.0
 11
418.4717125457487
 21
258.4714928373115
 31
0.0
 11
418.6619482698543
 21
258.1889319781287
 31
0.0
 11
418.8173731364316
 21
257.8854082267331
 31
0.0
 11
418.9263279685759
 21
257.5836627058632
 31
0.0
 11
418.9933235102787
 21
257.26964868225
 31
0.0
 11
419.0158144920807
 21
256.9566938306842
 31
0.0
 11
418.9933235102789
 21
256.6437389791185
 31
0.0
 11
418.9263279685761
 21
256.3297249555054
 31
0.0
 11
418.8173731364317
 21
256.0279794346354
 31
0.0
 11
418.6619482698544
 21
255.7244556832398
 31
0.0
 11
418.4717125457487
 21
255.4418948240569
 31
0.0
 11
418.2332192491934
 21
255.1597531787112
 31
0.0
 11
417.9678821200885
 21
254.9031659333309
 31
0.0
 11
417.6547207628669
 21
254.6516512095842
 31
0.0
 11
417.321693643686
 21
254.4275303539908
 31
0.0
 11
416.9443652809677
 21
254.2142952811757
 31
0.0
 11
416.5527976117742
 21
254.0288749262247
 31
0.0
 11
416.123464260035
 21
253.8600988647778
 31
0.0
 11
415.6843751715345
 21
253.7189673021076
 31
0.0
 11
415.2165292811337
 21
253.5993448075566
 31
0.0
 11
414.7425972536349
 21
253.5070454868904
 31
0.0
 11
414.2507005469412
 21
253.4397221691171
 31
0.0
 11
413.7558809949589
 21
253.3994659807101
 31
0.0
 11
413.2549551811793
 21
253.3859796164128
 31
0.0
 11
412.7540293673995
 21
253.3994659807101
 31
0.0
 11
412.5267995205514
 21
253.4145627468381
 31
0.0
 11
412.3001840788137
 21
253.435349236834
 31
0.0
  0
ARC
  5
9A
330
47
100
AcDbEntity
  8
1
  6
Continuous
 62
     7
100
AcDbCircle
 10
124.6726541636006
 20
260.8142307952434
 30
0.0
 40
0.9999999999999704
100
AcDbArc
 50
74.66244233044159
 51
90.0
  0
ARC
  5
9B
330
47
100
AcDbEntity
  8
1
  6
Continuous
 62
     7
100
AcDbCircle
 10
122.8825822943012
 20
261.8142307952434
 30
0.0
 40
0.9999999999999712
100
AcDbArc
 50
30.00000000000095
 51
90.0
  0
ARC
  5
9C
330
47
100
AcDbEntity
  8
1
  6
Continuous
 62
     7
100
AcDbCircle
 10
124.6146331018701
 20
262.8142307952434
 30
0.0
 40
1.000000000000045
100
AcDbArc
 50
209.9999999999985
 51
270.0
  0
ARC
  5
9D
330
47
100
AcDbEntity
  8
1
  6
Continuous
 62
     7
100
AcDbCircle
 10
101.5566120401395
 20
260.8142307952434
 30
0.0
 40
1.0
100
AcDbArc
 50
90.0
 51
105.3375576695512
  0
ARC
  5
9E
330
47
100
AcDbEntity
  8
1
  6
Continuous
 62
     7
100
AcDbCircle
 10
103.3466839094388
 20
261.8142307952434
 30
0.0
 40
1.0
100
AcDbArc
 50
90.0
 51
149.9999999999958
  0
ARC
  5
9F
330
47
100
AcDbEntity
  8
1
  6
Continuous
 62
     7
100
AcDbCircle
 10
101.6146331018701
 20
262.8142307952434
 30
0.0
 40
1.0
100
AcDbArc
 50
270.0
 51
329.9999999999991
  0
ARC
  5
A0
330
47
100
AcDbEntity
  8
1
  6
Continuous
 62
     7
100
AcDbCircle
 10
396.4870059887475
 20
261.8142307952426
 30
0.0
 40
0.9999999999999722
100
AcDbArc
 50
137.0585971351234
 51
149.9999999999962
  0
ARC
  5
A1
330
47
100
AcDbEntity
  8
1
  6
Continuous
 62
     7
100
AcDbCircle
 10
394.7549551811786
 20
262.8142307952426
 30
0.0
 40
1.0
100
AcDbArc
 50
270.0
 51
330.0000000000043
  0
ARC
  5
A2
330
47
100
AcDbEntity
  8
1
  6
Continuous
 62
     7
100
AcDbCircle
 10
396.4870059887475
 20
261.8142307952426
 30
0.0
 40
1.0
100
AcDbArc
 50
90.0
 51
137.0585971351234
  0
ARC
  5
A3
330
47
100
AcDbEntity
  8
1
  6
Continuous
 62
     7
100
AcDbCircle
 10
394.696934119448
 20
260.8142307952426
 30
0.0
 40
1.0
100
AcDbArc
 50
90.0
 51
105.3375576695498
  0
ARC
  5
A4
330
47
100
AcDbEntity
  8
1
  6
Continuous
 62
     7
100
AcDbCircle
 10
416.0229043736098
 20
261.8142307952426
 30
0.0
 40
0.9999999999999836
100
AcDbArc
 50
30.00000000000054
 51
42.94140286487882
  0
ARC
  5
A5
330
47
100
AcDbEntity
  8
1
  6
Continuous
 62
     7
100
AcDbCircle
 10
417.7549551811786
 20
262.8142307952426
 30
0.0
 40
0.9999999999999836
100
AcDbArc
 50
210.0000000000005
 51
270.0
  0
ARC
  5
A6
330
47
100
AcDbEntity
  8
1
  6
Continuous
 62
     7
100
AcDbCircle
 10
416.0229043736098
 20
261.8142307952426
 30
0.0
 40
0.9999999999999306
100
AcDbArc
 50
42.94140286487882
 51
90.0
  0
ARC
  5
A7
330
47
100
AcDbEntity
  8
1
  6
Continuous
 62
     7
100
AcDbCircle
 10
417.8129762429093
 20
260.8142307952426
 30
0.0
 40
0.999999999999914
100
AcDbArc
 50
74.66244233045337
 51
90.0
  0
ENDBLK
  5
49
330
47
100
AcDbEntity
  8
0
100
AcDbBlockEnd
  0
BLOCK
  5
4B
330
4A
100
AcDbEntity
  8
0
100
AcDbBlockBegin
  2
61-1-16-170
 70
     0
 10
-178.2158280336974
 20
304.2100281160253
 30
0.0
  3
61-1-16-170
  1

  0
LINE
  5
A8
330
4A
100
AcDbEntity
  8
1
  6
Continuous
 62
     7
100
AcDbLine
 10
105.1146331018701
 20
267.3142307952437
 30
0.0
 11
105.1146331018701
 21
295.3142307952437
 31
0.0
  0
LINE
  5
A9
330
4A
100
AcDbEntity
  8
1
  6
Continuous
 62
     7
100
AcDbLine
 10
121.1146331018701
 20
267.3142307952436
 30
0.0
 11
121.1146331018701
 21
295.3142307952437
 31
0.0
  0
LINE
  5
AA
330
4A
100
AcDbEntity
  8
1
  6
Continuous
 62
     7
100
AcDbLine
 10
105.728226095884
 20
262.3142307952436
 30
0.0
 11
120.5010401078562
 21
262.3142307952436
 31
0.0
  0
LINE
  5
AB
330
4A
100
AcDbEntity
  8
1
  6
Continuous
 62
     7
100
AcDbLine
 10
121.1146331018701
 20
267.3142307952436
 30
0.0
 11
105.1146331018701
 21
267.3142307952437
 31
0.0
  0
LINE
  5
AC
330
4A
100
AcDbEntity
  8
1
  6
DASH_CENTER
 62
     2
100
AcDbLine
 10
124.4888552957321
 20
393.1559361776149
 30
0.0
 11
102.1366818896492
 21
393.1559361776149
 31
0.0
  0
LINE
  5
AD
330
4A
100
AcDbEntity
  8
1
  6
Continuous
 62
     7
100
AcDbLine
 10
105.1146331018701
 20
563.155936177615
 30
0.0
 11
105.1146331018701
 21
393.1559361776149
 31
0.0
  0
LINE
  5
AE
330
4A
100
AcDbEntity
  8
1
  6
Continuous
 62
     7
100
AcDbLine
 10
121.1146331018701
 20
563.155936177615
 30
0.0
 11
121.1146331018701
 21
393.1559361776149
 31
0.0
  0
LINE
  5
AF
330
4A
100
AcDbEntity
  8
1
  6
Continuous
 62
     7
100
AcDbLine
 10
244.2549551811786
 20
267.3142307952436
 30
0.0
 11
228.2549551811786
 21
267.3142307952437
 31
0.0
  0
LINE
  5
B0
330
4A
100
AcDbEntity
  8
1
  6
Continuous
 62
     7
100
AcDbLine
 10
236.2549551811786
 20
262.3142307952436
 30
0.0
 11
228.8685481751925
 21
262.3142307952436
 31
0.0
  0
LINE
  5
B1
330
4A
100
AcDbEntity
  8
1
  6
Continuous
 62
     7
100
AcDbLine
 10
243.6413621871647
 20
262.3142307952436
 30
0.0
 11
236.2549551811786
 21
262.3142307952436
 31
0.0
  0
LINE
  5
B2
330
4A
100
AcDbEntity
  8
1
  6
Continuous
 62
     7
100
AcDbLine
 10
379.2549551811786
 20
303.3142307952437
 30
0.0
 11
263.2549551811786
 21
303.3142307952437
 31
0.0
  0
LINE
  5
B3
330
4A
100
AcDbEntity
  8
1
  6
Continuous
 62
     7
100
AcDbLine
 10
398.2549551811786
 20
262.8142307952437
 30
0.0
 11
398.2549551811786
 21
268.3142307952437
 31
0.0
  0
LINE
  5
B4
330
4A
100
AcDbEntity
  8
1
  6
Continuous
 62
     7
100
AcDbLine
 10
414.2549551811786
 20
268.3142307952437
 30
0.0
 11
414.2549551811786
 21
262.8142307952437
 31
0.0
  0
LINE
  5
B5
330
4A
100
AcDbEntity
  8
1
  6
Continuous
 62
     7
100
AcDbLine
 10
379.2549551811786
 20
287.3142307952437
 30
0.0
 11
263.2549551811786
 21
287.3142307952437
 31
0.0
  0
LINE
  5
B6
330
4A
100
AcDbEntity
  8
1
  6
Continuous
 62
     7
100
AcDbLine
 10
228.2549551811786
 20
267.3142307952437
 30
0.0
 11
228.2549551811786
 21
268.3142307952437
 31
0.0
  0
LINE
  5
B7
330
4A
100
AcDbEntity
  8
1
  6
Continuous
 62
     7
100
AcDbLine
 10
244.2549551811786
 20
267.3142307952436
 30
0.0
 11
244.2549551811786
 21
268.3142307952436
 31
0.0
  0
ARC
  5
B8
330
4A
100
AcDbEntity
  8
1
  6
Continuous
 62
     7
100
AcDbCircle
 10
113.11463310187
 20
563.155936177615
 30
0.0
 40
8.0000000000001
100
AcDbArc
 50
0.0
 51
180.0
  0
ARC
  5
B9
330
4A
100
AcDbEntity
  8
1
  6
Continuous
 62
     7
100
AcDbCircle
 10
113.1146331018701
 20
295.3142307952437
 30
0.0
 40
8.0
100
AcDbArc
 50
0.0
 51
180.0
  0
ARC
  5
BA
330
4A
100
AcDbEntity
  8
1
  6
Continuous
 62
     7
100
AcDbCircle
 10
117.9046068071519
 20
265.1705110880213
 30
0.0
 40
3.860026294718307
100
AcDbArc
 50
312.2716554964177
 51
0.0
  0
ARC
  5
BB
330
4A
100
AcDbEntity
  8
1
  6
Continuous
 62
     7
100
AcDbCircle
 10
108.3246593965884
 20
265.1705110880213
 30
0.0
 40
3.860026294718276
100
AcDbArc
 50
146.2642089999716
 51
180.0
  0
ARC
  5
BC
330
4A
100
AcDbEntity
  8
1
  6
Continuous
 62
     7
100
AcDbCircle
 10
108.3246593965884
 20
265.1705110880213
 30
0.0
 40
3.860026294718296
100
AcDbArc
 50
180.0
 51
227.7283445035812
  0
ARC
  5
BD
330
4A
100
AcDbEntity
  8
1
  6
Continuous
 62
     7
100
AcDbCircle
 10
117.9046068071519
 20
265.1705110880213
 30
0.0
 40
3.86002629471821
100
AcDbArc
 50
0.0
 51
33.73579100002785
  0
ARC
  5
BE
330
4A
100
AcDbEntity
  8
1
  6
Continuous
 62
     7
100
AcDbCircle
 10
113.1146331018701
 20
393.1559361776149
 30
0.0
 40
8.650000000000114
100
AcDbArc
 50
157.6465744006669
 51
270.0
  0
ARC
  5
BF
330
4A
100
AcDbEntity
  8
1
  6
Continuous
 62
     7
100
AcDbCircle
 10
113.1146331018701
 20
393.1559361776149
 30
0.0
 40
8.650000000000091
100
AcDbArc
 50
270.0
 51
22.35342559933306
  0
ARC
  5
C0
330
4A
100
AcDbEntity
  8
1
  6
Continuous
 62
     7
100
AcDbCircle
 10
113.1146331018701
 20
393.1559361776149
 30
0.0
 40
8.0
100
AcDbArc
 50
180.0
 51
0.0
  0
ARC
  5
C1
330
4A
100
AcDbEntity
  8
1
  6
Continuous
 62
     7
100
AcDbCircle
 10
379.2549551811786
 20
268.3142307952437
 30
0.0
 40
35.0
100
AcDbArc
 50
0.0
 51
90.0
  0
ARC
  5
C2
330
4A
100
AcDbEntity
  8
1
  6
Continuous
 62
     7
100
AcDbCircle
 10
379.2549551811786
 20
268.3142307952437
 30
0.0
 40
19.0
100
AcDbArc
 50
0.0
 51
90.0
  0
ARC
  5
C3
330
4A
100
AcDbEntity
  8
1
  6
Continuous
 62
     7
100
AcDbCircle
 10
263.2549551811786
 20
268.3142307952436
 30
0.0
 40
35.00000000000011
100
AcDbArc
 50
90.0
 51
179.9999999999998
  0
ARC
  5
C4
330
4A
100
AcDbEntity
  8
1
  6
Continuous
 62
     7
100
AcDbCircle
 10
263.2549551811786
 20
268.3142307952436
 30
0.0
 40
19.00000000000011
100
AcDbArc
 50
90.0
 51
180.0
  0
ARC
  5
C5
330
4A
100
AcDbEntity
  8
1
  6
Continuous
 62
     7
100
AcDbCircle
 10
241.0449288864604
 20
265.1705110880213
 30
0.0
 40
3.860026294718298
100
AcDbArc
 50
312.2716554964175
 51
0.0
  0
ARC
  5
C6
330
4A
100
AcDbEntity
  8
1
  6
Continuous
 62
     7
100
AcDbCircle
 10
231.4649814758969
 20
265.1705110880213
 30
0.0
 40
3.860026294718288
100
AcDbArc
 50
146.2642089999717
 51
180.0
  0
ARC
  5
C7
330
4A
100
AcDbEntity
  8
1
  6
Continuous
 62
     7
100
AcDbCircle
 10
231.4649814758969
 20
265.1705110880213
 30
0.0
 40
3.860026294718296
100
AcDbArc
 50
180.0
 51
227.7283445035812
  0
ARC
  5
C8
330
4A
100
AcDbEntity
  8
1
  6
Continuous
 62
     7
100
AcDbCircle
 10
241.0449288864604
 20
265.1705110880213
 30
0.0
 40
3.860026294718182
100
AcDbArc
 50
0.0
 51
33.73579100002809
  0
ENDBLK
  5
4C
330
4A
100
AcDbEntity
  8
0
100
AcDbBlockEnd
  0
BLOCK
  5
50
330
4D
100
AcDbEntity
  8
0
100
AcDbBlockBegin
  2
61-1X-16-170
 70
     0
 10
70.22315577676792
 20
245.3142307952434
 30
0.0
  3
61-1X-16-170
  1

  0
INSERT
  5
4E
330
4D
100
AcDbEntity
  8
0
100
AcDbBlockReference
  2
32-1-16
 10
187.9019112083787
 20
485.8491420378471
 30
0.0
 41
1.0
 42
1.0
 43
1.0
  0
INSERT
  5
4F
330
4D
100
AcDbEntity
  8
0
100
AcDbBlockReference
  2
61-1-16-170
 10
-178.2158280336974
 20
304.2100281160252
 30
0.0
 41
1.0
 42
1.0
 43
1.0
  0
LINE
  5
C9
330
4D
100
AcDbEntity
  8
1
  6
PHANTOM
 62
     4
100
AcDbLine
 10
236.2549551811786
 20
259.3142307952436
 30
0.0
 11
236.2549551811786
 21
268.3142307952436
 31
0.0
  0
LINE
  5
CA
330
4D
100
AcDbEntity
  8
1
  6
PHANTOM
 62
     4
100
AcDbLine
 10
263.2549551811786
 20
295.3142307952437
 30
0.0
 11
379.2549551811786
 21
295.3142307952437
 31
0.0
  0
ARC
  5
CB
330
4D
100
AcDbEntity
  8
1
  6
PHANTOM
 62
     4
100
AcDbCircle
 10
263.2549551811786
 20
268.3142307952436
 30
0.0
 40
27.00000000000011
100
AcDbArc
 50
90.0
 51
180.0
  0
ARC
  5
CC
330
4D
100
AcDbEntity
  8
1
  6
PHANTOM
 62
     4
100
AcDbCircle
 10
379.2549551811786
 20
268.3142307952437
 30
0.0
 40
27.0
100
AcDbArc
 50
0.0
 51
90.0
  0
ENDBLK
  5
51
330
4D
100
AcDbEntity
  8
0
100
AcDbBlockEnd
  0
BLOCK
  5
53
330
52
100
AcDbEntity
  8
0
100
AcDbBlockBegin
  2
A20-0-13
 70
     0
 10
146.1146331018701
 20
204.8142307952434
 30
0.0
  3
A20-0-13
  1

  0
LINE
  5
CD
330
52
100
AcDbEntity
  8
1
  6
Continuous
 62
     7
100
AcDbLine
 10
126.1146331018701
 20
252.8142307952434
 30
0.0
 11
126.1146331018701
 21
251.3142307952434
 31
0.0
  0
LINE
  5
CE
330
52
100
AcDbEntity
  8
1
  6
Continuous
 62
     7
100
AcDbLine
 10
126.8055343092355
 20
241.3158466535236
 30
0.0
 11
115.0210610649478
 21
229.6943011886454
 31
0.0
  0
LINE
  5
CF
330
52
100
AcDbEntity
  8
1
  6
Continuous
 62
     7
100
AcDbLine
 10
126.1146331018701
 20
246.7878967562537
 30
0.0
 11
126.1146331018701
 21
246.5515438049462
 31
0.0
  0
LINE
  5
D0
330
52
100
AcDbEntity
  8
1
  6
Continuous
 62
     7
100
AcDbLine
 10
100.1146331018701
 20
246.7878967562538
 30
0.0
 11
100.1146331018701
 21
227.8142307952434
 31
0.0
  0
LINE
  5
D1
330
52
100
AcDbEntity
  8
1
  6
Continuous
 62
     7
100
AcDbLine
 10
132.2836281935898
 20
240.5244482274367
 30
0.0
 11
131.6897736141782
 21
240.5666048398674
 31
0.0
  0
LINE
  5
D2
330
52
100
AcDbEntity
  8
1
  6
Continuous
 62
     7
100
AcDbLine
 10
135.1146331018701
 20
239.8142307952434
 30
0.0
 11
135.1146331018701
 21
215.8142307952434
 31
0.0
  0
LINE
  5
D3
330
52
100
AcDbEntity
  8
1
  6
Continuous
 62
     7
100
AcDbLine
 10
132.2836281935898
 20
215.1040133630501
 30
0.0
 11
135.1146331018701
 21
215.3049810424205
 31
0.0
  0
LINE
  5
D4
330
52
100
AcDbEntity
  8
1
  6
Continuous
 62
     7
100
AcDbLine
 10
126.1146331018701
 20
248.5642307952434
 30
0.0
 11
126.1146331018701
 21
246.7878967562537
 31
0.0
  0
LINE
  5
D5
330
52
100
AcDbEntity
  8
1
  6
Continuous
 62
     7
100
AcDbLine
 10
114.1146331018701
 20
213.8142307952435
 30
0.0
 11
132.2836281935898
 21
215.1040133630501
 31
0.0
  0
LINE
  5
D6
330
52
100
AcDbEntity
  8
1
  6
Continuous
 62
     7
100
AcDbLine
 10
135.1146331018701
 20
215.3049810424205
 30
0.0
 11
135.1146331018701
 21
215.8142307952434
 31
0.0
  0
LINE
  5
D7
330
52
100
AcDbEntity
  8
1
  6
Continuous
 62
     7
100
AcDbLine
 10
135.1146331018701
 20
215.8142307952434
 30
0.0
 11
135.3825822943012
 21
215.8142307952434
 31
0.0
  0
LINE
  5
D8
330
52
100
AcDbEntity
  8
1
  6
Continuous
 62
     7
100
AcDbLine
 10
135.3825822943012
 20
215.8142307952434
 30
0.0
 11
137.1146331018701
 21
215.8142307952434
 31
0.0
  0
LINE
  5
D9
330
52
100
AcDbEntity
  8
1
  6
Continuous
 62
     7
100
AcDbLine
 10
137.1146331018701
 20
215.8142307952434
 30
0.0
 11
138.6146331018701
 21
215.8142307952434
 31
0.0
  0
LINE
  5
DA
330
52
100
AcDbEntity
  8
1
  6
Continuous
 62
     2
100
AcDbLine
 10
137.1146331018701
 20
216.8142307952434
 30
0.0
 11
138.6146331018701
 21
216.8142307952435
 31
0.0
  0
LINE
  5
DB
330
52
100
AcDbEntity
  8
1
  6
Continuous
 62
     2
100
AcDbLine
 10
135.3825822943012
 20
215.8142307952434
 30
0.0
 11
137.1146331018701
 21
216.8142307952434
 31
0.0
  0
LINE
  5
DC
330
52
100
AcDbEntity
  8
1
  6
Continuous
 62
     7
100
AcDbLine
 10
137.1146331018701
 20
215.8142307952434
 30
0.0
 11
137.1146331018701
 21
239.8142307952434
 31
0.0
  0
LINE
  5
DD
330
52
100
AcDbEntity
  8
1
  6
Continuous
 62
     2
100
AcDbLine
 10
137.1146331018701
 20
238.8142307952434
 30
0.0
 11
135.3825822943012
 21
239.8142307952434
 31
0.0
  0
LINE
  5
DE
330
52
100
AcDbEntity
  8
1
  6
Continuous
 62
     2
100
AcDbLine
 10
137.1146331018701
 20
238.8142307952434
 30
0.0
 11
138.6146331018701
 21
238.8142307952434
 31
0.0
  0
LINE
  5
DF
330
52
100
AcDbEntity
  8
1
  6
Continuous
 62
     7
100
AcDbLine
 10
138.6146331018701
 20
239.8142307952434
 30
0.0
 11
137.1146331018701
 21
239.8142307952434
 31
0.0
  0
LINE
  5
E0
330
52
100
AcDbEntity
  8
1
  6
Continuous
 62
     7
100
AcDbLine
 10
137.1146331018701
 20
239.8142307952434
 30
0.0
 11
135.3825822943012
 21
239.8142307952434
 31
0.0
  0
LINE
  5
E1
330
52
100
AcDbEntity
  8
1
  6
Continuous
 62
     7
100
AcDbLine
 10
135.3825822943012
 20
239.8142307952434
 30
0.0
 11
135.1146331018701
 21
239.8142307952434
 31
0.0
  0
LINE
  5
E2
330
52
100
AcDbEntity
  8
1
  6
Continuous
 62
     7
100
AcDbLine
 10
135.1146331018701
 20
239.8142307952434
 30
0.0
 11
135.1146331018701
 21
240.3234805480663
 31
0.0
  0
LINE
  5
E3
330
52
100
AcDbEntity
  8
1
  6
Continuous
 62
     7
100
AcDbLine
 10
135.1146331018701
 20
240.3234805480663
 30
0.0
 11
132.2836281935898
 21
240.5244482274367
 31
0.0
  0
LINE
  5
E4
330
52
100
AcDbEntity
  8
1
  6
Continuous
 62
     7
100
AcDbLine
 10
126.1146331018701
 20
251.3142307952434
 30
0.0
 11
100.1146331018701
 21
251.3142307952434
 31
0.0
  0
LINE
  5
E5
330
52
100
AcDbEntity
  8
1
  6
Continuous
 62
     7
100
AcDbLine
 10
126.1146331018701
 20
251.3142307952434
 30
0.0
 11
126.1146331018701
 21
249.5821799876744
 31
0.0
  0
LINE
  5
E6
330
52
100
AcDbEntity
  8
1
  6
Continuous
 62
     7
100
AcDbLine
 10
100.1146331018701
 20
251.3142307952434
 30
0.0
 11
100.1146331018701
 21
252.8142307952434
 31
0.0
  0
LINE
  5
E7
330
52
100
AcDbEntity
  8
1
  6
Continuous
 62
     7
100
AcDbLine
 10
100.1146331018701
 20
249.5821799876744
 30
0.0
 11
100.1146331018701
 21
251.3142307952434
 31
0.0
  0
LINE
  5
E8
330
52
100
AcDbEntity
  8
1
  6
Continuous
 62
     7
100
AcDbLine
 10
100.1146331018701
 20
249.5821799876744
 30
0.0
 11
100.1146331018701
 21
246.7878967562538
 31
0.0
  0
LINE
  5
E9
330
52
100
AcDbEntity
  8
1
  6
Continuous
 62
     2
100
AcDbLine
 10
101.1146331018701
 20
251.3142307952434
 30
0.0
 11
101.1146331018701
 21
252.8142307952434
 31
0.0
  0
LINE
  5
EA
330
52
100
AcDbEntity
  8
1
  6
Continuous
 62
     2
100
AcDbLine
 10
101.1146331018701
 20
251.3142307952434
 30
0.0
 11
100.1146331018701
 21
249.5821799876744
 31
0.0
  0
LINE
  5
EB
330
52
100
AcDbEntity
  8
1
  6
Continuous
 62
     7
100
AcDbLine
 10
126.1146331018701
 20
249.5821799876744
 30
0.0
 11
126.1146331018701
 21
248.5642307952434
 31
0.0
  0
LINE
  5
EC
330
52
100
AcDbEntity
  8
1
  6
Continuous
 62
     2
100
AcDbLine
 10
126.1146331018701
 20
249.5821799876744
 30
0.0
 11
125.1146331018701
 21
251.3142307952434
 31
0.0
  0
LINE
  5
ED
330
52
100
AcDbEntity
  8
1
  6
Continuous
 62
     2
100
AcDbLine
 10
125.1146331018701
 20
251.3142307952434
 30
0.0
 11
125.1146331018701
 21
252.8142307952434
 31
0.0
  0
LINE
  5
EE
330
52
100
AcDbEntity
  8
1
  6
Continuous
 62
     7
100
AcDbLine
 10
121.1146331018701
 20
549.6528529266741
 30
0.0
 11
132.2836281935898
 21
550.4457187454217
 31
0.0
  0
LINE
  5
EF
330
52
100
AcDbEntity
  8
1
  6
Continuous
 62
     7
100
AcDbLine
 10
138.6146331018701
 20
575.155936177615
 30
0.0
 11
137.1146331018701
 21
575.155936177615
 31
0.0
  0
LINE
  5
F0
330
52
100
AcDbEntity
  8
1
  6
PHANTOM
 62
     4
100
AcDbLine
 10
93.45514585188391
 20
563.1559361776151
 30
0.0
 11
175.4837686423718
 21
563.1559361776151
 31
0.0
  0
LINE
  5
F1
330
52
100
AcDbEntity
  8
1
  6
Continuous
 62
     7
100
AcDbLine
 10
132.2836281935898
 20
550.4457187454217
 30
0.0
 11
135.1146331018701
 21
550.6466864247922
 31
0.0
  0
LINE
  5
F2
330
52
100
AcDbEntity
  8
1
  6
Continuous
 62
     7
100
AcDbLine
 10
135.1146331018701
 20
575.6651859304378
 30
0.0
 11
133.0149141264868
 21
575.8142410057501
 31
0.0
  0
LINE
  5
F3
330
52
100
AcDbEntity
  8
1
  6
Continuous
 62
     7
100
AcDbLine
 10
135.1146331018701
 20
575.155936177615
 30
0.0
 11
135.1146331018701
 21
551.155936177615
 31
0.0
  0
LINE
  5
F4
330
52
100
AcDbEntity
  8
1
  6
Continuous
 62
     7
100
AcDbLine
 10
135.1146331018701
 20
550.6466864247922
 30
0.0
 11
135.1146331018701
 21
551.155936177615
 31
0.0
  0
LINE
  5
F5
330
52
100
AcDbEntity
  8
1
  6
Continuous
 62
     7
100
AcDbLine
 10
135.1146331018701
 20
551.155936177615
 30
0.0
 11
135.3825822943013
 21
551.155936177615
 31
0.0
  0
LINE
  5
F6
330
52
100
AcDbEntity
  8
1
  6
Continuous
 62
     7
100
AcDbLine
 10
135.3825822943013
 20
551.155936177615
 30
0.0
 11
137.1146331018701
 21
551.155936177615
 31
0.0
  0
LINE
  5
F7
330
52
100
AcDbEntity
  8
1
  6
Continuous
 62
     7
100
AcDbLine
 10
137.1146331018701
 20
551.155936177615
 30
0.0
 11
138.6146331018701
 21
551.155936177615
 31
0.0
  0
LINE
  5
F8
330
52
100
AcDbEntity
  8
1
  6
Continuous
 62
     2
100
AcDbLine
 10
137.1146331018701
 20
552.155936177615
 30
0.0
 11
138.6146331018701
 21
552.155936177615
 31
0.0
  0
LINE
  5
F9
330
52
100
AcDbEntity
  8
1
  6
Continuous
 62
     2
100
AcDbLine
 10
135.3825822943013
 20
551.155936177615
 30
0.0
 11
137.1146331018701
 21
552.155936177615
 31
0.0
  0
LINE
  5
FA
330
52
100
AcDbEntity
  8
1
  6
Continuous
 62
     7
100
AcDbLine
 10
137.1146331018701
 20
551.155936177615
 30
0.0
 11
137.1146331018701
 21
575.155936177615
 31
0.0
  0
LINE
  5
FB
330
52
100
AcDbEntity
  8
1
  6
Continuous
 62
     2
100
AcDbLine
 10
137.1146331018701
 20
574.155936177615
 30
0.0
 11
135.3825822943013
 21
575.155936177615
 31
0.0
  0
LINE
  5
FC
330
52
100
AcDbEntity
  8
1
  6
Continuous
 62
     2
100
AcDbLine
 10
137.1146331018701
 20
574.155936177615
 30
0.0
 11
138.6146331018701
 21
574.155936177615
 31
0.0
  0
LINE
  5
FD
330
52
100
AcDbEntity
  8
1
  6
Continuous
 62
     7
100
AcDbLine
 10
137.1146331018701
 20
575.155936177615
 30
0.0
 11
135.3825822943013
 21
575.155936177615
 31
0.0
  0
LINE
  5
FE
330
52
100
AcDbEntity
  8
1
  6
Continuous
 62
     7
100
AcDbLine
 10
135.3825822943013
 20
575.155936177615
 30
0.0
 11
135.1146331018701
 21
575.155936177615
 31
0.0
  0
LINE
  5
FF
330
52
100
AcDbEntity
  8
1
  6
Continuous
 62
     7
100
AcDbLine
 10
135.1146331018701
 20
575.155936177615
 30
0.0
 11
135.1146331018701
 21
575.6651859304378
 31
0.0
  0
LINE
  5
100
330
52
100
AcDbEntity
  8
1
  6
Continuous
 62
     7
100
AcDbLine
 10
103.6146331018706
 20
622.1559361776145
 30
0.0
 11
122.6146331018706
 21
622.1559361776145
 31
0.0
  0
LINE
  5
101
330
52
100
AcDbEntity
  8
1
  6
Continuous
 62
     7
100
AcDbLine
 10
103.6146331018706
 20
622.1559361776145
 30
0.0
 11
102.6146331018706
 21
621.1559361776145
 31
0.0
  0
LINE
  5
102
330
52
100
AcDbEntity
  8
1
  6
Continuous
 62
     7
100
AcDbLine
 10
102.6146331018706
 20
608.1559361776145
 30
0.0
 11
102.6146331018706
 21
621.1559361776145
 31
0.0
  0
LINE
  5
103
330
52
100
AcDbEntity
  8
1
  6
Continuous
 62
     7
100
AcDbLine
 10
102.6146331018706
 20
621.1559361776145
 30
0.0
 11
123.6146331018706
 21
621.1559361776145
 31
0.0
  0
LINE
  5
104
330
52
100
AcDbEntity
  8
1
  6
Continuous
 62
     7
100
AcDbLine
 10
123.6146331018706
 20
609.8879869851834
 30
0.0
 11
102.6146331018706
 21
609.8879869851834
 31
0.0
  0
LINE
  5
105
330
52
100
AcDbEntity
  8
1
  6
Continuous
 62
     7
100
AcDbLine
 10
123.6146331018706
 20
621.1559361776145
 30
0.0
 11
122.6146331018706
 21
622.1559361776145
 31
0.0
  0
LINE
  5
106
330
52
100
AcDbEntity
  8
1
  6
Continuous
 62
     7
100
AcDbLine
 10
123.6146331018706
 20
621.1559361776145
 30
0.0
 11
123.6146331018706
 21
608.1559361776145
 31
0.0
  0
LINE
  5
107
330
52
100
AcDbEntity
  8
1
  6
Continuous
 62
     7
100
AcDbLine
 10
121.8646331018706
 20
587.7841189359076
 30
0.0
 11
121.8646331018706
 21
601.6559361776145
 31
0.0
  0
LINE
  5
108
330
52
100
AcDbEntity
  8
1
  6
Continuous
 62
     2
100
AcDbLine
 10
122.6146331018706
 20
622.1559361776145
 30
0.0
 11
122.6146331018706
 21
609.8879869851834
 31
0.0
  0
LINE
  5
109
330
52
100
AcDbEntity
  8
1
  6
Continuous
 62
     2
100
AcDbLine
 10
122.6146331018706
 20
609.8879869851834
 30
0.0
 11
123.6146331018706
 21
608.1559361776145
 31
0.0
  0
LINE
  5
10A
330
52
100
AcDbEntity
  8
1
  6
Continuous
 62
     7
100
AcDbLine
 10
136.1146331018706
 20
606.1559361776145
 30
0.0
 11
136.1146331018706
 21
608.1559361776145
 31
0.0
  0
LINE
  5
10B
330
52
100
AcDbEntity
  8
1
  6
Continuous
 62
     7
100
AcDbLine
 10
104.3646331018706
 20
582.0222421223417
 30
0.0
 11
104.3646331018706
 21
601.6559361776145
 31
0.0
  0
LINE
  5
10C
330
52
100
AcDbEntity
  8
1
  6
Continuous
 62
     7
100
AcDbLine
 10
135.6146331018706
 20
605.6559361776145
 30
0.0
 11
90.61463310187062
 21
605.6559361776145
 31
0.0
  0
LINE
  5
10D
330
52
100
AcDbEntity
  8
1
  6
Continuous
 62
     7
100
AcDbLine
 10
90.11463310187062
 20
608.1559361776145
 30
0.0
 11
90.11463310187062
 21
606.1559361776145
 31
0.0
  0
LINE
  5
10E
330
52
100
AcDbEntity
  8
1
  6
Continuous
 62
     7
100
AcDbLine
 10
90.11463310187062
 20
608.1559361776145
 30
0.0
 11
136.1146331018706
 21
608.1559361776145
 31
0.0
  0
LINE
  5
10F
330
52
100
AcDbEntity
  8
1
  6
Continuous
 62
     2
100
AcDbLine
 10
102.6146331018706
 20
608.1559361776145
 30
0.0
 11
103.6146331018706
 21
609.8879869851834
 31
0.0
  0
LINE
  5
110
330
52
100
AcDbEntity
  8
1
  6
Continuous
 62
     2
100
AcDbLine
 10
103.6146331018706
 20
609.8879869851834
 30
0.0
 11
103.6146331018706
 21
622.1559361776145
 31
0.0
  0
LINE
  5
111
330
52
100
AcDbEntity
  8
1
  6
Continuous
 62
     7
100
AcDbLine
 10
464.2549551811786
 20
237.3142307952437
 30
0.0
 11
464.2549551811786
 21
218.3142307952437
 31
0.0
  0
LINE
  5
112
330
52
100
AcDbEntity
  8
1
  6
Continuous
 62
     7
100
AcDbLine
 10
452.9870059887476
 20
218.3142307952437
 30
0.0
 11
452.9870059887476
 21
237.3142307952437
 31
0.0
  0
LINE
  5
113
330
52
100
AcDbEntity
  8
1
  6
Continuous
 62
     7
100
AcDbLine
 10
451.2549551811786
 20
238.3142307952437
 30
0.0
 11
451.2549551811786
 21
217.3142307952437
 31
0.0
  0
LINE
  5
114
330
52
100
AcDbEntity
  8
1
  6
Continuous
 62
     7
100
AcDbLine
 10
448.7549551811786
 20
240.5642307952437
 30
0.0
 11
448.7549551811786
 21
215.0642307952437
 31
0.0
  0
LINE
  5
115
330
52
100
AcDbEntity
  8
1
  6
Continuous
 62
     2
100
AcDbLine
 10
418.2549551811786
 20
252.8142307952436
 30
0.0
 11
418.2549551811786
 21
251.3142307952436
 31
0.0
  0
LINE
  5
116
330
52
100
AcDbEntity
  8
1
  6
Continuous
 62
     2
100
AcDbLine
 10
452.9870059887476
 20
218.3142307952437
 30
0.0
 11
451.2549551811786
 21
217.3142307952437
 31
0.0
  0
LINE
  5
117
330
52
100
AcDbEntity
  8
1
  6
Continuous
 62
     7
100
AcDbLine
 10
451.2549551811786
 20
217.3142307952437
 30
0.0
 11
451.2549551811786
 21
204.8142307952437
 31
0.0
  0
LINE
  5
118
330
52
100
AcDbEntity
  8
1
  6
Continuous
 62
     7
100
AcDbLine
 10
449.2549551811786
 20
204.8142307952437
 30
0.0
 11
451.2549551811786
 21
204.8142307952437
 31
0.0
  0
LINE
  5
119
330
52
100
AcDbEntity
  8
1
  6
Continuous
 62
     7
100
AcDbLine
 10
448.7549551811786
 20
205.3142307952437
 30
0.0
 11
448.7549551811786
 21
215.0642307952437
 31
0.0
  0
LINE
  5
11A
330
52
100
AcDbEntity
  8
1
  6
Continuous
 62
     2
100
AcDbLine
 10
465.2549551811786
 20
218.3142307952437
 30
0.0
 11
452.9870059887476
 21
218.3142307952437
 31
0.0
  0
LINE
  5
11B
330
52
100
AcDbEntity
  8
1
  6
Continuous
 62
     7
100
AcDbLine
 10
451.2549551811786
 20
250.8142307952436
 30
0.0
 11
449.2549551811786
 21
250.8142307952436
 31
0.0
  0
LINE
  5
11C
330
52
100
AcDbEntity
  8
1
  6
Continuous
 62
     7
100
AcDbLine
 10
451.2549551811786
 20
250.8142307952436
 30
0.0
 11
451.2549551811786
 21
238.3142307952437
 31
0.0
  0
LINE
  5
11D
330
52
100
AcDbEntity
  8
1
  6
Continuous
 62
     2
100
AcDbLine
 10
451.2549551811786
 20
238.3142307952437
 30
0.0
 11
452.9870059887476
 21
237.3142307952437
 31
0.0
  0
LINE
  5
11E
330
52
100
AcDbEntity
  8
1
  6
Continuous
 62
     2
100
AcDbLine
 10
452.9870059887476
 20
237.3142307952437
 30
0.0
 11
465.2549551811786
 21
237.3142307952437
 31
0.0
  0
LINE
  5
11F
330
52
100
AcDbEntity
  8
1
  6
Continuous
 62
     7
100
AcDbLine
 10
444.7549551811786
 20
236.5642307952437
 30
0.0
 11
431.2549551811786
 21
236.5642307952437
 31
0.0
  0
LINE
  5
120
330
52
100
AcDbEntity
  8
1
  6
Continuous
 62
     7
100
AcDbLine
 10
448.7549551811786
 20
240.5642307952437
 30
0.0
 11
448.7549551811786
 21
250.3142307952436
 31
0.0
  0
LINE
  5
121
330
52
100
AcDbEntity
  8
1
  6
Continuous
 62
     2
100
AcDbLine
 10
419.2549551811786
 20
249.5821799876748
 30
0.0
 11
418.2549551811786
 21
251.3142307952436
 31
0.0
  0
LINE
  5
122
330
52
100
AcDbEntity
  8
1
  6
Continuous
 62
     2
100
AcDbLine
 10
394.2549551811786
 20
251.3142307952436
 30
0.0
 11
393.2549551811786
 21
249.5821799876748
 31
0.0
  0
LINE
  5
123
330
52
100
AcDbEntity
  8
1
  6
Continuous
 62
     2
100
AcDbLine
 10
394.2549551811786
 20
251.3142307952436
 30
0.0
 11
394.2549551811786
 21
252.8142307952436
 31
0.0
  0
LINE
  5
124
330
52
100
AcDbEntity
  8
1
  6
Continuous
 62
     7
100
AcDbLine
 10
419.2549551811786
 20
249.5821799876748
 30
0.0
 11
419.2549551811786
 21
248.5642307952437
 31
0.0
  0
LINE
  5
125
330
52
100
AcDbEntity
  8
1
  6
Continuous
 62
     7
100
AcDbLine
 10
393.2549551811786
 20
252.8142307952436
 30
0.0
 11
393.2549551811786
 21
237.1416098483325
 31
0.0
  0
LINE
  5
126
330
52
100
AcDbEntity
  8
1
  6
Continuous
 62
     7
100
AcDbLine
 10
419.2549551811786
 20
251.3142307952436
 30
0.0
 11
412.8685360522858
 21
251.3142307952436
 31
0.0
  0
LINE
  5
127
330
52
100
AcDbEntity
  8
1
  6
Continuous
 62
     7
100
AcDbLine
 10
419.2549551811786
 20
249.5821799876748
 30
0.0
 11
419.2549551811786
 21
252.8142307952436
 31
0.0
  0
LINE
  5
128
330
52
100
AcDbEntity
  8
1
  6
Continuous
 62
     7
100
AcDbLine
 10
465.2549551811786
 20
237.3142307952437
 30
0.0
 11
465.2549551811786
 21
218.3142307952437
 31
0.0
  0
LINE
  5
129
330
52
100
AcDbEntity
  8
1
  6
Continuous
 62
     7
100
AcDbLine
 10
464.2549551811786
 20
217.3142307952437
 30
0.0
 11
465.2549551811786
 21
218.3142307952437
 31
0.0
  0
LINE
  5
12A
330
52
100
AcDbEntity
  8
1
  6
Continuous
 62
     7
100
AcDbLine
 10
464.2549551811786
 20
218.3142307952437
 30
0.0
 11
464.2549551811786
 21
217.3142307952437
 31
0.0
  0
LINE
  5
12B
330
52
100
AcDbEntity
  8
1
  6
Continuous
 62
     7
100
AcDbLine
 10
464.2549551811786
 20
238.3142307952437
 30
0.0
 11
464.2549551811786
 21
237.3142307952437
 31
0.0
  0
LINE
  5
12C
330
52
100
AcDbEntity
  8
1
  6
Continuous
 62
     7
100
AcDbLine
 10
452.9870059887476
 20
237.3142307952437
 30
0.0
 11
452.9870059887476
 21
238.3142307952437
 31
0.0
  0
LINE
  5
12D
330
52
100
AcDbEntity
  8
1
  6
Continuous
 62
     7
100
AcDbLine
 10
465.2549551811786
 20
237.3142307952437
 30
0.0
 11
464.2549551811786
 21
238.3142307952437
 31
0.0
  0
LINE
  5
12E
330
52
100
AcDbEntity
  8
1
  6
Continuous
 62
     7
100
AcDbLine
 10
451.2549551811786
 20
238.3142307952437
 30
0.0
 11
464.2549551811786
 21
238.3142307952437
 31
0.0
  0
LINE
  5
12F
330
52
100
AcDbEntity
  8
1
  6
Continuous
 62
     7
100
AcDbLine
 10
464.2549551811786
 20
217.3142307952437
 30
0.0
 11
451.2549551811786
 21
217.3142307952437
 31
0.0
  0
LINE
  5
130
330
52
100
AcDbEntity
  8
1
  6
Continuous
 62
     7
100
AcDbLine
 10
452.9870059887476
 20
217.3142307952437
 30
0.0
 11
452.9870059887476
 21
218.3142307952437
 31
0.0
  0
LINE
  5
131
330
52
100
AcDbEntity
  8
1
  6
Continuous
 62
     7
100
AcDbLine
 10
399.6413743100715
 20
251.3142307952436
 30
0.0
 11
393.2549551811786
 21
251.3142307952436
 31
0.0
  0
LINE
  5
132
330
52
100
AcDbEntity
  8
1
  6
Continuous
 62
     7
100
AcDbLine
 10
444.7549551811786
 20
219.0642307952437
 30
0.0
 11
432.5670002380059
 21
219.0642307952437
 31
0.0
  0
ARC
  5
133
330
52
100
AcDbEntity
  8
1
  6
Continuous
 62
     7
100
AcDbCircle
 10
113.1146331018701
 20
227.8142307952434
 30
0.0
 40
23.0000000000001
100
AcDbArc
 50
33.54681501581417
 51
55.58261128955849
  0
ARC
  5
134
330
52
100
AcDbEntity
  8
1
  6
Continuous
 62
     7
100
AcDbCircle
 10
114.1146331018701
 20
227.8142307952434
 30
0.0
 40
14.0
100
AcDbArc
 50
180.0
 51
270.0
  0
ARC
  5
135
330
52
100
AcDbEntity
  8
1
  6
Continuous
 62
     7
100
AcDbCircle
 10
113.1146331018701
 20
227.8142307952434
 30
0.0
 40
23.0000000000001
100
AcDbArc
 50
124.4173887104414
 51
326.4531849841858
  0
ARC
  5
136
330
52
100
AcDbEntity
  8
1
  6
Continuous
 62
     7
100
AcDbCircle
 10
363.2549551811786
 20
237.1416098483325
 30
0.0
 40
30.00000000000005
100
AcDbArc
 50
351.1668016303222
 51
0.0
  0
ARC
  5
137
330
52
100
AcDbEntity
  8
1
  6
Continuous
 62
     7
100
AcDbCircle
 10
431.2549551811786
 20
248.5642307952437
 30
0.0
 40
12.0
100
AcDbArc
 50
180.0
 51
270.0
  0
ARC
  5
138
330
52
100
AcDbEntity
  8
1
  6
Continuous
 62
     7
100
AcDbCircle
 10
406.2549551811786
 20
227.8142307952437
 30
0.0
 40
14.00000000000001
100
AcDbArc
 50
262.866123356669
 51
277.1288259215209
  0
ARC
  5
139
330
52
100
AcDbEntity
  8
1
  6
Continuous
 62
     7
100
AcDbCircle
 10
132.1146331018701
 20
246.5515438049462
 30
0.0
 40
6.000000000000014
100
AcDbArc
 50
180.0
 51
265.9394926513525
  0
ARC
  5
13A
330
52
100
AcDbEntity
  8
1
  6
Continuous
 62
     7
100
AcDbCircle
 10
133.8646331018706
 20
587.7841189359076
 30
0.0
 40
12.0
100
AcDbArc
 50
180.0
 51
265.9394926513525
  0
ARC
  5
13B
330
52
100
AcDbEntity
  8
1
  6
Continuous
 62
     7
100
AcDbCircle
 10
74.36463310187062
 20
582.0222421223418
 30
0.0
 40
29.99999999999996
100
AcDbArc
 50
344.8973630808139
 51
359.9999999999998
  0
ARC
  5
13C
330
52
100
AcDbEntity
  8
1
  6
Continuous
 62
     7
100
AcDbCircle
 10
90.61463310187062
 20
606.1559361776145
 30
0.0
 40
0.5
100
AcDbArc
 50
180.0
 51
270.0
  0
ARC
  5
13D
330
52
100
AcDbEntity
  8
1
  6
Continuous
 62
     7
100
AcDbCircle
 10
135.6146331018706
 20
606.1559361776145
 30
0.0
 40
0.5
100
AcDbArc
 50
270.0
 51
0.0
  0
ARC
  5
13E
330
52
100
AcDbEntity
  8
1
  6
Continuous
 62
     7
100
AcDbCircle
 10
125.8646331018706
 20
601.6559361776144
 30
0.0
 40
4.000000000000114
100
AcDbArc
 50
90.0
 51
179.9999999999984
  0
ARC
  5
13F
330
52
100
AcDbEntity
  8
1
  6
Continuous
 62
     7
100
AcDbCircle
 10
100.3646331018706
 20
601.6559361776144
 30
0.0
 40
4.0
100
AcDbArc
 50
0.00000000000163
 51
90.0
  0
ARC
  5
140
330
52
100
AcDbEntity
  8
1
  6
Continuous
 62
     7
100
AcDbCircle
 10
444.7549551811786
 20
215.0642307952437
 30
0.0
 40
4.0
100
AcDbArc
 50
0.0
 51
90.0
  0
ARC
  5
141
330
52
100
AcDbEntity
  8
1
  6
Continuous
 62
     7
100
AcDbCircle
 10
449.2549551811786
 20
205.3142307952437
 30
0.0
 40
0.5
100
AcDbArc
 50
180.0
 51
270.0
  0
ARC
  5
142
330
52
100
AcDbEntity
  8
1
  6
Continuous
 62
     7
100
AcDbCircle
 10
444.7549551811786
 20
240.5642307952437
 30
0.0
 40
4.0
100
AcDbArc
 50
270.0
 51
0.0
  0
ARC
  5
143
330
52
100
AcDbEntity
  8
1
  6
Continuous
 62
     7
100
AcDbCircle
 10
449.2549551811786
 20
250.3142307952436
 30
0.0
 40
0.5
100
AcDbArc
 50
90.0
 51
180.0
  0
ENDBLK
  5
54
330
52
100
AcDbEntity
  8
0
100
AcDbBlockEnd
  0
BLOCK
  5
56
330
55
100
AcDbEntity
  8
0
100
AcDbBlockBegin
  2
21-1C
 70
     0
 10
124.1146331018702
 20
182.8142307952435
 30
0.0
  3
21-1C
  1

  0
LINE
  5
144
330
55
100
AcDbEntity
  8
1
  6
Continuous
 62
     7
100
AcDbLine
 10
155.0922918278542
 20
209.8894565073178
 30
0.0
 11
155.0922918278542
 21
227.8142307952434
 31
0.0
  0
LINE
  5
145
330
55
100
AcDbEntity
  8
1
  6
Continuous
 62
     7
100
AcDbLine
 10
158.8773715832049
 20
258.2822725270113
 30
0.0
 11
155.6618783783343
 21
258.7341806260038
 31
0.0
  0
LINE
  5
146
330
55
100
AcDbEntity
  8
1
  6
Continuous
 62
     7
100
AcDbLine
 10
160.0513684335978
 20
210.0115449408923
 30
0.0
 11
155.6619137605669
 21
209.3943274468847
 31
0.0
  0
LINE
  5
147
330
55
100
AcDbEntity
  8
1
  6
Continuous
 62
     7
100
AcDbLine
 10
155.0922918278542
 20
258.2390465916329
 30
0.0
 11
155.0922918278542
 21
227.8142307952434
 31
0.0
  0
LINE
  5
148
330
55
100
AcDbEntity
  8
1
  6
Continuous
 62
     7
100
AcDbLine
 10
156.5922918278542
 20
590.3065712722258
 30
0.0
 11
156.5922918278542
 21
536.0053010830039
 31
0.0
  0
LINE
  5
149
330
55
100
AcDbEntity
  8
1
  6
Continuous
 62
     7
100
AcDbLine
 10
157.1618783783345
 20
535.510167048633
 30
0.0
 11
160.3773715832049
 21
535.9620751476255
 31
0.0
  0
LINE
  5
14A
330
55
100
AcDbEntity
  8
1
  6
Continuous
 62
     7
100
AcDbLine
 10
160.3773715832049
 20
590.3497972076042
 30
0.0
 11
157.1618783783343
 21
590.8017053065965
 31
0.0
  0
LINE
  5
14B
330
55
100
AcDbEntity
  8
1
  6
Continuous
 62
     7
100
AcDbLine
 10
412.050510138913
 20
254.3671450658588
 30
0.0
 11
415.7019193503835
 21
240.739900369426
 31
0.0
  0
LINE
  5
14C
330
55
100
AcDbEntity
  8
1
  6
Continuous
 62
     7
100
AcDbLine
 10
432.1482309629089
 20
219.556871482363
 30
0.0
 11
422.1723954779465
 21
229.5327069673253
 31
0.0
  0
LINE
  5
14D
330
55
100
AcDbEntity
  8
1
  6
Continuous
 62
     7
100
AcDbLine
 10
426.3526760051745
 20
209.5186758375093
 30
0.0
 11
412.7254313087417
 21
213.1700850489798
 31
0.0
  0
LINE
  5
14E
330
55
100
AcDbEntity
  8
1
  6
Continuous
 62
     7
100
AcDbLine
 10
400.4594002234443
 20
254.3671450658588
 30
0.0
 11
396.8079910119739
 21
240.739900369426
 31
0.0
  0
LINE
  5
14F
330
55
100
AcDbEntity
  8
1
  6
Continuous
 62
     7
100
AcDbLine
 10
385.3967294545623
 20
209.3148991630122
 30
0.0
 11
399.7844790536157
 21
213.1700850489798
 31
0.0
  0
LINE
  5
150
330
55
100
AcDbEntity
  8
1
  6
Continuous
 62
     7
100
AcDbLine
 10
380.3616793994484
 20
219.556871482363
 30
0.0
 11
390.3375148844108
 21
229.5327069673253
 31
0.0
  0
ARC
  5
151
330
55
100
AcDbEntity
  8
1
  6
Continuous
 62
     7
100
AcDbCircle
 10
16.09229182785413
 20
227.8142307952434
 30
0.0
 40
150.0533238552216
100
AcDbArc
 50
1.52752544221297
 51
9.80290179376779
  0
ARC
  5
152
330
55
100
AcDbEntity
  8
1
  6
Continuous
 62
     7
100
AcDbCircle
 10
91.18047081915492
 20
227.4500351299967
 30
0.0
 40
74.99999999999997
100
AcDbArc
 50
350.4085075173349
 51
357.2213610340374
  0
ARC
  5
153
330
55
100
AcDbEntity
  8
1
  6
Continuous
 62
     7
100
AcDbCircle
 10
40.22213928752981
 20
564.7930265285041
 30
0.0
 40
127.494833408141
100
AcDbArc
 50
349.1905067536478
 51
357.4658831052026
  0
ARC
  5
154
330
55
100
AcDbEntity
  8
1
  6
Continuous
 62
     7
100
AcDbCircle
 10
40.22213928752981
 20
561.5188458267256
 30
0.0
 40
127.4948334081409
100
AcDbArc
 50
2.53411689479737
 51
10.80949324635221
  0
ARC
  5
155
330
55
100
AcDbEntity
  8
1
  6
Continuous
 62
     7
100
AcDbCircle
 10
406.2549551811786
 20
252.8142307952437
 30
0.0
 40
5.999999999999981
100
AcDbArc
 50
14.99999999999985
 51
90.0
  0
ARC
  5
156
330
55
100
AcDbEntity
  8
1
  6
Continuous
 62
     7
100
AcDbCircle
 10
427.9055902757896
 20
215.3142307952437
 30
0.0
 40
5.999999999999988
100
AcDbArc
 50
254.9999999999999
 51
45.00000000000019
  0
ARC
  5
157
330
55
100
AcDbEntity
  8
1
  6
Continuous
 62
     7
100
AcDbCircle
 10
406.2549551811786
 20
252.8142307952437
 30
0.0
 40
6.0
100
AcDbArc
 50
90.0
 51
165.0
  0
ARC
  5
158
330
55
100
AcDbEntity
  8
1
  6
Continuous
 62
     7
100
AcDbCircle
 10
384.6043200865677
 20
215.3142307952437
 30
0.0
 40
6.000000000000028
100
AcDbArc
 50
135.0000000000002
 51
277.5242410789403
  0
ARC
  5
159
330
55
100
AcDbEntity
  8
1
  6
Continuous
 62
     7
100
AcDbCircle
 10
158.0423329774445
 20
252.3406641145619
 30
0.0
 40
5.99999999999994
100
AcDbArc
 50
9.8029017937682
 51
81.99999999999974
  0
ARC
  5
15A
330
55
100
AcDbEntity
  8
1
  6
Continuous
 62
     7
100
AcDbCircle
 10
159.2159052410464
 20
215.9530936660894
 30
0.0
 40
5.999999999999946
100
AcDbArc
 50
278.0040943717008
 51
350.4085075173347
  0
ARC
  5
15B
330
55
100
AcDbEntity
  8
1
  6
Continuous
 62
     7
100
AcDbCircle
 10
155.5922918278542
 20
258.2390465916329
 30
0.0
 40
0.5000000000001147
100
AcDbArc
 50
81.99999999999449
 51
180.0
  0
ARC
  5
15C
330
55
100
AcDbEntity
  8
1
  6
Continuous
 62
     7
100
AcDbCircle
 10
155.5922918278542
 20
209.889456507318
 30
0.0
 40
0.5
100
AcDbArc
 50
180.0000000000228
 51
278.0040943717063
  0
ARC
  5
15D
330
55
100
AcDbEntity
  8
1
  6
Continuous
 62
     7
100
AcDbCircle
 10
159.5423329774447
 20
541.9036835600749
 30
0.0
 40
6.000000000000008
100
AcDbArc
 50
277.9999999999983
 51
350.1970982062307
  0
ARC
  5
15E
330
55
100
AcDbEntity
  8
1
  6
Continuous
 62
     7
100
AcDbCircle
 10
157.0922918278542
 20
536.0053010830039
 30
0.0
 40
0.5
100
AcDbArc
 50
180.0
 51
278.0000000000272
  0
ARC
  5
15F
330
55
100
AcDbEntity
  8
1
  6
Continuous
 62
     7
100
AcDbCircle
 10
157.0922918278542
 20
590.3065712722258
 30
0.0
 40
0.4999999999999459
100
AcDbArc
 50
81.99999999999177
 51
180.0
  0
ARC
  5
160
330
55
100
AcDbEntity
  8
1
  6
Continuous
 62
     7
100
AcDbCircle
 10
159.5423329774446
 20
584.4081887951548
 30
0.0
 40
6.000000000000023
100
AcDbArc
 50
9.80290179376806
 51
82.00000000000074
  0
ARC
  5
161
330
55
100
AcDbEntity
  8
1
  6
Continuous
 62
     7
100
AcDbCircle
 10
439.8500650076103
 20
247.210376496989
 30
0.0
 40
25.00000000000007
100
AcDbArc
 50
194.9999999999999
 51
224.9999999999998
  0
ARC
  5
162
330
55
100
AcDbEntity
  8
1
  6
Continuous
 62
     7
100
AcDbCircle
 10
406.2549551811786
 20
189.0219393917531
 30
0.0
 40
24.99999999999999
100
AcDbArc
 50
74.99999999999986
 51
104.9999999999998
  0
ARC
  5
163
330
55
100
AcDbEntity
  8
1
  6
Continuous
 62
     7
100
AcDbCircle
 10
372.659845354747
 20
247.210376496989
 30
0.0
 40
25.00000000000006
100
AcDbArc
 50
315.0000000000002
 51
345.0000000000002
  0
ENDBLK
  5
57
330
55
100
AcDbEntity
  8
0
100
AcDbBlockEnd
  0
BLOCK
  5
59
330
58
100
AcDbEntity
  8
0
100
AcDbBlockBegin
  2
42-1
 70
     0
 10
-14.17501590771468
 20
315.918490881847
 30
0.0
  3
42-1
  1

  0
LINE
  5
164
330
58
100
AcDbEntity
  8
1
  6
Continuous
 62
     7
100
AcDbLine
 10
170.5922918278542
 20
570.155936177615
 30
0.0
 11
170.5922918278542
 21
556.155936177615
 31
0.0
  0
LINE
  5
165
330
58
100
AcDbEntity
  8
1
  6
Continuous
 62
     7
100
AcDbLine
 10
170.922057548058
 20
568.905936177615
 30
0.0
 11
170.922057548058
 21
557.4059361776152
 31
0.0
  0
LINE
  5
166
330
58
100
AcDbEntity
  8
1
  6
Continuous
 62
     2
100
AcDbLine
 10
169.8346299300255
 20
564.155936177615
 30
0.0
 11
168.569390839415
 21
564.155936177615
 31
0.0
  0
LINE
  5
167
330
58
100
AcDbEntity
  8
1
  6
Continuous
 62
     2
100
AcDbLine
 10
170.0779451397582
 20
565.155936177615
 30
0.0
 11
168.3098546157
 21
565.155936177615
 31
0.0
  0
LINE
  5
168
330
58
100
AcDbEntity
  8
1
  6
Continuous
 62
     2
100
AcDbLine
 10
170.2888183215266
 20
566.155936177615
 30
0.0
 11
167.952992308092
 21
566.155936177615
 31
0.0
  0
LINE
  5
169
330
58
100
AcDbEntity
  8
1
  6
Continuous
 62
     2
100
AcDbLine
 10
170.4023654194019
 20
567.155936177615
 30
0.0
 11
167.7583401403058
 21
567.155936177615
 31
0.0
  0
LINE
  5
16A
330
58
100
AcDbEntity
  8
1
  6
Continuous
 62
     2
100
AcDbLine
 10
170.5922918278542
 20
568.155936177615
 30
0.0
 11
167.5922918278542
 21
568.155936177615
 31
0.0
  0
LINE
  5
16B
330
58
100
AcDbEntity
  8
1
  6
Continuous
 62
     7
100
AcDbLine
 10
167.5922918278542
 20
570.155936177615
 30
0.0
 11
167.5922918278542
 21
556.155936177615
 31
0.0
  0
LINE
  5
16C
330
58
100
AcDbEntity
  8
1
  6
Continuous
 62
     2
100
AcDbLine
 10
170.5922918278542
 20
569.155936177615
 30
0.0
 11
167.5922918278542
 21
569.155936177615
 31
0.0
  0
LINE
  5
16D
330
58
100
AcDbEntity
  8
1
  6
Continuous
 62
     7
100
AcDbLine
 10
170.5922918278542
 20
570.155936177615
 30
0.0
 11
170.8616140268774
 21
569.1559361776152
 31
0.0
  0
LINE
  5
16E
330
58
100
AcDbEntity
  8
1
  6
Continuous
 62
     7
100
AcDbLine
 10
167.5922918278542
 20
570.155936177615
 30
0.0
 11
170.5922918278542
 21
570.155936177615
 31
0.0
  0
LINE
  5
16F
330
58
100
AcDbEntity
  8
1
  6
Continuous
 62
     7
100
AcDbLine
 10
170.5922918278542
 20
556.155936177615
 30
0.0
 11
167.5922918278542
 21
556.155936177615
 31
0.0
  0
LINE
  5
170
330
58
100
AcDbEntity
  8
1
  6
Continuous
 62
     7
100
AcDbLine
 10
170.8616140268774
 20
557.1559361776152
 30
0.0
 11
170.5922918278542
 21
556.155936177615
 31
0.0
  0
LINE
  5
171
330
58
100
AcDbEntity
  8
1
  6
Continuous
 62
     2
100
AcDbLine
 10
167.5922918278542
 20
557.155936177615
 30
0.0
 11
170.5922918278542
 21
557.155936177615
 31
0.0
  0
LINE
  5
172
330
58
100
AcDbEntity
  8
1
  6
Continuous
 62
     2
100
AcDbLine
 10
167.5922918278542
 20
558.1559361776152
 30
0.0
 11
170.5922918278542
 21
558.155936177615
 31
0.0
  0
LINE
  5
173
330
58
100
AcDbEntity
  8
1
  6
Continuous
 62
     2
100
AcDbLine
 10
167.7583401403058
 20
559.1559361776152
 30
0.0
 11
170.4023654194019
 21
559.1559361776152
 31
0.0
  0
LINE
  5
174
330
58
100
AcDbEntity
  8
1
  6
Continuous
 62
     2
100
AcDbLine
 10
167.952992308092
 20
560.1559361776152
 30
0.0
 11
170.2888183215266
 21
560.1559361776152
 31
0.0
  0
LINE
  5
175
330
58
100
AcDbEntity
  8
1
  6
Continuous
 62
     2
100
AcDbLine
 10
168.3098546157
 20
561.1559361776149
 30
0.0
 11
170.0779451397582
 21
561.1559361776149
 31
0.0
  0
LINE
  5
176
330
58
100
AcDbEntity
  8
1
  6
Continuous
 62
     2
100
AcDbLine
 10
168.569390839415
 20
562.1559361776152
 30
0.0
 11
169.8346299300255
 21
562.1559361776152
 31
0.0
  0
LINE
  5
177
330
58
100
AcDbEntity
  8
1
  6
Continuous
 62
     7
100
AcDbLine
 10
169.4407190238336
 20
227.8142307952435
 30
0.0
 11
169.4407190238336
 21
222.0642307952435
 31
0.0
  0
LINE
  5
178
330
58
100
AcDbEntity
  8
1
  6
Continuous
 62
     2
100
AcDbLine
 10
167.0880523151907
 20
226.8142307952435
 30
0.0
 11
168.3532914058011
 21
226.8142307952435
 31
0.0
  0
LINE
  5
179
330
58
100
AcDbEntity
  8
1
  6
Continuous
 62
     2
100
AcDbLine
 10
166.8285160914758
 20
225.8142307952435
 30
0.0
 11
168.5966066155339
 21
225.8142307952435
 31
0.0
  0
LINE
  5
17A
330
58
100
AcDbEntity
  8
1
  6
Continuous
 62
     2
100
AcDbLine
 10
166.4716537838677
 20
224.8142307952435
 30
0.0
 11
168.8074797973023
 21
224.8142307952435
 31
0.0
  0
LINE
  5
17B
330
58
100
AcDbEntity
  8
1
  6
Continuous
 62
     2
100
AcDbLine
 10
166.2770016160815
 20
223.8142307952435
 30
0.0
 11
168.9210268951776
 21
223.8142307952435
 31
0.0
  0
LINE
  5
17C
330
58
100
AcDbEntity
  8
1
  6
Continuous
 62
     2
100
AcDbLine
 10
166.1109533036299
 20
222.8142307952435
 30
0.0
 11
169.1109533036299
 21
222.8142307952435
 31
0.0
  0
LINE
  5
17D
330
58
100
AcDbEntity
  8
1
  6
Continuous
 62
     7
100
AcDbLine
 10
169.1109533036299
 20
222.8142307952435
 30
0.0
 11
169.1109533036299
 21
221.8142307952435
 31
0.0
  0
LINE
  5
17E
330
58
100
AcDbEntity
  8
1
  6
Continuous
 62
     2
100
AcDbLine
 10
166.1109533036299
 20
221.8142307952435
 30
0.0
 11
169.1109533036299
 21
221.8142307952435
 31
0.0
  0
LINE
  5
17F
330
58
100
AcDbEntity
  8
1
  6
Continuous
 62
     7
100
AcDbLine
 10
169.1109533036299
 20
221.8142307952435
 30
0.0
 11
169.1109533036299
 21
220.8142307952435
 31
0.0
  0
LINE
  5
180
330
58
100
AcDbEntity
  8
1
  6
Continuous
 62
     7
100
AcDbLine
 10
169.3802755026531
 20
221.8142307952435
 30
0.0
 11
169.1109533036299
 21
220.8142307952435
 31
0.0
  0
LINE
  5
181
330
58
100
AcDbEntity
  8
1
  6
Continuous
 62
     7
100
AcDbLine
 10
169.1109533036299
 20
220.8142307952435
 30
0.0
 11
166.1109533036299
 21
220.8142307952435
 31
0.0
  0
LINE
  5
182
330
58
100
AcDbEntity
  8
1
  6
Continuous
 62
     7
100
AcDbLine
 10
166.1109533036299
 20
234.8142307952435
 30
0.0
 11
169.1109533036299
 21
234.8142307952435
 31
0.0
  0
LINE
  5
183
330
58
100
AcDbEntity
  8
1
  6
Continuous
 62
     7
100
AcDbLine
 10
169.1109533036299
 20
234.8142307952435
 30
0.0
 11
169.3802755026531
 21
233.8142307952435
 31
0.0
  0
LINE
  5
184
330
58
100
AcDbEntity
  8
1
  6
Continuous
 62
     7
100
AcDbLine
 10
169.1109533036299
 20
234.8142307952435
 30
0.0
 11
169.1109533036299
 21
233.8142307952435
 31
0.0
  0
LINE
  5
185
330
58
100
AcDbEntity
  8
1
  6
Continuous
 62
     2
100
AcDbLine
 10
169.1109533036299
 20
233.8142307952435
 30
0.0
 11
166.1109533036299
 21
233.8142307952435
 31
0.0
  0
LINE
  5
186
330
58
100
AcDbEntity
  8
1
  6
Continuous
 62
     7
100
AcDbLine
 10
169.1109533036299
 20
233.8142307952435
 30
0.0
 11
169.1109533036299
 21
232.8142307952435
 31
0.0
  0
LINE
  5
187
330
58
100
AcDbEntity
  8
1
  6
Continuous
 62
     7
100
AcDbLine
 10
166.1109533036299
 20
234.8142307952435
 30
0.0
 11
166.1109533036299
 21
220.8142307952435
 31
0.0
  0
LINE
  5
188
330
58
100
AcDbEntity
  8
1
  6
Continuous
 62
     2
100
AcDbLine
 10
169.1109533036299
 20
232.8142307952435
 30
0.0
 11
166.1109533036299
 21
232.8142307952435
 31
0.0
  0
LINE
  5
189
330
58
100
AcDbEntity
  8
1
  6
Continuous
 62
     2
100
AcDbLine
 10
168.9210268951776
 20
231.8142307952435
 30
0.0
 11
166.2770016160815
 21
231.8142307952435
 31
0.0
  0
LINE
  5
18A
330
58
100
AcDbEntity
  8
1
  6
Continuous
 62
     2
100
AcDbLine
 10
168.8074797973023
 20
230.8142307952435
 30
0.0
 11
166.4716537838677
 21
230.8142307952435
 31
0.0
  0
LINE
  5
18B
330
58
100
AcDbEntity
  8
1
  6
Continuous
 62
     2
100
AcDbLine
 10
168.5966066155339
 20
229.8142307952435
 30
0.0
 11
166.8285160914758
 21
229.8142307952435
 31
0.0
  0
LINE
  5
18C
330
58
100
AcDbEntity
  8
1
  6
Continuous
 62
     2
100
AcDbLine
 10
168.3532914058011
 20
228.8142307952435
 30
0.0
 11
167.0880523151907
 21
228.8142307952435
 31
0.0
  0
LINE
  5
18D
330
58
100
AcDbEntity
  8
1
  6
Continuous
 62
     7
100
AcDbLine
 10
169.4407190238336
 20
233.5642307952434
 30
0.0
 11
169.4407190238336
 21
227.8142307952435
 31
0.0
  0
LINE
  5
18E
330
58
100
AcDbEntity
  8
1
  6
Continuous
 62
     7
100
AcDbLine
 10
169.1109533036299
 20
232.8142307952435
 30
0.0
 11
169.1109533036299
 21
222.8142307952435
 31
0.0
  0
ARC
  5
18F
330
58
100
AcDbEntity
  8
1
  6
Continuous
 62
     7
100
AcDbCircle
 10
146.5922918278542
 20
563.155936177615
 30
0.0
 40
25.0
100
AcDbArc
 50
0.0
 51
13.88654036262951
  0
ARC
  5
190
330
58
100
AcDbEntity
  8
1
  6
Continuous
 62
     7
100
AcDbCircle
 10
146.5922918278542
 20
563.155936177615
 30
0.0
 40
24.99999999999993
100
AcDbArc
 50
346.1134596373715
 51
0.0
  0
ARC
  5
191
330
58
100
AcDbEntity
  8
1
  6
Continuous
 62
     7
100
AcDbCircle
 10
145.1109533036299
 20
227.8142307952434
 30
0.0
 40
24.99999999999994
100
AcDbArc
 50
346.7029282527912
 51
0.00000000000026
  0
ARC
  5
192
330
58
100
AcDbEntity
  8
1
  6
Continuous
 62
     7
100
AcDbCircle
 10
145.1109533036299
 20
227.8142307952434
 30
0.0
 40
24.99999999999996
100
AcDbArc
 50
346.1134596373712
 51
346.7029282527912
  0
ARC
  5
193
330
58
100
AcDbEntity
  8
1
  6
Continuous
 62
     7
100
AcDbCircle
 10
145.1109533036299
 20
227.8142307952434
 30
0.0
 40
24.99999999999996
100
AcDbArc
 50
13.29707174720908
 51
13.88654036262925
  0
ARC
  5
194
330
58
100
AcDbEntity
  8
1
  6
Continuous
 62
     7
100
AcDbCircle
 10
145.1109533036299
 20
227.8142307952434
 30
0.0
 40
25.0
100
AcDbArc
 50
0.00000000000026
 51
13.29707174720908
  0
CIRCLE
  5
195
330
58
100
AcDbEntity
  8
0
  6
Continuous
 62
     7
100
AcDbCircle
 10
406.2549551811793
 20
227.8142307952433
 30
0.0
 40
6.999999999999801
  0
CIRCLE
  5
196
330
58
100
AcDbEntity
  8
0
  6
Continuous
 62
     7
100
AcDbCircle
 10
406.2549551811793
 20
227.8142307952433
 30
0.0
 40
5.749999999999318
  0
ENDBLK
  5
5A
330
58
100
AcDbEntity
  8
0
100
AcDbBlockEnd
  0
BLOCK
  5
5C
330
5B
100
AcDbEntity
  8
0
100
AcDbBlockBegin
  2
37-1-13
 70
     0
 10
6.61892721172561
 20
319.6154610120145
 30
0.0
  3
37-1-13
  1

  0
LINE
  5
197
330
5B
100
AcDbEntity
  8
1
  6
Continuous
 62
     7
100
AcDbLine
 10
145.6853473161416
 20
576.1559361776149
 30
0.0
 11
138.6146331018701
 21
576.1559361776149
 31
0.0
  0
LINE
  5
198
330
5B
100
AcDbEntity
  8
1
  6
Continuous
 62
     7
100
AcDbLine
 10
152.6146331018701
 20
563.1559361776149
 30
0.0
 11
152.6146331018701
 21
569.1559361776149
 31
0.0
  0
LINE
  5
199
330
5B
100
AcDbEntity
  8
1
  6
Continuous
 62
     7
100
AcDbLine
 10
138.6146331018701
 20
563.1559361776149
 30
0.0
 11
138.6146331018701
 21
576.1559361776149
 31
0.0
  0
LINE
  5
19A
330
5B
100
AcDbEntity
  8
1
  6
Continuous
 62
     7
100
AcDbLine
 10
146.1146331018701
 20
575.6559361776146
 30
0.0
 11
146.1146331018701
 21
563.1559361776149
 31
0.0
  0
LINE
  5
19B
330
5B
100
AcDbEntity
  8
1
  6
Continuous
 62
     7
100
AcDbLine
 10
138.6146331018701
 20
550.1559361776149
 30
0.0
 11
145.6853473161415
 21
550.1559361776149
 31
0.0
  0
LINE
  5
19C
330
5B
100
AcDbEntity
  8
1
  6
Continuous
 62
     7
100
AcDbLine
 10
152.6146331018701
 20
557.1559361776149
 30
0.0
 11
152.6146331018701
 21
563.1559361776149
 31
0.0
  0
LINE
  5
19D
330
5B
100
AcDbEntity
  8
1
  6
Continuous
 62
     7
100
AcDbLine
 10
138.6146331018701
 20
550.1559361776149
 30
0.0
 11
138.6146331018701
 21
563.1559361776149
 31
0.0
  0
LINE
  5
19E
330
5B
100
AcDbEntity
  8
1
  6
Continuous
 62
     7
100
AcDbLine
 10
146.1146331018701
 20
563.1559361776149
 30
0.0
 11
146.1146331018701
 21
550.6559361776151
 31
0.0
  0
LINE
  5
19F
330
5B
100
AcDbEntity
  8
1
  6
Continuous
 62
     7
100
AcDbLine
 10
152.6146331018701
 20
221.8142307952435
 30
0.0
 11
152.6146331018701
 21
233.8142307952434
 31
0.0
  0
LINE
  5
1A0
330
5B
100
AcDbEntity
  8
1
  6
Continuous
 62
     7
100
AcDbLine
 10
138.6146331018701
 20
214.7435165809721
 30
0.0
 11
138.6146331018701
 21
240.884945009515
 31
0.0
  0
LINE
  5
1A1
330
5B
100
AcDbEntity
  8
1
  6
Continuous
 62
     7
100
AcDbLine
 10
146.1146331018702
 20
240.3142307952433
 30
0.0
 11
146.1146331018701
 21
227.8142307952434
 31
0.0
  0
LINE
  5
1A2
330
5B
100
AcDbEntity
  8
1
  6
Continuous
 62
     7
100
AcDbLine
 10
146.1146331018701
 20
227.8142307952434
 30
0.0
 11
146.1146331018702
 21
215.3142307952437
 31
0.0
  0
ARC
  5
1A3
330
5B
100
AcDbEntity
  8
1
  6
Continuous
 62
     7
100
AcDbCircle
 10
142.1146331018701
 20
572.6559361776149
 30
0.0
 40
4.999999999999863
100
AcDbArc
 50
36.86989764584194
 51
44.4270040008053
  0
ARC
  5
1A4
330
5B
100
AcDbEntity
  8
1
  6
Continuous
 62
     7
100
AcDbCircle
 10
166.021088306985
 20
589.0623913827297
 30
0.0
 40
24.00000000000007
100
AcDbArc
 50
213.9591925000979
 51
236.0408074999025
  0
ARC
  5
1A5
330
5B
100
AcDbEntity
  8
1
  6
Continuous
 62
     7
100
AcDbCircle
 10
142.1146331018701
 20
553.6559361776149
 30
0.0
 40
4.999999999999975
100
AcDbArc
 50
315.572995999194
 51
323.1301023541581
  0
ARC
  5
1A6
330
5B
100
AcDbEntity
  8
1
  6
Continuous
 62
     7
100
AcDbCircle
 10
166.021088306985
 20
537.2494809725001
 30
0.0
 40
23.99999999999984
100
AcDbArc
 50
123.9591925000977
 51
146.0408074999024
  0
ARC
  5
1A7
330
5B
100
AcDbEntity
  8
1
  6
Continuous
 62
     7
100
AcDbCircle
 10
142.1146331018701
 20
237.3142307952434
 30
0.0
 40
5.000000000000017
100
AcDbArc
 50
36.86989764584266
 51
134.4270040008042
  0
ARC
  5
1A8
330
5B
100
AcDbEntity
  8
1
  6
Continuous
 62
     7
100
AcDbCircle
 10
166.021088306985
 20
253.7206860003584
 30
0.0
 40
24.0
100
AcDbArc
 50
213.959192500098
 51
236.0408074999027
  0
ARC
  5
1A9
330
5B
100
AcDbEntity
  8
1
  6
Continuous
 62
     7
100
AcDbCircle
 10
142.1146331018701
 20
218.3142307952435
 30
0.0
 40
4.999999999999975
100
AcDbArc
 50
225.572995999194
 51
323.1301023541584
  0
ARC
  5
1AA
330
5B
100
AcDbEntity
  8
1
  6
Continuous
 62
     7
100
AcDbCircle
 10
166.0210883069851
 20
201.9077755901286
 30
0.0
 40
24.00000000000001
100
AcDbArc
 50
123.9591925000977
 51
146.0408074999021
  0
SPLINE
  5
1AB
330
5B
100
AcDbEntity
  8
0
  6
Continuous
 62
     7
100
AcDbSpline
210
0.0
220
0.0
230
1.0
 70
    11
 71
     3
 72
    79
 73
    75
 74
    73
 42
0.000000001
 43
0.0000000001
 44
0.00000001
 40
0.0
 40
0.0
 40
0.0
 40
0.0
 40
0.2811775335845718
 40
0.5623408853747918
 40
0.8457466557586226
 40
1.129126823298207
 40
1.415908896080651
 40
1.702658532230613
 40
1.993527426214144
 40
2.284362049291652
 40
2.579517793968388
 40
2.874641775544833
 40
3.173769975764086
 40
3.472872116266219
 40
3.77519968581362
 40
4.077508951322241
 40
4.381905218576968
 40
4.686292084807016
 40
4.991400452873985
 40
5.296508820930359
 40
5.600895687128816
 40
5.905291954330393
 40
6.207601219764374
 40
6.509928789214349
 40
6.809030929596601
 40
7.10815912967106
 40
7.403283111078629
 40
7.698438855558364
 40
7.989273478411357
 40
8.280142372135952
 40
8.566892007989368
 40
8.853674080420403
 40
9.137054247521675
 40
9.420460017266787
 40
9.70162336765833
 40
9.982800910067846
 40
10.26319551269443
 40
10.54359011531994
 40
10.82476765772623
 40
11.10593100811242
 40
11.38933677785025
 40
11.67271694494225
 40
11.95949901736221
 40
12.24624865320283
 40
12.53711754691299
 40
12.82795216975025
 40
13.12310791421284
 40
13.41823189560228
 40
13.7173600956575
 40
14.01646223601967
 40
14.31878980544873
 40
14.62109907086117
 40
14.92549533804051
 40
15.22988220421622
 40
15.53499057224936
 40
15.84009894029264
 40
16.14448580649865
 40
16.44888207372886
 40
16.75119133921266
 40
17.05351890873469
 40
17.35262104921097
 40
17.65174924940359
 40
17.94687323095237
 40
18.24202897559956
 40
18.53286359864486
 40
18.8237324925909
 40
19.11048212869375
 40
19.39726420140869
 40
19.68064436883136
 40
19.96405013895133
 40
20.24521348980397
 40
20.52639103287085
 40
20.80678563691658
 40
21.08718023073313
 40
21.08718023073313
 40
21.08718023073313
 40
21.08718023073313
 10
145.6012512229885
 20
216.8359756406435
 30
0.0
 10
145.5898001012663
 20
216.9290717127454
 30
0.0
 10
145.566898440693
 20
217.1152591621317
 30
0.0
 10
145.498861151302
 20
217.3894966135348
 30
0.0
 10
145.4072390227865
 20
217.657223281624
 30
0.0
 10
145.2896280352371
 20
217.9167837702407
 30
0.0
 10
145.1484097122087
 20
218.1655180629256
 30
0.0
 10
144.9835877416164
 20
218.4023321679872
 30
0.0
 10
144.7975104445804
 20
218.6245905322929
 30
0.0
 10
144.5904855950834
 20
218.8314459196507
 30
0.0
 10
144.3652867974701
 20
219.0205597233723
 30
0.0
 10
144.1224218920327
 20
219.1912081077238
 30
0.0
 10
143.8649532611061
 20
219.3415254251661
 30
0.0
 10
143.5936753639118
 20
219.4708487607149
 30
0.0
 10
143.3117222100754
 20
219.5778816883365
 30
0.0
 10
143.020285056772
 20
219.6620288261794
 30
0.0
 10
142.7223471133758
 20
219.7225733350653
 30
0.0
 10
142.4195814486328
 20
219.7590605319815
 30
0.0
 10
142.1146331114672
 20
219.7712875885086
 30
0.0
 10
141.8096847742924
 20
219.759060532334
 30
0.0
 10
141.5069191095558
 20
219.7225733357697
 30
0.0
 10
141.2089811660798
 20
219.6620288272451
 30
0.0
 10
140.9175440129798
 20
219.5778816897402
 30
0.0
 10
140.6355908582595
 20
219.4708487625635
 30
0.0
 10
140.3643129641625
 20
219.3415254270853
 30
0.0
 10
140.1068443215415
 20
219.1912081111325
 30
0.0
 10
139.8639794589326
 20
219.0205597230709
 30
0.0
 10
139.63878050238
 20
218.8314459349247
 30
0.0
 10
139.4317562373976
 20
218.6245904921288
 30
0.0
 10
139.2456767752307
 20
218.4023323351005
 30
0.0
 10
139.0808627754906
 20
218.1655174689643
 30
0.0
 10
138.9396149070865
 20
217.9167859995206
 30
0.0
 10
138.8221129396384
 20
217.6572150958348
 30
0.0
 10
138.7300859922704
 20
217.389527104766
 30
0.0
 10
138.6635481646482
 20
217.1151463940858
 30
0.0
 10
138.6236453810295
 20
216.8366553828258
 30
0.0
 10
138.6101332596901
 20
216.5559005466396
 30
0.0
 10
138.6236453810051
 20
216.2751457104534
 30
0.0
 10
138.6635481645993
 20
215.996654699193
 30
0.0
 10
138.7300859921972
 20
215.7222739885125
 30
0.0
 10
138.8221129395409
 20
215.454585997443
 30
0.0
 10
138.939614906965
 20
215.1950150937563
 30
0.0
 10
139.0808627753453
 20
214.9462836243119
 30
0.0
 10
139.2456767750616
 20
214.7094687581746
 30
0.0
 10
139.4317562372049
 20
214.4872106011451
 30
0.0
 10
139.6387805021638
 20
214.280355158348
 30
0.0
 10
139.8639794586931
 20
214.0912413702004
 30
0.0
 10
140.1068443212789
 20
213.9205929821375
 30
0.0
 10
140.3643129638769
 20
213.7702756661831
 30
0.0
 10
140.6355908579508
 20
213.6409523307035
 30
0.0
 10
140.9175440126481
 20
213.5339194035249
 30
0.0
 10
141.2089811657252
 20
213.449772266018
 30
0.0
 10
141.506919109178
 20
213.3892277574912
 30
0.0
 10
141.8096847738918
 20
213.3527405609247
 30
0.0
 10
142.1146331110421
 20
213.3405135047472
 30
0.0
 10
142.4195814481884
 20
213.3527405612709
 30
0.0
 10
142.7223471128922
 20
213.3892277581849
 30
0.0
 10
143.0202850563217
 20
213.4497722670603
 30
0.0
 10
143.3117222093883
 20
213.5339194049208
 30
0.0
 10
143.5936753639893
 20
213.6409523324489
 30
0.0
 10
143.8649532582437
 20
213.7702756683104
 30
0.0
 10
144.1224218999529
 20
213.9205929845501
 30
0.0
 10
144.3652867655486
 20
214.091241373279
 30
0.0
 10
144.5904857106113
 20
214.2803551607164
 30
0.0
 10
144.7975100173932
 20
214.4872106079059
 30
0.0
 10
144.983589324208
 20
214.7094687505014
 30
0.0
 10
145.1484038952852
 20
214.9462836716483
 30
0.0
 10
145.2896496452505
 20
215.1950149391397
 30
0.0
 10
145.4071594287974
 20
215.4545865900436
 30
0.0
 10
145.4991573521133
 20
215.7222718086942
 30
0.0
 10
145.5658026847026
 20
215.9966627909603
 30
0.0
 10
145.6053052700385
 20
216.2751155685431
 30
0.0
 10
145.6203070485948
 20
216.5560127235859
 30
0.0
 10
145.6076031629872
 20
216.742654669314
 30
0.0
 10
145.6012512229885
 20
216.8359756406435
 30
0.0
 11
145.6012512229885
 21
216.8359756406435
 31
0.0
 11
145.5613134135247
 21
217.1143023943771
 31
0.0
 11
145.4951761943856
 21
217.3875764289261
 31
0.0
 11
145.4030223727198
 21
217.6555810997552
 31
0.0
 11
145.2862923214451
 21
217.9138027377729
 31
0.0
 11
145.1446933832831
 21
218.1631893811233
 31
0.0
 11
144.981015782759
 21
218.3986357589795
 31
0.0
 11
144.7943273091825
 21
218.6216876078037
 31
0.0
 11
144.5886930989116
 21
218.8273556643989
 31
0.0
 11
144.3626989447852
 21
219.0172070691434
 31
0.0
 11
144.121296135663
 21
219.1869800005148
 31
0.0
 11
143.8629970204396
 21
219.3378416829482
 31
0.0
 11
143.5930476090215
 21
219.4666415498798
 31
0.0
 11
143.3104140100272
 21
219.5739737818934
 31
0.0
 11
143.0199884959668
 21
219.6579018034558
 31
0.0
 11
142.7216924573259
 21
219.7185364541515
 31
0.0
 11
142.4194969030837
 21
219.7549948050675
 31
0.0
 11
142.1146331018701
 21
219.767208690712
 31
0.0
 11
141.8097693006565
 21
219.7549948050675
 31
0.0
 11
141.5075737464143
 21
219.7185364541514
 31
0.0
 11
141.2092777077734
 21
219.6579018034558
 31
0.0
 11
140.918852193713
 21
219.5739737818934
 31
0.0
 11
140.6362185947187
 21
219.4666415498797
 31
0.0
 11
140.3662691833006
 21
219.3378416829482
 31
0.0
 11
140.1079700680772
 21
219.1869800005148
 31
0.0
 11
139.866567258955
 21
219.0172070691434
 31
0.0
 11
139.6405731048285
 21
218.8273556643989
 31
0.0
 11
139.4349388945577
 21
218.6216876078037
 31
0.0
 11
139.2482504209812
 21
218.3986357589795
 31
0.0
 11
139.0845728204571
 21
218.1631893811233
 31
0.0
 11
138.9429738822951
 21
217.9138027377729
 31
0.0
 11
138.8262438310204
 21
217.6555810997552
 31
0.0
 11
138.7340900093546
 21
217.3875764289261
 31
0.0
 11
138.6679527902155
 21
217.1143023943772
 31
0.0
 11
138.6280149807516
 21
216.8359756406435
 31
0.0
 11
138.6146331018702
 21
216.5559005460458
 31
0.0
 11
138.6280149807516
 21
216.2758254514481
 31
0.0
 11
138.6679527902155
 21
215.9974986977144
 31
0.0
 11
138.7340900093545
 21
215.7242246631655
 31
0.0
 11
138.8262438310203
 21
215.4562199923363
 31
0.0
 11
138.942973882295
 21
215.1979983543186
 31
0.0
 11
139.0845728204571
 21
214.9486117109682
 31
0.0
 11
139.2482504209812
 21
214.713165333112
 31
0.0
 11
139.4349388945577
 21
214.4901134842879
 31
0.0
 11
139.6405731048285
 21
214.2844454276926
 31
0.0
 11
139.8665672589549
 21
214.0945940229481
 31
0.0
 11
140.1079700680771
 21
213.9248210915767
 31
0.0
 11
140.3662691833006
 21
213.7739594091434
 31
0.0
 11
140.6362185947186
 21
213.6451595422118
 31
0.0
 11
140.918852193713
 21
213.5378273101981
 31
0.0
 11
141.2092777077734
 21
213.4538992886357
 31
0.0
 11
141.5075737464144
 21
213.3932646379401
 31
0.0
 11
141.8097693006565
 21
213.356806287024
 31
0.0
 11
142.1146331018701
 21
213.3445924013794
 31
0.0
 11
142.4194969030837
 21
213.356806287024
 31
0.0
 11
142.7216924573259
 21
213.3932646379401
 31
0.0
 11
143.0199884959668
 21
213.4538992886357
 31
0.0
 11
143.3104140100272
 21
213.5378273101981
 31
0.0
 11
143.5930476090215
 21
213.6451595422118
 31
0.0
 11
143.8629970204396
 21
213.7739594091433
 31
0.0
 11
144.121296135663
 21
213.9248210915767
 31
0.0
 11
144.3626989447852
 21
214.0945940229481
 31
0.0
 11
144.5886930989116
 21
214.2844454276926
 31
0.0
 11
144.7943273091825
 21
214.4901134842878
 31
0.0
 11
144.981015782759
 21
214.713165333112
 31
0.0
 11
145.1446933832831
 21
214.9486117109682
 31
0.0
 11
145.2862923214451
 21
215.1979983543187
 31
0.0
 11
145.4030223727198
 21
215.4562199923363
 31
0.0
 11
145.4951761943857
 21
215.7242246631655
 31
0.0
 11
145.5613134135248
 21
215.9974986977144
 31
0.0
 11
145.6012512229886
 21
216.2758254514481
 31
0.0
 11
145.61463310187
 21
216.5559005460458
 31
0.0
 11
145.6012512229885
 21
216.8359756406435
 31
0.0
  0
SPLINE
  5
1AC
330
5B
100
AcDbEntity
  8
0
  6
Continuous
 62
     7
100
AcDbSpline
210
0.0
220
0.0
230
1.0
 70
    11
 71
     3
 72
    79
 73
    75
 74
    73
 42
0.000000001
 43
0.0000000001
 44
0.00000001
 40
0.0
 40
0.0
 40
0.0
 40
0.0
 40
0.3165105410256839
 40
0.6328929255621223
 40
0.9617431601988791
 40
1.290395351244335
 40
1.637286315948999
 40
1.983975452564616
 40
2.351816480479394
 40
2.719488753984669
 40
3.108422404532451
 40
3.497229804277515
 40
3.905017576463717
 40
4.312718384023762
 40
4.735267623637103
 40
5.157763072246066
 40
5.589677243704559
 40
6.021565825373671
 40
6.456678180851613
 40
6.891790536326031
 40
7.323679117984195
 40
7.755593289423436
 40
8.178088738003852
 40
8.600637977576717
 40
9.008338785083065
 40
9.416126557196764
 40
9.804933956850011
 40
10.19386760727688
 40
10.56153988063262
 40
10.92938090835226
 40
11.27607004472672
 40
11.62296100911065
 40
11.95161319972593
 40
12.28046343366345
 40
12.5968458163309
 40
12.91335636534612
 40
13.22542040747234
 40
13.53748444959727
 40
13.85399499860891
 40
14.17037738127069
 40
14.49922761520053
 40
14.82787980580655
 40
15.17477077017967
 40
15.52145990654263
 40
15.88930093424957
 40
16.25697320759255
 40
16.64590685800595
 40
17.03471425764598
 40
17.44250202974621
 40
17.85020283723938
 40
18.27275207679913
 40
18.6952475253669
 40
19.1271616967937
 40
19.55905027843982
 40
19.99416263390257
 40
20.42927498936924
 40
20.8611635710275
 40
21.29307774247543
 40
21.71557319107425
 40
22.13812243067746
 40
22.54582323822746
 40
22.95361101040302
 40
23.34241841013677
 40
23.73135206067125
 40
24.09902433416057
 40
24.46686536205294
 40
24.81355449863564
 40
25.16044546328297
 40
25.48909765421347
 40
25.81794788854926
 40
26.13433027172838
 40
26.45084082150818
 40
26.76290486558049
 40
27.07496889983495
 40
27.07496889983495
 40
27.07496889983495
 40
27.07496889983495
 10
141.8645607265626
 20
232.7941141142781
 30
0.0
 10
141.7602284445567
 20
232.7775487834904
 30
0.0
 10
141.5516061238691
 20
232.7444248366931
 30
0.0
 10
141.2454220271888
 20
232.6456657012453
 30
0.0
 10
140.9481332698716
 20
232.5139635039027
 30
0.0
 10
140.6588733570621
 20
232.3440060781853
 30
0.0
 10
140.3839051674672
 20
232.1417847681089
 30
0.0
 10
140.1206752224014
 20
231.9045843495054
 30
0.0
 10
139.8757652710988
 20
231.6390481501606
 30
0.0
 10
139.646356132852
 20
231.3420939347047
 30
0.0
 10
139.4383319670348
 20
231.0214349042375
 30
0.0
 10
139.2494037748696
 20
230.6739317875071
 30
0.0
 10
139.0841581360903
 20
230.3076933080264
 30
0.0
 10
138.9411586988532
 20
229.9202414599724
 30
0.0
 10
138.8234971379368
 20
229.5192481834681
 30
0.0
 10
138.7305231440846
 20
229.1035742853423
 30
0.0
 10
138.6639671562075
 20
228.6797106278065
 30
0.0
 10
138.623638161838
 20
228.2483411909501
 30
0.0
 10
138.6102620300869
 20
227.8142308051225
 30
0.0
 10
138.6236381617123
 20
227.3801204192832
 30
0.0
 10
138.6639671559572
 20
226.9487509824604
 30
0.0
 10
138.7305231436831
 20
226.524887324799
 30
0.0
 10
138.8234971374449
 20
226.109213427125
 30
0.0
 10
138.941158697993
 20
225.7082201489484
 30
0.0
 10
139.0841581357974
 20
225.3207683069044
 30
0.0
 10
139.2494037716489
 20
224.9545298054691
 30
0.0
 10
139.4383319733071
 20
224.6070267669871
 30
0.0
 10
139.6463561035899
 20
224.286367452546
 30
0.0
 10
139.8757653663458
 20
223.9894142417145
 30
0.0
 10
140.1206748657162
 20
223.7238744071823
 30
0.0
 10
140.3839064038343
 20
223.4866868152271
 30
0.0
 10
140.6588688208386
 20
223.284419041755
 30
0.0
 10
140.9481492028144
 20
223.1146263901801
 30
0.0
 10
141.2453633531086
 20
222.9823236438
 30
0.0
 10
141.5518159140962
 20
222.8857255325221
 30
0.0
 10
141.8623153361962
 20
222.8283041177766
 30
0.0
 10
142.1760249786416
 20
222.8084081237705
 30
0.0
 10
142.4897346210868
 20
222.828304117762
 30
0.0
 10
142.8002340431859
 20
222.885725532493
 30
0.0
 10
143.1066866041722
 20
222.9823236437565
 30
0.0
 10
143.4039007544644
 20
223.1146263901226
 30
0.0
 10
143.6931811364376
 20
223.2844190416839
 30
0.0
 10
143.9681435534384
 20
223.4866868151429
 30
0.0
 10
144.2313750915525
 20
223.7238744070853
 30
0.0
 10
144.4762845909182
 20
223.9894142416052
 30
0.0
 10
144.7056938536684
 20
224.2863674524247
 30
0.0
 10
144.9137179839448
 20
224.6070267668543
 30
0.0
 10
145.1026461855956
 20
224.954529805325
 30
0.0
 10
145.2678918214388
 20
225.3207683067496
 30
0.0
 10
145.4108912592336
 20
225.708220148783
 30
0.0
 10
145.5285528197711
 20
226.1092134269493
 30
0.0
 10
145.6215268135211
 20
226.5248873246129
 30
0.0
 10
145.6880828012335
 20
226.9487509822638
 30
0.0
 10
145.7284117954638
 20
227.3801204190764
 30
0.0
 10
145.7417879270726
 20
227.8142308049025
 30
0.0
 10
145.7284117953048
 20
228.2483411907267
 30
0.0
 10
145.6880828009114
 20
228.6797106275392
 30
0.0
 10
145.6215268130304
 20
229.1035742851766
 30
0.0
 10
145.5285528190954
 20
229.519248182865
 30
0.0
 10
145.4108912583781
 20
229.9202414609013
 30
0.0
 10
145.2678918203167
 20
230.3076933033479
 30
0.0
 10
145.1026461844348
 20
230.6739318031862
 30
0.0
 10
144.9137179818317
 20
231.021434847206
 30
0.0
 10
144.7056938537856
 20
231.3420941413542
 30
0.0
 10
144.4762845818206
 20
231.6390474237375
 30
0.0
 10
144.2313751142991
 20
231.9045869990564
 30
0.0
 10
143.9681434622059
 20
232.1417755052643
 30
0.0
 10
143.6931814562477
 20
232.3440399664553
 30
0.0
 10
143.403899614593
 20
232.5138443638564
 30
0.0
 10
143.1066907820686
 20
232.6461042996838
 30
0.0
 10
142.8002190828861
 20
232.7428564601885
 30
0.0
 10
142.4897901943456
 20
232.7997100971575
 30
0.0
 10
142.1758207737678
 20
232.8216972158154
 30
0.0
 10
141.9683140747374
 20
232.8033084787863
 30
0.0
 10
141.8645607265626
 20
232.7941141142781
 30
0.0
 11
141.8645607265626
 21
232.7941141142781
 31
0.0
 11
141.553347643652
 21
232.7364483119165
 31
0.0
 11
141.2514240580379
 21
232.6418969470128
 31
0.0
 11
140.950912639901
 21
232.508347839856
 31
0.0
 11
140.6671649897584
 21
232.3425180068419
 31
0.0
 11
140.3874926108508
 21
232.1372944659683
 31
0.0
 11
140.1295694965838
 21
231.9056287057074
 31
0.0
 11
139.8798271356236
 21
231.6355624640489
 31
0.0
 11
139.65469689916
 21
231.3448748700901
 31
0.0
 11
139.4426372042984
 21
231.0188379545378
 31
0.0
 11
139.2566316758192
 21
230.6774098692194
 31
0.0
 11
139.0885729190697
 21
230.3058629389336
 31
0.0
 11
138.947194570209
 21
229.9234598650095
 31
0.0
 11
138.827953228175
 21
229.5180842833068
 31
0.0
 11
138.7356101327071
 21
229.1058038486361
 31
0.0
 11
138.6684349906697
 21
228.6791454937431
 31
0.0
 11
138.6282079390979
 21
228.2491344109764
 31
0.0
 11
138.6147317779571
 21
227.8142307952434
 31
0.0
 11
138.6282079390979
 21
227.3793271795104
 31
0.0
 11
138.6684349906697
 21
226.9493160967437
 31
0.0
 11
138.7356101327071
 21
226.5226577418508
 31
0.0
 11
138.827953228175
 21
226.1103773071801
 31
0.0
 11
138.9471945702091
 21
225.7050017254773
 31
0.0
 11
139.0885729190698
 21
225.3225986515532
 31
0.0
 11
139.2566316758192
 21
224.9510517212675
 31
0.0
 11
139.4426372042984
 21
224.6096236359491
 31
0.0
 11
139.65469689916
 21
224.2835867203968
 31
0.0
 11
139.8798271356236
 21
223.9928991264381
 31
0.0
 11
140.1295694965838
 21
223.7228328847796
 31
0.0
 11
140.3874926108508
 21
223.4911671245186
 31
0.0
 11
140.6671649897584
 21
223.285943583645
 31
0.0
 11
140.950912639901
 21
223.1201137506309
 31
0.0
 11
141.2514240580379
 21
222.9865646434741
 31
0.0
 11
141.5533476436519
 21
222.8920132785703
 31
0.0
 11
141.8645607265625
 21
222.8343474762087
 31
0.0
 11
142.1760249790915
 21
222.8150087615637
 31
0.0
 11
142.4874892316204
 21
222.8343474762087
 31
0.0
 11
142.798702314531
 21
222.8920132785703
 31
0.0
 11
143.1006259001451
 21
222.9865646434741
 31
0.0
 11
143.401137318282
 21
223.1201137506309
 31
0.0
 11
143.6848849684246
 21
223.285943583645
 31
0.0
 11
143.9645573473321
 21
223.4911671245186
 31
0.0
 11
144.2224804615991
 21
223.7228328847796
 31
0.0
 11
144.4722228225593
 21
223.9928991264381
 31
0.0
 11
144.6973530590229
 21
224.2835867203968
 31
0.0
 11
144.9094127538846
 21
224.6096236359491
 31
0.0
 11
145.0954182823638
 21
224.9510517212675
 31
0.0
 11
145.2634770391132
 21
225.3225986515532
 31
0.0
 11
145.4048553879738
 21
225.7050017254773
 31
0.0
 11
145.5240967300079
 21
226.1103773071801
 31
0.0
 11
145.6164398254759
 21
226.5226577418508
 31
0.0
 11
145.6836149675133
 21
226.9493160967438
 31
0.0
 11
145.723842019085
 21
227.3793271795104
 31
0.0
 11
145.7373181802259
 21
227.8142307952434
 31
0.0
 11
145.723842019085
 21
228.2491344109764
 31
0.0
 11
145.6836149675133
 21
228.6791454937431
 31
0.0
 11
145.6164398254759
 21
229.1058038486361
 31
0.0
 11
145.5240967300079
 21
229.5180842833068
 31
0.0
 11
145.4048553879738
 21
229.9234598650096
 31
0.0
 11
145.2634770391132
 21
230.3058629389337
 31
0.0
 11
145.0954182823638
 21
230.6774098692194
 31
0.0
 11
144.9094127538846
 21
231.0188379545378
 31
0.0
 11
144.6973530590229
 21
231.3448748700901
 31
0.0
 11
144.4722228225593
 21
231.6355624640488
 31
0.0
 11
144.2224804615991
 21
231.9056287057073
 31
0.0
 11
143.9645573473321
 21
232.1372944659682
 31
0.0
 11
143.6848849684246
 21
232.3425180068419
 31
0.0
 11
143.401137318282
 21
232.508347839856
 31
0.0
 11
143.1006259001451
 21
232.6418969470128
 31
0.0
 11
142.798702314531
 21
232.7364483119165
 31
0.0
 11
142.4874892316204
 21
232.7941141142781
 31
0.0
 11
142.1760249790915
 21
232.8134528289232
 31
0.0
 11
141.8645607265626
 21
232.7941141142781
 31
0.0
  0
SPLINE
  5
1AD
330
5B
100
AcDbEntity
  8
0
  6
Continuous
 62
     7
100
AcDbSpline
210
0.0
220
0.0
230
1.0
 70
    11
 71
     3
 72
    79
 73
    75
 74
    73
 42
0.000000001
 43
0.0000000001
 44
0.00000001
 40
0.0
 40
0.0
 40
0.0
 40
0.0
 40
0.2811775335845758
 40
0.5623408853747613
 40
0.8457466557585653
 40
1.129126823298098
 40
1.415908896080556
 40
1.702658532230479
 40
1.993527426214009
 40
2.284362049291517
 40
2.579517793968272
 40
2.874641775544707
 40
3.173769975763936
 40
3.472872116266056
 40
3.775199685813484
 40
4.07750895132207
 40
4.381905218576803
 40
4.686292084806861
 40
4.99140045287383
 40
5.296508820930207
 40
5.600895687128664
 40
5.905291954330245
 40
6.207601219764227
 40
6.509928789214191
 40
6.809030929596455
 40
7.108159129670876
 40
7.403283111078436
 40
7.698438855558208
 40
7.989273478411141
 40
8.280142372135753
 40
8.566892007989082
 40
8.853674080420154
 40
9.137054247521478
 40
9.42046001726659
 40
9.701623367658133
 40
9.982800910067677
 40
10.26319551269418
 40
10.54359011531969
 40
10.82476765772598
 40
11.10593100811218
 40
11.38933677784996
 40
11.67271694494194
 40
11.95949901736183
 40
12.24624865320248
 40
12.53711754691265
 40
12.82795216974989
 40
13.12310791421246
 40
13.41823189560194
 40
13.71736009565709
 40
14.0164622360193
 40
14.31878980544835
 40
14.62109907086074
 40
14.92549533804005
 40
15.2298822042158
 40
15.53499057224897
 40
15.84009894029229
 40
16.14448580649828
 40
16.4488820737285
 40
16.75119133921229
 40
17.05351890873433
 40
17.35262104921063
 40
17.65174924940321
 40
17.94687323095204
 40
18.24202897559927
 40
18.53286359864454
 40
18.82373249259058
 40
19.11048212869336
 40
19.39726420140833
 40
19.68064436883101
 40
19.96405013895086
 40
20.24521348980345
 40
20.52639103287037
 40
20.8067856369162
 40
21.08718023073272
 40
21.08718023073272
 40
21.08718023073272
 40
21.08718023073272
 10
145.6012512229885
 20
238.7924859498434
 30
0.0
 10
145.5898001012663
 20
238.6993898777415
 30
0.0
 10
145.566898440693
 20
238.5132024283552
 30
0.0
 10
145.498861151302
 20
238.238964976952
 30
0.0
 10
145.4072390227865
 20
237.9712383088628
 30
0.0
 10
145.2896280352371
 20
237.7116778202461
 30
0.0
 10
145.1484097122087
 20
237.4629435275614
 30
0.0
 10
144.9835877416165
 20
237.2261294224998
 30
0.0
 10
144.7975104445804
 20
237.0038710581941
 30
0.0
 10
144.5904855950833
 20
236.7970156708363
 30
0.0
 10
144.3652867974702
 20
236.6079018671147
 30
0.0
 10
144.1224218920327
 20
236.4372534827632
 30
0.0
 10
143.8649532611061
 20
236.2869361653209
 30
0.0
 10
143.5936753639118
 20
236.1576128297721
 30
0.0
 10
143.3117222100755
 20
236.0505799021505
 30
0.0
 10
143.020285056772
 20
235.9664327643078
 30
0.0
 10
142.7223471133758
 20
235.9058882554217
 30
0.0
 10
142.4195814486328
 20
235.8694010585055
 30
0.0
 10
142.1146331114672
 20
235.8571740019783
 30
0.0
 10
141.8096847742924
 20
235.869401058153
 30
0.0
 10
141.5069191095558
 20
235.9058882547172
 30
0.0
 10
141.2089811660798
 20
235.9664327632419
 30
0.0
 10
140.9175440129797
 20
236.0505799007469
 30
0.0
 10
140.6355908582594
 20
236.1576128279235
 30
0.0
 10
140.3643129641626
 20
236.2869361634017
 30
0.0
 10
140.1068443215415
 20
236.4372534793545
 30
0.0
 10
139.8639794589326
 20
236.607901867416
 30
0.0
 10
139.63878050238
 20
236.7970156555623
 30
0.0
 10
139.4317562373977
 20
237.0038710983582
 30
0.0
 10
139.2456767752307
 20
237.2261292553864
 30
0.0
 10
139.0808627754907
 20
237.4629441215226
 30
0.0
 10
138.9396149070865
 20
237.7116755909663
 30
0.0
 10
138.8221129396384
 20
237.9712464946522
 30
0.0
 10
138.7300859922704
 20
238.2389344857209
 30
0.0
 10
138.6635481646482
 20
238.5133151964012
 30
0.0
 10
138.6236453810295
 20
238.7918062076612
 30
0.0
 10
138.6101332596901
 20
239.0725610438473
 30
0.0
 10
138.623645381005
 20
239.3533158800335
 30
0.0
 10
138.6635481645993
 20
239.6318068912938
 30
0.0
 10
138.7300859921973
 20
239.9061876019745
 30
0.0
 10
138.8221129395411
 20
240.1738755930438
 30
0.0
 10
138.939614906965
 20
240.4334464967305
 30
0.0
 10
139.0808627753453
 20
240.6821779661749
 30
0.0
 10
139.2456767750616
 20
240.9189928323122
 30
0.0
 10
139.4317562372048
 20
241.1412509893416
 30
0.0
 10
139.6387805021638
 20
241.3481064321388
 30
0.0
 10
139.8639794586932
 20
241.5372202202862
 30
0.0
 10
140.1068443212789
 20
241.7078686083493
 30
0.0
 10
140.364312963877
 20
241.8581859243035
 30
0.0
 10
140.6355908579507
 20
241.9875092597833
 30
0.0
 10
140.9175440126481
 20
242.0945421869619
 30
0.0
 10
141.2089811657252
 20
242.1786893244687
 30
0.0
 10
141.506919109178
 20
242.2392338329955
 30
0.0
 10
141.8096847738917
 20
242.2757210295622
 30
0.0
 10
142.1146331110422
 20
242.2879480857395
 30
0.0
 10
142.4195814481884
 20
242.275721029216
 30
0.0
 10
142.7223471128922
 20
242.2392338323018
 30
0.0
 10
143.0202850563217
 20
242.1786893234265
 30
0.0
 10
143.3117222093883
 20
242.094542185566
 30
0.0
 10
143.5936753639892
 20
241.9875092580379
 30
0.0
 10
143.8649532582438
 20
241.8581859221764
 30
0.0
 10
144.1224218999529
 20
241.7078686059368
 30
0.0
 10
144.3652867655486
 20
241.5372202172076
 30
0.0
 10
144.5904857106113
 20
241.3481064297703
 30
0.0
 10
144.7975100173932
 20
241.1412509825808
 30
0.0
 10
144.983589324208
 20
240.9189928399854
 30
0.0
 10
145.1484038952853
 20
240.6821779188385
 30
0.0
 10
145.2896496452504
 20
240.4334466513472
 30
0.0
 10
145.4071594287974
 20
240.1738750004433
 30
0.0
 10
145.4991573521134
 20
239.9061897817926
 30
0.0
 10
145.5658026847026
 20
239.6317987995267
 30
0.0
 10
145.6053052700385
 20
239.3533460219438
 30
0.0
 10
145.6203070485947
 20
239.0724488669009
 30
0.0
 10
145.6076031629872
 20
238.8858069211728
 30
0.0
 10
145.6012512229886
 20
238.7924859498434
 30
0.0
 11
145.6012512229885
 21
238.7924859498434
 31
0.0
 11
145.5613134135247
 21
238.5141591961097
 31
0.0
 11
145.4951761943856
 21
238.2408851615608
 31
0.0
 11
145.4030223727198
 21
237.9728804907317
 31
0.0
 11
145.2862923214451
 21
237.7146588527141
 31
0.0
 11
145.1446933832831
 21
237.4652722093636
 31
0.0
 11
144.981015782759
 21
237.2298258315075
 31
0.0
 11
144.7943273091825
 21
237.0067739826833
 31
0.0
 11
144.5886930989116
 21
236.8011059260881
 31
0.0
 11
144.3626989447852
 21
236.6112545213436
 31
0.0
 11
144.121296135663
 21
236.4414815899722
 31
0.0
 11
143.8629970204396
 21
236.2906199075388
 31
0.0
 11
143.5930476090215
 21
236.1618200406073
 31
0.0
 11
143.3104140100272
 21
236.0544878085936
 31
0.0
 11
143.0199884959668
 21
235.9705597870312
 31
0.0
 11
142.7216924573259
 21
235.9099251363356
 31
0.0
 11
142.4194969030837
 21
235.8734667854195
 31
0.0
 11
142.1146331018701
 21
235.8612528997749
 31
0.0
 11
141.8097693006565
 21
235.8734667854195
 31
0.0
 11
141.5075737464143
 21
235.9099251363356
 31
0.0
 11
141.2092777077734
 21
235.9705597870312
 31
0.0
 11
140.918852193713
 21
236.0544878085936
 31
0.0
 11
140.6362185947187
 21
236.1618200406073
 31
0.0
 11
140.3662691833006
 21
236.2906199075388
 31
0.0
 11
140.1079700680772
 21
236.4414815899722
 31
0.0
 11
139.866567258955
 21
236.6112545213436
 31
0.0
 11
139.6405731048285
 21
236.8011059260881
 31
0.0
 11
139.4349388945577
 21
237.0067739826833
 31
0.0
 11
139.2482504209812
 21
237.2298258315075
 31
0.0
 11
139.0845728204571
 21
237.4652722093635
 31
0.0
 11
138.9429738822951
 21
237.714658852714
 31
0.0
 11
138.8262438310204
 21
237.9728804907317
 31
0.0
 11
138.7340900093546
 21
238.2408851615609
 31
0.0
 11
138.6679527902155
 21
238.5141591961097
 31
0.0
 11
138.6280149807516
 21
238.7924859498435
 31
0.0
 11
138.6146331018702
 21
239.0725610444411
 31
0.0
 11
138.6280149807516
 21
239.3526361390388
 31
0.0
 11
138.6679527902155
 21
239.6309628927725
 31
0.0
 11
138.7340900093546
 21
239.9042369273214
 31
0.0
 11
138.8262438310204
 21
240.1722415981505
 31
0.0
 11
138.9429738822951
 21
240.4304632361682
 31
0.0
 11
139.0845728204571
 21
240.6798498795186
 31
0.0
 11
139.2482504209811
 21
240.9152962573748
 31
0.0
 11
139.4349388945577
 21
241.138348106199
 31
0.0
 11
139.6405731048285
 21
241.3440161627942
 31
0.0
 11
139.8665672589549
 21
241.5338675675386
 31
0.0
 11
140.1079700680772
 21
241.70364049891
 31
0.0
 11
140.3662691833006
 21
241.8545021813433
 31
0.0
 11
140.6362185947186
 21
241.983302048275
 31
0.0
 11
140.918852193713
 21
242.0906342802887
 31
0.0
 11
141.2092777077734
 21
242.1745623018511
 31
0.0
 11
141.5075737464143
 21
242.2351969525467
 31
0.0
 11
141.8097693006565
 21
242.2716553034629
 31
0.0
 11
142.1146331018701
 21
242.2838691891074
 31
0.0
 11
142.4194969030837
 21
242.2716553034629
 31
0.0
 11
142.7216924573259
 21
242.2351969525467
 31
0.0
 11
143.0199884959668
 21
242.1745623018511
 31
0.0
 11
143.3104140100272
 21
242.0906342802887
 31
0.0
 11
143.5930476090215
 21
241.983302048275
 31
0.0
 11
143.8629970204396
 21
241.8545021813435
 31
0.0
 11
144.121296135663
 21
241.7036404989101
 31
0.0
 11
144.3626989447852
 21
241.5338675675386
 31
0.0
 11
144.5886930989116
 21
241.3440161627942
 31
0.0
 11
144.7943273091825
 21
241.1383481061989
 31
0.0
 11
144.981015782759
 21
240.9152962573747
 31
0.0
 11
145.1446933832831
 21
240.6798498795186
 31
0.0
 11
145.2862923214451
 21
240.4304632361681
 31
0.0
 11
145.4030223727198
 21
240.1722415981505
 31
0.0
 11
145.4951761943857
 21
239.9042369273214
 31
0.0
 11
145.5613134135248
 21
239.6309628927725
 31
0.0
 11
145.6012512229886
 21
239.3526361390389
 31
0.0
 11
145.61463310187
 21
239.072561044441
 31
0.0
 11
145.6012512229886
 21
238.7924859498434
 31
0.0
  0
SPLINE
  5
1AE
330
5B
100
AcDbEntity
  8
1
  6
Continuous
 62
     7
100
AcDbSpline
210
0.0
220
0.0
230
1.0
 70
    11
 71
     3
 72
    79
 73
    75
 74
    73
 42
0.000000001
 43
0.0000000001
 44
0.00000001
 40
0.0
 40
0.0
 40
0.0
 40
0.0
 40
0.3171598580994723
 40
0.6340856804163102
 40
0.9694901438296145
 40
1.304562816107487
 40
1.666124792352988
 40
2.027385862054794
 40
2.418724074662697
 40
2.809836930033055
 40
3.230628783265222
 40
3.651266054645912
 40
4.09801689361321
 40
4.544667754307313
 40
5.01153628357576
 40
5.478345517955661
 40
5.957894797784377
 40
6.437416537649626
 40
6.921284916372832
 40
7.405153295095139
 40
7.884675034957343
 40
8.364224314780168
 40
8.831033549149636
 40
9.297902078400327
 40
9.7445529390671
 40
10.19130377799227
 40
10.61194104931351
 40
11.03273290245838
 40
11.42384575771223
 40
11.81518397015546
 40
12.17644503964393
 40
12.53800701558736
 40
12.87307968744861
 40
13.208484150157
 40
13.52540997044833
 40
13.84256983599768
 40
14.15305256845263
 40
14.46353530090643
 40
14.7806951664524
 40
15.09762098673828
 40
15.43302544943941
 40
15.76809812129229
 40
16.12966009722614
 40
16.49092116670452
 40
16.88225937913684
 40
17.27337223438028
 40
17.69416408751422
 40
18.11480135882518
 40
18.56155219773997
 40
19.00820305839709
 40
19.47507158763832
 40
19.94188082199929
 40
20.42143010181411
 40
20.9009518416691
 40
21.3848202203851
 40
21.86868859910241
 40
22.34821033896285
 40
22.82775961878787
 40
23.29456885316512
 40
23.76143738243125
 40
24.20808824312373
 40
24.65483908209008
 40
25.07547635346971
 40
25.49626820669923
 40
25.88738106206457
 40
26.27871927466153
 40
26.63998034434214
 40
27.00154232054188
 40
27.33661499271686
 40
27.67201945583545
 40
27.98894527665762
 40
28.30610514299992
 40
28.61658787757123
 40
28.92707060279177
 40
28.92707060279177
 40
28.92707060279177
 40
28.92707060279177
 10
141.8402649970953
 20
575.1964097033015
 30
0.0
 10
141.7360166100908
 20
575.1778317726372
 30
0.0
 10
141.5275967604807
 20
575.1406896286005
 30
0.0
 10
141.2225594579484
 20
575.0298345557267
 30
0.0
 10
140.9274078116914
 20
574.8828142469961
 30
0.0
 10
140.6397181850589
 20
574.6927431378396
 30
0.0
 10
140.3674793577384
 20
574.4676151901893
 30
0.0
 10
140.1060705819933
 20
574.2030309336038
 30
0.0
 10
139.8638830165954
 20
573.9079345085781
 30
0.0
 10
139.6362560413296
 20
573.5771921527846
 30
0.0
 10
139.4305640953242
 20
573.2210661520606
 30
0.0
 10
139.2431827950902
 20
572.8343373045101
 30
0.0
 10
139.0797291967291
 20
572.4276006227759
 30
0.0
 10
138.9379305633854
 20
571.9966150944894
 30
0.0
 10
138.8214936394934
 20
571.5511832342295
 30
0.0
 10
138.7293095482477
 20
571.0889502468982
 30
0.0
 10
138.663428309821
 20
570.6179823246683
 30
0.0
 10
138.6234346592952
 20
570.1384209614774
 30
0.0
 10
138.6102124692607
 20
569.6559361875609
 30
0.0
 10
138.6234346592705
 20
569.1734514136294
 30
0.0
 10
138.6634283097744
 20
568.6938900504845
 30
0.0
 10
138.7293095481418
 20
568.2229221280946
 30
0.0
 10
138.8214936394201
 20
567.7606891413513
 30
0.0
 10
138.937930562944
 20
567.3152572789503
 30
0.0
 10
139.0797291972729
 20
566.8842717583336
 30
0.0
 10
139.2431827916178
 20
566.4775350487953
 30
0.0
 10
139.4305641054413
 20
566.0908062992326
 30
0.0
 10
139.6362560018104
 20
565.7346799458608
 30
0.0
 10
139.8638831490238
 20
565.4039388180091
 30
0.0
 10
140.1060700974735
 20
565.1088379951553
 30
0.0
 10
140.3674810068206
 20
564.8442689572237
 30
0.0
 10
140.6397121914955
 20
564.6190865080234
 30
0.0
 10
140.9274283655621
 20
564.4292047303958
 30
0.0
 10
141.222484247169
 20
564.281501469871
 30
0.0
 10
141.5278603954881
 20
564.173062918883
 30
0.0
 10
141.8370924492857
 20
564.1088803298788
 30
0.0
 10
142.1499902086123
 20
564.0863211014588
 30
0.0
 10
142.4628879679386
 20
564.1088803298674
 30
0.0
 10
142.7721200217352
 20
564.1730629188602
 30
0.0
 10
143.0774961700527
 20
564.2815014698367
 30
0.0
 10
143.372552051657
 20
564.4292047303511
 30
0.0
 10
143.6602682257206
 20
564.6190865079685
 30
0.0
 10
143.9324994103912
 20
564.8442689571592
 30
0.0
 10
144.1939103197336
 20
565.1088379950813
 30
0.0
 10
144.4360972681773
 20
565.4039388179266
 30
0.0
 10
144.6637244153836
 20
565.7346799457698
 30
0.0
 10
144.869416311745
 20
566.090806299134
 30
0.0
 10
145.0567976255592
 20
566.4775350486896
 30
0.0
 10
145.2202512198938
 20
566.8842717582213
 30
0.0
 10
145.3620498542107
 20
567.3152572788313
 30
0.0
 10
145.4784867777209
 20
567.7606891412265
 30
0.0
 10
145.5706708689836
 20
568.2229221279645
 30
0.0
 10
145.6365521073332
 20
568.6938900503483
 30
0.0
 10
145.6765457578173
 20
569.1734514134891
 30
0.0
 10
145.689767947804
 20
569.6559361874113
 30
0.0
 10
145.6765457577461
 20
570.1384209613327
 30
0.0
 10
145.6365521071858
 20
570.617982324476
 30
0.0
 10
145.5706708687527
 20
571.0889502468474
 30
0.0
 10
145.4784867773855
 20
571.5511832336249
 30
0.0
 10
145.3620498537796
 20
571.9966150958646
 30
0.0
 10
145.2202512192459
 20
572.4276006170126
 30
0.0
 10
145.0567976250215
 20
572.8343373245593
 30
0.0
 10
144.8694163100316
 20
573.2210660810589
 30
0.0
 10
144.6637244169478
 20
573.5771924093515
 30
0.0
 10
144.4360972572341
 20
573.9079336243793
 30
0.0
 10
144.1939103522719
 20
574.2030341348071
 30
0.0
 10
143.9324992909851
 20
574.467604253617
 30
0.0
 10
143.6602686487061
 20
574.6927828315687
 30
0.0
 10
143.3725505884868
 20
574.8826780569511
 30
0.0
 10
143.0775015082378
 20
575.0303328084171
 30
0.0
 10
142.772101291627
 20
575.1389430006277
 30
0.0
 10
142.4629574150735
 20
575.2024967312361
 30
0.0
 10
142.1497370426463
 20
575.2273567308449
 30
0.0
 10
141.9434223448216
 20
575.2067253760704
 30
0.0
 10
141.8402649970953
 20
575.1964097033015
 30
0.0
 11
141.8402649970953
 21
575.1964097033015
 31
0.0
 11
141.5297497593112
 21
575.131828997921
 31
0.0
 11
141.2307939436142
 21
575.0266273063507
 31
0.0
 11
140.9306909567835
 21
574.8768462962702
 31
0.0
 11
140.6505542313987
 21
574.6930063914932
 31
0.0
 11
140.3715102729284
 21
574.4630900333158
 31
0.0
 11
140.1170929959158
 21
574.2066111656845
 31
0.0
 11
139.8682543438251
 21
573.9045765289342
 31
0.0
 11
139.6460709357982
 21
573.5827010890753
 31
0.0
 11
139.4350462854473
 21
573.218648372213
 31
0.0
 11
139.2512797019064
 21
572.8402761258385
 31
0.0
 11
139.084217659493
 21
572.4259373923264
 31
0.0
 11
138.9443814187665
 21
572.0017407196253
 31
0.0
 11
138.8259533495822
 21
571.5501424290545
 31
0.0
 11
138.7345214538853
 21
571.0923749446806
 31
0.0
 11
138.6678599049786
 21
570.6174815359233
 31
0.0
 11
138.627989973945
 21
570.1396201673203
 31
0.0
 11
138.6146331018701
 21
569.6559361776149
 31
0.0
 11
138.627989973945
 21
569.1722521879093
 31
0.0
 11
138.6678599049786
 21
568.6943908193065
 31
0.0
 11
138.7345214538853
 21
568.2194974105491
 31
0.0
 11
138.8259533495823
 21
567.7617299261752
 31
0.0
 11
138.9443814187666
 21
567.3101316356044
 31
0.0
 11
139.0842176594931
 21
566.8859349629034
 31
0.0
 11
139.2512797019064
 21
566.4715962293911
 31
0.0
 11
139.4350462854473
 21
566.0932239830165
 31
0.0
 11
139.6460709357981
 21
565.7291712661543
 31
0.0
 11
139.8682543438251
 21
565.4072958262956
 31
0.0
 11
140.1170929959158
 21
565.1052611895452
 31
0.0
 11
140.3715102729284
 21
564.8487823219139
 31
0.0
 11
140.6505542313987
 21
564.6188659637365
 31
0.0
 11
140.9306909567835
 21
564.4350260589596
 31
0.0
 11
141.2307939436142
 21
564.285245048879
 31
0.0
 11
141.5297497593112
 21
564.1800433573086
 31
0.0
 11
141.8402649970953
 21
564.115462651928
 31
0.0
 11
142.1499902090058
 21
564.093787312293
 31
0.0
 11
142.4597154209164
 21
564.1154626519282
 31
0.0
 11
142.7702306587005
 21
564.1800433573087
 31
0.0
 11
143.0691864743974
 21
564.285245048879
 31
0.0
 11
143.3692894612281
 21
564.4350260589596
 31
0.0
 11
143.649426186613
 21
564.6188659637365
 31
0.0
 11
143.9284701450833
 21
564.848782321914
 31
0.0
 11
144.1828874220959
 21
565.1052611895452
 31
0.0
 11
144.4317260741865
 21
565.4072958262956
 31
0.0
 11
144.6539094822135
 21
565.7291712661544
 31
0.0
 11
144.8649341325643
 21
566.0932239830166
 31
0.0
 11
145.0487007161053
 21
566.4715962293913
 31
0.0
 11
145.2157627585186
 21
566.8859349629034
 31
0.0
 11
145.3555989992451
 21
567.3101316356043
 31
0.0
 11
145.4740270684294
 21
567.761729926175
 31
0.0
 11
145.5654589641264
 21
568.219497410549
 31
0.0
 11
145.6321205130331
 21
568.6943908193065
 31
0.0
 11
145.6719904440667
 21
569.1722521879093
 31
0.0
 11
145.6853473161416
 21
569.655936177615
 31
0.0
 11
145.6719904440667
 21
570.1396201673203
 31
0.0
 11
145.632120513033
 21
570.6174815359232
 31
0.0
 11
145.5654589641263
 21
571.0923749446806
 31
0.0
 11
145.4740270684294
 21
571.5501424290547
 31
0.0
 11
145.355598999245
 21
572.0017407196253
 31
0.0
 11
145.2157627585186
 21
572.4259373923262
 31
0.0
 11
145.0487007161053
 21
572.8402761258385
 31
0.0
 11
144.8649341325644
 21
573.2186483722131
 31
0.0
 11
144.6539094822136
 21
573.5827010890754
 31
0.0
 11
144.4317260741865
 21
573.9045765289342
 31
0.0
 11
144.1828874220959
 21
574.2066111656845
 31
0.0
 11
143.9284701450833
 21
574.4630900333158
 31
0.0
 11
143.649426186613
 21
574.6930063914932
 31
0.0
 11
143.3692894612281
 21
574.8768462962703
 31
0.0
 11
143.0691864743974
 21
575.0266273063507
 31
0.0
 11
142.7702306587005
 21
575.131828997921
 31
0.0
 11
142.4597154209164
 21
575.1964097033015
 31
0.0
 11
142.1499902090058
 21
575.2180850429365
 31
0.0
 11
141.8402649970953
 21
575.1964097033015
 31
0.0
  0
SPLINE
  5
1AF
330
5B
100
AcDbEntity
  8
1
  6
Continuous
 62
     7
100
AcDbSpline
210
0.0
220
0.0
230
1.0
 70
    11
 71
     3
 72
    79
 73
    75
 74
    73
 42
0.000000001
 43
0.0000000001
 44
0.00000001
 40
0.0
 40
0.0
 40
0.0
 40
0.0
 40
0.3171598580994491
 40
0.6340856804163248
 40
0.9694901438296292
 40
1.304562816107564
 40
1.666124792352993
 40
2.027385862054799
 40
2.418724074662613
 40
2.809836930032972
 40
3.230628783265237
 40
3.651266054645927
 40
4.098016893613331
 40
4.544667754307326
 40
5.011536283575664
 40
5.478345517955676
 40
5.957894797784392
 40
6.437416537649528
 40
6.921284916372848
 40
7.405153295095155
 40
7.884675034957359
 40
8.364224314780184
 40
8.831033549149764
 40
9.297902078400345
 40
9.744552939067226
 40
10.19130377799218
 40
10.61194104931353
 40
11.0327329024582
 40
11.42384575771224
 40
11.81518397015546
 40
12.17644503964394
 40
12.53800701558744
 40
12.87307968744862
 40
13.20848415015701
 40
13.52540997044831
 40
13.84256983599766
 40
14.15305256845262
 40
14.46353530090642
 40
14.78069516645237
 40
15.09762098673825
 40
15.43302544943932
 40
15.76809812129221
 40
16.12966009722606
 40
16.49092116670452
 40
16.88225937913675
 40
17.27337223438019
 40
17.69416408751422
 40
18.11480135882519
 40
18.56155219773997
 40
19.0082030583971
 40
19.47507158763833
 40
19.94188082199929
 40
20.42143010181412
 40
20.90095184166922
 40
21.384820220385
 40
21.86868859910254
 40
22.34821033896309
 40
22.82775961878811
 40
23.29456885316503
 40
23.76143738243115
 40
24.20808824312374
 40
24.65483908209009
 40
25.07547635346972
 40
25.49626820669934
 40
25.88738106206459
 40
26.27871927466154
 40
26.63998034434207
 40
27.00154232054182
 40
27.33661499271686
 40
27.67201945583545
 40
27.98894527665762
 40
28.30610514299992
 40
28.61658787757123
 40
28.92707060279177
 40
28.92707060279177
 40
28.92707060279177
 40
28.92707060279177
 10
141.8402649970953
 20
551.1154626519283
 30
0.0
 10
141.7360166100908
 20
551.1340405825923
 30
0.0
 10
141.5275967604807
 20
551.1711827266295
 30
0.0
 10
141.2225594579484
 20
551.2820377995029
 30
0.0
 10
140.9274078116914
 20
551.4290581082336
 30
0.0
 10
140.639718185059
 20
551.6191292173903
 30
0.0
 10
140.3674793577383
 20
551.8442571650404
 30
0.0
 10
140.1060705819934
 20
552.1088414216259
 30
0.0
 10
139.8638830165953
 20
552.4039378466514
 30
0.0
 10
139.6362560413295
 20
552.7346802024451
 30
0.0
 10
139.4305640953243
 20
553.090806203169
 30
0.0
 10
139.2431827950902
 20
553.4775350507198
 30
0.0
 10
139.0797291967291
 20
553.8842717324541
 30
0.0
 10
138.9379305633854
 20
554.3152572607405
 30
0.0
 10
138.8214936394934
 20
554.760689121
 30
0.0
 10
138.7293095482477
 20
555.2229221083314
 30
0.0
 10
138.663428309821
 20
555.6938900305615
 30
0.0
 10
138.6234346592953
 20
556.1734513937521
 30
0.0
 10
138.6102124692607
 20
556.655936167669
 30
0.0
 10
138.6234346592705
 20
557.1384209416003
 30
0.0
 10
138.6634283097743
 20
557.6179823047452
 30
0.0
 10
138.7293095481419
 20
558.0889502271352
 30
0.0
 10
138.82149363942
 20
558.5511832138784
 30
0.0
 10
138.937930562944
 20
558.9966150762798
 30
0.0
 10
139.0797291972729
 20
559.4276005968961
 30
0.0
 10
139.2431827916179
 20
559.8343373064345
 30
0.0
 10
139.4305641054412
 20
560.2210660559972
 30
0.0
 10
139.6362560018105
 20
560.5771924093688
 30
0.0
 10
139.8638831490238
 20
560.9079335372205
 30
0.0
 10
140.1060700974734
 20
561.2030343600744
 30
0.0
 10
140.3674810068207
 20
561.467603398006
 30
0.0
 10
140.6397121914954
 20
561.6927858472066
 30
0.0
 10
140.9274283655622
 20
561.8826676248341
 30
0.0
 10
141.222484247169
 20
562.0303708853586
 30
0.0
 10
141.5278603954881
 20
562.1388094363467
 30
0.0
 10
141.8370924492858
 20
562.2029920253508
 30
0.0
 10
142.1499902086123
 20
562.2255512537712
 30
0.0
 10
142.4628879679386
 20
562.2029920253622
 30
0.0
 10
142.7721200217352
 20
562.1388094363697
 30
0.0
 10
143.0774961700527
 20
562.0303708853929
 30
0.0
 10
143.372552051657
 20
561.8826676248788
 30
0.0
 10
143.6602682257206
 20
561.6927858472616
 30
0.0
 10
143.9324994103912
 20
561.4676033980705
 30
0.0
 10
144.1939103197334
 20
561.2030343601488
 30
0.0
 10
144.4360972681773
 20
560.907933537303
 30
0.0
 10
144.6637244153837
 20
560.5771924094602
 30
0.0
 10
144.869416311745
 20
560.2210660560957
 30
0.0
 10
145.0567976255592
 20
559.8343373065402
 30
0.0
 10
145.2202512198938
 20
559.4276005970086
 30
0.0
 10
145.3620498542107
 20
558.9966150763984
 30
0.0
 10
145.4784867777209
 20
558.551183214003
 30
0.0
 10
145.5706708689836
 20
558.0889502272655
 30
0.0
 10
145.6365521073333
 20
557.6179823048814
 30
0.0
 10
145.6765457578173
 20
557.1384209417407
 30
0.0
 10
145.6897679478041
 20
556.6559361678184
 30
0.0
 10
145.6765457577461
 20
556.1734513938969
 30
0.0
 10
145.6365521071858
 20
555.6938900307538
 30
0.0
 10
145.5706708687527
 20
555.2229221083821
 30
0.0
 10
145.4784867773855
 20
554.7606891216049
 30
0.0
 10
145.3620498537796
 20
554.3152572593656
 30
0.0
 10
145.220251219246
 20
553.8842717382173
 30
0.0
 10
145.0567976250215
 20
553.4775350306704
 30
0.0
 10
144.8694163100315
 20
553.090806274171
 30
0.0
 10
144.6637244169478
 20
552.7346799458779
 30
0.0
 10
144.436097257234
 20
552.4039387308504
 30
0.0
 10
144.193910352272
 20
552.1088382204225
 30
0.0
 10
143.932499290985
 20
551.8442681016129
 30
0.0
 10
143.6602686487061
 20
551.6190895236609
 30
0.0
 10
143.3725505884869
 20
551.4291942982786
 30
0.0
 10
143.0775015082377
 20
551.2815395468125
 30
0.0
 10
142.772101291627
 20
551.172929354602
 30
0.0
 10
142.4629574150735
 20
551.1093756239937
 30
0.0
 10
142.1497370426463
 20
551.0845156243847
 30
0.0
 10
141.9434223448216
 20
551.1051469791595
 30
0.0
 10
141.8402649970953
 20
551.1154626519283
 30
0.0
 11
141.8402649970953
 21
551.1154626519283
 31
0.0
 11
141.5297497593112
 21
551.1800433573086
 31
0.0
 11
141.2307939436142
 21
551.285245048879
 31
0.0
 11
140.9306909567835
 21
551.4350260589596
 31
0.0
 11
140.6505542313987
 21
551.6188659637367
 31
0.0
 11
140.3715102729284
 21
551.848782321914
 31
0.0
 11
140.1170929959158
 21
552.1052611895452
 31
0.0
 11
139.8682543438251
 21
552.4072958262955
 31
0.0
 11
139.6460709357982
 21
552.7291712661544
 31
0.0
 11
139.4350462854473
 21
553.0932239830167
 31
0.0
 11
139.2512797019064
 21
553.4715962293913
 31
0.0
 11
139.084217659493
 21
553.8859349629034
 31
0.0
 11
138.9443814187665
 21
554.3101316356044
 31
0.0
 11
138.8259533495822
 21
554.7617299261751
 31
0.0
 11
138.7345214538853
 21
555.2194974105491
 31
0.0
 11
138.6678599049786
 21
555.6943908193065
 31
0.0
 11
138.627989973945
 21
556.1722521879093
 31
0.0
 11
138.6146331018701
 21
556.6559361776149
 31
0.0
 11
138.627989973945
 21
557.1396201673205
 31
0.0
 11
138.6678599049786
 21
557.6174815359233
 31
0.0
 11
138.7345214538853
 21
558.0923749446806
 31
0.0
 11
138.8259533495823
 21
558.5501424290546
 31
0.0
 11
138.9443814187666
 21
559.0017407196253
 31
0.0
 11
139.0842176594931
 21
559.4259373923264
 31
0.0
 11
139.2512797019064
 21
559.8402761258385
 31
0.0
 11
139.4350462854473
 21
560.2186483722132
 31
0.0
 11
139.6460709357981
 21
560.5827010890753
 31
0.0
 11
139.8682543438251
 21
560.9045765289342
 31
0.0
 11
140.1170929959158
 21
561.2066111656845
 31
0.0
 11
140.3715102729284
 21
561.4630900333159
 31
0.0
 11
140.6505542313987
 21
561.6930063914933
 31
0.0
 11
140.9306909567835
 21
561.8768462962702
 31
0.0
 11
141.2307939436142
 21
562.0266273063507
 31
0.0
 11
141.5297497593112
 21
562.131828997921
 31
0.0
 11
141.8402649970953
 21
562.1964097033016
 31
0.0
 11
142.1499902090058
 21
562.2180850429368
 31
0.0
 11
142.4597154209164
 21
562.1964097033015
 31
0.0
 11
142.7702306587005
 21
562.131828997921
 31
0.0
 11
143.0691864743974
 21
562.0266273063507
 31
0.0
 11
143.3692894612281
 21
561.8768462962703
 31
0.0
 11
143.649426186613
 21
561.6930063914933
 31
0.0
 11
143.9284701450833
 21
561.4630900333159
 31
0.0
 11
144.1828874220959
 21
561.2066111656845
 31
0.0
 11
144.4317260741865
 21
560.9045765289343
 31
0.0
 11
144.6539094822135
 21
560.5827010890755
 31
0.0
 11
144.8649341325643
 21
560.2186483722131
 31
0.0
 11
145.0487007161053
 21
559.8402761258385
 31
0.0
 11
145.2157627585186
 21
559.4259373923263
 31
0.0
 11
145.3555989992451
 21
559.0017407196254
 31
0.0
 11
145.4740270684294
 21
558.5501424290547
 31
0.0
 11
145.5654589641264
 21
558.0923749446807
 31
0.0
 11
145.6321205130331
 21
557.6174815359233
 31
0.0
 11
145.6719904440667
 21
557.1396201673203
 31
0.0
 11
145.6853473161416
 21
556.6559361776149
 31
0.0
 11
145.6719904440667
 21
556.1722521879093
 31
0.0
 11
145.632120513033
 21
555.6943908193064
 31
0.0
 11
145.5654589641263
 21
555.2194974105489
 31
0.0
 11
145.4740270684294
 21
554.7617299261751
 31
0.0
 11
145.355598999245
 21
554.3101316356045
 31
0.0
 11
145.2157627585186
 21
553.8859349629035
 31
0.0
 11
145.0487007161053
 21
553.4715962293913
 31
0.0
 11
144.8649341325644
 21
553.0932239830166
 31
0.0
 11
144.6539094822136
 21
552.7291712661543
 31
0.0
 11
144.4317260741865
 21
552.4072958262956
 31
0.0
 11
144.1828874220959
 21
552.1052611895452
 31
0.0
 11
143.9284701450833
 21
551.8487823219141
 31
0.0
 11
143.649426186613
 21
551.6188659637367
 31
0.0
 11
143.3692894612281
 21
551.4350260589595
 31
0.0
 11
143.0691864743974
 21
551.285245048879
 31
0.0
 11
142.7702306587005
 21
551.1800433573087
 31
0.0
 11
142.4597154209164
 21
551.1154626519283
 31
0.0
 11
142.1499902090058
 21
551.0937873122932
 31
0.0
 11
141.8402649970953
 21
551.1154626519283
 31
0.0
  0
ENDBLK
  5
5D
330
5B
100
AcDbEntity
  8
0
100
AcDbBlockEnd
  0
BLOCK
  5
5F
330
5E
100
AcDbEntity
  8
0
100
AcDbBlockBegin
  2
36-1A-13-M4
 70
     0
 10
25.54550709243392
 20
330.1963568046797
 30
0.0
  3
36-1A-13-M4
  1

  0
LINE
  5
1B0
330
5E
100
AcDbEntity
  8
1
  6
Continuous
 62
     7
100
AcDbLine
 10
152.6146331018701
 20
567.905936177615
 30
0.0
 11
156.5922918278542
 21
567.905936177615
 31
0.0
  0
LINE
  5
1B1
330
5E
100
AcDbEntity
  8
1
  6
Continuous
 62
     7
100
AcDbLine
 10
156.5922918278542
 20
558.405936177615
 30
0.0
 11
152.6146331018701
 21
558.405936177615
 31
0.0
  0
LINE
  5
1B2
330
5E
100
AcDbEntity
  8
1
  6
Continuous
 62
     7
100
AcDbLine
 10
152.6146331018701
 20
232.5642307952435
 30
0.0
 11
155.0922918278542
 21
232.5642307952435
 31
0.0
  0
LINE
  5
1B3
330
5E
100
AcDbEntity
  8
1
  6
Continuous
 62
     7
100
AcDbLine
 10
155.0922918278542
 20
223.0642307952434
 30
0.0
 11
152.6146331018701
 21
223.0642307952434
 31
0.0
  0
ENDBLK
  5
60
330
5E
100
AcDbEntity
  8
0
100
AcDbBlockEnd
  0
BLOCK
  5
66
330
61
100
AcDbEntity
  8
0
100
AcDbBlockBegin
  2
R10A-13
 70
     0
 10
169.1146331018701
 20
182.8142307952435
 30
0.0
  3
R10A-13
  1

  0
INSERT
  5
62
330
61
100
AcDbEntity
  8
0
100
AcDbBlockReference
  2
21-1C
 10
124.1146331018702
 20
182.8142307952435
 30
0.0
 41
1.0
 42
1.0
 43
1.0
  0
INSERT
  5
63
330
61
100
AcDbEntity
  8
0
100
AcDbBlockReference
  2
42-1
 10
-14.17501590771468
 20
315.9184908818469
 30
0.0
 41
1.0
 42
1.0
 43
1.0
  0
INSERT
  5
64
330
61
100
AcDbEntity
  8
0
100
AcDbBlockReference
  2
37-1-13
 10
6.6189272117256
 20
319.6154610120145
 30
0.0
 41
1.0
 42
1.0
 43
1.0
  0
INSERT
  5
65
330
61
100
AcDbEntity
  8
0
100
AcDbBlockReference
  2
36-1A-13-M4
 10
25.54550709243392
 20
330.1963568046796
 30
0.0
 41
1.0
 42
1.0
 43
1.0
  0
LINE
  5
1B4
330
61
100
AcDbEntity
  8
1
  6
PHANTOM
 62
     4
100
AcDbLine
 10
140.6146331018701
 20
227.8142307952435
 30
0.0
 11
151.6146331018701
 21
227.8142307952435
 31
0.0
  0
ENDBLK
  5
67
330
61
100
AcDbEntity
  8
0
100
AcDbBlockEnd
  0
BLOCK
  5
69
330
68
100
AcDbEntity
  8
0
100
AcDbBlockBegin
  2
開示A4
 70
     0
 10
0.0
 20
0.0
 30
0.0
  3
開示A4
  1

  0
POINT
  5
1B5
330
68
100
AcDbEntity
  8
1
 62
     4
100
AcDbPoint
 10
93.75
 20
17.0
 30
0.0
  0
POINT
  5
1B6
330
68
100
AcDbEntity
  8
1
 62
     4
100
AcDbPoint
 10
85.25
 20
17.0
 30
0.0
  0
POINT
  5
1B7
330
68
100
AcDbEntity
  8
1
 62
     4
100
AcDbPoint
 10
106.5
 20
19.00000000000001
 30
0.0
  0
POINT
  5
1B8
330
68
100
AcDbEntity
  8
1
 62
     4
100
AcDbPoint
 10
106.5
 20
12.5
 30
0.0
  0
POINT
  5
1B9
330
68
100
AcDbEntity
  8
1
 62
     4
100
AcDbPoint
 10
112.25
 20
12.5
 30
0.0
  0
POINT
  5
1BA
330
68
100
AcDbEntity
  8
1
 62
     4
100
AcDbPoint
 10
100.75
 20
12.5
 30
0.0
  0
POINT
  5
1BB
330
68
100
AcDbEntity
  8
1
 62
     4
100
AcDbPoint
 10
123.5
 20
19.00000000000001
 30
0.0
  0
POINT
  5
1BC
330
68
100
AcDbEntity
  8
1
 62
     4
100
AcDbPoint
 10
123.5
 20
12.5
 30
0.0
  0
POINT
  5
1BD
330
68
100
AcDbEntity
  8
1
 62
     4
100
AcDbPoint
 10
129.25
 20
12.5
 30
0.0
  0
POINT
  5
1BE
330
68
100
AcDbEntity
  8
1
 62
     4
100
AcDbPoint
 10
117.75
 20
12.5
 30
0.0
  0
POINT
  5
1BF
330
68
100
AcDbEntity
  8
1
 62
     4
100
AcDbPoint
 10
140.5
 20
19.00000000000001
 30
0.0
  0
POINT
  5
1C0
330
68
100
AcDbEntity
  8
1
 62
     4
100
AcDbPoint
 10
140.5
 20
12.5
 30
0.0
  0
POINT
  5
1C1
330
68
100
AcDbEntity
  8
1
 62
     4
100
AcDbPoint
 10
146.25
 20
12.5
 30
0.0
  0
POINT
  5
1C2
330
68
100
AcDbEntity
  8
1
 62
     4
100
AcDbPoint
 10
134.75
 20
12.5
 30
0.0
  0
POINT
  5
1C3
330
68
100
AcDbEntity
  8
1
 62
     4
100
AcDbPoint
 10
151.75
 20
12.5
 30
0.0
  0
POINT
  5
1C4
330
68
100
AcDbEntity
  8
1
 62
     4
100
AcDbPoint
 10
163.25
 20
12.5
 30
0.0
  0
POINT
  5
1C5
330
68
100
AcDbEntity
  8
1
 62
     4
100
AcDbPoint
 10
157.5
 20
12.5
 30
0.0
  0
POINT
  5
1C6
330
68
100
AcDbEntity
  8
1
 62
     4
100
AcDbPoint
 10
57.0
 20
14.25
 30
0.0
  0
POINT
  5
1C7
330
68
100
AcDbEntity
  8
1
 62
     4
100
AcDbPoint
 10
57.0
 20
22.75000000000001
 30
0.0
  0
POINT
  5
1C8
330
68
100
AcDbEntity
  8
1
 62
     4
100
AcDbPoint
 10
47.5
 20
282.0000000000003
 30
0.0
  0
POINT
  5
1C9
330
68
100
AcDbEntity
  8
1
 62
     4
100
AcDbPoint
 10
157.5
 20
19.00000000000001
 30
0.0
  0
POINT
  5
1CA
330
68
100
AcDbEntity
  8
1
 62
     4
100
AcDbPoint
 10
57.0
 20
16.25
 30
0.0
  0
POINT
  5
1CB
330
68
100
AcDbEntity
  8
1
 62
     4
100
AcDbPoint
 10
57.0
 20
24.75000000000001
 30
0.0
  0
POINT
  5
1CC
330
68
100
AcDbEntity
  8
1
 62
     4
100
AcDbPoint
 10
57.0
 20
20.75000000000001
 30
0.0
  0
POINT
  5
1CD
330
68
100
AcDbEntity
  8
1
 62
     4
100
AcDbPoint
 10
57.0
 20
12.25
 30
0.0
  0
POINT
  5
1CE
330
68
100
AcDbEntity
  8
1
 62
     4
100
AcDbPoint
 10
34.0
 20
34.00000000000001
 30
0.0
  0
LINE
  5
1CF
330
68
100
AcDbEntity
  8
1
  6
Continuous
 62
     7
100
AcDbLine
 10
105.0
 20
10.0
 30
0.0
 11
200.0
 21
10.0
 31
0.0
  0
LINE
  5
1D0
330
68
100
AcDbEntity
  8
1
  6
Continuous
 62
     2
100
AcDbLine
 10
105.0
 20
10.0
 30
0.0
 11
105.0
 21
5.0
 31
0.0
  0
LINE
  5
1D1
330
68
100
AcDbEntity
  8
1
  6
Continuous
 62
     7
100
AcDbLine
 10
200.0
 20
148.5
 30
0.0
 11
200.0
 21
287.0000000000003
 31
0.0
  0
LINE
  5
1D2
330
68
100
AcDbEntity
  8
1
  6
Continuous
 62
     2
100
AcDbLine
 10
200.0
 20
148.5
 30
0.0
 11
205.0
 21
148.5
 31
0.0
  0
LINE
  5
1D3
330
68
100
AcDbEntity
  8
1
  6
Continuous
 62
     7
100
AcDbLine
 10
25.0
 20
148.5
 30
0.0
 11
25.0
 21
287.0000000000003
 31
0.0
  0
LINE
  5
1D4
330
68
100
AcDbEntity
  8
1
  6
Continuous
 62
     2
100
AcDbLine
 10
25.0
 20
148.5
 30
0.0
 11
20.0
 21
148.5
 31
0.0
  0
LINE
  5
1D5
330
68
100
AcDbEntity
  8
1
  6
Continuous
 62
     7
100
AcDbLine
 10
105.0
 20
287.0000000000003
 30
0.0
 11
25.0
 21
287.0000000000003
 31
0.0
  0
LINE
  5
1D6
330
68
100
AcDbEntity
  8
1
  6
Continuous
 62
     2
100
AcDbLine
 10
105.0
 20
287.0000000000003
 30
0.0
 11
105.0
 21
292.0000000000003
 31
0.0
  0
LINE
  5
1D7
330
68
100
AcDbEntity
  8
1
  6
Continuous
 62
     2
100
AcDbLine
 10
166.0
 20
20.00000000000001
 30
0.0
 11
200.0
 21
20.00000000000001
 31
0.0
  0
LINE
  5
1D8
330
68
100
AcDbEntity
  8
1
  6
Continuous
 62
     2
100
AcDbLine
 10
98.0
 20
27.00000000000001
 30
0.0
 11
98.0
 21
9.99999999999999
 31
0.0
  0
LINE
  5
1D9
330
68
100
AcDbEntity
  8
1
  6
Continuous
 62
     2
100
AcDbLine
 10
115.0
 20
27.00000000000001
 30
0.0
 11
115.0
 21
9.99999999999999
 31
0.0
  0
LINE
  5
1DA
330
68
100
AcDbEntity
  8
1
  6
Continuous
 62
     2
100
AcDbLine
 10
149.0
 20
27.00000000000001
 30
0.0
 11
149.0
 21
10.0
 31
0.0
  0
LINE
  5
1DB
330
68
100
AcDbEntity
  8
1
  6
Continuous
 62
     2
100
AcDbLine
 10
132.0
 20
27.00000000000001
 30
0.0
 11
132.0
 21
9.99999999999999
 31
0.0
  0
LINE
  5
1DC
330
68
100
AcDbEntity
  8
1
  6
Continuous
 62
     2
100
AcDbLine
 10
166.0
 20
27.00000000000001
 30
0.0
 11
166.0
 21
10.0
 31
0.0
  0
LINE
  5
1DD
330
68
100
AcDbEntity
  8
1
  6
Continuous
 62
     2
100
AcDbLine
 10
55.0
 20
277.0000000000003
 30
0.0
 11
25.0
 21
277.0000000000003
 31
0.0
  0
LINE
  5
1DE
330
68
100
AcDbEntity
  8
1
  6
Continuous
 62
     7
100
AcDbLine
 10
25.0
 20
10.0
 30
0.0
 11
25.0
 21
148.5
 31
0.0
  0
LINE
  5
1DF
330
68
100
AcDbEntity
  8
1
  6
Continuous
 62
     2
100
AcDbLine
 10
40.0
 20
287.0000000000003
 30
0.0
 11
40.0
 21
277.0000000000003
 31
0.0
  0
LINE
  5
1E0
330
68
100
AcDbEntity
  8
1
  6
Continuous
 62
     2
100
AcDbLine
 10
55.0
 20
287.0000000000003
 30
0.0
 11
55.0
 21
277.0000000000003
 31
0.0
  0
LINE
  5
1E1
330
68
100
AcDbEntity
  8
1
  6
Continuous
 62
     2
100
AcDbLine
 10
33.0
 20
41.00000000000001
 30
0.0
 11
33.0
 21
27.0
 31
0.0
  0
LINE
  5
1E2
330
68
100
AcDbEntity
  8
1
  6
Continuous
 62
     7
100
AcDbLine
 10
200.0
 20
27.00000000000001
 30
0.0
 11
25.0
 21
27.00000000000001
 31
0.0
  0
LINE
  5
1E3
330
68
100
AcDbEntity
  8
1
  6
Continuous
 62
     7
100
AcDbLine
 10
25.0
 20
41.0
 30
0.0
 11
200.0
 21
41.0
 31
0.0
  0
LINE
  5
1E4
330
68
100
AcDbEntity
  8
1
  6
PHANTOM
 62
     4
100
AcDbLine
 10
0.0
 20
0.0
 30
0.0
 11
210.0
 21
0.0
 31
0.0
  0
LINE
  5
1E5
330
68
100
AcDbEntity
  8
1
  6
PHANTOM
 62
     4
100
AcDbLine
 10
210.0
 20
0.0
 30
0.0
 11
210.0
 21
297.0
 31
0.0
  0
LINE
  5
1E6
330
68
100
AcDbEntity
  8
1
  6
PHANTOM
 62
     4
100
AcDbLine
 10
210.0
 20
297.0
 30
0.0
 11
0.0
 21
297.0
 31
0.0
  0
LINE
  5
1E7
330
68
100
AcDbEntity
  8
1
  6
PHANTOM
 62
     4
100
AcDbLine
 10
0.0
 20
297.0
 30
0.0
 11
0.0
 21
0.0
 31
0.0
  0
LINE
  5
1E8
330
68
100
AcDbEntity
  8
1
  6
Continuous
 62
     7
100
AcDbLine
 10
25.0
 20
10.0
 30
0.0
 11
105.0
 21
10.0
 31
0.0
  0
LINE
  5
1E9
330
68
100
AcDbEntity
  8
1
  6
Continuous
 62
     7
100
AcDbLine
 10
200.0
 20
10.0
 30
0.0
 11
200.0
 21
148.5
 31
0.0
  0
LINE
  5
1EA
330
68
100
AcDbEntity
  8
1
  6
Continuous
 62
     7
100
AcDbLine
 10
200.0
 20
287.0000000000003
 30
0.0
 11
105.0
 21
287.0000000000003
 31
0.0
  0
LINE
  5
1EB
330
68
100
AcDbEntity
  8
1
  6
Continuous
 62
     2
100
AcDbLine
 10
25.0
 20
18.50000000000001
 30
0.0
 11
81.0
 21
18.50000000000001
 31
0.0
  0
LINE
  5
1EC
330
68
100
AcDbEntity
  8
1
  6
Continuous
 62
     2
100
AcDbLine
 10
33.0
 20
27.0
 30
0.0
 11
33.0
 21
10.0
 31
0.0
  0
LINE
  5
1ED
330
68
100
AcDbEntity
  8
1
  6
Continuous
 62
     7
100
AcDbLine
 10
191.0
 20
24.70000000000001
 30
0.0
 11
191.0
 21
22.30000000000001
 31
0.0
  0
LINE
  5
1EE
330
68
100
AcDbEntity
  8
1
  6
Continuous
 62
     7
100
AcDbLine
 10
191.0
 20
24.70000000000001
 30
0.0
 11
196.0
 21
25.50000000000001
 31
0.0
  0
LINE
  5
1EF
330
68
100
AcDbEntity
  8
1
  6
Continuous
 62
     7
100
AcDbLine
 10
196.0
 20
25.50000000000001
 30
0.0
 11
196.0
 21
21.50000000000001
 31
0.0
  0
LINE
  5
1F0
330
68
100
AcDbEntity
  8
1
  6
Continuous
 62
     7
100
AcDbLine
 10
196.0
 20
21.50000000000001
 30
0.0
 11
191.0
 21
22.30000000000001
 31
0.0
  0
LINE
  5
1F1
330
68
100
AcDbEntity
  8
1
  6
DOT_CENTER
 62
     2
100
AcDbLine
 10
184.0
 20
23.50000000000001
 30
0.0
 11
197.0
 21
23.50000000000001
 31
0.0
  0
LINE
  5
1F2
330
68
100
AcDbEntity
  8
1
  6
DOT_CENTER
 62
     2
100
AcDbLine
 10
187.0
 20
26.50000000000001
 30
0.0
 11
187.0
 21
20.50000000000001
 31
0.0
  0
LINE
  5
1F3
330
68
100
AcDbEntity
  8
1
  6
Continuous
 62
     2
100
AcDbLine
 10
81.0
 20
27.00000000000001
 30
0.0
 11
81.0
 21
10.0
 31
0.0
  0
CIRCLE
  5
1F4
330
68
100
AcDbEntity
  8
1
  6
Continuous
 62
     7
100
AcDbCircle
 10
103.5
 20
12.5
 30
0.0
 40
0.2999999999999972
  0
CIRCLE
  5
1F5
330
68
100
AcDbEntity
  8
1
  6
Continuous
 62
     7
100
AcDbCircle
 10
109.5
 20
12.5
 30
0.0
 40
0.2999999999999972
  0
CIRCLE
  5
1F6
330
68
100
AcDbEntity
  8
1
  6
Continuous
 62
     7
100
AcDbCircle
 10
120.5
 20
12.5
 30
0.0
 40
0.2999999999999972
  0
CIRCLE
  5
1F7
330
68
100
AcDbEntity
  8
1
  6
Continuous
 62
     7
100
AcDbCircle
 10
126.5
 20
12.5
 30
0.0
 40
0.2999999999999972
  0
CIRCLE
  5
1F8
330
68
100
AcDbEntity
  8
1
  6
Continuous
 62
     7
100
AcDbCircle
 10
137.5
 20
12.5
 30
0.0
 40
0.3000000000000114
  0
CIRCLE
  5
1F9
330
68
100
AcDbEntity
  8
1
  6
Continuous
 62
     7
100
AcDbCircle
 10
143.5
 20
12.5
 30
0.0
 40
0.3000000000000114
  0
CIRCLE
  5
1FA
330
68
100
AcDbEntity
  8
1
  6
Continuous
 62
     7
100
AcDbCircle
 10
160.5
 20
12.5
 30
0.0
 40
0.3000000000000114
  0
CIRCLE
  5
1FB
330
68
100
AcDbEntity
  8
1
  6
Continuous
 62
     7
100
AcDbCircle
 10
154.5
 20
12.5
 30
0.0
 40
0.3000000000000114
  0
CIRCLE
  5
1FC
330
68
100
AcDbEntity
  8
1
  6
Continuous
 62
     7
100
AcDbCircle
 10
187.0
 20
23.50000000000001
 30
0.0
 40
1.200000000000102
  0
CIRCLE
  5
1FD
330
68
100
AcDbEntity
  8
1
  6
Continuous
 62
     7
100
AcDbCircle
 10
187.0
 20
23.50000000000001
 30
0.0
 40
2.0
  0
CIRCLE
  5
1FE
330
68
100
AcDbEntity
  8
1
  6
DOT_CENTER
 62
     7
100
AcDbCircle
 10
89.5
 20
16.0
 30
0.0
 40
0.1000000000000227
  0
CIRCLE
  5
1FF
330
68
100
AcDbEntity
  8
1
  6
DOT_CENTER
 62
     7
100
AcDbCircle
 10
89.5
 20
18.0
 30
0.0
 40
0.1000000000000227
  0
MTEXT
  5
201
330
68
100
AcDbEntity
  8
1
 62
     7
100
AcDbMText
 10
188.5
 20
15.0
 30
0.0
 40
3.0
 41
0.0
 71
     5
 72
     1
  1
三栄水栓製作所
  7
CONVERTER_11
 73
     1
 44
1.0
  0
MTEXT
  5
202
330
68
100
AcDbEntity
  8
1
 62
     7
100
AcDbMText
 10
171.5
 20
15.0
 30
0.0
 40
2.5
 41
0.0
 71
     5
 72
     1
  1
株式会社
  7
CONVERTER_11
 73
     1
 44
1.0
  0
MTEXT
  5
203
330
68
100
AcDbEntity
  8
1
 62
     2
100
AcDbMText
 10
32.5
 20
282.0000000000003
 30
0.0
 40
5.0
 41
0.0
 71
     5
 72
     1
  1
図番
  7
CONVERTER_11
 73
     1
 44
0.45454545454545
  0
MTEXT
  5
204
330
68
100
AcDbEntity
  8
1
 62
     2
100
AcDbMText
 10
29.0
 20
34.00000000000001
 30
0.0
 40
3.5
 41
0.0
 71
     5
 72
     1
  1
備考
  7
CONVERTER_11
 73
     1
 44
0.45454545454545
  0
MTEXT
  5
205
330
68
100
AcDbEntity
  8
1
 62
     2
100
AcDbMText
 10
29.0
 20
22.75
 30
0.0
 40
3.5
 41
0.0
 71
     5
 72
     1
  1
品名
  7
CONVERTER_11
 73
     1
 44
0.72727272727273
  0
MTEXT
  5
206
330
68
100
AcDbEntity
  8
1
 62
     2
100
AcDbMText
 10
29.0
 20
14.25
 30
0.0
 40
3.5
 41
0.0
 71
     5
 72
     1
  1
品番
  7
CONVERTER_11
 73
     1
 44
0.72727272727273
  0
MTEXT
  5
207
330
68
100
AcDbEntity
  8
1
 62
     2
100
AcDbMText
 10
101.5
 20
25.00000000000001
 30
0.0
 40
3.0
 41
0.0
 71
     5
 72
     1
  1
承認
  7
CONVERTER_11
 73
     1
 44
0.59090909090909
  0
MTEXT
  5
208
330
68
100
AcDbEntity
  8
1
 62
     2
100
AcDbMText
 10
175.0
 20
23.50000000000001
 30
0.0
 40
3.5
 41
0.0
 71
     5
 72
     1
  1
第三角法
  7
CONVERTER_11
 73
     1
 44
0.54545454545455
  0
MTEXT
  5
209
330
68
100
AcDbEntity
  8
1
 62
     2
100
AcDbMText
 10
118.5
 20
25.00000000000001
 30
0.0
 40
3.0
 41
0.0
 71
     5
 72
     1
  1
検図
  7
CONVERTER_11
 73
     1
 44
0.59090909090909
  0
MTEXT
  5
20A
330
68
100
AcDbEntity
  8
1
 62
     2
100
AcDbMText
 10
152.5
 20
25.00000000000001
 30
0.0
 40
3.0
 41
0.0
 71
     5
 72
     1
  1
設計
  7
CONVERTER_11
 73
     1
 44
0.59090909090909
  0
MTEXT
  5
20B
330
68
100
AcDbEntity
  8
1
 62
     2
100
AcDbMText
 10
135.5
 20
25.00000000000001
 30
0.0
 40
3.0
 41
0.0
 71
     5
 72
     1
  1
製図
  7
CONVERTER_11
 73
     1
 44
0.59090909090909
  0
MTEXT
  5
20C
330
68
100
AcDbEntity
  8
1
 62
     2
100
AcDbMText
 10
89.5
 20
24.00000000000001
 30
0.0
 40
3.5
 41
0.0
 71
     5
 72
     1
  1
尺度
  7
CONVERTER_11
 73
     1
 44
0.54545454545455
  0
MTEXT
  5
20D
330
68
100
AcDbEntity
  8
1
 62
   250
100
AcDbMText
 10
25.0
 20
5.0
 30
0.0
 40
3.5
 41
0.0
 71
     4
 72
     1
  1
備考欄の文字列 原点位置=4
  7
CONVERTER_11
 73
     1
 44
0.54545454545455
  0
ENDBLK
  5
6A
330
68
100
AcDbEntity
  8
0
100
AcDbBlockEnd
  0
BLOCK
  5
22C
330
225
100
AcDbEntity
  8
0
100
AcDbBlockBegin
  2
*D11
 70
     1
 10
0.0
 20
0.0
 30
0.0
  3
*D11
  1

  0
LINE
  5
226
330
225
100
AcDbEntity
  8
0
  6
Continuous
 62
     2
100
AcDbLine
 10
113.1146331018701
 20
179.8142307952433
 30
0.0
 11
170.1109533036299
 21
179.8142307952433
 31
0.0
  0
LINE
  5
227
330
225
100
AcDbEntity
  8
0
  6
Continuous
 62
     2
100
AcDbLine
 10
170.1109533036299
 20
227.8142307952435
 30
0.0
 11
170.1109533036299
 21
177.3142307952433
 31
0.0
  0
LINE
  5
228
330
225
100
AcDbEntity
  8
0
  6
Continuous
 62
     2
100
AcDbLine
 10
113.1146331018701
 20
201.8142307952435
 30
0.0
 11
113.1146331018701
 21
177.3142307952433
 31
0.0
  0
SOLID
  5
229
330
225
100
AcDbEntity
  8
0
 62
     2
100
AcDbTrace
 10
121.8646331018701
 20
180.966190149133
 30
0.0
 11
121.8646331018701
 21
178.6622714413536
 31
0.0
 12
113.1146331018701
 22
179.8142307952433
 32
0.0
 13
113.1146331018701
 23
179.8142307952433
 33
0.0
  0
SOLID
  5
22A
330
225
100
AcDbEntity
  8
0
 62
     2
100
AcDbTrace
 10
161.3609533036299
 20
178.6622714413536
 30
0.0
 11
161.3609533036299
 21
180.966190149133
 31
0.0
 12
170.1109533036299
 22
179.8142307952433
 32
0.0
 13
170.1109533036299
 23
179.8142307952433
 33
0.0
  0
MTEXT
  5
22B
330
225
100
AcDbEntity
  8
0
 62
     7
100
AcDbMText
 10
117.98779320275
 20
182.3142307952433
 30
0.0
 40
8.75
 41
0.0
 71
     7
 72
     1
  1
57リフト5
  7
CONVERTER_11
 11
0.9999999999970619
 21
2.424068405545306E-6
 31
0.0
 73
     1
 44
0.45454545454545
  0
ENDBLK
  5
22D
330
225
100
AcDbEntity
  8
0
100
AcDbBlockEnd
  0
BLOCK
  5
237
330
230
100
AcDbEntity
  8
0
100
AcDbBlockBegin
  2
*D12
 70
     1
 10
0.0
 20
0.0
 30
0.0
  3
*D12
  1

  0
LINE
  5
231
330
230
100
AcDbEntity
  8
0
  6
Continuous
 62
     2
100
AcDbLine
 10
202.6049551811786
 20
227.8142307952431
 30
0.0
 11
202.6049551811786
 21
295.3142307952437
 31
0.0
  0
LINE
  5
232
330
230
100
AcDbEntity
  8
0
  6
Continuous
 62
     2
100
AcDbLine
 10
263.2549551811786
 20
295.3142307952437
 30
0.0
 11
200.1049551811786
 21
295.3142307952437
 31
0.0
  0
LINE
  5
233
330
230
100
AcDbEntity
  8
0
  6
Continuous
 62
     2
100
AcDbLine
 10
379.3144836829437
 20
227.8142307952431
 30
0.0
 11
200.1049551811786
 21
227.8142307952431
 31
0.0
  0
SOLID
  5
234
330
230
100
AcDbEntity
  8
0
 62
     2
100
AcDbTrace
 10
201.4529958272889
 20
236.5642307952431
 30
0.0
 11
203.7569145350683
 21
236.5642307952431
 31
0.0
 12
202.6049551811786
 22
227.8142307952431
 32
0.0
 13
202.6049551811786
 23
227.8142307952431
 33
0.0
  0
SOLID
  5
235
330
230
100
AcDbEntity
  8
0
 62
     2
100
AcDbTrace
 10
203.7569145350683
 20
286.5642307952437
 30
0.0
 11
201.4529958272889
 21
286.5642307952437
 31
0.0
 12
202.6049551811786
 22
295.3142307952437
 32
0.0
 13
202.6049551811786
 23
295.3142307952437
 33
0.0
  0
MTEXT
  5
236
330
230
100
AcDbEntity
  8
0
 62
     7
100
AcDbMText
 10
200.1049551811786
 20
255.0017307952435
 30
0.0
 40
8.75
 41
0.0
 71
     7
 72
     1
  1
68
  7
CONVERTER_12
 11
0.0
 21
1.0
 31
0.0
 73
     1
 44
0.60024009603842
  0
ENDBLK
  5
238
330
230
100
AcDbEntity
  8
0
100
AcDbBlockEnd
  0
BLOCK
  5
242
330
23B
100
AcDbEntity
  8
0
100
AcDbBlockBegin
  2
*D13
 70
     1
 10
0.0
 20
0.0
 30
0.0
  3
*D13
  1

  0
LINE
  5
23C
330
23B
100
AcDbEntity
  8
0
  6
Continuous
 62
     2
100
AcDbLine
 10
269.9049551811786
 20
227.8142307952431
 30
0.0
 11
269.9049551811786
 21
262.3142307952436
 31
0.0
  0
LINE
  5
23D
330
23B
100
AcDbEntity
  8
0
  6
Continuous
 62
     2
100
AcDbLine
 10
243.6413621871647
 20
262.3142307952436
 30
0.0
 11
272.4049551811786
 21
262.3142307952436
 31
0.0
  0
LINE
  5
23E
330
23B
100
AcDbEntity
  8
0
  6
Continuous
 62
     2
100
AcDbLine
 10
379.3144836829437
 20
227.8142307952431
 30
0.0
 11
267.4049551811786
 21
227.8142307952431
 31
0.0
  0
SOLID
  5
23F
330
23B
100
AcDbEntity
  8
0
 62
     2
100
AcDbTrace
 10
268.7529958272889
 20
236.5642307952431
 30
0.0
 11
271.0569145350683
 21
236.5642307952431
 31
0.0
 12
269.9049551811786
 22
227.8142307952431
 32
0.0
 13
269.9049551811786
 23
227.8142307952431
 33
0.0
  0
SOLID
  5
240
330
23B
100
AcDbEntity
  8
0
 62
     2
100
AcDbTrace
 10
271.0569145350683
 20
253.5642307952436
 30
0.0
 11
268.7529958272889
 21
253.5642307952436
 31
0.0
 12
269.9049551811786
 22
262.3142307952436
 32
0.0
 13
269.9049551811786
 23
262.3142307952436
 33
0.0
  0
MTEXT
  5
241
330
23B
100
AcDbEntity
  8
0
 62
     7
100
AcDbMText
 10
267.4049551811786
 20
238.1267307952434
 30
0.0
 40
8.75
 41
0.0
 71
     7
 72
     1
  1
35
  7
CONVERTER_12
 11
0.0
 21
1.0
 31
0.0
 73
     1
 44
0.60024009603842
  0
ENDBLK
  5
243
330
23B
100
AcDbEntity
  8
0
100
AcDbBlockEnd
  0
BLOCK
  5
24D
330
246
100
AcDbEntity
  8
0
100
AcDbBlockBegin
  2
*D14
 70
     1
 10
0.0
 20
0.0
 30
0.0
  3
*D14
  1

  0
LINE
  5
247
330
246
100
AcDbEntity
  8
1
  6
Continuous
 62
     2
100
AcDbLine
 10
406.2549551811786
 20
179.8142307952438
 30
0.0
 11
451.2549551811786
 21
179.8142307952438
 31
0.0
  0
LINE
  5
248
330
246
100
AcDbEntity
  8
1
  6
Continuous
 62
     2
100
AcDbLine
 10
406.2549551811786
 20
210.8142307952437
 30
0.0
 11
406.2549551811786
 21
177.3142307952438
 31
0.0
  0
LINE
  5
249
330
246
100
AcDbEntity
  8
1
  6
Continuous
 62
     2
100
AcDbLine
 10
451.2549551811786
 20
204.8142307952437
 30
0.0
 11
451.2549551811786
 21
177.3142307952438
 31
0.0
  0
SOLID
  5
24A
330
246
100
AcDbEntity
  8
1
 62
     2
100
AcDbTrace
 10
415.0049551811786
 20
180.9661901491335
 30
0.0
 11
415.0049551811786
 21
178.6622714413541
 31
0.0
 12
406.2549551811786
 22
179.8142307952438
 32
0.0
 13
406.2549551811786
 23
179.8142307952438
 33
0.0
  0
SOLID
  5
24B
330
246
100
AcDbEntity
  8
1
 62
     2
100
AcDbTrace
 10
442.5049551811786
 20
178.6622714413541
 30
0.0
 11
442.5049551811786
 21
180.9661901491335
 31
0.0
 12
451.2549551811786
 22
179.8142307952438
 32
0.0
 13
451.2549551811786
 23
179.8142307952438
 33
0.0
  0
MTEXT
  5
24C
330
246
100
AcDbEntity
  8
1
 62
     7
100
AcDbMText
 10
422.1924551811787
 20
182.3142307952438
 30
0.0
 40
8.75
 41
0.0
 71
     7
 72
     1
  1
45
  7
CONVERTER_12
 11
0.9999999999970619
 21
2.424068405545306E-6
 31
0.0
 73
     1
 44
0.60024009603842
  0
ENDBLK
  5
24E
330
246
100
AcDbEntity
  8
0
100
AcDbBlockEnd
  0
BLOCK
  5
258
330
251
100
AcDbEntity
  8
0
100
AcDbBlockBegin
  2
*D15
 70
     1
 10
0.0
 20
0.0
 30
0.0
  3
*D15
  1

  0
LINE
  5
252
330
251
100
AcDbEntity
  8
1
  6
Continuous
 62
     2
100
AcDbLine
 10
236.2549551811786
 20
179.8142307952438
 30
0.0
 11
406.2549551811786
 21
179.8142307952438
 31
0.0
  0
LINE
  5
253
330
251
100
AcDbEntity
  8
1
  6
Continuous
 62
     2
100
AcDbLine
 10
236.2549551811786
 20
259.3142307952436
 30
0.0
 11
236.2549551811786
 21
177.3142307952438
 31
0.0
  0
LINE
  5
254
330
251
100
AcDbEntity
  8
1
  6
Continuous
 62
     2
100
AcDbLine
 10
406.2549551811786
 20
210.8142307952437
 30
0.0
 11
406.2549551811786
 21
177.3142307952438
 31
0.0
  0
SOLID
  5
255
330
251
100
AcDbEntity
  8
1
 62
     2
100
AcDbTrace
 10
245.0049551811786
 20
180.9661901491335
 30
0.0
 11
245.0049551811786
 21
178.6622714413541
 31
0.0
 12
236.2549551811786
 22
179.8142307952438
 32
0.0
 13
236.2549551811786
 23
179.8142307952438
 33
0.0
  0
SOLID
  5
256
330
251
100
AcDbEntity
  8
1
 62
     2
100
AcDbTrace
 10
397.5049551811786
 20
178.6622714413541
 30
0.0
 11
397.5049551811786
 21
180.9661901491335
 31
0.0
 12
406.2549551811786
 22
179.8142307952438
 32
0.0
 13
406.2549551811786
 23
179.8142307952438
 33
0.0
  0
MTEXT
  5
257
330
251
100
AcDbEntity
  8
1
 62
     7
100
AcDbMText
 10
312.0674551811787
 20
182.3142307952438
 30
0.0
 40
8.75
 41
0.0
 71
     7
 72
     1
  1
170
  7
CONVERTER_12
 11
0.9999999999970619
 21
2.424068405545306E-6
 31
0.0
 73
     1
 44
0.60024009603842
  0
ENDBLK
  5
259
330
251
100
AcDbEntity
  8
0
100
AcDbBlockEnd
  0
BLOCK
  5
263
330
25C
100
AcDbEntity
  8
0
100
AcDbBlockBegin
  2
*D16
 70
     1
 10
0.0
 20
0.0
 30
0.0
  3
*D16
  1

  0
LINE
  5
25D
330
25C
100
AcDbEntity
  8
1
  6
Continuous
 62
     2
100
AcDbLine
 10
490.2549551811786
 20
250.8142307952436
 30
0.0
 11
490.2549551811786
 21
204.8142307952437
 31
0.0
  0
LINE
  5
25E
330
25C
100
AcDbEntity
  8
1
  6
Continuous
 62
     2
100
AcDbLine
 10
451.2549551811786
 20
204.8142307952437
 30
0.0
 11
492.7549551811786
 21
204.8142307952437
 31
0.0
  0
LINE
  5
25F
330
25C
100
AcDbEntity
  8
1
  6
Continuous
 62
     2
100
AcDbLine
 10
451.2549551811786
 20
250.8142307952436
 30
0.0
 11
492.7549551811786
 21
250.8142307952436
 31
0.0
  0
SOLID
  5
260
330
25C
100
AcDbEntity
  8
1
 62
     2
100
AcDbTrace
 10
491.4069145350683
 20
242.0642307952436
 30
0.0
 11
489.1029958272889
 21
242.0642307952436
 31
0.0
 12
490.2549551811786
 22
250.8142307952436
 32
0.0
 13
490.2549551811786
 23
250.8142307952436
 33
0.0
  0
SOLID
  5
261
330
25C
100
AcDbEntity
  8
1
 62
     2
100
AcDbTrace
 10
489.1029958272889
 20
213.5642307952437
 30
0.0
 11
491.4069145350683
 21
213.5642307952437
 31
0.0
 12
490.2549551811786
 22
204.8142307952437
 32
0.0
 13
490.2549551811786
 23
204.8142307952437
 33
0.0
  0
MTEXT
  5
262
330
25C
100
AcDbEntity
  8
1
 62
     7
100
AcDbMText
 10
487.7549551811786
 20
219.3267307952437
 30
0.0
 40
8.75
 41
0.0
 71
     7
 72
     1
  1
\C7;{\Fgdt;n}\C7;46
  7
CONVERTER_12
 11
0.0
 21
1.0
 31
0.0
 73
     1
 44
0.60024009603842
  0
ENDBLK
  5
264
330
25C
100
AcDbEntity
  8
0
100
AcDbBlockEnd
  0
BLOCK
  5
26E
330
267
100
AcDbEntity
  8
0
100
AcDbBlockBegin
  2
*D17
 70
     1
 10
0.0
 20
0.0
 30
0.0
  3
*D17
  1

  0
LINE
  5
268
330
267
100
AcDbEntity
  8
1
  6
Continuous
 62
     2
100
AcDbLine
 10
465.2549551811786
 20
179.8142307952438
 30
0.0
 11
451.2549551811786
 21
179.8142307952438
 31
0.0
  0
LINE
  5
269
330
267
100
AcDbEntity
  8
1
  6
Continuous
 62
     2
100
AcDbLine
 10
485.7051509000461
 20
179.8142307952438
 30
0.0
 11
465.2549551811786
 21
179.8142307952438
 31
0.0
  0
LINE
  5
26A
330
267
100
AcDbEntity
  8
1
  6
Continuous
 62
     2
100
AcDbLine
 10
465.2549551811786
 20
218.3142307952437
 30
0.0
 11
465.2549551811786
 21
177.3142307952438
 31
0.0
  0
LINE
  5
26B
330
267
100
AcDbEntity
  8
1
  6
Continuous
 62
     2
100
AcDbLine
 10
451.2549551811786
 20
204.8142307952437
 30
0.0
 11
451.2549551811786
 21
177.3142307952438
 31
0.0
  0
SOLID
  5
26C
330
267
100
AcDbEntity
  8
1
 62
     2
100
AcDbTrace
 10
472.7549551811786
 20
180.8016245271492
 30
0.0
 11
472.7549551811786
 21
178.8268370633383
 31
0.0
 12
465.2549551811786
 22
179.8142307952438
 32
0.0
 13
465.2549551811786
 23
179.8142307952438
 33
0.0
  0
MTEXT
  5
26D
330
267
100
AcDbEntity
  8
1
 62
     7
100
AcDbMText
 10
475.2051509000461
 20
182.3142307952438
 30
0.0
 40
8.75
 41
0.0
 71
     7
 72
     1
  1
14
  7
CONVERTER_12
 11
0.9999999999970619
 21
2.424068405545306E-6
 31
0.0
 73
     1
 44
0.60024009603842
  0
ENDBLK
  5
26F
330
267
100
AcDbEntity
  8
0
100
AcDbBlockEnd
  0
BLOCK
  5
271
330
270
100
AcDbEntity
  8
0
100
AcDbBlockBegin
  2
_NONE
 70
     0
 10
0.0
 20
0.0
 30
0.0
  3
_NONE
  1

  0
ENDBLK
  5
272
330
270
100
AcDbEntity
  8
0
100
AcDbBlockEnd
  0
ENDSEC
  0
SECTION
  2
ENTITIES
  0
INSERT
  5
6B
330
1F
100
AcDbEntity
  8
1
100
AcDbBlockReference
  2
61-1X-16-170
 10
70.22315577676791
 20
245.3142307952434
 30
0.0
 41
1.0
 42
1.0
 43
1.0
  0
INSERT
  5
6C
330
1F
100
AcDbEntity
  8
1
100
AcDbBlockReference
  2
A20-0-13
 10
146.1146331018701
 20
204.8142307952434
 30
0.0
 41
1.0
 42
1.0
 43
1.0
  0
INSERT
  5
6D
330
1F
100
AcDbEntity
  8
0
100
AcDbBlockReference
  2
R10A-13
 10
169.1146331018701
 20
182.8142307952435
 30
0.0
 41
1.0
 42
1.0
 43
1.0
  0
INSERT
  5
6E
330
1F
100
AcDbEntity
  8
1
100
AcDbBlockReference
  2
開示A4
 10
0.0
 20
0.0
 30
0.0
 41
2.5
 42
2.5
 43
2.5
  0
LINE
  5
20E
330
1F
100
AcDbEntity
  8
1
  6
DASH_CENTER
 62
     2
100
AcDbLine
 10
236.2549551811786
 20
268.3142307952436
 30
0.0
 11
236.2549551811786
 21
259.3142307952436
 31
0.0
  0
LINE
  5
20F
330
1F
100
AcDbEntity
  8
1
  6
DASH_CENTER
 62
     2
100
AcDbLine
 10
263.2549551811786
 20
295.3142307952437
 30
0.0
 11
379.2549551811786
 21
295.3142307952437
 31
0.0
  0
LINE
  5
210
330
1F
100
AcDbEntity
  8
1
  6
DASH_CENTER
 62
     2
100
AcDbLine
 10
93.45514585188391
 20
563.1559361776151
 30
0.0
 11
175.4837686423718
 21
563.1559361776151
 31
0.0
  0
LINE
  5
211
330
1F
100
AcDbEntity
  8
1
  6
DASH_CENTER
 62
     2
100
AcDbLine
 10
113.1146331018701
 20
627.8795537761695
 30
0.0
 11
113.1146331018701
 21
381.1797389120604
 31
0.0
  0
LINE
  5
212
330
1F
100
AcDbEntity
  8
1
  6
DASH_CENTER
 62
     2
100
AcDbLine
 10
406.2549551811786
 20
210.8142307952437
 30
0.0
 11
406.2549551811786
 21
268.3142307952436
 31
0.0
  0
LINE
  5
213
330
1F
100
AcDbEntity
  8
1
  6
DASH_CENTER
 62
     2
100
AcDbLine
 10
468.2549551811786
 20
227.8142307952437
 30
0.0
 11
379.3144836829437
 21
227.8142307952431
 31
0.0
  0
LINE
  5
214
330
1F
100
AcDbEntity
  8
1
  6
DASH_CENTER
 62
     2
100
AcDbLine
 10
113.1146331018701
 20
246.3142307952434
 30
0.0
 11
113.1146331018701
 21
201.8142307952435
 31
0.0
  0
LINE
  5
215
330
1F
100
AcDbEntity
  8
0
  6
DASH_CENTER
 62
     2
100
AcDbLine
 10
173.1109533036299
 20
227.8142307952436
 30
0.0
 11
87.11463310187011
 21
227.8142307952434
 31
0.0
  0
LINE
  5
216
330
1F
100
AcDbEntity
  8
1
  6
DASH_CENTER
 62
     2
100
AcDbLine
 10
113.1146331018701
 20
307.4657117879639
 30
0.0
 11
113.1146331018701
 21
246.3142307952434
 31
0.0
  0
LINE
  5
217
330
1F
100
AcDbEntity
  8
1
  6
DASH_CENTER
 62
     2
100
AcDbLine
 10
102.6014126925111
 20
295.3142307952437
 30
0.0
 11
124.0073491102977
 21
295.3142307952437
 31
0.0
  0
LINE
  5
218
330
1F
100
AcDbEntity
  8
1
  6
DASH_CENTER
 62
     2
100
AcDbLine
 10
374.2131728880877
 20
209.3148991630122
 30
0.0
 11
424.7663117930983
 21
238.5017675182007
 31
0.0
  0
LINE
  5
219
330
1F
100
AcDbEntity
  8
1
  6
DASH_CENTER
 62
     2
100
AcDbLine
 10
438.2967374742696
 20
209.3148991630122
 30
0.0
 11
387.1089240517728
 21
238.8681970217192
 31
0.0
  0
ARC
  5
21A
330
1F
100
AcDbEntity
  8
1
  6
DASH_CENTER
 62
     2
100
AcDbCircle
 10
263.2549551811786
 20
268.3142307952436
 30
0.0
 40
27.00000000000011
100
AcDbArc
 50
90.0
 51
180.0
  0
ARC
  5
21B
330
1F
100
AcDbEntity
  8
1
  6
DASH_CENTER
 62
     2
100
AcDbCircle
 10
379.2549551811786
 20
268.3142307952437
 30
0.0
 40
27.0
100
AcDbArc
 50
359.9999999999998
 51
90.0
  0
SOLID
  5
21C
330
1F
100
AcDbEntity
  8
1
 62
     2
100
AcDbTrace
 10
126.9920070372751
 20
622.8096381376732
 30
0.0
 11
128.9872591664663
 21
621.6576787837835
 31
0.0
 12
123.6146331018706
 22
614.6559361776145
 32
0.0
 13
123.6146331018706
 23
614.6559361776145
 33
0.0
  0
LEADER
  5
21D
330
1F
100
AcDbEntity
  8
1
  6
Continuous
 62
     2
100
AcDbLeader
  3
Standard
 71
     0
 76
     3
 10
123.6146331018706
 20
614.6559361776145
 30
0.0
 10
136.149223423784
 20
636.3664834672296
 30
0.0
 10
169.71981805575
 20
636.3664834672296
 30
0.0
  0
MTEXT
  5
21F
330
1F
100
AcDbEntity
  8
0
 62
     7
100
AcDbMText
 10
85.0
 20
85.00000000000001
 30
0.0
 40
8.75
 41
0.0
 71
     4
 72
     1
  1
JIS
  7
CONVERTER_12
 73
     1
 44
1.32052821128451
  0
MTEXT
  5
220
330
1F
100
AcDbEntity
  8
1
 62
     7
100
AcDbMText
 10
152.934520739767
 20
643.8664834672296
 30
0.0
 40
8.75
 41
0.0
 71
     5
 72
     1
  1
PJ1/2
  7
CONVERTER_12
 73
     1
 44
1.32052821128451
  0
MTEXT
  5
221
330
1F
100
AcDbEntity
  8
0
 62
     7
100
AcDbMText
 10
213.125
 20
42.5
 30
0.0
 40
8.75
 41
0.0
 71
     5
 72
     1
  1
1
  7
CONVERTER_12
 73
     1
 44
1.32052821128451
  0
MTEXT
  5
222
330
1F
100
AcDbEntity
  8
0
 62
     7
100
AcDbMText
 10
234.375
 20
42.5
 30
0.0
 40
8.75
 41
0.0
 71
     5
 72
     1
  1
2,5
  7
CONVERTER_12
 73
     1
 44
1.32052821128451
  0
MTEXT
  5
223
330
1F
100
AcDbEntity
  8
0
 62
     7
100
AcDbMText
 10
142.5
 20
35.625
 30
0.0
 40
8.75
 41
0.0
 71
     5
 72
     1
  1
A20E-13
  7
CONVERTER_12
 73
     1
 44
1.32052821128451
  0
MTEXT
  5
224
330
1F
100
AcDbEntity
  8
0
 62
     7
100
AcDbMText
 10
142.5
 20
56.87500000000004
 30
0.0
 40
8.75
 41
0.0
 71
     5
 72
     1
  1
横形自在水栓
  7
CONVERTER_11
 73
     1
 44
1.0
  0
DIMENSION
  5
22F
330
1F
100
AcDbEntity
  8
0
100
AcDbDimension
  2
*D11
 10
113.1146331018701
 20
179.8142307952433
 30
0.0
 11
141.61279320275
 21
186.6892307952433
 31
0.0
 70
    32
  1
57リフト5
 71
     5
 42
-1.0
 53
0.00013888888889
  3
ME10_DIM_10
100
AcDbAlignedDimension
 13
170.1109533036299
 23
227.8142307952434
 33
0.0
 14
113.1146331018701
 24
201.8142307952435
 34
0.0
100
AcDbRotatedDimension
  0
DIMENSION
  5
23A
330
1F
100
AcDbEntity
  8
0
100
AcDbDimension
  2
*D12
 10
202.6049551811786
 20
227.8142307952431
 30
0.0
 11
195.7299551811786
 21
261.5642307952435
 31
0.0
 70
    32
  1
68
 71
     5
 42
-1.0
 53
90.0
  3
ME10_DIM_11
100
AcDbAlignedDimension
 13
263.2549551811786
 23
295.3142307952436
 33
0.0
 14
379.3144836829437
 24
227.8142307952431
 34
0.0
 50
90.0
100
AcDbRotatedDimension
  0
DIMENSION
  5
245
330
1F
100
AcDbEntity
  8
0
100
AcDbDimension
  2
*D13
 10
269.9049551811786
 20
227.8142307952431
 30
0.0
 11
263.0299551811786
 21
244.6892307952434
 31
0.0
 70
    32
  1
35
 71
     5
 42
-1.0
 53
90.0
  3
ME10_DIM_12
100
AcDbAlignedDimension
 13
243.6413621871646
 23
262.3142307952435
 33
0.0
 14
379.3144836829437
 24
227.8142307952431
 34
0.0
 50
90.0
100
AcDbRotatedDimension
  0
DIMENSION
  5
250
330
1F
100
AcDbEntity
  8
1
100
AcDbDimension
  2
*D14
 10
406.2549551811786
 20
179.8142307952438
 30
0.0
 11
428.7549551811787
 21
186.6892307952438
 31
0.0
 70
    32
  1
<>
 71
     5
 42
-1.0
 53
0.00013888888889
  3
ME10_DIM_13
100
AcDbAlignedDimension
 13
451.2549551811785
 23
204.8142307952436
 33
0.0
 14
406.2549551811786
 24
210.8142307952437
 34
0.0
100
AcDbRotatedDimension
  0
DIMENSION
  5
25B
330
1F
100
AcDbEntity
  8
1
100
AcDbDimension
  2
*D15
 10
236.2549551811786
 20
179.8142307952438
 30
0.0
 11
321.2549551811787
 21
186.6892307952438
 31
0.0
 70
    32
  1
<>
 71
     5
 42
-1.0
 53
0.00013888888889
  3
ME10_DIM_14
100
AcDbAlignedDimension
 13
406.2549551811786
 23
210.8142307952437
 33
0.0
 14
236.2549551811785
 24
259.3142307952435
 34
0.0
100
AcDbRotatedDimension
  0
DIMENSION
  5
266
330
1F
100
AcDbEntity
  8
1
100
AcDbDimension
  2
*D16
 10
490.2549551811786
 20
250.8142307952436
 30
0.0
 11
483.3799551811786
 21
227.8142307952437
 31
0.0
 70
    32
  1
<>
 71
     5
 42
-1.0
 53
90.0
  3
ME10_DIM_15
100
AcDbAlignedDimension
 13
451.2549551811785
 23
204.8142307952436
 33
0.0
 14
451.2549551811785
 24
250.8142307952435
 34
0.0
 50
90.0
100
AcDbRotatedDimension
  0
DIMENSION
  5
274
330
1F
100
AcDbEntity
  8
1
100
AcDbDimension
  2
*D17
 10
465.2549551811786
 20
179.8142307952438
 30
0.0
 11
480.4551509000461
 21
186.6892307952438
 31
0.0
 70
    32
  1
<>
 71
     5
 42
-1.0
 53
0.00013888888889
  3
ME10_DIM_16
100
AcDbAlignedDimension
 13
451.2549551811785
 23
204.8142307952436
 33
0.0
 14
465.2549551811785
 24
218.3142307952436
 34
0.0
100
AcDbRotatedDimension
  0
ENDSEC
  0
SECTION
  2
OBJECTS
  0
DICTIONARY
  5
C
330
0
100
AcDbDictionary
281
     1
  3
ACAD_GROUP
350
D
  3
ACAD_LAYOUT
350
1A
  3
ACAD_MATERIAL
350
3B
  3
ACAD_MLEADERSTYLE
350
277
  3
ACAD_MLINESTYLE
350
17
  3
ACAD_PLOTSETTINGS
350
19
  3
ACAD_PLOTSTYLENAME
350
E
  3
ACAD_VISUALSTYLE
350
2A
  3
AcDbVariableDictionary
350
275
  0
DICTIONARY
  5
D
102
{ACAD_REACTORS
330
C
102
}
330
C
100
AcDbDictionary
281
     1
  0
DICTIONARY
  5
1A
102
{ACAD_REACTORS
330
C
102
}
330
C
100
AcDbDictionary
281
     1
  3
Layout1
350
1E
  3
Layout2
350
26
  3
Model
350
22
  0
DICTIONARY
  5
3B
102
{ACAD_REACTORS
330
C
102
}
330
C
100
AcDbDictionary
281
     1
  3
ByBlock
350
3D
  3
ByLayer
350
3C
  3
Global
350
3E
  0
DICTIONARY
  5
277
102
{ACAD_REACTORS
330
C
102
}
330
C
100
AcDbDictionary
281
     1
  0
DICTIONARY
  5
17
102
{ACAD_REACTORS
330
C
102
}
330
C
100
AcDbDictionary
281
     1
  3
Standard
350
18
  0
DICTIONARY
  5
19
102
{ACAD_REACTORS
330
C
102
}
330
C
100
AcDbDictionary
281
     1
  0
ACDBDICTIONARYWDFLT
  5
E
102
{ACAD_REACTORS
330
C
102
}
330
C
100
AcDbDictionary
281
     1
  3
Normal
350
F
100
AcDbDictionaryWithDefault
340
F
  0
DICTIONARY
  5
2A
102
{ACAD_REACTORS
330
C
102
}
330
C
100
AcDbDictionary
281
     1
  3
2dWireframe
350
2F
  3
3D Hidden
350
31
  3
3dWireframe
350
30
  3
Basic
350
32
  3
Brighten
350
36
  3
ColorChange
350
3A
  3
Conceptual
350
34
  3
Dim
350
35
  3
Facepattern
350
39
  3
Flat
350
2B
  3
FlatWithEdges
350
2C
  3
Gouraud
350
2D
  3
GouraudWithEdges
350
2E
  3
Linepattern
350
38
  3
Realistic
350
33
  3
Thicken
350
37
  0
DICTIONARY
  5
275
102
{ACAD_REACTORS
330
C
102
}
330
C
100
AcDbDictionary
281
     1
  3
DIMASSOC
350
278
  3
HIDETEXT
350
279
  0
LAYOUT
  5
1E
102
{ACAD_REACTORS
330
1A
102
}
330
1A
100
AcDbPlotSettings
  1

  2
none_device
  4

  6

 40
0.0
 41
0.0
 42
0.0
 43
0.0
 44
0.0
 45
0.0
 46
0.0
 47
0.0
 48
0.0
 49
0.0
140
0.0
141
0.0
142
1.0
143
1.0
 70
   688
 72
     0
 73
     0
 74
     5
  7

 75
    16
147
1.0
148
0.0
149
0.0
100
AcDbLayout
  1
Layout1
 70
     1
 71
     1
 10
0.0
 20
0.0
 11
12.0
 21
9.0
 12
0.0
 22
0.0
 32
0.0
 14
1.00000000000000E+20
 24
1.00000000000000E+20
 34
1.00000000000000E+20
 15
-1.00000000000000E+20
 25
-1.00000000000000E+20
 35
-1.00000000000000E+20
146
0.0
 13
0.0
 23
0.0
 33
0.0
 16
1.0
 26
0.0
 36
0.0
 17
0.0
 27
1.0
 37
0.0
 76
     0
330
1B
  0
LAYOUT
  5
26
102
{ACAD_REACTORS
330
1A
102
}
330
1A
100
AcDbPlotSettings
  1

  2
none_device
  4

  6

 40
0.0
 41
0.0
 42
0.0
 43
0.0
 44
0.0
 45
0.0
 46
0.0
 47
0.0
 48
0.0
 49
0.0
140
0.0
141
0.0
142
1.0
143
1.0
 70
   688
 72
     0
 73
     0
 74
     5
  7

 75
    16
147
1.0
148
0.0
149
0.0
100
AcDbLayout
  1
Layout2
 70
     1
 71
     2
 10
0.0
 20
0.0
 11
0.0
 21
0.0
 12
0.0
 22
0.0
 32
0.0
 14
0.0
 24
0.0
 34
0.0
 15
0.0
 25
0.0
 35
0.0
146
0.0
 13
0.0
 23
0.0
 33
0.0
 16
1.0
 26
0.0
 36
0.0
 17
0.0
 27
1.0
 37
0.0
 76
     0
330
23
  0
LAYOUT
  5
22
102
{ACAD_REACTORS
330
1A
102
}
330
1A
100
AcDbPlotSettings
  1

  2
none_device
  4

  6

 40
0.0
 41
0.0
 42
0.0
 43
0.0
 44
0.0
 45
0.0
 46
0.0
 47
0.0
 48
0.0
 49
0.0
140
0.0
141
0.0
142
1.0
143
1.0
 70
  1712
 72
     0
 73
     0
 74
     0
  7

 75
     0
147
1.0
148
0.0
149
0.0
100
AcDbLayout
  1
Model
 70
     1
 71
     0
 10
0.0
 20
0.0
 11
12.0
 21
9.0
 12
0.0
 22
0.0
 32
0.0
 14
0.0
 24
0.0
 34
0.0
 15
525.0
 25
742.5
 35
0.0
146
0.0
 13
0.0
 23
0.0
 33
0.0
 16
1.0
 26
0.0
 36
0.0
 17
0.0
 27
1.0
 37
0.0
 76
     0
330
1F
331
29
  0
MATERIAL
  5
3D
102
{ACAD_REACTORS
330
3B
102
}
102
{ACAD_XDICTIONARY
360
29C
102
}
330
3B
100
AcDbMaterial
  1
ByBlock
  0
MATERIAL
  5
3C
102
{ACAD_REACTORS
330
3B
102
}
102
{ACAD_XDICTIONARY
360
29A
102
}
330
3B
100
AcDbMaterial
  1
ByLayer
  0
MATERIAL
  5
3E
102
{ACAD_REACTORS
330
3B
102
}
102
{ACAD_XDICTIONARY
360
29E
102
}
330
3B
100
AcDbMaterial
  1
Global
  0
MLINESTYLE
  5
18
102
{ACAD_REACTORS
330
17
102
}
330
17
100
AcDbMlineStyle
  2
Standard
 70
     0
  3

 62
   256
 51
90.0
 52
90.0
 71
     2
 49
0.5
 62
   256
  6
BYLAYER
 49
-0.5
 62
   256
  6
BYLAYER
  0
ACDBPLACEHOLDER
  5
F
102
{ACAD_REACTORS
330
E
102
}
330
E
  0
VISUALSTYLE
  5
2F
102
{ACAD_REACTORS
330
2A
102
}
102
{ACAD_XDICTIONARY
360
282
102
}
330
2A
100
AcDbVisualStyle
  2
2dWireframe
 70
     4
 71
     0
 72
     2
 73
     0
 90
        0
 40
-0.6
 41
-30.0
 62
     5
 63
     7
 74
     1
 91
        4
 64
     7
 65
   257
 75
     1
175
     1
 42
1.0
 92
        0
 66
   257
 43
1.0
 76
     1
 77
     6
 78
     2
 67
     7
 79
     5
170
     0
171
     0
290
     0
174
     0
 93
        1
 44
0.0
173
     0
291
     0
 45
0.0
1001
ACAD
1000
AcDbSavedByObjectVersion
1070
     0
  0
VISUALSTYLE
  5
31
102
{ACAD_REACTORS
330
2A
102
}
102
{ACAD_XDICTIONARY
360
286
102
}
330
2A
100
AcDbVisualStyle
  2
3D Hidden
 70
     6
 71
     1
 72
     2
 73
     2
 90
        0
 40
-0.6
 41
-30.0
 62
     5
 63
     7
 74
     2
 91
        2
 64
     7
 65
   257
 75
     2
175
     1
 42
40.0
 92
        0
 66
   257
 43
1.0
 76
     1
 77
     6
 78
     2
 67
     7
 79
     3
170
     0
171
     0
290
     0
174
     0
 93
        1
 44
0.0
173
     0
291
     0
 45
0.0
1001
ACAD
1000
AcDbSavedByObjectVersion
1070
     0
  0
VISUALSTYLE
  5
30
102
{ACAD_REACTORS
330
2A
102
}
102
{ACAD_XDICTIONARY
360
284
102
}
330
2A
100
AcDbVisualStyle
  2
3dWireframe
 70
     5
 71
     0
 72
     2
 73
     0
 90
        0
 40
-0.6
 41
-30.0
 62
     5
 63
     7
 74
     1
 91
        4
 64
     7
 65
   257
 75
     1
175
     1
 42
1.0
 92
        0
 66
   257
 43
1.0
 76
     1
 77
     6
 78
     2
 67
     7
 79
     5
170
     0
171
     0
290
     0
174
     0
 93
        1
 44
0.0
173
     0
291
     0
 45
0.0
1001
ACAD
1000
AcDbSavedByObjectVersion
1070
     0
  0
VISUALSTYLE
  5
32
102
{ACAD_REACTORS
330
2A
102
}
102
{ACAD_XDICTIONARY
360
288
102
}
330
2A
100
AcDbVisualStyle
  2
Basic
 70
     7
 71
     1
 72
     0
 73
     1
 90
        0
 40
-0.6
 41
-30.0
 62
     5
 63
     7
 74
     0
 91
        4
 64
     7
 65
   257
 75
     1
175
     1
 42
1.0
 92
        8
 66
     7
 43
1.0
 76
     1
 77
     6
 78
     2
 67
     7
 79
     5
170
     0
171
     0
290
     0
174
     0
 93
        1
 44
0.0
173
     0
291
     1
 45
0.0
1001
ACAD
1000
AcDbSavedByObjectVersion
1070
     0
  0
VISUALSTYLE
  5
36
102
{ACAD_REACTORS
330
2A
102
}
102
{ACAD_XDICTIONARY
360
290
102
}
330
2A
100
AcDbVisualStyle
  2
Brighten
 70
    12
 71
     2
 72
     2
 73
     0
 90
        0
 40
-0.6
 41
-30.0
 62
     5
 63
     7
 74
     1
 91
        4
 64
     7
 65
   257
 75
     1
175
     1
 42
1.0
 92
        8
 66
     7
 43
1.0
 76
     1
 77
     6
 78
     2
 67
     7
 79
     5
170
     0
171
     0
290
     0
174
     0
 93
        1
 44
50.0
173
     0
291
     1
 45
0.0
1001
ACAD
1000
AcDbSavedByObjectVersion
1070
     0
  0
VISUALSTYLE
  5
3A
102
{ACAD_REACTORS
330
2A
102
}
102
{ACAD_XDICTIONARY
360
298
102
}
330
2A
100
AcDbVisualStyle
  2
ColorChange
 70
    16
 71
     2
 72
     2
 73
     3
 90
        0
 40
-0.6
 41
-30.0
 62
     5
 63
     8
 74
     1
 91
        4
 64
     7
 65
   257
 75
     1
175
     1
 42
1.0
 92
        8
 66
     8
 43
1.0
 76
     1
 77
     6
 78
     2
 67
     7
 79
     5
170
     0
171
     0
290
     0
174
     0
 93
        1
 44
0.0
173
     0
291
     1
 45
0.0
1001
ACAD
1000
AcDbSavedByObjectVersion
1070
     0
  0
VISUALSTYLE
  5
34
102
{ACAD_REACTORS
330
2A
102
}
102
{ACAD_XDICTIONARY
360
28C
102
}
330
2A
100
AcDbVisualStyle
  2
Conceptual
 70
     9
 71
     3
 72
     2
 73
     0
 90
        0
 40
-0.6
 41
-30.0
 62
     5
 63
     7
 74
     2
 91
        2
 64
     7
 65
   257
 75
     1
175
     1
 42
40.0
 92
        8
 66
     7
 43
1.0
 76
     1
 77
     6
 78
     2
 67
     7
 79
     3
170
     0
171
     0
290
     0
174
     0
 93
        1
 44
0.0
173
     0
291
     0
 45
0.0
1001
ACAD
1000
AcDbSavedByObjectVersion
1070
     0
  0
VISUALSTYLE
  5
35
102
{ACAD_REACTORS
330
2A
102
}
102
{ACAD_XDICTIONARY
360
28E
102
}
330
2A
100
AcDbVisualStyle
  2
Dim
 70
    11
 71
     2
 72
     2
 73
     0
 90
        0
 40
-0.6
 41
-30.0
 62
     5
 63
     7
 74
     1
 91
        4
 64
     7
 65
   257
 75
     1
175
     1
 42
1.0
 92
        8
 66
     7
 43
1.0
 76
     1
 77
     6
 78
     2
 67
     7
 79
     5
170
     0
171
     0
290
     0
174
     0
 93
        1
 44
-50.0
173
     0
291
     1
 45
0.0
1001
ACAD
1000
AcDbSavedByObjectVersion
1070
     0
  0
VISUALSTYLE
  5
39
102
{ACAD_REACTORS
330
2A
102
}
102
{ACAD_XDICTIONARY
360
296
102
}
330
2A
100
AcDbVisualStyle
  2
Facepattern
 70
    15
 71
     2
 72
     2
 73
     0
 90
        0
 40
-0.6
 41
-30.0
 62
     5
 63
     7
 74
     1
 91
        4
 64
     7
 65
   257
 75
     1
175
     1
 42
1.0
 92
        8
 66
     7
 43
1.0
 76
     1
 77
     6
 78
     2
 67
     7
 79
     5
170
     0
171
     0
290
     0
174
     0
 93
        1
 44
0.0
173
     0
291
     1
 45
0.0
1001
ACAD
1000
AcDbSavedByObjectVersion
1070
     0
  0
VISUALSTYLE
  5
2B
102
{ACAD_REACTORS
330
2A
102
}
102
{ACAD_XDICTIONARY
360
27A
102
}
330
2A
100
AcDbVisualStyle
  2
Flat
 70
     0
 71
     2
 72
     1
 73
     1
 90
        2
 40
-0.6
 41
30.0
 62
     5
 63
     7
 74
     0
 91
        4
 64
     7
 65
   257
 75
     1
175
     1
 42
1.0
 92
        8
 66
     7
 43
1.0
 76
     1
 77
     6
 78
     2
 67
     7
 79
     5
170
     0
171
     0
290
     0
174
     0
 93
       13
 44
0.0
173
     0
291
     1
 45
0.0
1001
ACAD
1000
AcDbSavedByObjectVersion
1070
     0
  0
VISUALSTYLE
  5
2C
102
{ACAD_REACTORS
330
2A
102
}
102
{ACAD_XDICTIONARY
360
27C
102
}
330
2A
100
AcDbVisualStyle
  2
FlatWithEdges
 70
     1
 71
     2
 72
     1
 73
     1
 90
        2
 40
-0.6
 41
30.0
 62
     5
 63
     7
 74
     1
 91
        4
 64
     7
 65
   257
 75
     1
175
     1
 42
1.0
 92
        0
 66
   257
 43
1.0
 76
     1
 77
     6
 78
     2
 67
     7
 79
     5
170
     0
171
     0
290
     0
174
     0
 93
       13
 44
0.0
173
     0
291
     1
 45
0.0
1001
ACAD
1000
AcDbSavedByObjectVersion
1070
     0
  0
VISUALSTYLE
  5
2D
102
{ACAD_REACTORS
330
2A
102
}
102
{ACAD_XDICTIONARY
360
27E
102
}
330
2A
100
AcDbVisualStyle
  2
Gouraud
 70
     2
 71
     2
 72
     2
 73
     1
 90
        2
 40
-0.6
 41
30.0
 62
     5
 63
     7
 74
     0
 91
        4
 64
     7
 65
   257
 75
     1
175
     1
 42
1.0
 92
        0
 66
     7
 43
1.0
 76
     1
 77
     6
 78
     2
 67
     7
 79
     5
170
     0
171
     0
290
     0
174
     0
 93
       13
 44
0.0
173
     0
291
     1
 45
0.0
1001
ACAD
1000
AcDbSavedByObjectVersion
1070
     0
  0
VISUALSTYLE
  5
2E
102
{ACAD_REACTORS
330
2A
102
}
102
{ACAD_XDICTIONARY
360
280
102
}
330
2A
100
AcDbVisualStyle
  2
GouraudWithEdges
 70
     3
 71
     2
 72
     2
 73
     1
 90
        2
 40
-0.6
 41
30.0
 62
     5
 63
     7
 74
     1
 91
        4
 64
     7
 65
   257
 75
     1
175
     1
 42
1.0
 92
        0
 66
   257
 43
1.0
 76
     1
 77
     6
 78
     2
 67
     7
 79
     5
170
     0
171
     0
290
     0
174
     0
 93
       13
 44
0.0
173
     0
291
     1
 45
0.0
1001
ACAD
1000
AcDbSavedByObjectVersion
1070
     0
  0
VISUALSTYLE
  5
38
102
{ACAD_REACTORS
330
2A
102
}
102
{ACAD_XDICTIONARY
360
294
102
}
330
2A
100
AcDbVisualStyle
  2
Linepattern
 70
    14
 71
     2
 72
     2
 73
     0
 90
        0
 40
-0.6
 41
-30.0
 62
     5
 63
     7
 74
     1
 91
        4
 64
     7
 65
   257
 75
     7
175
     7
 42
1.0
 92
        8
 66
     7
 43
1.0
 76
     1
 77
     6
 78
     2
 67
     7
 79
     5
170
     0
171
     0
290
     0
174
     0
 93
        1
 44
0.0
173
     0
291
     1
 45
0.0
1001
ACAD
1000
AcDbSavedByObjectVersion
1070
     0
  0
VISUALSTYLE
  5
33
102
{ACAD_REACTORS
330
2A
102
}
102
{ACAD_XDICTIONARY
360
28A
102
}
330
2A
100
AcDbVisualStyle
  2
Realistic
 70
     8
 71
     2
 72
     2
 73
     0
 90
        0
 40
-0.6
 41
-30.0
 62
     5
 63
     7
 74
     1
 91
        0
 64
     7
 65
   257
 75
     1
175
     1
 42
1.0
 92
        8
 66
     8
 43
1.0
 76
     1
 77
     6
 78
     2
 67
     7
 79
     5
170
     0
171
     0
290
     0
174
     0
 93
       13
 44
0.0
173
     0
291
     0
 45
0.0
1001
ACAD
1000
AcDbSavedByObjectVersion
1070
     0
  0
VISUALSTYLE
  5
37
102
{ACAD_REACTORS
330
2A
102
}
102
{ACAD_XDICTIONARY
360
292
102
}
330
2A
100
AcDbVisualStyle
  2
Thicken
 70
    13
 71
     2
 72
     2
 73
     0
 90
        0
 40
-0.6
 41
-30.0
 62
     5
 63
     7
 74
     1
 91
        4
 64
     7
 65
   257
 75
     1
175
     1
 42
1.0
 92
       12
 66
     7
 43
1.0
 76
     1
 77
     6
 78
     2
 67
     7
 79
     5
170
     0
171
     0
290
     0
174
     0
 93
        1
 44
0.0
173
     0
291
     1
 45
0.0
1001
ACAD
1000
AcDbSavedByObjectVersion
1070
     0
  0
DICTIONARYVAR
  5
278
102
{ACAD_REACTORS
330
275
102
}
330
275
100
DictionaryVariables
280
     0
  1
2
  0
DICTIONARYVAR
  5
279
102
{ACAD_REACTORS
330
275
102
}
330
275
100
DictionaryVariables
280
     0
  1
1
  0
DICTIONARY
  5
29C
330
3D
100
AcDbDictionary
280
     1
281
     1
  3
ACAD_XREC_ROUNDTRIP
360
29D
  0
DICTIONARY
  5
29A
330
3C
100
AcDbDictionary
280
     1
281
     1
  3
ACAD_XREC_ROUNDTRIP
360
29B
  0
DICTIONARY
  5
29E
330
3E
100
AcDbDictionary
280
     1
281
     1
  3
ACAD_XREC_ROUNDTRIP
360
29F
  0
DICTIONARY
  5
282
330
2F
100
AcDbDictionary
280
     1
281
     1
  3
ACAD_XREC_ROUNDTRIP
360
283
  0
DICTIONARY
  5
286
330
31
100
AcDbDictionary
280
     1
281
     1
  3
ACAD_XREC_ROUNDTRIP
360
287
  0
DICTIONARY
  5
284
330
30
100
AcDbDictionary
280
     1
281
     1
  3
ACAD_XREC_ROUNDTRIP
360
285
  0
DICTIONARY
  5
288
330
32
100
AcDbDictionary
280
     1
281
     1
  3
ACAD_XREC_ROUNDTRIP
360
289
  0
DICTIONARY
  5
290
330
36
100
AcDbDictionary
280
     1
281
     1
  3
ACAD_XREC_ROUNDTRIP
360
291
  0
DICTIONARY
  5
298
330
3A
100
AcDbDictionary
280
     1
281
     1
  3
ACAD_XREC_ROUNDTRIP
360
299
  0
DICTIONARY
  5
28C
330
34
100
AcDbDictionary
280
     1
281
     1
  3
ACAD_XREC_ROUNDTRIP
360
28D
  0
DICTIONARY
  5
28E
330
35
100
AcDbDictionary
280
     1
281
     1
  3
ACAD_XREC_ROUNDTRIP
360
28F
  0
DICTIONARY
  5
296
330
39
100
AcDbDictionary
280
     1
281
     1
  3
ACAD_XREC_ROUNDTRIP
360
297
  0
DICTIONARY
  5
27A
330
2B
100
AcDbDictionary
280
     1
281
     1
  3
ACAD_XREC_ROUNDTRIP
360
27B
  0
DICTIONARY
  5
27C
330
2C
100
AcDbDictionary
280
     1
281
     1
  3
ACAD_XREC_ROUNDTRIP
360
27D
  0
DICTIONARY
  5
27E
330
2D
100
AcDbDictionary
280
     1
281
     1
  3
ACAD_XREC_ROUNDTRIP
360
27F
  0
DICTIONARY
  5
280
330
2E
100
AcDbDictionary
280
     1
281
     1
  3
ACAD_XREC_ROUNDTRIP
360
281
  0
DICTIONARY
  5
294
330
38
100
AcDbDictionary
280
     1
281
     1
  3
ACAD_XREC_ROUNDTRIP
360
295
  0
DICTIONARY
  5
28A
330
33
100
AcDbDictionary
280
     1
281
     1
  3
ACAD_XREC_ROUNDTRIP
360
28B
  0
DICTIONARY
  5
292
330
37
100
AcDbDictionary
280
     1
281
     1
  3
ACAD_XREC_ROUNDTRIP
360
293
  0
XRECORD
  5
29D
102
{ACAD_REACTORS
330
29C
102
}
330
29C
100
AcDbXrecord
280
     1
102
MATERIAL
148
0.0
149
0.0
149
0.0
 93
        0
 94
      127
282
     0
 72
     1
 77
     1
171
     1
175
     1
179
     1
273
     0
  0
XRECORD
  5
29B
102
{ACAD_REACTORS
330
29A
102
}
330
29A
100
AcDbXrecord
280
     1
102
MATERIAL
148
0.0
149
0.0
149
0.0
 93
        0
 94
      127
282
     0
 72
     1
 77
     1
171
     1
175
     1
179
     1
273
     0
  0
XRECORD
  5
29F
102
{ACAD_REACTORS
330
29E
102
}
330
29E
100
AcDbXrecord
280
     1
102
MATERIAL
148
0.0
149
0.0
149
0.0
 93
        0
 94
      127
282
     0
 72
     1
 77
     1
171
     1
175
     1
179
     1
273
     0
  0
XRECORD
  5
283
102
{ACAD_REACTORS
330
282
102
}
330
282
100
AcDbXrecord
280
     1
102
RTVSPropertyOp0
 70
     1
102
RTVSPropertyOp1
 70
     1
102
RTVSPropertyOp2
 70
     1
102
RTVSPropertyOp3
 70
     1
102
RTVSPropertyOp4
 70
     1
102
RTVSPropertyOp5
 70
     1
102
RTVSPropertyOp6
 70
     1
102
RTVSPropertyOp7
 70
     1
102
RTVSPropertyOp8
 70
     1
102
RTVSPropertyOp9
 70
     1
102
RTVSPropertyOp10
 70
     1
102
RTVSPropertyOp11
 70
     1
102
RTVSPropertyOp12
 70
     1
102
RTVSPropertyOp13
 70
     1
102
RTVSPropertyOp14
 70
     1
102
RTVSPropertyOp15
 70
     1
102
RTVSPropertyOp16
 70
     1
102
RTVSPropertyOp17
 70
     1
102
RTVSPropertyOp18
 70
     1
102
RTVSPropertyOp19
 70
     1
102
RTVSPropertyOp20
 70
     1
102
RTVSPropertyOp21
 70
     1
102
RTVSPropertyOp22
 70
     1
102
RTVSPropertyOp23
 70
     1
102
RTVSPropertyOp24
 70
     1
102
RTVSPropertyOp25
 70
     1
102
RTVSPropertyOp26
 70
     1
102
RTVSPropertyOp27
 70
     1
102
RTVSPropertyOp28
 70
     1
102
RTVSPropertyOp29
 70
     1
102
RTVSPropertyOp30
 70
     1
102
RTVSPropertyOp31
 70
     1
102
RTVSPropertyOp32
 70
     1
  0
XRECORD
  5
287
102
{ACAD_REACTORS
330
286
102
}
330
286
100
AcDbXrecord
280
     1
102
RTVSPropertyOp0
 70
     1
102
RTVSPropertyOp1
 70
     1
102
RTVSPropertyOp2
 70
     1
102
RTVSPropertyOp3
 70
     1
102
RTVSPropertyOp4
 70
     1
102
RTVSPropertyOp5
 70
     1
102
RTVSPropertyOp6
 70
     1
102
RTVSPropertyOp7
 70
     1
102
RTVSPropertyOp8
 70
     1
102
RTVSPropertyOp9
 70
     1
102
RTVSPropertyOp10
 70
     1
102
RTVSPropertyOp11
 70
     1
102
RTVSPropertyOp12
 70
     1
102
RTVSPropertyOp13
 70
     1
102
RTVSPropertyOp14
 70
     1
102
RTVSPropertyOp15
 70
     1
102
RTVSPropertyOp16
 70
     1
102
RTVSPropertyOp17
 70
     1
102
RTVSPropertyOp18
 70
     1
102
RTVSPropertyOp19
 70
     1
102
RTVSPropertyOp20
 70
     1
102
RTVSPropertyOp21
 70
     1
102
RTVSPropertyOp22
 70
     1
102
RTVSPropertyOp23
 70
     1
102
RTVSPropertyOp24
 70
     1
102
RTVSPropertyOp25
 70
     1
102
RTVSPropertyOp26
 70
     1
102
RTVSPropertyOp27
 70
     1
102
RTVSPropertyOp28
 70
     1
102
RTVSPropertyOp29
 70
     1
102
RTVSPropertyOp30
 70
     1
102
RTVSPropertyOp31
 70
     1
102
RTVSPropertyOp32
 70
     1
  0
XRECORD
  5
285
102
{ACAD_REACTORS
330
284
102
}
330
284
100
AcDbXrecord
280
     1
102
RTVSPropertyOp0
 70
     1
102
RTVSPropertyOp1
 70
     1
102
RTVSPropertyOp2
 70
     1
102
RTVSPropertyOp3
 70
     1
102
RTVSPropertyOp4
 70
     1
102
RTVSPropertyOp5
 70
     1
102
RTVSPropertyOp6
 70
     1
102
RTVSPropertyOp7
 70
     1
102
RTVSPropertyOp8
 70
     1
102
RTVSPropertyOp9
 70
     1
102
RTVSPropertyOp10
 70
     1
102
RTVSPropertyOp11
 70
     1
102
RTVSPropertyOp12
 70
     1
102
RTVSPropertyOp13
 70
     1
102
RTVSPropertyOp14
 70
     1
102
RTVSPropertyOp15
 70
     1
102
RTVSPropertyOp16
 70
     1
102
RTVSPropertyOp17
 70
     1
102
RTVSPropertyOp18
 70
     1
102
RTVSPropertyOp19
 70
     1
102
RTVSPropertyOp20
 70
     1
102
RTVSPropertyOp21
 70
     1
102
RTVSPropertyOp22
 70
     1
102
RTVSPropertyOp23
 70
     1
102
RTVSPropertyOp24
 70
     1
102
RTVSPropertyOp25
 70
     1
102
RTVSPropertyOp26
 70
     1
102
RTVSPropertyOp27
 70
     1
102
RTVSPropertyOp28
 70
     1
102
RTVSPropertyOp29
 70
     1
102
RTVSPropertyOp30
 70
     1
102
RTVSPropertyOp31
 70
     1
102
RTVSPropertyOp32
 70
     1
  0
XRECORD
  5
289
102
{ACAD_REACTORS
330
288
102
}
330
288
100
AcDbXrecord
280
     1
102
RTVSPropertyOp0
 70
     1
102
RTVSPropertyOp1
 70
     1
102
RTVSPropertyOp2
 70
     1
102
RTVSPropertyOp3
 70
     1
102
RTVSPropertyOp4
 70
     1
102
RTVSPropertyOp5
 70
     1
102
RTVSPropertyOp6
 70
     1
102
RTVSPropertyOp7
 70
     1
102
RTVSPropertyOp8
 70
     1
102
RTVSPropertyOp9
 70
     1
102
RTVSPropertyOp10
 70
     1
102
RTVSPropertyOp11
 70
     1
102
RTVSPropertyOp12
 70
     1
102
RTVSPropertyOp13
 70
     1
102
RTVSPropertyOp14
 70
     1
102
RTVSPropertyOp15
 70
     1
102
RTVSPropertyOp16
 70
     1
102
RTVSPropertyOp17
 70
     1
102
RTVSPropertyOp18
 70
     1
102
RTVSPropertyOp19
 70
     1
102
RTVSPropertyOp20
 70
     1
102
RTVSPropertyOp21
 70
     1
102
RTVSPropertyOp22
 70
     1
102
RTVSPropertyOp23
 70
     1
102
RTVSPropertyOp24
 70
     1
102
RTVSPropertyOp25
 70
     1
102
RTVSPropertyOp26
 70
     1
102
RTVSPropertyOp27
 70
     1
102
RTVSPropertyOp28
 70
     1
102
RTVSPropertyOp29
 70
     1
102
RTVSPropertyOp30
 70
     1
102
RTVSPropertyOp31
 70
     1
102
RTVSPropertyOp32
 70
     1
  0
XRECORD
  5
291
102
{ACAD_REACTORS
330
290
102
}
330
290
100
AcDbXrecord
280
     1
102
RTVSPropertyOp0
 70
     1
102
RTVSPropertyOp1
 70
     1
102
RTVSPropertyOp2
 70
     1
102
RTVSPropertyOp3
 70
     1
102
RTVSPropertyOp4
 70
     1
102
RTVSPropertyOp5
 70
     1
102
RTVSPropertyOp6
 70
     1
102
RTVSPropertyOp7
 70
     1
102
RTVSPropertyOp8
 70
     1
102
RTVSPropertyOp9
 70
     1
102
RTVSPropertyOp10
 70
     1
102
RTVSPropertyOp11
 70
     1
102
RTVSPropertyOp12
 70
     1
102
RTVSPropertyOp13
 70
     1
102
RTVSPropertyOp14
 70
     1
102
RTVSPropertyOp15
 70
     1
102
RTVSPropertyOp16
 70
     1
102
RTVSPropertyOp17
 70
     1
102
RTVSPropertyOp18
 70
     1
102
RTVSPropertyOp19
 70
     1
102
RTVSPropertyOp20
 70
     1
102
RTVSPropertyOp21
 70
     1
102
RTVSPropertyOp22
 70
     1
102
RTVSPropertyOp23
 70
     1
102
RTVSPropertyOp24
 70
     1
102
RTVSPropertyOp25
 70
     1
102
RTVSPropertyOp26
 70
     1
102
RTVSPropertyOp27
 70
     1
102
RTVSPropertyOp28
 70
     1
102
RTVSPropertyOp29
 70
     1
102
RTVSPropertyOp30
 70
     1
102
RTVSPropertyOp31
 70
     1
102
RTVSPropertyOp32
 70
     1
  0
XRECORD
  5
299
102
{ACAD_REACTORS
330
298
102
}
330
298
100
AcDbXrecord
280
     1
102
RTVSPropertyOp0
 70
     1
102
RTVSPropertyOp1
 70
     1
102
RTVSPropertyOp2
 70
     1
102
RTVSPropertyOp3
 70
     1
102
RTVSPropertyOp4
 70
     1
102
RTVSPropertyOp5
 70
     1
102
RTVSPropertyOp6
 70
     1
102
RTVSPropertyOp7
 70
     1
102
RTVSPropertyOp8
 70
     1
102
RTVSPropertyOp9
 70
     1
102
RTVSPropertyOp10
 70
     1
102
RTVSPropertyOp11
 70
     1
102
RTVSPropertyOp12
 70
     1
102
RTVSPropertyOp13
 70
     1
102
RTVSPropertyOp14
 70
     1
102
RTVSPropertyOp15
 70
     1
102
RTVSPropertyOp16
 70
     1
102
RTVSPropertyOp17
 70
     1
102
RTVSPropertyOp18
 70
     1
102
RTVSPropertyOp19
 70
     1
102
RTVSPropertyOp20
 70
     1
102
RTVSPropertyOp21
 70
     1
102
RTVSPropertyOp22
 70
     1
102
RTVSPropertyOp23
 70
     1
102
RTVSPropertyOp24
 70
     1
102
RTVSPropertyOp25
 70
     1
102
RTVSPropertyOp26
 70
     1
102
RTVSPropertyOp27
 70
     1
102
RTVSPropertyOp28
 70
     1
102
RTVSPropertyOp29
 70
     1
102
RTVSPropertyOp30
 70
     1
102
RTVSPropertyOp31
 70
     1
102
RTVSPropertyOp32
 70
     1
  0
XRECORD
  5
28D
102
{ACAD_REACTORS
330
28C
102
}
330
28C
100
AcDbXrecord
280
     1
102
RTVSPropertyOp0
 70
     1
102
RTVSPropertyOp1
 70
     1
102
RTVSPropertyOp2
 70
     1
102
RTVSPropertyOp3
 70
     1
102
RTVSPropertyOp4
 70
     1
102
RTVSPropertyOp5
 70
     1
102
RTVSPropertyOp6
 70
     1
102
RTVSPropertyOp7
 70
     1
102
RTVSPropertyOp8
 70
     1
102
RTVSPropertyOp9
 70
     1
102
RTVSPropertyOp10
 70
     1
102
RTVSPropertyOp11
 70
     1
102
RTVSPropertyOp12
 70
     1
102
RTVSPropertyOp13
 70
     1
102
RTVSPropertyOp14
 70
     1
102
RTVSPropertyOp15
 70
     1
102
RTVSPropertyOp16
 70
     1
102
RTVSPropertyOp17
 70
     1
102
RTVSPropertyOp18
 70
     1
102
RTVSPropertyOp19
 70
     1
102
RTVSPropertyOp20
 70
     1
102
RTVSPropertyOp21
 70
     1
102
RTVSPropertyOp22
 70
     1
102
RTVSPropertyOp23
 70
     1
102
RTVSPropertyOp24
 70
     1
102
RTVSPropertyOp25
 70
     1
102
RTVSPropertyOp26
 70
     1
102
RTVSPropertyOp27
 70
     1
102
RTVSPropertyOp28
 70
     1
102
RTVSPropertyOp29
 70
     1
102
RTVSPropertyOp30
 70
     1
102
RTVSPropertyOp31
 70
     1
102
RTVSPropertyOp32
 70
     1
  0
XRECORD
  5
28F
102
{ACAD_REACTORS
330
28E
102
}
330
28E
100
AcDbXrecord
280
     1
102
RTVSPropertyOp0
 70
     1
102
RTVSPropertyOp1
 70
     1
102
RTVSPropertyOp2
 70
     1
102
RTVSPropertyOp3
 70
     1
102
RTVSPropertyOp4
 70
     1
102
RTVSPropertyOp5
 70
     1
102
RTVSPropertyOp6
 70
     1
102
RTVSPropertyOp7
 70
     1
102
RTVSPropertyOp8
 70
     1
102
RTVSPropertyOp9
 70
     1
102
RTVSPropertyOp10
 70
     1
102
RTVSPropertyOp11
 70
     1
102
RTVSPropertyOp12
 70
     1
102
RTVSPropertyOp13
 70
     1
102
RTVSPropertyOp14
 70
     1
102
RTVSPropertyOp15
 70
     1
102
RTVSPropertyOp16
 70
     1
102
RTVSPropertyOp17
 70
     1
102
RTVSPropertyOp18
 70
     1
102
RTVSPropertyOp19
 70
     1
102
RTVSPropertyOp20
 70
     1
102
RTVSPropertyOp21
 70
     1
102
RTVSPropertyOp22
 70
     1
102
RTVSPropertyOp23
 70
     1
102
RTVSPropertyOp24
 70
     1
102
RTVSPropertyOp25
 70
     1
102
RTVSPropertyOp26
 70
     1
102
RTVSPropertyOp27
 70
     1
102
RTVSPropertyOp28
 70
     1
102
RTVSPropertyOp29
 70
     1
102
RTVSPropertyOp30
 70
     1
102
RTVSPropertyOp31
 70
     1
102
RTVSPropertyOp32
 70
     1
  0
XRECORD
  5
297
102
{ACAD_REACTORS
330
296
102
}
330
296
100
AcDbXrecord
280
     1
102
RTVSPropertyOp0
 70
     1
102
RTVSPropertyOp1
 70
     1
102
RTVSPropertyOp2
 70
     1
102
RTVSPropertyOp3
 70
     1
102
RTVSPropertyOp4
 70
     1
102
RTVSPropertyOp5
 70
     1
102
RTVSPropertyOp6
 70
     1
102
RTVSPropertyOp7
 70
     1
102
RTVSPropertyOp8
 70
     1
102
RTVSPropertyOp9
 70
     1
102
RTVSPropertyOp10
 70
     1
102
RTVSPropertyOp11
 70
     1
102
RTVSPropertyOp12
 70
     1
102
RTVSPropertyOp13
 70
     1
102
RTVSPropertyOp14
 70
     1
102
RTVSPropertyOp15
 70
     1
102
RTVSPropertyOp16
 70
     1
102
RTVSPropertyOp17
 70
     1
102
RTVSPropertyOp18
 70
     1
102
RTVSPropertyOp19
 70
     1
102
RTVSPropertyOp20
 70
     1
102
RTVSPropertyOp21
 70
     1
102
RTVSPropertyOp22
 70
     1
102
RTVSPropertyOp23
 70
     1
102
RTVSPropertyOp24
 70
     1
102
RTVSPropertyOp25
 70
     1
102
RTVSPropertyOp26
 70
     1
102
RTVSPropertyOp27
 70
     1
102
RTVSPropertyOp28
 70
     1
102
RTVSPropertyOp29
 70
     1
102
RTVSPropertyOp30
 70
     1
102
RTVSPropertyOp31
 70
     1
102
RTVSPropertyOp32
 70
     1
  0
XRECORD
  5
27B
102
{ACAD_REACTORS
330
27A
102
}
330
27A
100
AcDbXrecord
280
     1
102
RTVSPropertyOp0
 70
     1
102
RTVSPropertyOp1
 70
     1
102
RTVSPropertyOp2
 70
     1
102
RTVSPropertyOp3
 70
     1
102
RTVSPropertyOp4
 70
     1
102
RTVSPropertyOp5
 70
     1
102
RTVSPropertyOp6
 70
     1
102
RTVSPropertyOp7
 70
     1
102
RTVSPropertyOp8
 70
     1
102
RTVSPropertyOp9
 70
     1
102
RTVSPropertyOp10
 70
     1
102
RTVSPropertyOp11
 70
     1
102
RTVSPropertyOp12
 70
     1
102
RTVSPropertyOp13
 70
     1
102
RTVSPropertyOp14
 70
     1
102
RTVSPropertyOp15
 70
     1
102
RTVSPropertyOp16
 70
     1
102
RTVSPropertyOp17
 70
     1
102
RTVSPropertyOp18
 70
     1
102
RTVSPropertyOp19
 70
     1
102
RTVSPropertyOp20
 70
     1
102
RTVSPropertyOp21
 70
     1
102
RTVSPropertyOp22
 70
     1
102
RTVSPropertyOp23
 70
     1
102
RTVSPropertyOp24
 70
     1
102
RTVSPropertyOp25
 70
     1
102
RTVSPropertyOp26
 70
     1
102
RTVSPropertyOp27
 70
     1
102
RTVSPropertyOp28
 70
     1
102
RTVSPropertyOp29
 70
     1
102
RTVSPropertyOp30
 70
     1
102
RTVSPropertyOp31
 70
     1
102
RTVSPropertyOp32
 70
     1
  0
XRECORD
  5
27D
102
{ACAD_REACTORS
330
27C
102
}
330
27C
100
AcDbXrecord
280
     1
102
RTVSPropertyOp0
 70
     1
102
RTVSPropertyOp1
 70
     1
102
RTVSPropertyOp2
 70
     1
102
RTVSPropertyOp3
 70
     1
102
RTVSPropertyOp4
 70
     1
102
RTVSPropertyOp5
 70
     1
102
RTVSPropertyOp6
 70
     1
102
RTVSPropertyOp7
 70
     1
102
RTVSPropertyOp8
 70
     1
102
RTVSPropertyOp9
 70
     1
102
RTVSPropertyOp10
 70
     1
102
RTVSPropertyOp11
 70
     1
102
RTVSPropertyOp12
 70
     1
102
RTVSPropertyOp13
 70
     1
102
RTVSPropertyOp14
 70
     1
102
RTVSPropertyOp15
 70
     1
102
RTVSPropertyOp16
 70
     1
102
RTVSPropertyOp17
 70
     1
102
RTVSPropertyOp18
 70
     1
102
RTVSPropertyOp19
 70
     1
102
RTVSPropertyOp20
 70
     1
102
RTVSPropertyOp21
 70
     1
102
RTVSPropertyOp22
 70
     1
102
RTVSPropertyOp23
 70
     1
102
RTVSPropertyOp24
 70
     1
102
RTVSPropertyOp25
 70
     1
102
RTVSPropertyOp26
 70
     1
102
RTVSPropertyOp27
 70
     1
102
RTVSPropertyOp28
 70
     1
102
RTVSPropertyOp29
 70
     1
102
RTVSPropertyOp30
 70
     1
102
RTVSPropertyOp31
 70
     1
102
RTVSPropertyOp32
 70
     1
  0
XRECORD
  5
27F
102
{ACAD_REACTORS
330
27E
102
}
330
27E
100
AcDbXrecord
280
     1
102
RTVSPropertyOp0
 70
     1
102
RTVSPropertyOp1
 70
     1
102
RTVSPropertyOp2
 70
     1
102
RTVSPropertyOp3
 70
     1
102
RTVSPropertyOp4
 70
     1
102
RTVSPropertyOp5
 70
     1
102
RTVSPropertyOp6
 70
     1
102
RTVSPropertyOp7
 70
     1
102
RTVSPropertyOp8
 70
     1
102
RTVSPropertyOp9
 70
     1
102
RTVSPropertyOp10
 70
     1
102
RTVSPropertyOp11
 70
     1
102
RTVSPropertyOp12
 70
     1
102
RTVSPropertyOp13
 70
     1
102
RTVSPropertyOp14
 70
     1
102
RTVSPropertyOp15
 70
     1
102
RTVSPropertyOp16
 70
     1
102
RTVSPropertyOp17
 70
     1
102
RTVSPropertyOp18
 70
     1
102
RTVSPropertyOp19
 70
     1
102
RTVSPropertyOp20
 70
     1
102
RTVSPropertyOp21
 70
     1
102
RTVSPropertyOp22
 70
     1
102
RTVSPropertyOp23
 70
     1
102
RTVSPropertyOp24
 70
     1
102
RTVSPropertyOp25
 70
     1
102
RTVSPropertyOp26
 70
     1
102
RTVSPropertyOp27
 70
     1
102
RTVSPropertyOp28
 70
     1
102
RTVSPropertyOp29
 70
     1
102
RTVSPropertyOp30
 70
     1
102
RTVSPropertyOp31
 70
     1
102
RTVSPropertyOp32
 70
     1
  0
XRECORD
  5
281
102
{ACAD_REACTORS
330
280
102
}
330
280
100
AcDbXrecord
280
     1
102
RTVSPropertyOp0
 70
     1
102
RTVSPropertyOp1
 70
     1
102
RTVSPropertyOp2
 70
     1
102
RTVSPropertyOp3
 70
     1
102
RTVSPropertyOp4
 70
     1
102
RTVSPropertyOp5
 70
     1
102
RTVSPropertyOp6
 70
     1
102
RTVSPropertyOp7
 70
     1
102
RTVSPropertyOp8
 70
     1
102
RTVSPropertyOp9
 70
     1
102
RTVSPropertyOp10
 70
     1
102
RTVSPropertyOp11
 70
     1
102
RTVSPropertyOp12
 70
     1
102
RTVSPropertyOp13
 70
     1
102
RTVSPropertyOp14
 70
     1
102
RTVSPropertyOp15
 70
     1
102
RTVSPropertyOp16
 70
     1
102
RTVSPropertyOp17
 70
     1
102
RTVSPropertyOp18
 70
     1
102
RTVSPropertyOp19
 70
     1
102
RTVSPropertyOp20
 70
     1
102
RTVSPropertyOp21
 70
     1
102
RTVSPropertyOp22
 70
     1
102
RTVSPropertyOp23
 70
     1
102
RTVSPropertyOp24
 70
     1
102
RTVSPropertyOp25
 70
     1
102
RTVSPropertyOp26
 70
     1
102
RTVSPropertyOp27
 70
     1
102
RTVSPropertyOp28
 70
     1
102
RTVSPropertyOp29
 70
     1
102
RTVSPropertyOp30
 70
     1
102
RTVSPropertyOp31
 70
     1
102
RTVSPropertyOp32
 70
     1
  0
XRECORD
  5
295
102
{ACAD_REACTORS
330
294
102
}
330
294
100
AcDbXrecord
280
     1
102
RTVSPropertyOp0
 70
     1
102
RTVSPropertyOp1
 70
     1
102
RTVSPropertyOp2
 70
     1
102
RTVSPropertyOp3
 70
     1
102
RTVSPropertyOp4
 70
     1
102
RTVSPropertyOp5
 70
     1
102
RTVSPropertyOp6
 70
     1
102
RTVSPropertyOp7
 70
     1
102
RTVSPropertyOp8
 70
     1
102
RTVSPropertyOp9
 70
     1
102
RTVSPropertyOp10
 70
     1
102
RTVSPropertyOp11
 70
     1
102
RTVSPropertyOp12
 70
     1
102
RTVSPropertyOp13
 70
     1
102
RTVSPropertyOp14
 70
     1
102
RTVSPropertyOp15
 70
     1
102
RTVSPropertyOp16
 70
     1
102
RTVSPropertyOp17
 70
     1
102
RTVSPropertyOp18
 70
     1
102
RTVSPropertyOp19
 70
     1
102
RTVSPropertyOp20
 70
     1
102
RTVSPropertyOp21
 70
     1
102
RTVSPropertyOp22
 70
     1
102
RTVSPropertyOp23
 70
     1
102
RTVSPropertyOp24
 70
     1
102
RTVSPropertyOp25
 70
     1
102
RTVSPropertyOp26
 70
     1
102
RTVSPropertyOp27
 70
     1
102
RTVSPropertyOp28
 70
     1
102
RTVSPropertyOp29
 70
     1
102
RTVSPropertyOp30
 70
     1
102
RTVSPropertyOp31
 70
     1
102
RTVSPropertyOp32
 70
     1
  0
XRECORD
  5
28B
102
{ACAD_REACTORS
330
28A
102
}
330
28A
100
AcDbXrecord
280
     1
102
RTVSPropertyOp0
 70
     1
102
RTVSPropertyOp1
 70
     1
102
RTVSPropertyOp2
 70
     1
102
RTVSPropertyOp3
 70
     1
102
RTVSPropertyOp4
 70
     1
102
RTVSPropertyOp5
 70
     1
102
RTVSPropertyOp6
 70
     1
102
RTVSPropertyOp7
 70
     1
102
RTVSPropertyOp8
 70
     1
102
RTVSPropertyOp9
 70
     1
102
RTVSPropertyOp10
 70
     1
102
RTVSPropertyOp11
 70
     1
102
RTVSPropertyOp12
 70
     1
102
RTVSPropertyOp13
 70
     1
102
RTVSPropertyOp14
 70
     1
102
RTVSPropertyOp15
 70
     1
102
RTVSPropertyOp16
 70
     1
102
RTVSPropertyOp17
 70
     1
102
RTVSPropertyOp18
 70
     1
102
RTVSPropertyOp19
 70
     1
102
RTVSPropertyOp20
 70
     1
102
RTVSPropertyOp21
 70
     1
102
RTVSPropertyOp22
 70
     1
102
RTVSPropertyOp23
 70
     1
102
RTVSPropertyOp24
 70
     1
102
RTVSPropertyOp25
 70
     1
102
RTVSPropertyOp26
 70
     1
102
RTVSPropertyOp27
 70
     1
102
RTVSPropertyOp28
 70
     1
102
RTVSPropertyOp29
 70
     1
102
RTVSPropertyOp30
 70
     1
102
RTVSPropertyOp31
 70
     1
102
RTVSPropertyOp32
 70
     1
  0
XRECORD
  5
293
102
{ACAD_REACTORS
330
292
102
}
330
292
100
AcDbXrecord
280
     1
102
RTVSPropertyOp0
 70
     1
102
RTVSPropertyOp1
 70
     1
102
RTVSPropertyOp2
 70
     1
102
RTVSPropertyOp3
 70
     1
102
RTVSPropertyOp4
 70
     1
102
RTVSPropertyOp5
 70
     1
102
RTVSPropertyOp6
 70
     1
102
RTVSPropertyOp7
 70
     1
102
RTVSPropertyOp8
 70
     1
102
RTVSPropertyOp9
 70
     1
102
RTVSPropertyOp10
 70
     1
102
RTVSPropertyOp11
 70
     1
102
RTVSPropertyOp12
 70
     1
102
RTVSPropertyOp13
 70
     1
102
RTVSPropertyOp14
 70
     1
102
RTVSPropertyOp15
 70
     1
102
RTVSPropertyOp16
 70
     1
102
RTVSPropertyOp17
 70
     1
102
RTVSPropertyOp18
 70
     1
102
RTVSPropertyOp19
 70
     1
102
RTVSPropertyOp20
 70
     1
102
RTVSPropertyOp21
 70
     1
102
RTVSPropertyOp22
 70
     1
102
RTVSPropertyOp23
 70
     1
102
RTVSPropertyOp24
 70
     1
102
RTVSPropertyOp25
 70
     1
102
RTVSPropertyOp26
 70
     1
102
RTVSPropertyOp27
 70
     1
102
RTVSPropertyOp28
 70
     1
102
RTVSPropertyOp29
 70
     1
102
RTVSPropertyOp30
 70
     1
102
RTVSPropertyOp31
 70
     1
102
RTVSPropertyOp32
 70
     1
  0
ENDSEC
  0
EOF
