  0
SECTION
  2
HEADER
  9
$ACADVER
  1
AC1015
  9
$ACADMAINTVER
 70
     6
  9
$DWGCODEPAGE
  3
DOS932
  9
$INSBASE
 10
0.0
 20
0.0
 30
0.0
  9
$EXTMIN
 10
0.0
 20
0.0
 30
0.0
  9
$EXTMAX
 10
525.0
 20
742.5
 30
0.0
  9
$LIMMIN
 10
0.0
 20
0.0
  9
$LIMMAX
 10
12.0
 20
9.0
  9
$ORTHOMODE
 70
     0
  9
$REGENMODE
 70
     1
  9
$FILLMODE
 70
     1
  9
$QTEXTMODE
 70
     0
  9
$MIRRTEXT
 70
     1
  9
$LTSCALE
 40
1.0
  9
$ATTMODE
 70
     1
  9
$TEXTSIZE
 40
0.2
  9
$TRACEWID
 40
0.05
  9
$TEXTSTYLE
  7
Standard
  9
$CLAYER
  8
0
  9
$CELTYPE
  6
ByLayer
  9
$CECOLOR
 62
   256
  9
$CELTSCALE
 40
1.0
  9
$DISPSILH
 70
     0
  9
$DIMSCALE
 40
1.0
  9
$DIMASZ
 40
0.18
  9
$DIMEXO
 40
0.0625
  9
$DIMDLI
 40
0.38
  9
$DIMRND
 40
0.0
  9
$DIMDLE
 40
0.0
  9
$DIMEXE
 40
0.18
  9
$DIMTP
 40
0.0
  9
$DIMTM
 40
0.0
  9
$DIMTXT
 40
0.18
  9
$DIMCEN
 40
0.09
  9
$DIMTSZ
 40
0.0
  9
$DIMTOL
 70
     0
  9
$DIMLIM
 70
     0
  9
$DIMTIH
 70
     1
  9
$DIMTOH
 70
     1
  9
$DIMSE1
 70
     0
  9
$DIMSE2
 70
     0
  9
$DIMTAD
 70
     0
  9
$DIMZIN
 70
     0
  9
$DIMBLK
  1

  9
$DIMASO
 70
     1
  9
$DIMSHO
 70
     1
  9
$DIMPOST
  1

  9
$DIMAPOST
  1

  9
$DIMALT
 70
     0
  9
$DIMALTD
 70
     2
  9
$DIMALTF
 40
25.4
  9
$DIMLFAC
 40
1.0
  9
$DIMTOFL
 70
     0
  9
$DIMTVP
 40
0.0
  9
$DIMTIX
 70
     0
  9
$DIMSOXD
 70
     0
  9
$DIMSAH
 70
     0
  9
$DIMBLK1
  1

  9
$DIMBLK2
  1

  9
$DIMSTYLE
  2
Standard
  9
$DIMCLRD
 70
     0
  9
$DIMCLRE
 70
     0
  9
$DIMCLRT
 70
     0
  9
$DIMTFAC
 40
1.0
  9
$DIMGAP
 40
0.09
  9
$DIMJUST
 70
     0
  9
$DIMSD1
 70
     0
  9
$DIMSD2
 70
     0
  9
$DIMTOLJ
 70
     1
  9
$DIMTZIN
 70
     0
  9
$DIMALTZ
 70
     0
  9
$DIMALTTZ
 70
     0
  9
$DIMUPT
 70
     0
  9
$DIMDEC
 70
     4
  9
$DIMTDEC
 70
     4
  9
$DIMALTU
 70
     2
  9
$DIMALTTD
 70
     2
  9
$DIMTXSTY
  7
Standard
  9
$DIMAUNIT
 70
     0
  9
$DIMADEC
 70
     0
  9
$DIMALTRND
 40
0.0
  9
$DIMAZIN
 70
     0
  9
$DIMDSEP
 70
    46
  9
$DIMATFIT
 70
     3
  9
$DIMFRAC
 70
     0
  9
$DIMLDRBLK
  1

  9
$DIMLUNIT
 70
     2
  9
$DIMLWD
 70
    -2
  9
$DIMLWE
 70
    -2
  9
$DIMTMOVE
 70
     0
  9
$LUNITS
 70
     2
  9
$LUPREC
 70
     4
  9
$SKETCHINC
 40
0.1
  9
$FILLETRAD
 40
0.5
  9
$AUNITS
 70
     0
  9
$AUPREC
 70
     0
  9
$MENU
  1
.
  9
$ELEVATION
 40
0.0
  9
$PELEVATION
 40
0.0
  9
$THICKNESS
 40
0.0
  9
$LIMCHECK
 70
     0
  9
$CHAMFERA
 40
0.5
  9
$CHAMFERB
 40
0.5
  9
$CHAMFERC
 40
1.0
  9
$CHAMFERD
 40
0.0
  9
$SKPOLY
 70
     0
  9
$TDCREATE
 40
2456184.609836516
  9
$TDUCREATE
 40
2456184.234836516
  9
$TDUPDATE
 40
2456184.609836528
  9
$TDUUPDATE
 40
2456184.234836528
  9
$TDINDWG
 40
0.0000000116
  9
$TDUSRTIMER
 40
0.0000000116
  9
$USRTIMER
 70
     1
  9
$ANGBASE
 50
0.0
  9
$ANGDIR
 70
     0
  9
$PDMODE
 70
     0
  9
$PDSIZE
 40
0.0
  9
$PLINEWID
 40
0.0
  9
$SPLFRAME
 70
     0
  9
$SPLINETYPE
 70
     6
  9
$SPLINESEGS
 70
     8
  9
$HANDSEED
  5
26F
  9
$SURFTAB1
 70
     6
  9
$SURFTAB2
 70
     6
  9
$SURFTYPE
 70
     6
  9
$SURFU
 70
     6
  9
$SURFV
 70
     6
  9
$UCSBASE
  2

  9
$UCSNAME
  2

  9
$UCSORG
 10
0.0
 20
0.0
 30
0.0
  9
$UCSXDIR
 10
1.0
 20
0.0
 30
0.0
  9
$UCSYDIR
 10
0.0
 20
1.0
 30
0.0
  9
$UCSORTHOREF
  2

  9
$UCSORTHOVIEW
 70
     0
  9
$UCSORGTOP
 10
0.0
 20
0.0
 30
0.0
  9
$UCSORGBOTTOM
 10
0.0
 20
0.0
 30
0.0
  9
$UCSORGLEFT
 10
0.0
 20
0.0
 30
0.0
  9
$UCSORGRIGHT
 10
0.0
 20
0.0
 30
0.0
  9
$UCSORGFRONT
 10
0.0
 20
0.0
 30
0.0
  9
$UCSORGBACK
 10
0.0
 20
0.0
 30
0.0
  9
$PUCSBASE
  2

  9
$PUCSNAME
  2

  9
$PUCSORG
 10
0.0
 20
0.0
 30
0.0
  9
$PUCSXDIR
 10
1.0
 20
0.0
 30
0.0
  9
$PUCSYDIR
 10
0.0
 20
1.0
 30
0.0
  9
$PUCSORTHOREF
  2

  9
$PUCSORTHOVIEW
 70
     0
  9
$PUCSORGTOP
 10
0.0
 20
0.0
 30
0.0
  9
$PUCSORGBOTTOM
 10
0.0
 20
0.0
 30
0.0
  9
$PUCSORGLEFT
 10
0.0
 20
0.0
 30
0.0
  9
$PUCSORGRIGHT
 10
0.0
 20
0.0
 30
0.0
  9
$PUCSORGFRONT
 10
0.0
 20
0.0
 30
0.0
  9
$PUCSORGBACK
 10
0.0
 20
0.0
 30
0.0
  9
$USERI1
 70
     0
  9
$USERI2
 70
     0
  9
$USERI3
 70
     0
  9
$USERI4
 70
     0
  9
$USERI5
 70
     0
  9
$USERR1
 40
13.2
  9
$USERR2
 40
0.0
  9
$USERR3
 40
0.0
  9
$USERR4
 40
0.0
  9
$USERR5
 40
0.0
  9
$WORLDVIEW
 70
     1
  9
$SHADEDGE
 70
     3
  9
$SHADEDIF
 70
    70
  9
$TILEMODE
 70
     1
  9
$MAXACTVP
 70
    64
  9
$PINSBASE
 10
0.0
 20
0.0
 30
0.0
  9
$PLIMCHECK
 70
     0
  9
$PEXTMIN
 10
1.00000000000000E+20
 20
1.00000000000000E+20
 30
1.00000000000000E+20
  9
$PEXTMAX
 10
-1.00000000000000E+20
 20
-1.00000000000000E+20
 30
-1.00000000000000E+20
  9
$PLIMMIN
 10
0.0
 20
0.0
  9
$PLIMMAX
 10
12.0
 20
9.0
  9
$UNITMODE
 70
     0
  9
$VISRETAIN
 70
     1
  9
$PLINEGEN
 70
     0
  9
$PSLTSCALE
 70
     1
  9
$TREEDEPTH
 70
  3020
  9
$CMLSTYLE
  2
Standard
  9
$CMLJUST
 70
     0
  9
$CMLSCALE
 40
1.0
  9
$PROXYGRAPHICS
 70
     1
  9
$MEASUREMENT
 70
     1
  9
$CELWEIGHT
370
    -1
  9
$ENDCAPS
280
     0
  9
$JOINSTYLE
280
     0
  9
$LWDISPLAY
290
     0
  9
$INSUNITS
 70
     1
  9
$HYPERLINKBASE
  1

  9
$STYLESHEET
  1

  9
$XEDIT
290
     1
  9
$CEPSNTYPE
380
     0
  9
$PSTYLEMODE
290
     0
  9
$FINGERPRINTGUID
  2
{FAEB1C30-E019-11D5-929B-00C0DF256EC4}
  9
$VERSIONGUID
  2
{FAEB1C32-E019-11D5-929B-00C0DF256EC4}
  9
$EXTNAMES
290
     1
  9
$PSVPSCALE
 40
0.0
  9
$OLESTARTUP
290
     0
  0
ENDSEC
  0
SECTION
  2
CLASSES
  0
CLASS
  1
ACDBDICTIONARYWDFLT
  2
AcDbDictionaryWithDefault
  3
ObjectDBX Classes
 90
        0
280
     0
281
     0
  0
CLASS
  1
TABLESTYLE
  2
AcDbTableStyle
  3
ObjectDBX Classes
 90
     2047
280
     0
281
     0
  0
CLASS
  1
DICTIONARYVAR
  2
AcDbDictionaryVar
  3
ObjectDBX Classes
 90
        0
280
     0
281
     0
  0
CLASS
  1

  2
exOdDbCircle
  3

 90
        0
280
     0
281
     1
  0
CLASS
  1

  2
exOdDbSpline
  3

 90
        0
280
     0
281
     1
  0
CLASS
  1
ACDBPLACEHOLDER
  2
AcDbPlaceHolder
  3
ObjectDBX Classes
 90
        0
280
     0
281
     0
  0
CLASS
  1
LAYOUT
  2
AcDbLayout
  3
ObjectDBX Classes
 90
        0
280
     0
281
     0
  0
ENDSEC
  0
SECTION
  2
TABLES
  0
TABLE
  2
VPORT
  5
8
330
0
100
AcDbSymbolTable
 70
     2
  0
VPORT
  5
29
330
8
100
AcDbSymbolTableRecord
100
AcDbViewportTableRecord
  2
*Active
 70
     0
 10
0.0
 20
0.0
 11
1.0
 21
1.0
 12
262.5
 22
371.25
 13
0.0
 23
0.0
 14
0.5
 24
0.5
 15
0.5
 25
0.5
 16
0.0
 26
0.0
 36
1.0
 17
0.0
 27
0.0
 37
0.0
 40
816.7500000000001
 41
1.60267857142857
 42
50.0
 43
0.0
 44
0.0
 50
0.0
 51
0.0
 71
     0
 72
   100
 73
     1
 74
     3
 75
     0
 76
     0
 77
     0
 78
     0
281
     0
 65
     1
110
0.0
120
0.0
130
0.0
111
1.0
121
0.0
131
0.0
112
0.0
122
1.0
132
0.0
 79
     0
146
0.0
  0
ENDTAB
  0
TABLE
  2
LTYPE
  5
5
330
0
100
AcDbSymbolTable
 70
     8
  0
LTYPE
  5
14
330
5
100
AcDbSymbolTableRecord
100
AcDbLinetypeTableRecord
  2
ByBlock
 70
     0
  3

 72
    65
 73
     0
 40
0.0
  0
LTYPE
  5
15
330
5
100
AcDbSymbolTableRecord
100
AcDbLinetypeTableRecord
  2
ByLayer
 70
     0
  3

 72
    65
 73
     0
 40
0.0
  0
LTYPE
  5
16
330
5
100
AcDbSymbolTableRecord
100
AcDbLinetypeTableRecord
  2
Continuous
 70
     0
  3
Solid line
 72
    65
 73
     0
 40
0.0
  0
LTYPE
  5
2E
330
5
100
AcDbSymbolTableRecord
100
AcDbLinetypeTableRecord
  2
DASHED
 70
     0
  3
Dashed
 72
    65
 73
     2
 40
15.0
 49
7.0
 74
     0
 49
-8.0
 74
     0
  0
LTYPE
  5
2F
330
5
100
AcDbSymbolTableRecord
100
AcDbLinetypeTableRecord
  2
DOTTED
 70
     0
  3
Dotted
 72
    65
 73
     2
 40
1.0
 49
0.0
 74
     0
 49
-1.0
 74
     0
  0
LTYPE
  5
30
330
5
100
AcDbSymbolTableRecord
100
AcDbLinetypeTableRecord
  2
DOT_CENTER
 70
     0
  3
Dot_Center
 72
    65
 73
     4
 40
14.0
 49
12.0
 74
     0
 49
-1.0
 74
     0
 49
0.0
 74
     0
 49
-1.0
 74
     0
  0
LTYPE
  5
31
330
5
100
AcDbSymbolTableRecord
100
AcDbLinetypeTableRecord
  2
LONG_DASHED
 70
     0
  3
Long_Dashed
 72
    65
 73
     2
 40
15.0
 49
10.0
 74
     0
 49
-5.0
 74
     0
  0
LTYPE
  5
32
330
5
100
AcDbSymbolTableRecord
100
AcDbLinetypeTableRecord
  2
DASH_CENTER
 70
     0
  3
Dash_Center
 72
    65
 73
     4
 40
14.0
 49
11.0
 74
     0
 49
-1.0
 74
     0
 49
1.0
 74
     0
 49
-1.0
 74
     0
  0
LTYPE
  5
33
330
5
100
AcDbSymbolTableRecord
100
AcDbLinetypeTableRecord
  2
PHANTOM
 70
     0
  3
Phantom
 72
    65
 73
     6
 40
13.0
 49
10.0
 74
     0
 49
-1.0
 74
     0
 49
0.0
 74
     0
 49
-1.0
 74
     0
 49
0.0
 74
     0
 49
-1.0
 74
     0
  0
LTYPE
  5
34
330
5
100
AcDbSymbolTableRecord
100
AcDbLinetypeTableRecord
  2
CENTER_DASH_DASH
 70
     0
  3
Center_Dash_Dash
 72
    65
 73
     6
 40
14.0
 49
9.0
 74
     0
 49
-1.0
 74
     0
 49
1.0
 74
     0
 49
-1.0
 74
     0
 49
1.0
 74
     0
 49
-1.0
 74
     0
  0
ENDTAB
  0
TABLE
  2
LAYER
  5
2
330
0
100
AcDbSymbolTable
 70
     2
  0
LAYER
  5
10
330
2
100
AcDbSymbolTableRecord
100
AcDbLayerTableRecord
  2
0
 70
     0
 62
     7
  6
Continuous
370
    -3
390
F
  0
LAYER
  5
35
330
2
100
AcDbSymbolTableRecord
100
AcDbLayerTableRecord
  2
1
 70
     0
 62
     7
  6
Continuous
370
    -3
390
F
  0
ENDTAB
  0
TABLE
  2
STYLE
  5
3
330
0
100
AcDbSymbolTable
 70
     3
  0
STYLE
  5
11
330
3
100
AcDbSymbolTableRecord
100
AcDbTextStyleTableRecord
  2
Standard
 70
     0
 40
0.0
 41
1.0
 50
0.0
 71
     0
 42
0.2
  3
txt
  4

  0
STYLE
  5
1F9
330
3
100
AcDbSymbolTableRecord
100
AcDbTextStyleTableRecord
  2
CONVERTER_1
 70
     0
 40
0.0
 41
0.89
 50
0.0
 71
     0
 42
0.2
  3
msmincho.ttc
  4

1001
ACAD
1000
MS Mincho
1071
    32785
  0
STYLE
  5
219
330
3
100
AcDbSymbolTableRecord
100
AcDbTextStyleTableRecord
  2
CONVERTER_2
 70
     0
 40
0.0
 41
0.9
 50
0.0
 71
     0
 42
0.2
  3
txt.shx
  4

  0
ENDTAB
  0
TABLE
  2
VIEW
  5
6
330
0
100
AcDbSymbolTable
 70
     0
  0
ENDTAB
  0
TABLE
  2
UCS
  5
7
330
0
100
AcDbSymbolTable
 70
     0
  0
ENDTAB
  0
TABLE
  2
APPID
  5
9
330
0
100
AcDbSymbolTable
 70
     1
  0
APPID
  5
12
330
9
100
AcDbSymbolTableRecord
100
AcDbRegAppTableRecord
  2
ACAD
 70
     0
  0
ENDTAB
  0
TABLE
  2
DIMSTYLE
  5
A
330
0
100
AcDbSymbolTable
 70
     8
100
AcDbDimStyleTable
  0
DIMSTYLE
105
27
330
A
100
AcDbSymbolTableRecord
100
AcDbDimStyleTableRecord
  2
Standard
 70
     0
340
11
  0
DIMSTYLE
105
228
102
{ACAD_REACTORS
330
229
102
}
330
A
100
AcDbSymbolTableRecord
100
AcDbDimStyleTableRecord
  2
ME10_DIM_0
 70
     0
  3
{\Fgdt;n}<>
 41
8.75
 42
0.0
 44
2.5
 73
     0
 74
     0
 77
     1
 78
     8
140
8.75
147
0.625
172
     1
173
     1
176
     2
177
     2
178
     7
271
     2
340
219
  0
DIMSTYLE
105
233
102
{ACAD_REACTORS
330
234
102
}
330
A
100
AcDbSymbolTableRecord
100
AcDbDimStyleTableRecord
  2
ME10_DIM_1
 70
     0
 41
8.75
 42
0.0
 44
2.5
 73
     0
 74
     0
 77
     1
 78
     8
140
8.75
147
0.625
172
     1
173
     1
176
     2
177
     2
178
     7
271
     2
340
219
  0
DIMSTYLE
105
23E
102
{ACAD_REACTORS
330
23F
102
}
330
A
100
AcDbSymbolTableRecord
100
AcDbDimStyleTableRecord
  2
ME10_DIM_2
 70
     0
 41
8.75
 42
0.0
 44
2.5
 73
     0
 74
     0
 77
     1
 78
     8
140
8.75
147
0.625
172
     1
173
     1
176
     2
177
     2
178
     7
271
     2
340
219
  0
DIMSTYLE
105
249
102
{ACAD_REACTORS
330
24A
102
}
330
A
100
AcDbSymbolTableRecord
100
AcDbDimStyleTableRecord
  2
ME10_DIM_3
 70
     0
 41
8.75
 42
0.0
 44
2.5
 73
     0
 74
     0
 77
     1
 78
     8
140
8.75
147
0.625
172
     1
173
     1
176
     2
177
     2
178
     7
271
     2
340
219
  0
DIMSTYLE
105
254
102
{ACAD_REACTORS
330
255
102
}
330
A
100
AcDbSymbolTableRecord
100
AcDbDimStyleTableRecord
  2
ME10_DIM_4
 70
     0
 41
8.75
 42
0.0
 44
2.5
 73
     0
 74
     0
 77
     1
 78
     8
140
8.75
147
0.625
172
     1
173
     1
176
     2
177
     2
178
     7
271
     2
340
219
  0
DIMSTYLE
105
25F
102
{ACAD_REACTORS
330
260
102
}
330
A
100
AcDbSymbolTableRecord
100
AcDbDimStyleTableRecord
  2
ME10_DIM_5
 70
     0
 41
8.75
 42
0.0
 44
2.5
 73
     0
 74
     0
 77
     1
 78
     8
140
8.75
147
0.625
172
     1
173
     1
176
     2
177
     2
178
     7
271
     2
340
1F9
  0
DIMSTYLE
105
26D
102
{ACAD_REACTORS
330
26E
102
}
330
A
100
AcDbSymbolTableRecord
100
AcDbDimStyleTableRecord
  2
ME10_DIM_6
 70
     0
 41
8.75
 42
0.0
 44
2.5
 73
     0
 74
     0
 77
     1
 78
     8
140
8.75
147
0.625
172
     1
173
     1
176
     2
177
     2
178
     7
271
     2
340
219
343
26A
  0
ENDTAB
  0
TABLE
  2
BLOCK_RECORD
  5
1
330
0
100
AcDbSymbolTable
 70
    20
  0
BLOCK_RECORD
  5
1F
330
1
100
AcDbSymbolTableRecord
100
AcDbBlockTableRecord
  2
*Model_Space
340
22
  0
BLOCK_RECORD
  5
1B
330
1
100
AcDbSymbolTableRecord
100
AcDbBlockTableRecord
  2
*Paper_Space
340
1E
  0
BLOCK_RECORD
  5
23
330
1
100
AcDbSymbolTableRecord
100
AcDbBlockTableRecord
  2
*Paper_Space0
340
26
  0
BLOCK_RECORD
  5
36
330
1
100
AcDbSymbolTableRecord
100
AcDbBlockTableRecord
  2
51-1
340
0
102
{BLKREFS
331
5D
102
}
  0
BLOCK_RECORD
  5
39
330
1
100
AcDbSymbolTableRecord
100
AcDbBlockTableRecord
  2
42-1
340
0
102
{BLKREFS
331
3D
102
}
  0
BLOCK_RECORD
  5
3C
330
1
100
AcDbSymbolTableRecord
100
AcDbBlockTableRecord
  2
R20F
340
0
102
{BLKREFS
331
47
102
}
  0
BLOCK_RECORD
  5
40
330
1
100
AcDbSymbolTableRecord
100
AcDbBlockTableRecord
  2
37-1-13
340
0
102
{BLKREFS
331
48
102
}
  0
BLOCK_RECORD
  5
43
330
1
100
AcDbSymbolTableRecord
100
AcDbBlockTableRecord
  2
36-1A-13-M4
340
0
102
{BLKREFS
331
49
102
}
  0
BLOCK_RECORD
  5
46
330
1
100
AcDbSymbolTableRecord
100
AcDbBlockTableRecord
  2
R10A-13
340
0
102
{BLKREFS
331
5E
102
}
  0
BLOCK_RECORD
  5
4C
330
1
100
AcDbSymbolTableRecord
100
AcDbBlockTableRecord
  2
A20-0-13
340
0
102
{BLKREFS
331
5F
102
}
  0
BLOCK_RECORD
  5
4F
330
1
100
AcDbSymbolTableRecord
100
AcDbBlockTableRecord
  2
32-1-16
340
0
102
{BLKREFS
331
56
102
}
  0
BLOCK_RECORD
  5
52
330
1
100
AcDbSymbolTableRecord
100
AcDbBlockTableRecord
  2
61-1-16-170
340
0
102
{BLKREFS
331
57
102
}
  0
BLOCK_RECORD
  5
55
330
1
100
AcDbSymbolTableRecord
100
AcDbBlockTableRecord
  2
A20J-60X-16
340
0
102
{BLKREFS
331
60
102
}
  0
BLOCK_RECORD
  5
5A
330
1
100
AcDbSymbolTableRecord
100
AcDbBlockTableRecord
  2
_J__A4
340
0
102
{BLKREFS
331
61
102
}
  0
BLOCK_RECORD
  5
21F
330
1
100
AcDbSymbolTableRecord
100
AcDbBlockTableRecord
  2
*D012
340
0
  0
BLOCK_RECORD
  5
22A
330
1
100
AcDbSymbolTableRecord
100
AcDbBlockTableRecord
  2
*D113
340
0
  0
BLOCK_RECORD
  5
235
330
1
100
AcDbSymbolTableRecord
100
AcDbBlockTableRecord
  2
*D214
340
0
  0
BLOCK_RECORD
  5
240
330
1
100
AcDbSymbolTableRecord
100
AcDbBlockTableRecord
  2
*D315
340
0
  0
BLOCK_RECORD
  5
24B
330
1
100
AcDbSymbolTableRecord
100
AcDbBlockTableRecord
  2
*D416
340
0
  0
BLOCK_RECORD
  5
256
330
1
100
AcDbSymbolTableRecord
100
AcDbBlockTableRecord
  2
*D517
340
0
  0
BLOCK_RECORD
  5
261
330
1
100
AcDbSymbolTableRecord
100
AcDbBlockTableRecord
  2
*D618
340
0
  0
BLOCK_RECORD
  5
26A
330
1
100
AcDbSymbolTableRecord
100
AcDbBlockTableRecord
  2
_None
340
0
  0
ENDTAB
  0
ENDSEC
  0
SECTION
  2
BLOCKS
  0
BLOCK
  5
20
330
1F
100
AcDbEntity
  8
0
100
AcDbBlockBegin
  2
*Model_Space
 70
     0
 71
     0
 10
0.0
 20
0.0
 30
0.0
  3
*Model_Space
  1

  0
ENDBLK
  5
21
330
1F
100
AcDbEntity
  8
0
100
AcDbBlockEnd
  0
BLOCK
  5
1C
330
1B
100
AcDbEntity
 67
     1
  8
0
100
AcDbBlockBegin
  2
*Paper_Space
 70
     0
 71
     0
 10
0.0
 20
0.0
 30
0.0
  3
*Paper_Space
  1

  0
ENDBLK
  5
1D
330
1B
100
AcDbEntity
 67
     1
  8
0
100
AcDbBlockEnd
  0
BLOCK
  5
24
330
23
100
AcDbEntity
  8
0
100
AcDbBlockBegin
  2
*Paper_Space0
 70
     0
 71
     0
 10
0.0
 20
0.0
 30
0.0
  3
*Paper_Space0
  1

  0
ENDBLK
  5
25
330
23
100
AcDbEntity
  8
0
100
AcDbBlockEnd
  0
BLOCK
  5
37
330
36
100
AcDbEntity
  8
0
100
AcDbBlockBegin
  2
51-1
 70
     0
 71
     0
 10
124.1146331018702
 20
182.8142307952435
 30
0.0
  3
51-1
  1

  0
LINE
  5
62
330
36
100
AcDbEntity
  8
1
  6
Continuous
 62
     7
100
AcDbLine
 10
380.3616793994484
 20
219.556871482363
 30
0.0
 11
390.3375148844108
 21
229.5327069673253
 31
0.0
  0
LINE
  5
63
330
36
100
AcDbEntity
  8
1
  6
Continuous
 62
     7
100
AcDbLine
 10
385.3967294545623
 20
209.3148991630122
 30
0.0
 11
399.7844790536157
 21
213.1700850489798
 31
0.0
  0
LINE
  5
64
330
36
100
AcDbEntity
  8
1
  6
Continuous
 62
     7
100
AcDbLine
 10
400.4594002234443
 20
254.3671450658588
 30
0.0
 11
396.8079910119739
 21
240.739900369426
 31
0.0
  0
LINE
  5
65
330
36
100
AcDbEntity
  8
1
  6
Continuous
 62
     7
100
AcDbLine
 10
426.3526760051745
 20
209.5186758375093
 30
0.0
 11
412.7254313087417
 21
213.1700850489798
 31
0.0
  0
LINE
  5
66
330
36
100
AcDbEntity
  8
1
  6
Continuous
 62
     7
100
AcDbLine
 10
432.1482309629089
 20
219.556871482363
 30
0.0
 11
422.1723954779465
 21
229.5327069673253
 31
0.0
  0
LINE
  5
67
330
36
100
AcDbEntity
  8
1
  6
Continuous
 62
     7
100
AcDbLine
 10
412.050510138913
 20
254.3671450658588
 30
0.0
 11
415.7019193503835
 21
240.739900369426
 31
0.0
  0
LINE
  5
68
330
36
100
AcDbEntity
  8
1
  6
PHANTOM
 62
     4
100
AcDbLine
 10
438.2967374742696
 20
209.3148991630122
 30
0.0
 11
387.1089240517728
 21
238.8681970217192
 31
0.0
  0
LINE
  5
69
330
36
100
AcDbEntity
  8
1
  6
PHANTOM
 62
     4
100
AcDbLine
 10
374.2131728880877
 20
209.3148991630122
 30
0.0
 11
424.7663117930983
 21
238.5017675182007
 31
0.0
  0
LINE
  5
6A
330
36
100
AcDbEntity
  8
1
  6
Continuous
 62
     7
100
AcDbLine
 10
160.3773715832049
 20
590.3497972076042
 30
0.0
 11
157.1618783783343
 21
590.8017053065966
 31
0.0
  0
LINE
  5
6B
330
36
100
AcDbEntity
  8
1
  6
Continuous
 62
     7
100
AcDbLine
 10
157.1618783783345
 20
535.510167048633
 30
0.0
 11
160.3773715832049
 21
535.9620751476255
 31
0.0
  0
LINE
  5
6C
330
36
100
AcDbEntity
  8
1
  6
Continuous
 62
     7
100
AcDbLine
 10
156.5922918278542
 20
590.3065712722258
 30
0.0
 11
156.5922918278542
 21
536.0053010830039
 31
0.0
  0
LINE
  5
6D
330
36
100
AcDbEntity
  8
1
  6
Continuous
 62
     7
100
AcDbLine
 10
156.1146331018699
 20
209.8142307952434
 30
0.0
 11
156.1146331018699
 21
258.3142307952434
 31
0.0
  0
LINE
  5
6E
330
36
100
AcDbEntity
  8
1
  6
Continuous
 62
     7
100
AcDbLine
 10
159.5015420072373
 20
258.8142307952434
 30
0.0
 11
156.6146331018699
 21
258.8142307952434
 31
0.0
  0
LINE
  5
6F
330
36
100
AcDbEntity
  8
1
  6
Continuous
 62
     7
100
AcDbLine
 10
159.0895825242795
 20
209.3142307952434
 30
0.0
 11
156.6146331018699
 21
209.3142307952434
 31
0.0
  0
ARC
  5
70
330
36
100
AcDbEntity
  8
1
  6
Continuous
 62
     7
100
AcDbCircle
 10
384.6043200865677
 20
215.3142307952437
 30
0.0
 40
6.000000000000028
100
AcDbArc
 50
135.0000000000002
 51
-82.47575892105965
  0
ARC
  5
71
330
36
100
AcDbEntity
  8
1
  6
Continuous
 62
     7
100
AcDbCircle
 10
406.2549551811786
 20
252.8142307952437
 30
0.0
 40
6.0
100
AcDbArc
 50
90.0
 51
165.0
  0
ARC
  5
72
330
36
100
AcDbEntity
  8
1
  6
Continuous
 62
     7
100
AcDbCircle
 10
427.9055902757896
 20
215.3142307952437
 30
0.0
 40
5.999999999999989
100
AcDbArc
 50
-105.0000000000001
 51
45.00000000000019
  0
ARC
  5
73
330
36
100
AcDbEntity
  8
1
  6
Continuous
 62
     7
100
AcDbCircle
 10
406.2549551811786
 20
252.8142307952437
 30
0.0
 40
5.999999999999981
100
AcDbArc
 50
14.99999999999985
 51
90.0
  0
ARC
  5
74
330
36
100
AcDbEntity
  8
1
  6
Continuous
 62
     7
100
AcDbCircle
 10
40.22213928752981
 20
561.5188458267256
 30
0.0
 40
127.4948334081409
100
AcDbArc
 50
2.53411689479737
 51
10.80949324635221
  0
ARC
  5
75
330
36
100
AcDbEntity
  8
1
  6
Continuous
 62
     7
100
AcDbCircle
 10
40.22213928752981
 20
564.7930265285041
 30
0.0
 40
127.4948334081411
100
AcDbArc
 50
-10.80949324635226
 51
-2.53411689479737
  0
ARC
  5
76
330
36
100
AcDbEntity
  8
1
  6
Continuous
 62
     7
100
AcDbCircle
 10
19.08296702444943
 20
227.9142307952434
 30
0.0
 40
148.6092050572048
100
AcDbArc
 50
1.8509457968689
 51
10.05322763750316
  0
ARC
  5
77
330
36
100
AcDbEntity
  8
1
  6
Continuous
 62
     7
100
AcDbCircle
 10
146.0544683368797
 20
225.8653489826331
 30
0.0
 40
21.76119949013528
100
AcDbArc
 50
-21.5567947109678
 51
-7.79411241505203
  0
ARC
  5
78
330
36
100
AcDbEntity
  8
1
  6
Continuous
 62
     7
100
AcDbCircle
 10
88.94129984648842
 20
240.8182756537791
 30
0.0
 40
80.64072525632044
100
AcDbArc
 50
-19.97991677911209
 51
-16.80789351475118
  0
ARC
  5
79
330
36
100
AcDbEntity
  8
1
  6
Continuous
 62
     7
100
AcDbCircle
 10
372.659845354747
 20
247.210376496989
 30
0.0
 40
25.00000000000006
100
AcDbArc
 50
-44.99999999999987
 51
-14.99999999999982
  0
ARC
  5
7A
330
36
100
AcDbEntity
  8
1
  6
Continuous
 62
     7
100
AcDbCircle
 10
406.2549551811786
 20
189.0219393917531
 30
0.0
 40
24.99999999999999
100
AcDbArc
 50
74.99999999999986
 51
104.9999999999998
  0
ARC
  5
7B
330
36
100
AcDbEntity
  8
1
  6
Continuous
 62
     7
100
AcDbCircle
 10
439.8500650076103
 20
247.210376496989
 30
0.0
 40
25.00000000000007
100
AcDbArc
 50
-165.0000000000001
 51
-135.0000000000001
  0
ARC
  5
7C
330
36
100
AcDbEntity
  8
1
  6
Continuous
 62
     7
100
AcDbCircle
 10
159.5423329774446
 20
584.4081887951548
 30
0.0
 40
6.000000000000023
100
AcDbArc
 50
9.80290179376806
 51
82.00000000000074
  0
ARC
  5
7D
330
36
100
AcDbEntity
  8
1
  6
Continuous
 62
     7
100
AcDbCircle
 10
157.0922918278542
 20
590.3065712722258
 30
0.0
 40
0.4999999999999459
100
AcDbArc
 50
81.99999999999177
 51
180.0
  0
ARC
  5
7E
330
36
100
AcDbEntity
  8
1
  6
Continuous
 62
     7
100
AcDbCircle
 10
157.0922918278542
 20
536.0053010830039
 30
0.0
 40
0.5
100
AcDbArc
 50
180.0
 51
-81.99999999997283
  0
ARC
  5
7F
330
36
100
AcDbEntity
  8
1
  6
Continuous
 62
     7
100
AcDbCircle
 10
159.5423329774447
 20
541.9036835600749
 30
0.0
 40
6.000000000000008
100
AcDbArc
 50
-82.00000000000169
 51
-9.80290179376927
  0
ARC
  5
80
330
36
100
AcDbEntity
  8
1
  6
Continuous
 62
     7
100
AcDbCircle
 10
156.6146331018699
 20
258.3142307952434
 30
0.0
 40
0.5
100
AcDbArc
 50
90.0
 51
180.0
  0
ARC
  5
81
330
36
100
AcDbEntity
  8
1
  6
Continuous
 62
     7
100
AcDbCircle
 10
159.5015420072373
 20
252.8142307952433
 30
0.0
 40
6.000000000000019
100
AcDbArc
 50
9.99784348756983
 51
90.0
  0
ARC
  5
82
330
36
100
AcDbEntity
  8
1
  6
Continuous
 62
     7
100
AcDbCircle
 10
160.6928232388119
 20
220.0219393917527
 30
0.0
 40
5.999999999999802
100
AcDbArc
 50
-24.85597892211748
 51
-21.01999876649036
  0
ARC
  5
83
330
36
100
AcDbEntity
  8
1
  6
Continuous
 62
     7
100
AcDbCircle
 10
156.6146331018699
 20
209.8142307952434
 30
0.0
 40
0.5
100
AcDbArc
 50
180.0
 51
-90.0
  0
ARC
  5
84
330
36
100
AcDbEntity
  8
1
  6
Continuous
 62
     7
100
AcDbCircle
 10
159.0895825242795
 20
215.3142307952434
 30
0.0
 40
6.0
100
AcDbArc
 50
-90.0
 51
-19.97991677911115
  0
ENDBLK
  5
38
330
36
100
AcDbEntity
  8
0
100
AcDbBlockEnd
  0
BLOCK
  5
3A
330
39
100
AcDbEntity
  8
0
100
AcDbBlockBegin
  2
42-1
 70
     0
 71
     0
 10
-14.17501590771468
 20
315.918490881847
 30
0.0
  3
42-1
  1

  0
LINE
  5
85
330
39
100
AcDbEntity
  8
1
  6
Continuous
 62
     7
100
AcDbLine
 10
170.6109533036299
 20
232.8142307952435
 30
0.0
 11
170.6109533036299
 21
222.8142307952435
 31
0.0
  0
LINE
  5
86
330
39
100
AcDbEntity
  8
1
  6
Continuous
 62
     7
100
AcDbLine
 10
170.9407190238336
 20
233.5642307952434
 30
0.0
 11
170.9407190238336
 21
227.8142307952435
 31
0.0
  0
LINE
  5
87
330
39
100
AcDbEntity
  8
1
  6
Continuous
 62
     2
100
AcDbLine
 10
169.8532914058011
 20
228.8142307952435
 30
0.0
 11
168.5880523151907
 21
228.8142307952435
 31
0.0
  0
LINE
  5
88
330
39
100
AcDbEntity
  8
1
  6
Continuous
 62
     2
100
AcDbLine
 10
170.0966066155339
 20
229.8142307952435
 30
0.0
 11
168.3285160914758
 21
229.8142307952435
 31
0.0
  0
LINE
  5
89
330
39
100
AcDbEntity
  8
1
  6
Continuous
 62
     2
100
AcDbLine
 10
170.3074797973023
 20
230.8142307952435
 30
0.0
 11
167.9716537838677
 21
230.8142307952435
 31
0.0
  0
LINE
  5
8A
330
39
100
AcDbEntity
  8
1
  6
Continuous
 62
     2
100
AcDbLine
 10
170.4210268951776
 20
231.8142307952435
 30
0.0
 11
167.7770016160815
 21
231.8142307952435
 31
0.0
  0
LINE
  5
8B
330
39
100
AcDbEntity
  8
1
  6
Continuous
 62
     2
100
AcDbLine
 10
170.6109533036299
 20
232.8142307952435
 30
0.0
 11
167.6109533036299
 21
232.8142307952435
 31
0.0
  0
LINE
  5
8C
330
39
100
AcDbEntity
  8
1
  6
Continuous
 62
     7
100
AcDbLine
 10
167.6109533036299
 20
234.8142307952435
 30
0.0
 11
167.6109533036299
 21
220.8142307952435
 31
0.0
  0
LINE
  5
8D
330
39
100
AcDbEntity
  8
1
  6
Continuous
 62
     7
100
AcDbLine
 10
170.6109533036299
 20
233.8142307952435
 30
0.0
 11
170.6109533036299
 21
232.8142307952435
 31
0.0
  0
LINE
  5
8E
330
39
100
AcDbEntity
  8
1
  6
Continuous
 62
     2
100
AcDbLine
 10
170.6109533036299
 20
233.8142307952435
 30
0.0
 11
167.6109533036299
 21
233.8142307952435
 31
0.0
  0
LINE
  5
8F
330
39
100
AcDbEntity
  8
1
  6
Continuous
 62
     7
100
AcDbLine
 10
170.6109533036299
 20
234.8142307952435
 30
0.0
 11
170.6109533036299
 21
233.8142307952435
 31
0.0
  0
LINE
  5
90
330
39
100
AcDbEntity
  8
1
  6
Continuous
 62
     7
100
AcDbLine
 10
170.6109533036299
 20
234.8142307952435
 30
0.0
 11
170.8802755026531
 21
233.8142307952435
 31
0.0
  0
LINE
  5
91
330
39
100
AcDbEntity
  8
1
  6
Continuous
 62
     7
100
AcDbLine
 10
167.6109533036299
 20
234.8142307952435
 30
0.0
 11
170.6109533036299
 21
234.8142307952435
 31
0.0
  0
LINE
  5
92
330
39
100
AcDbEntity
  8
1
  6
Continuous
 62
     7
100
AcDbLine
 10
170.6109533036299
 20
220.8142307952435
 30
0.0
 11
167.6109533036299
 21
220.8142307952435
 31
0.0
  0
LINE
  5
93
330
39
100
AcDbEntity
  8
1
  6
Continuous
 62
     7
100
AcDbLine
 10
170.8802755026531
 20
221.8142307952435
 30
0.0
 11
170.6109533036299
 21
220.8142307952435
 31
0.0
  0
LINE
  5
94
330
39
100
AcDbEntity
  8
1
  6
Continuous
 62
     7
100
AcDbLine
 10
170.6109533036299
 20
221.8142307952435
 30
0.0
 11
170.6109533036299
 21
220.8142307952435
 31
0.0
  0
LINE
  5
95
330
39
100
AcDbEntity
  8
1
  6
Continuous
 62
     2
100
AcDbLine
 10
167.6109533036299
 20
221.8142307952435
 30
0.0
 11
170.6109533036299
 21
221.8142307952435
 31
0.0
  0
LINE
  5
96
330
39
100
AcDbEntity
  8
1
  6
Continuous
 62
     7
100
AcDbLine
 10
170.6109533036299
 20
222.8142307952435
 30
0.0
 11
170.6109533036299
 21
221.8142307952435
 31
0.0
  0
LINE
  5
97
330
39
100
AcDbEntity
  8
1
  6
Continuous
 62
     2
100
AcDbLine
 10
167.6109533036299
 20
222.8142307952435
 30
0.0
 11
170.6109533036299
 21
222.8142307952435
 31
0.0
  0
LINE
  5
98
330
39
100
AcDbEntity
  8
1
  6
Continuous
 62
     2
100
AcDbLine
 10
167.7770016160815
 20
223.8142307952435
 30
0.0
 11
170.4210268951776
 21
223.8142307952435
 31
0.0
  0
LINE
  5
99
330
39
100
AcDbEntity
  8
1
  6
Continuous
 62
     2
100
AcDbLine
 10
167.9716537838677
 20
224.8142307952435
 30
0.0
 11
170.3074797973023
 21
224.8142307952435
 31
0.0
  0
LINE
  5
9A
330
39
100
AcDbEntity
  8
1
  6
Continuous
 62
     2
100
AcDbLine
 10
168.3285160914758
 20
225.8142307952435
 30
0.0
 11
170.0966066155339
 21
225.8142307952435
 31
0.0
  0
LINE
  5
9B
330
39
100
AcDbEntity
  8
1
  6
Continuous
 62
     2
100
AcDbLine
 10
168.5880523151907
 20
226.8142307952435
 30
0.0
 11
169.8532914058011
 21
226.8142307952435
 31
0.0
  0
LINE
  5
9C
330
39
100
AcDbEntity
  8
1
  6
Continuous
 62
     7
100
AcDbLine
 10
170.9407190238336
 20
227.8142307952435
 30
0.0
 11
170.9407190238336
 21
222.0642307952435
 31
0.0
  0
LINE
  5
9D
330
39
100
AcDbEntity
  8
1
  6
Continuous
 62
     2
100
AcDbLine
 10
168.569390839415
 20
562.1559361776152
 30
0.0
 11
169.8346299300255
 21
562.1559361776152
 31
0.0
  0
LINE
  5
9E
330
39
100
AcDbEntity
  8
1
  6
Continuous
 62
     2
100
AcDbLine
 10
168.3098546157
 20
561.1559361776149
 30
0.0
 11
170.0779451397582
 21
561.1559361776149
 31
0.0
  0
LINE
  5
9F
330
39
100
AcDbEntity
  8
1
  6
Continuous
 62
     2
100
AcDbLine
 10
167.952992308092
 20
560.1559361776152
 30
0.0
 11
170.2888183215266
 21
560.1559361776152
 31
0.0
  0
LINE
  5
A0
330
39
100
AcDbEntity
  8
1
  6
Continuous
 62
     2
100
AcDbLine
 10
167.7583401403058
 20
559.1559361776152
 30
0.0
 11
170.4023654194019
 21
559.1559361776152
 31
0.0
  0
LINE
  5
A1
330
39
100
AcDbEntity
  8
1
  6
Continuous
 62
     2
100
AcDbLine
 10
167.5922918278542
 20
558.1559361776152
 30
0.0
 11
170.5922918278542
 21
558.155936177615
 31
0.0
  0
LINE
  5
A2
330
39
100
AcDbEntity
  8
1
  6
Continuous
 62
     2
100
AcDbLine
 10
167.5922918278542
 20
557.155936177615
 30
0.0
 11
170.5922918278542
 21
557.155936177615
 31
0.0
  0
LINE
  5
A3
330
39
100
AcDbEntity
  8
1
  6
Continuous
 62
     7
100
AcDbLine
 10
170.8616140268774
 20
557.1559361776152
 30
0.0
 11
170.5922918278542
 21
556.155936177615
 31
0.0
  0
LINE
  5
A4
330
39
100
AcDbEntity
  8
1
  6
Continuous
 62
     7
100
AcDbLine
 10
170.5922918278542
 20
556.155936177615
 30
0.0
 11
167.5922918278542
 21
556.155936177615
 31
0.0
  0
LINE
  5
A5
330
39
100
AcDbEntity
  8
1
  6
Continuous
 62
     7
100
AcDbLine
 10
167.5922918278542
 20
570.155936177615
 30
0.0
 11
170.5922918278542
 21
570.155936177615
 31
0.0
  0
LINE
  5
A6
330
39
100
AcDbEntity
  8
1
  6
Continuous
 62
     7
100
AcDbLine
 10
170.5922918278542
 20
570.155936177615
 30
0.0
 11
170.8616140268774
 21
569.1559361776152
 31
0.0
  0
LINE
  5
A7
330
39
100
AcDbEntity
  8
1
  6
Continuous
 62
     2
100
AcDbLine
 10
170.5922918278542
 20
569.155936177615
 30
0.0
 11
167.5922918278542
 21
569.155936177615
 31
0.0
  0
LINE
  5
A8
330
39
100
AcDbEntity
  8
1
  6
Continuous
 62
     7
100
AcDbLine
 10
167.5922918278542
 20
570.155936177615
 30
0.0
 11
167.5922918278542
 21
556.155936177615
 31
0.0
  0
LINE
  5
A9
330
39
100
AcDbEntity
  8
1
  6
Continuous
 62
     2
100
AcDbLine
 10
170.5922918278542
 20
568.155936177615
 30
0.0
 11
167.5922918278542
 21
568.155936177615
 31
0.0
  0
LINE
  5
AA
330
39
100
AcDbEntity
  8
1
  6
Continuous
 62
     2
100
AcDbLine
 10
170.4023654194019
 20
567.155936177615
 30
0.0
 11
167.7583401403058
 21
567.155936177615
 31
0.0
  0
LINE
  5
AB
330
39
100
AcDbEntity
  8
1
  6
Continuous
 62
     2
100
AcDbLine
 10
170.2888183215266
 20
566.155936177615
 30
0.0
 11
167.952992308092
 21
566.155936177615
 31
0.0
  0
LINE
  5
AC
330
39
100
AcDbEntity
  8
1
  6
Continuous
 62
     2
100
AcDbLine
 10
170.0779451397582
 20
565.155936177615
 30
0.0
 11
168.3098546157
 21
565.155936177615
 31
0.0
  0
LINE
  5
AD
330
39
100
AcDbEntity
  8
1
  6
Continuous
 62
     2
100
AcDbLine
 10
169.8346299300255
 20
564.155936177615
 30
0.0
 11
168.569390839415
 21
564.155936177615
 31
0.0
  0
LINE
  5
AE
330
39
100
AcDbEntity
  8
1
  6
Continuous
 62
     7
100
AcDbLine
 10
170.922057548058
 20
568.905936177615
 30
0.0
 11
170.922057548058
 21
557.4059361776152
 31
0.0
  0
LINE
  5
AF
330
39
100
AcDbEntity
  8
1
  6
Continuous
 62
     7
100
AcDbLine
 10
170.5922918278542
 20
570.155936177615
 30
0.0
 11
170.5922918278542
 21
556.155936177615
 31
0.0
  0
ARC
  5
B0
330
39
100
AcDbEntity
  8
1
  6
Continuous
 62
     7
100
AcDbCircle
 10
146.6109533036299
 20
227.8142307952434
 30
0.0
 40
25.0
100
AcDbArc
 50
0.00000000000026
 51
13.29707174720908
  0
ARC
  5
B1
330
39
100
AcDbEntity
  8
1
  6
Continuous
 62
     7
100
AcDbCircle
 10
146.6109533036299
 20
227.8142307952434
 30
0.0
 40
24.99999999999996
100
AcDbArc
 50
13.29707174720908
 51
13.88654036262925
  0
ARC
  5
B2
330
39
100
AcDbEntity
  8
1
  6
Continuous
 62
     7
100
AcDbCircle
 10
146.6109533036299
 20
227.8142307952434
 30
0.0
 40
24.99999999999996
100
AcDbArc
 50
-13.88654036262875
 51
-13.29707174720883
  0
ARC
  5
B3
330
39
100
AcDbEntity
  8
1
  6
Continuous
 62
     7
100
AcDbCircle
 10
146.6109533036299
 20
227.8142307952434
 30
0.0
 40
24.99999999999994
100
AcDbArc
 50
-13.29707174720883
 51
0.00000000000026
  0
ARC
  5
B4
330
39
100
AcDbEntity
  8
1
  6
Continuous
 62
     7
100
AcDbCircle
 10
146.5922918278542
 20
563.155936177615
 30
0.0
 40
24.99999999999993
100
AcDbArc
 50
-13.88654036262849
 51
0.0
  0
ARC
  5
B5
330
39
100
AcDbEntity
  8
1
  6
Continuous
 62
     7
100
AcDbCircle
 10
146.5922918278542
 20
563.155936177615
 30
0.0
 40
25.0
100
AcDbArc
 50
0.0
 51
13.88654036262951
  0
CIRCLE
  5
B6
330
39
100
AcDbEntity
  8
0
  6
Continuous
 62
     7
100
AcDbCircle
 10
406.2549551811793
 20
227.8142307952433
 30
0.0
 40
5.749999999999318
  0
CIRCLE
  5
B7
330
39
100
AcDbEntity
  8
0
  6
Continuous
 62
     7
100
AcDbCircle
 10
406.2549551811793
 20
227.8142307952433
 30
0.0
 40
6.999999999999801
  0
ENDBLK
  5
3B
330
39
100
AcDbEntity
  8
0
100
AcDbBlockEnd
  0
BLOCK
  5
3E
330
3C
100
AcDbEntity
  8
0
100
AcDbBlockBegin
  2
R20F
 70
     0
 71
     0
 10
178.2131728880876
 20
209.3894565073178
 30
0.0
  3
R20F
  1

  0
INSERT
  5
3D
330
3C
100
AcDbEntity
  8
0
100
AcDbBlockReference
  2
42-1
 10
-14.17501590771468
 20
315.918490881847
 30
0.0
  0
LINE
  5
B8
330
3C
100
AcDbEntity
  8
1
  6
DASH_CENTER
 62
     2
100
AcDbLine
 10
151.6146331018701
 20
227.8142307952435
 30
0.0
 11
172.5442568942259
 21
227.8142307952435
 31
0.0
  0
ENDBLK
  5
3F
330
3C
100
AcDbEntity
  8
0
100
AcDbBlockEnd
  0
BLOCK
  5
41
330
40
100
AcDbEntity
  8
0
100
AcDbBlockBegin
  2
37-1-13
 70
     0
 71
     0
 10
6.61892721172561
 20
319.6154610120145
 30
0.0
  3
37-1-13
  1

  0
LINE
  5
B9
330
40
100
AcDbEntity
  8
1
  6
Continuous
 62
     7
100
AcDbLine
 10
146.1146331018701
 20
227.8142307952434
 30
0.0
 11
146.1146331018702
 21
215.3142307952437
 31
0.0
  0
LINE
  5
BA
330
40
100
AcDbEntity
  8
1
  6
Continuous
 62
     7
100
AcDbLine
 10
146.1146331018702
 20
240.3142307952433
 30
0.0
 11
146.1146331018701
 21
227.8142307952434
 31
0.0
  0
LINE
  5
BB
330
40
100
AcDbEntity
  8
1
  6
Continuous
 62
     7
100
AcDbLine
 10
138.6146331018701
 20
214.7435165809721
 30
0.0
 11
138.6146331018701
 21
240.884945009515
 31
0.0
  0
LINE
  5
BC
330
40
100
AcDbEntity
  8
1
  6
Continuous
 62
     7
100
AcDbLine
 10
152.6146331018701
 20
221.8142307952435
 30
0.0
 11
152.6146331018701
 21
233.8142307952434
 31
0.0
  0
LINE
  5
BD
330
40
100
AcDbEntity
  8
1
  6
Continuous
 62
     7
100
AcDbLine
 10
146.1146331018701
 20
563.1559361776149
 30
0.0
 11
146.1146331018701
 21
550.6559361776151
 31
0.0
  0
LINE
  5
BE
330
40
100
AcDbEntity
  8
1
  6
Continuous
 62
     7
100
AcDbLine
 10
138.6146331018701
 20
550.1559361776149
 30
0.0
 11
138.6146331018701
 21
563.1559361776149
 31
0.0
  0
LINE
  5
BF
330
40
100
AcDbEntity
  8
1
  6
Continuous
 62
     7
100
AcDbLine
 10
152.6146331018701
 20
557.1559361776149
 30
0.0
 11
152.6146331018701
 21
563.1559361776149
 31
0.0
  0
LINE
  5
C0
330
40
100
AcDbEntity
  8
1
  6
Continuous
 62
     7
100
AcDbLine
 10
138.6146331018701
 20
550.1559361776149
 30
0.0
 11
145.6853473161415
 21
550.1559361776149
 31
0.0
  0
LINE
  5
C1
330
40
100
AcDbEntity
  8
1
  6
Continuous
 62
     7
100
AcDbLine
 10
146.1146331018701
 20
575.6559361776147
 30
0.0
 11
146.1146331018701
 21
563.1559361776149
 31
0.0
  0
LINE
  5
C2
330
40
100
AcDbEntity
  8
1
  6
Continuous
 62
     7
100
AcDbLine
 10
138.6146331018701
 20
563.1559361776149
 30
0.0
 11
138.6146331018701
 21
576.1559361776149
 31
0.0
  0
LINE
  5
C3
330
40
100
AcDbEntity
  8
1
  6
Continuous
 62
     7
100
AcDbLine
 10
152.6146331018701
 20
563.1559361776149
 30
0.0
 11
152.6146331018701
 21
569.1559361776149
 31
0.0
  0
LINE
  5
C4
330
40
100
AcDbEntity
  8
1
  6
Continuous
 62
     7
100
AcDbLine
 10
145.6853473161416
 20
576.1559361776149
 30
0.0
 11
138.6146331018701
 21
576.1559361776149
 31
0.0
  0
ARC
  5
C5
330
40
100
AcDbEntity
  8
1
  6
Continuous
 62
     7
100
AcDbCircle
 10
166.0210883069851
 20
201.9077755901286
 30
0.0
 40
24.00000000000001
100
AcDbArc
 50
123.9591925000977
 51
146.0408074999021
  0
ARC
  5
C6
330
40
100
AcDbEntity
  8
1
  6
Continuous
 62
     7
100
AcDbCircle
 10
142.1146331018701
 20
218.3142307952435
 30
0.0
 40
4.999999999999975
100
AcDbArc
 50
-134.427004000806
 51
-36.86989764584161
  0
ARC
  5
C7
330
40
100
AcDbEntity
  8
1
  6
Continuous
 62
     7
100
AcDbCircle
 10
166.021088306985
 20
253.7206860003584
 30
0.0
 40
24.0
100
AcDbArc
 50
-146.040807499902
 51
-123.9591925000973
  0
ARC
  5
C8
330
40
100
AcDbEntity
  8
1
  6
Continuous
 62
     7
100
AcDbCircle
 10
142.1146331018701
 20
237.3142307952434
 30
0.0
 40
5.000000000000017
100
AcDbArc
 50
36.86989764584266
 51
134.4270040008042
  0
ARC
  5
C9
330
40
100
AcDbEntity
  8
1
  6
Continuous
 62
     7
100
AcDbCircle
 10
166.021088306985
 20
537.2494809725001
 30
0.0
 40
23.99999999999984
100
AcDbArc
 50
123.9591925000977
 51
146.0408074999024
  0
ARC
  5
CA
330
40
100
AcDbEntity
  8
1
  6
Continuous
 62
     7
100
AcDbCircle
 10
142.1146331018701
 20
553.6559361776149
 30
0.0
 40
4.999999999999975
100
AcDbArc
 50
-44.42700400080598
 51
-36.86989764584194
  0
ARC
  5
CB
330
40
100
AcDbEntity
  8
1
  6
Continuous
 62
     7
100
AcDbCircle
 10
166.021088306985
 20
589.0623913827297
 30
0.0
 40
24.00000000000008
100
AcDbArc
 50
-146.0408074999021
 51
-123.9591925000975
  0
ARC
  5
CC
330
40
100
AcDbEntity
  8
1
  6
Continuous
 62
     7
100
AcDbCircle
 10
142.1146331018701
 20
572.6559361776149
 30
0.0
 40
4.999999999999863
100
AcDbArc
 50
36.86989764584194
 51
44.4270040008053
  0
SPLINE
  5
CD
330
40
100
AcDbEntity
  8
1
  6
Continuous
 62
     7
100
AcDbSpline
210
0.0
220
0.0
230
1.0
 70
    11
 71
     3
 72
    79
 73
    75
 74
    73
 42
0.0000000001
 43
0.0000000001
 44
0.00000001
 40
0.0
 40
0.0
 40
0.0
 40
0.0
 40
0.3171598656884817
 40
0.6340856861075652
 40
0.9694901489363428
 40
1.304562820901369
 40
1.666124796939113
 40
2.027385866504977
 40
2.418724079015814
 40
2.809836934323388
 40
3.230628787512795
 40
3.651266058867586
 40
4.098016897819022
 40
4.544667758504509
 40
5.011536287768474
 40
5.478345522146775
 40
5.957894801975041
 40
6.437416541840483
 40
6.921284920564628
 40
7.405153299288774
 40
7.884675039154216
 40
8.364224318982481
 40
8.831033553360788
 40
9.297902082624768
 40
9.744552943310373
 40
10.19130378226167
 40
10.61194105361667
 40
11.03273290680575
 40
11.42384576211334
 40
11.81518397462427
 40
12.17644504419023
 40
12.53800702022803
 40
12.87307969219293
 40
13.2084841550217
 40
13.52540997544072
 40
13.84256984112928
 40
14.15305257372695
 40
14.46353530632468
 40
14.78069517201321
 40
15.09762099243223
 40
15.43302545526094
 40
15.76809812722592
 40
16.12966010326374
 40
16.4909211728297
 40
16.88225938534052
 40
17.273372240648
 40
17.69416409383738
 40
18.11480136519227
 40
18.5615522041437
 40
19.0082030648291
 40
19.47507159409307
 40
19.94188082847137
 40
20.42143010829975
 40
20.9009518481653
 40
21.38482022688934
 40
21.86868860561348
 40
22.34821034547904
 40
22.82775962530742
 40
23.29456885968549
 40
23.76143738894937
 40
24.20808824963487
 40
24.65483908858638
 40
25.07547635994125
 40
25.49626821313063
 40
25.88738106843805
 40
26.27871928094895
 40
26.63998035051476
 40
27.00154232655257
 40
27.33661499851768
 40
27.67201946134638
 40
27.9889452817654
 40
28.30610514745394
 40
28.61658788005163
 40
28.92707061264931
 40
28.92707061264931
 40
28.92707061264931
 40
28.92707061264931
 10
141.8402649970953
 20
551.1154626519283
 30
0.0
 10
141.7360166075964
 20
551.134040583037
 30
0.0
 10
141.5275967577596
 20
551.1711827358375
 30
0.0
 10
141.2225594539832
 20
551.2820378088002
 30
0.0
 10
140.9274078088204
 20
551.4290581180081
 30
0.0
 10
140.6397181826871
 20
551.6191292271288
 30
0.0
 10
140.3674793557011
 20
551.8442571748686
 30
0.0
 10
140.106070580208
 20
552.1088414314847
 30
0.0
 10
139.8638830150003
 20
552.4039378565396
 30
0.0
 10
139.6362560398818
 20
552.7346802123507
 30
0.0
 10
139.4305640939878
 20
553.0908062130876
 30
0.0
 10
139.2431827938365
 20
553.477535060646
 30
0.0
 10
139.079729195536
 20
553.8842717423866
 30
0.0
 10
138.9379305622348
 20
554.3152572706763
 30
0.0
 10
138.8214936383724
 20
554.7606891309383
 30
0.0
 10
138.7293095471463
 20
555.2229221182714
 30
0.0
 10
138.6634283087337
 20
555.6938900405025
 30
0.0
 10
138.6234346582187
 20
556.1734514036945
 30
0.0
 10
138.6102124681952
 20
556.6559361776124
 30
0.0
 10
138.6234346582176
 20
557.1384209515453
 30
0.0
 10
138.6634283087385
 20
557.6179823146927
 30
0.0
 10
138.7293095471285
 20
558.0889502370853
 30
0.0
 10
138.8214936384368
 20
558.5511832238321
 30
0.0
 10
138.9379305619987
 20
558.9966150862379
 30
0.0
 10
139.0797291963752
 20
559.4276006068591
 30
0.0
 10
139.2431827907771
 20
559.8343373164031
 30
0.0
 10
139.4305641046682
 20
560.221066065972
 30
0.0
 10
139.6362560011151
 20
560.5771924193499
 30
0.0
 10
139.8638831484172
 20
560.9079335472075
 30
0.0
 10
140.1060700969647
 20
561.2030343700673
 30
0.0
 10
140.367481006421
 20
561.4676034080037
 30
0.0
 10
140.6397121912122
 20
561.6927858572076
 30
0.0
 10
140.927428365405
 20
561.8826676348371
 30
0.0
 10
141.2224842471428
 20
562.0303708953618
 30
0.0
 10
141.5278603955994
 20
562.138809446348
 30
0.0
 10
141.8370924495369
 20
562.2029920353483
 30
0.0
 10
142.1499902090058
 20
562.2255512637635
 30
0.0
 10
142.4628879684748
 20
562.2029920353483
 30
0.0
 10
142.7721200224123
 20
562.1388094463481
 30
0.0
 10
143.0774961708688
 20
562.0303708953618
 30
0.0
 10
143.3725520526068
 20
561.8826676348373
 30
0.0
 10
143.6602682267994
 20
561.6927858572076
 30
0.0
 10
143.9324994115908
 20
561.4676034080037
 30
0.0
 10
144.1939103210469
 20
561.2030343700673
 30
0.0
 10
144.4360972695945
 20
560.9079335472077
 30
0.0
 10
144.6637244168967
 20
560.57719241935
 30
0.0
 10
144.8694163133433
 20
560.221066065972
 30
0.0
 10
145.0567976272346
 20
559.834337316403
 30
0.0
 10
145.2202512216364
 20
559.4276006068592
 30
0.0
 10
145.3620498560131
 20
558.9966150862377
 30
0.0
 10
145.478486779575
 20
558.5511832238324
 30
0.0
 10
145.5706708708832
 20
558.0889502370851
 30
0.0
 10
145.6365521092731
 20
557.617982314693
 30
0.0
 10
145.6765457597942
 20
557.1384209515446
 30
0.0
 10
145.6897679498161
 20
556.6559361776147
 30
0.0
 10
145.6765457597943
 20
556.1734514036857
 30
0.0
 10
145.6365521092727
 20
555.6938900405343
 30
0.0
 10
145.5706708708845
 20
555.2229221181535
 30
0.0
 10
145.4784867795703
 20
554.7606891313649
 30
0.0
 10
145.3620498560298
 20
554.3152572691117
 30
0.0
 10
145.2202512215768
 20
553.884271747946
 30
0.0
 10
145.056797627452
 20
553.4775350403763
 30
0.0
 10
144.8694163125847
 20
553.0908062838477
 30
0.0
 10
144.6637244196503
 20
552.7346799555169
 30
0.0
 10
144.436097260118
 20
552.40393874044
 30
0.0
 10
144.193910355371
 20
552.1088382299488
 30
0.0
 10
143.9324992943429
 20
551.8442681110563
 30
0.0
 10
143.6602686523634
 20
551.6190895329967
 30
0.0
 10
143.3725505925083
 20
551.4291943074798
 30
0.0
 10
143.0775015126801
 20
551.2815395558014
 30
0.0
 10
142.7721012966742
 20
551.1729293634544
 30
0.0
 10
142.4629574211363
 20
551.109375632019
 30
0.0
 10
142.1497370476272
 20
551.0845156328865
 30
0.0
 10
141.9434223472726
 20
551.1051469789144
 30
0.0
 10
141.8402649970953
 20
551.1154626519283
 30
0.0
 11
141.8402649970953
 21
551.1154626519283
 31
0.0
 11
141.5297497593112
 21
551.1800433573086
 31
0.0
 11
141.2307939436142
 21
551.285245048879
 31
0.0
 11
140.9306909567835
 21
551.4350260589596
 31
0.0
 11
140.6505542313987
 21
551.6188659637367
 31
0.0
 11
140.3715102729284
 21
551.848782321914
 31
0.0
 11
140.1170929959158
 21
552.1052611895452
 31
0.0
 11
139.8682543438251
 21
552.4072958262955
 31
0.0
 11
139.6460709357982
 21
552.7291712661544
 31
0.0
 11
139.4350462854473
 21
553.0932239830167
 31
0.0
 11
139.2512797019064
 21
553.4715962293913
 31
0.0
 11
139.084217659493
 21
553.8859349629034
 31
0.0
 11
138.9443814187665
 21
554.3101316356044
 31
0.0
 11
138.8259533495823
 21
554.7617299261751
 31
0.0
 11
138.7345214538853
 21
555.2194974105491
 31
0.0
 11
138.6678599049786
 21
555.6943908193065
 31
0.0
 11
138.627989973945
 21
556.1722521879093
 31
0.0
 11
138.6146331018701
 21
556.6559361776149
 31
0.0
 11
138.627989973945
 21
557.1396201673205
 31
0.0
 11
138.6678599049786
 21
557.6174815359233
 31
0.0
 11
138.7345214538853
 21
558.0923749446806
 31
0.0
 11
138.8259533495823
 21
558.5501424290546
 31
0.0
 11
138.9443814187666
 21
559.0017407196253
 31
0.0
 11
139.0842176594931
 21
559.4259373923264
 31
0.0
 11
139.2512797019064
 21
559.8402761258385
 31
0.0
 11
139.4350462854473
 21
560.2186483722132
 31
0.0
 11
139.6460709357981
 21
560.5827010890753
 31
0.0
 11
139.8682543438251
 21
560.9045765289342
 31
0.0
 11
140.1170929959158
 21
561.2066111656845
 31
0.0
 11
140.3715102729284
 21
561.4630900333159
 31
0.0
 11
140.6505542313987
 21
561.6930063914933
 31
0.0
 11
140.9306909567835
 21
561.8768462962702
 31
0.0
 11
141.2307939436142
 21
562.0266273063508
 31
0.0
 11
141.5297497593112
 21
562.1318289979211
 31
0.0
 11
141.8402649970953
 21
562.1964097033016
 31
0.0
 11
142.1499902090058
 21
562.2180850429368
 31
0.0
 11
142.4597154209164
 21
562.1964097033015
 31
0.0
 11
142.7702306587005
 21
562.1318289979211
 31
0.0
 11
143.0691864743974
 21
562.0266273063508
 31
0.0
 11
143.3692894612281
 21
561.8768462962703
 31
0.0
 11
143.649426186613
 21
561.6930063914933
 31
0.0
 11
143.9284701450833
 21
561.4630900333159
 31
0.0
 11
144.1828874220959
 21
561.2066111656845
 31
0.0
 11
144.4317260741865
 21
560.9045765289343
 31
0.0
 11
144.6539094822135
 21
560.5827010890755
 31
0.0
 11
144.8649341325643
 21
560.2186483722131
 31
0.0
 11
145.0487007161053
 21
559.8402761258385
 31
0.0
 11
145.2157627585186
 21
559.4259373923263
 31
0.0
 11
145.3555989992451
 21
559.0017407196255
 31
0.0
 11
145.4740270684294
 21
558.5501424290547
 31
0.0
 11
145.5654589641264
 21
558.0923749446807
 31
0.0
 11
145.6321205130331
 21
557.6174815359233
 31
0.0
 11
145.6719904440667
 21
557.1396201673203
 31
0.0
 11
145.6853473161416
 21
556.6559361776149
 31
0.0
 11
145.6719904440667
 21
556.1722521879093
 31
0.0
 11
145.632120513033
 21
555.6943908193064
 31
0.0
 11
145.5654589641264
 21
555.2194974105489
 31
0.0
 11
145.4740270684294
 21
554.7617299261751
 31
0.0
 11
145.3555989992451
 21
554.3101316356045
 31
0.0
 11
145.2157627585186
 21
553.8859349629036
 31
0.0
 11
145.0487007161053
 21
553.4715962293913
 31
0.0
 11
144.8649341325644
 21
553.0932239830166
 31
0.0
 11
144.6539094822136
 21
552.7291712661543
 31
0.0
 11
144.4317260741865
 21
552.4072958262956
 31
0.0
 11
144.1828874220959
 21
552.1052611895452
 31
0.0
 11
143.9284701450833
 21
551.8487823219141
 31
0.0
 11
143.649426186613
 21
551.6188659637367
 31
0.0
 11
143.3692894612281
 21
551.4350260589595
 31
0.0
 11
143.0691864743974
 21
551.285245048879
 31
0.0
 11
142.7702306587005
 21
551.1800433573087
 31
0.0
 11
142.4597154209164
 21
551.1154626519283
 31
0.0
 11
142.1499902090058
 21
551.0937873122932
 31
0.0
 11
141.8402649970953
 21
551.1154626519283
 31
0.0
  0
SPLINE
  5
CE
330
40
100
AcDbEntity
  8
1
  6
Continuous
 62
     7
100
AcDbSpline
210
0.0
220
0.0
230
1.0
 70
    11
 71
     3
 72
    79
 73
    75
 74
    73
 42
0.0000000001
 43
0.0000000001
 44
0.00000001
 40
0.0
 40
0.0
 40
0.0
 40
0.0
 40
0.3171598656885049
 40
0.6340856861075508
 40
0.9694901489363283
 40
1.304562820901293
 40
1.666124796939109
 40
2.027385866504972
 40
2.418724079015897
 40
2.809836934323471
 40
3.230628787512779
 40
3.651266058867571
 40
4.098016897818901
 40
4.544667758504497
 40
5.011536287768572
 40
5.478345522146761
 40
5.957894801975026
 40
6.437416541840581
 40
6.921284920564613
 40
7.405153299288759
 40
7.8846750391542
 40
8.364224318982465
 40
8.83103355336066
 40
9.29790208262475
 40
9.744552943310247
 40
10.19130378226176
 40
10.61194105361665
 40
11.03273290680593
 40
11.42384576211333
 40
11.81518397462426
 40
12.17644504419022
 40
12.53800702022795
 40
12.87307969219291
 40
13.20848415502169
 40
13.52540997544074
 40
13.8425698411293
 40
14.15305257372696
 40
14.46353530632469
 40
14.78069517201324
 40
15.09762099243226
 40
15.43302545526101
 40
15.768098127226
 40
16.12966010326382
 40
16.4909211728297
 40
16.88225938534061
 40
17.27337224064809
 40
17.69416409383737
 40
18.11480136519226
 40
18.56155220414368
 40
19.00820306482908
 40
19.47507159409306
 40
19.94188082847136
 40
20.42143010829973
 40
20.90095184816518
 40
21.38482022688944
 40
21.86868860561335
 40
22.3482103454788
 40
22.82775962530718
 40
23.29456885968558
 40
23.76143738894946
 40
24.20808824963486
 40
24.65483908858637
 40
25.07547635994123
 40
25.49626821313051
 40
25.88738106843803
 40
26.27871928094893
 40
26.63998035051482
 40
27.00154232655263
 40
27.33661499851768
 40
27.67201946134638
 40
27.9889452817654
 40
28.30610514745394
 40
28.61658788005163
 40
28.92707061264931
 40
28.92707061264931
 40
28.92707061264931
 40
28.92707061264931
 10
141.8402649970953
 20
575.1964097033015
 30
0.0
 10
141.7360166075964
 20
575.1778317721928
 30
0.0
 10
141.5275967577596
 20
575.1406896193921
 30
0.0
 10
141.2225594539832
 20
575.0298345464294
 30
0.0
 10
140.9274078088205
 20
574.8828142372217
 30
0.0
 10
140.639718182687
 20
574.6927431281009
 30
0.0
 10
140.3674793557012
 20
574.4676151803615
 30
0.0
 10
140.106070580208
 20
574.2030309237448
 30
0.0
 10
139.8638830150003
 20
573.90793449869
 30
0.0
 10
139.6362560398818
 20
573.577192142879
 30
0.0
 10
139.4305640939877
 20
573.2210661421423
 30
0.0
 10
139.2431827938365
 20
572.8343372945835
 30
0.0
 10
139.079729195536
 20
572.4276006128433
 30
0.0
 10
138.9379305622347
 20
571.9966150845535
 30
0.0
 10
138.8214936383724
 20
571.5511832242914
 30
0.0
 10
138.7293095471462
 20
571.0889502369583
 30
0.0
 10
138.6634283087337
 20
570.6179823147273
 30
0.0
 10
138.6234346582187
 20
570.1384209515353
 30
0.0
 10
138.6102124681952
 20
569.6559361776174
 30
0.0
 10
138.6234346582175
 20
569.1734514036843
 30
0.0
 10
138.6634283087385
 20
568.6938900405369
 30
0.0
 10
138.7293095471285
 20
568.2229221181447
 30
0.0
 10
138.8214936384368
 20
567.7606891313976
 30
0.0
 10
138.9379305619986
 20
567.3152572689919
 30
0.0
 10
139.0797291963753
 20
566.8842717483707
 30
0.0
 10
139.243182790777
 20
566.4775350388266
 30
0.0
 10
139.4305641046684
 20
566.0908062892579
 30
0.0
 10
139.6362560011149
 20
565.7346799358795
 30
0.0
 10
139.8638831484173
 20
565.4039388080223
 30
0.0
 10
140.1060700969648
 20
565.1088379851625
 30
0.0
 10
140.3674810064209
 20
564.8442689472261
 30
0.0
 10
140.6397121912123
 20
564.6190864980222
 30
0.0
 10
140.9274283654049
 20
564.4292047203928
 30
0.0
 10
141.2224842471428
 20
564.2815014598679
 30
0.0
 10
141.5278603955994
 20
564.1730629088818
 30
0.0
 10
141.8370924495369
 20
564.1088803198811
 30
0.0
 10
142.1499902090058
 20
564.0863210914663
 30
0.0
 10
142.4628879684747
 20
564.1088803198812
 30
0.0
 10
142.7721200224123
 20
564.173062908882
 30
0.0
 10
143.0774961708688
 20
564.2815014598676
 30
0.0
 10
143.3725520526067
 20
564.4292047203928
 30
0.0
 10
143.6602682267995
 20
564.6190864980223
 30
0.0
 10
143.9324994115907
 20
564.8442689472263
 30
0.0
 10
144.193910321047
 20
565.1088379851626
 30
0.0
 10
144.4360972695944
 20
565.4039388080221
 30
0.0
 10
144.6637244168967
 20
565.73467993588
 30
0.0
 10
144.8694163133433
 20
566.0908062892579
 30
0.0
 10
145.0567976272346
 20
566.4775350388266
 30
0.0
 10
145.2202512216364
 20
566.8842717483707
 30
0.0
 10
145.3620498560131
 20
567.3152572689919
 30
0.0
 10
145.478486779575
 20
567.7606891313976
 30
0.0
 10
145.5706708708832
 20
568.2229221181443
 30
0.0
 10
145.6365521092731
 20
568.6938900405369
 30
0.0
 10
145.6765457597943
 20
569.1734514036851
 30
0.0
 10
145.6897679498161
 20
569.655936177615
 30
0.0
 10
145.6765457597943
 20
570.1384209515438
 30
0.0
 10
145.6365521092728
 20
570.6179823146954
 30
0.0
 10
145.5706708708844
 20
571.088950237076
 30
0.0
 10
145.4784867795704
 20
571.5511832238648
 30
0.0
 10
145.3620498560298
 20
571.9966150861181
 30
0.0
 10
145.2202512215767
 20
572.4276006072842
 30
0.0
 10
145.056797627452
 20
572.8343373148532
 30
0.0
 10
144.8694163125847
 20
573.221066071382
 30
0.0
 10
144.6637244196503
 20
573.5771923997129
 30
0.0
 10
144.4360972601181
 20
573.9079336147896
 30
0.0
 10
144.193910355371
 20
574.2030341252811
 30
0.0
 10
143.932499294343
 20
574.4676042441736
 30
0.0
 10
143.6602686523635
 20
574.6927828222332
 30
0.0
 10
143.3725505925083
 20
574.8826780477501
 30
0.0
 10
143.0775015126801
 20
575.0303327994283
 30
0.0
 10
142.7721012966742
 20
575.1389429917754
 30
0.0
 10
142.4629574211363
 20
575.2024967232106
 30
0.0
 10
142.1497370476272
 20
575.2273567223433
 30
0.0
 10
141.9434223472726
 20
575.2067253763155
 30
0.0
 10
141.8402649970953
 20
575.1964097033015
 30
0.0
 11
141.8402649970953
 21
575.1964097033015
 31
0.0
 11
141.5297497593112
 21
575.1318289979211
 31
0.0
 11
141.2307939436142
 21
575.0266273063508
 31
0.0
 11
140.9306909567835
 21
574.8768462962702
 31
0.0
 11
140.6505542313987
 21
574.6930063914932
 31
0.0
 11
140.3715102729284
 21
574.4630900333158
 31
0.0
 11
140.1170929959158
 21
574.2066111656845
 31
0.0
 11
139.8682543438251
 21
573.9045765289342
 31
0.0
 11
139.6460709357982
 21
573.5827010890753
 31
0.0
 11
139.4350462854473
 21
573.218648372213
 31
0.0
 11
139.2512797019064
 21
572.8402761258385
 31
0.0
 11
139.084217659493
 21
572.4259373923264
 31
0.0
 11
138.9443814187665
 21
572.0017407196253
 31
0.0
 11
138.8259533495823
 21
571.5501424290545
 31
0.0
 11
138.7345214538853
 21
571.0923749446806
 31
0.0
 11
138.6678599049786
 21
570.6174815359233
 31
0.0
 11
138.627989973945
 21
570.1396201673203
 31
0.0
 11
138.6146331018701
 21
569.6559361776149
 31
0.0
 11
138.627989973945
 21
569.1722521879093
 31
0.0
 11
138.6678599049786
 21
568.6943908193065
 31
0.0
 11
138.7345214538853
 21
568.2194974105491
 31
0.0
 11
138.8259533495823
 21
567.7617299261752
 31
0.0
 11
138.9443814187666
 21
567.3101316356044
 31
0.0
 11
139.0842176594931
 21
566.8859349629034
 31
0.0
 11
139.2512797019064
 21
566.4715962293911
 31
0.0
 11
139.4350462854473
 21
566.0932239830165
 31
0.0
 11
139.6460709357981
 21
565.7291712661543
 31
0.0
 11
139.8682543438251
 21
565.4072958262956
 31
0.0
 11
140.1170929959158
 21
565.1052611895452
 31
0.0
 11
140.3715102729284
 21
564.8487823219139
 31
0.0
 11
140.6505542313987
 21
564.6188659637365
 31
0.0
 11
140.9306909567835
 21
564.4350260589596
 31
0.0
 11
141.2307939436142
 21
564.285245048879
 31
0.0
 11
141.5297497593112
 21
564.1800433573086
 31
0.0
 11
141.8402649970953
 21
564.1154626519281
 31
0.0
 11
142.1499902090058
 21
564.093787312293
 31
0.0
 11
142.4597154209164
 21
564.1154626519282
 31
0.0
 11
142.7702306587005
 21
564.1800433573087
 31
0.0
 11
143.0691864743974
 21
564.285245048879
 31
0.0
 11
143.3692894612281
 21
564.4350260589596
 31
0.0
 11
143.649426186613
 21
564.6188659637365
 31
0.0
 11
143.9284701450833
 21
564.848782321914
 31
0.0
 11
144.1828874220959
 21
565.1052611895452
 31
0.0
 11
144.4317260741865
 21
565.4072958262956
 31
0.0
 11
144.6539094822135
 21
565.7291712661544
 31
0.0
 11
144.8649341325643
 21
566.0932239830166
 31
0.0
 11
145.0487007161053
 21
566.4715962293913
 31
0.0
 11
145.2157627585186
 21
566.8859349629034
 31
0.0
 11
145.3555989992451
 21
567.3101316356043
 31
0.0
 11
145.4740270684294
 21
567.761729926175
 31
0.0
 11
145.5654589641264
 21
568.219497410549
 31
0.0
 11
145.6321205130331
 21
568.6943908193065
 31
0.0
 11
145.6719904440667
 21
569.1722521879093
 31
0.0
 11
145.6853473161416
 21
569.655936177615
 31
0.0
 11
145.6719904440667
 21
570.1396201673203
 31
0.0
 11
145.632120513033
 21
570.6174815359232
 31
0.0
 11
145.5654589641264
 21
571.0923749446806
 31
0.0
 11
145.4740270684294
 21
571.5501424290547
 31
0.0
 11
145.3555989992451
 21
572.0017407196253
 31
0.0
 11
145.2157627585186
 21
572.4259373923262
 31
0.0
 11
145.0487007161053
 21
572.8402761258385
 31
0.0
 11
144.8649341325644
 21
573.2186483722131
 31
0.0
 11
144.6539094822136
 21
573.5827010890754
 31
0.0
 11
144.4317260741865
 21
573.9045765289342
 31
0.0
 11
144.1828874220959
 21
574.2066111656845
 31
0.0
 11
143.9284701450833
 21
574.4630900333158
 31
0.0
 11
143.649426186613
 21
574.6930063914932
 31
0.0
 11
143.3692894612281
 21
574.8768462962703
 31
0.0
 11
143.0691864743974
 21
575.0266273063508
 31
0.0
 11
142.7702306587005
 21
575.1318289979211
 31
0.0
 11
142.4597154209164
 21
575.1964097033015
 31
0.0
 11
142.1499902090058
 21
575.2180850429365
 31
0.0
 11
141.8402649970953
 21
575.1964097033015
 31
0.0
  0
SPLINE
  5
CF
330
40
100
AcDbEntity
  8
0
  6
Continuous
 62
     7
100
AcDbSpline
210
0.0
220
0.0
230
1.0
 70
    11
 71
     3
 72
    79
 73
    75
 74
    73
 42
0.0000000001
 43
0.0000000001
 44
0.00000001
 40
0.0
 40
0.0
 40
0.0
 40
0.0
 40
0.2811775426109088
 40
0.5623408931992522
 40
0.8457466631367399
 40
1.129126830422802
 40
1.415908903032366
 40
1.702658539054572
 40
1.99352743294018
 40
2.284362055943288
 40
2.579517800564274
 40
2.874641782101785
 40
3.173769982296645
 40
3.472872122788039
 40
3.775199692337274
 40
4.077508957859524
 40
4.381905225139287
 40
4.68629209140531
 40
4.991400459518937
 40
5.296508827632537
 40
5.600895693898557
 40
5.905291961178319
 40
6.207601226700597
 40
6.509928796249805
 40
6.809030936741212
 40
7.108159136936058
 40
7.403283118473546
 40
7.698438863094571
 40
7.98927348609764
 40
8.280142379983262
 40
8.566892016005429
 40
8.853674088614993
 40
9.137054255901157
 40
9.420460025838636
 40
9.701623376426992
 40
9.982800919037929
 40
10.26319552186807
 40
10.5435901246983
 40
10.82476766730921
 40
11.10593101789756
 40
11.38933678783504
 40
11.67271695512115
 40
11.95949902773066
 40
12.24624866375292
 40
12.5371175576385
 40
12.82795218064159
 40
13.12310792526254
 40
13.41823190680009
 40
13.71736010699494
 40
14.01646224748635
 40
14.3187898170356
 40
14.62109908255786
 40
14.92549534983762
 40
15.22988221610365
 40
15.53499058421727
 40
15.84009895233093
 40
16.14448581859692
 40
16.44888208587669
 40
16.75119135139897
 40
17.05351892094819
 40
17.35262106143956
 40
17.65174926163445
 40
17.94687324317199
 40
18.24202898779297
 40
18.5328636107961
 40
18.82373250468169
 40
19.11048214070391
 40
19.39726421331348
 40
19.68064438059959
 40
19.96405015053706
 40
20.24521350112541
 40
20.52639104373629
 40
20.8067856465666
 40
21.08718024939677
 40
21.08718024939677
 40
21.08718024939677
 40
21.08718024939677
 10
145.6012512229885
 20
238.7924859498434
 30
0.0
 10
145.5898001008987
 20
238.6993898747529
 30
0.0
 10
145.5668984346974
 20
238.5132024234593
 30
0.0
 10
145.4988611436487
 20
238.2389649701532
 30
0.0
 10
145.407239014675
 20
237.9712383028462
 30
0.0
 10
145.2896280268904
 20
237.711677814678
 30
0.0
 10
145.1484097036712
 20
237.4629435223109
 30
0.0
 10
144.9835877329265
 20
237.2261294175204
 30
0.0
 10
144.7975104357617
 20
237.0038710534534
 30
0.0
 10
144.5904855861505
 20
236.7970156663184
 30
0.0
 10
144.3652867884365
 20
236.6079018628051
 30
0.0
 10
144.1224218829069
 20
236.4372534786542
 30
0.0
 10
143.8649532518968
 20
236.2869361614044
 30
0.0
 10
143.5936753546254
 20
236.1576128260438
 30
0.0
 10
143.3117222007179
 20
236.0505798986054
 30
0.0
 10
143.0202850473484
 20
235.9664327609435
 30
0.0
 10
142.7223471038907
 20
235.9058882522356
 30
0.0
 10
142.4195814390903
 20
235.8694010554964
 30
0.0
 10
142.114633101871
 20
235.8571739991453
 30
0.0
 10
141.8096847646461
 20
235.8694010554962
 30
0.0
 10
141.5069190998627
 20
235.9058882522368
 30
0.0
 10
141.2089811563432
 20
235.9664327609389
 30
0.0
 10
140.9175440032025
 20
236.0505798986226
 30
0.0
 10
140.635590848445
 20
236.1576128259798
 30
0.0
 10
140.3643129543138
 20
236.2869361616405
 30
0.0
 10
140.1068443116618
 20
236.437253477778
 30
0.0
 10
139.863979449025
 20
236.6079018660267
 30
0.0
 10
139.638780492448
 20
236.7970156543624
 30
0.0
 10
139.4317562274446
 20
237.0038710973505
 30
0.0
 10
139.2456767652604
 20
237.226129254573
 30
0.0
 10
139.0808627655067
 20
237.462944120906
 30
0.0
 10
138.9396148970928
 20
237.7116755905479
 30
0.0
 10
138.8221129296388
 20
237.9712464944344
 30
0.0
 10
138.7300859822689
 20
238.2389344857047
 30
0.0
 10
138.6635481546488
 20
238.5133151965878
 30
0.0
 10
138.6236453710363
 20
238.7918062080512
 30
0.0
 10
138.610133249707
 20
239.0725610444411
 30
0.0
 10
138.6236453710362
 20
239.353315880831
 30
0.0
 10
138.6635481546488
 20
239.6318068922946
 30
0.0
 10
138.7300859822689
 20
239.9061876031775
 30
0.0
 10
138.8221129296387
 20
240.1738755944478
 30
0.0
 10
138.9396148970928
 20
240.4334464983343
 30
0.0
 10
139.0808627655067
 20
240.6821779679763
 30
0.0
 10
139.2456767652604
 20
240.9189928343092
 30
0.0
 10
139.4317562274445
 20
241.1412509915318
 30
0.0
 10
139.638780492448
 20
241.3481064345199
 30
0.0
 10
139.8639794490249
 20
241.5372202228554
 30
0.0
 10
140.1068443116618
 20
241.7078686111044
 30
0.0
 10
140.3643129543138
 20
241.8581859272417
 30
0.0
 10
140.635590848445
 20
241.9875092629025
 30
0.0
 10
140.9175440032025
 20
242.0945421902596
 30
0.0
 10
141.2089811563432
 20
242.1786893279435
 30
0.0
 10
141.5069190998625
 20
242.2392338366454
 30
0.0
 10
141.8096847646464
 20
242.2757210333864
 30
0.0
 10
142.1146331018701
 20
242.2879480897369
 30
0.0
 10
142.4195814390936
 20
242.2757210333864
 30
0.0
 10
142.7223471038785
 20
242.2392338366454
 30
0.0
 10
143.0202850473935
 20
242.1786893279438
 30
0.0
 10
143.3117222005506
 20
242.0945421902586
 30
0.0
 10
143.5936753552472
 20
241.987509262907
 30
0.0
 10
143.8649532496036
 20
241.858185927225
 30
0.0
 10
144.1224218914209
 20
241.7078686111672
 30
0.0
 10
144.3652867571329
 20
241.5372202226246
 30
0.0
 10
144.5904857023201
 20
241.348106435377
 30
0.0
 10
144.7975100092375
 20
241.1412509883845
 30
0.0
 10
144.9835893161987
 20
240.9189928459918
 30
0.0
 10
145.1484038874393
 20
240.6821779250594
 30
0.0
 10
145.2896496375855
 20
240.4334466577951
 30
0.0
 10
145.4071594213442
 20
240.1738750071451
 30
0.0
 10
145.4991573449178
 20
239.9061897887857
 30
0.0
 10
145.5658026778329
 20
239.6317988069299
 30
0.0
 10
145.6053052637795
 20
239.3533460300421
 30
0.0
 10
145.6203070435969
 20
239.0724488728316
 30
0.0
 10
145.6076031631914
 20
238.8858069241728
 30
0.0
 10
145.6012512229886
 20
238.7924859498434
 30
0.0
 11
145.6012512229885
 21
238.7924859498434
 31
0.0
 11
145.5613134135247
 21
238.5141591961097
 31
0.0
 11
145.4951761943856
 21
238.2408851615608
 31
0.0
 11
145.4030223727198
 21
237.9728804907317
 31
0.0
 11
145.2862923214451
 21
237.7146588527141
 31
0.0
 11
145.1446933832831
 21
237.4652722093636
 31
0.0
 11
144.981015782759
 21
237.2298258315075
 31
0.0
 11
144.7943273091825
 21
237.0067739826833
 31
0.0
 11
144.5886930989117
 21
236.8011059260881
 31
0.0
 11
144.3626989447852
 21
236.6112545213436
 31
0.0
 11
144.121296135663
 21
236.4414815899722
 31
0.0
 11
143.8629970204396
 21
236.2906199075388
 31
0.0
 11
143.5930476090215
 21
236.1618200406073
 31
0.0
 11
143.3104140100272
 21
236.0544878085936
 31
0.0
 11
143.0199884959668
 21
235.9705597870312
 31
0.0
 11
142.7216924573259
 21
235.9099251363356
 31
0.0
 11
142.4194969030837
 21
235.8734667854195
 31
0.0
 11
142.1146331018701
 21
235.8612528997749
 31
0.0
 11
141.8097693006565
 21
235.8734667854195
 31
0.0
 11
141.5075737464143
 21
235.9099251363356
 31
0.0
 11
141.2092777077734
 21
235.9705597870312
 31
0.0
 11
140.918852193713
 21
236.0544878085936
 31
0.0
 11
140.6362185947187
 21
236.1618200406073
 31
0.0
 11
140.3662691833006
 21
236.2906199075388
 31
0.0
 11
140.1079700680772
 21
236.4414815899722
 31
0.0
 11
139.866567258955
 21
236.6112545213436
 31
0.0
 11
139.6405731048286
 21
236.8011059260881
 31
0.0
 11
139.4349388945578
 21
237.0067739826833
 31
0.0
 11
139.2482504209812
 21
237.2298258315075
 31
0.0
 11
139.0845728204571
 21
237.4652722093636
 31
0.0
 11
138.9429738822951
 21
237.714658852714
 31
0.0
 11
138.8262438310204
 21
237.9728804907317
 31
0.0
 11
138.7340900093546
 21
238.2408851615609
 31
0.0
 11
138.6679527902155
 21
238.5141591961097
 31
0.0
 11
138.6280149807516
 21
238.7924859498435
 31
0.0
 11
138.6146331018702
 21
239.0725610444411
 31
0.0
 11
138.6280149807516
 21
239.3526361390388
 31
0.0
 11
138.6679527902155
 21
239.6309628927725
 31
0.0
 11
138.7340900093546
 21
239.9042369273214
 31
0.0
 11
138.8262438310204
 21
240.1722415981506
 31
0.0
 11
138.9429738822951
 21
240.4304632361682
 31
0.0
 11
139.0845728204571
 21
240.6798498795186
 31
0.0
 11
139.2482504209811
 21
240.9152962573748
 31
0.0
 11
139.4349388945577
 21
241.138348106199
 31
0.0
 11
139.6405731048285
 21
241.3440161627942
 31
0.0
 11
139.8665672589549
 21
241.5338675675386
 31
0.0
 11
140.1079700680772
 21
241.70364049891
 31
0.0
 11
140.3662691833006
 21
241.8545021813434
 31
0.0
 11
140.6362185947186
 21
241.983302048275
 31
0.0
 11
140.918852193713
 21
242.0906342802887
 31
0.0
 11
141.2092777077734
 21
242.1745623018511
 31
0.0
 11
141.5075737464143
 21
242.2351969525467
 31
0.0
 11
141.8097693006565
 21
242.2716553034629
 31
0.0
 11
142.1146331018701
 21
242.2838691891074
 31
0.0
 11
142.4194969030837
 21
242.2716553034629
 31
0.0
 11
142.7216924573259
 21
242.2351969525467
 31
0.0
 11
143.0199884959668
 21
242.1745623018511
 31
0.0
 11
143.3104140100272
 21
242.0906342802887
 31
0.0
 11
143.5930476090215
 21
241.983302048275
 31
0.0
 11
143.8629970204396
 21
241.8545021813435
 31
0.0
 11
144.121296135663
 21
241.7036404989102
 31
0.0
 11
144.3626989447852
 21
241.5338675675386
 31
0.0
 11
144.5886930989117
 21
241.3440161627942
 31
0.0
 11
144.7943273091825
 21
241.1383481061989
 31
0.0
 11
144.981015782759
 21
240.9152962573747
 31
0.0
 11
145.1446933832831
 21
240.6798498795186
 31
0.0
 11
145.2862923214451
 21
240.4304632361681
 31
0.0
 11
145.4030223727199
 21
240.1722415981505
 31
0.0
 11
145.4951761943857
 21
239.9042369273214
 31
0.0
 11
145.5613134135248
 21
239.6309628927725
 31
0.0
 11
145.6012512229886
 21
239.3526361390389
 31
0.0
 11
145.61463310187
 21
239.072561044441
 31
0.0
 11
145.6012512229886
 21
238.7924859498434
 31
0.0
  0
SPLINE
  5
D0
330
40
100
AcDbEntity
  8
0
  6
Continuous
 62
     7
100
AcDbSpline
210
0.0
220
0.0
230
1.0
 70
    11
 71
     3
 72
    79
 73
    75
 74
    73
 42
0.0000000001
 43
0.0000000001
 44
0.00000001
 40
0.0
 40
0.0
 40
0.0
 40
0.0
 40
0.3165105491713094
 40
0.6328929319855371
 40
0.9617431660633367
 40
1.290395356804431
 40
1.637286321305584
 40
1.983975457781565
 40
2.35181648559324
 40
2.719488759026598
 40
3.108422409521949
 40
3.49722980923172
 40
3.905017581393859
 40
4.312718388939235
 40
4.735267628544439
 40
5.157763077150525
 40
5.589677248610273
 40
6.021565830284175
 40
6.456678185770374
 40
6.891790541256574
 40
7.323679122930476
 40
7.755593294390168
 40
8.178088742996254
 40
8.600637982601466
 40
9.008338790146889
 40
9.416126562308927
 40
9.804933962018621
 40
10.19386761251396
 40
10.56153988594734
 40
10.92938091375904
 40
11.27607005023502
 40
11.62296101473616
 40
11.95161320547729
 40
12.28046343955506
 40
12.59684582236927
 40
12.9133563715406
 40
13.2254204138261
 40
13.53748445611154
 40
13.85399500528285
 40
14.17037738809708
 40
14.49922762217489
 40
14.82787981291598
 40
15.17477077741712
 40
15.5214599138931
 40
15.88930094170476
 40
16.25697321513817
 40
16.64590686563351
 40
17.03471426534322
 40
17.44250203750531
 40
17.85020284505067
 40
18.27275208465591
 40
18.69524753326198
 40
19.1271617047217
 40
19.55905028639558
 40
19.99416264188178
 40
20.42927499736798
 40
20.86116357904188
 40
21.29307775050162
 40
21.71557319910772
 40
22.13812243871299
 40
22.54582324625837
 40
22.95361101842047
 40
23.34241841813016
 40
23.73135206862549
 40
24.09902434205891
 40
24.46686536987052
 40
24.8135545063465
 40
25.16044547084765
 40
25.48909766158874
 40
25.81794789566654
 40
26.13433027848077
 40
26.45084082765208
 40
26.76290486993753
 40
27.07496891222298
 40
27.07496891222298
 40
27.07496891222298
 40
27.07496891222298
 10
141.8645607265626
 20
232.7941141142781
 30
0.0
 10
141.7602284418717
 20
232.7775487830641
 30
0.0
 10
141.5516061203356
 20
232.7444248285267
 30
0.0
 10
141.2454220222575
 20
232.6456656923198
 30
0.0
 10
140.9481332659563
 20
232.5139634945334
 30
0.0
 10
140.6588733536524
 20
232.3440060687512
 30
0.0
 10
140.3839051643982
 20
232.1417847585578
 30
0.0
 10
140.1206752196024
 20
231.9045843398855
 30
0.0
 10
139.8757652685155
 20
231.6390481404846
 30
0.0
 10
139.6463561304496
 20
231.3420939249862
 30
0.0
 10
139.4383319647829
 20
231.0214348944857
 30
0.0
 10
139.2494037727454
 20
230.6739317777287
 30
0.0
 10
139.0841581340746
 20
230.3076932982269
 30
0.0
 10
138.9411586969311
 20
229.9202414501552
 30
0.0
 10
138.8234971360966
 20
229.5192481736362
 30
0.0
 10
138.7305231423174
 20
229.1035742754975
 30
0.0
 10
138.6639671545076
 20
228.6797106179502
 30
0.0
 10
138.6236381602016
 20
228.2483411810831
 30
0.0
 10
138.6102620285128
 20
227.8142307952454
 30
0.0
 10
138.6236381602008
 20
227.3801204093959
 30
0.0
 10
138.6639671545109
 20
226.9487509725632
 30
0.0
 10
138.7305231423052
 20
226.5248873148914
 30
0.0
 10
138.8234971361408
 20
226.1092134172071
 30
0.0
 10
138.9411586967682
 20
225.7082201390199
 30
0.0
 10
139.0841581346592
 20
225.3207682969651
 30
0.0
 10
139.2494037706039
 20
224.9545297955191
 30
0.0
 10
139.438331972364
 20
224.6070267570267
 30
0.0
 10
139.6463561027558
 20
224.2863674425755
 30
0.0
 10
139.8757653656297
 20
223.9894142317348
 30
0.0
 10
140.1206748651251
 20
223.7238743971945
 30
0.0
 10
140.3839064033768
 20
223.4866868052326
 30
0.0
 10
140.6588688205201
 20
223.2844190317557
 30
0.0
 10
140.9481492026424
 20
223.114626380178
 30
0.0
 10
141.245363353087
 20
222.9823236337975
 30
0.0
 10
141.5518159142299
 20
222.8857255225215
 30
0.0
 10
141.862315336487
 20
222.8283041077801
 30
0.0
 10
142.1760249790914
 20
222.8084081137802
 30
0.0
 10
142.489734621696
 20
222.8283041077801
 30
0.0
 10
142.8002340439531
 20
222.8857255225215
 30
0.0
 10
143.1066866050959
 20
222.9823236337975
 30
0.0
 10
143.4039007555406
 20
223.1146263801781
 30
0.0
 10
143.6931811376628
 20
223.2844190317557
 30
0.0
 10
143.9681435548062
 20
223.4866868052326
 30
0.0
 10
144.2313750930579
 20
223.7238743971945
 30
0.0
 10
144.4762845925532
 20
223.9894142317348
 30
0.0
 10
144.7056938554271
 20
224.2863674425756
 30
0.0
 10
144.913717985819
 20
224.6070267570266
 30
0.0
 10
145.1026461875791
 20
224.9545297955191
 30
0.0
 10
145.2678918235238
 20
225.3207682969652
 30
0.0
 10
145.4108912614148
 20
225.7082201390199
 30
0.0
 10
145.528552822042
 20
226.1092134172071
 30
0.0
 10
145.6215268158778
 20
226.5248873148915
 30
0.0
 10
145.688082803672
 20
226.948750972563
 30
0.0
 10
145.7284117979822
 20
227.3801204093965
 30
0.0
 10
145.7417879296699
 20
227.8142307952435
 30
0.0
 10
145.7284117979823
 20
228.2483411810899
 30
0.0
 10
145.6880828036718
 20
228.6797106179256
 30
0.0
 10
145.6215268158787
 20
229.1035742755884
 30
0.0
 10
145.5285528220389
 20
229.5192481733051
 30
0.0
 10
145.4108912614263
 20
229.9202414513734
 30
0.0
 10
145.2678918234821
 20
230.3076932938572
 30
0.0
 10
145.1026461877317
 20
230.6739317937389
 30
0.0
 10
144.9137179852785
 20
231.0214348378106
 30
0.0
 10
144.7056938574013
 20
231.34209413202
 30
0.0
 10
144.4762845856304
 20
231.6390474144782
 30
0.0
 10
144.2313751183269
 20
231.9045869898862
 30
0.0
 10
143.9681434664852
 20
232.1417754962048
 30
0.0
 10
143.6931814608088
 20
232.3440399575296
 30
0.0
 10
143.4038996194881
 20
232.5138443550963
 30
0.0
 10
143.106690787349
 20
232.6461042911524
 30
0.0
 10
142.8002190887192
 20
232.7428564518745
 30
0.0
 10
142.489790201125
 20
232.7997100895738
 30
0.0
 10
142.1758207790973
 20
232.8216972085126
 30
0.0
 10
141.9683140774075
 20
232.803308479023
 30
0.0
 10
141.8645607265626
 20
232.7941141142781
 30
0.0
 11
141.8645607265626
 21
232.7941141142781
 31
0.0
 11
141.553347643652
 21
232.7364483119165
 31
0.0
 11
141.2514240580379
 21
232.6418969470128
 31
0.0
 11
140.950912639901
 21
232.508347839856
 31
0.0
 11
140.6671649897584
 21
232.3425180068419
 31
0.0
 11
140.3874926108508
 21
232.1372944659683
 31
0.0
 11
140.1295694965838
 21
231.9056287057074
 31
0.0
 11
139.8798271356236
 21
231.6355624640489
 31
0.0
 11
139.65469689916
 21
231.3448748700901
 31
0.0
 11
139.4426372042984
 21
231.0188379545378
 31
0.0
 11
139.2566316758192
 21
230.6774098692194
 31
0.0
 11
139.0885729190697
 21
230.3058629389336
 31
0.0
 11
138.947194570209
 21
229.9234598650095
 31
0.0
 11
138.827953228175
 21
229.5180842833068
 31
0.0
 11
138.7356101327071
 21
229.1058038486361
 31
0.0
 11
138.6684349906697
 21
228.6791454937431
 31
0.0
 11
138.6282079390979
 21
228.2491344109764
 31
0.0
 11
138.6147317779571
 21
227.8142307952434
 31
0.0
 11
138.6282079390979
 21
227.3793271795104
 31
0.0
 11
138.6684349906697
 21
226.9493160967437
 31
0.0
 11
138.7356101327071
 21
226.5226577418508
 31
0.0
 11
138.827953228175
 21
226.1103773071801
 31
0.0
 11
138.9471945702091
 21
225.7050017254773
 31
0.0
 11
139.0885729190698
 21
225.3225986515532
 31
0.0
 11
139.2566316758192
 21
224.9510517212675
 31
0.0
 11
139.4426372042984
 21
224.6096236359491
 31
0.0
 11
139.65469689916
 21
224.2835867203968
 31
0.0
 11
139.8798271356236
 21
223.9928991264381
 31
0.0
 11
140.1295694965838
 21
223.7228328847796
 31
0.0
 11
140.3874926108508
 21
223.4911671245186
 31
0.0
 11
140.6671649897584
 21
223.285943583645
 31
0.0
 11
140.950912639901
 21
223.1201137506309
 31
0.0
 11
141.2514240580379
 21
222.9865646434741
 31
0.0
 11
141.5533476436519
 21
222.8920132785703
 31
0.0
 11
141.8645607265625
 21
222.8343474762087
 31
0.0
 11
142.1760249790915
 21
222.8150087615637
 31
0.0
 11
142.4874892316204
 21
222.8343474762087
 31
0.0
 11
142.798702314531
 21
222.8920132785703
 31
0.0
 11
143.1006259001451
 21
222.9865646434741
 31
0.0
 11
143.401137318282
 21
223.1201137506309
 31
0.0
 11
143.6848849684246
 21
223.285943583645
 31
0.0
 11
143.9645573473321
 21
223.4911671245186
 31
0.0
 11
144.2224804615991
 21
223.7228328847796
 31
0.0
 11
144.4722228225593
 21
223.9928991264381
 31
0.0
 11
144.6973530590229
 21
224.2835867203968
 31
0.0
 11
144.9094127538846
 21
224.6096236359491
 31
0.0
 11
145.0954182823638
 21
224.9510517212675
 31
0.0
 11
145.2634770391132
 21
225.3225986515532
 31
0.0
 11
145.4048553879738
 21
225.7050017254773
 31
0.0
 11
145.5240967300079
 21
226.1103773071801
 31
0.0
 11
145.6164398254759
 21
226.5226577418508
 31
0.0
 11
145.6836149675133
 21
226.9493160967438
 31
0.0
 11
145.723842019085
 21
227.3793271795104
 31
0.0
 11
145.7373181802259
 21
227.8142307952434
 31
0.0
 11
145.723842019085
 21
228.2491344109764
 31
0.0
 11
145.6836149675133
 21
228.6791454937431
 31
0.0
 11
145.6164398254759
 21
229.1058038486361
 31
0.0
 11
145.5240967300079
 21
229.5180842833068
 31
0.0
 11
145.4048553879738
 21
229.9234598650096
 31
0.0
 11
145.2634770391132
 21
230.3058629389337
 31
0.0
 11
145.0954182823638
 21
230.6774098692195
 31
0.0
 11
144.9094127538846
 21
231.0188379545378
 31
0.0
 11
144.6973530590229
 21
231.3448748700901
 31
0.0
 11
144.4722228225593
 21
231.6355624640488
 31
0.0
 11
144.2224804615991
 21
231.9056287057073
 31
0.0
 11
143.9645573473321
 21
232.1372944659682
 31
0.0
 11
143.6848849684246
 21
232.3425180068419
 31
0.0
 11
143.401137318282
 21
232.508347839856
 31
0.0
 11
143.1006259001451
 21
232.6418969470128
 31
0.0
 11
142.798702314531
 21
232.7364483119165
 31
0.0
 11
142.4874892316204
 21
232.7941141142781
 31
0.0
 11
142.1760249790915
 21
232.8134528289232
 31
0.0
 11
141.8645607265626
 21
232.7941141142781
 31
0.0
  0
SPLINE
  5
D1
330
40
100
AcDbEntity
  8
0
  6
Continuous
 62
     7
100
AcDbSpline
210
0.0
220
0.0
230
1.0
 70
    11
 71
     3
 72
    79
 73
    75
 74
    73
 42
0.0000000001
 43
0.0000000001
 44
0.00000001
 40
0.0
 40
0.0
 40
0.0
 40
0.0
 40
0.2811775426109048
 40
0.5623408931992824
 40
0.8457466631367969
 40
1.129126830422911
 40
1.41590890303246
 40
1.702658539054706
 40
1.993527432940314
 40
2.284362055943423
 40
2.57951780056439
 40
2.87464178210191
 40
3.173769982296795
 40
3.472872122788201
 40
3.775199692337409
 40
4.077508957859696
 40
4.381905225139453
 40
4.686292091405465
 40
4.991400459519092
 40
5.296508827632689
 40
5.600895693898709
 40
5.905291961178466
 40
6.207601226700744
 40
6.509928796249962
 40
6.809030936741356
 40
7.108159136936241
 40
7.403283118473738
 40
7.698438863094727
 40
7.989273486097856
 40
8.280142379983461
 40
8.566892016005713
 40
8.853674088615238
 40
9.137054255901351
 40
9.420460025838828
 40
9.701623376427184
 40
9.982800919038093
 40
10.26319552186832
 40
10.54359012469855
 40
10.82476766730945
 40
11.1059310178978
 40
11.38933678783532
 40
11.67271695512146
 40
11.95949902773104
 40
12.24624866375326
 40
12.53711755763885
 40
12.82795218064196
 40
13.12310792526292
 40
13.41823190680043
 40
13.71736010699535
 40
14.01646224748672
 40
14.31878981703598
 40
14.62109908255829
 40
14.92549534983808
 40
15.22988221610407
 40
15.53499058421767
 40
15.84009895233127
 40
16.14448581859729
 40
16.44888208587705
 40
16.75119135139933
 40
17.05351892094854
 40
17.3526210614399
 40
17.65174926163483
 40
17.94687324317231
 40
18.24202898779326
 40
18.53286361079641
 40
18.823732504682
 40
19.11048214070429
 40
19.39726421331384
 40
19.68064438059993
 40
19.96405015053751
 40
20.24521350112592
 40
20.52639104373677
 40
20.80678564656697
 40
21.08718024939716
 40
21.08718024939716
 40
21.08718024939716
 40
21.08718024939716
 10
145.6012512229885
 20
216.8359756406435
 30
0.0
 10
145.5898001008987
 20
216.9290717157339
 30
0.0
 10
145.5668984346975
 20
217.1152591670276
 30
0.0
 10
145.4988611436487
 20
217.3894966203336
 30
0.0
 10
145.407239014675
 20
217.6572232876407
 30
0.0
 10
145.2896280268903
 20
217.9167837758089
 30
0.0
 10
145.1484097036712
 20
218.165518068176
 30
0.0
 10
144.9835877329265
 20
218.4023321729666
 30
0.0
 10
144.7975104357617
 20
218.6245905370335
 30
0.0
 10
144.5904855861505
 20
218.8314459241686
 30
0.0
 10
144.3652867884364
 20
219.0205597276819
 30
0.0
 10
144.122421882907
 20
219.1912081118329
 30
0.0
 10
143.8649532518968
 20
219.3415254290825
 30
0.0
 10
143.5936753546253
 20
219.4708487644433
 30
0.0
 10
143.3117222007179
 20
219.5778816918816
 30
0.0
 10
143.0202850473483
 20
219.6620288295436
 30
0.0
 10
142.7223471038907
 20
219.7225733382515
 30
0.0
 10
142.4195814390903
 20
219.7590605349905
 30
0.0
 10
142.1146331018711
 20
219.7712875913417
 30
0.0
 10
141.8096847646461
 20
219.7590605349909
 30
0.0
 10
141.5069190998627
 20
219.7225733382502
 30
0.0
 10
141.2089811563432
 20
219.6620288295482
 30
0.0
 10
140.9175440032025
 20
219.5778816918644
 30
0.0
 10
140.6355908484451
 20
219.4708487645073
 30
0.0
 10
140.3643129543137
 20
219.3415254288465
 30
0.0
 10
140.1068443116618
 20
219.1912081127091
 30
0.0
 10
139.863979449025
 20
219.0205597244602
 30
0.0
 10
139.638780492448
 20
218.8314459361246
 30
0.0
 10
139.4317562274446
 20
218.6245904931365
 30
0.0
 10
139.2456767652604
 20
218.4023323359139
 30
0.0
 10
139.0808627655067
 20
218.1655174695808
 30
0.0
 10
138.9396148970928
 20
217.916785999939
 30
0.0
 10
138.8221129296388
 20
217.6572150960525
 30
0.0
 10
138.7300859822689
 20
217.3895271047822
 30
0.0
 10
138.6635481546488
 20
217.1151463938992
 30
0.0
 10
138.6236453710362
 20
216.8366553824357
 30
0.0
 10
138.610133249707
 20
216.5559005460458
 30
0.0
 10
138.6236453710363
 20
216.2751457096559
 30
0.0
 10
138.6635481546487
 20
215.9966546981924
 30
0.0
 10
138.7300859822689
 20
215.7222739873094
 30
0.0
 10
138.8221129296387
 20
215.4545859960389
 30
0.0
 10
138.9396148970927
 20
215.1950150921525
 30
0.0
 10
139.0808627655067
 20
214.9462836225106
 30
0.0
 10
139.2456767652604
 20
214.7094687561776
 30
0.0
 10
139.4317562274446
 20
214.4872105989551
 30
0.0
 10
139.638780492448
 20
214.280355155967
 30
0.0
 10
139.8639794490248
 20
214.0912413676313
 30
0.0
 10
140.1068443116617
 20
213.9205929793825
 30
0.0
 10
140.3643129543138
 20
213.770275663245
 30
0.0
 10
140.635590848445
 20
213.6409523275844
 30
0.0
 10
140.9175440032025
 20
213.5339194002271
 30
0.0
 10
141.2089811563432
 20
213.4497722625434
 30
0.0
 10
141.5069190998626
 20
213.3892277538413
 30
0.0
 10
141.8096847646464
 20
213.3527405571006
 30
0.0
 10
142.1146331018702
 20
213.3405135007499
 30
0.0
 10
142.4195814390936
 20
213.3527405571006
 30
0.0
 10
142.7223471038786
 20
213.3892277538413
 30
0.0
 10
143.0202850473935
 20
213.449772262543
 30
0.0
 10
143.3117222005506
 20
213.5339194002283
 30
0.0
 10
143.5936753552471
 20
213.6409523275796
 30
0.0
 10
143.8649532496036
 20
213.7702756632619
 30
0.0
 10
144.1224218914209
 20
213.9205929793196
 30
0.0
 10
144.3652867571329
 20
214.0912413678622
 30
0.0
 10
144.5904857023201
 20
214.2803551551097
 30
0.0
 10
144.7975100092374
 20
214.4872106021022
 30
0.0
 10
144.9835893161987
 20
214.709468744495
 30
0.0
 10
145.1484038874394
 20
214.9462836654274
 30
0.0
 10
145.2896496375856
 20
215.1950149326916
 30
0.0
 10
145.4071594213442
 20
215.4545865833418
 30
0.0
 10
145.4991573449179
 20
215.7222718017011
 30
0.0
 10
145.5658026778329
 20
215.996662783557
 30
0.0
 10
145.6053052637795
 20
216.2751155604447
 30
0.0
 10
145.6203070435969
 20
216.5560127176552
 30
0.0
 10
145.6076031631914
 20
216.7426546663141
 30
0.0
 10
145.6012512229885
 20
216.8359756406435
 30
0.0
 11
145.6012512229885
 21
216.8359756406435
 31
0.0
 11
145.5613134135247
 21
217.1143023943772
 31
0.0
 11
145.4951761943856
 21
217.3875764289261
 31
0.0
 11
145.4030223727198
 21
217.6555810997552
 31
0.0
 11
145.2862923214451
 21
217.9138027377729
 31
0.0
 11
145.1446933832831
 21
218.1631893811234
 31
0.0
 11
144.981015782759
 21
218.3986357589795
 31
0.0
 11
144.7943273091825
 21
218.6216876078037
 31
0.0
 11
144.5886930989117
 21
218.8273556643989
 31
0.0
 11
144.3626989447852
 21
219.0172070691434
 31
0.0
 11
144.121296135663
 21
219.1869800005148
 31
0.0
 11
143.8629970204396
 21
219.3378416829482
 31
0.0
 11
143.5930476090215
 21
219.4666415498798
 31
0.0
 11
143.3104140100272
 21
219.5739737818934
 31
0.0
 11
143.0199884959668
 21
219.6579018034558
 31
0.0
 11
142.7216924573259
 21
219.7185364541515
 31
0.0
 11
142.4194969030837
 21
219.7549948050675
 31
0.0
 11
142.1146331018701
 21
219.767208690712
 31
0.0
 11
141.8097693006565
 21
219.7549948050675
 31
0.0
 11
141.5075737464143
 21
219.7185364541514
 31
0.0
 11
141.2092777077734
 21
219.6579018034558
 31
0.0
 11
140.918852193713
 21
219.5739737818934
 31
0.0
 11
140.6362185947187
 21
219.4666415498797
 31
0.0
 11
140.3662691833006
 21
219.3378416829482
 31
0.0
 11
140.1079700680772
 21
219.1869800005148
 31
0.0
 11
139.866567258955
 21
219.0172070691434
 31
0.0
 11
139.6405731048286
 21
218.8273556643989
 31
0.0
 11
139.4349388945577
 21
218.6216876078037
 31
0.0
 11
139.2482504209812
 21
218.3986357589795
 31
0.0
 11
139.0845728204571
 21
218.1631893811233
 31
0.0
 11
138.9429738822951
 21
217.9138027377729
 31
0.0
 11
138.8262438310204
 21
217.6555810997552
 31
0.0
 11
138.7340900093546
 21
217.3875764289261
 31
0.0
 11
138.6679527902155
 21
217.1143023943772
 31
0.0
 11
138.6280149807516
 21
216.8359756406435
 31
0.0
 11
138.6146331018702
 21
216.5559005460458
 31
0.0
 11
138.6280149807516
 21
216.2758254514481
 31
0.0
 11
138.6679527902155
 21
215.9974986977144
 31
0.0
 11
138.7340900093545
 21
215.7242246631655
 31
0.0
 11
138.8262438310203
 21
215.4562199923363
 31
0.0
 11
138.942973882295
 21
215.1979983543186
 31
0.0
 11
139.0845728204571
 21
214.9486117109682
 31
0.0
 11
139.2482504209812
 21
214.713165333112
 31
0.0
 11
139.4349388945577
 21
214.4901134842879
 31
0.0
 11
139.6405731048285
 21
214.2844454276926
 31
0.0
 11
139.8665672589549
 21
214.0945940229481
 31
0.0
 11
140.1079700680771
 21
213.9248210915767
 31
0.0
 11
140.3662691833006
 21
213.7739594091434
 31
0.0
 11
140.6362185947186
 21
213.6451595422118
 31
0.0
 11
140.918852193713
 21
213.5378273101981
 31
0.0
 11
141.2092777077734
 21
213.4538992886357
 31
0.0
 11
141.5075737464144
 21
213.3932646379401
 31
0.0
 11
141.8097693006565
 21
213.356806287024
 31
0.0
 11
142.1146331018701
 21
213.3445924013794
 31
0.0
 11
142.4194969030837
 21
213.356806287024
 31
0.0
 11
142.7216924573259
 21
213.3932646379401
 31
0.0
 11
143.0199884959668
 21
213.4538992886357
 31
0.0
 11
143.3104140100272
 21
213.5378273101981
 31
0.0
 11
143.5930476090215
 21
213.6451595422118
 31
0.0
 11
143.8629970204396
 21
213.7739594091433
 31
0.0
 11
144.121296135663
 21
213.9248210915767
 31
0.0
 11
144.3626989447852
 21
214.0945940229481
 31
0.0
 11
144.5886930989116
 21
214.2844454276926
 31
0.0
 11
144.7943273091825
 21
214.4901134842878
 31
0.0
 11
144.981015782759
 21
214.713165333112
 31
0.0
 11
145.1446933832831
 21
214.9486117109682
 31
0.0
 11
145.2862923214451
 21
215.1979983543187
 31
0.0
 11
145.4030223727198
 21
215.4562199923363
 31
0.0
 11
145.4951761943857
 21
215.7242246631655
 31
0.0
 11
145.5613134135248
 21
215.9974986977144
 31
0.0
 11
145.6012512229886
 21
216.2758254514481
 31
0.0
 11
145.61463310187
 21
216.5559005460458
 31
0.0
 11
145.6012512229885
 21
216.8359756406435
 31
0.0
  0
ENDBLK
  5
42
330
40
100
AcDbEntity
  8
0
100
AcDbBlockEnd
  0
BLOCK
  5
44
330
43
100
AcDbEntity
  8
0
100
AcDbBlockBegin
  2
36-1A-13-M4
 70
     0
 71
     0
 10
25.54550709243392
 20
330.1963568046797
 30
0.0
  3
36-1A-13-M4
  1

  0
LINE
  5
D2
330
43
100
AcDbEntity
  8
1
  6
Continuous
 62
     7
100
AcDbLine
 10
156.1146331018699
 20
223.0642307952434
 30
0.0
 11
152.6146331018701
 21
223.0642307952434
 31
0.0
  0
LINE
  5
D3
330
43
100
AcDbEntity
  8
1
  6
Continuous
 62
     7
100
AcDbLine
 10
152.6146331018701
 20
232.5642307952435
 30
0.0
 11
156.1146331018699
 21
232.5642307952435
 31
0.0
  0
LINE
  5
D4
330
43
100
AcDbEntity
  8
1
  6
Continuous
 62
     7
100
AcDbLine
 10
156.5922918278542
 20
558.405936177615
 30
0.0
 11
152.6146331018701
 21
558.405936177615
 31
0.0
  0
LINE
  5
D5
330
43
100
AcDbEntity
  8
1
  6
Continuous
 62
     7
100
AcDbLine
 10
152.6146331018701
 20
567.905936177615
 30
0.0
 11
156.5922918278542
 21
567.905936177615
 31
0.0
  0
ENDBLK
  5
45
330
43
100
AcDbEntity
  8
0
100
AcDbBlockEnd
  0
BLOCK
  5
4A
330
46
100
AcDbEntity
  8
0
100
AcDbBlockBegin
  2
R10A-13
 70
     0
 71
     0
 10
169.1146331018701
 20
182.8142307952435
 30
0.0
  3
R10A-13
  1

  0
INSERT
  5
47
330
46
100
AcDbEntity
  8
0
100
AcDbBlockReference
  2
R20F
 10
178.2131728880876
 20
209.3894565073178
 30
0.0
  0
INSERT
  5
48
330
46
100
AcDbEntity
  8
0
100
AcDbBlockReference
  2
37-1-13
 10
6.61892721172561
 20
319.6154610120145
 30
0.0
  0
INSERT
  5
49
330
46
100
AcDbEntity
  8
0
100
AcDbBlockReference
  2
36-1A-13-M4
 10
25.54550709243392
 20
330.1963568046797
 30
0.0
  0
LINE
  5
D6
330
46
100
AcDbEntity
  8
1
  6
DASH_CENTER
 62
     2
100
AcDbLine
 10
140.6146331018701
 20
227.8142307952435
 30
0.0
 11
151.6146331018701
 21
227.8142307952435
 31
0.0
  0
ENDBLK
  5
4B
330
46
100
AcDbEntity
  8
0
100
AcDbBlockEnd
  0
BLOCK
  5
4D
330
4C
100
AcDbEntity
  8
0
100
AcDbBlockBegin
  2
A20-0-13
 70
     0
 71
     0
 10
146.1146331018701
 20
204.8142307952434
 30
0.0
  3
A20-0-13
  1

  0
LINE
  5
D7
330
4C
100
AcDbEntity
  8
1
  6
Continuous
 62
     7
100
AcDbLine
 10
444.7549551811786
 20
219.0642307952437
 30
0.0
 11
432.5670002380059
 21
219.0642307952437
 31
0.0
  0
LINE
  5
D8
330
4C
100
AcDbEntity
  8
1
  6
Continuous
 62
     7
100
AcDbLine
 10
399.6413743100715
 20
251.3142307952436
 30
0.0
 11
393.2549551811786
 21
251.3142307952436
 31
0.0
  0
LINE
  5
D9
330
4C
100
AcDbEntity
  8
1
  6
Continuous
 62
     7
100
AcDbLine
 10
452.9870059887476
 20
217.3142307952437
 30
0.0
 11
452.9870059887476
 21
218.3142307952437
 31
0.0
  0
LINE
  5
DA
330
4C
100
AcDbEntity
  8
1
  6
Continuous
 62
     7
100
AcDbLine
 10
464.2549551811786
 20
217.3142307952437
 30
0.0
 11
451.2549551811786
 21
217.3142307952437
 31
0.0
  0
LINE
  5
DB
330
4C
100
AcDbEntity
  8
1
  6
Continuous
 62
     7
100
AcDbLine
 10
451.2549551811786
 20
238.3142307952437
 30
0.0
 11
464.2549551811786
 21
238.3142307952437
 31
0.0
  0
LINE
  5
DC
330
4C
100
AcDbEntity
  8
1
  6
Continuous
 62
     7
100
AcDbLine
 10
465.2549551811786
 20
237.3142307952437
 30
0.0
 11
464.2549551811786
 21
238.3142307952437
 31
0.0
  0
LINE
  5
DD
330
4C
100
AcDbEntity
  8
1
  6
Continuous
 62
     7
100
AcDbLine
 10
452.9870059887476
 20
237.3142307952437
 30
0.0
 11
452.9870059887476
 21
238.3142307952437
 31
0.0
  0
LINE
  5
DE
330
4C
100
AcDbEntity
  8
1
  6
Continuous
 62
     7
100
AcDbLine
 10
464.2549551811786
 20
238.3142307952437
 30
0.0
 11
464.2549551811786
 21
237.3142307952437
 31
0.0
  0
LINE
  5
DF
330
4C
100
AcDbEntity
  8
1
  6
Continuous
 62
     7
100
AcDbLine
 10
464.2549551811786
 20
218.3142307952437
 30
0.0
 11
464.2549551811786
 21
217.3142307952437
 31
0.0
  0
LINE
  5
E0
330
4C
100
AcDbEntity
  8
1
  6
Continuous
 62
     7
100
AcDbLine
 10
464.2549551811786
 20
217.3142307952437
 30
0.0
 11
465.2549551811786
 21
218.3142307952437
 31
0.0
  0
LINE
  5
E1
330
4C
100
AcDbEntity
  8
1
  6
Continuous
 62
     7
100
AcDbLine
 10
465.2549551811786
 20
237.3142307952437
 30
0.0
 11
465.2549551811786
 21
218.3142307952437
 31
0.0
  0
LINE
  5
E2
330
4C
100
AcDbEntity
  8
1
  6
Continuous
 62
     7
100
AcDbLine
 10
419.2549551811786
 20
249.5821799876748
 30
0.0
 11
419.2549551811786
 21
252.8142307952436
 31
0.0
  0
LINE
  5
E3
330
4C
100
AcDbEntity
  8
1
  6
Continuous
 62
     7
100
AcDbLine
 10
419.2549551811786
 20
251.3142307952436
 30
0.0
 11
412.8685360522858
 21
251.3142307952436
 31
0.0
  0
LINE
  5
E4
330
4C
100
AcDbEntity
  8
1
  6
Continuous
 62
     7
100
AcDbLine
 10
393.2549551811786
 20
252.8142307952436
 30
0.0
 11
393.2549551811786
 21
237.1416098483325
 31
0.0
  0
LINE
  5
E5
330
4C
100
AcDbEntity
  8
1
  6
Continuous
 62
     7
100
AcDbLine
 10
419.2549551811786
 20
249.5821799876748
 30
0.0
 11
419.2549551811786
 21
248.5642307952437
 31
0.0
  0
LINE
  5
E6
330
4C
100
AcDbEntity
  8
1
  6
Continuous
 62
     2
100
AcDbLine
 10
394.2549551811786
 20
251.3142307952436
 30
0.0
 11
394.2549551811786
 21
252.8142307952436
 31
0.0
  0
LINE
  5
E7
330
4C
100
AcDbEntity
  8
1
  6
Continuous
 62
     2
100
AcDbLine
 10
394.2549551811786
 20
251.3142307952436
 30
0.0
 11
393.2549551811786
 21
249.5821799876748
 31
0.0
  0
LINE
  5
E8
330
4C
100
AcDbEntity
  8
1
  6
Continuous
 62
     2
100
AcDbLine
 10
419.2549551811786
 20
249.5821799876748
 30
0.0
 11
418.2549551811786
 21
251.3142307952436
 31
0.0
  0
LINE
  5
E9
330
4C
100
AcDbEntity
  8
1
  6
Continuous
 62
     7
100
AcDbLine
 10
448.7549551811786
 20
240.5642307952437
 30
0.0
 11
448.7549551811786
 21
250.3142307952436
 31
0.0
  0
LINE
  5
EA
330
4C
100
AcDbEntity
  8
1
  6
Continuous
 62
     7
100
AcDbLine
 10
444.7549551811786
 20
236.5642307952437
 30
0.0
 11
431.2549551811786
 21
236.5642307952437
 31
0.0
  0
LINE
  5
EB
330
4C
100
AcDbEntity
  8
1
  6
Continuous
 62
     2
100
AcDbLine
 10
452.9870059887476
 20
237.3142307952437
 30
0.0
 11
465.2549551811786
 21
237.3142307952437
 31
0.0
  0
LINE
  5
EC
330
4C
100
AcDbEntity
  8
1
  6
Continuous
 62
     2
100
AcDbLine
 10
451.2549551811786
 20
238.3142307952437
 30
0.0
 11
452.9870059887476
 21
237.3142307952437
 31
0.0
  0
LINE
  5
ED
330
4C
100
AcDbEntity
  8
1
  6
Continuous
 62
     7
100
AcDbLine
 10
451.2549551811786
 20
250.8142307952436
 30
0.0
 11
451.2549551811786
 21
238.3142307952437
 31
0.0
  0
LINE
  5
EE
330
4C
100
AcDbEntity
  8
1
  6
Continuous
 62
     7
100
AcDbLine
 10
451.2549551811786
 20
250.8142307952436
 30
0.0
 11
449.2549551811786
 21
250.8142307952436
 31
0.0
  0
LINE
  5
EF
330
4C
100
AcDbEntity
  8
1
  6
Continuous
 62
     2
100
AcDbLine
 10
465.2549551811786
 20
218.3142307952437
 30
0.0
 11
452.9870059887476
 21
218.3142307952437
 31
0.0
  0
LINE
  5
F0
330
4C
100
AcDbEntity
  8
1
  6
Continuous
 62
     7
100
AcDbLine
 10
448.7549551811786
 20
205.3142307952437
 30
0.0
 11
448.7549551811786
 21
215.0642307952437
 31
0.0
  0
LINE
  5
F1
330
4C
100
AcDbEntity
  8
1
  6
Continuous
 62
     7
100
AcDbLine
 10
449.2549551811786
 20
204.8142307952437
 30
0.0
 11
451.2549551811786
 21
204.8142307952437
 31
0.0
  0
LINE
  5
F2
330
4C
100
AcDbEntity
  8
1
  6
Continuous
 62
     7
100
AcDbLine
 10
451.2549551811786
 20
217.3142307952437
 30
0.0
 11
451.2549551811786
 21
204.8142307952437
 31
0.0
  0
LINE
  5
F3
330
4C
100
AcDbEntity
  8
1
  6
Continuous
 62
     2
100
AcDbLine
 10
452.9870059887476
 20
218.3142307952437
 30
0.0
 11
451.2549551811786
 21
217.3142307952437
 31
0.0
  0
LINE
  5
F4
330
4C
100
AcDbEntity
  8
1
  6
Continuous
 62
     2
100
AcDbLine
 10
418.2549551811786
 20
252.8142307952436
 30
0.0
 11
418.2549551811786
 21
251.3142307952436
 31
0.0
  0
LINE
  5
F5
330
4C
100
AcDbEntity
  8
1
  6
Continuous
 62
     7
100
AcDbLine
 10
448.7549551811786
 20
240.5642307952437
 30
0.0
 11
448.7549551811786
 21
215.0642307952437
 31
0.0
  0
LINE
  5
F6
330
4C
100
AcDbEntity
  8
1
  6
Continuous
 62
     7
100
AcDbLine
 10
451.2549551811786
 20
238.3142307952437
 30
0.0
 11
451.2549551811786
 21
217.3142307952437
 31
0.0
  0
LINE
  5
F7
330
4C
100
AcDbEntity
  8
1
  6
Continuous
 62
     7
100
AcDbLine
 10
452.9870059887476
 20
218.3142307952437
 30
0.0
 11
452.9870059887476
 21
237.3142307952437
 31
0.0
  0
LINE
  5
F8
330
4C
100
AcDbEntity
  8
1
  6
Continuous
 62
     7
100
AcDbLine
 10
464.2549551811786
 20
237.3142307952437
 30
0.0
 11
464.2549551811786
 21
218.3142307952437
 31
0.0
  0
LINE
  5
F9
330
4C
100
AcDbEntity
  8
1
  6
Continuous
 62
     2
100
AcDbLine
 10
103.6146331018706
 20
609.8879869851834
 30
0.0
 11
103.6146331018706
 21
622.1559361776145
 31
0.0
  0
LINE
  5
FA
330
4C
100
AcDbEntity
  8
1
  6
Continuous
 62
     2
100
AcDbLine
 10
102.6146331018706
 20
608.1559361776145
 30
0.0
 11
103.6146331018706
 21
609.8879869851834
 31
0.0
  0
LINE
  5
FB
330
4C
100
AcDbEntity
  8
1
  6
Continuous
 62
     7
100
AcDbLine
 10
90.11463310187062
 20
608.1559361776145
 30
0.0
 11
136.1146331018706
 21
608.1559361776145
 31
0.0
  0
LINE
  5
FC
330
4C
100
AcDbEntity
  8
1
  6
Continuous
 62
     7
100
AcDbLine
 10
90.11463310187062
 20
608.1559361776145
 30
0.0
 11
90.11463310187062
 21
606.1559361776145
 31
0.0
  0
LINE
  5
FD
330
4C
100
AcDbEntity
  8
1
  6
Continuous
 62
     7
100
AcDbLine
 10
135.6146331018706
 20
605.6559361776145
 30
0.0
 11
90.61463310187062
 21
605.6559361776145
 31
0.0
  0
LINE
  5
FE
330
4C
100
AcDbEntity
  8
1
  6
Continuous
 62
     7
100
AcDbLine
 10
104.3646331018706
 20
582.0222421223417
 30
0.0
 11
104.3646331018706
 21
601.6559361776145
 31
0.0
  0
LINE
  5
FF
330
4C
100
AcDbEntity
  8
1
  6
Continuous
 62
     7
100
AcDbLine
 10
136.1146331018706
 20
606.1559361776145
 30
0.0
 11
136.1146331018706
 21
608.1559361776145
 31
0.0
  0
LINE
  5
100
330
4C
100
AcDbEntity
  8
1
  6
Continuous
 62
     2
100
AcDbLine
 10
122.6146331018706
 20
609.8879869851834
 30
0.0
 11
123.6146331018706
 21
608.1559361776145
 31
0.0
  0
LINE
  5
101
330
4C
100
AcDbEntity
  8
1
  6
Continuous
 62
     2
100
AcDbLine
 10
122.6146331018706
 20
622.1559361776145
 30
0.0
 11
122.6146331018706
 21
609.8879869851834
 31
0.0
  0
LINE
  5
102
330
4C
100
AcDbEntity
  8
1
  6
Continuous
 62
     7
100
AcDbLine
 10
121.8646331018706
 20
587.7841189359076
 30
0.0
 11
121.8646331018706
 21
601.6559361776145
 31
0.0
  0
LINE
  5
103
330
4C
100
AcDbEntity
  8
1
  6
Continuous
 62
     7
100
AcDbLine
 10
123.6146331018706
 20
621.1559361776145
 30
0.0
 11
123.6146331018706
 21
608.1559361776145
 31
0.0
  0
LINE
  5
104
330
4C
100
AcDbEntity
  8
1
  6
Continuous
 62
     7
100
AcDbLine
 10
123.6146331018706
 20
621.1559361776145
 30
0.0
 11
122.6146331018706
 21
622.1559361776145
 31
0.0
  0
LINE
  5
105
330
4C
100
AcDbEntity
  8
1
  6
Continuous
 62
     7
100
AcDbLine
 10
123.6146331018706
 20
609.8879869851834
 30
0.0
 11
102.6146331018706
 21
609.8879869851834
 31
0.0
  0
LINE
  5
106
330
4C
100
AcDbEntity
  8
1
  6
Continuous
 62
     7
100
AcDbLine
 10
102.6146331018706
 20
621.1559361776145
 30
0.0
 11
123.6146331018706
 21
621.1559361776145
 31
0.0
  0
LINE
  5
107
330
4C
100
AcDbEntity
  8
1
  6
Continuous
 62
     7
100
AcDbLine
 10
102.6146331018706
 20
608.1559361776145
 30
0.0
 11
102.6146331018706
 21
621.1559361776145
 31
0.0
  0
LINE
  5
108
330
4C
100
AcDbEntity
  8
1
  6
Continuous
 62
     7
100
AcDbLine
 10
103.6146331018706
 20
622.1559361776145
 30
0.0
 11
102.6146331018706
 21
621.1559361776145
 31
0.0
  0
LINE
  5
109
330
4C
100
AcDbEntity
  8
1
  6
Continuous
 62
     7
100
AcDbLine
 10
103.6146331018706
 20
622.1559361776145
 30
0.0
 11
122.6146331018706
 21
622.1559361776145
 31
0.0
  0
LINE
  5
10A
330
4C
100
AcDbEntity
  8
1
  6
Continuous
 62
     7
100
AcDbLine
 10
135.1146331018701
 20
575.155936177615
 30
0.0
 11
135.1146331018701
 21
575.6651859304378
 31
0.0
  0
LINE
  5
10B
330
4C
100
AcDbEntity
  8
1
  6
Continuous
 62
     7
100
AcDbLine
 10
135.3825822943013
 20
575.155936177615
 30
0.0
 11
135.1146331018701
 21
575.155936177615
 31
0.0
  0
LINE
  5
10C
330
4C
100
AcDbEntity
  8
1
  6
Continuous
 62
     7
100
AcDbLine
 10
137.1146331018701
 20
575.155936177615
 30
0.0
 11
135.3825822943013
 21
575.155936177615
 31
0.0
  0
LINE
  5
10D
330
4C
100
AcDbEntity
  8
1
  6
Continuous
 62
     2
100
AcDbLine
 10
137.1146331018701
 20
574.155936177615
 30
0.0
 11
138.6146331018701
 21
574.155936177615
 31
0.0
  0
LINE
  5
10E
330
4C
100
AcDbEntity
  8
1
  6
Continuous
 62
     2
100
AcDbLine
 10
137.1146331018701
 20
574.155936177615
 30
0.0
 11
135.3825822943013
 21
575.155936177615
 31
0.0
  0
LINE
  5
10F
330
4C
100
AcDbEntity
  8
1
  6
Continuous
 62
     7
100
AcDbLine
 10
137.1146331018701
 20
551.155936177615
 30
0.0
 11
137.1146331018701
 21
575.155936177615
 31
0.0
  0
LINE
  5
110
330
4C
100
AcDbEntity
  8
1
  6
Continuous
 62
     2
100
AcDbLine
 10
135.3825822943013
 20
551.155936177615
 30
0.0
 11
137.1146331018701
 21
552.155936177615
 31
0.0
  0
LINE
  5
111
330
4C
100
AcDbEntity
  8
1
  6
Continuous
 62
     2
100
AcDbLine
 10
137.1146331018701
 20
552.155936177615
 30
0.0
 11
138.6146331018701
 21
552.155936177615
 31
0.0
  0
LINE
  5
112
330
4C
100
AcDbEntity
  8
1
  6
Continuous
 62
     7
100
AcDbLine
 10
137.1146331018701
 20
551.155936177615
 30
0.0
 11
138.6146331018701
 21
551.155936177615
 31
0.0
  0
LINE
  5
113
330
4C
100
AcDbEntity
  8
1
  6
Continuous
 62
     7
100
AcDbLine
 10
135.3825822943013
 20
551.155936177615
 30
0.0
 11
137.1146331018701
 21
551.155936177615
 31
0.0
  0
LINE
  5
114
330
4C
100
AcDbEntity
  8
1
  6
Continuous
 62
     7
100
AcDbLine
 10
135.1146331018701
 20
551.155936177615
 30
0.0
 11
135.3825822943013
 21
551.155936177615
 31
0.0
  0
LINE
  5
115
330
4C
100
AcDbEntity
  8
1
  6
Continuous
 62
     7
100
AcDbLine
 10
135.1146331018701
 20
550.6466864247922
 30
0.0
 11
135.1146331018701
 21
551.155936177615
 31
0.0
  0
LINE
  5
116
330
4C
100
AcDbEntity
  8
1
  6
Continuous
 62
     7
100
AcDbLine
 10
135.1146331018701
 20
575.155936177615
 30
0.0
 11
135.1146331018701
 21
551.155936177615
 31
0.0
  0
LINE
  5
117
330
4C
100
AcDbEntity
  8
1
  6
Continuous
 62
     7
100
AcDbLine
 10
135.1146331018701
 20
575.6651859304378
 30
0.0
 11
133.0149141264868
 21
575.8142410057501
 31
0.0
  0
LINE
  5
118
330
4C
100
AcDbEntity
  8
1
  6
Continuous
 62
     7
100
AcDbLine
 10
132.2836281935898
 20
550.4457187454217
 30
0.0
 11
135.1146331018701
 21
550.6466864247922
 31
0.0
  0
LINE
  5
119
330
4C
100
AcDbEntity
  8
1
  6
PHANTOM
 62
     4
100
AcDbLine
 10
93.45514585188391
 20
563.1559361776151
 30
0.0
 11
175.4837686423718
 21
563.1559361776151
 31
0.0
  0
LINE
  5
11A
330
4C
100
AcDbEntity
  8
1
  6
Continuous
 62
     7
100
AcDbLine
 10
138.6146331018701
 20
575.155936177615
 30
0.0
 11
137.1146331018701
 21
575.155936177615
 31
0.0
  0
LINE
  5
11B
330
4C
100
AcDbEntity
  8
1
  6
Continuous
 62
     7
100
AcDbLine
 10
121.1146331018701
 20
549.6528529266741
 30
0.0
 11
132.2836281935898
 21
550.4457187454217
 31
0.0
  0
LINE
  5
11C
330
4C
100
AcDbEntity
  8
1
  6
Continuous
 62
     2
100
AcDbLine
 10
125.1146331018701
 20
251.3142307952434
 30
0.0
 11
125.1146331018701
 21
252.8142307952434
 31
0.0
  0
LINE
  5
11D
330
4C
100
AcDbEntity
  8
1
  6
Continuous
 62
     2
100
AcDbLine
 10
126.1146331018701
 20
249.5821799876744
 30
0.0
 11
125.1146331018701
 21
251.3142307952434
 31
0.0
  0
LINE
  5
11E
330
4C
100
AcDbEntity
  8
1
  6
Continuous
 62
     7
100
AcDbLine
 10
126.1146331018701
 20
249.5821799876744
 30
0.0
 11
126.1146331018701
 21
248.5642307952434
 31
0.0
  0
LINE
  5
11F
330
4C
100
AcDbEntity
  8
1
  6
Continuous
 62
     2
100
AcDbLine
 10
101.1146331018701
 20
251.3142307952434
 30
0.0
 11
100.1146331018701
 21
249.5821799876744
 31
0.0
  0
LINE
  5
120
330
4C
100
AcDbEntity
  8
1
  6
Continuous
 62
     2
100
AcDbLine
 10
101.1146331018701
 20
251.3142307952434
 30
0.0
 11
101.1146331018701
 21
252.8142307952434
 31
0.0
  0
LINE
  5
121
330
4C
100
AcDbEntity
  8
1
  6
Continuous
 62
     7
100
AcDbLine
 10
100.1146331018701
 20
249.5821799876744
 30
0.0
 11
100.1146331018701
 21
246.7878967562538
 31
0.0
  0
LINE
  5
122
330
4C
100
AcDbEntity
  8
1
  6
Continuous
 62
     7
100
AcDbLine
 10
100.1146331018701
 20
249.5821799876744
 30
0.0
 11
100.1146331018701
 21
251.3142307952434
 31
0.0
  0
LINE
  5
123
330
4C
100
AcDbEntity
  8
1
  6
Continuous
 62
     7
100
AcDbLine
 10
100.1146331018701
 20
251.3142307952434
 30
0.0
 11
100.1146331018701
 21
252.8142307952434
 31
0.0
  0
LINE
  5
124
330
4C
100
AcDbEntity
  8
1
  6
Continuous
 62
     7
100
AcDbLine
 10
126.1146331018701
 20
251.3142307952434
 30
0.0
 11
126.1146331018701
 21
249.5821799876744
 31
0.0
  0
LINE
  5
125
330
4C
100
AcDbEntity
  8
1
  6
Continuous
 62
     7
100
AcDbLine
 10
126.1146331018701
 20
251.3142307952434
 30
0.0
 11
100.1146331018701
 21
251.3142307952434
 31
0.0
  0
LINE
  5
126
330
4C
100
AcDbEntity
  8
1
  6
Continuous
 62
     7
100
AcDbLine
 10
135.1146331018701
 20
240.3234805480663
 30
0.0
 11
132.2836281935898
 21
240.5244482274367
 31
0.0
  0
LINE
  5
127
330
4C
100
AcDbEntity
  8
1
  6
Continuous
 62
     7
100
AcDbLine
 10
135.1146331018701
 20
239.8142307952434
 30
0.0
 11
135.1146331018701
 21
240.3234805480663
 31
0.0
  0
LINE
  5
128
330
4C
100
AcDbEntity
  8
1
  6
Continuous
 62
     7
100
AcDbLine
 10
135.3825822943012
 20
239.8142307952434
 30
0.0
 11
135.1146331018701
 21
239.8142307952434
 31
0.0
  0
LINE
  5
129
330
4C
100
AcDbEntity
  8
1
  6
Continuous
 62
     7
100
AcDbLine
 10
137.1146331018701
 20
239.8142307952434
 30
0.0
 11
135.3825822943012
 21
239.8142307952434
 31
0.0
  0
LINE
  5
12A
330
4C
100
AcDbEntity
  8
1
  6
Continuous
 62
     7
100
AcDbLine
 10
138.6146331018701
 20
239.8142307952434
 30
0.0
 11
137.1146331018701
 21
239.8142307952434
 31
0.0
  0
LINE
  5
12B
330
4C
100
AcDbEntity
  8
1
  6
Continuous
 62
     2
100
AcDbLine
 10
137.1146331018701
 20
238.8142307952434
 30
0.0
 11
138.6146331018701
 21
238.8142307952434
 31
0.0
  0
LINE
  5
12C
330
4C
100
AcDbEntity
  8
1
  6
Continuous
 62
     2
100
AcDbLine
 10
137.1146331018701
 20
238.8142307952434
 30
0.0
 11
135.3825822943012
 21
239.8142307952434
 31
0.0
  0
LINE
  5
12D
330
4C
100
AcDbEntity
  8
1
  6
Continuous
 62
     7
100
AcDbLine
 10
137.1146331018701
 20
215.8142307952434
 30
0.0
 11
137.1146331018701
 21
239.8142307952434
 31
0.0
  0
LINE
  5
12E
330
4C
100
AcDbEntity
  8
1
  6
Continuous
 62
     2
100
AcDbLine
 10
135.3825822943012
 20
215.8142307952434
 30
0.0
 11
137.1146331018701
 21
216.8142307952434
 31
0.0
  0
LINE
  5
12F
330
4C
100
AcDbEntity
  8
1
  6
Continuous
 62
     2
100
AcDbLine
 10
137.1146331018701
 20
216.8142307952434
 30
0.0
 11
138.6146331018701
 21
216.8142307952435
 31
0.0
  0
LINE
  5
130
330
4C
100
AcDbEntity
  8
1
  6
Continuous
 62
     7
100
AcDbLine
 10
137.1146331018701
 20
215.8142307952434
 30
0.0
 11
138.6146331018701
 21
215.8142307952434
 31
0.0
  0
LINE
  5
131
330
4C
100
AcDbEntity
  8
1
  6
Continuous
 62
     7
100
AcDbLine
 10
135.3825822943012
 20
215.8142307952434
 30
0.0
 11
137.1146331018701
 21
215.8142307952434
 31
0.0
  0
LINE
  5
132
330
4C
100
AcDbEntity
  8
1
  6
Continuous
 62
     7
100
AcDbLine
 10
135.1146331018701
 20
215.8142307952434
 30
0.0
 11
135.3825822943012
 21
215.8142307952434
 31
0.0
  0
LINE
  5
133
330
4C
100
AcDbEntity
  8
1
  6
Continuous
 62
     7
100
AcDbLine
 10
135.1146331018701
 20
215.3049810424205
 30
0.0
 11
135.1146331018701
 21
215.8142307952434
 31
0.0
  0
LINE
  5
134
330
4C
100
AcDbEntity
  8
1
  6
Continuous
 62
     7
100
AcDbLine
 10
114.1146331018701
 20
213.8142307952435
 30
0.0
 11
132.2836281935898
 21
215.1040133630501
 31
0.0
  0
LINE
  5
135
330
4C
100
AcDbEntity
  8
1
  6
Continuous
 62
     7
100
AcDbLine
 10
126.1146331018701
 20
248.5642307952434
 30
0.0
 11
126.1146331018701
 21
246.7878967562537
 31
0.0
  0
LINE
  5
136
330
4C
100
AcDbEntity
  8
1
  6
Continuous
 62
     7
100
AcDbLine
 10
132.2836281935898
 20
215.1040133630501
 30
0.0
 11
135.1146331018701
 21
215.3049810424205
 31
0.0
  0
LINE
  5
137
330
4C
100
AcDbEntity
  8
1
  6
Continuous
 62
     7
100
AcDbLine
 10
135.1146331018701
 20
239.8142307952434
 30
0.0
 11
135.1146331018701
 21
215.8142307952434
 31
0.0
  0
LINE
  5
138
330
4C
100
AcDbEntity
  8
1
  6
Continuous
 62
     7
100
AcDbLine
 10
132.2836281935898
 20
240.5244482274367
 30
0.0
 11
131.6897736141782
 21
240.5666048398674
 31
0.0
  0
LINE
  5
139
330
4C
100
AcDbEntity
  8
1
  6
Continuous
 62
     7
100
AcDbLine
 10
100.1146331018701
 20
246.7878967562538
 30
0.0
 11
100.1146331018701
 21
227.8142307952434
 31
0.0
  0
LINE
  5
13A
330
4C
100
AcDbEntity
  8
1
  6
Continuous
 62
     7
100
AcDbLine
 10
126.1146331018701
 20
246.7878967562537
 30
0.0
 11
126.1146331018701
 21
246.5515438049462
 31
0.0
  0
LINE
  5
13B
330
4C
100
AcDbEntity
  8
1
  6
Continuous
 62
     7
100
AcDbLine
 10
126.8055343092355
 20
241.3158466535236
 30
0.0
 11
115.0210610649478
 21
229.6943011886454
 31
0.0
  0
LINE
  5
13C
330
4C
100
AcDbEntity
  8
1
  6
Continuous
 62
     7
100
AcDbLine
 10
126.1146331018701
 20
252.8142307952434
 30
0.0
 11
126.1146331018701
 21
251.3142307952434
 31
0.0
  0
ARC
  5
13D
330
4C
100
AcDbEntity
  8
1
  6
Continuous
 62
     7
100
AcDbCircle
 10
406.2549551811786
 20
227.8142307952437
 30
0.0
 40
14.00000000000001
100
AcDbArc
 50
-97.13387664333096
 51
-82.8711740784791
  0
ARC
  5
13E
330
4C
100
AcDbEntity
  8
1
  6
Continuous
 62
     7
100
AcDbCircle
 10
431.2549551811786
 20
248.5642307952437
 30
0.0
 40
12.0
100
AcDbArc
 50
180.0
 51
-90.0
  0
ARC
  5
13F
330
4C
100
AcDbEntity
  8
1
  6
Continuous
 62
     7
100
AcDbCircle
 10
363.2549551811786
 20
237.1416098483325
 30
0.0
 40
30.00000000000005
100
AcDbArc
 50
-8.8331983696778
 51
0.0
  0
ARC
  5
140
330
4C
100
AcDbEntity
  8
1
  6
Continuous
 62
     7
100
AcDbCircle
 10
113.1146331018701
 20
227.8142307952434
 30
0.0
 40
23.0000000000001
100
AcDbArc
 50
124.4173887104414
 51
-33.54681501581416
  0
ARC
  5
141
330
4C
100
AcDbEntity
  8
1
  6
Continuous
 62
     7
100
AcDbCircle
 10
114.1146331018701
 20
227.8142307952434
 30
0.0
 40
14.0
100
AcDbArc
 50
180.0
 51
-90.0
  0
ARC
  5
142
330
4C
100
AcDbEntity
  8
1
  6
Continuous
 62
     7
100
AcDbCircle
 10
113.1146331018701
 20
227.8142307952434
 30
0.0
 40
23.0000000000001
100
AcDbArc
 50
33.54681501581416
 51
55.58261128955849
  0
ARC
  5
143
330
4C
100
AcDbEntity
  8
1
  6
Continuous
 62
     7
100
AcDbCircle
 10
449.2549551811786
 20
250.3142307952436
 30
0.0
 40
0.5
100
AcDbArc
 50
90.0
 51
180.0
  0
ARC
  5
144
330
4C
100
AcDbEntity
  8
1
  6
Continuous
 62
     7
100
AcDbCircle
 10
444.7549551811786
 20
240.5642307952437
 30
0.0
 40
4.0
100
AcDbArc
 50
-90.0
 51
0.0
  0
ARC
  5
145
330
4C
100
AcDbEntity
  8
1
  6
Continuous
 62
     7
100
AcDbCircle
 10
449.2549551811786
 20
205.3142307952437
 30
0.0
 40
0.5
100
AcDbArc
 50
180.0
 51
-90.0
  0
ARC
  5
146
330
4C
100
AcDbEntity
  8
1
  6
Continuous
 62
     7
100
AcDbCircle
 10
444.7549551811786
 20
215.0642307952437
 30
0.0
 40
4.0
100
AcDbArc
 50
0.0
 51
90.0
  0
ARC
  5
147
330
4C
100
AcDbEntity
  8
1
  6
Continuous
 62
     7
100
AcDbCircle
 10
100.3646331018706
 20
601.6559361776144
 30
0.0
 40
4.0
100
AcDbArc
 50
0.00000000000163
 51
90.0
  0
ARC
  5
148
330
4C
100
AcDbEntity
  8
1
  6
Continuous
 62
     7
100
AcDbCircle
 10
125.8646331018706
 20
601.6559361776144
 30
0.0
 40
4.000000000000114
100
AcDbArc
 50
90.0
 51
179.9999999999984
  0
ARC
  5
149
330
4C
100
AcDbEntity
  8
1
  6
Continuous
 62
     7
100
AcDbCircle
 10
135.6146331018706
 20
606.1559361776145
 30
0.0
 40
0.5
100
AcDbArc
 50
-90.0
 51
0.0
  0
ARC
  5
14A
330
4C
100
AcDbEntity
  8
1
  6
Continuous
 62
     7
100
AcDbCircle
 10
90.61463310187062
 20
606.1559361776145
 30
0.0
 40
0.5
100
AcDbArc
 50
180.0
 51
-90.0
  0
ARC
  5
14B
330
4C
100
AcDbEntity
  8
1
  6
Continuous
 62
     7
100
AcDbCircle
 10
74.36463310187062
 20
582.0222421223418
 30
0.0
 40
29.99999999999996
100
AcDbArc
 50
-15.10263691918608
 51
-0.00000000000022
  0
ARC
  5
14C
330
4C
100
AcDbEntity
  8
1
  6
Continuous
 62
     7
100
AcDbCircle
 10
133.8646331018706
 20
587.7841189359076
 30
0.0
 40
12.0
100
AcDbArc
 50
180.0
 51
-94.06050734864745
  0
ARC
  5
14D
330
4C
100
AcDbEntity
  8
1
  6
Continuous
 62
     7
100
AcDbCircle
 10
132.1146331018701
 20
246.5515438049462
 30
0.0
 40
6.000000000000014
100
AcDbArc
 50
180.0
 51
-94.06050734864756
  0
ENDBLK
  5
4E
330
4C
100
AcDbEntity
  8
0
100
AcDbBlockEnd
  0
BLOCK
  5
50
330
4F
100
AcDbEntity
  8
0
100
AcDbBlockBegin
  2
32-1-16
 70
     0
 71
     0
 10
187.9019112083787
 20
485.8491420378471
 30
0.0
  3
32-1-16
  1

  0
LINE
  5
14E
330
4F
100
AcDbEntity
  8
1
  6
Continuous
 62
     7
100
AcDbLine
 10
400.0621974920216
 20
252.8142307952426
 30
0.0
 11
392.9549551811786
 21
252.8142307952426
 31
0.0
  0
LINE
  5
14F
330
4F
100
AcDbEntity
  8
1
  6
Continuous
 62
     7
100
AcDbLine
 10
417.7549551811786
 20
261.8142307952426
 30
0.0
 11
417.8129762429093
 21
261.8142307952426
 31
0.0
  0
LINE
  5
150
330
4F
100
AcDbEntity
  8
1
  6
Continuous
 62
     7
100
AcDbLine
 10
393.0679551811786
 20
252.8142307952426
 30
0.0
 11
392.9549551811786
 21
252.8142307952426
 31
0.0
  0
LINE
  5
151
330
4F
100
AcDbEntity
  8
1
  6
Continuous
 62
     7
100
AcDbLine
 10
394.696934119448
 20
261.8142307952426
 30
0.0
 11
394.7549551811786
 21
261.8142307952426
 31
0.0
  0
LINE
  5
152
330
4F
100
AcDbEntity
  8
1
  6
Continuous
 62
     7
100
AcDbLine
 10
419.5549551811786
 20
252.8142307952426
 30
0.0
 11
412.4595333380831
 21
252.8142307952426
 31
0.0
  0
LINE
  5
153
330
4F
100
AcDbEntity
  8
1
  6
Continuous
 62
     7
100
AcDbLine
 10
416.0229043736098
 20
262.8142307952426
 30
0.0
 11
396.4870059887475
 21
262.8142307952426
 31
0.0
  0
LINE
  5
154
330
4F
100
AcDbEntity
  8
1
  6
Continuous
 62
     7
100
AcDbLine
 10
392.2549551811786
 20
253.3859796164128
 30
0.0
 11
392.2549551811786
 21
260.5274080449557
 31
0.0
  0
LINE
  5
155
330
4F
100
AcDbEntity
  8
1
  6
Continuous
 62
     7
100
AcDbLine
 10
420.2549551811786
 20
260.5274080449556
 30
0.0
 11
420.2549551811786
 21
253.3859796164128
 31
0.0
  0
LINE
  5
156
330
4F
100
AcDbEntity
  8
1
  6
Continuous
 62
     7
100
AcDbLine
 10
395.6209805849632
 20
261.8142307952426
 30
0.0
 11
416.8889297773942
 21
261.8142307952426
 31
0.0
  0
LINE
  5
157
330
4F
100
AcDbEntity
  8
1
  6
Continuous
 62
     7
100
AcDbLine
 10
101.5566120401395
 20
261.8142307952434
 30
0.0
 11
101.6146331018701
 21
261.8142307952434
 31
0.0
  0
LINE
  5
158
330
4F
100
AcDbEntity
  8
1
  6
Continuous
 62
     7
100
AcDbLine
 10
99.92763310187011
 20
252.8142307952434
 30
0.0
 11
99.81463310187002
 21
252.8142307952434
 31
0.0
  0
LINE
  5
159
330
4F
100
AcDbEntity
  8
1
  6
Continuous
 62
     7
100
AcDbLine
 10
99.81463310187002
 20
252.8142307952434
 30
0.0
 11
113.1146331018701
 21
252.8142307952434
 31
0.0
  0
LINE
  5
15A
330
4F
100
AcDbEntity
  8
1
  6
Continuous
 62
     7
100
AcDbLine
 10
119.7667004496951
 20
577.155936177615
 30
0.0
 11
106.462565754045
 21
577.155936177615
 31
0.0
  0
LINE
  5
15B
330
4F
100
AcDbEntity
  8
1
  6
Continuous
 62
     7
100
AcDbLine
 10
128.5650224287646
 20
564.3950768667137
 30
0.0
 11
121.9129550809397
 21
575.9167954885164
 31
0.0
  0
LINE
  5
15C
330
4F
100
AcDbEntity
  8
1
  6
Continuous
 62
     7
100
AcDbLine
 10
121.9129550809397
 20
550.3950768667137
 30
0.0
 11
128.5650224287646
 21
561.9167954885164
 31
0.0
  0
LINE
  5
15D
330
4F
100
AcDbEntity
  8
1
  6
Continuous
 62
     7
100
AcDbLine
 10
122.8825822943012
 20
262.8142307952434
 30
0.0
 11
120.9093810563914
 21
262.8142307952434
 31
0.0
  0
LINE
  5
15E
330
4F
100
AcDbEntity
  8
1
  6
Continuous
 62
     7
100
AcDbLine
 10
124.6146331018701
 20
261.8142307952434
 30
0.0
 11
124.6726541636006
 21
261.8142307952434
 31
0.0
  0
LINE
  5
15F
330
4F
100
AcDbEntity
  8
1
  6
Continuous
 62
     7
100
AcDbLine
 10
126.4146331018701
 20
252.8142307952434
 30
0.0
 11
126.3016331018701
 21
252.8142307952434
 31
0.0
  0
LINE
  5
160
330
4F
100
AcDbEntity
  8
1
  6
Continuous
 62
     7
100
AcDbLine
 10
113.1146331018701
 20
252.8142307952434
 30
0.0
 11
126.4146331018701
 21
252.8142307952434
 31
0.0
  0
LINE
  5
161
330
4F
100
AcDbEntity
  8
1
  6
Continuous
 62
     7
100
AcDbLine
 10
105.2690504522838
 20
262.8142307952434
 30
0.0
 11
103.3466839094388
 21
262.8142307952434
 31
0.0
  0
LINE
  5
162
330
4F
100
AcDbEntity
  8
1
  6
Continuous
 62
     7
100
AcDbLine
 10
104.3163111228006
 20
575.9167954885164
 30
0.0
 11
97.66424377497572
 21
564.3950768667137
 31
0.0
  0
LINE
  5
163
330
4F
100
AcDbEntity
  8
1
  6
Continuous
 62
     7
100
AcDbLine
 10
97.66424377497572
 20
561.9167954885164
 30
0.0
 11
104.3163111228006
 21
550.3950768667137
 31
0.0
  0
ARC
  5
164
330
4F
100
AcDbEntity
  8
1
  6
Continuous
 62
     7
100
AcDbCircle
 10
416.7549551811786
 20
256.9566938306842
 30
0.0
 40
5.000000000000016
100
AcDbArc
 50
45.57299599919448
 51
74.66244233044588
  0
ARC
  5
165
330
4F
100
AcDbEntity
  8
1
  6
Continuous
 62
     7
100
AcDbCircle
 10
395.7549551811786
 20
256.9566938306842
 30
0.0
 40
4.999999999999956
100
AcDbArc
 50
-134.4270040008062
 51
-124.0557977425681
  0
ARC
  5
166
330
4F
100
AcDbEntity
  8
1
  6
Continuous
 62
     7
100
AcDbCircle
 10
395.7549551811786
 20
256.9566938306842
 30
0.0
 40
4.999999999999985
100
AcDbArc
 50
105.3375576695541
 51
134.4270040008051
  0
ARC
  5
167
330
4F
100
AcDbEntity
  8
1
  6
Continuous
 62
     7
100
AcDbCircle
 10
416.7549551811786
 20
256.9566938306842
 30
0.0
 40
4.999999999999993
100
AcDbArc
 50
-55.94420225743188
 51
-45.57299599919379
  0
ARC
  5
168
330
4F
100
AcDbEntity
  8
1
  6
Continuous
 62
     7
100
AcDbCircle
 10
102.6146331018701
 20
256.956693830685
 30
0.0
 40
5.000000000000044
100
AcDbArc
 50
105.3375576695541
 51
-124.0557977425684
  0
ARC
  5
169
330
4F
100
AcDbEntity
  8
1
  6
Continuous
 62
     7
100
AcDbCircle
 10
113.11463310187
 20
563.155936177615
 30
0.0
 40
15.50000000000002
100
AcDbArc
 50
55.41462091516068
 51
64.58537908483883
  0
ARC
  5
16A
330
4F
100
AcDbEntity
  8
1
  6
Continuous
 62
     7
100
AcDbCircle
 10
113.11463310187
 20
563.155936177615
 30
0.0
 40
15.5
100
AcDbArc
 50
0.0
 51
4.58537908483958
  0
ARC
  5
16B
330
4F
100
AcDbEntity
  8
1
  6
Continuous
 62
     7
100
AcDbCircle
 10
113.11463310187
 20
563.155936177615
 30
0.0
 40
15.49999999999985
100
AcDbArc
 50
-58.92704902784592
 51
-55.41462091516044
  0
ARC
  5
16C
330
4F
100
AcDbEntity
  8
1
  6
Continuous
 62
     7
100
AcDbCircle
 10
113.11463310187
 20
563.155936177615
 30
0.0
 40
15.49999999999994
100
AcDbArc
 50
-4.58537908483916
 51
0.0
  0
ARC
  5
16D
330
4F
100
AcDbEntity
  8
1
  6
Continuous
 62
     7
100
AcDbCircle
 10
123.6146331018701
 20
256.956693830685
 30
0.0
 40
5.000000000000032
100
AcDbArc
 50
-55.94420225743239
 51
74.66244233044556
  0
ARC
  5
16E
330
4F
100
AcDbEntity
  8
1
  6
Continuous
 62
     7
100
AcDbCircle
 10
113.11463310187
 20
563.155936177615
 30
0.0
 40
15.49999999999998
100
AcDbArc
 50
115.4146209151608
 51
124.5853790848384
  0
ARC
  5
16F
330
4F
100
AcDbEntity
  8
1
  6
Continuous
 62
     7
100
AcDbCircle
 10
113.11463310187
 20
563.155936177615
 30
0.0
 40
15.49999999999964
100
AcDbArc
 50
175.4146209151603
 51
180.0
  0
ARC
  5
170
330
4F
100
AcDbEntity
  8
1
  6
Continuous
 62
     7
100
AcDbCircle
 10
113.11463310187
 20
563.155936177615
 30
0.0
 40
15.49999999999975
100
AcDbArc
 50
-124.5853790848387
 51
-121.0729509721535
  0
ARC
  5
171
330
4F
100
AcDbEntity
  8
1
  6
Continuous
 62
     7
100
AcDbCircle
 10
113.11463310187
 20
563.155936177615
 30
0.0
 40
15.49999999999969
100
AcDbArc
 50
180.0
 51
-175.4146209151608
  0
ARC
  5
172
330
4F
100
AcDbEntity
  8
1
  6
Continuous
 62
     7
100
AcDbCircle
 10
113.11463310187
 20
563.155936177615
 30
0.0
 40
10.7679491924311
100
AcDbArc
 50
-42.01706006464691
 51
89.99999999999947
  0
ARC
  5
173
330
4F
100
AcDbEntity
  8
1
  6
Continuous
 62
     7
100
AcDbCircle
 10
113.11463310187
 20
563.155936177615
 30
0.0
 40
10.76794919243127
100
AcDbArc
 50
89.99999999999947
 51
-137.9829399353524
  0
SPLINE
  5
174
330
4F
100
AcDbEntity
  8
1
  6
Continuous
 62
     7
100
AcDbSpline
210
0.0
220
0.0
230
1.0
 70
     8
 71
     3
 72
    59
 73
    55
 74
    53
 42
0.0000000001
 43
0.0000000001
 44
0.00000001
 40
0.0
 40
0.0
 40
0.0
 40
0.0
 40
0.3328651923268225
 40
0.6657611143670834
 40
1.067419790257892
 40
1.468838798305348
 40
1.902250715066018
 40
2.335501159483282
 40
2.796817196309573
 40
3.258030103351288
 40
3.740926902230296
 40
4.223763035182696
 40
4.72024546102669
 40
5.21669983932256
 40
5.71780716608288
 40
6.218914492843029
 40
6.715368871138782
 40
7.211851296982841
 40
7.694687429935263
 40
8.177584228814311
 40
8.638797135856189
 40
9.10011317268248
 40
9.533363617099822
 40
9.966775533860492
 40
10.36819454190796
 40
10.76985321779864
 40
11.13896134094615
 40
11.50839734425419
 40
11.84902950637067
 40
12.19003325534098
 40
12.51084708735674
 40
12.83192840047509
 40
13.14569038571387
 40
13.45945237095259
 40
13.78053368407087
 40
14.10134751608671
 40
14.44235126505707
 40
14.78298342717357
 40
15.15241943048161
 40
15.5215275536292
 40
15.9231862295198
 40
16.32460523756727
 40
16.758017154328
 40
17.19126759874528
 40
17.65258363557164
 40
18.11379654261337
 40
18.5966933414923
 40
19.07952947444482
 40
19.57601190028905
 40
20.07246627858473
 40
20.57357360534494
 40
21.07468093210526
 40
21.30241172854293
 40
21.52997850248048
 40
21.52997850248048
 40
21.52997850248048
 40
21.52997850248048
 10
408.0829666847022
 20
258.5289813534852
 30
0.0
 10
408.1542390287315
 20
258.6141292600705
 30
0.0
 10
408.2967902965669
 20
258.7844329339932
 30
0.0
 10
408.5561361901159
 20
259.0290373160336
 30
0.0
 10
408.8517079419167
 20
259.2663233860495
 30
0.0
 10
409.1944792488314
 20
259.4960644942046
 30
0.0
 10
409.5631311744821
 20
259.7036693383254
 30
0.0
 10
409.963698244676
 20
259.8928758344962
 30
0.0
 10
410.3847992354472
 20
260.0578434256825
 30
0.0
 10
410.8311585096252
 20
260.2010266255419
 30
0.0
 10
411.2923540963984
 20
260.3185540825409
 30
0.0
 10
411.7710492669153
 20
260.4116378260981
 30
0.0
 10
412.2587165555024
 20
260.478140641982
 30
0.0
 10
412.7553343667833
 20
260.5185261997462
 30
0.0
 10
413.2549551808596
 20
260.5318696812177
 30
0.0
 10
413.7545759968483
 20
260.5185262006762
 30
0.0
 10
414.251193802445
 20
260.4781406383024
 30
0.0
 10
414.7388611116429
 20
260.4116378397421
 30
0.0
 10
415.2175562073643
 20
260.3185540331564
 30
0.0
 10
415.6787520674908
 20
260.2010268065476
 30
0.0
 10
416.1251103652671
 20
260.0578427837377
 30
0.0
 10
416.5462148920604
 20
259.8928781728542
 30
0.0
 10
416.9467695299886
 20
259.7036611982657
 30
0.0
 10
417.3154661211762
 20
259.4960940000713
 30
0.0
 10
417.6580824126538
 20
259.2662222386168
 30
0.0
 10
417.9636302562926
 20
259.0218389316789
 30
0.0
 10
418.2377827219708
 20
258.7578076815756
 30
0.0
 10
418.4710263869527
 20
258.4830503373244
 30
0.0
 10
418.6679054204211
 20
258.1923497853793
 30
0.0
 10
418.8210049626359
 20
257.8943641305723
 30
0.0
 10
418.9335524331461
 20
257.5856635110598
 30
0.0
 10
419.0001039435068
 20
257.273092873823
 30
0.0
 10
419.0235792001945
 20
256.9566938306843
 30
0.0
 10
419.0001039435072
 20
256.6402947875455
 30
0.0
 10
418.9335524331461
 20
256.3277241503088
 30
0.0
 10
418.8210049626363
 20
256.0190235307962
 30
0.0
 10
418.6679054204211
 20
255.7210378759889
 30
0.0
 10
418.4710263869528
 20
255.4303373240455
 30
0.0
 10
418.2377827219705
 20
255.1555799797872
 30
0.0
 10
417.9636302562932
 20
254.8915487297116
 30
0.0
 10
417.6580824126514
 20
254.6471654226613
 30
0.0
 10
417.3154661211849
 20
254.4172936616451
 30
0.0
 10
416.946769529953
 20
254.2097264616892
 30
0.0
 10
416.5462148921956
 20
254.0205094939193
 30
0.0
 10
416.1251103647262
 20
253.8555448560044
 30
0.0
 10
415.6787520695448
 20
253.712360936943
 30
0.0
 10
415.2175561992987
 20
253.5948333057076
 30
0.0
 10
414.7388611420531
 20
253.5017510375675
 30
0.0
 10
414.2511936853918
 20
253.4352423427185
 30
0.0
 10
413.75457643499
 20
253.3948789796894
 30
0.0
 10
413.2549535287308
 20
253.3814519201567
 30
0.0
 10
412.8449251966461
 20
253.3926584965465
 30
0.0
 10
412.5267536762058
 20
253.4133554651317
 30
0.0
 10
412.3756891374395
 20
253.4280197405517
 30
0.0
 10
412.3001840788137
 20
253.435349236834
 30
0.0
 11
408.0829666847022
 21
258.5289813534852
 31
0.0
 11
408.3015846569708
 21
258.7799901550519
 31
0.0
 11
408.5420282422702
 21
259.0102217280375
 31
0.0
 11
408.855189599492
 21
259.2617364517842
 31
0.0
 11
409.1882167186728
 21
259.4858573073776
 31
0.0
 11
409.565545081391
 21
259.6990923801929
 31
0.0
 11
409.9571127505845
 21
259.8845127351437
 31
0.0
 11
410.3864461023237
 21
260.0532887965907
 31
0.0
 11
410.8255351908242
 21
260.1944203592608
 31
0.0
 11
411.293381081225
 21
260.3140428538119
 31
0.0
 11
411.7673131087237
 21
260.406342174478
 31
0.0
 11
412.2592098154172
 21
260.4736654922513
 31
0.0
 11
412.7540293673996
 21
260.5139216806585
 31
0.0
 11
413.2549551811794
 21
260.5274080449559
 31
0.0
 11
413.7558809949589
 21
260.5139216806585
 31
0.0
 11
414.2507005469412
 21
260.4736654922514
 31
0.0
 11
414.7425972536348
 21
260.4063421744781
 31
0.0
 11
415.2165292811335
 21
260.3140428538119
 31
0.0
 11
415.6843751715344
 21
260.1944203592608
 31
0.0
 11
416.123464260035
 21
260.0532887965907
 31
0.0
 11
416.5527976117742
 21
259.8845127351437
 31
0.0
 11
416.9443652809678
 21
259.699092380193
 31
0.0
 11
417.3216936436861
 21
259.4858573073777
 31
0.0
 11
417.6547207628669
 21
259.2617364517843
 31
0.0
 11
417.9678821200885
 21
259.0102217280376
 31
0.0
 11
418.2332192491934
 21
258.7536344826573
 31
0.0
 11
418.4717125457487
 21
258.4714928373115
 31
0.0
 11
418.6619482698543
 21
258.1889319781287
 31
0.0
 11
418.8173731364316
 21
257.8854082267331
 31
0.0
 11
418.926327968576
 21
257.5836627058632
 31
0.0
 11
418.9933235102787
 21
257.26964868225
 31
0.0
 11
419.0158144920807
 21
256.9566938306842
 31
0.0
 11
418.9933235102789
 21
256.6437389791185
 31
0.0
 11
418.9263279685761
 21
256.3297249555054
 31
0.0
 11
418.8173731364317
 21
256.0279794346354
 31
0.0
 11
418.6619482698544
 21
255.7244556832398
 31
0.0
 11
418.4717125457487
 21
255.4418948240569
 31
0.0
 11
418.2332192491934
 21
255.1597531787112
 31
0.0
 11
417.9678821200885
 21
254.9031659333309
 31
0.0
 11
417.6547207628669
 21
254.6516512095842
 31
0.0
 11
417.3216936436861
 21
254.4275303539909
 31
0.0
 11
416.9443652809677
 21
254.2142952811757
 31
0.0
 11
416.5527976117742
 21
254.0288749262247
 31
0.0
 11
416.123464260035
 21
253.8600988647778
 31
0.0
 11
415.6843751715345
 21
253.7189673021076
 31
0.0
 11
415.2165292811337
 21
253.5993448075566
 31
0.0
 11
414.7425972536349
 21
253.5070454868904
 31
0.0
 11
414.2507005469412
 21
253.4397221691171
 31
0.0
 11
413.7558809949589
 21
253.3994659807101
 31
0.0
 11
413.2549551811793
 21
253.3859796164128
 31
0.0
 11
412.7540293673995
 21
253.3994659807101
 31
0.0
 11
412.5267995205514
 21
253.4145627468381
 31
0.0
 11
412.3001840788137
 21
253.435349236834
 31
0.0
  0
SPLINE
  5
175
330
4F
100
AcDbEntity
  8
1
  6
Continuous
 62
     7
100
AcDbSpline
210
0.0
220
0.0
230
1.0
 70
     8
 71
     3
 72
    59
 73
    55
 74
    53
 42
0.0000000001
 43
0.0000000001
 44
0.00000001
 40
0.0
 40
0.0
 40
0.0
 40
0.0
 40
0.3328651923234044
 40
0.6657611143602094
 40
1.067419790250938
 40
1.468838798298394
 40
1.902250715059114
 40
2.335501159476378
 40
2.796817196302669
 40
3.258030103344438
 40
3.740926902223391
 40
4.223763035175958
 40
4.720245461020009
 40
5.216699839315879
 40
5.717807166076087
 40
6.218914492836406
 40
6.715368871132158
 40
7.211851296976217
 40
7.69468742992875
 40
8.177584228807634
 40
8.638797135849295
 40
9.10011317267564
 40
9.533363617092828
 40
9.966775533853548
 40
10.36819454190097
 40
10.76985321779174
 40
11.13896134093937
 40
11.50839734424734
 40
11.84902950636378
 40
12.19003325533412
 40
12.51084708734992
 40
12.83192840046828
 40
13.14569038570706
 40
13.45945237094579
 40
13.78053368406408
 40
14.1013475160799
 40
14.44235126505023
 40
14.7829834271667
 40
15.15241943047471
 40
15.52152755362238
 40
15.92318622951319
 40
16.32460523756062
 40
16.7580171543212
 40
17.19126759873848
 40
17.65258363556479
 40
18.11379654260652
 40
18.5966933414855
 40
19.07952947443791
 40
19.57601190028197
 40
20.07246627857771
 40
20.57357360533791
 40
21.07468093209823
 40
21.30241172853625
 40
21.52997850247414
 40
21.52997850247414
 40
21.52997850247414
 40
21.52997850247414
 10
404.4269436776522
 20
258.5289813534906
 30
0.0
 10
404.3556713336236
 20
258.6141292600749
 30
0.0
 10
404.2131200657893
 20
258.7844329339956
 30
0.0
 10
403.9537741722421
 20
259.0290373160343
 30
0.0
 10
403.658202420442
 20
259.2663233860496
 30
0.0
 10
403.3154311135275
 20
259.4960644942047
 30
0.0
 10
402.9467791878766
 20
259.7036693383254
 30
0.0
 10
402.5462121176827
 20
259.8928758344962
 30
0.0
 10
402.1251111269116
 20
260.0578434256825
 30
0.0
 10
401.6787518527334
 20
260.2010266255419
 30
0.0
 10
401.2175562659604
 20
260.3185540825409
 30
0.0
 10
400.7388610954432
 20
260.4116378260982
 30
0.0
 10
400.2511938068562
 20
260.478140641982
 30
0.0
 10
399.7545759955754
 20
260.5185261997462
 30
0.0
 10
399.2549551814989
 20
260.5318696812176
 30
0.0
 10
398.7553343655102
 20
260.5185262006762
 30
0.0
 10
398.2587165599135
 20
260.4781406383024
 30
0.0
 10
397.7710492507157
 20
260.4116378397421
 30
0.0
 10
397.2923541549942
 20
260.3185540331564
 30
0.0
 10
396.8311582948677
 20
260.2010268065477
 30
0.0
 10
396.3847999970918
 20
260.0578427837376
 30
0.0
 10
395.9636954702983
 20
259.8928781728544
 30
0.0
 10
395.5631408323702
 20
259.7036611982655
 30
0.0
 10
395.1944442411829
 20
259.4960940000714
 30
0.0
 10
394.8518279497052
 20
259.2662222386167
 30
0.0
 10
394.5462801060661
 20
259.021838931679
 30
0.0
 10
394.2721276403879
 20
258.7578076815757
 30
0.0
 10
394.0388839754061
 20
258.4830503373244
 30
0.0
 10
393.8420049419379
 20
258.1923497853793
 30
0.0
 10
393.6889053997227
 20
257.8943641305723
 30
0.0
 10
393.5763579292126
 20
257.5856635110598
 30
0.0
 10
393.5098064188515
 20
257.2730928738231
 30
0.0
 10
393.4863311621642
 20
256.9566938306842
 30
0.0
 10
393.5098064188516
 20
256.6402947875455
 30
0.0
 10
393.5763579292127
 20
256.3277241503088
 30
0.0
 10
393.6889053997224
 20
256.0190235307962
 30
0.0
 10
393.8420049419376
 20
255.7210378759889
 30
0.0
 10
394.0388839754059
 20
255.4303373240455
 30
0.0
 10
394.2721276403879
 20
255.1555799797871
 30
0.0
 10
394.5462801060654
 20
254.8915487297116
 30
0.0
 10
394.8518279497075
 20
254.6471654226613
 30
0.0
 10
395.194444241174
 20
254.4172936616452
 30
0.0
 10
395.5631408324057
 20
254.2097264616891
 30
0.0
 10
395.963695470163
 20
254.0205094939194
 30
0.0
 10
396.3847999976326
 20
253.8555448560044
 30
0.0
 10
396.8311582928139
 20
253.712360936943
 30
0.0
 10
397.2923541630598
 20
253.5948333057076
 30
0.0
 10
397.7710492203056
 20
253.5017510375675
 30
0.0
 10
398.2587166769666
 20
253.4352423427185
 30
0.0
 10
398.7553339273685
 20
253.3948789796893
 30
0.0
 10
399.2549568336277
 20
253.3814519201569
 30
0.0
 10
399.6649851657126
 20
253.3926584965464
 30
0.0
 10
399.9831566861532
 20
253.4133554651318
 30
0.0
 10
400.1342212249194
 20
253.4280197405517
 30
0.0
 10
400.2097262835455
 20
253.4353492368341
 30
0.0
 11
404.4269436776522
 21
258.5289813534906
 31
0.0
 11
404.2083257053855
 21
258.7799901550544
 31
0.0
 11
403.9678821200886
 21
259.0102217280376
 31
0.0
 11
403.6547207628669
 21
259.2617364517842
 31
0.0
 11
403.3216936436861
 21
259.4858573073776
 31
0.0
 11
402.9443652809678
 21
259.6990923801929
 31
0.0
 11
402.5527976117742
 21
259.8845127351437
 31
0.0
 11
402.1234642600351
 21
260.0532887965907
 31
0.0
 11
401.6843751715346
 21
260.1944203592608
 31
0.0
 11
401.2165292811338
 21
260.3140428538119
 31
0.0
 11
400.7425972536349
 21
260.406342174478
 31
0.0
 11
400.2507005469414
 21
260.4736654922513
 31
0.0
 11
399.7558809949589
 21
260.5139216806585
 31
0.0
 11
399.2549551811793
 21
260.5274080449559
 31
0.0
 11
398.7540293673995
 21
260.5139216806585
 31
0.0
 11
398.2592098154173
 21
260.4736654922514
 31
0.0
 11
397.7673131087237
 21
260.4063421744781
 31
0.0
 11
397.2933810812249
 21
260.3140428538119
 31
0.0
 11
396.8255351908242
 21
260.1944203592608
 31
0.0
 11
396.3864461023238
 21
260.0532887965907
 31
0.0
 11
395.9571127505845
 21
259.8845127351437
 31
0.0
 11
395.5655450813911
 21
259.699092380193
 31
0.0
 11
395.1882167186728
 21
259.4858573073777
 31
0.0
 11
394.855189599492
 21
259.2617364517843
 31
0.0
 11
394.5420282422703
 21
259.0102217280376
 31
0.0
 11
394.2766911131652
 21
258.7536344826573
 31
0.0
 11
394.03819781661
 21
258.4714928373115
 31
0.0
 11
393.8479620925045
 21
258.1889319781287
 31
0.0
 11
393.6925372259271
 21
257.8854082267331
 31
0.0
 11
393.5835823937827
 21
257.5836627058632
 31
0.0
 11
393.5165868520798
 21
257.26964868225
 31
0.0
 11
393.4940958702779
 21
256.9566938306842
 31
0.0
 11
393.5165868520799
 21
256.6437389791185
 31
0.0
 11
393.5835823937827
 21
256.3297249555054
 31
0.0
 11
393.692537225927
 21
256.0279794346354
 31
0.0
 11
393.8479620925043
 21
255.7244556832398
 31
0.0
 11
394.0381978166099
 21
255.4418948240569
 31
0.0
 11
394.2766911131652
 21
255.1597531787112
 31
0.0
 11
394.5420282422702
 21
254.9031659333309
 31
0.0
 11
394.855189599492
 21
254.6516512095842
 31
0.0
 11
395.1882167186728
 21
254.4275303539909
 31
0.0
 11
395.565545081391
 21
254.2142952811757
 31
0.0
 11
395.9571127505845
 21
254.0288749262247
 31
0.0
 11
396.3864461023237
 21
253.8600988647778
 31
0.0
 11
396.8255351908242
 21
253.7189673021076
 31
0.0
 11
397.293381081225
 21
253.5993448075566
 31
0.0
 11
397.7673131087237
 21
253.5070454868904
 31
0.0
 11
398.2592098154173
 21
253.4397221691171
 31
0.0
 11
398.7540293673995
 21
253.3994659807101
 31
0.0
 11
399.2549551811792
 21
253.3859796164128
 31
0.0
 11
399.7558809949589
 21
253.3994659807101
 31
0.0
 11
399.9831108418074
 21
253.4145627468382
 31
0.0
 11
400.2097262835455
 21
253.4353492368341
 31
0.0
  0
SPLINE
  5
176
330
4F
100
AcDbEntity
  8
0
  6
Continuous
 62
     7
100
AcDbSpline
210
0.0
220
0.0
230
1.0
 70
    11
 71
     3
 72
    79
 73
    75
 74
    73
 42
0.0000000001
 43
0.0000000001
 44
0.00000001
 40
0.0
 40
0.0
 40
0.0
 40
0.0
 40
0.2910229153818732
 40
0.582034227873782
 40
0.8749339334364075
 40
1.167812547519265
 40
1.463561188767206
 40
1.759282806464808
 40
2.058487811140736
 40
2.357663885605941
 40
2.660503341347627
 40
2.963315625194599
 40
3.269530826276411
 40
3.57572346884368
 40
3.884662744191311
 40
4.193586027918933
 40
4.504289085610594
 40
4.814983882015278
 40
5.126294430971097
 40
5.437604979926915
 40
5.748299776331599
 40
6.059002834023261
 40
6.367926117750855
 40
6.676865393098464
 40
6.983058035665695
 40
7.289273236747588
 40
7.592085520594638
 40
7.894924976336327
 40
8.194101050801482
 40
8.493306055477454
 40
8.789027673175008
 40
9.084776314422964
 40
9.377654928505846
 40
9.670554634068498
 40
9.96156594656045
 40
10.2525888619423
 40
10.54295309984927
 40
10.83331733775628
 40
11.12434025313814
 40
11.41535156563006
 40
11.70825127119271
 40
12.00112988527562
 40
12.29687852652357
 40
12.59260014422112
 40
12.89180514889707
 40
13.1909812233622
 40
13.49382067910389
 40
13.79663296295097
 40
14.10284816403283
 40
14.40904080660007
 40
14.71798008194768
 40
15.02690336567523
 40
15.33760642336688
 40
15.64830121977162
 40
15.95961176872744
 40
16.27092231768326
 40
16.581617114088
 40
16.89232017177966
 40
17.20124345550723
 40
17.5101827308548
 40
17.81637537342207
 40
18.12259057450383
 40
18.42540285835091
 40
18.72824231409258
 40
19.02741838855779
 40
19.32662339323373
 40
19.62234501093131
 40
19.91809365217926
 40
20.2109722662621
 40
20.50387197182475
 40
20.79488328431666
 40
21.08590619969852
 40
21.37627043760553
 40
21.66663467551256
 40
21.66663467551256
 40
21.66663467551256
 40
21.66663467551256
 10
124.9489453001017
 20
260.5137630820861
 30
0.0
 10
124.8525702413847
 20
260.5020874142847
 30
0.0
 10
124.6598239663603
 20
260.4787365441831
 30
0.0
 10
124.3758874570954
 20
260.4093805507327
 30
0.0
 10
124.0986231912367
 20
260.3159377931572
 30
0.0
 10
123.8298708073865
 20
260.1960308071799
 30
0.0
 10
123.5722254238668
 20
260.0519853019929
 30
0.0
 10
123.326998476632
 20
259.8839187011473
 30
0.0
 10
123.0967351205749
 20
259.6940839680734
 30
0.0
 10
122.8825029120589
 20
259.482947839406
 30
0.0
 10
122.6865484832961
 20
259.2531682357721
 30
0.0
 10
122.5097911396754
 20
259.0054397035479
 30
0.0
 10
122.3540203057083
 20
258.7427074637142
 30
0.0
 10
122.2200518883392
 20
258.4659564520723
 30
0.0
 10
122.1091288570538
 20
258.1782244743087
 30
0.0
 10
122.0219520646825
 20
257.8808710278859
 30
0.0
 10
121.9592040545896
 20
257.5768250317428
 30
0.0
 10
121.9214036753773
 20
257.2678834359886
 30
0.0
 10
121.9087266018891
 20
256.9566938306861
 30
0.0
 10
121.921403675377
 20
256.6455042253776
 30
0.0
 10
121.9592040545908
 20
256.3365626296404
 30
0.0
 10
122.0219520646779
 20
256.0325166334356
 30
0.0
 10
122.1091288570708
 20
255.7351631872418
 30
0.0
 10
122.2200518882761
 20
255.447431208627
 30
0.0
 10
122.3540203059416
 20
255.1706802001349
 30
0.0
 10
122.5097911388089
 20
254.9079479486106
 30
0.0
 10
122.6865484864903
 20
254.6602194595525
 30
0.0
 10
122.8825029001934
 20
254.4304396958318
 30
0.0
 10
123.0967351642646
 20
254.2193041577239
 30
0.0
 10
123.3269983142989
 20
254.0294672345962
 30
0.0
 10
123.5722260218942
 20
253.8614087165014
 30
0.0
 10
123.8298685835736
 20
253.7173332147085
 30
0.0
 10
124.0986314014649
 20
253.5975371442287
 30
0.0
 10
124.3758568871571
 20
253.5036821473875
 30
0.0
 10
124.6599372406598
 20
253.4358552407979
 30
0.0
 10
124.9483047211727
 20
253.3951602791739
 30
0.0
 10
125.2389887548523
 20
253.3813944856092
 30
0.0
 10
125.5296727885317
 20
253.3951602791738
 30
0.0
 10
125.8180402690447
 20
253.4358552407977
 30
0.0
 10
126.1021206225473
 20
253.5036821473876
 30
0.0
 10
126.3793461082396
 20
253.5975371442287
 30
0.0
 10
126.6481089261309
 20
253.7173332147086
 30
0.0
 10
126.9057514878103
 20
253.8614087165013
 30
0.0
 10
127.1509791954055
 20
254.0294672345963
 30
0.0
 10
127.3812423454399
 20
254.2193041577238
 30
0.0
 10
127.595474609511
 20
254.4304396958317
 30
0.0
 10
127.7914290232141
 20
254.6602194595524
 30
0.0
 10
127.9681863708956
 20
254.9079479486107
 30
0.0
 10
128.1239572037628
 20
255.1706802001348
 30
0.0
 10
128.2579256214283
 20
255.447431208627
 30
0.0
 10
128.3688486526336
 20
255.7351631872418
 30
0.0
 10
128.4560254450266
 20
256.0325166334355
 30
0.0
 10
128.5187734551136
 20
256.3365626296404
 30
0.0
 10
128.5565738343274
 20
256.6455042253778
 30
0.0
 10
128.5692509078152
 20
256.9566938306851
 30
0.0
 10
128.5565738343275
 20
257.267883435992
 30
0.0
 10
128.5187734551136
 20
257.5768250317307
 30
0.0
 10
128.4560254450269
 20
257.880871027931
 30
0.0
 10
128.3688486526324
 20
258.1782244741412
 30
0.0
 10
128.2579256214328
 20
258.465956452695
 30
0.0
 10
128.1239572037462
 20
258.742707461413
 30
0.0
 10
127.9681863709576
 20
259.0054397120987
 30
0.0
 10
127.7914290229851
 20
259.2531682042526
 30
0.0
 10
127.5954746103619
 20
259.4829479564927
 30
0.0
 10
127.3812423423067
 20
259.6940835369525
 30
0.0
 10
127.1509792070471
 20
259.8839203030208
 30
0.0
 10
126.905751444923
 20
260.0519794007683
 30
0.0
 10
126.648109085611
 20
260.196052751362
 30
0.0
 10
126.3793455194451
 20
260.3158567761188
 30
0.0
 10
126.1021228148628
 20
260.4096822093242
 30
0.0
 10
125.8180321456066
 20
260.4776187739961
 30
0.0
 10
125.5297030845356
 20
260.5179053309129
 30
0.0
 10
125.2388759718696
 20
260.533192076597
 30
0.0
 10
125.0455888573577
 20
260.5202394135898
 30
0.0
 10
124.9489453001017
 20
260.5137630820861
 30
0.0
 11
124.9489453001017
 21
260.5137630820861
 31
0.0
 11
124.6607858038268
 21
260.4730391089996
 31
0.0
 11
124.3777035974443
 21
260.4055702389343
 31
0.0
 11
124.1002795549005
 21
260.3116227102955
 31
0.0
 11
123.8327178027832
 21
260.1925068364961
 31
0.0
 11
123.574585434068
 21
260.048163707039
 31
0.0
 11
123.3305727814568
 21
259.8811035366232
 31
0.0
 11
123.0996932759259
 21
259.6907925050224
 31
0.0
 11
122.8865179809748
 21
259.4808815306669
 31
0.0
 11
122.6899836569665
 21
259.2504775475405
 31
0.0
 11
122.5140101211669
 21
259.0040458248528
 31
0.0
 11
122.357812980694
 21
258.740663588015
 31
0.0
 11
122.2243172927298
 21
258.4651044552372
 31
0.0
 11
122.1131673671727
 21
258.1768525343399
 31
0.0
 11
122.0261907131464
 21
257.8804260562995
 31
0.0
 11
121.9633856388249
 21
257.5761368637566
 31
0.0
 11
121.9256102771533
 21
257.267747047836
 31
0.0
 11
121.9129550809397
 21
256.956693830685
 31
0.0
 11
121.9256102771533
 21
256.6456406135341
 31
0.0
 11
121.9633856388249
 21
256.3372507976135
 31
0.0
 11
122.0261907131464
 21
256.0329616050706
 31
0.0
 11
122.1131673671727
 21
255.7365351270302
 31
0.0
 11
122.2243172927298
 21
255.4482832061329
 31
0.0
 11
122.357812980694
 21
255.1727240733551
 31
0.0
 11
122.5140101211669
 21
254.9093418365172
 31
0.0
 11
122.6899836569665
 21
254.6629101138295
 31
0.0
 11
122.8865179809747
 21
254.432506130703
 31
0.0
 11
123.099693275926
 21
254.2225951563476
 31
0.0
 11
123.3305727814568
 21
254.0322841247468
 31
0.0
 11
123.574585434068
 21
253.8652239543311
 31
0.0
 11
123.8327178027832
 21
253.7208808248739
 31
0.0
 11
124.1002795549005
 21
253.6017649510744
 31
0.0
 11
124.3777035974444
 21
253.5078174224357
 31
0.0
 11
124.6607858038269
 21
253.4403485523704
 31
0.0
 11
124.9489453001018
 21
253.3996245792839
 31
0.0
 11
125.2389887548522
 21
253.3859796164136
 31
0.0
 11
125.5290322096027
 21
253.3996245792838
 31
0.0
 11
125.8171917058776
 21
253.4403485523703
 31
0.0
 11
126.1002739122601
 21
253.5078174224357
 31
0.0
 11
126.3776979548039
 21
253.6017649510745
 31
0.0
 11
126.6452597069213
 21
253.7208808248739
 31
0.0
 11
126.9033920756365
 21
253.8652239543311
 31
0.0
 11
127.1474047282476
 21
254.0322841247468
 31
0.0
 11
127.3782842337785
 21
254.2225951563476
 31
0.0
 11
127.5914595287296
 21
254.432506130703
 31
0.0
 11
127.7879938527379
 21
254.6629101138295
 31
0.0
 11
127.9639673885375
 21
254.9093418365173
 31
0.0
 11
128.1201645290104
 21
255.1727240733551
 31
0.0
 11
128.2536602169746
 21
255.4482832061329
 31
0.0
 11
128.3648101425317
 21
255.7365351270302
 31
0.0
 11
128.4517867965581
 21
256.0329616050705
 31
0.0
 11
128.5145918708795
 21
256.3372507976134
 31
0.0
 11
128.5523672325512
 21
256.6456406135341
 31
0.0
 11
128.5650224287647
 21
256.956693830685
 31
0.0
 11
128.5523672325512
 21
257.267747047836
 31
0.0
 11
128.5145918708795
 21
257.5761368637566
 31
0.0
 11
128.451786796558
 21
257.8804260562995
 31
0.0
 11
128.3648101425317
 21
258.1768525343399
 31
0.0
 11
128.2536602169746
 21
258.4651044552371
 31
0.0
 11
128.1201645290104
 21
258.740663588015
 31
0.0
 11
127.9639673885375
 21
259.0040458248527
 31
0.0
 11
127.7879938527379
 21
259.2504775475405
 31
0.0
 11
127.5914595287296
 21
259.4808815306669
 31
0.0
 11
127.3782842337785
 21
259.6907925050224
 31
0.0
 11
127.1474047282476
 21
259.8811035366232
 31
0.0
 11
126.9033920756364
 21
260.048163707039
 31
0.0
 11
126.6452597069212
 21
260.1925068364961
 31
0.0
 11
126.3776979548039
 21
260.3116227102955
 31
0.0
 11
126.1002739122601
 21
260.4055702389343
 31
0.0
 11
125.8171917058776
 21
260.4730391089996
 31
0.0
 11
125.5290322096027
 21
260.5137630820861
 31
0.0
 11
125.2389887548522
 21
260.5274080449564
 31
0.0
 11
124.9489453001017
 21
260.5137630820861
 31
0.0
  0
SPLINE
  5
177
330
4F
100
AcDbEntity
  8
0
  6
Continuous
 62
     7
100
AcDbSpline
210
0.0
220
0.0
230
1.0
 70
    11
 71
     3
 72
    79
 73
    75
 74
    73
 42
0.0000000001
 43
0.0000000001
 44
0.00000001
 40
0.0
 40
0.0
 40
0.0
 40
0.0
 40
0.326118988163877
 40
0.6517242273663286
 40
1.007570734071856
 40
1.362786578155865
 40
1.75988631471052
 40
2.156516714717182
 40
2.599210008268919
 40
3.041603627004239
 40
3.528307206464727
 40
4.01482684902499
 40
4.539616314403993
 40
5.064295509496681
 40
5.618233632287974
 40
6.172109437578998
 40
6.744280968665915
 40
7.316424323670604
 40
7.894787044418117
 40
8.473149765165646
 40
9.045293120170395
 40
9.617464651257306
 40
10.17134045654829
 40
10.72527857933954
 40
11.24995777443222
 40
11.77474723981121
 40
12.26126688237152
 40
12.74797046183198
 40
13.19036408056733
 40
13.63305737411909
 40
14.02968777412578
 40
14.4267875106804
 40
14.78200335476442
 40
15.13784986146991
 40
15.46345510067238
 40
15.78957408883625
 40
16.1044897224091
 40
16.41940535598211
 40
16.745524344146
 40
17.07112958334846
 40
17.42697609005395
 40
17.78219193413794
 40
18.17929167069248
 40
18.57592207069915
 40
19.01861536425093
 40
19.46100898298629
 40
19.94771256244678
 40
20.43423220500706
 40
20.95902167038609
 40
21.48370086547877
 40
22.03763898827001
 40
22.59151479356106
 40
23.16368632464798
 40
23.73582967965271
 40
24.31419240040021
 40
24.89255512114771
 40
25.46469847615242
 40
26.0368700072393
 40
26.59074581253031
 40
27.14468393532162
 40
27.66936313041434
 40
28.19415259579336
 40
28.68067223835365
 40
29.16737581781409
 40
29.6097694365494
 40
30.05246273010116
 40
30.44909313010781
 40
30.84619286666242
 40
31.20140871074642
 40
31.55725521745194
 40
31.88286045665439
 40
32.20897944481826
 40
32.52389507839121
 40
32.83881071196411
 40
32.83881071196411
 40
32.83881071196411
 40
32.83881071196411
 10
119.7404122587597
 20
256.6428773440468
 30
0.0
 10
119.7178549847648
 20
256.5362875857747
 30
0.0
 10
119.6727759721978
 20
256.323275984561
 30
0.0
 10
119.5382482006265
 20
256.0134574898458
 30
0.0
 10
119.3615041104428
 20
255.7156736439622
 30
0.0
 10
119.1326226976877
 20
255.4245276003739
 30
0.0
 10
118.8634047879065
 20
255.151135383287
 30
0.0
 10
118.5461346719837
 20
254.8871756561758
 30
0.0
 10
118.1940822512944
 20
254.6441694550916
 30
0.0
 10
117.798208883504
 20
254.4145152044642
 30
0.0
 10
117.3735004688466
 20
254.2079642453626
 30
0.0
 10
116.9109830954996
 20
254.0189614901847
 30
0.0
 10
116.4257425937166
 20
253.8546476955446
 30
0.0
 10
115.9105011056883
 20
253.7116321937064
 30
0.0
 10
115.3788358449306
 20
253.5944797580621
 30
0.0
 10
114.8263867953313
 20
253.501505867035
 30
0.0
 10
114.2639959553962
 20
253.4351868080703
 30
0.0
 10
113.6909793051475
 20
253.394840550026
 30
0.0
 10
113.1146331018738
 20
253.3815502182483
 30
0.0
 10
112.5382868985775
 20
253.3948405500239
 30
0.0
 10
111.9652702483954
 20
253.4351868080791
 30
0.0
 10
111.4028794082195
 20
253.5015058670032
 30
0.0
 10
110.8504303594898
 20
253.5944797581769
 30
0.0
 10
110.3187650955662
 20
253.7116321932872
 30
0.0
 10
109.8035236187569
 20
253.854647697017
 30
0.0
 10
109.318283076586
 20
254.0189614848478
 30
0.0
 10
108.8557658435107
 20
254.2079642636754
 30
0.0
 10
108.4310569293069
 20
254.4145151385529
 30
0.0
 10
108.0351852649462
 20
254.6441696763815
 30
0.0
 10
107.6831268301788
 20
254.8871748634819
 30
0.0
 10
107.3658769534916
 20
255.1511380029622
 30
0.0
 10
107.0965878243279
 20
255.4245182123421
 30
0.0
 10
106.8679458322086
 20
255.7157046226495
 30
0.0
 10
106.6903531069606
 20
256.0133453872443
 30
0.0
 10
106.558740035326
 20
256.323655305235
 30
0.0
 10
106.4813150592495
 20
256.6378138822611
 30
0.0
 10
106.4533549421366
 20
256.956693830685
 30
0.0
 10
106.4813150592495
 20
257.275573779109
 30
0.0
 10
106.5587400353261
 20
257.5897323561351
 30
0.0
 10
106.6903531069606
 20
257.9000422741258
 30
0.0
 10
106.8679458322086
 20
258.1976830387206
 30
0.0
 10
107.0965878243279
 20
258.488869449028
 30
0.0
 10
107.3658769534916
 20
258.7622496584078
 30
0.0
 10
107.6831268301788
 20
259.0262127978882
 30
0.0
 10
108.0351852649461
 20
259.2692179849886
 30
0.0
 10
108.4310569293068
 20
259.4988725228172
 30
0.0
 10
108.8557658435107
 20
259.7054233976946
 30
0.0
 10
109.318283076586
 20
259.8944261765221
 30
0.0
 10
109.8035236187569
 20
260.0587399643531
 30
0.0
 10
110.3187650955662
 20
260.2017554680828
 30
0.0
 10
110.8504303594898
 20
260.3189079031932
 30
0.0
 10
111.4028794082196
 20
260.4118817943668
 30
0.0
 10
111.9652702483951
 20
260.4782008532909
 30
0.0
 10
112.5382868985785
 20
260.5185471113463
 30
0.0
 10
113.1146331018703
 20
260.5318374431211
 30
0.0
 10
113.6909793051604
 20
260.5185471113465
 30
0.0
 10
114.2639959553484
 20
260.4782008532904
 30
0.0
 10
114.826386795507
 20
260.411881794369
 30
0.0
 10
115.3788358442982
 20
260.3189079031852
 30
0.0
 10
115.9105011079984
 20
260.2017554681123
 30
0.0
 10
116.4257425855992
 20
260.0587399642491
 30
0.0
 10
116.9109831249212
 20
259.8944261768986
 30
0.0
 10
117.3735003678907
 20
259.7054233964028
 30
0.0
 10
117.7982092468586
 20
259.4988725274664
 30
0.0
 10
118.1940810313723
 20
259.2692179693797
 30
0.0
 10
118.5461390419308
 20
259.0262128538016
 30
0.0
 10
118.863390346212
 20
258.7622494736267
 30
0.0
 10
119.1326744518483
 20
258.4888701112218
 30
0.0
 10
119.3613333317312
 20
258.1976808536093
 30
0.0
 10
119.5388661976934
 20
257.9000501813899
 30
0.0
 10
119.6706848604753
 20
257.5897056003886
 30
0.0
 10
119.7473647220336
 20
257.2756726509143
 30
0.0
 10
119.7780166223416
 20
256.9563388633497
 30
0.0
 10
119.7529470466204
 20
256.7473645171478
 30
0.0
 10
119.7404122587597
 20
256.6428773440468
 30
0.0
 11
119.7404122587597
 21
256.6428773440468
 31
0.0
 11
119.662239596206
 21
256.3262661798875
 31
0.0
 11
119.5365333411294
 21
256.0259052149958
 31
0.0
 11
119.3549769576943
 21
255.7198594406931
 31
0.0
 11
119.1366148977993
 21
255.4396875172484
 31
0.0
 11
118.8588673484241
 21
255.1558838886813
 31
0.0
 11
118.5545677962447
 21
254.9014876293675
 31
0.0
 11
118.1909201709257
 21
254.6490242523095
 31
0.0
 11
117.8085871640466
 21
254.4264628321384
 31
0.0
 11
117.3713186032715
 21
254.212742032923
 31
0.0
 11
116.9211231755724
 21
254.0282821742116
 31
0.0
 11
116.4242834539579
 21
253.8593020747953
 31
0.0
 11
115.9187967860385
 21
253.7186909574579
 31
0.0
 11
115.3779389790314
 21
253.5990235998328
 31
0.0
 11
114.8317686709145
 21
253.5069562211456
 31
0.0
 11
114.2635687038753
 21
253.4396579415024
 31
0.0
 11
113.6928390258246
 21
253.3994627518876
 31
0.0
 11
113.11463310187
 21
253.385996265549
 31
0.0
 11
112.5364271779154
 21
253.3994627518877
 31
0.0
 11
111.9656974998647
 21
253.4396579415025
 31
0.0
 11
111.3974975328254
 21
253.5069562211456
 31
0.0
 11
110.8513272247086
 21
253.5990235998328
 31
0.0
 11
110.3104694177015
 21
253.7186909574579
 31
0.0
 11
109.8049827497821
 21
253.8593020747953
 31
0.0
 11
109.3081430281675
 21
254.0282821742115
 31
0.0
 11
108.8579476004684
 21
254.2127420329229
 31
0.0
 11
108.4206790396933
 21
254.4264628321384
 31
0.0
 11
108.0383460328143
 21
254.6490242523095
 31
0.0
 11
107.6746984074953
 21
254.9014876293676
 31
0.0
 11
107.3703988553158
 21
255.1558838886814
 31
0.0
 11
107.0926513059406
 21
255.4396875172484
 31
0.0
 11
106.8742892460457
 21
255.7198594406932
 31
0.0
 11
106.6927328626106
 21
256.0259052149958
 31
0.0
 11
106.5670266075339
 21
256.3262661798875
 31
0.0
 11
106.4888539449802
 21
256.6428773440468
 31
0.0
 11
106.4625657540449
 21
256.956693830685
 31
0.0
 11
106.4888539449802
 21
257.2705103173233
 31
0.0
 11
106.567026607534
 21
257.5871214814826
 31
0.0
 11
106.6927328626106
 21
257.8874824463744
 31
0.0
 11
106.8742892460457
 21
258.193528220677
 31
0.0
 11
107.0926513059406
 21
258.4737001441217
 31
0.0
 11
107.3703988553158
 21
258.7575037726887
 31
0.0
 11
107.6746984074952
 21
259.0119000320025
 31
0.0
 11
108.0383460328142
 21
259.2643634090605
 31
0.0
 11
108.4206790396933
 21
259.4869248292317
 31
0.0
 11
108.8579476004684
 21
259.7006456284472
 31
0.0
 11
109.3081430281675
 21
259.8851054871585
 31
0.0
 11
109.8049827497821
 21
260.0540855865748
 31
0.0
 11
110.3104694177015
 21
260.1946967039121
 31
0.0
 11
110.8513272247086
 21
260.3143640615372
 31
0.0
 11
111.3974975328254
 21
260.4064314402244
 31
0.0
 11
111.9656974998647
 21
260.4737297198675
 31
0.0
 11
112.5364271779154
 21
260.5139249094824
 31
0.0
 11
113.11463310187
 21
260.527391395821
 31
0.0
 11
113.6928390258246
 21
260.5139249094824
 31
0.0
 11
114.2635687038753
 21
260.4737297198676
 31
0.0
 11
114.8317686709145
 21
260.4064314402244
 31
0.0
 11
115.3779389790313
 21
260.3143640615373
 31
0.0
 11
115.9187967860385
 21
260.1946967039121
 31
0.0
 11
116.4242834539579
 21
260.0540855865747
 31
0.0
 11
116.9211231755725
 21
259.8851054871584
 31
0.0
 11
117.3713186032716
 21
259.7006456284471
 31
0.0
 11
117.8085871640467
 21
259.4869248292317
 31
0.0
 11
118.1909201709257
 21
259.2643634090605
 31
0.0
 11
118.5545677962447
 21
259.0119000320025
 31
0.0
 11
118.8588673484241
 21
258.7575037726887
 31
0.0
 11
119.1366148977993
 21
258.4737001441217
 31
0.0
 11
119.3549769576943
 21
258.193528220677
 31
0.0
 11
119.5365333411294
 21
257.8874824463744
 31
0.0
 11
119.662239596206
 21
257.5871214814826
 31
0.0
 11
119.7404122587597
 21
257.2705103173233
 31
0.0
 11
119.766700449695
 21
256.956693830685
 31
0.0
 11
119.7404122587597
 21
256.6428773440468
 31
0.0
  0
SPLINE
  5
178
330
4F
100
AcDbEntity
  8
0
  6
Continuous
 62
     7
100
AcDbSpline
210
0.0
220
0.0
230
1.0
 70
    11
 71
     3
 72
    79
 73
    75
 74
    73
 42
0.0000000001
 43
0.0000000001
 44
0.00000001
 40
0.0
 40
0.0
 40
0.0
 40
0.0
 40
0.2910229153818451
 40
0.58203422787374
 40
0.8749339334363838
 40
1.167812547519264
 40
1.463561188767193
 40
1.759282806464775
 40
2.058487811140703
 40
2.357663885605808
 40
2.660503341347414
 40
2.963315625194478
 40
3.269530826276298
 40
3.575723468843624
 40
3.884662744191319
 40
4.193586027918881
 40
4.504289085610481
 40
4.814983882015161
 40
5.12629443097098
 40
5.437604979926799
 40
5.748299776331423
 40
6.059002834023085
 40
6.367926117750687
 40
6.676865393098292
 40
6.983058035665549
 40
7.289273236747466
 40
7.592085520594498
 40
7.894924976336169
 40
8.194101050801313
 40
8.493306055477245
 40
8.789027673174775
 40
9.084776314422756
 40
9.377654928505661
 40
9.670554634068314
 40
9.961565946560189
 40
10.25258886194204
 40
10.542953099849
 40
10.83331733775595
 40
11.12434025313778
 40
11.41535156562968
 40
11.70825127119232
 40
12.00112988527525
 40
12.29687852652322
 40
12.59260014422078
 40
12.89180514889669
 40
13.19098122336183
 40
13.49382067910354
 40
13.7966329629506
 40
14.10284816403249
 40
14.40904080659969
 40
14.71798008194729
 40
15.02690336567488
 40
15.33760642336654
 40
15.64830121977123
 40
15.95961176872704
 40
16.27092231768286
 40
16.58161711408755
 40
16.89232017177926
 40
17.20124345550682
 40
17.5101827308545
 40
17.81637537342166
 40
18.12259057450351
 40
18.42540285835054
 40
18.72824231409216
 40
19.02741838855737
 40
19.32662339323329
 40
19.62234501093082
 40
19.91809365217874
 40
20.21097226626164
 40
20.50387197182428
 40
20.79488328431626
 40
21.08590619969808
 40
21.37627043760503
 40
21.66663467551199
 40
21.66663467551199
 40
21.66663467551199
 40
21.66663467551199
 10
101.2803209036383
 20
260.5137630820861
 30
0.0
 10
101.3766959623553
 20
260.5020874142848
 30
0.0
 10
101.5694422373797
 20
260.4787365441832
 30
0.0
 10
101.8533787466446
 20
260.4093805507327
 30
0.0
 10
102.1306430125033
 20
260.315937793157
 30
0.0
 10
102.3993953963534
 20
260.19603080718
 30
0.0
 10
102.6570407798732
 20
260.0519853019927
 30
0.0
 10
102.902267727108
 20
259.8839187011472
 30
0.0
 10
103.1325310831651
 20
259.6940839680734
 30
0.0
 10
103.3467632916811
 20
259.4829478394061
 30
0.0
 10
103.5427177204438
 20
259.2531682357722
 30
0.0
 10
103.7194750640645
 20
259.005439703548
 30
0.0
 10
103.8752458980316
 20
258.742707463714
 30
0.0
 10
104.0092143154007
 20
258.4659564520723
 30
0.0
 10
104.1201373466861
 20
258.1782244743086
 30
0.0
 10
104.2073141390575
 20
257.8808710278858
 30
0.0
 10
104.2700621491504
 20
257.5768250317428
 30
0.0
 10
104.3078625283626
 20
257.2678834359887
 30
0.0
 10
104.3205396018509
 20
256.9566938306859
 30
0.0
 10
104.3078625283629
 20
256.6455042253777
 30
0.0
 10
104.2700621491491
 20
256.3365626296405
 30
0.0
 10
104.207314139062
 20
256.0325166334355
 30
0.0
 10
104.1201373466691
 20
255.7351631872419
 30
0.0
 10
104.0092143154638
 20
255.4474312086271
 30
0.0
 10
103.8752458977984
 20
255.1706802001349
 30
0.0
 10
103.719475064931
 20
254.9079479486107
 30
0.0
 10
103.5427177172497
 20
254.6602194595525
 30
0.0
 10
103.3467633035466
 20
254.4304396958316
 30
0.0
 10
103.1325310394755
 20
254.2193041577239
 30
0.0
 10
102.9022678894411
 20
254.0294672345962
 30
0.0
 10
102.6570401818459
 20
253.8614087165014
 30
0.0
 10
102.3993976201664
 20
253.7173332147085
 30
0.0
 10
102.1306348022753
 20
253.5975371442287
 30
0.0
 10
101.8534093165829
 20
253.5036821473875
 30
0.0
 10
101.5693289630803
 20
253.4358552407979
 30
0.0
 10
101.2809614825674
 20
253.3951602791739
 30
0.0
 10
100.9902774488879
 20
253.381394485609
 30
0.0
 10
100.6995934152084
 20
253.3951602791739
 30
0.0
 10
100.4112259346955
 20
253.4358552407977
 30
0.0
 10
100.1271455811929
 20
253.5036821473874
 30
0.0
 10
99.84992009550061
 20
253.5975371442287
 30
0.0
 10
99.58115727760934
 20
253.7173332147085
 30
0.0
 10
99.3235147159299
 20
253.8614087165014
 30
0.0
 10
99.0782870083347
 20
254.0294672345963
 30
0.0
 10
98.84802385830028
 20
254.2193041577237
 30
0.0
 10
98.63379159422922
 20
254.4304396958318
 30
0.0
 10
98.43783718052606
 20
254.6602194595524
 30
0.0
 10
98.26107983284472
 20
254.9079479486107
 30
0.0
 10
98.10530899997741
 20
255.1706802001349
 30
0.0
 10
97.97134058231194
 20
255.4474312086269
 30
0.0
 10
97.86041755110669
 20
255.7351631872418
 30
0.0
 10
97.77324075871375
 20
256.0325166334357
 30
0.0
 10
97.71049274862671
 20
256.3365626296403
 30
0.0
 10
97.67269236941286
 20
256.6455042253779
 30
0.0
 10
97.66001529592499
 20
256.9566938306851
 30
0.0
 10
97.67269236941284
 20
257.2678834359919
 30
0.0
 10
97.71049274862679
 20
257.5768250317307
 30
0.0
 10
97.77324075871339
 20
257.8808710279311
 30
0.0
 10
97.86041755110793
 20
258.1782244741413
 30
0.0
 10
97.97134058230739
 20
258.465956452695
 30
0.0
 10
98.10530899999412
 20
258.7427074614129
 30
0.0
 10
98.26107983278253
 20
259.0054397120988
 30
0.0
 10
98.43783718075511
 20
259.2531682042525
 30
0.0
 10
98.63379159337836
 20
259.4829479564928
 30
0.0
 10
98.84802386143343
 20
259.6940835369524
 30
0.0
 10
99.07828699669302
 20
259.8839203030209
 30
0.0
 10
99.32351475881724
 20
260.0519794007682
 30
0.0
 10
99.58115711812913
 20
260.1960527513619
 30
0.0
 10
99.84992068429497
 20
260.315856776119
 30
0.0
 10
100.1271433888774
 20
260.4096822093241
 30
0.0
 10
100.4112340581335
 20
260.4776187739962
 30
0.0
 10
100.6995631192046
 20
260.5179053309129
 30
0.0
 10
100.9903902318705
 20
260.533192076597
 30
0.0
 10
101.1836773463824
 20
260.5202394135898
 30
0.0
 10
101.2803209036383
 20
260.5137630820861
 30
0.0
 11
101.2803209036383
 21
260.5137630820861
 31
0.0
 11
101.5684803999132
 21
260.4730391089996
 31
0.0
 11
101.8515626062957
 21
260.4055702389343
 31
0.0
 11
102.1289866488395
 21
260.3116227102955
 31
0.0
 11
102.3965484009568
 21
260.192506836496
 31
0.0
 11
102.654680769672
 21
260.0481637070388
 31
0.0
 11
102.8986934222832
 21
259.8811035366231
 31
0.0
 11
103.1295729278141
 21
259.6907925050224
 31
0.0
 11
103.3427482227652
 21
259.480881530667
 31
0.0
 11
103.5392825467734
 21
259.2504775475406
 31
0.0
 11
103.715256082573
 21
259.0040458248528
 31
0.0
 11
103.8714532230459
 21
258.740663588015
 31
0.0
 11
104.0049489110101
 21
258.4651044552371
 31
0.0
 11
104.1160988365673
 21
258.1768525343398
 31
0.0
 11
104.2030754905936
 21
257.8804260562994
 31
0.0
 11
104.2658805649151
 21
257.5761368637566
 31
0.0
 11
104.3036559265866
 21
257.267747047836
 31
0.0
 11
104.3163111228002
 21
256.956693830685
 31
0.0
 11
104.3036559265866
 21
256.6456406135341
 31
0.0
 11
104.2658805649151
 21
256.3372507976135
 31
0.0
 11
104.2030754905935
 21
256.0329616050706
 31
0.0
 11
104.1160988365672
 21
255.7365351270302
 31
0.0
 11
104.0049489110101
 21
255.448283206133
 31
0.0
 11
103.8714532230459
 21
255.1727240733551
 31
0.0
 11
103.715256082573
 21
254.9093418365172
 31
0.0
 11
103.5392825467734
 21
254.6629101138295
 31
0.0
 11
103.3427482227652
 21
254.432506130703
 31
0.0
 11
103.1295729278141
 21
254.2225951563476
 31
0.0
 11
102.8986934222832
 21
254.0322841247468
 31
0.0
 11
102.6546807696721
 21
253.8652239543311
 31
0.0
 11
102.3965484009569
 21
253.7208808248739
 31
0.0
 11
102.1289866488395
 21
253.6017649510744
 31
0.0
 11
101.8515626062957
 21
253.5078174224357
 31
0.0
 11
101.5684803999132
 21
253.4403485523704
 31
0.0
 11
101.2803209036383
 21
253.3996245792839
 31
0.0
 11
100.9902774488879
 21
253.3859796164136
 31
0.0
 11
100.7002339941375
 21
253.3996245792838
 31
0.0
 11
100.4120744978626
 21
253.4403485523703
 31
0.0
 11
100.1289922914801
 21
253.5078174224356
 31
0.0
 11
99.85156824893633
 21
253.6017649510744
 31
0.0
 11
99.58400649681894
 21
253.7208808248739
 31
0.0
 11
99.32587412810375
 21
253.8652239543311
 31
0.0
 11
99.08186147549259
 21
254.0322841247468
 31
0.0
 11
98.85098196996174
 21
254.2225951563476
 31
0.0
 11
98.63780667501058
 21
254.432506130703
 31
0.0
 11
98.44127235100231
 21
254.6629101138295
 31
0.0
 11
98.2652988152027
 21
254.9093418365173
 31
0.0
 11
98.10910167472986
 21
255.1727240733551
 31
0.0
 11
97.97560598676566
 21
255.4482832061329
 31
0.0
 11
97.86445606120856
 21
255.7365351270302
 31
0.0
 11
97.77747940718226
 21
256.0329616050706
 31
0.0
 11
97.71467433286077
 21
256.3372507976135
 31
0.0
 11
97.67689897118913
 21
256.6456406135341
 31
0.0
 11
97.66424377497555
 21
256.956693830685
 31
0.0
 11
97.67689897118913
 21
257.267747047836
 31
0.0
 11
97.71467433286077
 21
257.5761368637566
 31
0.0
 11
97.77747940718226
 21
257.8804260562995
 31
0.0
 11
97.86445606120854
 21
258.1768525343399
 31
0.0
 11
97.97560598676566
 21
258.4651044552372
 31
0.0
 11
98.10910167472986
 21
258.740663588015
 31
0.0
 11
98.26529881520268
 21
259.0040458248528
 31
0.0
 11
98.44127235100231
 21
259.2504775475405
 31
0.0
 11
98.63780667501055
 21
259.4808815306669
 31
0.0
 11
98.85098196996174
 21
259.6907925050224
 31
0.0
 11
99.0818614754926
 21
259.8811035366232
 31
0.0
 11
99.32587412810374
 21
260.0481637070389
 31
0.0
 11
99.58400649681889
 21
260.1925068364961
 31
0.0
 11
99.85156824893626
 21
260.3116227102955
 31
0.0
 11
100.1289922914801
 21
260.4055702389343
 31
0.0
 11
100.4120744978626
 21
260.4730391089996
 31
0.0
 11
100.7002339941375
 21
260.5137630820861
 31
0.0
 11
100.9902774488879
 21
260.5274080449564
 31
0.0
 11
101.2803209036383
 21
260.5137630820861
 31
0.0
  0
ARC
  5
179
330
4F
100
AcDbEntity
  8
1
  6
Continuous
 62
     7
100
AcDbCircle
 10
417.8129762429093
 20
260.8142307952426
 30
0.0
 40
0.999999999999914
100
AcDbArc
 50
74.66244233045337
 51
90.0
  0
ARC
  5
17A
330
4F
100
AcDbEntity
  8
1
  6
Continuous
 62
     7
100
AcDbCircle
 10
416.0229043736098
 20
261.8142307952426
 30
0.0
 40
0.9999999999999306
100
AcDbArc
 50
42.94140286487883
 51
90.0
  0
ARC
  5
17B
330
4F
100
AcDbEntity
  8
1
  6
Continuous
 62
     7
100
AcDbCircle
 10
417.7549551811786
 20
262.8142307952426
 30
0.0
 40
0.9999999999999836
100
AcDbArc
 50
-149.9999999999995
 51
-90.0
  0
ARC
  5
17C
330
4F
100
AcDbEntity
  8
1
  6
Continuous
 62
     7
100
AcDbCircle
 10
416.0229043736098
 20
261.8142307952426
 30
0.0
 40
0.9999999999999836
100
AcDbArc
 50
30.00000000000054
 51
42.94140286487883
  0
ARC
  5
17D
330
4F
100
AcDbEntity
  8
1
  6
Continuous
 62
     7
100
AcDbCircle
 10
394.696934119448
 20
260.8142307952426
 30
0.0
 40
1.0
100
AcDbArc
 50
90.0
 51
105.3375576695498
  0
ARC
  5
17E
330
4F
100
AcDbEntity
  8
1
  6
Continuous
 62
     7
100
AcDbCircle
 10
396.4870059887475
 20
261.8142307952426
 30
0.0
 40
1.0
100
AcDbArc
 50
90.0
 51
137.0585971351234
  0
ARC
  5
17F
330
4F
100
AcDbEntity
  8
1
  6
Continuous
 62
     7
100
AcDbCircle
 10
394.7549551811786
 20
262.8142307952426
 30
0.0
 40
1.0
100
AcDbArc
 50
-90.0
 51
-29.99999999999566
  0
ARC
  5
180
330
4F
100
AcDbEntity
  8
1
  6
Continuous
 62
     7
100
AcDbCircle
 10
396.4870059887475
 20
261.8142307952426
 30
0.0
 40
0.9999999999999722
100
AcDbArc
 50
137.0585971351234
 51
149.9999999999962
  0
ARC
  5
181
330
4F
100
AcDbEntity
  8
1
  6
Continuous
 62
     7
100
AcDbCircle
 10
101.6146331018701
 20
262.8142307952434
 30
0.0
 40
1.0
100
AcDbArc
 50
-90.0
 51
-30.00000000000095
  0
ARC
  5
182
330
4F
100
AcDbEntity
  8
1
  6
Continuous
 62
     7
100
AcDbCircle
 10
103.3466839094388
 20
261.8142307952434
 30
0.0
 40
1.0
100
AcDbArc
 50
90.0
 51
149.9999999999958
  0
ARC
  5
183
330
4F
100
AcDbEntity
  8
1
  6
Continuous
 62
     7
100
AcDbCircle
 10
101.5566120401395
 20
260.8142307952434
 30
0.0
 40
1.0
100
AcDbArc
 50
90.0
 51
105.3375576695512
  0
ARC
  5
184
330
4F
100
AcDbEntity
  8
1
  6
Continuous
 62
     7
100
AcDbCircle
 10
124.6146331018701
 20
262.8142307952434
 30
0.0
 40
1.000000000000045
100
AcDbArc
 50
-150.0000000000015
 51
-90.0
  0
ARC
  5
185
330
4F
100
AcDbEntity
  8
1
  6
Continuous
 62
     7
100
AcDbCircle
 10
122.8825822943012
 20
261.8142307952434
 30
0.0
 40
0.9999999999999713
100
AcDbArc
 50
30.00000000000095
 51
90.0
  0
ARC
  5
186
330
4F
100
AcDbEntity
  8
1
  6
Continuous
 62
     7
100
AcDbCircle
 10
124.6726541636006
 20
260.8142307952434
 30
0.0
 40
0.9999999999999704
100
AcDbArc
 50
74.66244233044159
 51
90.0
  0
ENDBLK
  5
51
330
4F
100
AcDbEntity
  8
0
100
AcDbBlockEnd
  0
BLOCK
  5
53
330
52
100
AcDbEntity
  8
0
100
AcDbBlockBegin
  2
61-1-16-170
 70
     0
 71
     0
 10
-178.2158280336974
 20
304.2100281160253
 30
0.0
  3
61-1-16-170
  1

  0
LINE
  5
187
330
52
100
AcDbEntity
  8
1
  6
Continuous
 62
     7
100
AcDbLine
 10
244.2549551811786
 20
267.3142307952436
 30
0.0
 11
244.2549551811786
 21
268.3142307952436
 31
0.0
  0
LINE
  5
188
330
52
100
AcDbEntity
  8
1
  6
Continuous
 62
     7
100
AcDbLine
 10
228.2549551811786
 20
267.3142307952437
 30
0.0
 11
228.2549551811786
 21
268.3142307952437
 31
0.0
  0
LINE
  5
189
330
52
100
AcDbEntity
  8
1
  6
Continuous
 62
     7
100
AcDbLine
 10
379.2549551811786
 20
287.3142307952437
 30
0.0
 11
263.2549551811786
 21
287.3142307952437
 31
0.0
  0
LINE
  5
18A
330
52
100
AcDbEntity
  8
1
  6
Continuous
 62
     7
100
AcDbLine
 10
414.2549551811786
 20
268.3142307952437
 30
0.0
 11
414.2549551811786
 21
262.8142307952437
 31
0.0
  0
LINE
  5
18B
330
52
100
AcDbEntity
  8
1
  6
Continuous
 62
     7
100
AcDbLine
 10
398.2549551811786
 20
262.8142307952437
 30
0.0
 11
398.2549551811786
 21
268.3142307952437
 31
0.0
  0
LINE
  5
18C
330
52
100
AcDbEntity
  8
1
  6
Continuous
 62
     7
100
AcDbLine
 10
379.2549551811786
 20
303.3142307952437
 30
0.0
 11
263.2549551811786
 21
303.3142307952437
 31
0.0
  0
LINE
  5
18D
330
52
100
AcDbEntity
  8
1
  6
Continuous
 62
     7
100
AcDbLine
 10
243.6413621871647
 20
262.3142307952436
 30
0.0
 11
236.2549551811786
 21
262.3142307952436
 31
0.0
  0
LINE
  5
18E
330
52
100
AcDbEntity
  8
1
  6
Continuous
 62
     7
100
AcDbLine
 10
236.2549551811786
 20
262.3142307952436
 30
0.0
 11
228.8685481751925
 21
262.3142307952436
 31
0.0
  0
LINE
  5
18F
330
52
100
AcDbEntity
  8
1
  6
Continuous
 62
     7
100
AcDbLine
 10
244.2549551811786
 20
267.3142307952436
 30
0.0
 11
228.2549551811786
 21
267.3142307952437
 31
0.0
  0
LINE
  5
190
330
52
100
AcDbEntity
  8
1
  6
Continuous
 62
     7
100
AcDbLine
 10
121.1146331018701
 20
563.155936177615
 30
0.0
 11
121.1146331018701
 21
393.1559361776149
 31
0.0
  0
LINE
  5
191
330
52
100
AcDbEntity
  8
1
  6
Continuous
 62
     7
100
AcDbLine
 10
105.1146331018701
 20
563.155936177615
 30
0.0
 11
105.1146331018701
 21
393.1559361776149
 31
0.0
  0
LINE
  5
192
330
52
100
AcDbEntity
  8
1
  6
PHANTOM
 62
     4
100
AcDbLine
 10
124.4888552957321
 20
393.1559361776149
 30
0.0
 11
102.1366818896492
 21
393.1559361776149
 31
0.0
  0
LINE
  5
193
330
52
100
AcDbEntity
  8
1
  6
Continuous
 62
     7
100
AcDbLine
 10
121.1146331018701
 20
267.3142307952436
 30
0.0
 11
105.1146331018701
 21
267.3142307952437
 31
0.0
  0
LINE
  5
194
330
52
100
AcDbEntity
  8
1
  6
Continuous
 62
     7
100
AcDbLine
 10
105.728226095884
 20
262.3142307952436
 30
0.0
 11
120.5010401078562
 21
262.3142307952436
 31
0.0
  0
LINE
  5
195
330
52
100
AcDbEntity
  8
1
  6
Continuous
 62
     7
100
AcDbLine
 10
121.1146331018701
 20
267.3142307952436
 30
0.0
 11
121.1146331018701
 21
295.3142307952437
 31
0.0
  0
LINE
  5
196
330
52
100
AcDbEntity
  8
1
  6
Continuous
 62
     7
100
AcDbLine
 10
105.1146331018701
 20
267.3142307952437
 30
0.0
 11
105.1146331018701
 21
295.3142307952437
 31
0.0
  0
LINE
  5
197
330
52
100
AcDbEntity
  8
1
  6
PHANTOM
 62
     4
100
AcDbLine
 10
102.6014126925111
 20
295.3142307952437
 30
0.0
 11
124.0073491102977
 21
295.3142307952437
 31
0.0
  0
ARC
  5
198
330
52
100
AcDbEntity
  8
1
  6
Continuous
 62
     7
100
AcDbCircle
 10
241.0449288864604
 20
265.1705110880213
 30
0.0
 40
3.860026294718182
100
AcDbArc
 50
0.0
 51
33.73579100002809
  0
ARC
  5
199
330
52
100
AcDbEntity
  8
1
  6
Continuous
 62
     7
100
AcDbCircle
 10
231.4649814758969
 20
265.1705110880213
 30
0.0
 40
3.860026294718296
100
AcDbArc
 50
180.0
 51
-132.2716554964188
  0
ARC
  5
19A
330
52
100
AcDbEntity
  8
1
  6
Continuous
 62
     7
100
AcDbCircle
 10
231.4649814758969
 20
265.1705110880213
 30
0.0
 40
3.860026294718288
100
AcDbArc
 50
146.2642089999717
 51
180.0
  0
ARC
  5
19B
330
52
100
AcDbEntity
  8
1
  6
Continuous
 62
     7
100
AcDbCircle
 10
241.0449288864604
 20
265.1705110880213
 30
0.0
 40
3.860026294718298
100
AcDbArc
 50
-47.72834450358248
 51
0.0
  0
ARC
  5
19C
330
52
100
AcDbEntity
  8
1
  6
Continuous
 62
     7
100
AcDbCircle
 10
263.2549551811786
 20
268.3142307952436
 30
0.0
 40
19.00000000000011
100
AcDbArc
 50
90.0
 51
180.0
  0
ARC
  5
19D
330
52
100
AcDbEntity
  8
1
  6
Continuous
 62
     7
100
AcDbCircle
 10
263.2549551811786
 20
268.3142307952436
 30
0.0
 40
35.00000000000011
100
AcDbArc
 50
90.0
 51
179.9999999999998
  0
ARC
  5
19E
330
52
100
AcDbEntity
  8
1
  6
Continuous
 62
     7
100
AcDbCircle
 10
379.2549551811786
 20
268.3142307952437
 30
0.0
 40
19.0
100
AcDbArc
 50
0.0
 51
90.0
  0
ARC
  5
19F
330
52
100
AcDbEntity
  8
1
  6
Continuous
 62
     7
100
AcDbCircle
 10
379.2549551811786
 20
268.3142307952437
 30
0.0
 40
35.0
100
AcDbArc
 50
0.0
 51
90.0
  0
ARC
  5
1A0
330
52
100
AcDbEntity
  8
1
  6
Continuous
 62
     7
100
AcDbCircle
 10
113.1146331018701
 20
393.1559361776149
 30
0.0
 40
8.0
100
AcDbArc
 50
180.0
 51
0.0
  0
ARC
  5
1A1
330
52
100
AcDbEntity
  8
1
  6
Continuous
 62
     7
100
AcDbCircle
 10
113.1146331018701
 20
393.1559361776149
 30
0.0
 40
8.650000000000091
100
AcDbArc
 50
-90.0
 51
22.35342559933306
  0
ARC
  5
1A2
330
52
100
AcDbEntity
  8
1
  6
Continuous
 62
     7
100
AcDbCircle
 10
113.1146331018701
 20
393.1559361776149
 30
0.0
 40
8.650000000000114
100
AcDbArc
 50
157.6465744006669
 51
-90.0
  0
ARC
  5
1A3
330
52
100
AcDbEntity
  8
1
  6
Continuous
 62
     7
100
AcDbCircle
 10
117.9046068071519
 20
265.1705110880213
 30
0.0
 40
3.86002629471821
100
AcDbArc
 50
0.0
 51
33.73579100002785
  0
ARC
  5
1A4
330
52
100
AcDbEntity
  8
1
  6
Continuous
 62
     7
100
AcDbCircle
 10
108.3246593965884
 20
265.1705110880213
 30
0.0
 40
3.860026294718296
100
AcDbArc
 50
180.0
 51
-132.2716554964188
  0
ARC
  5
1A5
330
52
100
AcDbEntity
  8
1
  6
Continuous
 62
     7
100
AcDbCircle
 10
108.3246593965884
 20
265.1705110880213
 30
0.0
 40
3.860026294718276
100
AcDbArc
 50
146.2642089999716
 51
180.0
  0
ARC
  5
1A6
330
52
100
AcDbEntity
  8
1
  6
Continuous
 62
     7
100
AcDbCircle
 10
117.9046068071519
 20
265.1705110880213
 30
0.0
 40
3.860026294718307
100
AcDbArc
 50
-47.72834450358232
 51
0.0
  0
ARC
  5
1A7
330
52
100
AcDbEntity
  8
1
  6
Continuous
 62
     7
100
AcDbCircle
 10
113.1146331018701
 20
295.3142307952437
 30
0.0
 40
8.0
100
AcDbArc
 50
0.0
 51
180.0
  0
ARC
  5
1A8
330
52
100
AcDbEntity
  8
1
  6
Continuous
 62
     7
100
AcDbCircle
 10
113.11463310187
 20
563.155936177615
 30
0.0
 40
8.0000000000001
100
AcDbArc
 50
0.0
 51
180.0
  0
ENDBLK
  5
54
330
52
100
AcDbEntity
  8
0
100
AcDbBlockEnd
  0
BLOCK
  5
58
330
55
100
AcDbEntity
  8
0
100
AcDbBlockBegin
  2
A20J-60X-16
 70
     0
 71
     0
 10
70.22315577676793
 20
245.3142307952434
 30
0.0
  3
A20J-60X-16
  1

  0
INSERT
  5
56
330
55
100
AcDbEntity
  8
0
100
AcDbBlockReference
  2
32-1-16
 10
187.9019112083787
 20
485.8491420378471
 30
0.0
  0
INSERT
  5
57
330
55
100
AcDbEntity
  8
0
100
AcDbBlockReference
  2
61-1-16-170
 10
-178.2158280336974
 20
304.2100281160253
 30
0.0
  0
LINE
  5
1A9
330
55
100
AcDbEntity
  8
1
  6
PHANTOM
 62
     4
100
AcDbLine
 10
113.1146331018701
 20
307.4657117879639
 30
0.0
 11
113.1146331018701
 21
246.3142307952434
 31
0.0
  0
LINE
  5
1AA
330
55
100
AcDbEntity
  8
1
  6
PHANTOM
 62
     4
100
AcDbLine
 10
263.2549551811786
 20
295.3142307952437
 30
0.0
 11
379.2549551811786
 21
295.3142307952437
 31
0.0
  0
LINE
  5
1AB
330
55
100
AcDbEntity
  8
1
  6
PHANTOM
 62
     4
100
AcDbLine
 10
236.2549551811786
 20
259.3142307952436
 30
0.0
 11
236.2549551811786
 21
268.3142307952436
 31
0.0
  0
ARC
  5
1AC
330
55
100
AcDbEntity
  8
1
  6
PHANTOM
 62
     4
100
AcDbCircle
 10
379.2549551811786
 20
268.3142307952437
 30
0.0
 40
27.0
100
AcDbArc
 50
0.0
 51
90.0
  0
ARC
  5
1AD
330
55
100
AcDbEntity
  8
1
  6
PHANTOM
 62
     4
100
AcDbCircle
 10
263.2549551811786
 20
268.3142307952436
 30
0.0
 40
27.00000000000011
100
AcDbArc
 50
90.0
 51
180.0
  0
ENDBLK
  5
59
330
55
100
AcDbEntity
  8
0
100
AcDbBlockEnd
  0
BLOCK
  5
5B
330
5A
100
AcDbEntity
  8
0
100
AcDbBlockBegin
  2
_J__A4
 70
     0
 71
     0
 10
0.0
 20
0.0
 30
0.0
  3
_J__A4
  1

  0
POINT
  5
1AE
330
5A
100
AcDbEntity
  8
1
 62
     4
100
AcDbPoint
 10
93.75
 20
17.0
 30
0.0
  0
POINT
  5
1AF
330
5A
100
AcDbEntity
  8
1
 62
     4
100
AcDbPoint
 10
85.25
 20
17.0
 30
0.0
  0
POINT
  5
1B0
330
5A
100
AcDbEntity
  8
1
 62
     4
100
AcDbPoint
 10
106.5
 20
19.00000000000001
 30
0.0
  0
POINT
  5
1B1
330
5A
100
AcDbEntity
  8
1
 62
     4
100
AcDbPoint
 10
106.5
 20
12.5
 30
0.0
  0
POINT
  5
1B2
330
5A
100
AcDbEntity
  8
1
 62
     4
100
AcDbPoint
 10
112.25
 20
12.5
 30
0.0
  0
POINT
  5
1B3
330
5A
100
AcDbEntity
  8
1
 62
     4
100
AcDbPoint
 10
100.75
 20
12.5
 30
0.0
  0
POINT
  5
1B4
330
5A
100
AcDbEntity
  8
1
 62
     4
100
AcDbPoint
 10
123.5
 20
19.00000000000001
 30
0.0
  0
POINT
  5
1B5
330
5A
100
AcDbEntity
  8
1
 62
     4
100
AcDbPoint
 10
123.5
 20
12.5
 30
0.0
  0
POINT
  5
1B6
330
5A
100
AcDbEntity
  8
1
 62
     4
100
AcDbPoint
 10
129.25
 20
12.5
 30
0.0
  0
POINT
  5
1B7
330
5A
100
AcDbEntity
  8
1
 62
     4
100
AcDbPoint
 10
117.75
 20
12.5
 30
0.0
  0
POINT
  5
1B8
330
5A
100
AcDbEntity
  8
1
 62
     4
100
AcDbPoint
 10
140.5
 20
19.00000000000001
 30
0.0
  0
POINT
  5
1B9
330
5A
100
AcDbEntity
  8
1
 62
     4
100
AcDbPoint
 10
140.5
 20
12.5
 30
0.0
  0
POINT
  5
1BA
330
5A
100
AcDbEntity
  8
1
 62
     4
100
AcDbPoint
 10
146.25
 20
12.5
 30
0.0
  0
POINT
  5
1BB
330
5A
100
AcDbEntity
  8
1
 62
     4
100
AcDbPoint
 10
134.75
 20
12.5
 30
0.0
  0
POINT
  5
1BC
330
5A
100
AcDbEntity
  8
1
 62
     4
100
AcDbPoint
 10
151.75
 20
12.5
 30
0.0
  0
POINT
  5
1BD
330
5A
100
AcDbEntity
  8
1
 62
     4
100
AcDbPoint
 10
163.25
 20
12.5
 30
0.0
  0
POINT
  5
1BE
330
5A
100
AcDbEntity
  8
1
 62
     4
100
AcDbPoint
 10
157.5
 20
12.5
 30
0.0
  0
POINT
  5
1BF
330
5A
100
AcDbEntity
  8
1
 62
     4
100
AcDbPoint
 10
57.0
 20
14.25
 30
0.0
  0
POINT
  5
1C0
330
5A
100
AcDbEntity
  8
1
 62
     4
100
AcDbPoint
 10
57.0
 20
22.75000000000001
 30
0.0
  0
POINT
  5
1C1
330
5A
100
AcDbEntity
  8
1
 62
     4
100
AcDbPoint
 10
47.5
 20
282.0000000000003
 30
0.0
  0
POINT
  5
1C2
330
5A
100
AcDbEntity
  8
1
 62
     4
100
AcDbPoint
 10
157.5
 20
19.00000000000001
 30
0.0
  0
POINT
  5
1C3
330
5A
100
AcDbEntity
  8
1
 62
     4
100
AcDbPoint
 10
57.0
 20
16.25
 30
0.0
  0
POINT
  5
1C4
330
5A
100
AcDbEntity
  8
1
 62
     4
100
AcDbPoint
 10
57.0
 20
24.75000000000001
 30
0.0
  0
POINT
  5
1C5
330
5A
100
AcDbEntity
  8
1
 62
     4
100
AcDbPoint
 10
57.0
 20
20.75000000000001
 30
0.0
  0
POINT
  5
1C6
330
5A
100
AcDbEntity
  8
1
 62
     4
100
AcDbPoint
 10
57.0
 20
12.25
 30
0.0
  0
POINT
  5
1C7
330
5A
100
AcDbEntity
  8
1
 62
     4
100
AcDbPoint
 10
34.0
 20
34.00000000000001
 30
0.0
  0
LINE
  5
1C8
330
5A
100
AcDbEntity
  8
1
  6
Continuous
 62
     7
100
AcDbLine
 10
105.0
 20
10.0
 30
0.0
 11
200.0
 21
10.0
 31
0.0
  0
LINE
  5
1C9
330
5A
100
AcDbEntity
  8
1
  6
Continuous
 62
     2
100
AcDbLine
 10
105.0
 20
10.0
 30
0.0
 11
105.0
 21
5.0
 31
0.0
  0
LINE
  5
1CA
330
5A
100
AcDbEntity
  8
1
  6
Continuous
 62
     7
100
AcDbLine
 10
200.0
 20
148.5
 30
0.0
 11
200.0
 21
287.0000000000003
 31
0.0
  0
LINE
  5
1CB
330
5A
100
AcDbEntity
  8
1
  6
Continuous
 62
     2
100
AcDbLine
 10
200.0
 20
148.5
 30
0.0
 11
205.0
 21
148.5
 31
0.0
  0
LINE
  5
1CC
330
5A
100
AcDbEntity
  8
1
  6
Continuous
 62
     7
100
AcDbLine
 10
25.0
 20
148.5
 30
0.0
 11
25.0
 21
287.0000000000003
 31
0.0
  0
LINE
  5
1CD
330
5A
100
AcDbEntity
  8
1
  6
Continuous
 62
     2
100
AcDbLine
 10
25.0
 20
148.5
 30
0.0
 11
20.0
 21
148.5
 31
0.0
  0
LINE
  5
1CE
330
5A
100
AcDbEntity
  8
1
  6
Continuous
 62
     7
100
AcDbLine
 10
105.0
 20
287.0000000000003
 30
0.0
 11
25.0
 21
287.0000000000003
 31
0.0
  0
LINE
  5
1CF
330
5A
100
AcDbEntity
  8
1
  6
Continuous
 62
     2
100
AcDbLine
 10
105.0
 20
287.0000000000003
 30
0.0
 11
105.0
 21
292.0000000000003
 31
0.0
  0
LINE
  5
1D0
330
5A
100
AcDbEntity
  8
1
  6
Continuous
 62
     2
100
AcDbLine
 10
166.0
 20
20.00000000000001
 30
0.0
 11
200.0
 21
20.00000000000001
 31
0.0
  0
LINE
  5
1D1
330
5A
100
AcDbEntity
  8
1
  6
Continuous
 62
     2
100
AcDbLine
 10
98.0
 20
27.00000000000001
 30
0.0
 11
98.0
 21
9.99999999999999
 31
0.0
  0
LINE
  5
1D2
330
5A
100
AcDbEntity
  8
1
  6
Continuous
 62
     2
100
AcDbLine
 10
115.0
 20
27.00000000000001
 30
0.0
 11
115.0
 21
9.99999999999999
 31
0.0
  0
LINE
  5
1D3
330
5A
100
AcDbEntity
  8
1
  6
Continuous
 62
     2
100
AcDbLine
 10
149.0
 20
27.00000000000001
 30
0.0
 11
149.0
 21
10.0
 31
0.0
  0
LINE
  5
1D4
330
5A
100
AcDbEntity
  8
1
  6
Continuous
 62
     2
100
AcDbLine
 10
132.0
 20
27.00000000000001
 30
0.0
 11
132.0
 21
9.99999999999999
 31
0.0
  0
LINE
  5
1D5
330
5A
100
AcDbEntity
  8
1
  6
Continuous
 62
     2
100
AcDbLine
 10
166.0
 20
27.00000000000001
 30
0.0
 11
166.0
 21
10.0
 31
0.0
  0
LINE
  5
1D6
330
5A
100
AcDbEntity
  8
1
  6
Continuous
 62
     2
100
AcDbLine
 10
55.0
 20
277.0000000000003
 30
0.0
 11
25.0
 21
277.0000000000003
 31
0.0
  0
LINE
  5
1D7
330
5A
100
AcDbEntity
  8
1
  6
Continuous
 62
     7
100
AcDbLine
 10
25.0
 20
10.0
 30
0.0
 11
25.0
 21
148.5
 31
0.0
  0
LINE
  5
1D8
330
5A
100
AcDbEntity
  8
1
  6
Continuous
 62
     2
100
AcDbLine
 10
40.0
 20
287.0000000000003
 30
0.0
 11
40.0
 21
277.0000000000003
 31
0.0
  0
LINE
  5
1D9
330
5A
100
AcDbEntity
  8
1
  6
Continuous
 62
     2
100
AcDbLine
 10
55.0
 20
287.0000000000003
 30
0.0
 11
55.0
 21
277.0000000000003
 31
0.0
  0
LINE
  5
1DA
330
5A
100
AcDbEntity
  8
1
  6
Continuous
 62
     2
100
AcDbLine
 10
33.0
 20
41.00000000000001
 30
0.0
 11
33.0
 21
27.0
 31
0.0
  0
LINE
  5
1DB
330
5A
100
AcDbEntity
  8
1
  6
Continuous
 62
     7
100
AcDbLine
 10
200.0
 20
27.00000000000001
 30
0.0
 11
25.0
 21
27.00000000000001
 31
0.0
  0
LINE
  5
1DC
330
5A
100
AcDbEntity
  8
1
  6
Continuous
 62
     7
100
AcDbLine
 10
25.0
 20
41.0
 30
0.0
 11
200.0
 21
41.0
 31
0.0
  0
LINE
  5
1DD
330
5A
100
AcDbEntity
  8
1
  6
PHANTOM
 62
     4
100
AcDbLine
 10
0.0
 20
0.0
 30
0.0
 11
210.0
 21
0.0
 31
0.0
  0
LINE
  5
1DE
330
5A
100
AcDbEntity
  8
1
  6
PHANTOM
 62
     4
100
AcDbLine
 10
210.0
 20
0.0
 30
0.0
 11
210.0
 21
297.0
 31
0.0
  0
LINE
  5
1DF
330
5A
100
AcDbEntity
  8
1
  6
PHANTOM
 62
     4
100
AcDbLine
 10
210.0
 20
297.0
 30
0.0
 11
0.0
 21
297.0
 31
0.0
  0
LINE
  5
1E0
330
5A
100
AcDbEntity
  8
1
  6
PHANTOM
 62
     4
100
AcDbLine
 10
0.0
 20
297.0
 30
0.0
 11
0.0
 21
0.0
 31
0.0
  0
LINE
  5
1E1
330
5A
100
AcDbEntity
  8
1
  6
Continuous
 62
     7
100
AcDbLine
 10
25.0
 20
10.0
 30
0.0
 11
105.0
 21
10.0
 31
0.0
  0
LINE
  5
1E2
330
5A
100
AcDbEntity
  8
1
  6
Continuous
 62
     7
100
AcDbLine
 10
200.0
 20
10.0
 30
0.0
 11
200.0
 21
148.5
 31
0.0
  0
LINE
  5
1E3
330
5A
100
AcDbEntity
  8
1
  6
Continuous
 62
     7
100
AcDbLine
 10
200.0
 20
287.0000000000003
 30
0.0
 11
105.0
 21
287.0000000000003
 31
0.0
  0
LINE
  5
1E4
330
5A
100
AcDbEntity
  8
1
  6
Continuous
 62
     2
100
AcDbLine
 10
25.0
 20
18.50000000000001
 30
0.0
 11
81.0
 21
18.50000000000001
 31
0.0
  0
LINE
  5
1E5
330
5A
100
AcDbEntity
  8
1
  6
Continuous
 62
     2
100
AcDbLine
 10
33.0
 20
27.0
 30
0.0
 11
33.0
 21
10.0
 31
0.0
  0
LINE
  5
1E6
330
5A
100
AcDbEntity
  8
1
  6
Continuous
 62
     7
100
AcDbLine
 10
191.0
 20
24.70000000000001
 30
0.0
 11
191.0
 21
22.30000000000001
 31
0.0
  0
LINE
  5
1E7
330
5A
100
AcDbEntity
  8
1
  6
Continuous
 62
     7
100
AcDbLine
 10
191.0
 20
24.70000000000001
 30
0.0
 11
196.0
 21
25.50000000000001
 31
0.0
  0
LINE
  5
1E8
330
5A
100
AcDbEntity
  8
1
  6
Continuous
 62
     7
100
AcDbLine
 10
196.0
 20
25.50000000000001
 30
0.0
 11
196.0
 21
21.50000000000001
 31
0.0
  0
LINE
  5
1E9
330
5A
100
AcDbEntity
  8
1
  6
Continuous
 62
     7
100
AcDbLine
 10
196.0
 20
21.50000000000001
 30
0.0
 11
191.0
 21
22.30000000000001
 31
0.0
  0
LINE
  5
1EA
330
5A
100
AcDbEntity
  8
1
  6
DOT_CENTER
 62
     2
100
AcDbLine
 10
184.0
 20
23.50000000000001
 30
0.0
 11
197.0
 21
23.50000000000001
 31
0.0
  0
LINE
  5
1EB
330
5A
100
AcDbEntity
  8
1
  6
DOT_CENTER
 62
     2
100
AcDbLine
 10
187.0
 20
26.50000000000001
 30
0.0
 11
187.0
 21
20.50000000000001
 31
0.0
  0
LINE
  5
1EC
330
5A
100
AcDbEntity
  8
1
  6
Continuous
 62
     2
100
AcDbLine
 10
81.0
 20
27.00000000000001
 30
0.0
 11
81.0
 21
10.0
 31
0.0
  0
CIRCLE
  5
1ED
330
5A
100
AcDbEntity
  8
1
  6
Continuous
 62
     7
100
AcDbCircle
 10
103.5
 20
12.5
 30
0.0
 40
0.2999999999999972
  0
CIRCLE
  5
1EE
330
5A
100
AcDbEntity
  8
1
  6
Continuous
 62
     7
100
AcDbCircle
 10
109.5
 20
12.5
 30
0.0
 40
0.2999999999999972
  0
CIRCLE
  5
1EF
330
5A
100
AcDbEntity
  8
1
  6
Continuous
 62
     7
100
AcDbCircle
 10
120.5
 20
12.5
 30
0.0
 40
0.2999999999999972
  0
CIRCLE
  5
1F0
330
5A
100
AcDbEntity
  8
1
  6
Continuous
 62
     7
100
AcDbCircle
 10
126.5
 20
12.5
 30
0.0
 40
0.2999999999999972
  0
CIRCLE
  5
1F1
330
5A
100
AcDbEntity
  8
1
  6
Continuous
 62
     7
100
AcDbCircle
 10
137.5
 20
12.5
 30
0.0
 40
0.3000000000000114
  0
CIRCLE
  5
1F2
330
5A
100
AcDbEntity
  8
1
  6
Continuous
 62
     7
100
AcDbCircle
 10
143.5
 20
12.5
 30
0.0
 40
0.3000000000000114
  0
CIRCLE
  5
1F3
330
5A
100
AcDbEntity
  8
1
  6
Continuous
 62
     7
100
AcDbCircle
 10
160.5
 20
12.5
 30
0.0
 40
0.3000000000000114
  0
CIRCLE
  5
1F4
330
5A
100
AcDbEntity
  8
1
  6
Continuous
 62
     7
100
AcDbCircle
 10
154.5
 20
12.5
 30
0.0
 40
0.3000000000000114
  0
CIRCLE
  5
1F5
330
5A
100
AcDbEntity
  8
1
  6
Continuous
 62
     7
100
AcDbCircle
 10
187.0
 20
23.50000000000001
 30
0.0
 40
1.200000000000102
  0
CIRCLE
  5
1F6
330
5A
100
AcDbEntity
  8
1
  6
Continuous
 62
     7
100
AcDbCircle
 10
187.0
 20
23.50000000000001
 30
0.0
 40
2.0
  0
CIRCLE
  5
1F7
330
5A
100
AcDbEntity
  8
1
  6
DOT_CENTER
 62
     7
100
AcDbCircle
 10
89.5
 20
16.0
 30
0.0
 40
0.1000000000000227
  0
CIRCLE
  5
1F8
330
5A
100
AcDbEntity
  8
1
  6
DOT_CENTER
 62
     7
100
AcDbCircle
 10
89.5
 20
18.0
 30
0.0
 40
0.1000000000000227
  0
MTEXT
  5
1FA
330
5A
100
AcDbEntity
  8
1
 62
     7
100
AcDbMText
 10
188.5
 20
15.0
 30
0.0
 40
3.0
 41
0.0
 71
     5
 72
     1
  1
三栄水栓製作所
  7
CONVERTER_1
 73
     1
 44
1.32052821128451
  0
MTEXT
  5
1FB
330
5A
100
AcDbEntity
  8
1
 62
     7
100
AcDbMText
 10
171.5
 20
15.0
 30
0.0
 40
2.5
 41
0.0
 71
     5
 72
     1
  1
株式会社
  7
CONVERTER_1
 73
     1
 44
1.32052821128451
  0
MTEXT
  5
1FC
330
5A
100
AcDbEntity
  8
1
 62
     2
100
AcDbMText
 10
32.5
 20
282.0000000000003
 30
0.0
 40
5.0
 41
0.0
 71
     5
 72
     1
  1
図番
  7
CONVERTER_1
 73
     1
 44
0.60024009603842
  0
MTEXT
  5
1FD
330
5A
100
AcDbEntity
  8
1
 62
     2
100
AcDbMText
 10
29.0
 20
34.00000000000001
 30
0.0
 40
3.5
 41
0.0
 71
     5
 72
     1
  1
備考
  7
CONVERTER_1
 73
     1
 44
0.60024009603842
  0
MTEXT
  5
1FE
330
5A
100
AcDbEntity
  8
1
 62
     2
100
AcDbMText
 10
29.0
 20
22.75
 30
0.0
 40
3.5
 41
0.0
 71
     5
 72
     1
  1
品名
  7
CONVERTER_1
 73
     1
 44
0.96038415366146
  0
MTEXT
  5
1FF
330
5A
100
AcDbEntity
  8
1
 62
     2
100
AcDbMText
 10
29.0
 20
14.25
 30
0.0
 40
3.5
 41
0.0
 71
     5
 72
     1
  1
品番
  7
CONVERTER_1
 73
     1
 44
0.96038415366146
  0
MTEXT
  5
200
330
5A
100
AcDbEntity
  8
1
 62
     2
100
AcDbMText
 10
101.5
 20
25.00000000000001
 30
0.0
 40
3.0
 41
0.0
 71
     5
 72
     1
  1
承認
  7
CONVERTER_1
 73
     1
 44
0.78031212484994
  0
MTEXT
  5
201
330
5A
100
AcDbEntity
  8
1
 62
     2
100
AcDbMText
 10
175.0
 20
23.50000000000001
 30
0.0
 40
3.5
 41
0.0
 71
     5
 72
     1
  1
第三角法
  7
CONVERTER_1
 73
     1
 44
0.7202881152461
  0
MTEXT
  5
202
330
5A
100
AcDbEntity
  8
1
 62
     2
100
AcDbMText
 10
118.5
 20
25.00000000000001
 30
0.0
 40
3.0
 41
0.0
 71
     5
 72
     1
  1
検図
  7
CONVERTER_1
 73
     1
 44
0.78031212484994
  0
MTEXT
  5
203
330
5A
100
AcDbEntity
  8
1
 62
     2
100
AcDbMText
 10
152.5
 20
25.00000000000001
 30
0.0
 40
3.0
 41
0.0
 71
     5
 72
     1
  1
設計
  7
CONVERTER_1
 73
     1
 44
0.78031212484994
  0
MTEXT
  5
204
330
5A
100
AcDbEntity
  8
1
 62
     2
100
AcDbMText
 10
135.5
 20
25.00000000000001
 30
0.0
 40
3.0
 41
0.0
 71
     5
 72
     1
  1
製図
  7
CONVERTER_1
 73
     1
 44
0.78031212484994
  0
MTEXT
  5
205
330
5A
100
AcDbEntity
  8
1
 62
     2
100
AcDbMText
 10
89.5
 20
24.00000000000001
 30
0.0
 40
3.5
 41
0.0
 71
     5
 72
     1
  1
尺度
  7
CONVERTER_1
 73
     1
 44
0.7202881152461
  0
MTEXT
  5
206
330
5A
100
AcDbEntity
  8
1
 62
   250
100
AcDbMText
 10
25.0
 20
5.0
 30
0.0
 40
3.5
 41
0.0
 71
     4
 72
     1
  1
備考欄の文字列 原点位置=4
  7
CONVERTER_1
 73
     1
 44
0.7202881152461
  0
ENDBLK
  5
5C
330
5A
100
AcDbEntity
  8
0
100
AcDbBlockEnd
  0
BLOCK
  5
226
330
21F
100
AcDbEntity
  8
0
100
AcDbBlockBegin
  2
*D012
 70
     1
 71
     0
 10
0.0
 20
0.0
 30
0.0
  3
*D012
  1

  0
LINE
  5
220
330
21F
100
AcDbEntity
  8
1
  6
Continuous
 62
     2
100
AcDbLine
 10
490.2549551811786
 20
250.8142307952436
 30
0.0
 11
490.2549551811786
 21
204.8142307952437
 31
0.0
  0
LINE
  5
221
330
21F
100
AcDbEntity
  8
1
  6
Continuous
 62
     2
100
AcDbLine
 10
451.2549551811786
 20
204.8142307952437
 30
0.0
 11
492.7549551811786
 21
204.8142307952437
 31
0.0
  0
LINE
  5
222
330
21F
100
AcDbEntity
  8
1
  6
Continuous
 62
     2
100
AcDbLine
 10
451.2549551811786
 20
250.8142307952436
 30
0.0
 11
492.7549551811786
 21
250.8142307952436
 31
0.0
  0
SOLID
  5
223
330
21F
100
AcDbEntity
  8
1
 62
     2
100
AcDbTrace
 10
491.4069145350683
 20
242.0642307952436
 30
0.0
 11
489.1029958272889
 21
242.0642307952436
 31
0.0
 12
490.2549551811786
 22
250.8142307952436
 32
0.0
 13
490.2549551811786
 23
250.8142307952436
 33
0.0
  0
SOLID
  5
224
330
21F
100
AcDbEntity
  8
1
 62
     2
100
AcDbTrace
 10
489.1029958272889
 20
213.5642307952437
 30
0.0
 11
491.4069145350683
 21
213.5642307952437
 31
0.0
 12
490.2549551811786
 22
204.8142307952437
 32
0.0
 13
490.2549551811786
 23
204.8142307952437
 33
0.0
  0
MTEXT
  5
225
330
21F
100
AcDbEntity
  8
1
 62
     7
100
AcDbMText
 10
487.7549551811786
 20
212.1517307952437
 30
0.0
 40
8.75
 41
0.0
 71
     7
 72
     1
  1
\C7;{\Fgdt;n}\C7;46
  7
CONVERTER_2
 11
0.0
 21
1.0
 31
0.0
 73
     1
 44
0.60024009603842
  0
ENDBLK
  5
227
330
21F
100
AcDbEntity
  8
0
100
AcDbBlockEnd
  0
BLOCK
  5
231
330
22A
100
AcDbEntity
  8
0
100
AcDbBlockBegin
  2
*D113
 70
     1
 71
     0
 10
0.0
 20
0.0
 30
0.0
  3
*D113
  1

  0
LINE
  5
22B
330
22A
100
AcDbEntity
  8
1
  6
Continuous
 62
     2
100
AcDbLine
 10
236.2549551811786
 20
179.8142307952437
 30
0.0
 11
406.2549551811786
 21
179.8142307952437
 31
0.0
  0
LINE
  5
22C
330
22A
100
AcDbEntity
  8
1
  6
Continuous
 62
     2
100
AcDbLine
 10
406.2549551811786
 20
210.8142307952437
 30
0.0
 11
406.2549551811786
 21
177.3142307952437
 31
0.0
  0
LINE
  5
22D
330
22A
100
AcDbEntity
  8
1
  6
Continuous
 62
     2
100
AcDbLine
 10
236.2549551811786
 20
259.3142307952436
 30
0.0
 11
236.2549551811786
 21
177.3142307952437
 31
0.0
  0
SOLID
  5
22E
330
22A
100
AcDbEntity
  8
1
 62
     2
100
AcDbTrace
 10
245.0049551811786
 20
180.9661901491334
 30
0.0
 11
245.0049551811786
 21
178.662271441354
 31
0.0
 12
236.2549551811786
 22
179.8142307952437
 32
0.0
 13
236.2549551811786
 23
179.8142307952437
 33
0.0
  0
SOLID
  5
22F
330
22A
100
AcDbEntity
  8
1
 62
     2
100
AcDbTrace
 10
397.5049551811786
 20
178.662271441354
 30
0.0
 11
397.5049551811786
 21
180.9661901491334
 31
0.0
 12
406.2549551811786
 22
179.8142307952437
 32
0.0
 13
406.2549551811786
 23
179.8142307952437
 33
0.0
  0
MTEXT
  5
230
330
22A
100
AcDbEntity
  8
1
 62
     7
100
AcDbMText
 10
312.0674551811787
 20
182.3142307952437
 30
0.0
 40
8.75
 41
0.0
 71
     7
 72
     1
  1
170
  7
CONVERTER_2
 11
0.9999999999970621
 21
2.424068405545307E-6
 31
0.0
 73
     1
 44
0.60024009603842
  0
ENDBLK
  5
232
330
22A
100
AcDbEntity
  8
0
100
AcDbBlockEnd
  0
BLOCK
  5
23C
330
235
100
AcDbEntity
  8
0
100
AcDbBlockBegin
  2
*D214
 70
     1
 71
     0
 10
0.0
 20
0.0
 30
0.0
  3
*D214
  1

  0
LINE
  5
236
330
235
100
AcDbEntity
  8
1
  6
Continuous
 62
     2
100
AcDbLine
 10
406.2549551811786
 20
179.8142307952437
 30
0.0
 11
451.2549551811786
 21
179.8142307952437
 31
0.0
  0
LINE
  5
237
330
235
100
AcDbEntity
  8
1
  6
Continuous
 62
     2
100
AcDbLine
 10
451.2549551811786
 20
204.8142307952437
 30
0.0
 11
451.2549551811786
 21
177.3142307952437
 31
0.0
  0
LINE
  5
238
330
235
100
AcDbEntity
  8
1
  6
Continuous
 62
     2
100
AcDbLine
 10
406.2549551811786
 20
210.8142307952437
 30
0.0
 11
406.2549551811786
 21
177.3142307952437
 31
0.0
  0
SOLID
  5
239
330
235
100
AcDbEntity
  8
1
 62
     2
100
AcDbTrace
 10
415.0049551811786
 20
180.9661901491334
 30
0.0
 11
415.0049551811786
 21
178.662271441354
 31
0.0
 12
406.2549551811786
 22
179.8142307952437
 32
0.0
 13
406.2549551811786
 23
179.8142307952437
 33
0.0
  0
SOLID
  5
23A
330
235
100
AcDbEntity
  8
1
 62
     2
100
AcDbTrace
 10
442.5049551811786
 20
178.662271441354
 30
0.0
 11
442.5049551811786
 21
180.9661901491334
 31
0.0
 12
451.2549551811786
 22
179.8142307952437
 32
0.0
 13
451.2549551811786
 23
179.8142307952437
 33
0.0
  0
MTEXT
  5
23B
330
235
100
AcDbEntity
  8
1
 62
     7
100
AcDbMText
 10
422.1924551811787
 20
182.3142307952437
 30
0.0
 40
8.75
 41
0.0
 71
     7
 72
     1
  1
45
  7
CONVERTER_2
 11
0.9999999999970621
 21
2.424068405545307E-6
 31
0.0
 73
     1
 44
0.60024009603842
  0
ENDBLK
  5
23D
330
235
100
AcDbEntity
  8
0
100
AcDbBlockEnd
  0
BLOCK
  5
247
330
240
100
AcDbEntity
  8
0
100
AcDbBlockBegin
  2
*D315
 70
     1
 71
     0
 10
0.0
 20
0.0
 30
0.0
  3
*D315
  1

  0
LINE
  5
241
330
240
100
AcDbEntity
  8
0
  6
Continuous
 62
     2
100
AcDbLine
 10
269.9049551811786
 20
227.8142307952431
 30
0.0
 11
269.9049551811786
 21
262.3142307952436
 31
0.0
  0
LINE
  5
242
330
240
100
AcDbEntity
  8
0
  6
Continuous
 62
     2
100
AcDbLine
 10
243.6413621871647
 20
262.3142307952436
 30
0.0
 11
272.4049551811786
 21
262.3142307952436
 31
0.0
  0
LINE
  5
243
330
240
100
AcDbEntity
  8
0
  6
Continuous
 62
     2
100
AcDbLine
 10
379.3144836829437
 20
227.8142307952431
 30
0.0
 11
267.4049551811786
 21
227.8142307952431
 31
0.0
  0
SOLID
  5
244
330
240
100
AcDbEntity
  8
0
 62
     2
100
AcDbTrace
 10
268.7529958272889
 20
236.5642307952431
 30
0.0
 11
271.0569145350683
 21
236.5642307952431
 31
0.0
 12
269.9049551811786
 22
227.8142307952431
 32
0.0
 13
269.9049551811786
 23
227.8142307952431
 33
0.0
  0
SOLID
  5
245
330
240
100
AcDbEntity
  8
0
 62
     2
100
AcDbTrace
 10
271.0569145350683
 20
253.5642307952436
 30
0.0
 11
268.7529958272889
 21
253.5642307952436
 31
0.0
 12
269.9049551811786
 22
262.3142307952436
 32
0.0
 13
269.9049551811786
 23
262.3142307952436
 33
0.0
  0
MTEXT
  5
246
330
240
100
AcDbEntity
  8
0
 62
     7
100
AcDbMText
 10
267.4049551811786
 20
238.5017307952434
 30
0.0
 40
8.75
 41
0.0
 71
     7
 72
     1
  1
35
  7
CONVERTER_2
 11
0.0
 21
1.0
 31
0.0
 73
     1
 44
0.60024009603842
  0
ENDBLK
  5
248
330
240
100
AcDbEntity
  8
0
100
AcDbBlockEnd
  0
BLOCK
  5
252
330
24B
100
AcDbEntity
  8
0
100
AcDbBlockBegin
  2
*D416
 70
     1
 71
     0
 10
0.0
 20
0.0
 30
0.0
  3
*D416
  1

  0
LINE
  5
24C
330
24B
100
AcDbEntity
  8
0
  6
Continuous
 62
     2
100
AcDbLine
 10
202.6049551811786
 20
227.8142307952431
 30
0.0
 11
202.6049551811786
 21
295.3142307952437
 31
0.0
  0
LINE
  5
24D
330
24B
100
AcDbEntity
  8
0
  6
Continuous
 62
     2
100
AcDbLine
 10
263.2549551811786
 20
295.3142307952437
 30
0.0
 11
200.1049551811786
 21
295.3142307952437
 31
0.0
  0
LINE
  5
24E
330
24B
100
AcDbEntity
  8
0
  6
Continuous
 62
     2
100
AcDbLine
 10
379.3144836829437
 20
227.8142307952431
 30
0.0
 11
200.1049551811786
 21
227.8142307952431
 31
0.0
  0
SOLID
  5
24F
330
24B
100
AcDbEntity
  8
0
 62
     2
100
AcDbTrace
 10
201.4529958272889
 20
236.5642307952431
 30
0.0
 11
203.7569145350683
 21
236.5642307952431
 31
0.0
 12
202.6049551811786
 22
227.8142307952431
 32
0.0
 13
202.6049551811786
 23
227.8142307952431
 33
0.0
  0
SOLID
  5
250
330
24B
100
AcDbEntity
  8
0
 62
     2
100
AcDbTrace
 10
203.7569145350683
 20
286.5642307952437
 30
0.0
 11
201.4529958272889
 21
286.5642307952437
 31
0.0
 12
202.6049551811786
 22
295.3142307952437
 32
0.0
 13
202.6049551811786
 23
295.3142307952437
 33
0.0
  0
MTEXT
  5
251
330
24B
100
AcDbEntity
  8
0
 62
     7
100
AcDbMText
 10
200.1049551811786
 20
255.0017307952435
 30
0.0
 40
8.75
 41
0.0
 71
     7
 72
     1
  1
68
  7
CONVERTER_2
 11
0.0
 21
1.0
 31
0.0
 73
     1
 44
0.60024009603842
  0
ENDBLK
  5
253
330
24B
100
AcDbEntity
  8
0
100
AcDbBlockEnd
  0
BLOCK
  5
25D
330
256
100
AcDbEntity
  8
0
100
AcDbBlockBegin
  2
*D517
 70
     1
 71
     0
 10
0.0
 20
0.0
 30
0.0
  3
*D517
  1

  0
LINE
  5
257
330
256
100
AcDbEntity
  8
0
  6
Continuous
 62
     2
100
AcDbLine
 10
113.1146331018701
 20
179.8142307952433
 30
0.0
 11
171.6109533036299
 21
179.8142307952433
 31
0.0
  0
LINE
  5
258
330
256
100
AcDbEntity
  8
0
  6
Continuous
 62
     2
100
AcDbLine
 10
113.1146331018701
 20
201.8142307952435
 30
0.0
 11
113.1146331018701
 21
177.3142307952433
 31
0.0
  0
LINE
  5
259
330
256
100
AcDbEntity
  8
0
  6
Continuous
 62
     2
100
AcDbLine
 10
171.6109533036299
 20
227.8142307952435
 30
0.0
 11
171.6109533036299
 21
177.3142307952433
 31
0.0
  0
SOLID
  5
25A
330
256
100
AcDbEntity
  8
0
 62
     2
100
AcDbTrace
 10
121.8646331018701
 20
180.966190149133
 30
0.0
 11
121.8646331018701
 21
178.6622714413536
 31
0.0
 12
113.1146331018701
 22
179.8142307952433
 32
0.0
 13
113.1146331018701
 23
179.8142307952433
 33
0.0
  0
SOLID
  5
25B
330
256
100
AcDbEntity
  8
0
 62
     2
100
AcDbTrace
 10
162.8609533036299
 20
178.6622714413536
 30
0.0
 11
162.8609533036299
 21
180.966190149133
 31
0.0
 12
171.6109533036299
 22
179.8142307952433
 32
0.0
 13
171.6109533036299
 23
179.8142307952433
 33
0.0
  0
MTEXT
  5
25C
330
256
100
AcDbEntity
  8
0
 62
     7
100
AcDbMText
 10
118.73779320275
 20
182.3142307952433
 30
0.0
 40
8.75
 41
0.0
 71
     7
 72
     1
  1
59リフト5
  7
CONVERTER_1
 11
0.9999999999970621
 21
2.424068405545307E-6
 31
0.0
 73
     1
 44
0.60024009603842
  0
ENDBLK
  5
25E
330
256
100
AcDbEntity
  8
0
100
AcDbBlockEnd
  0
BLOCK
  5
268
330
261
100
AcDbEntity
  8
0
100
AcDbBlockBegin
  2
*D618
 70
     1
 71
     0
 10
0.0
 20
0.0
 30
0.0
  3
*D618
  1

  0
LINE
  5
262
330
261
100
AcDbEntity
  8
1
  6
Continuous
 62
     2
100
AcDbLine
 10
486.666784971529
 20
179.8142307952437
 30
0.0
 11
465.2549551811786
 21
179.8142307952437
 31
0.0
  0
LINE
  5
263
330
261
100
AcDbEntity
  8
1
  6
Continuous
 62
     2
100
AcDbLine
 10
465.2549551811786
 20
179.8142307952437
 30
0.0
 11
451.2549551811786
 21
179.8142307952437
 31
0.0
  0
LINE
  5
264
330
261
100
AcDbEntity
  8
1
  6
Continuous
 62
     2
100
AcDbLine
 10
451.2549551811786
 20
204.8142307952437
 30
0.0
 11
451.2549551811786
 21
177.3142307952437
 31
0.0
  0
LINE
  5
265
330
261
100
AcDbEntity
  8
1
  6
Continuous
 62
     2
100
AcDbLine
 10
465.2549551811786
 20
218.3142307952437
 30
0.0
 11
465.2549551811786
 21
177.3142307952437
 31
0.0
  0
SOLID
  5
266
330
261
100
AcDbEntity
  8
1
 62
     2
100
AcDbTrace
 10
474.0049551811786
 20
180.9661901491334
 30
0.0
 11
474.0049551811786
 21
178.662271441354
 31
0.0
 12
465.2549551811786
 22
179.8142307952437
 32
0.0
 13
465.2549551811786
 23
179.8142307952437
 33
0.0
  0
MTEXT
  5
267
330
261
100
AcDbEntity
  8
1
 62
     7
100
AcDbMText
 10
476.166784971529
 20
182.3142307952437
 30
0.0
 40
8.75
 41
0.0
 71
     7
 72
     1
  1
14
  7
CONVERTER_2
 11
0.9999999999970621
 21
2.424068405545307E-6
 31
0.0
 73
     1
 44
0.60024009603842
  0
ENDBLK
  5
269
330
261
100
AcDbEntity
  8
0
100
AcDbBlockEnd
  0
BLOCK
  5
26B
330
26A
100
AcDbEntity
  8
0
100
AcDbBlockBegin
  2
_None
 70
     0
 71
     0
 10
0.0
 20
0.0
 30
0.0
  3
_None
  1

  0
ENDBLK
  5
26C
330
26A
100
AcDbEntity
  8
0
100
AcDbBlockEnd
  0
ENDSEC
  0
SECTION
  2
ENTITIES
  0
INSERT
  5
5D
330
1F
100
AcDbEntity
  8
0
100
AcDbBlockReference
  2
51-1
 10
124.1146331018702
 20
182.8142307952435
 30
0.0
  0
INSERT
  5
5E
330
1F
100
AcDbEntity
  8
0
100
AcDbBlockReference
  2
R10A-13
 10
169.1146331018701
 20
182.8142307952435
 30
0.0
  0
INSERT
  5
5F
330
1F
100
AcDbEntity
  8
1
100
AcDbBlockReference
  2
A20-0-13
 10
146.1146331018701
 20
204.8142307952434
 30
0.0
  0
INSERT
  5
60
330
1F
100
AcDbEntity
  8
1
100
AcDbBlockReference
  2
A20J-60X-16
 10
70.22315577676793
 20
245.3142307952434
 30
0.0
  0
INSERT
  5
61
330
1F
100
AcDbEntity
  8
1
100
AcDbBlockReference
  2
_J__A4
 10
0.0
 20
0.0
 30
0.0
 41
2.5
 42
2.5
 43
2.5
  0
LINE
  5
207
330
1F
100
AcDbEntity
  8
1
  6
DASH_CENTER
 62
     2
100
AcDbLine
 10
93.45514585188391
 20
563.1559361776151
 30
0.0
 11
175.4837686423718
 21
563.1559361776151
 31
0.0
  0
LINE
  5
208
330
1F
100
AcDbEntity
  8
0
  6
DASH_CENTER
 62
     2
100
AcDbLine
 10
156.4919700455408
 20
227.8142307952434
 30
0.0
 11
87.11463310187011
 21
227.8142307952434
 31
0.0
  0
LINE
  5
209
330
1F
100
AcDbEntity
  8
1
  6
DASH_CENTER
 62
     2
100
AcDbLine
 10
113.1146331018701
 20
246.3142307952434
 30
0.0
 11
113.1146331018701
 21
201.8142307952435
 31
0.0
  0
LINE
  5
20A
330
1F
100
AcDbEntity
  8
1
  6
DASH_CENTER
 62
     2
100
AcDbLine
 10
468.2549551811786
 20
227.8142307952437
 30
0.0
 11
379.3144836829437
 21
227.8142307952431
 31
0.0
  0
LINE
  5
20B
330
1F
100
AcDbEntity
  8
1
  6
DASH_CENTER
 62
     2
100
AcDbLine
 10
406.2549551811786
 20
210.8142307952437
 30
0.0
 11
406.2549551811786
 21
268.3142307952436
 31
0.0
  0
LINE
  5
20C
330
1F
100
AcDbEntity
  8
1
  6
DASH_CENTER
 62
     2
100
AcDbLine
 10
113.1146331018701
 20
627.8795537761695
 30
0.0
 11
113.1146331018701
 21
381.1797389120604
 31
0.0
  0
LINE
  5
20D
330
1F
100
AcDbEntity
  8
1
  6
DASH_CENTER
 62
     2
100
AcDbLine
 10
102.6014126925111
 20
295.3142307952437
 30
0.0
 11
124.0073491102977
 21
295.3142307952437
 31
0.0
  0
LINE
  5
20E
330
1F
100
AcDbEntity
  8
1
  6
DASH_CENTER
 62
     2
100
AcDbLine
 10
113.1146331018701
 20
307.4657117879639
 30
0.0
 11
113.1146331018701
 21
246.3142307952434
 31
0.0
  0
LINE
  5
20F
330
1F
100
AcDbEntity
  8
1
  6
DASH_CENTER
 62
     2
100
AcDbLine
 10
387.1089240517728
 20
238.8681970217192
 30
0.0
 11
438.2967374742697
 21
209.3148991630122
 31
0.0
  0
LINE
  5
210
330
1F
100
AcDbEntity
  8
1
  6
DASH_CENTER
 62
     2
100
AcDbLine
 10
374.2131728880877
 20
209.3148991630122
 30
0.0
 11
424.7663117930983
 21
238.5017675182007
 31
0.0
  0
LINE
  5
211
330
1F
100
AcDbEntity
  8
1
  6
DASH_CENTER
 62
     2
100
AcDbLine
 10
263.2549551811786
 20
295.3142307952437
 30
0.0
 11
379.2549551811786
 21
295.3142307952437
 31
0.0
  0
LINE
  5
212
330
1F
100
AcDbEntity
  8
1
  6
DASH_CENTER
 62
     2
100
AcDbLine
 10
236.2549551811785
 20
268.3142307952436
 30
0.0
 11
236.2549551811786
 21
259.3142307952436
 31
0.0
  0
LINE
  5
213
330
1F
100
AcDbEntity
  8
1
  6
DASH_CENTER
 62
     2
100
AcDbLine
 10
102.1366818896492
 20
393.1559361776149
 30
0.0
 11
124.4888552957321
 21
393.1559361776149
 31
0.0
  0
ARC
  5
214
330
1F
100
AcDbEntity
  8
1
  6
DASH_CENTER
 62
     2
100
AcDbCircle
 10
379.2549551811786
 20
268.3142307952437
 30
0.0
 40
27.0
100
AcDbArc
 50
-0.00000000000024
 51
90.0
  0
ARC
  5
215
330
1F
100
AcDbEntity
  8
1
  6
DASH_CENTER
 62
     2
100
AcDbCircle
 10
263.2549551811786
 20
268.3142307952436
 30
0.0
 40
27.00000000000011
100
AcDbArc
 50
90.0
 51
180.0
  0
SOLID
  5
216
330
1F
100
AcDbEntity
  8
1
 62
     2
100
AcDbTrace
 10
126.9920070372751
 20
622.8096381376732
 30
0.0
 11
128.9872591664663
 21
621.6576787837835
 31
0.0
 12
123.6146331018706
 22
614.6559361776145
 32
0.0
 13
123.6146331018706
 23
614.6559361776145
 33
0.0
  0
LEADER
  5
217
330
1F
100
AcDbEntity
  8
1
  6
Continuous
 62
     2
100
AcDbLeader
  3
Standard
 71
     0
 76
     3
 10
123.6146331018706
 20
614.6559361776145
 30
0.0
 10
136.149223423784
 20
636.3664834672296
 30
0.0
 10
171.092391826014
 20
636.3664834672296
 30
0.0
  0
MTEXT
  5
218
330
1F
100
AcDbEntity
  8
0
 62
     7
100
AcDbMText
 10
142.5
 20
56.87500000000004
 30
0.0
 40
8.75
 41
0.0
 71
     5
 72
     1
  1
横形自在水栓
  7
CONVERTER_1
 73
     1
 44
1.32052821128451
  0
MTEXT
  5
21A
330
1F
100
AcDbEntity
  8
0
 62
     7
100
AcDbMText
 10
142.5
 20
35.62500000000001
 30
0.0
 40
8.75
 41
0.0
 71
     5
 72
     1
  1
A20EK-13
  7
CONVERTER_2
 73
     1
 44
0.7202881152461
  0
MTEXT
  5
21B
330
1F
100
AcDbEntity
  8
1
 62
     7
100
AcDbMText
 10
153.620807624899
 20
643.8664834672296
 30
0.0
 40
8.75
 41
0.0
 71
     5
 72
     1
  1
PJ1/2
  7
CONVERTER_2
 73
     1
 44
1.32052821128451
  0
MTEXT
  5
21C
330
1F
100
AcDbEntity
  8
0
 62
     7
100
AcDbMText
 10
85.0
 20
85.00000000000003
 30
0.0
 40
8.75
 41
0.0
 71
     4
 72
     1
  1
JIS
  7
CONVERTER_2
 73
     1
 44
1.32052821128451
  0
MTEXT
  5
21D
330
1F
100
AcDbEntity
  8
0
 62
     7
100
AcDbMText
 10
213.125
 20
42.50000000000001
 30
0.0
 40
8.75
 41
0.0
 71
     5
 72
     1
  1
1
  7
CONVERTER_2
 73
     1
 44
1.32052821128451
  0
MTEXT
  5
21E
330
1F
100
AcDbEntity
  8
0
 62
     7
100
AcDbMText
 10
234.375
 20
42.50000000000001
 30
0.0
 40
8.75
 41
0.0
 71
     5
 72
     1
  1
2,5
  7
CONVERTER_2
 73
     1
 44
1.32052821128451
  0
DIMENSION
  5
229
330
1F
100
AcDbEntity
  8
1
100
AcDbDimension
  2
*D012
 10
490.2549551811786
 20
250.8142307952436
 30
0.0
 11
483.3799551811786
 21
227.8142307952437
 31
0.0
  1
<>
 71
     5
 42
0.0
 53
90.0
  3
ME10_DIM_0
100
AcDbAlignedDimension
 13
451.2549551811787
 23
204.8142307952437
 33
0.0
 14
451.2549551811787
 24
250.8142307952436
 34
0.0
 50
90.0
100
AcDbRotatedDimension
  0
DIMENSION
  5
234
330
1F
100
AcDbEntity
  8
1
100
AcDbDimension
  2
*D113
 10
236.2549551811786
 20
179.8142307952437
 30
0.0
 11
321.2549551811787
 21
186.6892307952437
 31
0.0
  1
<>
 71
     5
 42
0.0
 53
0.00013888888889
  3
ME10_DIM_1
100
AcDbAlignedDimension
 13
406.2549551811786
 23
210.8142307952437
 33
0.0
 14
236.2549551811786
 24
259.3142307952436
 34
0.0
100
AcDbRotatedDimension
  0
DIMENSION
  5
23F
330
1F
100
AcDbEntity
  8
1
100
AcDbDimension
  2
*D214
 10
406.2549551811786
 20
179.8142307952437
 30
0.0
 11
428.7549551811787
 21
186.6892307952437
 31
0.0
  1
<>
 71
     5
 42
0.0
 53
0.00013888888889
  3
ME10_DIM_2
100
AcDbAlignedDimension
 13
451.2549551811787
 23
204.8142307952437
 33
0.0
 14
406.2549551811786
 24
210.8142307952437
 34
0.0
100
AcDbRotatedDimension
  0
DIMENSION
  5
24A
330
1F
100
AcDbEntity
  8
0
100
AcDbDimension
  2
*D315
 10
269.9049551811786
 20
227.8142307952431
 30
0.0
 11
263.0299551811786
 21
245.0642307952434
 31
0.0
  1
35
 71
     5
 42
0.0
 53
90.0
  3
ME10_DIM_3
100
AcDbAlignedDimension
 13
243.6413621871647
 23
262.3142307952436
 33
0.0
 14
379.3144836829437
 24
227.8142307952431
 34
0.0
 50
90.0
100
AcDbRotatedDimension
  0
DIMENSION
  5
255
330
1F
100
AcDbEntity
  8
0
100
AcDbDimension
  2
*D416
 10
202.6049551811786
 20
227.8142307952431
 30
0.0
 11
195.7299551811786
 21
261.5642307952435
 31
0.0
  1
68
 71
     5
 42
0.0
 53
90.0
  3
ME10_DIM_4
100
AcDbAlignedDimension
 13
263.2549551811786
 23
295.3142307952437
 33
0.0
 14
379.3144836829437
 24
227.8142307952431
 34
0.0
 50
90.0
100
AcDbRotatedDimension
  0
DIMENSION
  5
260
330
1F
100
AcDbEntity
  8
0
100
AcDbDimension
  2
*D517
 10
113.1146331018701
 20
179.8142307952433
 30
0.0
 11
142.36279320275
 21
186.6892307952433
 31
0.0
  1
59リフト5
 71
     5
 42
0.0
 53
0.00013888888889
  3
ME10_DIM_5
100
AcDbAlignedDimension
 13
171.6109533036299
 23
227.8142307952435
 33
0.0
 14
113.1146331018701
 24
201.8142307952435
 34
0.0
100
AcDbRotatedDimension
  0
DIMENSION
  5
26E
330
1F
100
AcDbEntity
  8
1
100
AcDbDimension
  2
*D618
 10
465.2549551811786
 20
179.8142307952437
 30
0.0
 11
481.416784971529
 21
186.6892307952437
 31
0.0
  1
<>
 71
     5
 42
0.0
 53
0.00013888888889
  3
ME10_DIM_6
100
AcDbAlignedDimension
 13
451.2549551811787
 23
204.8142307952437
 33
0.0
 14
465.2549551811786
 24
218.3142307952437
 34
0.0
100
AcDbRotatedDimension
  0
ENDSEC
  0
SECTION
  2
OBJECTS
  0
DICTIONARY
  5
C
330
0
100
AcDbDictionary
281
     1
  3
ACAD_GROUP
350
D
  3
ACAD_LAYOUT
350
1A
  3
ACAD_MLINESTYLE
350
17
  3
ACAD_PLOTSETTINGS
350
19
  3
ACAD_PLOTSTYLENAME
350
E
  3
ACAD_TABLESTYLE
350
2A
  3
AcDbVariableDictionary
350
2C
  0
DICTIONARY
  5
D
102
{ACAD_REACTORS
330
C
102
}
330
C
100
AcDbDictionary
281
     1
  0
DICTIONARY
  5
1A
102
{ACAD_REACTORS
330
C
102
}
330
C
100
AcDbDictionary
281
     1
  3
Layout1
350
1E
  3
Layout2
350
26
  3
Model
350
22
  0
DICTIONARY
  5
17
102
{ACAD_REACTORS
330
C
102
}
330
C
100
AcDbDictionary
281
     1
  3
Standard
350
18
  0
DICTIONARY
  5
19
102
{ACAD_REACTORS
330
C
102
}
330
C
100
AcDbDictionary
281
     1
  0
ACDBDICTIONARYWDFLT
  5
E
102
{ACAD_REACTORS
330
C
102
}
330
C
100
AcDbDictionary
281
     1
  3
Normal
350
F
100
AcDbDictionaryWithDefault
340
F
  0
DICTIONARY
  5
2A
102
{ACAD_REACTORS
330
C
102
}
330
C
100
AcDbDictionary
281
     1
  3
Standard
350
2B
  0
DICTIONARY
  5
2C
102
{ACAD_REACTORS
330
C
102
}
330
C
100
AcDbDictionary
281
     1
  3
CTABLESTYLE
350
2D
  0
LAYOUT
  5
1E
102
{ACAD_REACTORS
330
1A
102
}
330
1A
100
AcDbPlotSettings
  1

  2

  4

  6

 40
0.0
 41
0.0
 42
0.0
 43
0.0
 44
0.0
 45
0.0
 46
0.0
 47
0.0
 48
0.0
 49
0.0
140
0.0
141
0.0
142
1.0
143
1.0
 70
   688
 72
     0
 73
     0
 74
     5
  7

 75
    16
147
1.0
148
0.0
149
0.0
100
AcDbLayout
  1
Layout1
 70
     1
 71
     1
 10
0.0
 20
0.0
 11
12.0
 21
9.0
 12
0.0
 22
0.0
 32
0.0
 14
1.00000000000000E+20
 24
1.00000000000000E+20
 34
1.00000000000000E+20
 15
-1.00000000000000E+20
 25
-1.00000000000000E+20
 35
-1.00000000000000E+20
146
0.0
 13
0.0
 23
0.0
 33
0.0
 16
1.0
 26
0.0
 36
0.0
 17
0.0
 27
1.0
 37
0.0
 76
     0
330
1B
  0
LAYOUT
  5
26
102
{ACAD_REACTORS
330
1A
102
}
330
1A
100
AcDbPlotSettings
  1

  2

  4

  6

 40
0.0
 41
0.0
 42
0.0
 43
0.0
 44
0.0
 45
0.0
 46
0.0
 47
0.0
 48
0.0
 49
0.0
140
0.0
141
0.0
142
1.0
143
1.0
 70
   688
 72
     0
 73
     0
 74
     5
  7

 75
    16
147
1.0
148
0.0
149
0.0
100
AcDbLayout
  1
Layout2
 70
     1
 71
     2
 10
0.0
 20
0.0
 11
0.0
 21
0.0
 12
0.0
 22
0.0
 32
0.0
 14
0.0
 24
0.0
 34
0.0
 15
0.0
 25
0.0
 35
0.0
146
0.0
 13
0.0
 23
0.0
 33
0.0
 16
1.0
 26
0.0
 36
0.0
 17
0.0
 27
1.0
 37
0.0
 76
     0
330
23
  0
LAYOUT
  5
22
102
{ACAD_REACTORS
330
1A
102
}
330
1A
100
AcDbPlotSettings
  1

  2

  4

  6

 40
0.0
 41
0.0
 42
0.0
 43
0.0
 44
0.0
 45
0.0
 46
0.0
 47
0.0
 48
0.0
 49
0.0
140
0.0
141
0.0
142
1.0
143
1.0
 70
  1712
 72
     0
 73
     0
 74
     0
  7

 75
     0
147
1.0
148
0.0
149
0.0
100
AcDbLayout
  1
Model
 70
     1
 71
     0
 10
0.0
 20
0.0
 11
0.0
 21
0.0
 12
0.0
 22
0.0
 32
0.0
 14
0.0
 24
0.0
 34
0.0
 15
525.0
 25
742.5
 35
0.0
146
0.0
 13
0.0
 23
0.0
 33
0.0
 16
1.0
 26
0.0
 36
0.0
 17
0.0
 27
1.0
 37
0.0
 76
     0
330
1F
  0
MLINESTYLE
  5
18
102
{ACAD_REACTORS
330
17
102
}
330
17
100
AcDbMlineStyle
  2
Standard
 70
     0
  3

 62
   256
 51
90.0
 52
90.0
 71
     2
 49
0.5
 62
   256
  6
BYLAYER
 49
-0.5
 62
   256
  6
BYLAYER
  0
ACDBPLACEHOLDER
  5
F
102
{ACAD_REACTORS
330
E
102
}
330
E
  0
TABLESTYLE
  5
2B
102
{ACAD_REACTORS
330
2A
102
}
330
2A
100
AcDbTableStyle
  3
Standard
 70
     0
 71
     0
 40
0.06
 41
0.06
280
     0
281
     0
  7
Standard
140
0.18
170
     2
 62
     0
 63
     7
283
     0
274
    -2
284
     1
 64
     0
275
    -2
285
     1
 65
     0
276
    -2
286
     1
 66
     0
277
    -2
287
     1
 67
     0
278
    -2
288
     1
 68
     0
279
    -2
289
     1
 69
     0
  7
Standard
140
0.25
170
     5
 62
     0
 63
     7
283
     0
274
    -2
284
     1
 64
     0
275
    -2
285
     1
 65
     0
276
    -2
286
     1
 66
     0
277
    -2
287
     1
 67
     0
278
    -2
288
     1
 68
     0
279
    -2
289
     1
 69
     0
  7
Standard
140
0.18
170
     5
 62
     0
 63
     7
283
     0
274
    -2
284
     1
 64
     0
275
    -2
285
     1
 65
     0
276
    -2
286
     1
 66
     0
277
    -2
287
     1
 67
     0
278
    -2
288
     1
 68
     0
279
    -2
289
     1
 69
     0
  0
DICTIONARYVAR
  5
2D
102
{ACAD_REACTORS
330
2C
102
}
330
2C
100
DictionaryVariables
280
     0
  1
Standard
  0
ENDSEC
  0
EOF
