  0
SECTION
  2
HEADER
  9
$ACADVER
  1
AC1015
  9
$ACADMAINTVER
 70
     6
  9
$DWGCODEPAGE
  3
DOS932
  9
$INSBASE
 10
0.0
 20
0.0
 30
0.0
  9
$EXTMIN
 10
0.0
 20
0.0
 30
0.0
  9
$EXTMAX
 10
630.0
 20
891.0
 30
0.0
  9
$LIMMIN
 10
0.0
 20
0.0
  9
$LIMMAX
 10
12.0
 20
9.0
  9
$ORTHOMODE
 70
     0
  9
$REGENMODE
 70
     1
  9
$FILLMODE
 70
     1
  9
$QTEXTMODE
 70
     0
  9
$MIRRTEXT
 70
     1
  9
$LTSCALE
 40
1.0
  9
$ATTMODE
 70
     1
  9
$TEXTSIZE
 40
0.2
  9
$TRACEWID
 40
0.05
  9
$TEXTSTYLE
  7
Standard
  9
$CLAYER
  8
0
  9
$CELTYPE
  6
ByLayer
  9
$CECOLOR
 62
   256
  9
$CELTSCALE
 40
1.0
  9
$DISPSILH
 70
     0
  9
$DIMSCALE
 40
1.0
  9
$DIMASZ
 40
0.18
  9
$DIMEXO
 40
0.0625
  9
$DIMDLI
 40
0.38
  9
$DIMRND
 40
0.0
  9
$DIMDLE
 40
0.0
  9
$DIMEXE
 40
0.18
  9
$DIMTP
 40
0.0
  9
$DIMTM
 40
0.0
  9
$DIMTXT
 40
0.18
  9
$DIMCEN
 40
0.09
  9
$DIMTSZ
 40
0.0
  9
$DIMTOL
 70
     0
  9
$DIMLIM
 70
     0
  9
$DIMTIH
 70
     1
  9
$DIMTOH
 70
     1
  9
$DIMSE1
 70
     0
  9
$DIMSE2
 70
     0
  9
$DIMTAD
 70
     0
  9
$DIMZIN
 70
     0
  9
$DIMBLK
  1

  9
$DIMASO
 70
     1
  9
$DIMSHO
 70
     1
  9
$DIMPOST
  1

  9
$DIMAPOST
  1

  9
$DIMALT
 70
     0
  9
$DIMALTD
 70
     2
  9
$DIMALTF
 40
25.4
  9
$DIMLFAC
 40
1.0
  9
$DIMTOFL
 70
     0
  9
$DIMTVP
 40
0.0
  9
$DIMTIX
 70
     0
  9
$DIMSOXD
 70
     0
  9
$DIMSAH
 70
     0
  9
$DIMBLK1
  1

  9
$DIMBLK2
  1

  9
$DIMSTYLE
  2
Standard
  9
$DIMCLRD
 70
     0
  9
$DIMCLRE
 70
     0
  9
$DIMCLRT
 70
     0
  9
$DIMTFAC
 40
1.0
  9
$DIMGAP
 40
0.09
  9
$DIMJUST
 70
     0
  9
$DIMSD1
 70
     0
  9
$DIMSD2
 70
     0
  9
$DIMTOLJ
 70
     1
  9
$DIMTZIN
 70
     0
  9
$DIMALTZ
 70
     0
  9
$DIMALTTZ
 70
     0
  9
$DIMUPT
 70
     0
  9
$DIMDEC
 70
     4
  9
$DIMTDEC
 70
     4
  9
$DIMALTU
 70
     2
  9
$DIMALTTD
 70
     2
  9
$DIMTXSTY
  7
Standard
  9
$DIMAUNIT
 70
     0
  9
$DIMADEC
 70
     0
  9
$DIMALTRND
 40
0.0
  9
$DIMAZIN
 70
     0
  9
$DIMDSEP
 70
    46
  9
$DIMATFIT
 70
     3
  9
$DIMFRAC
 70
     0
  9
$DIMLDRBLK
  1

  9
$DIMLUNIT
 70
     2
  9
$DIMLWD
 70
    -2
  9
$DIMLWE
 70
    -2
  9
$DIMTMOVE
 70
     0
  9
$LUNITS
 70
     2
  9
$LUPREC
 70
     4
  9
$SKETCHINC
 40
0.1
  9
$FILLETRAD
 40
0.5
  9
$AUNITS
 70
     0
  9
$AUPREC
 70
     0
  9
$MENU
  1
.
  9
$ELEVATION
 40
0.0
  9
$PELEVATION
 40
0.0
  9
$THICKNESS
 40
0.0
  9
$LIMCHECK
 70
     0
  9
$CHAMFERA
 40
0.5
  9
$CHAMFERB
 40
0.5
  9
$CHAMFERC
 40
1.0
  9
$CHAMFERD
 40
0.0
  9
$SKPOLY
 70
     0
  9
$TDCREATE
 40
2456141.494456018
  9
$TDUCREATE
 40
2456141.119456018
  9
$TDUPDATE
 40
2456141.49445603
  9
$TDUUPDATE
 40
2456141.11945603
  9
$TDINDWG
 40
0.0000000116
  9
$TDUSRTIMER
 40
0.0000000116
  9
$USRTIMER
 70
     1
  9
$ANGBASE
 50
0.0
  9
$ANGDIR
 70
     0
  9
$PDMODE
 70
     0
  9
$PDSIZE
 40
0.0
  9
$PLINEWID
 40
0.0
  9
$SPLFRAME
 70
     0
  9
$SPLINETYPE
 70
     6
  9
$SPLINESEGS
 70
     8
  9
$HANDSEED
  5
276
  9
$SURFTAB1
 70
     6
  9
$SURFTAB2
 70
     6
  9
$SURFTYPE
 70
     6
  9
$SURFU
 70
     6
  9
$SURFV
 70
     6
  9
$UCSBASE
  2

  9
$UCSNAME
  2

  9
$UCSORG
 10
0.0
 20
0.0
 30
0.0
  9
$UCSXDIR
 10
1.0
 20
0.0
 30
0.0
  9
$UCSYDIR
 10
0.0
 20
1.0
 30
0.0
  9
$UCSORTHOREF
  2

  9
$UCSORTHOVIEW
 70
     0
  9
$UCSORGTOP
 10
0.0
 20
0.0
 30
0.0
  9
$UCSORGBOTTOM
 10
0.0
 20
0.0
 30
0.0
  9
$UCSORGLEFT
 10
0.0
 20
0.0
 30
0.0
  9
$UCSORGRIGHT
 10
0.0
 20
0.0
 30
0.0
  9
$UCSORGFRONT
 10
0.0
 20
0.0
 30
0.0
  9
$UCSORGBACK
 10
0.0
 20
0.0
 30
0.0
  9
$PUCSBASE
  2

  9
$PUCSNAME
  2

  9
$PUCSORG
 10
0.0
 20
0.0
 30
0.0
  9
$PUCSXDIR
 10
1.0
 20
0.0
 30
0.0
  9
$PUCSYDIR
 10
0.0
 20
1.0
 30
0.0
  9
$PUCSORTHOREF
  2

  9
$PUCSORTHOVIEW
 70
     0
  9
$PUCSORGTOP
 10
0.0
 20
0.0
 30
0.0
  9
$PUCSORGBOTTOM
 10
0.0
 20
0.0
 30
0.0
  9
$PUCSORGLEFT
 10
0.0
 20
0.0
 30
0.0
  9
$PUCSORGRIGHT
 10
0.0
 20
0.0
 30
0.0
  9
$PUCSORGFRONT
 10
0.0
 20
0.0
 30
0.0
  9
$PUCSORGBACK
 10
0.0
 20
0.0
 30
0.0
  9
$USERI1
 70
     0
  9
$USERI2
 70
     0
  9
$USERI3
 70
     0
  9
$USERI4
 70
     0
  9
$USERI5
 70
     0
  9
$USERR1
 40
13.2
  9
$USERR2
 40
0.0
  9
$USERR3
 40
0.0
  9
$USERR4
 40
0.0
  9
$USERR5
 40
0.0
  9
$WORLDVIEW
 70
     1
  9
$SHADEDGE
 70
     3
  9
$SHADEDIF
 70
    70
  9
$TILEMODE
 70
     1
  9
$MAXACTVP
 70
    64
  9
$PINSBASE
 10
0.0
 20
0.0
 30
0.0
  9
$PLIMCHECK
 70
     0
  9
$PEXTMIN
 10
1.00000000000000E+20
 20
1.00000000000000E+20
 30
1.00000000000000E+20
  9
$PEXTMAX
 10
-1.00000000000000E+20
 20
-1.00000000000000E+20
 30
-1.00000000000000E+20
  9
$PLIMMIN
 10
0.0
 20
0.0
  9
$PLIMMAX
 10
12.0
 20
9.0
  9
$UNITMODE
 70
     0
  9
$VISRETAIN
 70
     1
  9
$PLINEGEN
 70
     0
  9
$PSLTSCALE
 70
     1
  9
$TREEDEPTH
 70
  3020
  9
$CMLSTYLE
  2
Standard
  9
$CMLJUST
 70
     0
  9
$CMLSCALE
 40
1.0
  9
$PROXYGRAPHICS
 70
     1
  9
$MEASUREMENT
 70
     1
  9
$CELWEIGHT
370
    -1
  9
$ENDCAPS
280
     0
  9
$JOINSTYLE
280
     0
  9
$LWDISPLAY
290
     0
  9
$INSUNITS
 70
     1
  9
$HYPERLINKBASE
  1

  9
$STYLESHEET
  1

  9
$XEDIT
290
     1
  9
$CEPSNTYPE
380
     0
  9
$PSTYLEMODE
290
     0
  9
$FINGERPRINTGUID
  2
{FAEB1C30-E019-11D5-929B-00C0DF256EC4}
  9
$VERSIONGUID
  2
{FAEB1C32-E019-11D5-929B-00C0DF256EC4}
  9
$EXTNAMES
290
     1
  9
$PSVPSCALE
 40
0.0
  9
$OLESTARTUP
290
     0
  0
ENDSEC
  0
SECTION
  2
CLASSES
  0
CLASS
  1
ACDBDICTIONARYWDFLT
  2
AcDbDictionaryWithDefault
  3
ObjectDBX Classes
 90
        0
280
     0
281
     0
  0
CLASS
  1
TABLESTYLE
  2
AcDbTableStyle
  3
ObjectDBX Classes
 90
     2047
280
     0
281
     0
  0
CLASS
  1
DICTIONARYVAR
  2
AcDbDictionaryVar
  3
ObjectDBX Classes
 90
        0
280
     0
281
     0
  0
CLASS
  1

  2
exOdDbCircle
  3

 90
        0
280
     0
281
     1
  0
CLASS
  1

  2
exOdDbSpline
  3

 90
        0
280
     0
281
     1
  0
CLASS
  1
ACDBPLACEHOLDER
  2
AcDbPlaceHolder
  3
ObjectDBX Classes
 90
        0
280
     0
281
     0
  0
CLASS
  1
LAYOUT
  2
AcDbLayout
  3
ObjectDBX Classes
 90
        0
280
     0
281
     0
  0
ENDSEC
  0
SECTION
  2
TABLES
  0
TABLE
  2
VPORT
  5
8
330
0
100
AcDbSymbolTable
 70
     2
  0
VPORT
  5
29
330
8
100
AcDbSymbolTableRecord
100
AcDbViewportTableRecord
  2
*Active
 70
     0
 10
0.0
 20
0.0
 11
1.0
 21
1.0
 12
315.0
 22
445.5
 13
0.0
 23
0.0
 14
0.5
 24
0.5
 15
0.5
 25
0.5
 16
0.0
 26
0.0
 36
1.0
 17
0.0
 27
0.0
 37
0.0
 40
980.1
 41
1.60267857142857
 42
50.0
 43
0.0
 44
0.0
 50
0.0
 51
0.0
 71
     0
 72
   100
 73
     1
 74
     3
 75
     0
 76
     0
 77
     0
 78
     0
281
     0
 65
     1
110
0.0
120
0.0
130
0.0
111
1.0
121
0.0
131
0.0
112
0.0
122
1.0
132
0.0
 79
     0
146
0.0
  0
ENDTAB
  0
TABLE
  2
LTYPE
  5
5
330
0
100
AcDbSymbolTable
 70
     8
  0
LTYPE
  5
14
330
5
100
AcDbSymbolTableRecord
100
AcDbLinetypeTableRecord
  2
ByBlock
 70
     0
  3

 72
    65
 73
     0
 40
0.0
  0
LTYPE
  5
15
330
5
100
AcDbSymbolTableRecord
100
AcDbLinetypeTableRecord
  2
ByLayer
 70
     0
  3

 72
    65
 73
     0
 40
0.0
  0
LTYPE
  5
16
330
5
100
AcDbSymbolTableRecord
100
AcDbLinetypeTableRecord
  2
Continuous
 70
     0
  3
Solid line
 72
    65
 73
     0
 40
0.0
  0
LTYPE
  5
2E
330
5
100
AcDbSymbolTableRecord
100
AcDbLinetypeTableRecord
  2
DASHED
 70
     0
  3
Dashed
 72
    65
 73
     2
 40
15.0
 49
7.0
 74
     0
 49
-8.0
 74
     0
  0
LTYPE
  5
2F
330
5
100
AcDbSymbolTableRecord
100
AcDbLinetypeTableRecord
  2
DOTTED
 70
     0
  3
Dotted
 72
    65
 73
     2
 40
1.0
 49
0.0
 74
     0
 49
-1.0
 74
     0
  0
LTYPE
  5
30
330
5
100
AcDbSymbolTableRecord
100
AcDbLinetypeTableRecord
  2
DOT_CENTER
 70
     0
  3
Dot_Center
 72
    65
 73
     4
 40
14.0
 49
12.0
 74
     0
 49
-1.0
 74
     0
 49
0.0
 74
     0
 49
-1.0
 74
     0
  0
LTYPE
  5
31
330
5
100
AcDbSymbolTableRecord
100
AcDbLinetypeTableRecord
  2
LONG_DASHED
 70
     0
  3
Long_Dashed
 72
    65
 73
     2
 40
15.0
 49
10.0
 74
     0
 49
-5.0
 74
     0
  0
LTYPE
  5
32
330
5
100
AcDbSymbolTableRecord
100
AcDbLinetypeTableRecord
  2
DASH_CENTER
 70
     0
  3
Dash_Center
 72
    65
 73
     4
 40
14.0
 49
11.0
 74
     0
 49
-1.0
 74
     0
 49
1.0
 74
     0
 49
-1.0
 74
     0
  0
LTYPE
  5
33
330
5
100
AcDbSymbolTableRecord
100
AcDbLinetypeTableRecord
  2
PHANTOM
 70
     0
  3
Phantom
 72
    65
 73
     6
 40
13.0
 49
10.0
 74
     0
 49
-1.0
 74
     0
 49
0.0
 74
     0
 49
-1.0
 74
     0
 49
0.0
 74
     0
 49
-1.0
 74
     0
  0
LTYPE
  5
34
330
5
100
AcDbSymbolTableRecord
100
AcDbLinetypeTableRecord
  2
CENTER_DASH_DASH
 70
     0
  3
Center_Dash_Dash
 72
    65
 73
     6
 40
14.0
 49
9.0
 74
     0
 49
-1.0
 74
     0
 49
1.0
 74
     0
 49
-1.0
 74
     0
 49
1.0
 74
     0
 49
-1.0
 74
     0
  0
ENDTAB
  0
TABLE
  2
LAYER
  5
2
330
0
100
AcDbSymbolTable
 70
     2
  0
LAYER
  5
10
330
2
100
AcDbSymbolTableRecord
100
AcDbLayerTableRecord
  2
0
 70
     0
 62
     7
  6
Continuous
370
    -3
390
F
  0
LAYER
  5
35
330
2
100
AcDbSymbolTableRecord
100
AcDbLayerTableRecord
  2
1
 70
     0
 62
     7
  6
Continuous
370
    -3
390
F
  0
ENDTAB
  0
TABLE
  2
STYLE
  5
3
330
0
100
AcDbSymbolTable
 70
     3
  0
STYLE
  5
11
330
3
100
AcDbSymbolTableRecord
100
AcDbTextStyleTableRecord
  2
Standard
 70
     0
 40
0.0
 41
1.0
 50
0.0
 71
     0
 42
0.2
  3
txt
  4

  0
STYLE
  5
AD
330
3
100
AcDbSymbolTableRecord
100
AcDbTextStyleTableRecord
  2
CONVERTER_1
 70
     0
 40
0.0
 41
0.89
 50
0.0
 71
     0
 42
0.2
  3
msmincho.ttc
  4

1001
ACAD
1000
MS Mincho
1071
    32785
  0
STYLE
  5
21E
330
3
100
AcDbSymbolTableRecord
100
AcDbTextStyleTableRecord
  2
CONVERTER_2
 70
     0
 40
0.0
 41
0.9
 50
0.0
 71
     0
 42
0.2
  3
txt.shx
  4

  0
ENDTAB
  0
TABLE
  2
VIEW
  5
6
330
0
100
AcDbSymbolTable
 70
     0
  0
ENDTAB
  0
TABLE
  2
UCS
  5
7
330
0
100
AcDbSymbolTable
 70
     0
  0
ENDTAB
  0
TABLE
  2
APPID
  5
9
330
0
100
AcDbSymbolTable
 70
     1
  0
APPID
  5
12
330
9
100
AcDbSymbolTableRecord
100
AcDbRegAppTableRecord
  2
ACAD
 70
     0
  0
ENDTAB
  0
TABLE
  2
DIMSTYLE
  5
A
330
0
100
AcDbSymbolTable
 70
     8
100
AcDbDimStyleTable
  0
DIMSTYLE
105
27
330
A
100
AcDbSymbolTableRecord
100
AcDbDimStyleTableRecord
  2
Standard
 70
     0
340
11
  0
DIMSTYLE
105
22F
102
{ACAD_REACTORS
330
230
102
}
330
A
100
AcDbSymbolTableRecord
100
AcDbDimStyleTableRecord
  2
ME10_DIM_0
 70
     0
 41
10.5
 42
0.0
 44
3.0
 73
     0
 74
     0
 77
     1
 78
     8
140
10.5
147
0.625
172
     1
173
     1
176
     2
177
     2
178
     7
271
     2
340
AD
  0
DIMSTYLE
105
23A
102
{ACAD_REACTORS
330
23B
102
}
330
A
100
AcDbSymbolTableRecord
100
AcDbDimStyleTableRecord
  2
ME10_DIM_1
 70
     0
 41
10.5
 42
0.0
 44
3.0
 73
     0
 74
     0
 77
     1
 78
     8
140
10.5
147
0.625
172
     1
173
     1
176
     2
177
     2
178
     7
271
     2
340
21E
  0
DIMSTYLE
105
245
102
{ACAD_REACTORS
330
246
102
}
330
A
100
AcDbSymbolTableRecord
100
AcDbDimStyleTableRecord
  2
ME10_DIM_2
 70
     0
 41
10.5
 42
0.0
 44
3.0
 73
     0
 74
     0
 77
     1
 78
     8
140
10.5
147
0.625
172
     1
173
     1
176
     2
177
     2
178
     7
271
     2
340
21E
  0
DIMSTYLE
105
250
102
{ACAD_REACTORS
330
251
102
}
330
A
100
AcDbSymbolTableRecord
100
AcDbDimStyleTableRecord
  2
ME10_DIM_3
 70
     0
 41
10.5
 42
0.0
 44
3.0
 73
     0
 74
     0
 77
     1
 78
     8
140
10.5
147
0.625
172
     1
173
     1
176
     2
177
     2
178
     7
271
     2
340
21E
  0
DIMSTYLE
105
25B
102
{ACAD_REACTORS
330
25C
102
}
330
A
100
AcDbSymbolTableRecord
100
AcDbDimStyleTableRecord
  2
ME10_DIM_4
 70
     0
 41
10.5
 42
0.0
 44
3.0
 73
     0
 74
     0
 77
     1
 78
     8
140
10.5
147
0.625
172
     1
173
     1
176
     2
177
     2
178
     7
271
     2
340
21E
  0
DIMSTYLE
105
266
102
{ACAD_REACTORS
330
267
102
}
330
A
100
AcDbSymbolTableRecord
100
AcDbDimStyleTableRecord
  2
ME10_DIM_5
 70
     0
  3
{\Fgdt;n}<>
 41
10.5
 42
0.0
 44
3.0
 73
     0
 74
     0
 77
     1
 78
     8
140
10.5
147
0.625
172
     1
173
     1
176
     2
177
     2
178
     7
271
     2
340
21E
  0
DIMSTYLE
105
274
102
{ACAD_REACTORS
330
275
102
}
330
A
100
AcDbSymbolTableRecord
100
AcDbDimStyleTableRecord
  2
ME10_DIM_6
 70
     0
 41
10.5
 42
0.0
 44
3.0
 73
     0
 74
     0
 77
     1
 78
     8
140
10.5
147
0.625
172
     1
173
     1
176
     2
177
     2
178
     7
271
     2
340
21E
343
271
  0
ENDTAB
  0
TABLE
  2
BLOCK_RECORD
  5
1
330
0
100
AcDbSymbolTable
 70
    20
  0
BLOCK_RECORD
  5
1F
330
1
100
AcDbSymbolTableRecord
100
AcDbBlockTableRecord
  2
*Model_Space
340
22
  0
BLOCK_RECORD
  5
1B
330
1
100
AcDbSymbolTableRecord
100
AcDbBlockTableRecord
  2
*Paper_Space
340
1E
  0
BLOCK_RECORD
  5
23
330
1
100
AcDbSymbolTableRecord
100
AcDbBlockTableRecord
  2
*Paper_Space0
340
26
  0
BLOCK_RECORD
  5
36
330
1
100
AcDbSymbolTableRecord
100
AcDbBlockTableRecord
  2
_J__A4
340
0
102
{BLKREFS
331
5D
102
}
  0
BLOCK_RECORD
  5
39
330
1
100
AcDbSymbolTableRecord
100
AcDbBlockTableRecord
  2
32-1-16
340
0
102
{BLKREFS
331
40
102
}
  0
BLOCK_RECORD
  5
3C
330
1
100
AcDbSymbolTableRecord
100
AcDbBlockTableRecord
  2
61-1-16-170
340
0
102
{BLKREFS
331
41
102
}
  0
BLOCK_RECORD
  5
3F
330
1
100
AcDbSymbolTableRecord
100
AcDbBlockTableRecord
  2
A20J-60X-16
340
0
102
{BLKREFS
331
5E
102
}
  0
BLOCK_RECORD
  5
44
330
1
100
AcDbSymbolTableRecord
100
AcDbBlockTableRecord
  2
A20-0-13
340
0
102
{BLKREFS
331
5F
102
}
  0
BLOCK_RECORD
  5
47
330
1
100
AcDbSymbolTableRecord
100
AcDbBlockTableRecord
  2
42-1
340
0
102
{BLKREFS
331
54
102
}
  0
BLOCK_RECORD
  5
4A
330
1
100
AcDbSymbolTableRecord
100
AcDbBlockTableRecord
  2
R20F
340
0
102
{BLKREFS
331
55
102
}
  0
BLOCK_RECORD
  5
4D
330
1
100
AcDbSymbolTableRecord
100
AcDbBlockTableRecord
  2
37-1-13
340
0
102
{BLKREFS
331
56
102
}
  0
BLOCK_RECORD
  5
50
330
1
100
AcDbSymbolTableRecord
100
AcDbBlockTableRecord
  2
36-1A-13-M4
340
0
102
{BLKREFS
331
57
102
}
  0
BLOCK_RECORD
  5
53
330
1
100
AcDbSymbolTableRecord
100
AcDbBlockTableRecord
  2
R10A-13
340
0
102
{BLKREFS
331
60
102
}
  0
BLOCK_RECORD
  5
5A
330
1
100
AcDbSymbolTableRecord
100
AcDbBlockTableRecord
  2
21-1A
340
0
102
{BLKREFS
331
61
102
}
  0
BLOCK_RECORD
  5
225
330
1
100
AcDbSymbolTableRecord
100
AcDbBlockTableRecord
  2
*D012
340
0
  0
BLOCK_RECORD
  5
231
330
1
100
AcDbSymbolTableRecord
100
AcDbBlockTableRecord
  2
*D113
340
0
  0
BLOCK_RECORD
  5
23C
330
1
100
AcDbSymbolTableRecord
100
AcDbBlockTableRecord
  2
*D214
340
0
  0
BLOCK_RECORD
  5
247
330
1
100
AcDbSymbolTableRecord
100
AcDbBlockTableRecord
  2
*D315
340
0
  0
BLOCK_RECORD
  5
252
330
1
100
AcDbSymbolTableRecord
100
AcDbBlockTableRecord
  2
*D416
340
0
  0
BLOCK_RECORD
  5
25D
330
1
100
AcDbSymbolTableRecord
100
AcDbBlockTableRecord
  2
*D517
340
0
  0
BLOCK_RECORD
  5
268
330
1
100
AcDbSymbolTableRecord
100
AcDbBlockTableRecord
  2
*D618
340
0
  0
BLOCK_RECORD
  5
271
330
1
100
AcDbSymbolTableRecord
100
AcDbBlockTableRecord
  2
_None
340
0
  0
ENDTAB
  0
ENDSEC
  0
SECTION
  2
BLOCKS
  0
BLOCK
  5
20
330
1F
100
AcDbEntity
  8
0
100
AcDbBlockBegin
  2
*Model_Space
 70
     0
 71
     0
 10
0.0
 20
0.0
 30
0.0
  3
*Model_Space
  1

  0
ENDBLK
  5
21
330
1F
100
AcDbEntity
  8
0
100
AcDbBlockEnd
  0
BLOCK
  5
1C
330
1B
100
AcDbEntity
 67
     1
  8
0
100
AcDbBlockBegin
  2
*Paper_Space
 70
     0
 71
     0
 10
0.0
 20
0.0
 30
0.0
  3
*Paper_Space
  1

  0
ENDBLK
  5
1D
330
1B
100
AcDbEntity
 67
     1
  8
0
100
AcDbBlockEnd
  0
BLOCK
  5
24
330
23
100
AcDbEntity
  8
0
100
AcDbBlockBegin
  2
*Paper_Space0
 70
     0
 71
     0
 10
0.0
 20
0.0
 30
0.0
  3
*Paper_Space0
  1

  0
ENDBLK
  5
25
330
23
100
AcDbEntity
  8
0
100
AcDbBlockEnd
  0
BLOCK
  5
37
330
36
100
AcDbEntity
  8
0
100
AcDbBlockBegin
  2
_J__A4
 70
     0
 71
     0
 10
0.0
 20
0.0
 30
0.0
  3
_J__A4
  1

  0
POINT
  5
62
330
36
100
AcDbEntity
  8
1
 62
     4
100
AcDbPoint
 10
34.0
 20
34.00000000000001
 30
0.0
  0
POINT
  5
63
330
36
100
AcDbEntity
  8
1
 62
     4
100
AcDbPoint
 10
57.0
 20
12.25
 30
0.0
  0
POINT
  5
64
330
36
100
AcDbEntity
  8
1
 62
     4
100
AcDbPoint
 10
57.0
 20
20.75000000000001
 30
0.0
  0
POINT
  5
65
330
36
100
AcDbEntity
  8
1
 62
     4
100
AcDbPoint
 10
57.0
 20
24.75000000000001
 30
0.0
  0
POINT
  5
66
330
36
100
AcDbEntity
  8
1
 62
     4
100
AcDbPoint
 10
57.0
 20
16.25
 30
0.0
  0
POINT
  5
67
330
36
100
AcDbEntity
  8
1
 62
     4
100
AcDbPoint
 10
157.5
 20
19.00000000000001
 30
0.0
  0
POINT
  5
68
330
36
100
AcDbEntity
  8
1
 62
     4
100
AcDbPoint
 10
47.5
 20
282.0000000000003
 30
0.0
  0
POINT
  5
69
330
36
100
AcDbEntity
  8
1
 62
     4
100
AcDbPoint
 10
57.0
 20
22.75000000000001
 30
0.0
  0
POINT
  5
6A
330
36
100
AcDbEntity
  8
1
 62
     4
100
AcDbPoint
 10
57.0
 20
14.25
 30
0.0
  0
POINT
  5
6B
330
36
100
AcDbEntity
  8
1
 62
     4
100
AcDbPoint
 10
157.5
 20
12.5
 30
0.0
  0
POINT
  5
6C
330
36
100
AcDbEntity
  8
1
 62
     4
100
AcDbPoint
 10
163.25
 20
12.5
 30
0.0
  0
POINT
  5
6D
330
36
100
AcDbEntity
  8
1
 62
     4
100
AcDbPoint
 10
151.75
 20
12.5
 30
0.0
  0
POINT
  5
6E
330
36
100
AcDbEntity
  8
1
 62
     4
100
AcDbPoint
 10
134.75
 20
12.5
 30
0.0
  0
POINT
  5
6F
330
36
100
AcDbEntity
  8
1
 62
     4
100
AcDbPoint
 10
146.25
 20
12.5
 30
0.0
  0
POINT
  5
70
330
36
100
AcDbEntity
  8
1
 62
     4
100
AcDbPoint
 10
140.5
 20
12.5
 30
0.0
  0
POINT
  5
71
330
36
100
AcDbEntity
  8
1
 62
     4
100
AcDbPoint
 10
140.5
 20
19.00000000000001
 30
0.0
  0
POINT
  5
72
330
36
100
AcDbEntity
  8
1
 62
     4
100
AcDbPoint
 10
117.75
 20
12.5
 30
0.0
  0
POINT
  5
73
330
36
100
AcDbEntity
  8
1
 62
     4
100
AcDbPoint
 10
129.25
 20
12.5
 30
0.0
  0
POINT
  5
74
330
36
100
AcDbEntity
  8
1
 62
     4
100
AcDbPoint
 10
123.5
 20
12.5
 30
0.0
  0
POINT
  5
75
330
36
100
AcDbEntity
  8
1
 62
     4
100
AcDbPoint
 10
123.5
 20
19.00000000000001
 30
0.0
  0
POINT
  5
76
330
36
100
AcDbEntity
  8
1
 62
     4
100
AcDbPoint
 10
100.75
 20
12.5
 30
0.0
  0
POINT
  5
77
330
36
100
AcDbEntity
  8
1
 62
     4
100
AcDbPoint
 10
112.25
 20
12.5
 30
0.0
  0
POINT
  5
78
330
36
100
AcDbEntity
  8
1
 62
     4
100
AcDbPoint
 10
106.5
 20
12.5
 30
0.0
  0
POINT
  5
79
330
36
100
AcDbEntity
  8
1
 62
     4
100
AcDbPoint
 10
106.5
 20
19.00000000000001
 30
0.0
  0
POINT
  5
7A
330
36
100
AcDbEntity
  8
1
 62
     4
100
AcDbPoint
 10
85.25
 20
17.0
 30
0.0
  0
POINT
  5
7B
330
36
100
AcDbEntity
  8
1
 62
     4
100
AcDbPoint
 10
93.75
 20
17.0
 30
0.0
  0
LINE
  5
7C
330
36
100
AcDbEntity
  8
1
  6
Continuous
 62
     2
100
AcDbLine
 10
81.0
 20
27.00000000000001
 30
0.0
 11
81.0
 21
10.0
 31
0.0
  0
LINE
  5
7D
330
36
100
AcDbEntity
  8
1
  6
DOT_CENTER
 62
     2
100
AcDbLine
 10
187.0
 20
26.50000000000001
 30
0.0
 11
187.0
 21
20.50000000000001
 31
0.0
  0
LINE
  5
7E
330
36
100
AcDbEntity
  8
1
  6
DOT_CENTER
 62
     2
100
AcDbLine
 10
184.0
 20
23.50000000000001
 30
0.0
 11
197.0
 21
23.50000000000001
 31
0.0
  0
LINE
  5
7F
330
36
100
AcDbEntity
  8
1
  6
Continuous
 62
     7
100
AcDbLine
 10
196.0
 20
21.50000000000001
 30
0.0
 11
191.0
 21
22.30000000000001
 31
0.0
  0
LINE
  5
80
330
36
100
AcDbEntity
  8
1
  6
Continuous
 62
     7
100
AcDbLine
 10
196.0
 20
25.50000000000001
 30
0.0
 11
196.0
 21
21.50000000000001
 31
0.0
  0
LINE
  5
81
330
36
100
AcDbEntity
  8
1
  6
Continuous
 62
     7
100
AcDbLine
 10
191.0
 20
24.70000000000001
 30
0.0
 11
196.0
 21
25.50000000000001
 31
0.0
  0
LINE
  5
82
330
36
100
AcDbEntity
  8
1
  6
Continuous
 62
     7
100
AcDbLine
 10
191.0
 20
24.70000000000001
 30
0.0
 11
191.0
 21
22.30000000000001
 31
0.0
  0
LINE
  5
83
330
36
100
AcDbEntity
  8
1
  6
Continuous
 62
     2
100
AcDbLine
 10
33.0
 20
27.0
 30
0.0
 11
33.0
 21
10.0
 31
0.0
  0
LINE
  5
84
330
36
100
AcDbEntity
  8
1
  6
Continuous
 62
     2
100
AcDbLine
 10
25.0
 20
18.50000000000001
 30
0.0
 11
81.0
 21
18.50000000000001
 31
0.0
  0
LINE
  5
85
330
36
100
AcDbEntity
  8
1
  6
Continuous
 62
     7
100
AcDbLine
 10
200.0
 20
287.0000000000003
 30
0.0
 11
105.0
 21
287.0000000000003
 31
0.0
  0
LINE
  5
86
330
36
100
AcDbEntity
  8
1
  6
Continuous
 62
     7
100
AcDbLine
 10
200.0
 20
10.0
 30
0.0
 11
200.0
 21
148.5
 31
0.0
  0
LINE
  5
87
330
36
100
AcDbEntity
  8
1
  6
Continuous
 62
     7
100
AcDbLine
 10
25.0
 20
10.0
 30
0.0
 11
105.0
 21
10.0
 31
0.0
  0
LINE
  5
88
330
36
100
AcDbEntity
  8
1
  6
PHANTOM
 62
     4
100
AcDbLine
 10
0.0
 20
297.0
 30
0.0
 11
0.0
 21
0.0
 31
0.0
  0
LINE
  5
89
330
36
100
AcDbEntity
  8
1
  6
PHANTOM
 62
     4
100
AcDbLine
 10
210.0
 20
297.0
 30
0.0
 11
0.0
 21
297.0
 31
0.0
  0
LINE
  5
8A
330
36
100
AcDbEntity
  8
1
  6
PHANTOM
 62
     4
100
AcDbLine
 10
210.0
 20
0.0
 30
0.0
 11
210.0
 21
297.0
 31
0.0
  0
LINE
  5
8B
330
36
100
AcDbEntity
  8
1
  6
PHANTOM
 62
     4
100
AcDbLine
 10
0.0
 20
0.0
 30
0.0
 11
210.0
 21
0.0
 31
0.0
  0
LINE
  5
8C
330
36
100
AcDbEntity
  8
1
  6
Continuous
 62
     7
100
AcDbLine
 10
25.0
 20
41.0
 30
0.0
 11
200.0
 21
41.0
 31
0.0
  0
LINE
  5
8D
330
36
100
AcDbEntity
  8
1
  6
Continuous
 62
     7
100
AcDbLine
 10
200.0
 20
27.00000000000001
 30
0.0
 11
25.0
 21
27.00000000000001
 31
0.0
  0
LINE
  5
8E
330
36
100
AcDbEntity
  8
1
  6
Continuous
 62
     2
100
AcDbLine
 10
33.0
 20
41.00000000000001
 30
0.0
 11
33.0
 21
27.0
 31
0.0
  0
LINE
  5
8F
330
36
100
AcDbEntity
  8
1
  6
Continuous
 62
     2
100
AcDbLine
 10
55.0
 20
287.0000000000003
 30
0.0
 11
55.0
 21
277.0000000000003
 31
0.0
  0
LINE
  5
90
330
36
100
AcDbEntity
  8
1
  6
Continuous
 62
     2
100
AcDbLine
 10
40.0
 20
287.0000000000003
 30
0.0
 11
40.0
 21
277.0000000000003
 31
0.0
  0
LINE
  5
91
330
36
100
AcDbEntity
  8
1
  6
Continuous
 62
     7
100
AcDbLine
 10
25.0
 20
10.0
 30
0.0
 11
25.0
 21
148.5
 31
0.0
  0
LINE
  5
92
330
36
100
AcDbEntity
  8
1
  6
Continuous
 62
     2
100
AcDbLine
 10
55.0
 20
277.0000000000003
 30
0.0
 11
25.0
 21
277.0000000000003
 31
0.0
  0
LINE
  5
93
330
36
100
AcDbEntity
  8
1
  6
Continuous
 62
     2
100
AcDbLine
 10
166.0
 20
27.00000000000001
 30
0.0
 11
166.0
 21
10.0
 31
0.0
  0
LINE
  5
94
330
36
100
AcDbEntity
  8
1
  6
Continuous
 62
     2
100
AcDbLine
 10
132.0
 20
27.00000000000001
 30
0.0
 11
132.0
 21
9.99999999999999
 31
0.0
  0
LINE
  5
95
330
36
100
AcDbEntity
  8
1
  6
Continuous
 62
     2
100
AcDbLine
 10
149.0
 20
27.00000000000001
 30
0.0
 11
149.0
 21
10.0
 31
0.0
  0
LINE
  5
96
330
36
100
AcDbEntity
  8
1
  6
Continuous
 62
     2
100
AcDbLine
 10
115.0
 20
27.00000000000001
 30
0.0
 11
115.0
 21
9.99999999999999
 31
0.0
  0
LINE
  5
97
330
36
100
AcDbEntity
  8
1
  6
Continuous
 62
     2
100
AcDbLine
 10
98.0
 20
27.00000000000001
 30
0.0
 11
98.0
 21
9.99999999999999
 31
0.0
  0
LINE
  5
98
330
36
100
AcDbEntity
  8
1
  6
Continuous
 62
     2
100
AcDbLine
 10
166.0
 20
20.00000000000001
 30
0.0
 11
200.0
 21
20.00000000000001
 31
0.0
  0
LINE
  5
99
330
36
100
AcDbEntity
  8
1
  6
Continuous
 62
     2
100
AcDbLine
 10
105.0
 20
287.0000000000003
 30
0.0
 11
105.0
 21
292.0000000000003
 31
0.0
  0
LINE
  5
9A
330
36
100
AcDbEntity
  8
1
  6
Continuous
 62
     7
100
AcDbLine
 10
105.0
 20
287.0000000000003
 30
0.0
 11
25.0
 21
287.0000000000003
 31
0.0
  0
LINE
  5
9B
330
36
100
AcDbEntity
  8
1
  6
Continuous
 62
     2
100
AcDbLine
 10
25.0
 20
148.5
 30
0.0
 11
20.0
 21
148.5
 31
0.0
  0
LINE
  5
9C
330
36
100
AcDbEntity
  8
1
  6
Continuous
 62
     7
100
AcDbLine
 10
25.0
 20
148.5
 30
0.0
 11
25.0
 21
287.0000000000003
 31
0.0
  0
LINE
  5
9D
330
36
100
AcDbEntity
  8
1
  6
Continuous
 62
     2
100
AcDbLine
 10
200.0
 20
148.5
 30
0.0
 11
205.0
 21
148.5
 31
0.0
  0
LINE
  5
9E
330
36
100
AcDbEntity
  8
1
  6
Continuous
 62
     7
100
AcDbLine
 10
200.0
 20
148.5
 30
0.0
 11
200.0
 21
287.0000000000003
 31
0.0
  0
LINE
  5
9F
330
36
100
AcDbEntity
  8
1
  6
Continuous
 62
     2
100
AcDbLine
 10
105.0
 20
10.0
 30
0.0
 11
105.0
 21
5.0
 31
0.0
  0
LINE
  5
A0
330
36
100
AcDbEntity
  8
1
  6
Continuous
 62
     7
100
AcDbLine
 10
105.0
 20
10.0
 30
0.0
 11
200.0
 21
10.0
 31
0.0
  0
CIRCLE
  5
A1
330
36
100
AcDbEntity
  8
1
  6
DOT_CENTER
 62
     7
100
AcDbCircle
 10
89.5
 20
18.0
 30
0.0
 40
0.1000000000000227
  0
CIRCLE
  5
A2
330
36
100
AcDbEntity
  8
1
  6
DOT_CENTER
 62
     7
100
AcDbCircle
 10
89.5
 20
16.0
 30
0.0
 40
0.1000000000000227
  0
CIRCLE
  5
A3
330
36
100
AcDbEntity
  8
1
  6
Continuous
 62
     7
100
AcDbCircle
 10
187.0
 20
23.50000000000001
 30
0.0
 40
2.0
  0
CIRCLE
  5
A4
330
36
100
AcDbEntity
  8
1
  6
Continuous
 62
     7
100
AcDbCircle
 10
187.0
 20
23.50000000000001
 30
0.0
 40
1.200000000000102
  0
CIRCLE
  5
A5
330
36
100
AcDbEntity
  8
1
  6
Continuous
 62
     7
100
AcDbCircle
 10
154.5
 20
12.5
 30
0.0
 40
0.3000000000000114
  0
CIRCLE
  5
A6
330
36
100
AcDbEntity
  8
1
  6
Continuous
 62
     7
100
AcDbCircle
 10
160.5
 20
12.5
 30
0.0
 40
0.3000000000000114
  0
CIRCLE
  5
A7
330
36
100
AcDbEntity
  8
1
  6
Continuous
 62
     7
100
AcDbCircle
 10
143.5
 20
12.5
 30
0.0
 40
0.3000000000000114
  0
CIRCLE
  5
A8
330
36
100
AcDbEntity
  8
1
  6
Continuous
 62
     7
100
AcDbCircle
 10
137.5
 20
12.5
 30
0.0
 40
0.3000000000000114
  0
CIRCLE
  5
A9
330
36
100
AcDbEntity
  8
1
  6
Continuous
 62
     7
100
AcDbCircle
 10
126.5
 20
12.5
 30
0.0
 40
0.2999999999999972
  0
CIRCLE
  5
AA
330
36
100
AcDbEntity
  8
1
  6
Continuous
 62
     7
100
AcDbCircle
 10
120.5
 20
12.5
 30
0.0
 40
0.2999999999999972
  0
CIRCLE
  5
AB
330
36
100
AcDbEntity
  8
1
  6
Continuous
 62
     7
100
AcDbCircle
 10
109.5
 20
12.5
 30
0.0
 40
0.2999999999999972
  0
CIRCLE
  5
AC
330
36
100
AcDbEntity
  8
1
  6
Continuous
 62
     7
100
AcDbCircle
 10
103.5
 20
12.5
 30
0.0
 40
0.2999999999999972
  0
MTEXT
  5
AE
330
36
100
AcDbEntity
  8
1
 62
   250
100
AcDbMText
 10
25.0
 20
5.0
 30
0.0
 40
3.5
 41
0.0
 71
     4
 72
     1
  1
備考欄の文字列 原点位置=4
  7
CONVERTER_1
 73
     1
 44
0.7202881152461
  0
MTEXT
  5
AF
330
36
100
AcDbEntity
  8
1
 62
     2
100
AcDbMText
 10
89.5
 20
24.00000000000001
 30
0.0
 40
3.5
 41
0.0
 71
     5
 72
     1
  1
尺度
  7
CONVERTER_1
 73
     1
 44
0.7202881152461
  0
MTEXT
  5
B0
330
36
100
AcDbEntity
  8
1
 62
     2
100
AcDbMText
 10
135.5
 20
25.00000000000001
 30
0.0
 40
3.0
 41
0.0
 71
     5
 72
     1
  1
製図
  7
CONVERTER_1
 73
     1
 44
0.78031212484994
  0
MTEXT
  5
B1
330
36
100
AcDbEntity
  8
1
 62
     2
100
AcDbMText
 10
152.5
 20
25.00000000000001
 30
0.0
 40
3.0
 41
0.0
 71
     5
 72
     1
  1
設計
  7
CONVERTER_1
 73
     1
 44
0.78031212484994
  0
MTEXT
  5
B2
330
36
100
AcDbEntity
  8
1
 62
     2
100
AcDbMText
 10
118.5
 20
25.00000000000001
 30
0.0
 40
3.0
 41
0.0
 71
     5
 72
     1
  1
検図
  7
CONVERTER_1
 73
     1
 44
0.78031212484994
  0
MTEXT
  5
B3
330
36
100
AcDbEntity
  8
1
 62
     2
100
AcDbMText
 10
175.0
 20
23.50000000000001
 30
0.0
 40
3.5
 41
0.0
 71
     5
 72
     1
  1
第三角法
  7
CONVERTER_1
 73
     1
 44
0.7202881152461
  0
MTEXT
  5
B4
330
36
100
AcDbEntity
  8
1
 62
     2
100
AcDbMText
 10
101.5
 20
25.00000000000001
 30
0.0
 40
3.0
 41
0.0
 71
     5
 72
     1
  1
承認
  7
CONVERTER_1
 73
     1
 44
0.78031212484994
  0
MTEXT
  5
B5
330
36
100
AcDbEntity
  8
1
 62
     2
100
AcDbMText
 10
29.0
 20
14.25
 30
0.0
 40
3.5
 41
0.0
 71
     5
 72
     1
  1
品番
  7
CONVERTER_1
 73
     1
 44
0.96038415366146
  0
MTEXT
  5
B6
330
36
100
AcDbEntity
  8
1
 62
     2
100
AcDbMText
 10
29.0
 20
22.75
 30
0.0
 40
3.5
 41
0.0
 71
     5
 72
     1
  1
品名
  7
CONVERTER_1
 73
     1
 44
0.96038415366146
  0
MTEXT
  5
B7
330
36
100
AcDbEntity
  8
1
 62
     2
100
AcDbMText
 10
29.0
 20
34.00000000000001
 30
0.0
 40
3.5
 41
0.0
 71
     5
 72
     1
  1
備考
  7
CONVERTER_1
 73
     1
 44
0.60024009603842
  0
MTEXT
  5
B8
330
36
100
AcDbEntity
  8
1
 62
     2
100
AcDbMText
 10
32.5
 20
282.0000000000003
 30
0.0
 40
5.0
 41
0.0
 71
     5
 72
     1
  1
図番
  7
CONVERTER_1
 73
     1
 44
0.60024009603842
  0
MTEXT
  5
B9
330
36
100
AcDbEntity
  8
1
 62
     7
100
AcDbMText
 10
171.5
 20
15.0
 30
0.0
 40
2.5
 41
0.0
 71
     5
 72
     1
  1
株式会社
  7
CONVERTER_1
 73
     1
 44
1.32052821128451
  0
MTEXT
  5
BA
330
36
100
AcDbEntity
  8
1
 62
     7
100
AcDbMText
 10
188.5
 20
15.0
 30
0.0
 40
3.0
 41
0.0
 71
     5
 72
     1
  1
三栄水栓製作所
  7
CONVERTER_1
 73
     1
 44
1.32052821128451
  0
ENDBLK
  5
38
330
36
100
AcDbEntity
  8
0
100
AcDbBlockEnd
  0
BLOCK
  5
3A
330
39
100
AcDbEntity
  8
0
100
AcDbBlockBegin
  2
32-1-16
 70
     0
 71
     0
 10
279.9019112083785
 20
504.8491420378472
 30
0.0
  3
32-1-16
  1

  0
LINE
  5
BB
330
39
100
AcDbEntity
  8
1
  6
Continuous
 62
     7
100
AcDbLine
 10
119.6642437749755
 20
650.9167954885164
 30
0.0
 11
126.3163111228004
 21
639.3950768667138
 31
0.0
  0
LINE
  5
BC
330
39
100
AcDbEntity
  8
1
  6
Continuous
 62
     7
100
AcDbLine
 10
126.3163111228004
 20
664.9167954885164
 30
0.0
 11
119.6642437749755
 21
653.3950768667138
 31
0.0
  0
LINE
  5
BD
330
39
100
AcDbEntity
  8
1
  6
Continuous
 62
     7
100
AcDbLine
 10
127.2690504522836
 20
281.8142307952434
 30
0.0
 11
125.3466839094386
 21
281.8142307952434
 31
0.0
  0
LINE
  5
BE
330
39
100
AcDbEntity
  8
1
  6
Continuous
 62
     7
100
AcDbLine
 10
135.1146331018699
 20
271.8142307952434
 30
0.0
 11
148.4146331018699
 21
271.8142307952434
 31
0.0
  0
LINE
  5
BF
330
39
100
AcDbEntity
  8
1
  6
Continuous
 62
     7
100
AcDbLine
 10
148.4146331018699
 20
271.8142307952434
 30
0.0
 11
148.3016331018699
 21
271.8142307952434
 31
0.0
  0
LINE
  5
C0
330
39
100
AcDbEntity
  8
1
  6
Continuous
 62
     7
100
AcDbLine
 10
146.6146331018699
 20
280.8142307952434
 30
0.0
 11
146.6726541636004
 21
280.8142307952434
 31
0.0
  0
LINE
  5
C1
330
39
100
AcDbEntity
  8
1
  6
Continuous
 62
     7
100
AcDbLine
 10
144.882582294301
 20
281.8142307952434
 30
0.0
 11
142.9093810563912
 21
281.8142307952434
 31
0.0
  0
LINE
  5
C2
330
39
100
AcDbEntity
  8
1
  6
Continuous
 62
     7
100
AcDbLine
 10
143.9129550809395
 20
639.3950768667138
 30
0.0
 11
150.5650224287644
 21
650.9167954885164
 31
0.0
  0
LINE
  5
C3
330
39
100
AcDbEntity
  8
1
  6
Continuous
 62
     7
100
AcDbLine
 10
150.5650224287644
 20
653.3950768667138
 30
0.0
 11
143.9129550809395
 21
664.9167954885164
 31
0.0
  0
LINE
  5
C4
330
39
100
AcDbEntity
  8
1
  6
Continuous
 62
     7
100
AcDbLine
 10
141.7667004496949
 20
666.155936177615
 30
0.0
 11
128.4625657540448
 21
666.155936177615
 31
0.0
  0
LINE
  5
C5
330
39
100
AcDbEntity
  8
1
  6
Continuous
 62
     7
100
AcDbLine
 10
121.8146331018698
 20
271.8142307952434
 30
0.0
 11
135.1146331018699
 21
271.8142307952434
 31
0.0
  0
LINE
  5
C6
330
39
100
AcDbEntity
  8
1
  6
Continuous
 62
     7
100
AcDbLine
 10
121.9276331018699
 20
271.8142307952434
 30
0.0
 11
121.8146331018698
 21
271.8142307952434
 31
0.0
  0
LINE
  5
C7
330
39
100
AcDbEntity
  8
1
  6
Continuous
 62
     7
100
AcDbLine
 10
123.5566120401393
 20
280.8142307952434
 30
0.0
 11
123.6146331018699
 21
280.8142307952434
 31
0.0
  0
LINE
  5
C8
330
39
100
AcDbEntity
  8
1
  6
Continuous
 62
     7
100
AcDbLine
 10
487.6209805849629
 20
280.8142307952427
 30
0.0
 11
508.888929777394
 21
280.8142307952427
 31
0.0
  0
LINE
  5
C9
330
39
100
AcDbEntity
  8
1
  6
Continuous
 62
     7
100
AcDbLine
 10
512.2549551811784
 20
279.5274080449557
 30
0.0
 11
512.2549551811784
 21
272.3859796164129
 31
0.0
  0
LINE
  5
CA
330
39
100
AcDbEntity
  8
1
  6
Continuous
 62
     7
100
AcDbLine
 10
484.2549551811784
 20
272.3859796164129
 30
0.0
 11
484.2549551811784
 21
279.5274080449558
 31
0.0
  0
LINE
  5
CB
330
39
100
AcDbEntity
  8
1
  6
Continuous
 62
     7
100
AcDbLine
 10
508.0229043736096
 20
281.8142307952427
 30
0.0
 11
488.4870059887473
 21
281.8142307952427
 31
0.0
  0
LINE
  5
CC
330
39
100
AcDbEntity
  8
1
  6
Continuous
 62
     7
100
AcDbLine
 10
511.5549551811784
 20
271.8142307952427
 30
0.0
 11
504.4595333380829
 21
271.8142307952427
 31
0.0
  0
LINE
  5
CD
330
39
100
AcDbEntity
  8
1
  6
Continuous
 62
     7
100
AcDbLine
 10
486.6969341194478
 20
280.8142307952427
 30
0.0
 11
486.7549551811784
 21
280.8142307952427
 31
0.0
  0
LINE
  5
CE
330
39
100
AcDbEntity
  8
1
  6
Continuous
 62
     7
100
AcDbLine
 10
485.0679551811784
 20
271.8142307952427
 30
0.0
 11
484.9549551811784
 21
271.8142307952427
 31
0.0
  0
LINE
  5
CF
330
39
100
AcDbEntity
  8
1
  6
Continuous
 62
     7
100
AcDbLine
 10
509.7549551811784
 20
280.8142307952427
 30
0.0
 11
509.812976242909
 21
280.8142307952427
 31
0.0
  0
LINE
  5
D0
330
39
100
AcDbEntity
  8
1
  6
Continuous
 62
     7
100
AcDbLine
 10
492.0621974920214
 20
271.8142307952427
 30
0.0
 11
484.9549551811784
 21
271.8142307952427
 31
0.0
  0
ARC
  5
D1
330
39
100
AcDbEntity
  8
1
  6
Continuous
 62
     7
100
AcDbCircle
 10
135.1146331018698
 20
652.155936177615
 30
0.0
 40
10.76794919243116
100
AcDbArc
 50
89.9999999999994
 51
-137.9829399353524
  0
ARC
  5
D2
330
39
100
AcDbEntity
  8
1
  6
Continuous
 62
     7
100
AcDbCircle
 10
135.1146331018698
 20
652.155936177615
 30
0.0
 40
10.76794919243111
100
AcDbArc
 50
-42.01706006464686
 51
89.9999999999994
  0
ARC
  5
D3
330
39
100
AcDbEntity
  8
1
  6
Continuous
 62
     7
100
AcDbCircle
 10
135.1146331018698
 20
652.155936177615
 30
0.0
 40
15.4999999999997
100
AcDbArc
 50
180.0
 51
-175.4146209151608
  0
ARC
  5
D4
330
39
100
AcDbEntity
  8
1
  6
Continuous
 62
     7
100
AcDbCircle
 10
135.1146331018698
 20
652.155936177615
 30
0.0
 40
15.49999999999966
100
AcDbArc
 50
-124.5853790848389
 51
-121.0729509721535
  0
ARC
  5
D5
330
39
100
AcDbEntity
  8
1
  6
Continuous
 62
     7
100
AcDbCircle
 10
135.1146331018698
 20
652.155936177615
 30
0.0
 40
15.49999999999966
100
AcDbArc
 50
175.4146209151599
 51
180.0
  0
ARC
  5
D6
330
39
100
AcDbEntity
  8
1
  6
Continuous
 62
     7
100
AcDbCircle
 10
135.1146331018698
 20
652.155936177615
 30
0.0
 40
15.49999999999999
100
AcDbArc
 50
115.4146209151609
 51
124.5853790848384
  0
ARC
  5
D7
330
39
100
AcDbEntity
  8
1
  6
Continuous
 62
     7
100
AcDbCircle
 10
145.6146331018699
 20
275.9566938306851
 30
0.0
 40
5.000000000000048
100
AcDbArc
 50
-55.9442022574327
 51
74.66244233044588
  0
ARC
  5
D8
330
39
100
AcDbEntity
  8
1
  6
Continuous
 62
     7
100
AcDbCircle
 10
135.1146331018698
 20
652.155936177615
 30
0.0
 40
15.49999999999994
100
AcDbArc
 50
-4.58537908483916
 51
0.0
  0
ARC
  5
D9
330
39
100
AcDbEntity
  8
1
  6
Continuous
 62
     7
100
AcDbCircle
 10
135.1146331018698
 20
652.155936177615
 30
0.0
 40
15.49999999999986
100
AcDbArc
 50
-58.92704902784588
 51
-55.41462091516021
  0
ARC
  5
DA
330
39
100
AcDbEntity
  8
1
  6
Continuous
 62
     7
100
AcDbCircle
 10
135.1146331018698
 20
652.155936177615
 30
0.0
 40
15.5
100
AcDbArc
 50
0.0
 51
4.58537908484
  0
ARC
  5
DB
330
39
100
AcDbEntity
  8
1
  6
Continuous
 62
     7
100
AcDbCircle
 10
135.1146331018698
 20
652.155936177615
 30
0.0
 40
15.50000000000002
100
AcDbArc
 50
55.41462091516068
 51
64.58537908483883
  0
ARC
  5
DC
330
39
100
AcDbEntity
  8
1
  6
Continuous
 62
     7
100
AcDbCircle
 10
124.6146331018699
 20
275.9566938306851
 30
0.0
 40
5.000000000000208
100
AcDbArc
 50
105.3375576695536
 51
-124.0557977425684
  0
ARC
  5
DD
330
39
100
AcDbEntity
  8
1
  6
Continuous
 62
     7
100
AcDbCircle
 10
508.7549551811784
 20
275.9566938306843
 30
0.0
 40
5.000000000000017
100
AcDbArc
 50
-55.94420225743207
 51
-45.57299599919402
  0
ARC
  5
DE
330
39
100
AcDbEntity
  8
1
  6
Continuous
 62
     7
100
AcDbCircle
 10
487.7549551811784
 20
275.9566938306843
 30
0.0
 40
5.000000000000094
100
AcDbArc
 50
105.3375576695538
 51
134.4270040008051
  0
ARC
  5
DF
330
39
100
AcDbEntity
  8
1
  6
Continuous
 62
     7
100
AcDbCircle
 10
487.7549551811784
 20
275.9566938306843
 30
0.0
 40
4.999999999999975
100
AcDbArc
 50
-134.427004000806
 51
-124.0557977425679
  0
ARC
  5
E0
330
39
100
AcDbEntity
  8
1
  6
Continuous
 62
     7
100
AcDbCircle
 10
508.7549551811784
 20
275.9566938306843
 30
0.0
 40
4.999999999999975
100
AcDbArc
 50
45.57299599919402
 51
74.66244233044624
  0
SPLINE
  5
E1
330
39
100
AcDbEntity
  8
0
  6
Continuous
 62
     7
100
AcDbSpline
210
0.0
220
0.0
230
1.0
 70
    11
 71
     3
 72
    79
 73
    75
 74
    73
 42
0.0000000001
 43
0.0000000001
 44
0.00000001
 40
0.0
 40
0.0
 40
0.0
 40
0.0
 40
0.2910229153818371
 40
0.5820342278737327
 40
0.8749339334363631
 40
1.167812547519256
 40
1.463561188767225
 40
1.759282806464796
 40
2.058487811140666
 40
2.357663885605741
 40
2.660503341347434
 40
2.963315625194544
 40
3.26953082627642
 40
3.575723468843695
 40
3.884662744191331
 40
4.193586027918898
 40
4.504289085610551
 40
4.814983882015231
 40
5.126294430971051
 40
5.43760497992687
 40
5.748299776331498
 40
6.059002834023159
 40
6.36792611775078
 40
6.676865393098412
 40
6.983058035665618
 40
7.289273236747543
 40
7.592085520594607
 40
7.894924976336299
 40
8.194101050801404
 40
8.493306055477321
 40
8.789027673174857
 40
9.084776314422848
 40
9.377654928505741
 40
9.670554634068393
 40
9.961565946560276
 40
10.25258886194212
 40
10.54295309984907
 40
10.83331733775604
 40
11.12434025313787
 40
11.41535156562976
 40
11.70825127119244
 40
12.00112988527537
 40
12.29687852652333
 40
12.59260014422085
 40
12.89180514889673
 40
13.19098122336192
 40
13.49382067910364
 40
13.79663296295072
 40
14.10284816403258
 40
14.40904080659984
 40
14.71798008194746
 40
15.02690336567502
 40
15.33760642336668
 40
15.64830121977137
 40
15.95961176872713
 40
16.270922317683
 40
16.58161711408769
 40
16.89232017177935
 40
17.20124345550685
 40
17.51018273085454
 40
17.81637537342174
 40
18.12259057450356
 40
18.42540285835063
 40
18.72824231409235
 40
19.02741838855754
 40
19.3266233932335
 40
19.62234501093098
 40
19.91809365217891
 40
20.21097226626183
 40
20.50387197182445
 40
20.79488328431642
 40
21.08590619969823
 40
21.37627043760519
 40
21.66663467551215
 40
21.66663467551215
 40
21.66663467551215
 40
21.66663467551215
 10
123.2803209036381
 20
279.5137630820863
 30
0.0
 10
123.3766959623551
 20
279.502087414285
 30
0.0
 10
123.5694422373795
 20
279.4787365441833
 30
0.0
 10
123.8533787466444
 20
279.4093805507328
 30
0.0
 10
124.1306430125031
 20
279.3159377931572
 30
0.0
 10
124.3993953963532
 20
279.1960308071801
 30
0.0
 10
124.657040779873
 20
279.0519853019928
 30
0.0
 10
124.9022677271077
 20
278.8839187011474
 30
0.0
 10
125.1325310831649
 20
278.6940839680736
 30
0.0
 10
125.3467632916809
 20
278.4829478394063
 30
0.0
 10
125.5427177204437
 20
278.2531682357724
 30
0.0
 10
125.7194750640642
 20
278.0054397035481
 30
0.0
 10
125.8752458980314
 20
277.7427074637142
 30
0.0
 10
126.0092143154005
 20
277.4659564520724
 30
0.0
 10
126.1201373466859
 20
277.1782244743087
 30
0.0
 10
126.2073141390574
 20
276.880871027886
 30
0.0
 10
126.2700621491502
 20
276.5768250317429
 30
0.0
 10
126.3078625283623
 20
276.2678834359887
 30
0.0
 10
126.3205396018507
 20
275.9566938306861
 30
0.0
 10
126.3078625283627
 20
275.6455042253779
 30
0.0
 10
126.2700621491489
 20
275.3365626296405
 30
0.0
 10
126.2073141390618
 20
275.0325166334357
 30
0.0
 10
126.1201373466689
 20
274.7351631872419
 30
0.0
 10
126.0092143154636
 20
274.4474312086272
 30
0.0
 10
125.8752458977981
 20
274.1706802001349
 30
0.0
 10
125.7194750649308
 20
273.9079479486107
 30
0.0
 10
125.5427177172494
 20
273.6602194595525
 30
0.0
 10
125.3467633035463
 20
273.4304396958318
 30
0.0
 10
125.1325310394754
 20
273.2193041577238
 30
0.0
 10
124.9022678894409
 20
273.0294672345964
 30
0.0
 10
124.6570401818458
 20
272.8614087165014
 30
0.0
 10
124.3993976201662
 20
272.7173332147087
 30
0.0
 10
124.130634802275
 20
272.5975371442288
 30
0.0
 10
123.8534093165827
 20
272.5036821473876
 30
0.0
 10
123.5693289630801
 20
272.4358552407979
 30
0.0
 10
123.2809614825672
 20
272.395160279174
 30
0.0
 10
122.9902774488877
 20
272.381394485609
 30
0.0
 10
122.6995934152083
 20
272.3951602791741
 30
0.0
 10
122.4112259346953
 20
272.4358552407977
 30
0.0
 10
122.1271455811927
 20
272.5036821473875
 30
0.0
 10
121.8499200955004
 20
272.5975371442289
 30
0.0
 10
121.5811572776092
 20
272.7173332147087
 30
0.0
 10
121.3235147159296
 20
272.8614087165014
 30
0.0
 10
121.0782870083345
 20
273.0294672345964
 30
0.0
 10
120.8480238583001
 20
273.2193041577238
 30
0.0
 10
120.633791594229
 20
273.4304396958317
 30
0.0
 10
120.4378371805259
 20
273.6602194595525
 30
0.0
 10
120.2610798328445
 20
273.9079479486109
 30
0.0
 10
120.1053089999771
 20
274.1706802001349
 30
0.0
 10
119.9713405823117
 20
274.4474312086271
 30
0.0
 10
119.8604175511065
 20
274.7351631872419
 30
0.0
 10
119.7732407587135
 20
275.0325166334357
 30
0.0
 10
119.7104927486265
 20
275.3365626296404
 30
0.0
 10
119.6726923694126
 20
275.645504225378
 30
0.0
 10
119.6600152959248
 20
275.9566938306852
 30
0.0
 10
119.6726923694126
 20
276.267883435992
 30
0.0
 10
119.7104927486266
 20
276.5768250317308
 30
0.0
 10
119.7732407587132
 20
276.8808710279311
 30
0.0
 10
119.8604175511077
 20
277.1782244741413
 30
0.0
 10
119.9713405823072
 20
277.465956452695
 30
0.0
 10
120.1053089999938
 20
277.742707461413
 30
0.0
 10
120.2610798327824
 20
278.0054397120989
 30
0.0
 10
120.4378371807549
 20
278.2531682042526
 30
0.0
 10
120.6337915933781
 20
278.4829479564929
 30
0.0
 10
120.8480238614333
 20
278.6940835369526
 30
0.0
 10
121.0782869966927
 20
278.8839203030211
 30
0.0
 10
121.3235147588171
 20
279.0519794007682
 30
0.0
 10
121.5811571181289
 20
279.1960527513622
 30
0.0
 10
121.8499206842947
 20
279.3158567761191
 30
0.0
 10
122.1271433888772
 20
279.4096822093243
 30
0.0
 10
122.4112340581333
 20
279.4776187739964
 30
0.0
 10
122.6995631192044
 20
279.5179053309129
 30
0.0
 10
122.9903902318703
 20
279.533192076597
 30
0.0
 10
123.1836773463822
 20
279.5202394135898
 30
0.0
 10
123.2803209036381
 20
279.5137630820862
 30
0.0
 11
123.2803209036381
 21
279.5137630820863
 31
0.0
 11
123.568480399913
 21
279.4730391089998
 31
0.0
 11
123.8515626062955
 21
279.4055702389345
 31
0.0
 11
124.1289866488393
 21
279.3116227102957
 31
0.0
 11
124.3965484009566
 21
279.1925068364963
 31
0.0
 11
124.6546807696718
 21
279.048163707039
 31
0.0
 11
124.898693422283
 21
278.8811035366233
 31
0.0
 11
125.1295729278138
 21
278.6907925050226
 31
0.0
 11
125.342748222765
 21
278.4808815306673
 31
0.0
 11
125.5392825467732
 21
278.2504775475408
 31
0.0
 11
125.7152560825728
 21
278.0040458248529
 31
0.0
 11
125.8714532230457
 21
277.7406635880151
 31
0.0
 11
126.0049489110099
 21
277.4651044552372
 31
0.0
 11
126.1160988365671
 21
277.17685253434
 31
0.0
 11
126.2030754905934
 21
276.8804260562996
 31
0.0
 11
126.2658805649149
 21
276.5761368637567
 31
0.0
 11
126.3036559265864
 21
276.2677470478361
 31
0.0
 11
126.3163111228
 21
275.9566938306851
 31
0.0
 11
126.3036559265864
 21
275.6456406135342
 31
0.0
 11
126.2658805649148
 21
275.3372507976137
 31
0.0
 11
126.2030754905933
 21
275.0329616050707
 31
0.0
 11
126.116098836567
 21
274.7365351270303
 31
0.0
 11
126.0049489110099
 21
274.4482832061331
 31
0.0
 11
125.8714532230457
 21
274.1727240733553
 31
0.0
 11
125.7152560825728
 21
273.9093418365173
 31
0.0
 11
125.5392825467732
 21
273.6629101138296
 31
0.0
 11
125.342748222765
 21
273.4325061307031
 31
0.0
 11
125.1295729278139
 21
273.2225951563476
 31
0.0
 11
124.898693422283
 21
273.0322841247469
 31
0.0
 11
124.6546807696719
 21
272.8652239543312
 31
0.0
 11
124.3965484009567
 21
272.720880824874
 31
0.0
 11
124.1289866488393
 21
272.6017649510745
 31
0.0
 11
123.8515626062955
 21
272.5078174224358
 31
0.0
 11
123.568480399913
 21
272.4403485523705
 31
0.0
 11
123.2803209036381
 21
272.399624579284
 31
0.0
 11
122.9902774488877
 21
272.3859796164136
 31
0.0
 11
122.7002339941373
 21
272.3996245792839
 31
0.0
 11
122.4120744978624
 21
272.4403485523703
 31
0.0
 11
122.1289922914799
 21
272.5078174224357
 31
0.0
 11
121.8515682489361
 21
272.6017649510745
 31
0.0
 11
121.5840064968187
 21
272.720880824874
 31
0.0
 11
121.3258741281035
 21
272.8652239543312
 31
0.0
 11
121.0818614754924
 21
273.0322841247469
 31
0.0
 11
120.8509819699615
 21
273.2225951563476
 31
0.0
 11
120.6378066750104
 21
273.4325061307031
 31
0.0
 11
120.4412723510021
 21
273.6629101138296
 31
0.0
 11
120.2652988152025
 21
273.9093418365173
 31
0.0
 11
120.1091016747296
 21
274.1727240733552
 31
0.0
 11
119.9756059867654
 21
274.4482832061331
 31
0.0
 11
119.8644560612083
 21
274.7365351270303
 31
0.0
 11
119.777479407182
 21
275.0329616050707
 31
0.0
 11
119.7146743328606
 21
275.3372507976136
 31
0.0
 11
119.6768989711889
 21
275.6456406135342
 31
0.0
 11
119.6642437749753
 21
275.9566938306851
 31
0.0
 11
119.6768989711889
 21
276.2677470478361
 31
0.0
 11
119.7146743328605
 21
276.5761368637567
 31
0.0
 11
119.777479407182
 21
276.8804260562996
 31
0.0
 11
119.8644560612083
 21
277.1768525343399
 31
0.0
 11
119.9756059867654
 21
277.4651044552372
 31
0.0
 11
120.1091016747296
 21
277.740663588015
 31
0.0
 11
120.2652988152025
 21
278.0040458248528
 31
0.0
 11
120.4412723510021
 21
278.2504775475406
 31
0.0
 11
120.6378066750104
 21
278.4808815306671
 31
0.0
 11
120.8509819699615
 21
278.6907925050226
 31
0.0
 11
121.0818614754924
 21
278.8811035366234
 31
0.0
 11
121.3258741281035
 21
279.048163707039
 31
0.0
 11
121.5840064968187
 21
279.1925068364963
 31
0.0
 11
121.8515682489361
 21
279.3116227102957
 31
0.0
 11
122.1289922914799
 21
279.4055702389344
 31
0.0
 11
122.4120744978624
 21
279.4730391089997
 31
0.0
 11
122.7002339941373
 21
279.5137630820861
 31
0.0
 11
122.9902774488877
 21
279.5274080449564
 31
0.0
 11
123.2803209036381
 21
279.5137630820862
 31
0.0
  0
SPLINE
  5
E2
330
39
100
AcDbEntity
  8
0
  6
Continuous
 62
     7
100
AcDbSpline
210
0.0
220
0.0
230
1.0
 70
    11
 71
     3
 72
    79
 73
    75
 74
    73
 42
0.0000000001
 43
0.0000000001
 44
0.00000001
 40
0.0
 40
0.0
 40
0.0
 40
0.0
 40
0.326118988163877
 40
0.6517242273662707
 40
1.007570734071822
 40
1.362786578155848
 40
1.759886314710514
 40
2.156516714717136
 40
2.599210008268882
 40
3.041603627004227
 40
3.528307206464715
 40
4.014826849024935
 40
4.539616314403934
 40
5.064295509496628
 40
5.618233632287935
 40
6.172109437578968
 40
6.74428096866584
 40
7.316424323670557
 40
7.894787044418057
 40
8.473149765165585
 40
9.045293120170335
 40
9.617464651257263
 40
10.17134045654826
 40
10.72527857933954
 40
11.2499577744322
 40
11.77474723981119
 40
12.26126688237144
 40
12.74797046183193
 40
13.19036408056727
 40
13.63305737411908
 40
14.02968777412574
 40
14.42678751068033
 40
14.78200335476438
 40
15.1378498614699
 40
15.46345510067231
 40
15.78957408883618
 40
16.10448972240908
 40
16.41940535598204
 40
16.74552434414592
 40
17.07112958334838
 40
17.42697609005388
 40
17.78219193413783
 40
18.17929167069238
 40
18.57592207069911
 40
19.01861536425088
 40
19.46100898298625
 40
19.94771256244674
 40
20.43423220500701
 40
20.95902167038603
 40
21.48370086547869
 40
22.03763898826995
 40
22.59151479356101
 40
23.16368632464792
 40
23.73582967965266
 40
24.31419240040016
 40
24.89255512114766
 40
25.46469847615238
 40
26.03687000723924
 40
26.59074581253027
 40
27.14468393532159
 40
27.66936313041431
 40
28.19415259579334
 40
28.68067223835361
 40
29.16737581781407
 40
29.60976943654936
 40
30.05246273010114
 40
30.44909313010782
 40
30.84619286666243
 40
31.20140871074645
 40
31.55725521745191
 40
31.8828604566543
 40
32.20897944481823
 40
32.52389507839119
 40
32.83881071196408
 40
32.83881071196408
 40
32.83881071196408
 40
32.83881071196408
 10
141.7404122587595
 20
275.6428773440468
 30
0.0
 10
141.7178549847647
 20
275.5362875857749
 30
0.0
 10
141.6727759721976
 20
275.3232759845612
 30
0.0
 10
141.5382482006262
 20
275.0134574898458
 30
0.0
 10
141.3615041104426
 20
274.7156736439623
 30
0.0
 10
141.1326226976874
 20
274.424527600374
 30
0.0
 10
140.8634047879063
 20
274.1511353832871
 30
0.0
 10
140.5461346719835
 20
273.8871756561758
 30
0.0
 10
140.1940822512943
 20
273.6441694550916
 30
0.0
 10
139.7982088835038
 20
273.4145152044644
 30
0.0
 10
139.3735004688463
 20
273.2079642453625
 30
0.0
 10
138.9109830954994
 20
273.018961490185
 30
0.0
 10
138.4257425937164
 20
272.8546476955447
 30
0.0
 10
137.9105011056881
 20
272.7116321937065
 30
0.0
 10
137.3788358449304
 20
272.5944797580623
 30
0.0
 10
136.8263867953311
 20
272.5015058670351
 30
0.0
 10
136.263995955396
 20
272.4351868080704
 30
0.0
 10
135.6909793051473
 20
272.3948405500262
 30
0.0
 10
135.1146331018736
 20
272.3815502182483
 30
0.0
 10
134.5382868985774
 20
272.3948405500241
 30
0.0
 10
133.9652702483951
 20
272.435186808079
 30
0.0
 10
133.4028794082194
 20
272.5015058670034
 30
0.0
 10
132.8504303594895
 20
272.5944797581769
 30
0.0
 10
132.318765095566
 20
272.7116321932875
 30
0.0
 10
131.8035236187567
 20
272.8546476970173
 30
0.0
 10
131.3182830765858
 20
273.018961484848
 30
0.0
 10
130.8557658435105
 20
273.2079642636755
 30
0.0
 10
130.4310569293067
 20
273.4145151385529
 30
0.0
 10
130.0351852649459
 20
273.6441696763815
 30
0.0
 10
129.6831268301787
 20
273.8871748634821
 30
0.0
 10
129.3658769534914
 20
274.1511380029622
 30
0.0
 10
129.0965878243277
 20
274.4245182123422
 30
0.0
 10
128.8679458322084
 20
274.7157046226496
 30
0.0
 10
128.6903531069604
 20
275.0133453872444
 30
0.0
 10
128.5587400353258
 20
275.323655305235
 30
0.0
 10
128.4813150592493
 20
275.6378138822611
 30
0.0
 10
128.4533549421364
 20
275.9566938306851
 30
0.0
 10
128.4813150592493
 20
276.2755737791091
 30
0.0
 10
128.5587400353259
 20
276.5897323561351
 30
0.0
 10
128.6903531069605
 20
276.900042274126
 30
0.0
 10
128.8679458322084
 20
277.1976830387206
 30
0.0
 10
129.0965878243277
 20
277.488869449028
 30
0.0
 10
129.3658769534914
 20
277.762249658408
 30
0.0
 10
129.6831268301785
 20
278.0262127978881
 30
0.0
 10
130.035185264946
 20
278.2692179849888
 30
0.0
 10
130.4310569293066
 20
278.4988725228173
 30
0.0
 10
130.8557658435105
 20
278.7054233976946
 30
0.0
 10
131.3182830765858
 20
278.8944261765224
 30
0.0
 10
131.8035236187566
 20
279.0587399643531
 30
0.0
 10
132.3187650955661
 20
279.2017554680829
 30
0.0
 10
132.8504303594895
 20
279.3189079031932
 30
0.0
 10
133.4028794082195
 20
279.4118817943669
 30
0.0
 10
133.9652702483949
 20
279.4782008532912
 30
0.0
 10
134.5382868985783
 20
279.5185471113464
 30
0.0
 10
135.1146331018701
 20
279.5318374431213
 30
0.0
 10
135.6909793051602
 20
279.5185471113466
 30
0.0
 10
136.2639959553483
 20
279.4782008532906
 30
0.0
 10
136.8263867955068
 20
279.4118817943693
 30
0.0
 10
137.378835844298
 20
279.3189079031853
 30
0.0
 10
137.9105011079982
 20
279.2017554681124
 30
0.0
 10
138.425742585599
 20
279.0587399642492
 30
0.0
 10
138.910983124921
 20
278.8944261768987
 30
0.0
 10
139.3735003678906
 20
278.7054233964029
 30
0.0
 10
139.7982092468583
 20
278.4988725274664
 30
0.0
 10
140.1940810313722
 20
278.2692179693798
 30
0.0
 10
140.5461390419306
 20
278.0262128538015
 30
0.0
 10
140.8633903462118
 20
277.7622494736268
 30
0.0
 10
141.1326744518481
 20
277.4888701112217
 30
0.0
 10
141.361333331731
 20
277.1976808536094
 30
0.0
 10
141.5388661976932
 20
276.90005018139
 30
0.0
 10
141.6706848604751
 20
276.5897056003887
 30
0.0
 10
141.7473647220334
 20
276.2756726509144
 30
0.0
 10
141.7780166223414
 20
275.9563388633497
 30
0.0
 10
141.7529470466201
 20
275.7473645171478
 30
0.0
 10
141.7404122587595
 20
275.6428773440468
 30
0.0
 11
141.7404122587595
 21
275.6428773440468
 31
0.0
 11
141.6622395962058
 21
275.3262661798876
 31
0.0
 11
141.5365333411292
 21
275.0259052149959
 31
0.0
 11
141.3549769576941
 21
274.7198594406932
 31
0.0
 11
141.1366148977991
 21
274.4396875172484
 31
0.0
 11
140.8588673484239
 21
274.1558838886814
 31
0.0
 11
140.5545677962445
 21
273.9014876293676
 31
0.0
 11
140.1909201709255
 21
273.6490242523096
 31
0.0
 11
139.8085871640464
 21
273.4264628321385
 31
0.0
 11
139.3713186032713
 21
273.212742032923
 31
0.0
 11
138.9211231755722
 21
273.0282821742118
 31
0.0
 11
138.4242834539577
 21
272.8593020747954
 31
0.0
 11
137.9187967860383
 21
272.7186909574581
 31
0.0
 11
137.3779389790311
 21
272.599023599833
 31
0.0
 11
136.8317686709143
 21
272.5069562211457
 31
0.0
 11
136.2635687038751
 21
272.4396579415026
 31
0.0
 11
135.6928390258244
 21
272.3994627518878
 31
0.0
 11
135.1146331018698
 21
272.3859962655491
 31
0.0
 11
134.5364271779152
 21
272.3994627518878
 31
0.0
 11
133.9656974998645
 21
272.4396579415026
 31
0.0
 11
133.3974975328252
 21
272.5069562211457
 31
0.0
 11
132.8513272247084
 21
272.599023599833
 31
0.0
 11
132.3104694177013
 21
272.7186909574581
 31
0.0
 11
131.8049827497819
 21
272.8593020747954
 31
0.0
 11
131.3081430281673
 21
273.0282821742117
 31
0.0
 11
130.8579476004682
 21
273.2127420329229
 31
0.0
 11
130.4206790396931
 21
273.4264628321384
 31
0.0
 11
130.0383460328141
 21
273.6490242523096
 31
0.0
 11
129.6746984074951
 21
273.9014876293677
 31
0.0
 11
129.3703988553156
 21
274.1558838886814
 31
0.0
 11
129.0926513059404
 21
274.4396875172484
 31
0.0
 11
128.8742892460454
 21
274.7198594406933
 31
0.0
 11
128.6927328626103
 21
275.0259052149959
 31
0.0
 11
128.5670266075337
 21
275.3262661798876
 31
0.0
 11
128.48885394498
 21
275.6428773440468
 31
0.0
 11
128.4625657540447
 21
275.9566938306851
 31
0.0
 11
128.48885394498
 21
276.2705103173234
 31
0.0
 11
128.5670266075338
 21
276.5871214814827
 31
0.0
 11
128.6927328626104
 21
276.8874824463744
 31
0.0
 11
128.8742892460455
 21
277.193528220677
 31
0.0
 11
129.0926513059404
 21
277.4737001441217
 31
0.0
 11
129.3703988553156
 21
277.7575037726887
 31
0.0
 11
129.674698407495
 21
278.0119000320026
 31
0.0
 11
130.038346032814
 21
278.2643634090607
 31
0.0
 11
130.4206790396931
 21
278.4869248292318
 31
0.0
 11
130.8579476004682
 21
278.7006456284473
 31
0.0
 11
131.3081430281673
 21
278.8851054871586
 31
0.0
 11
131.8049827497819
 21
279.0540855865749
 31
0.0
 11
132.3104694177013
 21
279.1946967039122
 31
0.0
 11
132.8513272247084
 21
279.3143640615373
 31
0.0
 11
133.3974975328252
 21
279.4064314402245
 31
0.0
 11
133.9656974998645
 21
279.4737297198677
 31
0.0
 11
134.5364271779152
 21
279.5139249094825
 31
0.0
 11
135.1146331018698
 21
279.5273913958212
 31
0.0
 11
135.6928390258244
 21
279.5139249094825
 31
0.0
 11
136.2635687038751
 21
279.4737297198677
 31
0.0
 11
136.8317686709143
 21
279.4064314402247
 31
0.0
 11
137.3779389790311
 21
279.3143640615374
 31
0.0
 11
137.9187967860383
 21
279.1946967039122
 31
0.0
 11
138.4242834539577
 21
279.0540855865748
 31
0.0
 11
138.9211231755723
 21
278.8851054871585
 31
0.0
 11
139.3713186032714
 21
278.7006456284472
 31
0.0
 11
139.8085871640465
 21
278.4869248292317
 31
0.0
 11
140.1909201709255
 21
278.2643634090607
 31
0.0
 11
140.5545677962445
 21
278.0119000320025
 31
0.0
 11
140.8588673484239
 21
277.7575037726887
 31
0.0
 11
141.1366148977991
 21
277.4737001441217
 31
0.0
 11
141.3549769576941
 21
277.193528220677
 31
0.0
 11
141.5365333411292
 21
276.8874824463744
 31
0.0
 11
141.6622395962058
 21
276.5871214814827
 31
0.0
 11
141.7404122587595
 21
276.2705103173234
 31
0.0
 11
141.7667004496948
 21
275.9566938306851
 31
0.0
 11
141.7404122587595
 21
275.6428773440468
 31
0.0
  0
SPLINE
  5
E3
330
39
100
AcDbEntity
  8
0
  6
Continuous
 62
     7
100
AcDbSpline
210
0.0
220
0.0
230
1.0
 70
    11
 71
     3
 72
    79
 73
    75
 74
    73
 42
0.0000000001
 43
0.0000000001
 44
0.00000001
 40
0.0
 40
0.0
 40
0.0
 40
0.0
 40
0.2910229153818371
 40
0.5820342278737742
 40
0.874933933436418
 40
1.167812547519259
 40
1.463561188767213
 40
1.759282806464763
 40
2.058487811140727
 40
2.357663885605892
 40
2.660503341347709
 40
2.963315625194726
 40
3.269530826276539
 40
3.575723468843745
 40
3.884662744191429
 40
4.19358602791895
 40
4.504289085610611
 40
4.814983882015295
 40
5.12629443097117
 40
5.43760497992693
 40
5.748299776331558
 40
6.059002834023275
 40
6.367926117750896
 40
6.676865393098474
 40
6.983058035665731
 40
7.289273236747607
 40
7.592085520594671
 40
7.894924976336443
 40
8.19410105080155
 40
8.493306055477515
 40
8.789027673175097
 40
9.084776314423028
 40
9.377654928505898
 40
9.67055463406855
 40
9.961565946560487
 40
10.25258886194233
 40
10.54295309984931
 40
10.8333173377563
 40
11.12434025313819
 40
11.4153515656301
 40
11.70825127119279
 40
12.00112988527568
 40
12.29687852652361
 40
12.59260014422114
 40
12.89180514889705
 40
13.19098122336221
 40
13.49382067910393
 40
13.79663296295101
 40
14.10284816403287
 40
14.40904080660013
 40
14.7179800819477
 40
15.02690336567522
 40
15.33760642336688
 40
15.64830121977157
 40
15.95961176872738
 40
16.27092231768326
 40
16.58161711408799
 40
16.89232017177966
 40
17.20124345550723
 40
17.51018273085486
 40
17.81637537342207
 40
18.12259057450388
 40
18.42540285835096
 40
18.72824231409271
 40
19.02741838855788
 40
19.32662339323383
 40
19.62234501093139
 40
19.91809365217932
 40
20.21097226626219
 40
20.50387197182482
 40
20.79488328431675
 40
21.08590619969859
 40
21.37627043760558
 40
21.66663467551262
 40
21.66663467551262
 40
21.66663467551262
 40
21.66663467551262
 10
146.9489453001015
 20
279.5137630820863
 30
0.0
 10
146.8525702413846
 20
279.502087414285
 30
0.0
 10
146.6598239663601
 20
279.4787365441833
 30
0.0
 10
146.3758874570952
 20
279.4093805507329
 30
0.0
 10
146.0986231912364
 20
279.3159377931573
 30
0.0
 10
145.8298708073864
 20
279.1960308071801
 30
0.0
 10
145.5722254238667
 20
279.0519853019929
 30
0.0
 10
145.3269984766318
 20
278.8839187011475
 30
0.0
 10
145.0967351205747
 20
278.6940839680736
 30
0.0
 10
144.8825029120586
 20
278.4829478394062
 30
0.0
 10
144.686548483296
 20
278.2531682357722
 30
0.0
 10
144.5097911396752
 20
278.005439703548
 30
0.0
 10
144.3540203057082
 20
277.7427074637141
 30
0.0
 10
144.220051888339
 20
277.4659564520723
 30
0.0
 10
144.1091288570537
 20
277.1782244743088
 30
0.0
 10
144.0219520646822
 20
276.8808710278859
 30
0.0
 10
143.9592040545894
 20
276.5768250317429
 30
0.0
 10
143.9214036753771
 20
276.2678834359888
 30
0.0
 10
143.9087266018889
 20
275.9566938306861
 30
0.0
 10
143.9214036753768
 20
275.6455042253778
 30
0.0
 10
143.9592040545906
 20
275.3365626296405
 30
0.0
 10
144.0219520646777
 20
275.0325166334357
 30
0.0
 10
144.1091288570706
 20
274.7351631872419
 30
0.0
 10
144.2200518882759
 20
274.447431208627
 30
0.0
 10
144.3540203059413
 20
274.1706802001351
 30
0.0
 10
144.5097911388087
 20
273.9079479486107
 30
0.0
 10
144.6865484864901
 20
273.6602194595526
 30
0.0
 10
144.8825029001931
 20
273.4304396958316
 30
0.0
 10
145.0967351642644
 20
273.2193041577239
 30
0.0
 10
145.3269983142987
 20
273.0294672345964
 30
0.0
 10
145.572226021894
 20
272.8614087165015
 30
0.0
 10
145.8298685835733
 20
272.7173332147085
 30
0.0
 10
146.0986314014646
 20
272.5975371442289
 30
0.0
 10
146.3758568871569
 20
272.5036821473876
 30
0.0
 10
146.6599372406596
 20
272.4358552407978
 30
0.0
 10
146.9483047211725
 20
272.3951602791741
 30
0.0
 10
147.238988754852
 20
272.3813944856092
 30
0.0
 10
147.5296727885315
 20
272.395160279174
 30
0.0
 10
147.8180402690445
 20
272.4358552407977
 30
0.0
 10
148.1021206225471
 20
272.5036821473876
 30
0.0
 10
148.3793461082394
 20
272.597537144229
 30
0.0
 10
148.6481089261307
 20
272.7173332147086
 30
0.0
 10
148.9057514878101
 20
272.8614087165014
 30
0.0
 10
149.1509791954053
 20
273.0294672345963
 30
0.0
 10
149.3812423454397
 20
273.2193041577237
 30
0.0
 10
149.5954746095108
 20
273.4304396958318
 30
0.0
 10
149.7914290232139
 20
273.6602194595525
 30
0.0
 10
149.9681863708953
 20
273.9079479486109
 30
0.0
 10
150.1239572037627
 20
274.1706802001349
 30
0.0
 10
150.257925621428
 20
274.4474312086271
 30
0.0
 10
150.3688486526334
 20
274.7351631872418
 30
0.0
 10
150.4560254450263
 20
275.0325166334356
 30
0.0
 10
150.5187734551134
 20
275.3365626296403
 30
0.0
 10
150.5565738343272
 20
275.6455042253779
 30
0.0
 10
150.5692509078151
 20
275.9566938306851
 30
0.0
 10
150.5565738343272
 20
276.267883435992
 30
0.0
 10
150.5187734551134
 20
276.5768250317307
 30
0.0
 10
150.4560254450267
 20
276.8808710279311
 30
0.0
 10
150.3688486526322
 20
277.1782244741413
 30
0.0
 10
150.2579256214326
 20
277.4659564526949
 30
0.0
 10
150.123957203746
 20
277.742707461413
 30
0.0
 10
149.9681863709574
 20
278.0054397120988
 30
0.0
 10
149.7914290229848
 20
278.2531682042527
 30
0.0
 10
149.5954746103618
 20
278.482947956493
 30
0.0
 10
149.3812423423065
 20
278.6940835369526
 30
0.0
 10
149.1509792070469
 20
278.883920303021
 30
0.0
 10
148.9057514449227
 20
279.0519794007685
 30
0.0
 10
148.6481090856108
 20
279.1960527513621
 30
0.0
 10
148.379345519445
 20
279.3158567761192
 30
0.0
 10
148.1021228148625
 20
279.4096822093242
 30
0.0
 10
147.8180321456064
 20
279.4776187739963
 30
0.0
 10
147.5297030845353
 20
279.5179053309128
 30
0.0
 10
147.2388759718695
 20
279.5331920765971
 30
0.0
 10
147.0455888573575
 20
279.5202394135898
 30
0.0
 10
146.9489453001015
 20
279.5137630820863
 30
0.0
 11
146.9489453001015
 21
279.5137630820863
 31
0.0
 11
146.6607858038266
 21
279.4730391089998
 31
0.0
 11
146.3777035974441
 21
279.4055702389345
 31
0.0
 11
146.1002795549003
 21
279.3116227102957
 31
0.0
 11
145.832717802783
 21
279.1925068364963
 31
0.0
 11
145.5745854340678
 21
279.0481637070391
 31
0.0
 11
145.3305727814566
 21
278.8811035366234
 31
0.0
 11
145.0996932759257
 21
278.6907925050226
 31
0.0
 11
144.8865179809746
 21
278.4808815306672
 31
0.0
 11
144.6899836569663
 21
278.2504775475405
 31
0.0
 11
144.5140101211667
 21
278.0040458248528
 31
0.0
 11
144.3578129806938
 21
277.740663588015
 31
0.0
 11
144.2243172927296
 21
277.4651044552372
 31
0.0
 11
144.1131673671725
 21
277.1768525343399
 31
0.0
 11
144.0261907131462
 21
276.8804260562996
 31
0.0
 11
143.9633856388247
 21
276.5761368637567
 31
0.0
 11
143.9256102771531
 21
276.2677470478361
 31
0.0
 11
143.9129550809395
 21
275.9566938306851
 31
0.0
 11
143.9256102771531
 21
275.6456406135342
 31
0.0
 11
143.9633856388247
 21
275.3372507976137
 31
0.0
 11
144.0261907131462
 21
275.0329616050707
 31
0.0
 11
144.1131673671725
 21
274.7365351270303
 31
0.0
 11
144.2243172927296
 21
274.4482832061331
 31
0.0
 11
144.3578129806938
 21
274.1727240733552
 31
0.0
 11
144.5140101211667
 21
273.9093418365173
 31
0.0
 11
144.6899836569663
 21
273.6629101138296
 31
0.0
 11
144.8865179809746
 21
273.432506130703
 31
0.0
 11
145.0996932759258
 21
273.2225951563477
 31
0.0
 11
145.3305727814567
 21
273.0322841247469
 31
0.0
 11
145.5745854340678
 21
272.8652239543312
 31
0.0
 11
145.832717802783
 21
272.7208808248739
 31
0.0
 11
146.1002795549003
 21
272.6017649510745
 31
0.0
 11
146.3777035974442
 21
272.5078174224358
 31
0.0
 11
146.6607858038267
 21
272.4403485523705
 31
0.0
 11
146.9489453001016
 21
272.399624579284
 31
0.0
 11
147.238988754852
 21
272.3859796164137
 31
0.0
 11
147.5290322096025
 21
272.3996245792839
 31
0.0
 11
147.8171917058774
 21
272.4403485523704
 31
0.0
 11
148.1002739122599
 21
272.5078174224358
 31
0.0
 11
148.3776979548037
 21
272.6017649510746
 31
0.0
 11
148.6452597069211
 21
272.720880824874
 31
0.0
 11
148.9033920756363
 21
272.8652239543312
 31
0.0
 11
149.1474047282474
 21
273.0322841247469
 31
0.0
 11
149.3782842337783
 21
273.2225951563476
 31
0.0
 11
149.5914595287294
 21
273.4325061307031
 31
0.0
 11
149.7879938527377
 21
273.6629101138296
 31
0.0
 11
149.9639673885373
 21
273.9093418365173
 31
0.0
 11
150.1201645290102
 21
274.1727240733552
 31
0.0
 11
150.2536602169744
 21
274.4482832061331
 31
0.0
 11
150.3648101425315
 21
274.7365351270303
 31
0.0
 11
150.4517867965578
 21
275.0329616050706
 31
0.0
 11
150.5145918708793
 21
275.3372507976135
 31
0.0
 11
150.5523672325509
 21
275.6456406135341
 31
0.0
 11
150.5650224287645
 21
275.956693830685
 31
0.0
 11
150.5523672325509
 21
276.2677470478361
 31
0.0
 11
150.5145918708794
 21
276.5761368637567
 31
0.0
 11
150.4517867965578
 21
276.8804260562996
 31
0.0
 11
150.3648101425315
 21
277.17685253434
 31
0.0
 11
150.2536602169744
 21
277.4651044552372
 31
0.0
 11
150.1201645290102
 21
277.740663588015
 31
0.0
 11
149.9639673885373
 21
278.0040458248528
 31
0.0
 11
149.7879938527377
 21
278.2504775475406
 31
0.0
 11
149.5914595287294
 21
278.4808815306672
 31
0.0
 11
149.3782842337783
 21
278.6907925050226
 31
0.0
 11
149.1474047282474
 21
278.8811035366234
 31
0.0
 11
148.9033920756362
 21
279.0481637070391
 31
0.0
 11
148.645259706921
 21
279.1925068364963
 31
0.0
 11
148.3776979548037
 21
279.3116227102957
 31
0.0
 11
148.1002739122599
 21
279.4055702389344
 31
0.0
 11
147.8171917058774
 21
279.4730391089997
 31
0.0
 11
147.5290322096025
 21
279.5137630820861
 31
0.0
 11
147.238988754852
 21
279.5274080449565
 31
0.0
 11
146.9489453001015
 21
279.5137630820863
 31
0.0
  0
SPLINE
  5
E4
330
39
100
AcDbEntity
  8
1
  6
Continuous
 62
     7
100
AcDbSpline
210
0.0
220
0.0
230
1.0
 70
     8
 71
     3
 72
    59
 73
    55
 74
    53
 42
0.0000000001
 43
0.0000000001
 44
0.00000001
 40
0.0
 40
0.0
 40
0.0
 40
0.0
 40
0.3328651923234901
 40
0.6657611143602558
 40
1.067419790250984
 40
1.468838798298393
 40
1.902250715059085
 40
2.335501159476373
 40
2.796817196302664
 40
3.258030103344433
 40
3.740926902223372
 40
4.223763035175995
 40
4.720245461020054
 40
5.216699839315929
 40
5.717807166076137
 40
6.2189144928364
 40
6.715368871132153
 40
7.211851296976276
 40
7.694687429928753
 40
8.177584228807637
 40
8.638797135849336
 40
9.10011317267568
 40
9.533363617092869
 40
9.966775533853589
 40
10.36819454190097
 40
10.76985321779174
 40
11.13896134093941
 40
11.50839734424742
 40
11.84902950636398
 40
12.19003325533421
 40
12.51084708734994
 40
12.8319284004683
 40
13.14569038570708
 40
13.45945237094575
 40
13.78053368406398
 40
14.1013475160798
 40
14.44235126505026
 40
14.78298342716673
 40
15.15241943047477
 40
15.52152755362236
 40
15.92318622951318
 40
16.3246052375606
 40
16.75801715432122
 40
17.19126759873851
 40
17.6525836355648
 40
18.11379654260653
 40
18.59669334148552
 40
19.07952947443793
 40
19.57601190028199
 40
20.07246627857774
 40
20.573573605338
 40
21.0746809320982
 40
21.30241172853628
 40
21.52997850247417
 40
21.52997850247417
 40
21.52997850247417
 40
21.52997850247417
 10
496.426943677652
 20
277.5289813534907
 30
0.0
 10
496.3556713336234
 20
277.6141292600751
 30
0.0
 10
496.2131200657892
 20
277.7844329339958
 30
0.0
 10
495.9537741722417
 20
278.0290373160344
 30
0.0
 10
495.6582024204419
 20
278.2663233860497
 30
0.0
 10
495.3154311135273
 20
278.4960644942048
 30
0.0
 10
494.9467791878764
 20
278.7036693383255
 30
0.0
 10
494.5462121176827
 20
278.8928758344963
 30
0.0
 10
494.1251111269114
 20
279.0578434256826
 30
0.0
 10
493.6787518527334
 20
279.2010266255421
 30
0.0
 10
493.2175562659602
 20
279.3185540825409
 30
0.0
 10
492.738861095443
 20
279.4116378260982
 30
0.0
 10
492.2511938068561
 20
279.4781406419821
 30
0.0
 10
491.7545759955749
 20
279.5185261997463
 30
0.0
 10
491.2549551814989
 20
279.531869681218
 30
0.0
 10
490.75533436551
 20
279.5185262006763
 30
0.0
 10
490.2587165599133
 20
279.4781406383025
 30
0.0
 10
489.7710492507155
 20
279.4116378397422
 30
0.0
 10
489.2923541549939
 20
279.3185540331565
 30
0.0
 10
488.8311582948677
 20
279.2010268065478
 30
0.0
 10
488.3847999970915
 20
279.0578427837377
 30
0.0
 10
487.963695470298
 20
278.8928781728544
 30
0.0
 10
487.5631408323702
 20
278.7036611982657
 30
0.0
 10
487.1944442411822
 20
278.4960940000715
 30
0.0
 10
486.8518279497052
 20
278.2662222386168
 30
0.0
 10
486.5462801060659
 20
278.0218389316791
 30
0.0
 10
486.2721276403877
 20
277.7578076815759
 30
0.0
 10
486.0388839754058
 20
277.4830503373244
 30
0.0
 10
485.8420049419374
 20
277.1923497853793
 30
0.0
 10
485.6889053997224
 20
276.8943641305725
 30
0.0
 10
485.5763579292122
 20
276.5856635110598
 30
0.0
 10
485.5098064188514
 20
276.2730928738233
 30
0.0
 10
485.4863311621641
 20
275.9566938306844
 30
0.0
 10
485.5098064188513
 20
275.6402947875456
 30
0.0
 10
485.5763579292124
 20
275.3277241503091
 30
0.0
 10
485.6889053997223
 20
275.0190235307964
 30
0.0
 10
485.8420049419374
 20
274.7210378759889
 30
0.0
 10
486.0388839754058
 20
274.4303373240456
 30
0.0
 10
486.2721276403879
 20
274.1555799797873
 30
0.0
 10
486.5462801060652
 20
273.8915487297116
 30
0.0
 10
486.8518279497074
 20
273.6471654226615
 30
0.0
 10
487.1944442411738
 20
273.4172936616452
 30
0.0
 10
487.5631408324056
 20
273.2097264616893
 30
0.0
 10
487.9636954701627
 20
273.0205094939195
 30
0.0
 10
488.3847999976326
 20
272.8555448560045
 30
0.0
 10
488.8311582928137
 20
272.7123609369432
 30
0.0
 10
489.2923541630597
 20
272.5948333057077
 30
0.0
 10
489.7710492203054
 20
272.5017510375677
 30
0.0
 10
490.2587166769664
 20
272.4352423427186
 30
0.0
 10
490.7553339273684
 20
272.3948789796895
 30
0.0
 10
491.2549568336277
 20
272.3814519201571
 30
0.0
 10
491.6649851657123
 20
272.3926584965463
 30
0.0
 10
491.9831566861529
 20
272.413355465132
 30
0.0
 10
492.1342212249195
 20
272.4280197405519
 30
0.0
 10
492.2097262835453
 20
272.4353492368342
 30
0.0
 11
496.426943677652
 21
277.5289813534907
 31
0.0
 11
496.2083257053853
 21
277.7799901550546
 31
0.0
 11
495.9678821200884
 21
278.0102217280377
 31
0.0
 11
495.6547207628667
 21
278.2617364517843
 31
0.0
 11
495.3216936436859
 21
278.4858573073777
 31
0.0
 11
494.9443652809676
 21
278.699092380193
 31
0.0
 11
494.5527976117741
 21
278.8845127351439
 31
0.0
 11
494.1234642600349
 21
279.0532887965908
 31
0.0
 11
493.6843751715344
 21
279.1944203592609
 31
0.0
 11
493.2165292811336
 21
279.314042853812
 31
0.0
 11
492.7425972536347
 21
279.4063421744781
 31
0.0
 11
492.2507005469411
 21
279.4736654922514
 31
0.0
 11
491.7558809949587
 21
279.5139216806587
 31
0.0
 11
491.2549551811791
 21
279.527408044956
 31
0.0
 11
490.7540293673994
 21
279.5139216806587
 31
0.0
 11
490.2592098154171
 21
279.4736654922515
 31
0.0
 11
489.7673131087234
 21
279.4063421744781
 31
0.0
 11
489.2933810812247
 21
279.3140428538119
 31
0.0
 11
488.825535190824
 21
279.1944203592609
 31
0.0
 11
488.3864461023235
 21
279.0532887965908
 31
0.0
 11
487.9571127505843
 21
278.8845127351439
 31
0.0
 11
487.5655450813908
 21
278.6990923801931
 31
0.0
 11
487.1882167186726
 21
278.4858573073778
 31
0.0
 11
486.8551895994918
 21
278.2617364517844
 31
0.0
 11
486.54202824227
 21
278.0102217280378
 31
0.0
 11
486.276691113165
 21
277.7536344826574
 31
0.0
 11
486.0381978166098
 21
277.4714928373116
 31
0.0
 11
485.8479620925041
 21
277.1889319781287
 31
0.0
 11
485.6925372259269
 21
276.8854082267332
 31
0.0
 11
485.5835823937825
 21
276.5836627058633
 31
0.0
 11
485.5165868520796
 21
276.2696486822501
 31
0.0
 11
485.4940958702777
 21
275.9566938306843
 31
0.0
 11
485.5165868520796
 21
275.6437389791187
 31
0.0
 11
485.5835823937824
 21
275.3297249555056
 31
0.0
 11
485.6925372259268
 21
275.0279794346357
 31
0.0
 11
485.8479620925041
 21
274.7244556832399
 31
0.0
 11
486.0381978166097
 21
274.441894824057
 31
0.0
 11
486.276691113165
 21
274.1597531787114
 31
0.0
 11
486.54202824227
 21
273.903165933331
 31
0.0
 11
486.8551895994918
 21
273.6516512095843
 31
0.0
 11
487.1882167186726
 21
273.427530353991
 31
0.0
 11
487.5655450813908
 21
273.2142952811758
 31
0.0
 11
487.9571127505844
 21
273.0288749262249
 31
0.0
 11
488.3864461023235
 21
272.860098864778
 31
0.0
 11
488.825535190824
 21
272.7189673021078
 31
0.0
 11
489.2933810812248
 21
272.5993448075567
 31
0.0
 11
489.7673131087235
 21
272.5070454868906
 31
0.0
 11
490.2592098154171
 21
272.4397221691172
 31
0.0
 11
490.7540293673994
 21
272.3994659807102
 31
0.0
 11
491.2549551811791
 21
272.385979616413
 31
0.0
 11
491.7558809949587
 21
272.3994659807102
 31
0.0
 11
491.9831108418072
 21
272.4145627468383
 31
0.0
 11
492.2097262835453
 21
272.4353492368342
 31
0.0
  0
SPLINE
  5
E5
330
39
100
AcDbEntity
  8
1
  6
Continuous
 62
     7
100
AcDbSpline
210
0.0
220
0.0
230
1.0
 70
     8
 71
     3
 72
    59
 73
    55
 74
    53
 42
0.0000000001
 43
0.0000000001
 44
0.00000001
 40
0.0
 40
0.0
 40
0.0
 40
0.0
 40
0.3328651923268225
 40
0.665761114367162
 40
1.06741979025797
 40
1.468838798305426
 40
1.902250715066069
 40
2.335501159483306
 40
2.796817196309649
 40
3.258030103351418
 40
3.740926902230413
 40
4.223763035182756
 40
4.720245461026927
 40
5.216699839322689
 40
5.717807166082952
 40
6.21891449284316
 40
6.715368871138912
 40
7.211851296982978
 40
7.694687429935399
 40
8.177584228814393
 40
8.638797135856253
 40
9.100113172682598
 40
9.533363617099939
 40
9.96677553386056
 40
10.36819454190803
 40
10.76985321779867
 40
11.13896134094622
 40
11.50839734425431
 40
11.84902950637083
 40
12.19003325534112
 40
12.51084708735681
 40
12.83192840047516
 40
13.14569038571394
 40
13.45945237095261
 40
13.78053368407083
 40
14.10134751608665
 40
14.44235126505714
 40
14.78298342717361
 40
15.15241943048161
 40
15.52152755362924
 40
15.92318622951988
 40
16.3246052375674
 40
16.75801715432807
 40
17.19126759874536
 40
17.65258363557175
 40
18.11379654261343
 40
18.59669334149237
 40
19.07952947444489
 40
19.576011900289
 40
20.07246627858475
 40
20.57357360534501
 40
21.07468093210522
 40
21.30241172854283
 40
21.52997850248049
 40
21.52997850248049
 40
21.52997850248049
 40
21.52997850248049
 10
500.082966684702
 20
277.5289813534852
 30
0.0
 10
500.1542390287312
 20
277.6141292600705
 30
0.0
 10
500.2967902965665
 20
277.7844329339931
 30
0.0
 10
500.5561361901158
 20
278.0290373160337
 30
0.0
 10
500.8517079419165
 20
278.2663233860496
 30
0.0
 10
501.1944792488312
 20
278.4960644942048
 30
0.0
 10
501.5631311744819
 20
278.7036693383254
 30
0.0
 10
501.9636982446758
 20
278.8928758344964
 30
0.0
 10
502.3847992354469
 20
279.0578434256826
 30
0.0
 10
502.8311585096251
 20
279.2010266255421
 30
0.0
 10
503.2923540963981
 20
279.3185540825408
 30
0.0
 10
503.7710492669153
 20
279.4116378260982
 30
0.0
 10
504.2587165555021
 20
279.4781406419821
 30
0.0
 10
504.7553343667831
 20
279.5185261997464
 30
0.0
 10
505.2549551808594
 20
279.5318696812178
 30
0.0
 10
505.7545759968481
 20
279.5185262006763
 30
0.0
 10
506.2511938024449
 20
279.4781406383025
 30
0.0
 10
506.7388611116426
 20
279.4116378397422
 30
0.0
 10
507.2175562073642
 20
279.3185540331565
 30
0.0
 10
507.6787520674906
 20
279.2010268065477
 30
0.0
 10
508.1251103652668
 20
279.0578427837378
 30
0.0
 10
508.5462148920603
 20
278.8928781728544
 30
0.0
 10
508.9467695299884
 20
278.7036611982658
 30
0.0
 10
509.3154661211759
 20
278.4960940000714
 30
0.0
 10
509.6580824126535
 20
278.2662222386169
 30
0.0
 10
509.9636302562924
 20
278.0218389316791
 30
0.0
 10
510.2377827219704
 20
277.7578076815757
 30
0.0
 10
510.4710263869524
 20
277.4830503373244
 30
0.0
 10
510.6679054204208
 20
277.1923497853793
 30
0.0
 10
510.8210049626359
 20
276.8943641305725
 30
0.0
 10
510.9335524331457
 20
276.5856635110598
 30
0.0
 10
511.0001039435068
 20
276.2730928738232
 30
0.0
 10
511.0235792001942
 20
275.9566938306844
 30
0.0
 10
511.000103943507
 20
275.6402947875456
 30
0.0
 10
510.9335524331457
 20
275.3277241503089
 30
0.0
 10
510.821004962636
 20
275.0190235307964
 30
0.0
 10
510.6679054204209
 20
274.7210378759891
 30
0.0
 10
510.4710263869525
 20
274.4303373240455
 30
0.0
 10
510.2377827219704
 20
274.1555799797873
 30
0.0
 10
509.9636302562931
 20
273.8915487297118
 30
0.0
 10
509.6580824126511
 20
273.6471654226613
 30
0.0
 10
509.3154661211847
 20
273.4172936616453
 30
0.0
 10
508.9467695299527
 20
273.2097264616892
 30
0.0
 10
508.5462148921955
 20
273.0205094939195
 30
0.0
 10
508.1251103647257
 20
272.8555448560045
 30
0.0
 10
507.6787520695445
 20
272.7123609369432
 30
0.0
 10
507.2175561992984
 20
272.5948333057077
 30
0.0
 10
506.738861142053
 20
272.5017510375677
 30
0.0
 10
506.2511936853917
 20
272.4352423427185
 30
0.0
 10
505.7545764349896
 20
272.3948789796895
 30
0.0
 10
505.2549535287307
 20
272.381451920157
 30
0.0
 10
504.8449251966459
 20
272.3926584965466
 30
0.0
 10
504.5267536762057
 20
272.4133554651318
 30
0.0
 10
504.3756891374395
 20
272.4280197405517
 30
0.0
 10
504.3001840788135
 20
272.4353492368341
 30
0.0
 11
500.082966684702
 21
277.5289813534852
 31
0.0
 11
500.3015846569706
 21
277.7799901550519
 31
0.0
 11
500.54202824227
 21
278.0102217280376
 31
0.0
 11
500.8551895994917
 21
278.2617364517843
 31
0.0
 11
501.1882167186726
 21
278.4858573073777
 31
0.0
 11
501.5655450813908
 21
278.699092380193
 31
0.0
 11
501.9571127505843
 21
278.8845127351439
 31
0.0
 11
502.3864461023235
 21
279.0532887965908
 31
0.0
 11
502.825535190824
 21
279.1944203592609
 31
0.0
 11
503.2933810812248
 21
279.314042853812
 31
0.0
 11
503.7673131087234
 21
279.4063421744781
 31
0.0
 11
504.2592098154171
 21
279.4736654922514
 31
0.0
 11
504.7540293673994
 21
279.5139216806587
 31
0.0
 11
505.2549551811791
 21
279.527408044956
 31
0.0
 11
505.7558809949588
 21
279.5139216806587
 31
0.0
 11
506.2507005469411
 21
279.4736654922515
 31
0.0
 11
506.7425972536346
 21
279.4063421744781
 31
0.0
 11
507.2165292811333
 21
279.3140428538119
 31
0.0
 11
507.6843751715342
 21
279.1944203592609
 31
0.0
 11
508.1234642600348
 21
279.0532887965908
 31
0.0
 11
508.552797611774
 21
278.8845127351439
 31
0.0
 11
508.9443652809677
 21
278.6990923801931
 31
0.0
 11
509.3216936436858
 21
278.4858573073778
 31
0.0
 11
509.6547207628667
 21
278.2617364517844
 31
0.0
 11
509.9678821200883
 21
278.0102217280378
 31
0.0
 11
510.2332192491932
 21
277.7536344826574
 31
0.0
 11
510.4717125457485
 21
277.4714928373116
 31
0.0
 11
510.6619482698541
 21
277.1889319781287
 31
0.0
 11
510.8173731364314
 21
276.8854082267332
 31
0.0
 11
510.9263279685757
 21
276.5836627058633
 31
0.0
 11
510.9933235102786
 21
276.2696486822501
 31
0.0
 11
511.0158144920805
 21
275.9566938306843
 31
0.0
 11
510.9933235102786
 21
275.6437389791187
 31
0.0
 11
510.9263279685759
 21
275.3297249555056
 31
0.0
 11
510.8173731364315
 21
275.0279794346357
 31
0.0
 11
510.6619482698542
 21
274.7244556832399
 31
0.0
 11
510.4717125457486
 21
274.441894824057
 31
0.0
 11
510.2332192491933
 21
274.1597531787114
 31
0.0
 11
509.9678821200883
 21
273.903165933331
 31
0.0
 11
509.6547207628667
 21
273.6516512095843
 31
0.0
 11
509.3216936436858
 21
273.427530353991
 31
0.0
 11
508.9443652809675
 21
273.2142952811758
 31
0.0
 11
508.5527976117739
 21
273.0288749262249
 31
0.0
 11
508.1234642600347
 21
272.860098864778
 31
0.0
 11
507.6843751715343
 21
272.7189673021078
 31
0.0
 11
507.2165292811335
 21
272.5993448075567
 31
0.0
 11
506.7425972536347
 21
272.5070454868906
 31
0.0
 11
506.2507005469411
 21
272.4397221691172
 31
0.0
 11
505.7558809949588
 21
272.3994659807102
 31
0.0
 11
505.2549551811791
 21
272.385979616413
 31
0.0
 11
504.7540293673994
 21
272.3994659807103
 31
0.0
 11
504.5267995205514
 21
272.4145627468382
 31
0.0
 11
504.3001840788135
 21
272.4353492368341
 31
0.0
  0
ARC
  5
E6
330
39
100
AcDbEntity
  8
1
  6
Continuous
 62
     7
100
AcDbCircle
 10
146.6726541636004
 20
279.8142307952434
 30
0.0
 40
1.000000000000076
100
AcDbArc
 50
74.66244233044409
 51
90.0
  0
ARC
  5
E7
330
39
100
AcDbEntity
  8
1
  6
Continuous
 62
     7
100
AcDbCircle
 10
144.882582294301
 20
280.8142307952434
 30
0.0
 40
0.9999999999999836
100
AcDbArc
 50
30.00000000000054
 51
90.0
  0
ARC
  5
E8
330
39
100
AcDbEntity
  8
1
  6
Continuous
 62
     7
100
AcDbCircle
 10
146.6146331018699
 20
281.8142307952434
 30
0.0
 40
1.000000000000058
100
AcDbArc
 50
-150.0000000000019
 51
-90.0
  0
ARC
  5
E9
330
39
100
AcDbEntity
  8
1
  6
Continuous
 62
     7
100
AcDbCircle
 10
123.5566120401393
 20
279.8142307952434
 30
0.0
 40
1.0
100
AcDbArc
 50
90.0
 51
105.3375576695478
  0
ARC
  5
EA
330
39
100
AcDbEntity
  8
1
  6
Continuous
 62
     7
100
AcDbCircle
 10
125.3466839094386
 20
280.8142307952434
 30
0.0
 40
1.0
100
AcDbArc
 50
90.0
 51
149.9999999999958
  0
ARC
  5
EB
330
39
100
AcDbEntity
  8
1
  6
Continuous
 62
     7
100
AcDbCircle
 10
123.6146331018699
 20
281.8142307952434
 30
0.0
 40
1.0
100
AcDbArc
 50
-90.0
 51
-30.00000000000095
  0
ARC
  5
EC
330
39
100
AcDbEntity
  8
1
  6
Continuous
 62
     7
100
AcDbCircle
 10
488.4870059887473
 20
280.8142307952427
 30
0.0
 40
1.000000000000011
100
AcDbArc
 50
137.058597135121
 51
149.9999999999978
  0
ARC
  5
ED
330
39
100
AcDbEntity
  8
1
  6
Continuous
 62
     7
100
AcDbCircle
 10
486.7549551811784
 20
281.8142307952427
 30
0.0
 40
1.0
100
AcDbArc
 50
-90.0
 51
-29.99999999999729
  0
ARC
  5
EE
330
39
100
AcDbEntity
  8
1
  6
Continuous
 62
     7
100
AcDbCircle
 10
488.4870059887473
 20
280.8142307952427
 30
0.0
 40
1.0
100
AcDbArc
 50
90.0
 51
137.058597135121
  0
ARC
  5
EF
330
39
100
AcDbEntity
  8
1
  6
Continuous
 62
     7
100
AcDbCircle
 10
486.6969341194478
 20
279.8142307952427
 30
0.0
 40
1.0
100
AcDbArc
 50
90.0
 51
105.3375576695503
  0
ARC
  5
F0
330
39
100
AcDbEntity
  8
1
  6
Continuous
 62
     7
100
AcDbCircle
 10
508.0229043736096
 20
280.8142307952427
 30
0.0
 40
0.9999999999999836
100
AcDbArc
 50
30.00000000000054
 51
42.94140286488343
  0
ARC
  5
F1
330
39
100
AcDbEntity
  8
1
  6
Continuous
 62
     7
100
AcDbCircle
 10
509.7549551811784
 20
281.8142307952427
 30
0.0
 40
0.9999999999999344
100
AcDbArc
 50
-149.9999999999978
 51
-90.0
  0
ARC
  5
F2
330
39
100
AcDbEntity
  8
1
  6
Continuous
 62
     7
100
AcDbCircle
 10
508.0229043736096
 20
280.8142307952427
 30
0.0
 40
0.9999999999999277
100
AcDbArc
 50
42.94140286488343
 51
90.0
  0
ARC
  5
F3
330
39
100
AcDbEntity
  8
1
  6
Continuous
 62
     7
100
AcDbCircle
 10
509.812976242909
 20
279.8142307952427
 30
0.0
 40
1.000000000000109
100
AcDbArc
 50
74.66244233044966
 51
90.0
  0
ENDBLK
  5
3B
330
39
100
AcDbEntity
  8
0
100
AcDbBlockEnd
  0
BLOCK
  5
3D
330
3C
100
AcDbEntity
  8
0
100
AcDbBlockBegin
  2
61-1-16-170
 70
     0
 71
     0
 10
-86.21582803369762
 20
323.2100281160255
 30
0.0
  3
61-1-16-170
  1

  0
LINE
  5
F4
330
3C
100
AcDbEntity
  8
1
  6
PHANTOM
 62
     4
100
AcDbLine
 10
124.6014126925109
 20
314.3142307952438
 30
0.0
 11
146.0073491102975
 21
314.3142307952438
 31
0.0
  0
LINE
  5
F5
330
3C
100
AcDbEntity
  8
1
  6
Continuous
 62
     7
100
AcDbLine
 10
127.1146331018699
 20
286.3142307952438
 30
0.0
 11
127.1146331018699
 21
314.3142307952438
 31
0.0
  0
LINE
  5
F6
330
3C
100
AcDbEntity
  8
1
  6
Continuous
 62
     7
100
AcDbLine
 10
143.1146331018699
 20
286.3142307952436
 30
0.0
 11
143.1146331018699
 21
314.3142307952438
 31
0.0
  0
LINE
  5
F7
330
3C
100
AcDbEntity
  8
1
  6
Continuous
 62
     7
100
AcDbLine
 10
127.7282260958838
 20
281.3142307952436
 30
0.0
 11
142.501040107856
 21
281.3142307952436
 31
0.0
  0
LINE
  5
F8
330
3C
100
AcDbEntity
  8
1
  6
Continuous
 62
     7
100
AcDbLine
 10
143.1146331018699
 20
286.3142307952436
 30
0.0
 11
127.1146331018699
 21
286.3142307952438
 31
0.0
  0
LINE
  5
F9
330
3C
100
AcDbEntity
  8
1
  6
PHANTOM
 62
     4
100
AcDbLine
 10
146.4888552957319
 20
412.1559361776149
 30
0.0
 11
124.136681889649
 21
412.1559361776149
 31
0.0
  0
LINE
  5
FA
330
3C
100
AcDbEntity
  8
1
  6
Continuous
 62
     7
100
AcDbLine
 10
127.1146331018699
 20
652.155936177615
 30
0.0
 11
127.1146331018699
 21
412.1559361776149
 31
0.0
  0
LINE
  5
FB
330
3C
100
AcDbEntity
  8
1
  6
Continuous
 62
     7
100
AcDbLine
 10
143.1146331018698
 20
652.155936177615
 30
0.0
 11
143.1146331018699
 21
412.1559361776149
 31
0.0
  0
LINE
  5
FC
330
3C
100
AcDbEntity
  8
1
  6
Continuous
 62
     7
100
AcDbLine
 10
266.2549551811784
 20
286.3142307952436
 30
0.0
 11
250.2549551811784
 21
286.3142307952438
 31
0.0
  0
LINE
  5
FD
330
3C
100
AcDbEntity
  8
1
  6
Continuous
 62
     7
100
AcDbLine
 10
258.2549551811784
 20
281.3142307952436
 30
0.0
 11
250.8685481751923
 21
281.3142307952436
 31
0.0
  0
LINE
  5
FE
330
3C
100
AcDbEntity
  8
1
  6
Continuous
 62
     7
100
AcDbLine
 10
265.6413621871645
 20
281.3142307952436
 30
0.0
 11
258.2549551811784
 21
281.3142307952436
 31
0.0
  0
LINE
  5
FF
330
3C
100
AcDbEntity
  8
1
  6
Continuous
 62
     7
100
AcDbLine
 10
471.2549551811784
 20
322.3142307952438
 30
0.0
 11
285.2549551811784
 21
322.3142307952438
 31
0.0
  0
LINE
  5
100
330
3C
100
AcDbEntity
  8
1
  6
Continuous
 62
     7
100
AcDbLine
 10
490.2549551811784
 20
281.8142307952438
 30
0.0
 11
490.2549551811784
 21
287.3142307952438
 31
0.0
  0
LINE
  5
101
330
3C
100
AcDbEntity
  8
1
  6
Continuous
 62
     7
100
AcDbLine
 10
506.2549551811784
 20
287.3142307952438
 30
0.0
 11
506.2549551811784
 21
281.8142307952438
 31
0.0
  0
LINE
  5
102
330
3C
100
AcDbEntity
  8
1
  6
Continuous
 62
     7
100
AcDbLine
 10
471.2549551811784
 20
306.3142307952438
 30
0.0
 11
285.2549551811784
 21
306.3142307952438
 31
0.0
  0
LINE
  5
103
330
3C
100
AcDbEntity
  8
1
  6
Continuous
 62
     7
100
AcDbLine
 10
250.2549551811784
 20
286.3142307952438
 30
0.0
 11
250.2549551811784
 21
287.3142307952438
 31
0.0
  0
LINE
  5
104
330
3C
100
AcDbEntity
  8
1
  6
Continuous
 62
     7
100
AcDbLine
 10
266.2549551811784
 20
286.3142307952436
 30
0.0
 11
266.2549551811784
 21
287.3142307952436
 31
0.0
  0
ARC
  5
105
330
3C
100
AcDbEntity
  8
1
  6
Continuous
 62
     7
100
AcDbCircle
 10
135.1146331018699
 20
652.155936177615
 30
0.0
 40
7.999999999999886
100
AcDbArc
 50
0.0
 51
180.0
  0
ARC
  5
106
330
3C
100
AcDbEntity
  8
1
  6
Continuous
 62
     7
100
AcDbCircle
 10
135.1146331018699
 20
314.3142307952438
 30
0.0
 40
8.0
100
AcDbArc
 50
0.0
 51
180.0
  0
ARC
  5
107
330
3C
100
AcDbEntity
  8
1
  6
Continuous
 62
     7
100
AcDbCircle
 10
139.9046068071517
 20
284.1705110880213
 30
0.0
 40
3.860026294718298
100
AcDbArc
 50
-47.72834450358248
 51
0.0
  0
ARC
  5
108
330
3C
100
AcDbEntity
  8
1
  6
Continuous
 62
     7
100
AcDbCircle
 10
130.3246593965882
 20
284.1705110880213
 30
0.0
 40
3.86002629471834
100
AcDbArc
 50
146.2642089999702
 51
180.0
  0
ARC
  5
109
330
3C
100
AcDbEntity
  8
1
  6
Continuous
 62
     7
100
AcDbCircle
 10
130.3246593965882
 20
284.1705110880213
 30
0.0
 40
3.86002629471831
100
AcDbArc
 50
180.0
 51
-132.2716554964188
  0
ARC
  5
10A
330
3C
100
AcDbEntity
  8
1
  6
Continuous
 62
     7
100
AcDbCircle
 10
139.9046068071517
 20
284.1705110880213
 30
0.0
 40
3.860026294718182
100
AcDbArc
 50
0.0
 51
33.73579100002785
  0
ARC
  5
10B
330
3C
100
AcDbEntity
  8
1
  6
Continuous
 62
     7
100
AcDbCircle
 10
135.1146331018699
 20
412.1559361776149
 30
0.0
 40
8.650000000000171
100
AcDbArc
 50
157.6465744006663
 51
-90.0
  0
ARC
  5
10C
330
3C
100
AcDbEntity
  8
1
  6
Continuous
 62
     7
100
AcDbCircle
 10
135.1146331018699
 20
412.1559361776149
 30
0.0
 40
8.650000000000091
100
AcDbArc
 50
-90.0
 51
22.35342559933376
  0
ARC
  5
10D
330
3C
100
AcDbEntity
  8
1
  6
Continuous
 62
     7
100
AcDbCircle
 10
135.1146331018699
 20
412.1559361776149
 30
0.0
 40
8.000000000000014
100
AcDbArc
 50
180.0
 51
0.0
  0
ARC
  5
10E
330
3C
100
AcDbEntity
  8
1
  6
Continuous
 62
     7
100
AcDbCircle
 10
471.2549551811784
 20
287.3142307952438
 30
0.0
 40
35.0
100
AcDbArc
 50
0.0
 51
90.0
  0
ARC
  5
10F
330
3C
100
AcDbEntity
  8
1
  6
Continuous
 62
     7
100
AcDbCircle
 10
471.2549551811784
 20
287.3142307952438
 30
0.0
 40
19.0
100
AcDbArc
 50
0.0
 51
90.0
  0
ARC
  5
110
330
3C
100
AcDbEntity
  8
1
  6
Continuous
 62
     7
100
AcDbCircle
 10
285.2549551811784
 20
287.3142307952436
 30
0.0
 40
35.00000000000023
100
AcDbArc
 50
90.0
 51
179.9999999999996
  0
ARC
  5
111
330
3C
100
AcDbEntity
  8
1
  6
Continuous
 62
     7
100
AcDbCircle
 10
285.2549551811784
 20
287.3142307952436
 30
0.0
 40
19.00000000000023
100
AcDbArc
 50
90.0
 51
180.0
  0
ARC
  5
112
330
3C
100
AcDbEntity
  8
1
  6
Continuous
 62
     7
100
AcDbCircle
 10
263.0449288864602
 20
284.1705110880213
 30
0.0
 40
3.860026294718298
100
AcDbArc
 50
-47.72834450358248
 51
0.0
  0
ARC
  5
113
330
3C
100
AcDbEntity
  8
1
  6
Continuous
 62
     7
100
AcDbCircle
 10
253.4649814758967
 20
284.1705110880213
 30
0.0
 40
3.860026294718351
100
AcDbArc
 50
146.2642089999703
 51
180.0
  0
ARC
  5
114
330
3C
100
AcDbEntity
  8
1
  6
Continuous
 62
     7
100
AcDbCircle
 10
253.4649814758967
 20
284.1705110880213
 30
0.0
 40
3.860026294718296
100
AcDbArc
 50
180.0
 51
-132.2716554964188
  0
ARC
  5
115
330
3C
100
AcDbEntity
  8
1
  6
Continuous
 62
     7
100
AcDbCircle
 10
263.0449288864602
 20
284.1705110880213
 30
0.0
 40
3.860026294718239
100
AcDbArc
 50
0.0
 51
33.73579100002785
  0
ENDBLK
  5
3E
330
3C
100
AcDbEntity
  8
0
100
AcDbBlockEnd
  0
BLOCK
  5
42
330
3F
100
AcDbEntity
  8
0
100
AcDbBlockBegin
  2
A20J-60X-16
 70
     0
 71
     0
 10
162.2231557767677
 20
264.3142307952435
 30
0.0
  3
A20J-60X-16
  1

  0
INSERT
  5
40
330
3F
100
AcDbEntity
  8
0
100
AcDbBlockReference
  2
32-1-16
 10
279.9019112083785
 20
504.8491420378472
 30
0.0
  0
INSERT
  5
41
330
3F
100
AcDbEntity
  8
0
100
AcDbBlockReference
  2
61-1-16-170
 10
-86.21582803369762
 20
323.2100281160255
 30
0.0
  0
LINE
  5
116
330
3F
100
AcDbEntity
  8
1
  6
PHANTOM
 62
     4
100
AcDbLine
 10
258.2549551811784
 20
278.3142307952436
 30
0.0
 11
258.2549551811784
 21
287.3142307952436
 31
0.0
  0
LINE
  5
117
330
3F
100
AcDbEntity
  8
1
  6
PHANTOM
 62
     4
100
AcDbLine
 10
285.2549551811784
 20
314.3142307952438
 30
0.0
 11
471.2549551811784
 21
314.3142307952438
 31
0.0
  0
LINE
  5
118
330
3F
100
AcDbEntity
  8
1
  6
PHANTOM
 62
     4
100
AcDbLine
 10
135.1146331018699
 20
326.465711787964
 30
0.0
 11
135.1146331018699
 21
265.3142307952435
 31
0.0
  0
ARC
  5
119
330
3F
100
AcDbEntity
  8
1
  6
PHANTOM
 62
     4
100
AcDbCircle
 10
285.2549551811784
 20
287.3142307952436
 30
0.0
 40
27.00000000000023
100
AcDbArc
 50
90.0
 51
180.0
  0
ARC
  5
11A
330
3F
100
AcDbEntity
  8
1
  6
PHANTOM
 62
     4
100
AcDbCircle
 10
471.2549551811784
 20
287.3142307952438
 30
0.0
 40
27.0
100
AcDbArc
 50
0.0
 51
90.0
  0
ENDBLK
  5
43
330
3F
100
AcDbEntity
  8
0
100
AcDbBlockEnd
  0
BLOCK
  5
45
330
44
100
AcDbEntity
  8
0
100
AcDbBlockBegin
  2
A20-0-13
 70
     0
 71
     0
 10
238.1146331018699
 20
223.8142307952435
 30
0.0
  3
A20-0-13
  1

  0
LINE
  5
11B
330
44
100
AcDbEntity
  8
1
  6
Continuous
 62
     7
100
AcDbLine
 10
148.1146331018699
 20
271.8142307952434
 30
0.0
 11
148.1146331018699
 21
270.3142307952434
 31
0.0
  0
LINE
  5
11C
330
44
100
AcDbEntity
  8
1
  6
Continuous
 62
     7
100
AcDbLine
 10
148.8055343092353
 20
260.3158466535238
 30
0.0
 11
137.0210610649476
 21
248.6943011886455
 31
0.0
  0
LINE
  5
11D
330
44
100
AcDbEntity
  8
1
  6
Continuous
 62
     7
100
AcDbLine
 10
148.1146331018699
 20
265.7878967562539
 30
0.0
 11
148.1146331018699
 21
265.5515438049463
 31
0.0
  0
LINE
  5
11E
330
44
100
AcDbEntity
  8
1
  6
Continuous
 62
     7
100
AcDbLine
 10
122.1146331018699
 20
265.7878967562539
 30
0.0
 11
122.1146331018699
 21
246.8142307952435
 31
0.0
  0
LINE
  5
11F
330
44
100
AcDbEntity
  8
1
  6
Continuous
 62
     7
100
AcDbLine
 10
154.2836281935896
 20
259.5244482274368
 30
0.0
 11
153.689773614178
 21
259.5666048398675
 31
0.0
  0
LINE
  5
120
330
44
100
AcDbEntity
  8
1
  6
Continuous
 62
     7
100
AcDbLine
 10
157.1146331018699
 20
258.8142307952435
 30
0.0
 11
157.1146331018699
 21
234.8142307952434
 31
0.0
  0
LINE
  5
121
330
44
100
AcDbEntity
  8
1
  6
Continuous
 62
     7
100
AcDbLine
 10
154.2836281935896
 20
234.1040133630501
 30
0.0
 11
157.1146331018699
 21
234.3049810424205
 31
0.0
  0
LINE
  5
122
330
44
100
AcDbEntity
  8
1
  6
Continuous
 62
     7
100
AcDbLine
 10
148.1146331018699
 20
267.5642307952435
 30
0.0
 11
148.1146331018699
 21
265.7878967562539
 31
0.0
  0
LINE
  5
123
330
44
100
AcDbEntity
  8
1
  6
Continuous
 62
     7
100
AcDbLine
 10
136.1146331018699
 20
232.8142307952434
 30
0.0
 11
154.2836281935896
 21
234.1040133630501
 31
0.0
  0
LINE
  5
124
330
44
100
AcDbEntity
  8
1
  6
Continuous
 62
     7
100
AcDbLine
 10
157.1146331018699
 20
234.3049810424205
 30
0.0
 11
157.1146331018699
 21
234.8142307952434
 31
0.0
  0
LINE
  5
125
330
44
100
AcDbEntity
  8
1
  6
Continuous
 62
     7
100
AcDbLine
 10
157.1146331018699
 20
234.8142307952434
 30
0.0
 11
157.382582294301
 21
234.8142307952434
 31
0.0
  0
LINE
  5
126
330
44
100
AcDbEntity
  8
1
  6
Continuous
 62
     7
100
AcDbLine
 10
157.382582294301
 20
234.8142307952434
 30
0.0
 11
159.1146331018699
 21
234.8142307952434
 31
0.0
  0
LINE
  5
127
330
44
100
AcDbEntity
  8
1
  6
Continuous
 62
     7
100
AcDbLine
 10
159.1146331018699
 20
234.8142307952434
 30
0.0
 11
160.6146331018699
 21
234.8142307952434
 31
0.0
  0
LINE
  5
128
330
44
100
AcDbEntity
  8
1
  6
Continuous
 62
     2
100
AcDbLine
 10
159.1146331018699
 20
235.8142307952434
 30
0.0
 11
160.6146331018699
 21
235.8142307952435
 31
0.0
  0
LINE
  5
129
330
44
100
AcDbEntity
  8
1
  6
Continuous
 62
     2
100
AcDbLine
 10
157.382582294301
 20
234.8142307952434
 30
0.0
 11
159.1146331018699
 21
235.8142307952434
 31
0.0
  0
LINE
  5
12A
330
44
100
AcDbEntity
  8
1
  6
Continuous
 62
     7
100
AcDbLine
 10
159.1146331018699
 20
234.8142307952434
 30
0.0
 11
159.1146331018699
 21
258.8142307952435
 31
0.0
  0
LINE
  5
12B
330
44
100
AcDbEntity
  8
1
  6
Continuous
 62
     2
100
AcDbLine
 10
159.1146331018699
 20
257.8142307952435
 30
0.0
 11
157.382582294301
 21
258.8142307952435
 31
0.0
  0
LINE
  5
12C
330
44
100
AcDbEntity
  8
1
  6
Continuous
 62
     2
100
AcDbLine
 10
159.1146331018699
 20
257.8142307952435
 30
0.0
 11
160.6146331018699
 21
257.8142307952435
 31
0.0
  0
LINE
  5
12D
330
44
100
AcDbEntity
  8
1
  6
Continuous
 62
     7
100
AcDbLine
 10
160.6146331018699
 20
258.8142307952435
 30
0.0
 11
159.1146331018699
 21
258.8142307952435
 31
0.0
  0
LINE
  5
12E
330
44
100
AcDbEntity
  8
1
  6
Continuous
 62
     7
100
AcDbLine
 10
159.1146331018699
 20
258.8142307952435
 30
0.0
 11
157.382582294301
 21
258.8142307952435
 31
0.0
  0
LINE
  5
12F
330
44
100
AcDbEntity
  8
1
  6
Continuous
 62
     7
100
AcDbLine
 10
157.382582294301
 20
258.8142307952435
 30
0.0
 11
157.1146331018699
 21
258.8142307952435
 31
0.0
  0
LINE
  5
130
330
44
100
AcDbEntity
  8
1
  6
Continuous
 62
     7
100
AcDbLine
 10
157.1146331018699
 20
258.8142307952435
 30
0.0
 11
157.1146331018699
 21
259.3234805480664
 31
0.0
  0
LINE
  5
131
330
44
100
AcDbEntity
  8
1
  6
Continuous
 62
     7
100
AcDbLine
 10
157.1146331018699
 20
259.3234805480664
 30
0.0
 11
154.2836281935896
 21
259.5244482274368
 31
0.0
  0
LINE
  5
132
330
44
100
AcDbEntity
  8
1
  6
Continuous
 62
     7
100
AcDbLine
 10
148.1146331018699
 20
270.3142307952434
 30
0.0
 11
122.1146331018699
 21
270.3142307952434
 31
0.0
  0
LINE
  5
133
330
44
100
AcDbEntity
  8
1
  6
Continuous
 62
     7
100
AcDbLine
 10
148.1146331018699
 20
270.3142307952434
 30
0.0
 11
148.1146331018699
 21
268.5821799876745
 31
0.0
  0
LINE
  5
134
330
44
100
AcDbEntity
  8
1
  6
Continuous
 62
     7
100
AcDbLine
 10
122.1146331018699
 20
270.3142307952434
 30
0.0
 11
122.1146331018699
 21
271.8142307952434
 31
0.0
  0
LINE
  5
135
330
44
100
AcDbEntity
  8
1
  6
Continuous
 62
     7
100
AcDbLine
 10
122.1146331018699
 20
268.5821799876745
 30
0.0
 11
122.1146331018699
 21
270.3142307952434
 31
0.0
  0
LINE
  5
136
330
44
100
AcDbEntity
  8
1
  6
Continuous
 62
     7
100
AcDbLine
 10
122.1146331018699
 20
268.5821799876745
 30
0.0
 11
122.1146331018699
 21
265.7878967562539
 31
0.0
  0
LINE
  5
137
330
44
100
AcDbEntity
  8
1
  6
Continuous
 62
     2
100
AcDbLine
 10
123.1146331018699
 20
270.3142307952434
 30
0.0
 11
123.1146331018699
 21
271.8142307952434
 31
0.0
  0
LINE
  5
138
330
44
100
AcDbEntity
  8
1
  6
Continuous
 62
     2
100
AcDbLine
 10
123.1146331018699
 20
270.3142307952434
 30
0.0
 11
122.1146331018699
 21
268.5821799876745
 31
0.0
  0
LINE
  5
139
330
44
100
AcDbEntity
  8
1
  6
Continuous
 62
     7
100
AcDbLine
 10
148.1146331018699
 20
268.5821799876745
 30
0.0
 11
148.1146331018699
 21
267.5642307952435
 31
0.0
  0
LINE
  5
13A
330
44
100
AcDbEntity
  8
1
  6
Continuous
 62
     2
100
AcDbLine
 10
148.1146331018699
 20
268.5821799876745
 30
0.0
 11
147.1146331018699
 21
270.3142307952434
 31
0.0
  0
LINE
  5
13B
330
44
100
AcDbEntity
  8
1
  6
Continuous
 62
     2
100
AcDbLine
 10
147.1146331018699
 20
270.3142307952434
 30
0.0
 11
147.1146331018699
 21
271.8142307952434
 31
0.0
  0
LINE
  5
13C
330
44
100
AcDbEntity
  8
1
  6
Continuous
 62
     7
100
AcDbLine
 10
143.1146331018699
 20
638.6528529266741
 30
0.0
 11
154.2836281935896
 21
639.4457187454217
 31
0.0
  0
LINE
  5
13D
330
44
100
AcDbEntity
  8
1
  6
Continuous
 62
     7
100
AcDbLine
 10
160.6146331018699
 20
664.155936177615
 30
0.0
 11
159.1146331018699
 21
664.155936177615
 31
0.0
  0
LINE
  5
13E
330
44
100
AcDbEntity
  8
1
  6
PHANTOM
 62
     4
100
AcDbLine
 10
115.4551458518837
 20
652.1559361776152
 30
0.0
 11
197.4837686423716
 21
652.1559361776152
 31
0.0
  0
LINE
  5
13F
330
44
100
AcDbEntity
  8
1
  6
Continuous
 62
     7
100
AcDbLine
 10
154.2836281935896
 20
639.4457187454217
 30
0.0
 11
157.1146331018699
 21
639.6466864247922
 31
0.0
  0
LINE
  5
140
330
44
100
AcDbEntity
  8
1
  6
Continuous
 62
     7
100
AcDbLine
 10
157.1146331018699
 20
664.6651859304378
 30
0.0
 11
155.0149141264866
 21
664.8142410057502
 31
0.0
  0
LINE
  5
141
330
44
100
AcDbEntity
  8
1
  6
Continuous
 62
     7
100
AcDbLine
 10
157.1146331018699
 20
664.155936177615
 30
0.0
 11
157.1146331018699
 21
640.155936177615
 31
0.0
  0
LINE
  5
142
330
44
100
AcDbEntity
  8
1
  6
Continuous
 62
     7
100
AcDbLine
 10
157.1146331018699
 20
639.6466864247922
 30
0.0
 11
157.1146331018699
 21
640.155936177615
 31
0.0
  0
LINE
  5
143
330
44
100
AcDbEntity
  8
1
  6
Continuous
 62
     7
100
AcDbLine
 10
157.1146331018699
 20
640.155936177615
 30
0.0
 11
157.3825822943011
 21
640.155936177615
 31
0.0
  0
LINE
  5
144
330
44
100
AcDbEntity
  8
1
  6
Continuous
 62
     7
100
AcDbLine
 10
157.3825822943011
 20
640.155936177615
 30
0.0
 11
159.1146331018699
 21
640.155936177615
 31
0.0
  0
LINE
  5
145
330
44
100
AcDbEntity
  8
1
  6
Continuous
 62
     7
100
AcDbLine
 10
159.1146331018699
 20
640.155936177615
 30
0.0
 11
160.6146331018699
 21
640.155936177615
 31
0.0
  0
LINE
  5
146
330
44
100
AcDbEntity
  8
1
  6
Continuous
 62
     2
100
AcDbLine
 10
159.1146331018699
 20
641.155936177615
 30
0.0
 11
160.6146331018699
 21
641.155936177615
 31
0.0
  0
LINE
  5
147
330
44
100
AcDbEntity
  8
1
  6
Continuous
 62
     2
100
AcDbLine
 10
157.3825822943011
 20
640.155936177615
 30
0.0
 11
159.1146331018699
 21
641.155936177615
 31
0.0
  0
LINE
  5
148
330
44
100
AcDbEntity
  8
1
  6
Continuous
 62
     7
100
AcDbLine
 10
159.1146331018699
 20
640.155936177615
 30
0.0
 11
159.1146331018699
 21
664.155936177615
 31
0.0
  0
LINE
  5
149
330
44
100
AcDbEntity
  8
1
  6
Continuous
 62
     2
100
AcDbLine
 10
159.1146331018699
 20
663.155936177615
 30
0.0
 11
157.3825822943011
 21
664.155936177615
 31
0.0
  0
LINE
  5
14A
330
44
100
AcDbEntity
  8
1
  6
Continuous
 62
     2
100
AcDbLine
 10
159.1146331018699
 20
663.155936177615
 30
0.0
 11
160.6146331018699
 21
663.155936177615
 31
0.0
  0
LINE
  5
14B
330
44
100
AcDbEntity
  8
1
  6
Continuous
 62
     7
100
AcDbLine
 10
159.1146331018699
 20
664.155936177615
 30
0.0
 11
157.3825822943011
 21
664.155936177615
 31
0.0
  0
LINE
  5
14C
330
44
100
AcDbEntity
  8
1
  6
Continuous
 62
     7
100
AcDbLine
 10
157.3825822943011
 20
664.155936177615
 30
0.0
 11
157.1146331018699
 21
664.155936177615
 31
0.0
  0
LINE
  5
14D
330
44
100
AcDbEntity
  8
1
  6
Continuous
 62
     7
100
AcDbLine
 10
157.1146331018699
 20
664.155936177615
 30
0.0
 11
157.1146331018699
 21
664.6651859304378
 31
0.0
  0
LINE
  5
14E
330
44
100
AcDbEntity
  8
1
  6
Continuous
 62
     7
100
AcDbLine
 10
125.6146331018704
 20
711.1559361776145
 30
0.0
 11
144.6146331018704
 21
711.1559361776145
 31
0.0
  0
LINE
  5
14F
330
44
100
AcDbEntity
  8
1
  6
Continuous
 62
     7
100
AcDbLine
 10
125.6146331018704
 20
711.1559361776145
 30
0.0
 11
124.6146331018704
 21
710.1559361776145
 31
0.0
  0
LINE
  5
150
330
44
100
AcDbEntity
  8
1
  6
Continuous
 62
     7
100
AcDbLine
 10
124.6146331018704
 20
697.1559361776145
 30
0.0
 11
124.6146331018704
 21
710.1559361776145
 31
0.0
  0
LINE
  5
151
330
44
100
AcDbEntity
  8
1
  6
Continuous
 62
     7
100
AcDbLine
 10
124.6146331018704
 20
710.1559361776145
 30
0.0
 11
145.6146331018704
 21
710.1559361776145
 31
0.0
  0
LINE
  5
152
330
44
100
AcDbEntity
  8
1
  6
Continuous
 62
     7
100
AcDbLine
 10
145.6146331018704
 20
698.8879869851834
 30
0.0
 11
124.6146331018704
 21
698.8879869851834
 31
0.0
  0
LINE
  5
153
330
44
100
AcDbEntity
  8
1
  6
Continuous
 62
     7
100
AcDbLine
 10
145.6146331018704
 20
710.1559361776145
 30
0.0
 11
144.6146331018704
 21
711.1559361776145
 31
0.0
  0
LINE
  5
154
330
44
100
AcDbEntity
  8
1
  6
Continuous
 62
     7
100
AcDbLine
 10
145.6146331018704
 20
710.1559361776145
 30
0.0
 11
145.6146331018704
 21
697.1559361776145
 31
0.0
  0
LINE
  5
155
330
44
100
AcDbEntity
  8
1
  6
Continuous
 62
     7
100
AcDbLine
 10
143.8646331018704
 20
676.7841189359077
 30
0.0
 11
143.8646331018704
 21
690.6559361776145
 31
0.0
  0
LINE
  5
156
330
44
100
AcDbEntity
  8
1
  6
Continuous
 62
     2
100
AcDbLine
 10
144.6146331018704
 20
711.1559361776145
 30
0.0
 11
144.6146331018704
 21
698.8879869851834
 31
0.0
  0
LINE
  5
157
330
44
100
AcDbEntity
  8
1
  6
Continuous
 62
     2
100
AcDbLine
 10
144.6146331018704
 20
698.8879869851834
 30
0.0
 11
145.6146331018704
 21
697.1559361776145
 31
0.0
  0
LINE
  5
158
330
44
100
AcDbEntity
  8
1
  6
Continuous
 62
     7
100
AcDbLine
 10
158.1146331018704
 20
695.1559361776145
 30
0.0
 11
158.1146331018704
 21
697.1559361776145
 31
0.0
  0
LINE
  5
159
330
44
100
AcDbEntity
  8
1
  6
Continuous
 62
     7
100
AcDbLine
 10
126.3646331018704
 20
671.0222421223417
 30
0.0
 11
126.3646331018704
 21
690.6559361776145
 31
0.0
  0
LINE
  5
15A
330
44
100
AcDbEntity
  8
1
  6
Continuous
 62
     7
100
AcDbLine
 10
157.6146331018704
 20
694.6559361776145
 30
0.0
 11
112.6146331018704
 21
694.6559361776145
 31
0.0
  0
LINE
  5
15B
330
44
100
AcDbEntity
  8
1
  6
Continuous
 62
     7
100
AcDbLine
 10
112.1146331018704
 20
697.1559361776145
 30
0.0
 11
112.1146331018704
 21
695.1559361776145
 31
0.0
  0
LINE
  5
15C
330
44
100
AcDbEntity
  8
1
  6
Continuous
 62
     7
100
AcDbLine
 10
112.1146331018704
 20
697.1559361776145
 30
0.0
 11
158.1146331018704
 21
697.1559361776145
 31
0.0
  0
LINE
  5
15D
330
44
100
AcDbEntity
  8
1
  6
Continuous
 62
     2
100
AcDbLine
 10
124.6146331018704
 20
697.1559361776145
 30
0.0
 11
125.6146331018704
 21
698.8879869851834
 31
0.0
  0
LINE
  5
15E
330
44
100
AcDbEntity
  8
1
  6
Continuous
 62
     2
100
AcDbLine
 10
125.6146331018704
 20
698.8879869851834
 30
0.0
 11
125.6146331018704
 21
711.1559361776145
 31
0.0
  0
LINE
  5
15F
330
44
100
AcDbEntity
  8
1
  6
Continuous
 62
     7
100
AcDbLine
 10
556.2549551811784
 20
256.3142307952438
 30
0.0
 11
556.2549551811784
 21
237.3142307952437
 31
0.0
  0
LINE
  5
160
330
44
100
AcDbEntity
  8
1
  6
Continuous
 62
     7
100
AcDbLine
 10
544.9870059887473
 20
237.3142307952437
 30
0.0
 11
544.9870059887473
 21
256.3142307952438
 31
0.0
  0
LINE
  5
161
330
44
100
AcDbEntity
  8
1
  6
Continuous
 62
     7
100
AcDbLine
 10
543.2549551811784
 20
257.3142307952438
 30
0.0
 11
543.2549551811784
 21
236.3142307952437
 31
0.0
  0
LINE
  5
162
330
44
100
AcDbEntity
  8
1
  6
Continuous
 62
     7
100
AcDbLine
 10
540.7549551811784
 20
259.5642307952438
 30
0.0
 11
540.7549551811784
 21
234.0642307952437
 31
0.0
  0
LINE
  5
163
330
44
100
AcDbEntity
  8
1
  6
Continuous
 62
     2
100
AcDbLine
 10
510.2549551811784
 20
271.8142307952436
 30
0.0
 11
510.2549551811784
 21
270.3142307952436
 31
0.0
  0
LINE
  5
164
330
44
100
AcDbEntity
  8
1
  6
Continuous
 62
     2
100
AcDbLine
 10
544.9870059887473
 20
237.3142307952437
 30
0.0
 11
543.2549551811784
 21
236.3142307952437
 31
0.0
  0
LINE
  5
165
330
44
100
AcDbEntity
  8
1
  6
Continuous
 62
     7
100
AcDbLine
 10
543.2549551811784
 20
236.3142307952437
 30
0.0
 11
543.2549551811784
 21
223.8142307952438
 31
0.0
  0
LINE
  5
166
330
44
100
AcDbEntity
  8
1
  6
Continuous
 62
     7
100
AcDbLine
 10
541.2549551811784
 20
223.8142307952438
 30
0.0
 11
543.2549551811784
 21
223.8142307952438
 31
0.0
  0
LINE
  5
167
330
44
100
AcDbEntity
  8
1
  6
Continuous
 62
     7
100
AcDbLine
 10
540.7549551811784
 20
224.3142307952438
 30
0.0
 11
540.7549551811784
 21
234.0642307952437
 31
0.0
  0
LINE
  5
168
330
44
100
AcDbEntity
  8
1
  6
Continuous
 62
     2
100
AcDbLine
 10
557.2549551811784
 20
237.3142307952437
 30
0.0
 11
544.9870059887473
 21
237.3142307952437
 31
0.0
  0
LINE
  5
169
330
44
100
AcDbEntity
  8
1
  6
Continuous
 62
     7
100
AcDbLine
 10
543.2549551811784
 20
269.8142307952436
 30
0.0
 11
541.2549551811784
 21
269.8142307952436
 31
0.0
  0
LINE
  5
16A
330
44
100
AcDbEntity
  8
1
  6
Continuous
 62
     7
100
AcDbLine
 10
543.2549551811784
 20
269.8142307952436
 30
0.0
 11
543.2549551811784
 21
257.3142307952438
 31
0.0
  0
LINE
  5
16B
330
44
100
AcDbEntity
  8
1
  6
Continuous
 62
     2
100
AcDbLine
 10
543.2549551811784
 20
257.3142307952438
 30
0.0
 11
544.9870059887473
 21
256.3142307952438
 31
0.0
  0
LINE
  5
16C
330
44
100
AcDbEntity
  8
1
  6
Continuous
 62
     2
100
AcDbLine
 10
544.9870059887473
 20
256.3142307952438
 30
0.0
 11
557.2549551811784
 21
256.3142307952438
 31
0.0
  0
LINE
  5
16D
330
44
100
AcDbEntity
  8
1
  6
Continuous
 62
     7
100
AcDbLine
 10
536.7549551811784
 20
255.5642307952438
 30
0.0
 11
523.2549551811784
 21
255.5642307952438
 31
0.0
  0
LINE
  5
16E
330
44
100
AcDbEntity
  8
1
  6
Continuous
 62
     7
100
AcDbLine
 10
540.7549551811784
 20
259.5642307952438
 30
0.0
 11
540.7549551811784
 21
269.3142307952436
 31
0.0
  0
LINE
  5
16F
330
44
100
AcDbEntity
  8
1
  6
Continuous
 62
     2
100
AcDbLine
 10
511.2549551811784
 20
268.5821799876749
 30
0.0
 11
510.2549551811784
 21
270.3142307952436
 31
0.0
  0
LINE
  5
170
330
44
100
AcDbEntity
  8
1
  6
Continuous
 62
     2
100
AcDbLine
 10
486.2549551811784
 20
270.3142307952436
 30
0.0
 11
485.2549551811784
 21
268.5821799876749
 31
0.0
  0
LINE
  5
171
330
44
100
AcDbEntity
  8
1
  6
Continuous
 62
     2
100
AcDbLine
 10
486.2549551811784
 20
270.3142307952436
 30
0.0
 11
486.2549551811784
 21
271.8142307952436
 31
0.0
  0
LINE
  5
172
330
44
100
AcDbEntity
  8
1
  6
Continuous
 62
     7
100
AcDbLine
 10
511.2549551811784
 20
268.5821799876749
 30
0.0
 11
511.2549551811784
 21
267.5642307952436
 31
0.0
  0
LINE
  5
173
330
44
100
AcDbEntity
  8
1
  6
Continuous
 62
     7
100
AcDbLine
 10
485.2549551811784
 20
271.8142307952436
 30
0.0
 11
485.2549551811784
 21
256.1416098483326
 31
0.0
  0
LINE
  5
174
330
44
100
AcDbEntity
  8
1
  6
Continuous
 62
     7
100
AcDbLine
 10
511.2549551811784
 20
270.3142307952436
 30
0.0
 11
504.8685360522856
 21
270.3142307952436
 31
0.0
  0
LINE
  5
175
330
44
100
AcDbEntity
  8
1
  6
Continuous
 62
     7
100
AcDbLine
 10
511.2549551811784
 20
268.5821799876749
 30
0.0
 11
511.2549551811784
 21
271.8142307952436
 31
0.0
  0
LINE
  5
176
330
44
100
AcDbEntity
  8
1
  6
Continuous
 62
     7
100
AcDbLine
 10
557.2549551811784
 20
256.3142307952438
 30
0.0
 11
557.2549551811784
 21
237.3142307952437
 31
0.0
  0
LINE
  5
177
330
44
100
AcDbEntity
  8
1
  6
Continuous
 62
     7
100
AcDbLine
 10
556.2549551811784
 20
236.3142307952437
 30
0.0
 11
557.2549551811784
 21
237.3142307952437
 31
0.0
  0
LINE
  5
178
330
44
100
AcDbEntity
  8
1
  6
Continuous
 62
     7
100
AcDbLine
 10
556.2549551811784
 20
237.3142307952437
 30
0.0
 11
556.2549551811784
 21
236.3142307952437
 31
0.0
  0
LINE
  5
179
330
44
100
AcDbEntity
  8
1
  6
Continuous
 62
     7
100
AcDbLine
 10
556.2549551811784
 20
257.3142307952438
 30
0.0
 11
556.2549551811784
 21
256.3142307952438
 31
0.0
  0
LINE
  5
17A
330
44
100
AcDbEntity
  8
1
  6
Continuous
 62
     7
100
AcDbLine
 10
544.9870059887473
 20
256.3142307952438
 30
0.0
 11
544.9870059887473
 21
257.3142307952438
 31
0.0
  0
LINE
  5
17B
330
44
100
AcDbEntity
  8
1
  6
Continuous
 62
     7
100
AcDbLine
 10
557.2549551811784
 20
256.3142307952438
 30
0.0
 11
556.2549551811784
 21
257.3142307952438
 31
0.0
  0
LINE
  5
17C
330
44
100
AcDbEntity
  8
1
  6
Continuous
 62
     7
100
AcDbLine
 10
543.2549551811784
 20
257.3142307952438
 30
0.0
 11
556.2549551811784
 21
257.3142307952438
 31
0.0
  0
LINE
  5
17D
330
44
100
AcDbEntity
  8
1
  6
Continuous
 62
     7
100
AcDbLine
 10
556.2549551811784
 20
236.3142307952437
 30
0.0
 11
543.2549551811784
 21
236.3142307952437
 31
0.0
  0
LINE
  5
17E
330
44
100
AcDbEntity
  8
1
  6
Continuous
 62
     7
100
AcDbLine
 10
544.9870059887473
 20
236.3142307952437
 30
0.0
 11
544.9870059887473
 21
237.3142307952437
 31
0.0
  0
LINE
  5
17F
330
44
100
AcDbEntity
  8
1
  6
Continuous
 62
     7
100
AcDbLine
 10
491.6413743100712
 20
270.3142307952436
 30
0.0
 11
485.2549551811784
 21
270.3142307952436
 31
0.0
  0
LINE
  5
180
330
44
100
AcDbEntity
  8
1
  6
Continuous
 62
     7
100
AcDbLine
 10
536.7549551811784
 20
238.0642307952437
 30
0.0
 11
524.5670002380057
 21
238.0642307952437
 31
0.0
  0
ARC
  5
181
330
44
100
AcDbEntity
  8
1
  6
Continuous
 62
     7
100
AcDbCircle
 10
135.1146331018699
 20
246.8142307952435
 30
0.0
 40
23.00000000000008
100
AcDbArc
 50
33.54681501581412
 51
55.58261128955856
  0
ARC
  5
182
330
44
100
AcDbEntity
  8
1
  6
Continuous
 62
     7
100
AcDbCircle
 10
136.1146331018699
 20
246.8142307952435
 30
0.0
 40
14.00000000000001
100
AcDbArc
 50
180.0
 51
-90.0
  0
ARC
  5
183
330
44
100
AcDbEntity
  8
1
  6
Continuous
 62
     7
100
AcDbCircle
 10
135.1146331018699
 20
246.8142307952435
 30
0.0
 40
23.00000000000009
100
AcDbArc
 50
124.4173887104415
 51
-33.54681501581442
  0
ARC
  5
184
330
44
100
AcDbEntity
  8
1
  6
Continuous
 62
     7
100
AcDbCircle
 10
455.2549551811784
 20
256.1416098483326
 30
0.0
 40
30.00000000000005
100
AcDbArc
 50
-8.8331983696778
 51
0.0
  0
ARC
  5
185
330
44
100
AcDbEntity
  8
1
  6
Continuous
 62
     7
100
AcDbCircle
 10
523.2549551811784
 20
267.5642307952436
 30
0.0
 40
12.0
100
AcDbArc
 50
180.0
 51
-90.0
  0
ARC
  5
186
330
44
100
AcDbEntity
  8
1
  6
Continuous
 62
     7
100
AcDbCircle
 10
498.2549551811784
 20
246.8142307952438
 30
0.0
 40
14.00000000000008
100
AcDbArc
 50
-97.13387664333068
 51
-82.87117407847892
  0
ARC
  5
187
330
44
100
AcDbEntity
  8
1
  6
Continuous
 62
     7
100
AcDbCircle
 10
154.1146331018699
 20
265.5515438049463
 30
0.0
 40
6.0
100
AcDbArc
 50
180.0
 51
-94.06050734864759
  0
ARC
  5
188
330
44
100
AcDbEntity
  8
1
  6
Continuous
 62
     7
100
AcDbCircle
 10
155.8646331018704
 20
676.7841189359077
 30
0.0
 40
12.0
100
AcDbArc
 50
180.0
 51
-94.06050734864745
  0
ARC
  5
189
330
44
100
AcDbEntity
  8
1
  6
Continuous
 62
     7
100
AcDbCircle
 10
96.3646331018704
 20
671.0222421223419
 30
0.0
 40
30.00000000000002
100
AcDbArc
 50
-15.10263691918627
 51
-0.00000000000043
  0
ARC
  5
18A
330
44
100
AcDbEntity
  8
1
  6
Continuous
 62
     7
100
AcDbCircle
 10
112.6146331018704
 20
695.1559361776145
 30
0.0
 40
0.5
100
AcDbArc
 50
180.0
 51
-90.0
  0
ARC
  5
18B
330
44
100
AcDbEntity
  8
1
  6
Continuous
 62
     7
100
AcDbCircle
 10
157.6146331018704
 20
695.1559361776145
 30
0.0
 40
0.5
100
AcDbArc
 50
-90.0
 51
0.0
  0
ARC
  5
18C
330
44
100
AcDbEntity
  8
1
  6
Continuous
 62
     7
100
AcDbCircle
 10
147.8646331018704
 20
690.6559361776145
 30
0.0
 40
4.0
100
AcDbArc
 50
90.0
 51
180.0
  0
ARC
  5
18D
330
44
100
AcDbEntity
  8
1
  6
Continuous
 62
     7
100
AcDbCircle
 10
122.3646331018704
 20
690.6559361776145
 30
0.0
 40
4.0
100
AcDbArc
 50
0.0
 51
90.0
  0
ARC
  5
18E
330
44
100
AcDbEntity
  8
1
  6
Continuous
 62
     7
100
AcDbCircle
 10
536.7549551811784
 20
234.0642307952437
 30
0.0
 40
4.0
100
AcDbArc
 50
0.0
 51
90.0
  0
ARC
  5
18F
330
44
100
AcDbEntity
  8
1
  6
Continuous
 62
     7
100
AcDbCircle
 10
541.2549551811784
 20
224.3142307952438
 30
0.0
 40
0.5
100
AcDbArc
 50
180.0
 51
-90.0
  0
ARC
  5
190
330
44
100
AcDbEntity
  8
1
  6
Continuous
 62
     7
100
AcDbCircle
 10
536.7549551811784
 20
259.5642307952438
 30
0.0
 40
4.000000000000028
100
AcDbArc
 50
-90.0
 51
0.0
  0
ARC
  5
191
330
44
100
AcDbEntity
  8
1
  6
Continuous
 62
     7
100
AcDbCircle
 10
541.2549551811784
 20
269.3142307952436
 30
0.0
 40
0.5
100
AcDbArc
 50
90.0
 51
180.0
  0
ENDBLK
  5
46
330
44
100
AcDbEntity
  8
0
100
AcDbBlockEnd
  0
BLOCK
  5
48
330
47
100
AcDbEntity
  8
0
100
AcDbBlockBegin
  2
42-1
 70
     0
 71
     0
 10
77.82498409228509
 20
334.9184908818471
 30
0.0
  3
42-1
  1

  0
LINE
  5
192
330
47
100
AcDbEntity
  8
1
  6
Continuous
 62
     7
100
AcDbLine
 10
192.592291827854
 20
659.155936177615
 30
0.0
 11
192.592291827854
 21
645.155936177615
 31
0.0
  0
LINE
  5
193
330
47
100
AcDbEntity
  8
1
  6
Continuous
 62
     7
100
AcDbLine
 10
192.9220575480578
 20
657.905936177615
 30
0.0
 11
192.9220575480578
 21
646.4059361776152
 31
0.0
  0
LINE
  5
194
330
47
100
AcDbEntity
  8
1
  6
Continuous
 62
     2
100
AcDbLine
 10
191.8346299300253
 20
653.155936177615
 30
0.0
 11
190.5693908394148
 21
653.155936177615
 31
0.0
  0
LINE
  5
195
330
47
100
AcDbEntity
  8
1
  6
Continuous
 62
     2
100
AcDbLine
 10
192.077945139758
 20
654.155936177615
 30
0.0
 11
190.3098546156998
 21
654.155936177615
 31
0.0
  0
LINE
  5
196
330
47
100
AcDbEntity
  8
1
  6
Continuous
 62
     2
100
AcDbLine
 10
192.2888183215264
 20
655.155936177615
 30
0.0
 11
189.9529923080918
 21
655.155936177615
 31
0.0
  0
LINE
  5
197
330
47
100
AcDbEntity
  8
1
  6
Continuous
 62
     2
100
AcDbLine
 10
192.4023654194017
 20
656.155936177615
 30
0.0
 11
189.7583401403056
 21
656.155936177615
 31
0.0
  0
LINE
  5
198
330
47
100
AcDbEntity
  8
1
  6
Continuous
 62
     2
100
AcDbLine
 10
192.592291827854
 20
657.155936177615
 30
0.0
 11
189.592291827854
 21
657.155936177615
 31
0.0
  0
LINE
  5
199
330
47
100
AcDbEntity
  8
1
  6
Continuous
 62
     7
100
AcDbLine
 10
189.592291827854
 20
659.155936177615
 30
0.0
 11
189.592291827854
 21
645.155936177615
 31
0.0
  0
LINE
  5
19A
330
47
100
AcDbEntity
  8
1
  6
Continuous
 62
     2
100
AcDbLine
 10
192.592291827854
 20
658.155936177615
 30
0.0
 11
189.592291827854
 21
658.155936177615
 31
0.0
  0
LINE
  5
19B
330
47
100
AcDbEntity
  8
1
  6
Continuous
 62
     7
100
AcDbLine
 10
192.592291827854
 20
659.155936177615
 30
0.0
 11
192.8616140268772
 21
658.1559361776152
 31
0.0
  0
LINE
  5
19C
330
47
100
AcDbEntity
  8
1
  6
Continuous
 62
     7
100
AcDbLine
 10
189.592291827854
 20
659.155936177615
 30
0.0
 11
192.592291827854
 21
659.155936177615
 31
0.0
  0
LINE
  5
19D
330
47
100
AcDbEntity
  8
1
  6
Continuous
 62
     7
100
AcDbLine
 10
192.592291827854
 20
645.155936177615
 30
0.0
 11
189.592291827854
 21
645.155936177615
 31
0.0
  0
LINE
  5
19E
330
47
100
AcDbEntity
  8
1
  6
Continuous
 62
     7
100
AcDbLine
 10
192.8616140268772
 20
646.1559361776152
 30
0.0
 11
192.592291827854
 21
645.155936177615
 31
0.0
  0
LINE
  5
19F
330
47
100
AcDbEntity
  8
1
  6
Continuous
 62
     2
100
AcDbLine
 10
189.592291827854
 20
646.155936177615
 30
0.0
 11
192.592291827854
 21
646.155936177615
 31
0.0
  0
LINE
  5
1A0
330
47
100
AcDbEntity
  8
1
  6
Continuous
 62
     2
100
AcDbLine
 10
189.592291827854
 20
647.1559361776152
 30
0.0
 11
192.592291827854
 21
647.155936177615
 31
0.0
  0
LINE
  5
1A1
330
47
100
AcDbEntity
  8
1
  6
Continuous
 62
     2
100
AcDbLine
 10
189.7583401403056
 20
648.1559361776152
 30
0.0
 11
192.4023654194017
 21
648.1559361776152
 31
0.0
  0
LINE
  5
1A2
330
47
100
AcDbEntity
  8
1
  6
Continuous
 62
     2
100
AcDbLine
 10
189.9529923080918
 20
649.1559361776152
 30
0.0
 11
192.2888183215264
 21
649.1559361776152
 31
0.0
  0
LINE
  5
1A3
330
47
100
AcDbEntity
  8
1
  6
Continuous
 62
     2
100
AcDbLine
 10
190.3098546156998
 20
650.155936177615
 30
0.0
 11
192.077945139758
 21
650.155936177615
 31
0.0
  0
LINE
  5
1A4
330
47
100
AcDbEntity
  8
1
  6
Continuous
 62
     2
100
AcDbLine
 10
190.5693908394148
 20
651.1559361776152
 30
0.0
 11
191.8346299300253
 21
651.1559361776152
 31
0.0
  0
LINE
  5
1A5
330
47
100
AcDbEntity
  8
1
  6
Continuous
 62
     7
100
AcDbLine
 10
192.9407190238334
 20
246.8142307952437
 30
0.0
 11
192.9407190238334
 21
241.0642307952437
 31
0.0
  0
LINE
  5
1A6
330
47
100
AcDbEntity
  8
1
  6
Continuous
 62
     2
100
AcDbLine
 10
190.5880523151905
 20
245.8142307952437
 30
0.0
 11
191.8532914058009
 21
245.8142307952437
 31
0.0
  0
LINE
  5
1A7
330
47
100
AcDbEntity
  8
1
  6
Continuous
 62
     2
100
AcDbLine
 10
190.3285160914756
 20
244.8142307952437
 30
0.0
 11
192.0966066155337
 21
244.8142307952437
 31
0.0
  0
LINE
  5
1A8
330
47
100
AcDbEntity
  8
1
  6
Continuous
 62
     2
100
AcDbLine
 10
189.9716537838675
 20
243.8142307952437
 30
0.0
 11
192.3074797973021
 21
243.8142307952437
 31
0.0
  0
LINE
  5
1A9
330
47
100
AcDbEntity
  8
1
  6
Continuous
 62
     2
100
AcDbLine
 10
189.7770016160813
 20
242.8142307952437
 30
0.0
 11
192.4210268951774
 21
242.8142307952437
 31
0.0
  0
LINE
  5
1AA
330
47
100
AcDbEntity
  8
1
  6
Continuous
 62
     2
100
AcDbLine
 10
189.6109533036297
 20
241.8142307952437
 30
0.0
 11
192.6109533036297
 21
241.8142307952437
 31
0.0
  0
LINE
  5
1AB
330
47
100
AcDbEntity
  8
1
  6
Continuous
 62
     7
100
AcDbLine
 10
192.6109533036297
 20
241.8142307952437
 30
0.0
 11
192.6109533036297
 21
240.8142307952435
 31
0.0
  0
LINE
  5
1AC
330
47
100
AcDbEntity
  8
1
  6
Continuous
 62
     2
100
AcDbLine
 10
189.6109533036297
 20
240.8142307952435
 30
0.0
 11
192.6109533036297
 21
240.8142307952435
 31
0.0
  0
LINE
  5
1AD
330
47
100
AcDbEntity
  8
1
  6
Continuous
 62
     7
100
AcDbLine
 10
192.6109533036297
 20
240.8142307952435
 30
0.0
 11
192.6109533036297
 21
239.8142307952435
 31
0.0
  0
LINE
  5
1AE
330
47
100
AcDbEntity
  8
1
  6
Continuous
 62
     7
100
AcDbLine
 10
192.8802755026529
 20
240.8142307952435
 30
0.0
 11
192.6109533036297
 21
239.8142307952435
 31
0.0
  0
LINE
  5
1AF
330
47
100
AcDbEntity
  8
1
  6
Continuous
 62
     7
100
AcDbLine
 10
192.6109533036297
 20
239.8142307952435
 30
0.0
 11
189.6109533036297
 21
239.8142307952435
 31
0.0
  0
LINE
  5
1B0
330
47
100
AcDbEntity
  8
1
  6
Continuous
 62
     7
100
AcDbLine
 10
189.6109533036297
 20
253.8142307952437
 30
0.0
 11
192.6109533036297
 21
253.8142307952437
 31
0.0
  0
LINE
  5
1B1
330
47
100
AcDbEntity
  8
1
  6
Continuous
 62
     7
100
AcDbLine
 10
192.6109533036297
 20
253.8142307952437
 30
0.0
 11
192.8802755026529
 21
252.8142307952437
 31
0.0
  0
LINE
  5
1B2
330
47
100
AcDbEntity
  8
1
  6
Continuous
 62
     7
100
AcDbLine
 10
192.6109533036297
 20
253.8142307952437
 30
0.0
 11
192.6109533036297
 21
252.8142307952437
 31
0.0
  0
LINE
  5
1B3
330
47
100
AcDbEntity
  8
1
  6
Continuous
 62
     2
100
AcDbLine
 10
192.6109533036297
 20
252.8142307952437
 30
0.0
 11
189.6109533036297
 21
252.8142307952437
 31
0.0
  0
LINE
  5
1B4
330
47
100
AcDbEntity
  8
1
  6
Continuous
 62
     7
100
AcDbLine
 10
192.6109533036297
 20
252.8142307952437
 30
0.0
 11
192.6109533036297
 21
251.8142307952437
 31
0.0
  0
LINE
  5
1B5
330
47
100
AcDbEntity
  8
1
  6
Continuous
 62
     7
100
AcDbLine
 10
189.6109533036297
 20
253.8142307952437
 30
0.0
 11
189.6109533036297
 21
239.8142307952435
 31
0.0
  0
LINE
  5
1B6
330
47
100
AcDbEntity
  8
1
  6
Continuous
 62
     2
100
AcDbLine
 10
192.6109533036297
 20
251.8142307952437
 30
0.0
 11
189.6109533036297
 21
251.8142307952437
 31
0.0
  0
LINE
  5
1B7
330
47
100
AcDbEntity
  8
1
  6
Continuous
 62
     2
100
AcDbLine
 10
192.4210268951774
 20
250.8142307952437
 30
0.0
 11
189.7770016160813
 21
250.8142307952437
 31
0.0
  0
LINE
  5
1B8
330
47
100
AcDbEntity
  8
1
  6
Continuous
 62
     2
100
AcDbLine
 10
192.3074797973021
 20
249.8142307952437
 30
0.0
 11
189.9716537838675
 21
249.8142307952437
 31
0.0
  0
LINE
  5
1B9
330
47
100
AcDbEntity
  8
1
  6
Continuous
 62
     2
100
AcDbLine
 10
192.0966066155337
 20
248.8142307952437
 30
0.0
 11
190.3285160914756
 21
248.8142307952437
 31
0.0
  0
LINE
  5
1BA
330
47
100
AcDbEntity
  8
1
  6
Continuous
 62
     2
100
AcDbLine
 10
191.8532914058009
 20
247.8142307952437
 30
0.0
 11
190.5880523151905
 21
247.8142307952437
 31
0.0
  0
LINE
  5
1BB
330
47
100
AcDbEntity
  8
1
  6
Continuous
 62
     7
100
AcDbLine
 10
192.9407190238334
 20
252.5642307952435
 30
0.0
 11
192.9407190238334
 21
246.8142307952437
 31
0.0
  0
LINE
  5
1BC
330
47
100
AcDbEntity
  8
1
  6
Continuous
 62
     7
100
AcDbLine
 10
192.6109533036297
 20
251.8142307952437
 30
0.0
 11
192.6109533036297
 21
241.8142307952437
 31
0.0
  0
ARC
  5
1BD
330
47
100
AcDbEntity
  8
1
  6
Continuous
 62
     7
100
AcDbCircle
 10
168.592291827854
 20
652.155936177615
 30
0.0
 40
25.0
100
AcDbArc
 50
0.0
 51
13.88654036262951
  0
ARC
  5
1BE
330
47
100
AcDbEntity
  8
1
  6
Continuous
 62
     7
100
AcDbCircle
 10
168.592291827854
 20
652.155936177615
 30
0.0
 40
24.99999999999993
100
AcDbArc
 50
-13.88654036262849
 51
0.0
  0
ARC
  5
1BF
330
47
100
AcDbEntity
  8
1
  6
Continuous
 62
     7
100
AcDbCircle
 10
168.6109533036297
 20
246.8142307952435
 30
0.0
 40
24.99999999999992
100
AcDbArc
 50
-13.29707174720863
 51
0.00000000000046
  0
ARC
  5
1C0
330
47
100
AcDbEntity
  8
1
  6
Continuous
 62
     7
100
AcDbCircle
 10
168.6109533036297
 20
246.8142307952435
 30
0.0
 40
24.99999999999999
100
AcDbArc
 50
-13.886540362629
 51
-13.29707174720863
  0
ARC
  5
1C1
330
47
100
AcDbEntity
  8
1
  6
Continuous
 62
     7
100
AcDbCircle
 10
168.6109533036297
 20
246.8142307952435
 30
0.0
 40
24.99999999999996
100
AcDbArc
 50
13.29707174720908
 51
13.88654036262944
  0
ARC
  5
1C2
330
47
100
AcDbEntity
  8
1
  6
Continuous
 62
     7
100
AcDbCircle
 10
168.6109533036297
 20
246.8142307952435
 30
0.0
 40
25.0
100
AcDbArc
 50
0.00000000000046
 51
13.29707174720908
  0
CIRCLE
  5
1C3
330
47
100
AcDbEntity
  8
0
  6
Continuous
 62
     7
100
AcDbCircle
 10
498.2549551811791
 20
246.8142307952434
 30
0.0
 40
6.999999999999915
  0
CIRCLE
  5
1C4
330
47
100
AcDbEntity
  8
0
  6
Continuous
 62
     7
100
AcDbCircle
 10
498.2549551811791
 20
246.8142307952434
 30
0.0
 40
5.749999999999261
  0
ENDBLK
  5
49
330
47
100
AcDbEntity
  8
0
100
AcDbBlockEnd
  0
BLOCK
  5
4B
330
4A
100
AcDbEntity
  8
0
100
AcDbBlockBegin
  2
R20F
 70
     0
 71
     0
 10
270.2131728880875
 20
228.3894565073179
 30
0.0
  3
R20F
  1

  0
LINE
  5
1C5
330
4A
100
AcDbEntity
  8
1
  6
PHANTOM
 62
     4
100
AcDbLine
 10
173.6146331018699
 20
246.8142307952437
 30
0.0
 11
194.5442568942257
 21
246.8142307952437
 31
0.0
  0
ENDBLK
  5
4C
330
4A
100
AcDbEntity
  8
0
100
AcDbBlockEnd
  0
BLOCK
  5
4E
330
4D
100
AcDbEntity
  8
0
100
AcDbBlockBegin
  2
37-1-13
 70
     0
 71
     0
 10
98.61892721172538
 20
338.6154610120146
 30
0.0
  3
37-1-13
  1

  0
LINE
  5
1C6
330
4D
100
AcDbEntity
  8
1
  6
Continuous
 62
     7
100
AcDbLine
 10
167.6853473161414
 20
665.1559361776148
 30
0.0
 11
160.6146331018699
 21
665.1559361776148
 31
0.0
  0
LINE
  5
1C7
330
4D
100
AcDbEntity
  8
1
  6
Continuous
 62
     7
100
AcDbLine
 10
174.6146331018699
 20
652.155936177615
 30
0.0
 11
174.6146331018699
 21
658.1559361776148
 31
0.0
  0
LINE
  5
1C8
330
4D
100
AcDbEntity
  8
1
  6
Continuous
 62
     7
100
AcDbLine
 10
160.6146331018699
 20
652.155936177615
 30
0.0
 11
160.6146331018699
 21
665.1559361776148
 31
0.0
  0
LINE
  5
1C9
330
4D
100
AcDbEntity
  8
1
  6
Continuous
 62
     7
100
AcDbLine
 10
168.1146331018699
 20
664.6559361776145
 30
0.0
 11
168.1146331018699
 21
652.155936177615
 31
0.0
  0
LINE
  5
1CA
330
4D
100
AcDbEntity
  8
1
  6
Continuous
 62
     7
100
AcDbLine
 10
160.6146331018699
 20
639.155936177615
 30
0.0
 11
167.6853473161413
 21
639.155936177615
 31
0.0
  0
LINE
  5
1CB
330
4D
100
AcDbEntity
  8
1
  6
Continuous
 62
     7
100
AcDbLine
 10
174.6146331018699
 20
646.1559361776149
 30
0.0
 11
174.6146331018699
 21
652.155936177615
 31
0.0
  0
LINE
  5
1CC
330
4D
100
AcDbEntity
  8
1
  6
Continuous
 62
     7
100
AcDbLine
 10
160.6146331018699
 20
639.155936177615
 30
0.0
 11
160.6146331018699
 21
652.155936177615
 31
0.0
  0
LINE
  5
1CD
330
4D
100
AcDbEntity
  8
1
  6
Continuous
 62
     7
100
AcDbLine
 10
168.1146331018699
 20
652.155936177615
 30
0.0
 11
168.1146331018699
 21
639.6559361776152
 31
0.0
  0
LINE
  5
1CE
330
4D
100
AcDbEntity
  8
1
  6
Continuous
 62
     7
100
AcDbLine
 10
174.6146331018699
 20
240.8142307952435
 30
0.0
 11
174.6146331018699
 21
252.8142307952435
 31
0.0
  0
LINE
  5
1CF
330
4D
100
AcDbEntity
  8
1
  6
Continuous
 62
     7
100
AcDbLine
 10
160.6146331018699
 20
233.7435165809721
 30
0.0
 11
160.6146331018699
 21
259.8849450095152
 31
0.0
  0
LINE
  5
1D0
330
4D
100
AcDbEntity
  8
1
  6
Continuous
 62
     7
100
AcDbLine
 10
168.11463310187
 20
259.3142307952434
 30
0.0
 11
168.1146331018699
 21
246.8142307952435
 31
0.0
  0
LINE
  5
1D1
330
4D
100
AcDbEntity
  8
1
  6
Continuous
 62
     7
100
AcDbLine
 10
168.1146331018699
 20
246.8142307952435
 30
0.0
 11
168.11463310187
 21
234.3142307952437
 31
0.0
  0
ARC
  5
1D2
330
4D
100
AcDbEntity
  8
1
  6
Continuous
 62
     7
100
AcDbCircle
 10
164.1146331018699
 20
661.6559361776148
 30
0.0
 40
4.999999999999863
100
AcDbArc
 50
36.86989764584194
 51
44.4270040008053
  0
ARC
  5
1D3
330
4D
100
AcDbEntity
  8
1
  6
Continuous
 62
     7
100
AcDbCircle
 10
188.0210883069848
 20
678.0623913827297
 30
0.0
 40
24.00000000000014
100
AcDbArc
 50
-146.0408074999019
 51
-123.9591925000974
  0
ARC
  5
1D4
330
4D
100
AcDbEntity
  8
1
  6
Continuous
 62
     7
100
AcDbCircle
 10
164.1146331018699
 20
642.655936177615
 30
0.0
 40
4.999999999999975
100
AcDbArc
 50
-44.42700400080598
 51
-36.86989764584194
  0
ARC
  5
1D5
330
4D
100
AcDbEntity
  8
1
  6
Continuous
 62
     7
100
AcDbCircle
 10
188.0210883069848
 20
626.2494809725002
 30
0.0
 40
23.99999999999975
100
AcDbArc
 50
123.9591925000978
 51
146.0408074999024
  0
ARC
  5
1D6
330
4D
100
AcDbEntity
  8
1
  6
Continuous
 62
     7
100
AcDbCircle
 10
164.1146331018699
 20
256.3142307952435
 30
0.0
 40
5.000000000000034
100
AcDbArc
 50
36.86989764584291
 51
134.4270040008032
  0
ARC
  5
1D7
330
4D
100
AcDbEntity
  8
1
  6
Continuous
 62
     7
100
AcDbCircle
 10
188.0210883069848
 20
272.7206860003586
 30
0.0
 40
24.00000000000007
100
AcDbArc
 50
-146.0408074999018
 51
-123.9591925000972
  0
ARC
  5
1D8
330
4D
100
AcDbEntity
  8
1
  6
Continuous
 62
     7
100
AcDbCircle
 10
164.1146331018699
 20
237.3142307952435
 30
0.0
 40
4.999999999999975
100
AcDbArc
 50
-134.427004000806
 51
-36.86989764584161
  0
ARC
  5
1D9
330
4D
100
AcDbEntity
  8
1
  6
Continuous
 62
     7
100
AcDbCircle
 10
188.0210883069849
 20
220.9077755901286
 30
0.0
 40
24.00000000000001
100
AcDbArc
 50
123.9591925000977
 51
146.0408074999021
  0
SPLINE
  5
1DA
330
4D
100
AcDbEntity
  8
0
  6
Continuous
 62
     7
100
AcDbSpline
210
0.0
220
0.0
230
1.0
 70
    11
 71
     3
 72
    79
 73
    75
 74
    73
 42
0.0000000001
 43
0.0000000001
 44
0.00000001
 40
0.0
 40
0.0
 40
0.0
 40
0.0
 40
0.2811775426108807
 40
0.5623408931992098
 40
0.8457466631366881
 40
1.129126830422776
 40
1.415908903032301
 40
1.70265853905457
 40
1.9935274329402
 40
2.284362055943328
 40
2.579517800564314
 40
2.874641782101818
 40
3.173769982296688
 40
3.472872122788082
 40
3.7751996923373
 40
4.077508957859551
 40
4.381905225139335
 40
4.686292091405334
 40
4.991400459518991
 40
5.29650882763259
 40
5.600895693898613
 40
5.905291961178375
 40
6.207601226700626
 40
6.50992879624986
 40
6.809030936741241
 40
7.108159136936125
 40
7.40328311847362
 40
7.698438863094602
 40
7.989273486097772
 40
8.280142379983337
 40
8.566892016005559
 40
8.853674088615133
 40
9.137054255901246
 40
9.420460025838752
 40
9.701623376427136
 40
9.982800919037988
 40
10.26319552186821
 40
10.54359012469844
 40
10.8247676673094
 40
11.10593101789775
 40
11.38933678783527
 40
11.6727169551214
 40
11.95949902773096
 40
12.24624866375322
 40
12.53711755763879
 40
12.82795218064185
 40
13.12310792526282
 40
13.41823190680034
 40
13.71736010699528
 40
14.01646224748667
 40
14.31878981703591
 40
14.62109908255824
 40
14.925495349838
 40
15.22988221610399
 40
15.53499058421759
 40
15.84009895233122
 40
16.14448581859721
 40
16.44888208587696
 40
16.75119135139926
 40
17.05351892094848
 40
17.35262106143987
 40
17.65174926163476
 40
17.94687324317225
 40
18.24202898779325
 40
18.53286361079634
 40
18.82373250468192
 40
19.11048214070417
 40
19.39726421331374
 40
19.68064438059979
 40
19.96405015053739
 40
20.24521350112578
 40
20.52639104373672
 40
20.806785646567
 40
21.08718024939717
 40
21.08718024939717
 40
21.08718024939717
 40
21.08718024939717
 10
167.6012512229884
 20
235.8359756406436
 30
0.0
 10
167.5898001008985
 20
235.9290717157341
 30
0.0
 10
167.5668984346972
 20
236.1152591670276
 30
0.0
 10
167.4988611436485
 20
236.3894966203338
 30
0.0
 10
167.4072390146748
 20
236.6572232876406
 30
0.0
 10
167.2896280268902
 20
236.916783775809
 30
0.0
 10
167.148409703671
 20
237.165518068176
 30
0.0
 10
166.9835877329263
 20
237.4023321729667
 30
0.0
 10
166.7975104357615
 20
237.6245905370335
 30
0.0
 10
166.5904855861502
 20
237.8314459241687
 30
0.0
 10
166.3652867884362
 20
238.0205597276819
 30
0.0
 10
166.1224218829067
 20
238.1912081118329
 30
0.0
 10
165.8649532518966
 20
238.3415254290826
 30
0.0
 10
165.5936753546252
 20
238.4708487644433
 30
0.0
 10
165.3117222007177
 20
238.5778816918817
 30
0.0
 10
165.0202850473481
 20
238.6620288295435
 30
0.0
 10
164.7223471038905
 20
238.7225733382515
 30
0.0
 10
164.4195814390901
 20
238.7590605349906
 30
0.0
 10
164.1146331018709
 20
238.7712875913418
 30
0.0
 10
163.8096847646459
 20
238.759060534991
 30
0.0
 10
163.5069190998624
 20
238.7225733382502
 30
0.0
 10
163.208981156343
 20
238.6620288295483
 30
0.0
 10
162.9175440032023
 20
238.5778816918644
 30
0.0
 10
162.6355908484448
 20
238.4708487645074
 30
0.0
 10
162.3643129543136
 20
238.3415254288466
 30
0.0
 10
162.1068443116616
 20
238.1912081127091
 30
0.0
 10
161.8639794490247
 20
238.0205597244603
 30
0.0
 10
161.6387804924478
 20
237.8314459361246
 30
0.0
 10
161.4317562274444
 20
237.6245904931365
 30
0.0
 10
161.2456767652603
 20
237.402332335914
 30
0.0
 10
161.0808627655065
 20
237.165517469581
 30
0.0
 10
160.9396148970926
 20
236.916785999939
 30
0.0
 10
160.8221129296386
 20
236.6572150960526
 30
0.0
 10
160.7300859822687
 20
236.3895271047823
 30
0.0
 10
160.6635481546485
 20
236.1151463938991
 30
0.0
 10
160.6236453710361
 20
235.8366553824358
 30
0.0
 10
160.6101332497068
 20
235.5559005460458
 30
0.0
 10
160.6236453710362
 20
235.2751457096559
 30
0.0
 10
160.6635481546485
 20
234.9966546981924
 30
0.0
 10
160.7300859822687
 20
234.7222739873094
 30
0.0
 10
160.8221129296385
 20
234.454585996039
 30
0.0
 10
160.9396148970926
 20
234.1950150921525
 30
0.0
 10
161.0808627655065
 20
233.9462836225106
 30
0.0
 10
161.2456767652603
 20
233.7094687561776
 30
0.0
 10
161.4317562274443
 20
233.4872105989551
 30
0.0
 10
161.6387804924477
 20
233.280355155967
 30
0.0
 10
161.8639794490247
 20
233.0912413676314
 30
0.0
 10
162.1068443116615
 20
232.9205929793825
 30
0.0
 10
162.3643129543135
 20
232.7702756632451
 30
0.0
 10
162.6355908484449
 20
232.6409523275844
 30
0.0
 10
162.9175440032023
 20
232.5339194002271
 30
0.0
 10
163.208981156343
 20
232.4497722625434
 30
0.0
 10
163.5069190998624
 20
232.3892277538413
 30
0.0
 10
163.8096847646462
 20
232.3527405571006
 30
0.0
 10
164.11463310187
 20
232.3405135007499
 30
0.0
 10
164.4195814390934
 20
232.3527405571005
 30
0.0
 10
164.7223471038784
 20
232.3892277538414
 30
0.0
 10
165.0202850473933
 20
232.4497722625429
 30
0.0
 10
165.3117222005504
 20
232.5339194002284
 30
0.0
 10
165.5936753552469
 20
232.6409523275797
 30
0.0
 10
165.8649532496033
 20
232.770275663262
 30
0.0
 10
166.1224218914207
 20
232.9205929793197
 30
0.0
 10
166.3652867571328
 20
233.0912413678623
 30
0.0
 10
166.5904857023198
 20
233.2803551551098
 30
0.0
 10
166.7975100092372
 20
233.4872106021023
 30
0.0
 10
166.9835893161985
 20
233.709468744495
 30
0.0
 10
167.1484038874391
 20
233.9462836654274
 30
0.0
 10
167.2896496375854
 20
234.1950149326917
 30
0.0
 10
167.407159421344
 20
234.4545865833418
 30
0.0
 10
167.4991573449175
 20
234.722271801701
 30
0.0
 10
167.5658026778328
 20
234.996662783557
 30
0.0
 10
167.6053052637793
 20
235.2751155604448
 30
0.0
 10
167.6203070435968
 20
235.5560127176553
 30
0.0
 10
167.6076031631912
 20
235.7426546663142
 30
0.0
 10
167.6012512229884
 20
235.8359756406436
 30
0.0
 11
167.6012512229884
 21
235.8359756406436
 31
0.0
 11
167.5613134135245
 21
236.1143023943773
 31
0.0
 11
167.4951761943854
 21
236.3875764289261
 31
0.0
 11
167.4030223727196
 21
236.6555810997553
 31
0.0
 11
167.2862923214449
 21
236.9138027377729
 31
0.0
 11
167.1446933832829
 21
237.1631893811233
 31
0.0
 11
166.9810157827588
 21
237.3986357589795
 31
0.0
 11
166.7943273091823
 21
237.6216876078037
 31
0.0
 11
166.5886930989115
 21
237.827355664399
 31
0.0
 11
166.362698944785
 21
238.0172070691434
 31
0.0
 11
166.1212961356628
 21
238.1869800005149
 31
0.0
 11
165.8629970204394
 21
238.3378416829482
 31
0.0
 11
165.5930476090213
 21
238.4666415498798
 31
0.0
 11
165.310414010027
 21
238.5739737818934
 31
0.0
 11
165.0199884959666
 21
238.6579018034558
 31
0.0
 11
164.7216924573257
 21
238.7185364541515
 31
0.0
 11
164.4194969030835
 21
238.7549948050676
 31
0.0
 11
164.1146331018699
 21
238.7672086907122
 31
0.0
 11
163.8097693006563
 21
238.7549948050676
 31
0.0
 11
163.5075737464141
 21
238.7185364541515
 31
0.0
 11
163.2092777077732
 21
238.6579018034558
 31
0.0
 11
162.9188521937128
 21
238.5739737818934
 31
0.0
 11
162.6362185947185
 21
238.4666415498798
 31
0.0
 11
162.3662691833004
 21
238.3378416829482
 31
0.0
 11
162.107970068077
 21
238.1869800005149
 31
0.0
 11
161.8665672589548
 21
238.0172070691435
 31
0.0
 11
161.6405731048284
 21
237.827355664399
 31
0.0
 11
161.4349388945575
 21
237.6216876078037
 31
0.0
 11
161.248250420981
 21
237.3986357589795
 31
0.0
 11
161.0845728204569
 21
237.1631893811234
 31
0.0
 11
160.9429738822949
 21
236.9138027377729
 31
0.0
 11
160.8262438310202
 21
236.6555810997553
 31
0.0
 11
160.7340900093544
 21
236.3875764289261
 31
0.0
 11
160.6679527902153
 21
236.1143023943772
 31
0.0
 11
160.6280149807514
 21
235.8359756406436
 31
0.0
 11
160.61463310187
 21
235.5559005460459
 31
0.0
 11
160.6280149807515
 21
235.2758254514481
 31
0.0
 11
160.6679527902153
 21
234.9974986977144
 31
0.0
 11
160.7340900093543
 21
234.7242246631655
 31
0.0
 11
160.8262438310201
 21
234.4562199923363
 31
0.0
 11
160.9429738822948
 21
234.1979983543187
 31
0.0
 11
161.0845728204569
 21
233.9486117109682
 31
0.0
 11
161.248250420981
 21
233.713165333112
 31
0.0
 11
161.4349388945575
 21
233.4901134842879
 31
0.0
 11
161.6405731048283
 21
233.2844454276927
 31
0.0
 11
161.8665672589547
 21
233.0945940229482
 31
0.0
 11
162.1079700680769
 21
232.9248210915768
 31
0.0
 11
162.3662691833004
 21
232.7739594091434
 31
0.0
 11
162.6362185947185
 21
232.6451595422118
 31
0.0
 11
162.9188521937128
 21
232.5378273101981
 31
0.0
 11
163.2092777077733
 21
232.4538992886357
 31
0.0
 11
163.5075737464142
 21
232.3932646379401
 31
0.0
 11
163.8097693006563
 21
232.356806287024
 31
0.0
 11
164.1146331018699
 21
232.3445924013794
 31
0.0
 11
164.4194969030835
 21
232.356806287024
 31
0.0
 11
164.7216924573257
 21
232.3932646379401
 31
0.0
 11
165.0199884959666
 21
232.4538992886357
 31
0.0
 11
165.310414010027
 21
232.5378273101981
 31
0.0
 11
165.5930476090213
 21
232.6451595422118
 31
0.0
 11
165.8629970204394
 21
232.7739594091434
 31
0.0
 11
166.1212961356628
 21
232.9248210915768
 31
0.0
 11
166.362698944785
 21
233.0945940229482
 31
0.0
 11
166.5886930989115
 21
233.2844454276927
 31
0.0
 11
166.7943273091823
 21
233.4901134842879
 31
0.0
 11
166.9810157827588
 21
233.713165333112
 31
0.0
 11
167.1446933832829
 21
233.9486117109682
 31
0.0
 11
167.2862923214449
 21
234.1979983543187
 31
0.0
 11
167.4030223727196
 21
234.4562199923362
 31
0.0
 11
167.4951761943855
 21
234.7242246631655
 31
0.0
 11
167.5613134135246
 21
234.9974986977144
 31
0.0
 11
167.6012512229884
 21
235.2758254514481
 31
0.0
 11
167.6146331018699
 21
235.5559005460459
 31
0.0
 11
167.6012512229884
 21
235.8359756406436
 31
0.0
  0
SPLINE
  5
1DB
330
4D
100
AcDbEntity
  8
0
  6
Continuous
 62
     7
100
AcDbSpline
210
0.0
220
0.0
230
1.0
 70
    11
 71
     3
 72
    79
 73
    75
 74
    73
 42
0.0000000001
 43
0.0000000001
 44
0.00000001
 40
0.0
 40
0.0
 40
0.0
 40
0.0
 40
0.3165105491713094
 40
0.6328929319855201
 40
0.961743166063308
 40
1.290395356804416
 40
1.63728632130557
 40
1.983975457781589
 40
2.351816485593263
 40
2.719488759026599
 40
3.108422409521942
 40
3.497229809231724
 40
3.905017581393864
 40
4.312718388939203
 40
4.735267628544435
 40
5.157763077150506
 40
5.58967724861022
 40
6.021565830284148
 40
6.456678185770378
 40
6.89179054125655
 40
7.323679122930482
 40
7.755593294390136
 40
8.178088742996229
 40
8.600637982601496
 40
9.008338790146892
 40
9.416126562308957
 40
9.804933962018664
 40
10.19386761251399
 40
10.56153988594737
 40
10.92938091375905
 40
11.27607005023501
 40
11.62296101473618
 40
11.9516132054773
 40
12.28046343955508
 40
12.59684582236929
 40
12.91335637154062
 40
13.22542041382609
 40
13.53748445611151
 40
13.85399500528284
 40
14.17037738809704
 40
14.49922762217488
 40
14.82787981291594
 40
15.17477077741711
 40
15.52145991389303
 40
15.88930094170468
 40
16.25697321513808
 40
16.64590686563348
 40
17.03471426534318
 40
17.44250203750525
 40
17.85020284505065
 40
18.27275208465588
 40
18.69524753326198
 40
19.1271617047217
 40
19.55905028639557
 40
19.99416264188177
 40
20.42927499736797
 40
20.86116357904187
 40
21.29307775050162
 40
21.71557319910769
 40
22.13812243871297
 40
22.54582324625838
 40
22.95361101842041
 40
23.34241841813012
 40
23.7313520686255
 40
24.09902434205887
 40
24.46686536987053
 40
24.81355450634649
 40
25.16044547084763
 40
25.48909766158873
 40
25.81794789566653
 40
26.13433027848074
 40
26.45084082765204
 40
26.76290486993749
 40
27.07496891222294
 40
27.07496891222294
 40
27.07496891222294
 40
27.07496891222294
 10
163.8645607265624
 20
251.7941141142782
 30
0.0
 10
163.7602284418715
 20
251.7775487830641
 30
0.0
 10
163.5516061203354
 20
251.7444248285267
 30
0.0
 10
163.2454220222573
 20
251.6456656923199
 30
0.0
 10
162.9481332659561
 20
251.5139634945336
 30
0.0
 10
162.6588733536522
 20
251.3440060687515
 30
0.0
 10
162.3839051643979
 20
251.1417847585579
 30
0.0
 10
162.1206752196023
 20
250.9045843398857
 30
0.0
 10
161.8757652685152
 20
250.6390481404845
 30
0.0
 10
161.6463561304495
 20
250.3420939249863
 30
0.0
 10
161.4383319647826
 20
250.0214348944858
 30
0.0
 10
161.2494037727453
 20
249.6739317777289
 30
0.0
 10
161.0841581340744
 20
249.3076932982268
 30
0.0
 10
160.9411586969309
 20
248.9202414501553
 30
0.0
 10
160.8234971360965
 20
248.5192481736362
 30
0.0
 10
160.7305231423171
 20
248.1035742754976
 30
0.0
 10
160.6639671545075
 20
247.6797106179503
 30
0.0
 10
160.6236381602014
 20
247.2483411810833
 30
0.0
 10
160.6102620285125
 20
246.8142307952454
 30
0.0
 10
160.6236381602006
 20
246.3801204093962
 30
0.0
 10
160.6639671545107
 20
245.9487509725632
 30
0.0
 10
160.7305231423049
 20
245.5248873148915
 30
0.0
 10
160.8234971361407
 20
245.1092134172073
 30
0.0
 10
160.941158696768
 20
244.70822013902
 30
0.0
 10
161.084158134659
 20
244.3207682969652
 30
0.0
 10
161.2494037706038
 20
243.9545297955193
 30
0.0
 10
161.4383319723638
 20
243.6070267570267
 30
0.0
 10
161.6463561027555
 20
243.2863674425756
 30
0.0
 10
161.8757653656295
 20
242.9894142317348
 30
0.0
 10
162.1206748651248
 20
242.7238743971944
 30
0.0
 10
162.3839064033766
 20
242.4866868052328
 30
0.0
 10
162.65886882052
 20
242.2844190317559
 30
0.0
 10
162.9481492026422
 20
242.1146263801782
 30
0.0
 10
163.2453633530868
 20
241.9823236337976
 30
0.0
 10
163.5518159142297
 20
241.8857255225216
 30
0.0
 10
163.8623153364868
 20
241.8283041077801
 30
0.0
 10
164.1760249790913
 20
241.8084081137803
 30
0.0
 10
164.4897346216957
 20
241.8283041077802
 30
0.0
 10
164.8002340439529
 20
241.8857255225216
 30
0.0
 10
165.1066866050957
 20
241.9823236337976
 30
0.0
 10
165.4039007555403
 20
242.1146263801781
 30
0.0
 10
165.6931811376626
 20
242.2844190317559
 30
0.0
 10
165.968143554806
 20
242.4866868052327
 30
0.0
 10
166.2313750930576
 20
242.7238743971946
 30
0.0
 10
166.4762845925529
 20
242.9894142317347
 30
0.0
 10
166.705693855427
 20
243.2863674425756
 30
0.0
 10
166.9137179858187
 20
243.6070267570266
 30
0.0
 10
167.1026461875789
 20
243.9545297955193
 30
0.0
 10
167.2678918235236
 20
244.3207682969651
 30
0.0
 10
167.4108912614145
 20
244.70822013902
 30
0.0
 10
167.5285528220418
 20
245.1092134172073
 30
0.0
 10
167.6215268158776
 20
245.5248873148916
 30
0.0
 10
167.6880828036718
 20
245.9487509725632
 30
0.0
 10
167.728411797982
 20
246.3801204093966
 30
0.0
 10
167.7417879296697
 20
246.8142307952436
 30
0.0
 10
167.7284117979821
 20
247.2483411810899
 30
0.0
 10
167.6880828036715
 20
247.6797106179257
 30
0.0
 10
167.6215268158785
 20
248.1035742755885
 30
0.0
 10
167.5285528220387
 20
248.5192481733052
 30
0.0
 10
167.4108912614262
 20
248.9202414513735
 30
0.0
 10
167.267891823482
 20
249.3076932938573
 30
0.0
 10
167.1026461877315
 20
249.6739317937389
 30
0.0
 10
166.9137179852784
 20
250.0214348378107
 30
0.0
 10
166.7056938574011
 20
250.3420941320201
 30
0.0
 10
166.4762845856302
 20
250.6390474144783
 30
0.0
 10
166.2313751183267
 20
250.9045869898863
 30
0.0
 10
165.9681434664849
 20
251.1417754962049
 30
0.0
 10
165.6931814608086
 20
251.3440399575297
 30
0.0
 10
165.403899619488
 20
251.5138443550965
 30
0.0
 10
165.1066907873488
 20
251.6461042911524
 30
0.0
 10
164.800219088719
 20
251.7428564518747
 30
0.0
 10
164.4897902011247
 20
251.7997100895738
 30
0.0
 10
164.1758207790971
 20
251.8216972085126
 30
0.0
 10
163.9683140774073
 20
251.8033084790231
 30
0.0
 10
163.8645607265624
 20
251.7941141142782
 30
0.0
 11
163.8645607265624
 21
251.7941141142782
 31
0.0
 11
163.5533476436518
 21
251.7364483119166
 31
0.0
 11
163.2514240580377
 21
251.6418969470129
 31
0.0
 11
162.9509126399008
 21
251.5083478398561
 31
0.0
 11
162.6671649897582
 21
251.3425180068421
 31
0.0
 11
162.3874926108506
 21
251.1372944659684
 31
0.0
 11
162.1295694965836
 21
250.9056287057074
 31
0.0
 11
161.8798271356234
 21
250.6355624640489
 31
0.0
 11
161.6546968991598
 21
250.3448748700902
 31
0.0
 11
161.4426372042982
 21
250.018837954538
 31
0.0
 11
161.256631675819
 21
249.6774098692195
 31
0.0
 11
161.0885729190695
 21
249.3058629389337
 31
0.0
 11
160.9471945702089
 21
248.9234598650097
 31
0.0
 11
160.8279532281748
 21
248.5180842833069
 31
0.0
 11
160.7356101327068
 21
248.1058038486362
 31
0.0
 11
160.6684349906695
 21
247.6791454937432
 31
0.0
 11
160.6282079390978
 21
247.2491344109765
 31
0.0
 11
160.6147317779569
 21
246.8142307952435
 31
0.0
 11
160.6282079390977
 21
246.3793271795105
 31
0.0
 11
160.6684349906695
 21
245.9493160967438
 31
0.0
 11
160.7356101327068
 21
245.5226577418509
 31
0.0
 11
160.8279532281748
 21
245.1103773071802
 31
0.0
 11
160.9471945702089
 21
244.7050017254774
 31
0.0
 11
161.0885729190696
 21
244.3225986515533
 31
0.0
 11
161.256631675819
 21
243.9510517212676
 31
0.0
 11
161.4426372042982
 21
243.6096236359492
 31
0.0
 11
161.6546968991598
 21
243.2835867203969
 31
0.0
 11
161.8798271356234
 21
242.9928991264382
 31
0.0
 11
162.1295694965836
 21
242.7228328847796
 31
0.0
 11
162.3874926108506
 21
242.4911671245187
 31
0.0
 11
162.6671649897582
 21
242.2859435836451
 31
0.0
 11
162.9509126399008
 21
242.120113750631
 31
0.0
 11
163.2514240580377
 21
241.9865646434742
 31
0.0
 11
163.5533476436517
 21
241.8920132785704
 31
0.0
 11
163.8645607265623
 21
241.8343474762089
 31
0.0
 11
164.1760249790913
 21
241.8150087615638
 31
0.0
 11
164.4874892316202
 21
241.8343474762089
 31
0.0
 11
164.7987023145308
 21
241.8920132785704
 31
0.0
 11
165.1006259001449
 21
241.9865646434742
 31
0.0
 11
165.4011373182818
 21
242.120113750631
 31
0.0
 11
165.6848849684243
 21
242.2859435836451
 31
0.0
 11
165.9645573473319
 21
242.4911671245187
 31
0.0
 11
166.2224804615989
 21
242.7228328847796
 31
0.0
 11
166.4722228225591
 21
242.9928991264381
 31
0.0
 11
166.6973530590227
 21
243.2835867203968
 31
0.0
 11
166.9094127538844
 21
243.6096236359492
 31
0.0
 11
167.0954182823636
 21
243.9510517212676
 31
0.0
 11
167.263477039113
 21
244.3225986515533
 31
0.0
 11
167.4048553879736
 21
244.7050017254774
 31
0.0
 11
167.5240967300077
 21
245.1103773071802
 31
0.0
 11
167.6164398254757
 21
245.5226577418509
 31
0.0
 11
167.6836149675131
 21
245.9493160967439
 31
0.0
 11
167.7238420190848
 21
246.3793271795105
 31
0.0
 11
167.7373181802257
 21
246.8142307952435
 31
0.0
 11
167.7238420190848
 21
247.2491344109765
 31
0.0
 11
167.6836149675131
 21
247.6791454937432
 31
0.0
 11
167.6164398254757
 21
248.1058038486362
 31
0.0
 11
167.5240967300077
 21
248.5180842833069
 31
0.0
 11
167.4048553879737
 21
248.9234598650097
 31
0.0
 11
167.263477039113
 21
249.3058629389338
 31
0.0
 11
167.0954182823636
 21
249.6774098692195
 31
0.0
 11
166.9094127538844
 21
250.0188379545379
 31
0.0
 11
166.6973530590227
 21
250.3448748700902
 31
0.0
 11
166.4722228225591
 21
250.6355624640489
 31
0.0
 11
166.2224804615989
 21
250.9056287057074
 31
0.0
 11
165.9645573473319
 21
251.1372944659683
 31
0.0
 11
165.6848849684244
 21
251.342518006842
 31
0.0
 11
165.4011373182818
 21
251.5083478398561
 31
0.0
 11
165.1006259001449
 21
251.6418969470128
 31
0.0
 11
164.7987023145308
 21
251.7364483119166
 31
0.0
 11
164.4874892316202
 21
251.7941141142782
 31
0.0
 11
164.1760249790913
 21
251.8134528289233
 31
0.0
 11
163.8645607265624
 21
251.7941141142782
 31
0.0
  0
SPLINE
  5
1DC
330
4D
100
AcDbEntity
  8
0
  6
Continuous
 62
     7
100
AcDbSpline
210
0.0
220
0.0
230
1.0
 70
    11
 71
     3
 72
    79
 73
    75
 74
    73
 42
0.0000000001
 43
0.0000000001
 44
0.00000001
 40
0.0
 40
0.0
 40
0.0
 40
0.0
 40
0.2811775426108807
 40
0.5623408931992373
 40
0.8457466631367694
 40
1.129126830422779
 40
1.415908903032329
 40
1.702658539054621
 40
1.993527432940252
 40
2.28436205594338
 40
2.57951780056433
 40
2.874641782101801
 40
3.173769982296671
 40
3.472872122788027
 40
3.775199692337272
 40
4.07750895785953
 40
4.381905225139327
 40
4.686292091405318
 40
4.991400459518973
 40
5.296508827632573
 40
5.600895693898589
 40
5.905291961178357
 40
6.207601226700671
 40
6.509928796249863
 40
6.809030936741232
 40
7.108159136936092
 40
7.403283118473548
 40
7.698438863094554
 40
7.989273486097663
 40
8.280142379983293
 40
8.566892016005538
 40
8.853674088615087
 40
9.137054255901212
 40
9.420460025838745
 40
9.701623376427095
 40
9.982800919038029
 40
10.26319552186823
 40
10.54359012469831
 40
10.82476766730919
 40
11.10593101789748
 40
11.38933678783503
 40
11.67271695512114
 40
11.95949902773072
 40
12.246248663753
 40
12.53711755763857
 40
12.82795218064166
 40
13.12310792526264
 40
13.41823190680022
 40
13.7173601069951
 40
14.01646224748648
 40
14.3187898170357
 40
14.62109908255798
 40
14.92549534983772
 40
15.22988221610377
 40
15.53499058421737
 40
15.84009895233102
 40
16.14448581859701
 40
16.44888208587678
 40
16.75119135139907
 40
17.05351892094828
 40
17.35262106143966
 40
17.65174926163456
 40
17.94687324317203
 40
18.24202898779309
 40
18.53286361079618
 40
18.82373250468177
 40
19.11048214070403
 40
19.39726421331362
 40
19.68064438059978
 40
19.96405015053728
 40
20.24521350112558
 40
20.5263910437364
 40
20.8067856465666
 40
21.08718024939685
 40
21.08718024939685
 40
21.08718024939685
 40
21.08718024939685
 10
167.6012512229884
 20
257.7924859498435
 30
0.0
 10
167.5898001008985
 20
257.699389874753
 30
0.0
 10
167.5668984346972
 20
257.5132024234594
 30
0.0
 10
167.4988611436485
 20
257.2389649701533
 30
0.0
 10
167.4072390146749
 20
256.9712383028464
 30
0.0
 10
167.2896280268901
 20
256.711677814678
 30
0.0
 10
167.148409703671
 20
256.462943522311
 30
0.0
 10
166.9835877329263
 20
256.2261294175204
 30
0.0
 10
166.7975104357616
 20
256.0038710534535
 30
0.0
 10
166.5904855861503
 20
255.7970156663183
 30
0.0
 10
166.3652867884362
 20
255.607901862805
 30
0.0
 10
166.1224218829068
 20
255.4372534786542
 30
0.0
 10
165.8649532518966
 20
255.2869361614046
 30
0.0
 10
165.5936753546251
 20
255.1576128260438
 30
0.0
 10
165.3117222007178
 20
255.0505798986055
 30
0.0
 10
165.0202850473482
 20
254.9664327609436
 30
0.0
 10
164.7223471038905
 20
254.9058882522355
 30
0.0
 10
164.4195814390901
 20
254.8694010554965
 30
0.0
 10
164.1146331018709
 20
254.8571739991454
 30
0.0
 10
163.8096847646459
 20
254.8694010554962
 30
0.0
 10
163.5069190998625
 20
254.9058882522369
 30
0.0
 10
163.2089811563429
 20
254.9664327609389
 30
0.0
 10
162.9175440032023
 20
255.0505798986227
 30
0.0
 10
162.6355908484448
 20
255.1576128259798
 30
0.0
 10
162.3643129543136
 20
255.2869361616405
 30
0.0
 10
162.1068443116616
 20
255.437253477778
 30
0.0
 10
161.8639794490248
 20
255.6079018660267
 30
0.0
 10
161.6387804924478
 20
255.7970156543624
 30
0.0
 10
161.4317562274443
 20
256.0038710973504
 30
0.0
 10
161.2456767652603
 20
256.2261292545732
 30
0.0
 10
161.0808627655064
 20
256.462944120906
 30
0.0
 10
160.9396148970926
 20
256.7116755905481
 30
0.0
 10
160.8221129296385
 20
256.9712464944344
 30
0.0
 10
160.7300859822686
 20
257.2389344857048
 30
0.0
 10
160.6635481546486
 20
257.5133151965879
 30
0.0
 10
160.6236453710361
 20
257.7918062080514
 30
0.0
 10
160.6101332497068
 20
258.0725610444413
 30
0.0
 10
160.6236453710361
 20
258.353315880831
 30
0.0
 10
160.6635481546486
 20
258.6318068922946
 30
0.0
 10
160.7300859822687
 20
258.9061876031775
 30
0.0
 10
160.8221129296386
 20
259.1738755944479
 30
0.0
 10
160.9396148970927
 20
259.4334464983344
 30
0.0
 10
161.0808627655064
 20
259.6821779679762
 30
0.0
 10
161.2456767652602
 20
259.9189928343093
 30
0.0
 10
161.4317562274442
 20
260.1412509915319
 30
0.0
 10
161.6387804924478
 20
260.3481064345199
 30
0.0
 10
161.8639794490247
 20
260.5372202228555
 30
0.0
 10
162.1068443116616
 20
260.7078686111044
 30
0.0
 10
162.3643129543136
 20
260.858185927242
 30
0.0
 10
162.6355908484448
 20
260.9875092629026
 30
0.0
 10
162.9175440032023
 20
261.0945421902598
 30
0.0
 10
163.208981156343
 20
261.1786893279436
 30
0.0
 10
163.5069190998624
 20
261.2392338366456
 30
0.0
 10
163.8096847646462
 20
261.2757210333864
 30
0.0
 10
164.1146331018699
 20
261.287948089737
 30
0.0
 10
164.4195814390934
 20
261.2757210333865
 30
0.0
 10
164.7223471038784
 20
261.2392338366456
 30
0.0
 10
165.0202850473933
 20
261.1786893279439
 30
0.0
 10
165.3117222005504
 20
261.0945421902587
 30
0.0
 10
165.5936753552469
 20
260.9875092629071
 30
0.0
 10
165.8649532496034
 20
260.8581859272251
 30
0.0
 10
166.1224218914207
 20
260.7078686111672
 30
0.0
 10
166.3652867571328
 20
260.5372202226247
 30
0.0
 10
166.5904857023198
 20
260.3481064353771
 30
0.0
 10
166.7975100092373
 20
260.1412509883846
 30
0.0
 10
166.9835893161984
 20
259.9189928459918
 30
0.0
 10
167.1484038874392
 20
259.6821779250596
 30
0.0
 10
167.2896496375853
 20
259.4334466577951
 30
0.0
 10
167.407159421344
 20
259.1738750071451
 30
0.0
 10
167.4991573449176
 20
258.9061897887857
 30
0.0
 10
167.5658026778327
 20
258.63179880693
 30
0.0
 10
167.6053052637794
 20
258.3533460300422
 30
0.0
 10
167.6203070435968
 20
258.0724488728318
 30
0.0
 10
167.6076031631912
 20
257.8858069241729
 30
0.0
 10
167.6012512229884
 20
257.7924859498435
 30
0.0
 11
167.6012512229884
 21
257.7924859498435
 31
0.0
 11
167.5613134135245
 21
257.5141591961098
 31
0.0
 11
167.4951761943854
 21
257.2408851615609
 31
0.0
 11
167.4030223727196
 21
256.9728804907317
 31
0.0
 11
167.2862923214449
 21
256.7146588527142
 31
0.0
 11
167.1446933832829
 21
256.4652722093637
 31
0.0
 11
166.9810157827588
 21
256.2298258315075
 31
0.0
 11
166.7943273091823
 21
256.0067739826833
 31
0.0
 11
166.5886930989115
 21
255.801105926088
 31
0.0
 11
166.362698944785
 21
255.6112545213436
 31
0.0
 11
166.1212961356628
 21
255.4414815899722
 31
0.0
 11
165.8629970204394
 21
255.2906199075389
 31
0.0
 11
165.5930476090214
 21
255.1618200406074
 31
0.0
 11
165.310414010027
 21
255.0544878085937
 31
0.0
 11
165.0199884959666
 21
254.9705597870313
 31
0.0
 11
164.7216924573257
 21
254.9099251363356
 31
0.0
 11
164.4194969030835
 21
254.8734667854195
 31
0.0
 11
164.1146331018699
 21
254.861252899775
 31
0.0
 11
163.8097693006563
 21
254.8734667854195
 31
0.0
 11
163.5075737464141
 21
254.9099251363356
 31
0.0
 11
163.2092777077732
 21
254.9705597870313
 31
0.0
 11
162.9188521937128
 21
255.0544878085937
 31
0.0
 11
162.6362185947185
 21
255.1618200406074
 31
0.0
 11
162.3662691833004
 21
255.2906199075389
 31
0.0
 11
162.107970068077
 21
255.4414815899722
 31
0.0
 11
161.8665672589548
 21
255.6112545213436
 31
0.0
 11
161.6405731048284
 21
255.8011059260881
 31
0.0
 11
161.4349388945575
 21
256.0067739826833
 31
0.0
 11
161.248250420981
 21
256.2298258315075
 31
0.0
 11
161.0845728204569
 21
256.4652722093637
 31
0.0
 11
160.9429738822949
 21
256.7146588527141
 31
0.0
 11
160.8262438310202
 21
256.9728804907318
 31
0.0
 11
160.7340900093544
 21
257.240885161561
 31
0.0
 11
160.6679527902153
 21
257.5141591961099
 31
0.0
 11
160.6280149807515
 21
257.7924859498436
 31
0.0
 11
160.61463310187
 21
258.0725610444413
 31
0.0
 11
160.6280149807515
 21
258.3526361390389
 31
0.0
 11
160.6679527902153
 21
258.6309628927725
 31
0.0
 11
160.7340900093544
 21
258.9042369273213
 31
0.0
 11
160.8262438310202
 21
259.1722415981506
 31
0.0
 11
160.9429738822949
 21
259.4304632361682
 31
0.0
 11
161.0845728204569
 21
259.6798498795187
 31
0.0
 11
161.2482504209809
 21
259.9152962573749
 31
0.0
 11
161.4349388945574
 21
260.1383481061991
 31
0.0
 11
161.6405731048283
 21
260.3440161627942
 31
0.0
 11
161.8665672589548
 21
260.5338675675387
 31
0.0
 11
162.107970068077
 21
260.7036404989102
 31
0.0
 11
162.3662691833004
 21
260.8545021813436
 31
0.0
 11
162.6362185947185
 21
260.9833020482751
 31
0.0
 11
162.9188521937128
 21
261.0906342802888
 31
0.0
 11
163.2092777077732
 21
261.1745623018512
 31
0.0
 11
163.5075737464141
 21
261.2351969525469
 31
0.0
 11
163.8097693006563
 21
261.271655303463
 31
0.0
 11
164.1146331018699
 21
261.2838691891075
 31
0.0
 11
164.4194969030835
 21
261.271655303463
 31
0.0
 11
164.7216924573257
 21
261.2351969525469
 31
0.0
 11
165.0199884959666
 21
261.1745623018512
 31
0.0
 11
165.310414010027
 21
261.0906342802888
 31
0.0
 11
165.5930476090213
 21
260.9833020482751
 31
0.0
 11
165.8629970204394
 21
260.8545021813436
 31
0.0
 11
166.1212961356628
 21
260.7036404989102
 31
0.0
 11
166.362698944785
 21
260.5338675675388
 31
0.0
 11
166.5886930989115
 21
260.3440161627942
 31
0.0
 11
166.7943273091823
 21
260.138348106199
 31
0.0
 11
166.9810157827588
 21
259.9152962573749
 31
0.0
 11
167.1446933832829
 21
259.6798498795187
 31
0.0
 11
167.2862923214449
 21
259.4304632361682
 31
0.0
 11
167.4030223727196
 21
259.1722415981505
 31
0.0
 11
167.4951761943855
 21
258.9042369273213
 31
0.0
 11
167.5613134135246
 21
258.6309628927725
 31
0.0
 11
167.6012512229884
 21
258.3526361390389
 31
0.0
 11
167.6146331018698
 21
258.0725610444412
 31
0.0
 11
167.6012512229884
 21
257.7924859498435
 31
0.0
  0
SPLINE
  5
1DD
330
4D
100
AcDbEntity
  8
1
  6
Continuous
 62
     7
100
AcDbSpline
210
0.0
220
0.0
230
1.0
 70
    11
 71
     3
 72
    79
 73
    75
 74
    73
 42
0.0000000001
 43
0.0000000001
 44
0.00000001
 40
0.0
 40
0.0
 40
0.0
 40
0.0
 40
0.3171598656885049
 40
0.6340856861075508
 40
0.9694901489363029
 40
1.304562820901267
 40
1.666124796939011
 40
2.027385866504955
 40
2.41872407901595
 40
2.809836934323462
 40
3.230628787512855
 40
3.651266058867761
 40
4.098016897819081
 40
4.54466775850446
 40
5.011536287768425
 40
5.47834552214673
 40
5.957894801974988
 40
6.437416541840435
 40
6.921284920564466
 40
7.405153299288612
 40
7.884675039154056
 40
8.364224318982434
 40
8.83103355336074
 40
9.297902082624713
 40
9.74455294331011
 40
10.19130378226162
 40
10.61194105361651
 40
11.03273290680579
 40
11.42384576211321
 40
11.81518397462421
 40
12.17644504419017
 40
12.53800702022782
 40
12.87307969219289
 40
13.20848415502167
 40
13.52540997544075
 40
13.84256984112925
 40
14.15305257372697
 40
14.46353530632463
 40
14.78069517201319
 40
15.09762099243226
 40
15.43302545526099
 40
15.76809812722601
 40
16.12966010326385
 40
16.49092117282974
 40
16.88225938534064
 40
17.27337224064823
 40
17.6941640938374
 40
18.11480136519229
 40
18.56155220414373
 40
19.00820306482911
 40
19.47507159409309
 40
19.94188082847128
 40
20.42143010829976
 40
20.90095184816532
 40
21.38482022688947
 40
21.86868860561339
 40
22.34821034547883
 40
22.82775962530721
 40
23.2945688596855
 40
23.76143738894948
 40
24.20808824963488
 40
24.65483908858641
 40
25.07547635994116
 40
25.49626821313046
 40
25.88738106843805
 40
26.27871928094895
 40
26.63998035051491
 40
27.00154232655268
 40
27.33661499851765
 40
27.6720194613464
 40
27.98894528176544
 40
28.30610514745395
 40
28.61658788005168
 40
28.92707061264937
 40
28.92707061264937
 40
28.92707061264937
 40
28.92707061264937
 10
163.8402649970951
 20
664.1964097033015
 30
0.0
 10
163.7360166075961
 20
664.1778317721928
 30
0.0
 10
163.5275967577593
 20
664.140689619392
 30
0.0
 10
163.222559453983
 20
664.0298345464292
 30
0.0
 10
162.9274078088203
 20
663.8828142372219
 30
0.0
 10
162.6397181826869
 20
663.6927431281008
 30
0.0
 10
162.3674793557009
 20
663.4676151803617
 30
0.0
 10
162.1060705802078
 20
663.2030309237448
 30
0.0
 10
161.8638830150002
 20
662.9079344986899
 30
0.0
 10
161.6362560398815
 20
662.5771921428791
 30
0.0
 10
161.4305640939875
 20
662.2210661421422
 30
0.0
 10
161.2431827938363
 20
661.8343372945833
 30
0.0
 10
161.0797291955358
 20
661.4276006128431
 30
0.0
 10
160.9379305622345
 20
660.9966150845535
 30
0.0
 10
160.8214936383722
 20
660.5511832242914
 30
0.0
 10
160.729309547146
 20
660.0889502369583
 30
0.0
 10
160.6634283087336
 20
659.6179823147272
 30
0.0
 10
160.6234346582185
 20
659.1384209515355
 30
0.0
 10
160.610212468195
 20
658.6559361776174
 30
0.0
 10
160.6234346582173
 20
658.1734514036847
 30
0.0
 10
160.6634283087383
 20
657.693890040537
 30
0.0
 10
160.7293095471283
 20
657.2229221181447
 30
0.0
 10
160.8214936384366
 20
656.7606891313976
 30
0.0
 10
160.9379305619984
 20
656.3152572689921
 30
0.0
 10
161.0797291963751
 20
655.8842717483707
 30
0.0
 10
161.2431827907768
 20
655.4775350388266
 30
0.0
 10
161.4305641046682
 20
655.090806289258
 30
0.0
 10
161.6362560011148
 20
654.7346799358799
 30
0.0
 10
161.8638831484171
 20
654.4039388080221
 30
0.0
 10
162.1060700969646
 20
654.1088379851625
 30
0.0
 10
162.3674810064206
 20
653.8442689472262
 30
0.0
 10
162.6397121912122
 20
653.6190864980224
 30
0.0
 10
162.9274283654047
 20
653.4292047203928
 30
0.0
 10
163.2224842471426
 20
653.2815014598677
 30
0.0
 10
163.5278603955992
 20
653.1730629088814
 30
0.0
 10
163.8370924495367
 20
653.108880319881
 30
0.0
 10
164.1499902090057
 20
653.0863210914664
 30
0.0
 10
164.4628879684745
 20
653.1088803198811
 30
0.0
 10
164.772120022412
 20
653.1730629088818
 30
0.0
 10
165.0774961708686
 20
653.2815014598675
 30
0.0
 10
165.3725520526066
 20
653.4292047203927
 30
0.0
 10
165.6602682267992
 20
653.6190864980222
 30
0.0
 10
165.9324994115906
 20
653.8442689472265
 30
0.0
 10
166.1939103210468
 20
654.1088379851624
 30
0.0
 10
166.4360972695943
 20
654.4039388080221
 30
0.0
 10
166.6637244168964
 20
654.7346799358801
 30
0.0
 10
166.8694163133432
 20
655.0908062892577
 30
0.0
 10
167.0567976272344
 20
655.4775350388266
 30
0.0
 10
167.2202512216362
 20
655.8842717483706
 30
0.0
 10
167.3620498560129
 20
656.3152572689919
 30
0.0
 10
167.4784867795747
 20
656.7606891313976
 30
0.0
 10
167.570670870883
 20
657.2229221181443
 30
0.0
 10
167.6365521092729
 20
657.6938900405368
 30
0.0
 10
167.676545759794
 20
658.1734514036851
 30
0.0
 10
167.6897679498159
 20
658.655936177615
 30
0.0
 10
167.6765457597941
 20
659.1384209515441
 30
0.0
 10
167.6365521092726
 20
659.6179823146954
 30
0.0
 10
167.5706708708842
 20
660.088950237076
 30
0.0
 10
167.4784867795702
 20
660.551183223865
 30
0.0
 10
167.3620498560296
 20
660.9966150861179
 30
0.0
 10
167.2202512215766
 20
661.4276006072843
 30
0.0
 10
167.0567976274517
 20
661.8343373148532
 30
0.0
 10
166.8694163125846
 20
662.2210660713821
 30
0.0
 10
166.6637244196499
 20
662.5771923997124
 30
0.0
 10
166.436097260118
 20
662.9079336147897
 30
0.0
 10
166.1939103553707
 20
663.203034125281
 30
0.0
 10
165.9324992943428
 20
663.4676042441737
 30
0.0
 10
165.6602686523633
 20
663.6927828222333
 30
0.0
 10
165.3725505925081
 20
663.8826780477499
 30
0.0
 10
165.0775015126799
 20
664.0303327994282
 30
0.0
 10
164.772101296674
 20
664.1389429917756
 30
0.0
 10
164.462957421136
 20
664.2024967232105
 30
0.0
 10
164.149737047627
 20
664.2273567223435
 30
0.0
 10
163.9434223472723
 20
664.2067253763155
 30
0.0
 10
163.8402649970951
 20
664.1964097033015
 30
0.0
 11
163.8402649970951
 21
664.1964097033015
 31
0.0
 11
163.529749759311
 21
664.1318289979211
 31
0.0
 11
163.230793943614
 21
664.0266273063508
 31
0.0
 11
162.9306909567833
 21
663.8768462962702
 31
0.0
 11
162.6505542313985
 21
663.6930063914932
 31
0.0
 11
162.3715102729282
 21
663.4630900333159
 31
0.0
 11
162.1170929959156
 21
663.2066111656845
 31
0.0
 11
161.868254343825
 21
662.9045765289341
 31
0.0
 11
161.6460709357979
 21
662.5827010890753
 31
0.0
 11
161.4350462854471
 21
662.2186483722129
 31
0.0
 11
161.2512797019061
 21
661.8402761258383
 31
0.0
 11
161.0842176594928
 21
661.4259373923262
 31
0.0
 11
160.9443814187663
 21
661.0017407196253
 31
0.0
 11
160.8259533495821
 21
660.5501424290546
 31
0.0
 11
160.7345214538851
 21
660.0923749446806
 31
0.0
 11
160.6678599049784
 21
659.6174815359233
 31
0.0
 11
160.6279899739448
 21
659.1396201673205
 31
0.0
 11
160.6146331018699
 21
658.655936177615
 31
0.0
 11
160.6279899739448
 21
658.1722521879094
 31
0.0
 11
160.6678599049784
 21
657.6943908193066
 31
0.0
 11
160.7345214538851
 21
657.2194974105491
 31
0.0
 11
160.8259533495821
 21
656.7617299261751
 31
0.0
 11
160.9443814187664
 21
656.3101316356044
 31
0.0
 11
161.0842176594929
 21
655.8859349629036
 31
0.0
 11
161.2512797019062
 21
655.4715962293913
 31
0.0
 11
161.4350462854471
 21
655.0932239830166
 31
0.0
 11
161.6460709357979
 21
654.7291712661544
 31
0.0
 11
161.868254343825
 21
654.4072958262957
 31
0.0
 11
162.1170929959156
 21
654.1052611895452
 31
0.0
 11
162.3715102729282
 21
653.8487823219139
 31
0.0
 11
162.6505542313985
 21
653.6188659637367
 31
0.0
 11
162.9306909567833
 21
653.4350260589595
 31
0.0
 11
163.230793943614
 21
653.2852450488789
 31
0.0
 11
163.529749759311
 21
653.1800433573085
 31
0.0
 11
163.8402649970951
 21
653.1154626519281
 31
0.0
 11
164.1499902090056
 21
653.093787312293
 31
0.0
 11
164.4597154209162
 21
653.1154626519281
 31
0.0
 11
164.7702306587003
 21
653.1800433573086
 31
0.0
 11
165.0691864743973
 21
653.2852450488789
 31
0.0
 11
165.3692894612279
 21
653.4350260589595
 31
0.0
 11
165.6494261866127
 21
653.6188659637365
 31
0.0
 11
165.9284701450831
 21
653.848782321914
 31
0.0
 11
166.1828874220957
 21
654.1052611895452
 31
0.0
 11
166.4317260741863
 21
654.4072958262956
 31
0.0
 11
166.6539094822134
 21
654.7291712661545
 31
0.0
 11
166.8649341325641
 21
655.0932239830166
 31
0.0
 11
167.0487007161051
 21
655.4715962293913
 31
0.0
 11
167.2157627585185
 21
655.8859349629034
 31
0.0
 11
167.3555989992449
 21
656.3101316356043
 31
0.0
 11
167.4740270684292
 21
656.761729926175
 31
0.0
 11
167.5654589641262
 21
657.2194974105489
 31
0.0
 11
167.6321205130329
 21
657.6943908193065
 31
0.0
 11
167.6719904440665
 21
658.1722521879094
 31
0.0
 11
167.6853473161414
 21
658.655936177615
 31
0.0
 11
167.6719904440665
 21
659.1396201673203
 31
0.0
 11
167.6321205130329
 21
659.6174815359232
 31
0.0
 11
167.5654589641262
 21
660.0923749446806
 31
0.0
 11
167.4740270684292
 21
660.5501424290546
 31
0.0
 11
167.3555989992449
 21
661.0017407196253
 31
0.0
 11
167.2157627585184
 21
661.4259373923262
 31
0.0
 11
167.048700716105
 21
661.8402761258385
 31
0.0
 11
166.8649341325642
 21
662.218648372213
 31
0.0
 11
166.6539094822134
 21
662.5827010890753
 31
0.0
 11
166.4317260741863
 21
662.9045765289342
 31
0.0
 11
166.1828874220957
 21
663.2066111656845
 31
0.0
 11
165.9284701450831
 21
663.4630900333159
 31
0.0
 11
165.6494261866127
 21
663.6930063914932
 31
0.0
 11
165.3692894612279
 21
663.8768462962702
 31
0.0
 11
165.0691864743972
 21
664.0266273063508
 31
0.0
 11
164.7702306587003
 21
664.1318289979211
 31
0.0
 11
164.4597154209162
 21
664.1964097033015
 31
0.0
 11
164.1499902090056
 21
664.2180850429367
 31
0.0
 11
163.8402649970951
 21
664.1964097033015
 31
0.0
  0
SPLINE
  5
1DE
330
4D
100
AcDbEntity
  8
1
  6
Continuous
 62
     7
100
AcDbSpline
210
0.0
220
0.0
230
1.0
 70
    11
 71
     3
 72
    79
 73
    75
 74
    73
 42
0.0000000001
 43
0.0000000001
 44
0.00000001
 40
0.0
 40
0.0
 40
0.0
 40
0.0
 40
0.3171598656884817
 40
0.6340856861075652
 40
0.9694901489363174
 40
1.304562820901344
 40
1.666124796939232
 40
2.027385866505015
 40
2.418724079015834
 40
2.809836934323441
 40
3.230628787512735
 40
3.651266058867641
 40
4.098016897818961
 40
4.544667758504448
 40
5.011536287768413
 40
5.478345522146719
 40
5.957894801975201
 40
6.437416541840535
 40
6.921284920564567
 40
7.405153299288599
 40
7.884675039154156
 40
8.364224318982421
 40
8.831033553360838
 40
9.297902082624811
 40
9.744552943310316
 40
10.19130378226162
 40
10.61194105361651
 40
11.03273290680569
 40
11.4238457621133
 40
11.8151839746242
 40
12.17644504419017
 40
12.53800702022789
 40
12.87307969219283
 40
13.20848415502161
 40
13.52540997544069
 40
13.84256984112922
 40
14.15305257372694
 40
14.4635353063246
 40
14.78069517201315
 40
15.09762099243223
 40
15.43302545526095
 40
15.76809812722592
 40
16.12966010326376
 40
16.49092117282972
 40
16.88225938534063
 40
17.27337224064803
 40
17.69416409383729
 40
18.11480136519229
 40
18.56155220414362
 40
19.0082030648291
 40
19.47507159409308
 40
19.94188082847127
 40
20.42143010829976
 40
20.90095184816509
 40
21.38482022688923
 40
21.86868860561338
 40
22.34821034547893
 40
22.82775962530731
 40
23.29456885968538
 40
23.76143738894936
 40
24.20808824963487
 40
24.6548390885864
 40
25.07547635994115
 40
25.49626821313055
 40
25.88738106843804
 40
26.27871928094895
 40
26.63998035051467
 40
27.00154232655258
 40
27.33661499851761
 40
27.67201946134636
 40
27.98894528176544
 40
28.30610514745392
 40
28.61658788005164
 40
28.92707061264933
 40
28.92707061264933
 40
28.92707061264933
 40
28.92707061264933
 10
163.8402649970951
 20
640.1154626519283
 30
0.0
 10
163.7360166075961
 20
640.134040583037
 30
0.0
 10
163.5275967577594
 20
640.1711827358374
 30
0.0
 10
163.222559453983
 20
640.2820378088005
 30
0.0
 10
162.9274078088202
 20
640.4290581180079
 30
0.0
 10
162.6397181826868
 20
640.619129227129
 30
0.0
 10
162.3674793557009
 20
640.8442571748687
 30
0.0
 10
162.1060705802078
 20
641.108841431485
 30
0.0
 10
161.8638830150001
 20
641.4039378565399
 30
0.0
 10
161.6362560398815
 20
641.7346802123506
 30
0.0
 10
161.4305640939875
 20
642.0908062130877
 30
0.0
 10
161.2431827938364
 20
642.4775350606464
 30
0.0
 10
161.0797291955358
 20
642.8842717423863
 30
0.0
 10
160.9379305622346
 20
643.3152572706763
 30
0.0
 10
160.8214936383722
 20
643.7606891309382
 30
0.0
 10
160.7293095471459
 20
644.2229221182712
 30
0.0
 10
160.6634283087336
 20
644.6938900405027
 30
0.0
 10
160.6234346582185
 20
645.1734514036947
 30
0.0
 10
160.610212468195
 20
645.6559361776124
 30
0.0
 10
160.6234346582173
 20
646.1384209515452
 30
0.0
 10
160.6634283087383
 20
646.6179823146929
 30
0.0
 10
160.7293095471283
 20
647.0889502370854
 30
0.0
 10
160.8214936384366
 20
647.5511832238321
 30
0.0
 10
160.9379305619984
 20
647.9966150862379
 30
0.0
 10
161.0797291963751
 20
648.4276006068593
 30
0.0
 10
161.2431827907768
 20
648.8343373164031
 30
0.0
 10
161.4305641046681
 20
649.221066065972
 30
0.0
 10
161.6362560011149
 20
649.5771924193496
 30
0.0
 10
161.863883148417
 20
649.9079335472077
 30
0.0
 10
162.1060700969646
 20
650.2030343700674
 30
0.0
 10
162.3674810064207
 20
650.4676034080035
 30
0.0
 10
162.6397121912121
 20
650.6927858572076
 30
0.0
 10
162.9274283654046
 20
650.8826676348368
 30
0.0
 10
163.2224842471427
 20
651.0303708953621
 30
0.0
 10
163.5278603955992
 20
651.1388094463481
 30
0.0
 10
163.8370924495367
 20
651.2029920353484
 30
0.0
 10
164.1499902090056
 20
651.2255512637637
 30
0.0
 10
164.4628879684746
 20
651.2029920353485
 30
0.0
 10
164.772120022412
 20
651.138809446348
 30
0.0
 10
165.0774961708686
 20
651.0303708953619
 30
0.0
 10
165.3725520526066
 20
650.8826676348372
 30
0.0
 10
165.6602682267992
 20
650.6927858572076
 30
0.0
 10
165.9324994115905
 20
650.4676034080035
 30
0.0
 10
166.1939103210468
 20
650.2030343700674
 30
0.0
 10
166.4360972695942
 20
649.9079335472076
 30
0.0
 10
166.6637244168965
 20
649.57719241935
 30
0.0
 10
166.8694163133432
 20
649.221066065972
 30
0.0
 10
167.0567976272344
 20
648.8343373164032
 30
0.0
 10
167.2202512216363
 20
648.4276006068592
 30
0.0
 10
167.3620498560128
 20
647.9966150862379
 30
0.0
 10
167.4784867795747
 20
647.5511832238324
 30
0.0
 10
167.570670870883
 20
647.0889502370851
 30
0.0
 10
167.6365521092729
 20
646.6179823146933
 30
0.0
 10
167.676545759794
 20
646.1384209515447
 30
0.0
 10
167.6897679498159
 20
645.6559361776147
 30
0.0
 10
167.6765457597941
 20
645.1734514036859
 30
0.0
 10
167.6365521092726
 20
644.6938900405343
 30
0.0
 10
167.5706708708842
 20
644.2229221181535
 30
0.0
 10
167.4784867795701
 20
643.7606891313651
 30
0.0
 10
167.3620498560296
 20
643.3152572691117
 30
0.0
 10
167.2202512215766
 20
642.8842717479457
 30
0.0
 10
167.0567976274517
 20
642.4775350403766
 30
0.0
 10
166.8694163125845
 20
642.0908062838478
 30
0.0
 10
166.6637244196501
 20
641.7346799555171
 30
0.0
 10
166.4360972601178
 20
641.40393874044
 30
0.0
 10
166.1939103553708
 20
641.1088382299487
 30
0.0
 10
165.9324992943427
 20
640.8442681110564
 30
0.0
 10
165.6602686523632
 20
640.6190895329966
 30
0.0
 10
165.3725505925081
 20
640.42919430748
 30
0.0
 10
165.0775015126799
 20
640.2815395558015
 30
0.0
 10
164.772101296674
 20
640.1729293634542
 30
0.0
 10
164.4629574211359
 20
640.1093756320189
 30
0.0
 10
164.149737047627
 20
640.0845156328866
 30
0.0
 10
163.9434223472724
 20
640.1051469789143
 30
0.0
 10
163.8402649970951
 20
640.1154626519283
 30
0.0
 11
163.8402649970951
 21
640.1154626519283
 31
0.0
 11
163.529749759311
 21
640.1800433573086
 31
0.0
 11
163.230793943614
 21
640.285245048879
 31
0.0
 11
162.9306909567833
 21
640.4350260589596
 31
0.0
 11
162.6505542313985
 21
640.6188659637367
 31
0.0
 11
162.3715102729282
 21
640.8487823219142
 31
0.0
 11
162.1170929959156
 21
641.1052611895453
 31
0.0
 11
161.868254343825
 21
641.4072958262956
 31
0.0
 11
161.6460709357979
 21
641.7291712661545
 31
0.0
 11
161.4350462854471
 21
642.0932239830167
 31
0.0
 11
161.2512797019061
 21
642.4715962293914
 31
0.0
 11
161.0842176594928
 21
642.8859349629034
 31
0.0
 11
160.9443814187663
 21
643.3101316356044
 31
0.0
 11
160.8259533495821
 21
643.7617299261751
 31
0.0
 11
160.7345214538851
 21
644.2194974105491
 31
0.0
 11
160.6678599049784
 21
644.6943908193067
 31
0.0
 11
160.6279899739448
 21
645.1722521879094
 31
0.0
 11
160.6146331018699
 21
645.6559361776149
 31
0.0
 11
160.6279899739448
 21
646.1396201673203
 31
0.0
 11
160.6678599049784
 21
646.6174815359233
 31
0.0
 11
160.7345214538851
 21
647.0923749446806
 31
0.0
 11
160.8259533495821
 21
647.5501424290547
 31
0.0
 11
160.9443814187664
 21
648.0017407196255
 31
0.0
 11
161.0842176594929
 21
648.4259373923264
 31
0.0
 11
161.2512797019062
 21
648.8402761258385
 31
0.0
 11
161.4350462854471
 21
649.2186483722131
 31
0.0
 11
161.6460709357979
 21
649.5827010890753
 31
0.0
 11
161.868254343825
 21
649.9045765289342
 31
0.0
 11
162.1170929959156
 21
650.2066111656845
 31
0.0
 11
162.3715102729282
 21
650.4630900333159
 31
0.0
 11
162.6505542313985
 21
650.6930063914932
 31
0.0
 11
162.9306909567833
 21
650.8768462962702
 31
0.0
 11
163.230793943614
 21
651.0266273063508
 31
0.0
 11
163.529749759311
 21
651.1318289979212
 31
0.0
 11
163.8402649970951
 21
651.1964097033017
 31
0.0
 11
164.1499902090056
 21
651.2180850429368
 31
0.0
 11
164.4597154209162
 21
651.1964097033017
 31
0.0
 11
164.7702306587003
 21
651.1318289979212
 31
0.0
 11
165.0691864743973
 21
651.0266273063509
 31
0.0
 11
165.3692894612279
 21
650.8768462962703
 31
0.0
 11
165.6494261866127
 21
650.6930063914933
 31
0.0
 11
165.9284701450831
 21
650.4630900333159
 31
0.0
 11
166.1828874220957
 21
650.2066111656845
 31
0.0
 11
166.4317260741863
 21
649.9045765289342
 31
0.0
 11
166.6539094822134
 21
649.5827010890755
 31
0.0
 11
166.8649341325641
 21
649.2186483722132
 31
0.0
 11
167.0487007161051
 21
648.8402761258385
 31
0.0
 11
167.2157627585185
 21
648.4259373923264
 31
0.0
 11
167.3555989992449
 21
648.0017407196255
 31
0.0
 11
167.4740270684292
 21
647.5501424290547
 31
0.0
 11
167.5654589641262
 21
647.0923749446808
 31
0.0
 11
167.6321205130329
 21
646.6174815359233
 31
0.0
 11
167.6719904440665
 21
646.1396201673206
 31
0.0
 11
167.6853473161414
 21
645.655936177615
 31
0.0
 11
167.6719904440665
 21
645.1722521879094
 31
0.0
 11
167.6321205130329
 21
644.6943908193065
 31
0.0
 11
167.5654589641262
 21
644.219497410549
 31
0.0
 11
167.4740270684292
 21
643.7617299261752
 31
0.0
 11
167.3555989992449
 21
643.3101316356045
 31
0.0
 11
167.2157627585184
 21
642.8859349629036
 31
0.0
 11
167.048700716105
 21
642.4715962293913
 31
0.0
 11
166.8649341325642
 21
642.0932239830167
 31
0.0
 11
166.6539094822134
 21
641.7291712661544
 31
0.0
 11
166.4317260741863
 21
641.4072958262956
 31
0.0
 11
166.1828874220957
 21
641.1052611895452
 31
0.0
 11
165.9284701450831
 21
640.8487823219142
 31
0.0
 11
165.6494261866127
 21
640.6188659637367
 31
0.0
 11
165.3692894612279
 21
640.4350260589596
 31
0.0
 11
165.0691864743972
 21
640.285245048879
 31
0.0
 11
164.7702306587003
 21
640.1800433573086
 31
0.0
 11
164.4597154209162
 21
640.1154626519283
 31
0.0
 11
164.1499902090056
 21
640.0937873122932
 31
0.0
 11
163.8402649970951
 21
640.1154626519283
 31
0.0
  0
ENDBLK
  5
4F
330
4D
100
AcDbEntity
  8
0
100
AcDbBlockEnd
  0
BLOCK
  5
51
330
50
100
AcDbEntity
  8
0
100
AcDbBlockBegin
  2
36-1A-13-M4
 70
     0
 71
     0
 10
117.5455070924337
 20
349.1963568046798
 30
0.0
  3
36-1A-13-M4
  1

  0
LINE
  5
1DF
330
50
100
AcDbEntity
  8
1
  6
Continuous
 62
     7
100
AcDbLine
 10
174.6146331018699
 20
656.905936177615
 30
0.0
 11
178.592291827854
 21
656.905936177615
 31
0.0
  0
LINE
  5
1E0
330
50
100
AcDbEntity
  8
1
  6
Continuous
 62
     7
100
AcDbLine
 10
178.592291827854
 20
647.405936177615
 30
0.0
 11
174.6146331018699
 21
647.405936177615
 31
0.0
  0
LINE
  5
1E1
330
50
100
AcDbEntity
  8
1
  6
Continuous
 62
     7
100
AcDbLine
 10
174.6146331018699
 20
251.5642307952437
 30
0.0
 11
178.592291827854
 21
251.5642307952437
 31
0.0
  0
LINE
  5
1E2
330
50
100
AcDbEntity
  8
1
  6
Continuous
 62
     7
100
AcDbLine
 10
178.592291827854
 20
242.0642307952435
 30
0.0
 11
174.6146331018699
 21
242.0642307952435
 31
0.0
  0
ENDBLK
  5
52
330
50
100
AcDbEntity
  8
0
100
AcDbBlockEnd
  0
BLOCK
  5
58
330
53
100
AcDbEntity
  8
0
100
AcDbBlockBegin
  2
R10A-13
 70
     0
 71
     0
 10
261.1146331018699
 20
201.8142307952435
 30
0.0
  3
R10A-13
  1

  0
INSERT
  5
54
330
53
100
AcDbEntity
  8
0
100
AcDbBlockReference
  2
42-1
 10
77.82498409228509
 20
334.9184908818471
 30
0.0
  0
INSERT
  5
55
330
53
100
AcDbEntity
  8
0
100
AcDbBlockReference
  2
R20F
 10
270.2131728880875
 20
228.3894565073179
 30
0.0
  0
INSERT
  5
56
330
53
100
AcDbEntity
  8
0
100
AcDbBlockReference
  2
37-1-13
 10
98.61892721172538
 20
338.6154610120146
 30
0.0
  0
INSERT
  5
57
330
53
100
AcDbEntity
  8
0
100
AcDbBlockReference
  2
36-1A-13-M4
 10
117.5455070924337
 20
349.1963568046798
 30
0.0
  0
LINE
  5
1E3
330
53
100
AcDbEntity
  8
1
  6
DASH_CENTER
 62
     2
100
AcDbLine
 10
162.6146331018699
 20
246.8142307952437
 30
0.0
 11
173.6146331018699
 21
246.8142307952437
 31
0.0
  0
ENDBLK
  5
59
330
53
100
AcDbEntity
  8
0
100
AcDbBlockEnd
  0
BLOCK
  5
5B
330
5A
100
AcDbEntity
  8
0
100
AcDbBlockBegin
  2
21-1A
 70
     0
 71
     0
 10
216.11463310187
 20
201.8142307952435
 30
0.0
  3
21-1A
  1

  0
LINE
  5
1E4
330
5A
100
AcDbEntity
  8
1
  6
Continuous
 62
     7
100
AcDbLine
 10
178.592291827854
 20
645.1779444048016
 30
0.0
 11
178.592291827854
 21
625.005301083004
 31
0.0
  0
LINE
  5
1E5
330
5A
100
AcDbEntity
  8
1
  6
Continuous
 62
     7
100
AcDbLine
 10
178.592291827854
 20
659.1339279504285
 30
0.0
 11
178.592291827854
 21
645.1779444048016
 31
0.0
  0
LINE
  5
1E6
330
5A
100
AcDbEntity
  8
1
  6
Continuous
 62
     7
100
AcDbLine
 10
183.0052060984691
 20
646.3603812198807
 30
0.0
 11
178.592291827854
 21
645.1779444048016
 31
0.0
  0
LINE
  5
1E7
330
5A
100
AcDbEntity
  8
1
  6
Continuous
 62
     7
100
AcDbLine
 10
183.0052060984691
 20
657.9514911353493
 30
0.0
 11
178.592291827854
 21
659.1339279504285
 31
0.0
  0
LINE
  5
1E8
330
5A
100
AcDbEntity
  8
1
  6
Continuous
 62
     7
100
AcDbLine
 10
178.592291827854
 20
228.8894565073179
 30
0.0
 11
178.592291827854
 21
246.8142307952435
 31
0.0
  0
LINE
  5
1E9
330
5A
100
AcDbEntity
  8
1
  6
Continuous
 62
     7
100
AcDbLine
 10
182.3773715832047
 20
277.2822725270114
 30
0.0
 11
179.1618783783341
 21
277.7341806260039
 31
0.0
  0
LINE
  5
1EA
330
5A
100
AcDbEntity
  8
1
  6
Continuous
 62
     7
100
AcDbLine
 10
183.5513684335976
 20
229.0115449408924
 30
0.0
 11
179.1619137605667
 21
228.3943274468847
 31
0.0
  0
LINE
  5
1EB
330
5A
100
AcDbEntity
  8
1
  6
Continuous
 62
     7
100
AcDbLine
 10
178.592291827854
 20
277.239046591633
 30
0.0
 11
178.592291827854
 21
246.8142307952435
 31
0.0
  0
LINE
  5
1EC
330
5A
100
AcDbEntity
  8
1
  6
Continuous
 62
     7
100
AcDbLine
 10
178.592291827854
 20
679.3065712722258
 30
0.0
 11
178.592291827854
 21
659.1339279504285
 31
0.0
  0
LINE
  5
1ED
330
5A
100
AcDbEntity
  8
1
  6
Continuous
 62
     7
100
AcDbLine
 10
179.1618783783343
 20
624.510167048633
 30
0.0
 11
182.3773715832047
 21
624.9620751476256
 31
0.0
  0
LINE
  5
1EE
330
5A
100
AcDbEntity
  8
1
  6
Continuous
 62
     7
100
AcDbLine
 10
182.3773715832047
 20
679.3497972076042
 30
0.0
 11
179.1618783783341
 21
679.8017053065966
 31
0.0
  0
LINE
  5
1EF
330
5A
100
AcDbEntity
  8
1
  6
DASH_CENTER
 62
     4
100
AcDbLine
 10
466.2131728880875
 20
228.3148991630123
 30
0.0
 11
516.7663117930981
 21
257.5017675182008
 31
0.0
  0
LINE
  5
1F0
330
5A
100
AcDbEntity
  8
1
  6
DASH_CENTER
 62
     4
100
AcDbLine
 10
530.2967374742693
 20
228.3148991630123
 30
0.0
 11
479.1089240517725
 21
257.8681970217193
 31
0.0
  0
LINE
  5
1F1
330
5A
100
AcDbEntity
  8
1
  6
Continuous
 62
     7
100
AcDbLine
 10
504.0505101389128
 20
273.367145065859
 30
0.0
 11
507.7019193503833
 21
259.739900369426
 31
0.0
  0
LINE
  5
1F2
330
5A
100
AcDbEntity
  8
1
  6
Continuous
 62
     7
100
AcDbLine
 10
524.1482309629087
 20
238.5568714823631
 30
0.0
 11
514.1723954779463
 21
248.5327069673254
 31
0.0
  0
LINE
  5
1F3
330
5A
100
AcDbEntity
  8
1
  6
Continuous
 62
     7
100
AcDbLine
 10
518.3526760051743
 20
228.5186758375093
 30
0.0
 11
504.7254313087415
 21
232.1700850489798
 31
0.0
  0
LINE
  5
1F4
330
5A
100
AcDbEntity
  8
1
  6
Continuous
 62
     7
100
AcDbLine
 10
492.4594002234441
 20
273.367145065859
 30
0.0
 11
488.8079910119736
 21
259.739900369426
 31
0.0
  0
LINE
  5
1F5
330
5A
100
AcDbEntity
  8
1
  6
Continuous
 62
     7
100
AcDbLine
 10
477.3967294545621
 20
228.3148991630123
 30
0.0
 11
491.7844790536154
 21
232.1700850489798
 31
0.0
  0
LINE
  5
1F6
330
5A
100
AcDbEntity
  8
1
  6
Continuous
 62
     7
100
AcDbLine
 10
472.3616793994482
 20
238.5568714823631
 30
0.0
 11
482.3375148844106
 21
248.5327069673254
 31
0.0
  0
ARC
  5
1F7
330
5A
100
AcDbEntity
  8
1
  6
Continuous
 62
     7
100
AcDbCircle
 10
181.452291827854
 20
652.155936177615
 30
0.0
 40
5.999999999999926
100
AcDbArc
 50
-75.0
 51
0.0
  0
ARC
  5
1F8
330
5A
100
AcDbEntity
  8
1
  6
Continuous
 62
     7
100
AcDbCircle
 10
181.452291827854
 20
652.155936177615
 30
0.0
 40
6.0
100
AcDbArc
 50
0.0
 51
75.0
  0
ARC
  5
1F9
330
5A
100
AcDbEntity
  8
1
  6
Continuous
 62
     7
100
AcDbCircle
 10
39.59229182785401
 20
246.8142307952435
 30
0.0
 40
150.0533238552216
100
AcDbArc
 50
1.527525442213
 51
9.8029017937678
  0
ARC
  5
1FA
330
5A
100
AcDbEntity
  8
1
  6
Continuous
 62
     7
100
AcDbCircle
 10
114.6804708191547
 20
246.4500351299968
 30
0.0
 40
74.99999999999999
100
AcDbArc
 50
-9.5914924826651
 51
-2.77863896596246
  0
ARC
  5
1FB
330
5A
100
AcDbEntity
  8
1
  6
Continuous
 62
     7
100
AcDbCircle
 10
62.22213928752962
 20
653.7930265285041
 30
0.0
 40
127.4948334081411
100
AcDbArc
 50
-10.80949324635226
 51
-2.53411689479732
  0
ARC
  5
1FC
330
5A
100
AcDbEntity
  8
1
  6
Continuous
 62
     7
100
AcDbCircle
 10
62.22213928752962
 20
650.5188458267256
 30
0.0
 40
127.4948334081409
100
AcDbArc
 50
2.53411689479742
 51
10.80949324635216
  0
ARC
  5
1FD
330
5A
100
AcDbEntity
  8
1
  6
Continuous
 62
     7
100
AcDbCircle
 10
498.2549551811784
 20
271.8142307952438
 30
0.0
 40
6.000000000000004
100
AcDbArc
 50
15.00000000000064
 51
90.0
  0
ARC
  5
1FE
330
5A
100
AcDbEntity
  8
1
  6
Continuous
 62
     7
100
AcDbCircle
 10
519.9055902757893
 20
234.3142307952437
 30
0.0
 40
5.999999999999959
100
AcDbArc
 50
-104.9999999999991
 51
45.00000000000058
  0
ARC
  5
1FF
330
5A
100
AcDbEntity
  8
1
  6
Continuous
 62
     7
100
AcDbCircle
 10
498.2549551811784
 20
271.8142307952438
 30
0.0
 40
6.0
100
AcDbArc
 50
90.0
 51
164.9999999999991
  0
ARC
  5
200
330
5A
100
AcDbEntity
  8
1
  6
Continuous
 62
     7
100
AcDbCircle
 10
476.6043200865675
 20
234.3142307952437
 30
0.0
 40
6.000000000000109
100
AcDbArc
 50
134.9999999999994
 51
-82.47575892105965
  0
ARC
  5
201
330
5A
100
AcDbEntity
  8
1
  6
Continuous
 62
     7
100
AcDbCircle
 10
181.5423329774443
 20
271.340664114562
 30
0.0
 40
5.99999999999994
100
AcDbArc
 50
9.8029017937682
 51
81.99999999999974
  0
ARC
  5
202
330
5A
100
AcDbEntity
  8
1
  6
Continuous
 62
     7
100
AcDbCircle
 10
182.7159052410462
 20
234.9530936660894
 30
0.0
 40
5.999999999999838
100
AcDbArc
 50
-81.99590562829879
 51
-9.59149248266447
  0
ARC
  5
203
330
5A
100
AcDbEntity
  8
1
  6
Continuous
 62
     7
100
AcDbCircle
 10
179.092291827854
 20
277.239046591633
 30
0.0
 40
0.5000000000001147
100
AcDbArc
 50
81.99999999999449
 51
180.0
  0
ARC
  5
204
330
5A
100
AcDbEntity
  8
1
  6
Continuous
 62
     7
100
AcDbCircle
 10
179.092291827854
 20
228.889456507318
 30
0.0
 40
0.5
100
AcDbArc
 50
-179.9999999999902
 51
-81.99590562829366
  0
ARC
  5
205
330
5A
100
AcDbEntity
  8
1
  6
Continuous
 62
     7
100
AcDbCircle
 10
181.5423329774445
 20
630.903683560075
 30
0.0
 40
6.000000000000008
100
AcDbArc
 50
-82.00000000000169
 51
-9.80290179377034
  0
ARC
  5
206
330
5A
100
AcDbEntity
  8
1
  6
Continuous
 62
     7
100
AcDbCircle
 10
179.092291827854
 20
625.005301083004
 30
0.0
 40
0.5
100
AcDbArc
 50
180.0
 51
-81.99999999997463
  0
ARC
  5
207
330
5A
100
AcDbEntity
  8
1
  6
Continuous
 62
     7
100
AcDbCircle
 10
179.092291827854
 20
679.3065712722258
 30
0.0
 40
0.4999999999999459
100
AcDbArc
 50
81.99999999999177
 51
180.0
  0
ARC
  5
208
330
5A
100
AcDbEntity
  8
1
  6
Continuous
 62
     7
100
AcDbCircle
 10
181.5423329774444
 20
673.4081887951548
 30
0.0
 40
6.000000000000004
100
AcDbArc
 50
9.80290179376699
 51
82.00000000000074
  0
ARC
  5
209
330
5A
100
AcDbEntity
  8
1
  6
Continuous
 62
     7
100
AcDbCircle
 10
531.8500650076101
 20
266.2103764969892
 30
0.0
 40
25.00000000000009
100
AcDbArc
 50
-164.9999999999996
 51
-134.9999999999998
  0
ARC
  5
20A
330
5A
100
AcDbEntity
  8
1
  6
Continuous
 62
     7
100
AcDbCircle
 10
498.2549551811784
 20
208.0219393917531
 30
0.0
 40
25.0
100
AcDbArc
 50
74.99999999999973
 51
104.9999999999999
  0
ARC
  5
20B
330
5A
100
AcDbEntity
  8
1
  6
Continuous
 62
     7
100
AcDbCircle
 10
464.6598453547468
 20
266.2103764969892
 30
0.0
 40
25.0000000000002
100
AcDbArc
 50
-45.0
 51
-15.00000000000042
  0
ENDBLK
  5
5C
330
5A
100
AcDbEntity
  8
0
100
AcDbBlockEnd
  0
BLOCK
  5
22D
330
225
100
AcDbEntity
  8
0
100
AcDbBlockBegin
  2
*D012
 70
     1
 71
     0
 10
0.0
 20
0.0
 30
0.0
  3
*D012
  1

  0
LINE
  5
226
330
225
100
AcDbEntity
  8
0
  6
Continuous
 62
     2
100
AcDbLine
 10
193.6109533036297
 20
169.8142307952433
 30
0.0
 11
256.07328016087
 21
169.8142307952433
 31
0.0
  0
LINE
  5
227
330
225
100
AcDbEntity
  8
0
  6
Continuous
 62
     2
100
AcDbLine
 10
135.1146331018699
 20
169.8142307952433
 30
0.0
 11
193.6109533036297
 21
169.8142307952433
 31
0.0
  0
LINE
  5
228
330
225
100
AcDbEntity
  8
0
  6
Continuous
 62
     2
100
AcDbLine
 10
135.1146331018699
 20
220.8142307952436
 30
0.0
 11
135.1146331018699
 21
166.8142307952433
 31
0.0
  0
LINE
  5
229
330
225
100
AcDbEntity
  8
0
  6
Continuous
 62
     2
100
AcDbLine
 10
193.6109533036297
 20
246.8142307952437
 30
0.0
 11
193.6109533036297
 21
166.8142307952433
 31
0.0
  0
SOLID
  5
22A
330
225
100
AcDbEntity
  8
0
 62
     2
100
AcDbTrace
 10
145.6146331018699
 20
171.196582019911
 30
0.0
 11
145.6146331018699
 21
168.4318795705757
 31
0.0
 12
135.1146331018699
 22
169.8142307952433
 32
0.0
 13
135.1146331018699
 23
169.8142307952433
 33
0.0
  0
SOLID
  5
22B
330
225
100
AcDbEntity
  8
0
 62
     2
100
AcDbTrace
 10
183.1109533036297
 20
168.4318795705757
 30
0.0
 11
183.1109533036297
 21
171.196582019911
 31
0.0
 12
193.6109533036297
 22
169.8142307952433
 32
0.0
 13
193.6109533036297
 23
169.8142307952433
 33
0.0
  0
MTEXT
  5
22C
330
225
100
AcDbEntity
  8
0
 62
     7
100
AcDbMText
 10
199.37328016087
 20
172.8142307952433
 30
0.0
 40
10.5
 41
0.0
 71
     7
 72
     1
  1
59リフト5
  7
CONVERTER_1
 11
0.9999999999970621
 21
2.424068405545307E-6
 31
0.0
 73
     1
 44
0.60024009603842
  0
ENDBLK
  5
22E
330
225
100
AcDbEntity
  8
0
100
AcDbBlockEnd
  0
BLOCK
  5
238
330
231
100
AcDbEntity
  8
0
100
AcDbBlockBegin
  2
*D113
 70
     1
 71
     0
 10
0.0
 20
0.0
 30
0.0
  3
*D113
  1

  0
LINE
  5
232
330
231
100
AcDbEntity
  8
0
  6
Continuous
 62
     2
100
AcDbLine
 10
219.6049551811784
 20
246.8142307952433
 30
0.0
 11
219.6049551811784
 21
314.3142307952438
 31
0.0
  0
LINE
  5
233
330
231
100
AcDbEntity
  8
0
  6
Continuous
 62
     2
100
AcDbLine
 10
471.3144836829435
 20
246.8142307952433
 30
0.0
 11
216.6049551811784
 21
246.8142307952433
 31
0.0
  0
LINE
  5
234
330
231
100
AcDbEntity
  8
0
  6
Continuous
 62
     2
100
AcDbLine
 10
285.2549551811784
 20
314.3142307952438
 30
0.0
 11
216.6049551811784
 21
314.3142307952438
 31
0.0
  0
SOLID
  5
235
330
231
100
AcDbEntity
  8
0
 62
     2
100
AcDbTrace
 10
218.2226039565108
 20
257.3142307952433
 30
0.0
 11
220.9873064058461
 21
257.3142307952433
 31
0.0
 12
219.6049551811784
 22
246.8142307952433
 32
0.0
 13
219.6049551811784
 23
246.8142307952433
 33
0.0
  0
SOLID
  5
236
330
231
100
AcDbEntity
  8
0
 62
     2
100
AcDbTrace
 10
220.9873064058461
 20
303.8142307952438
 30
0.0
 11
218.2226039565108
 21
303.8142307952438
 31
0.0
 12
219.6049551811784
 22
314.3142307952438
 32
0.0
 13
219.6049551811784
 23
314.3142307952438
 33
0.0
  0
MTEXT
  5
237
330
231
100
AcDbEntity
  8
0
 62
     7
100
AcDbMText
 10
216.6049551811784
 20
272.6892307952436
 30
0.0
 40
10.5
 41
0.0
 71
     7
 72
     1
  1
68
  7
CONVERTER_2
 11
0.0
 21
1.0
 31
0.0
 73
     1
 44
0.60024009603842
  0
ENDBLK
  5
239
330
231
100
AcDbEntity
  8
0
100
AcDbBlockEnd
  0
BLOCK
  5
243
330
23C
100
AcDbEntity
  8
0
100
AcDbBlockBegin
  2
*D214
 70
     1
 71
     0
 10
0.0
 20
0.0
 30
0.0
  3
*D214
  1

  0
LINE
  5
23D
330
23C
100
AcDbEntity
  8
0
  6
Continuous
 62
     2
100
AcDbLine
 10
296.9049551811784
 20
246.8142307952433
 30
0.0
 11
296.9049551811784
 21
281.3142307952436
 31
0.0
  0
LINE
  5
23E
330
23C
100
AcDbEntity
  8
0
  6
Continuous
 62
     2
100
AcDbLine
 10
471.3144836829436
 20
246.8142307952433
 30
0.0
 11
293.9049551811784
 21
246.8142307952433
 31
0.0
  0
LINE
  5
23F
330
23C
100
AcDbEntity
  8
0
  6
Continuous
 62
     2
100
AcDbLine
 10
265.6413621871645
 20
281.3142307952436
 30
0.0
 11
299.9049551811784
 21
281.3142307952436
 31
0.0
  0
SOLID
  5
240
330
23C
100
AcDbEntity
  8
0
 62
     2
100
AcDbTrace
 10
295.5226039565108
 20
257.3142307952433
 30
0.0
 11
298.2873064058461
 21
257.3142307952433
 31
0.0
 12
296.9049551811784
 22
246.8142307952433
 32
0.0
 13
296.9049551811784
 23
246.8142307952433
 33
0.0
  0
SOLID
  5
241
330
23C
100
AcDbEntity
  8
0
 62
     2
100
AcDbTrace
 10
298.2873064058461
 20
270.8142307952436
 30
0.0
 11
295.5226039565108
 21
270.8142307952436
 31
0.0
 12
296.9049551811784
 22
281.3142307952436
 32
0.0
 13
296.9049551811784
 23
281.3142307952436
 33
0.0
  0
MTEXT
  5
242
330
23C
100
AcDbEntity
  8
0
 62
     7
100
AcDbMText
 10
293.9049551811784
 20
256.1892307952435
 30
0.0
 40
10.5
 41
0.0
 71
     7
 72
     1
  1
35
  7
CONVERTER_2
 11
0.0
 21
1.0
 31
0.0
 73
     1
 44
0.60024009603842
  0
ENDBLK
  5
244
330
23C
100
AcDbEntity
  8
0
100
AcDbBlockEnd
  0
BLOCK
  5
24E
330
247
100
AcDbEntity
  8
0
100
AcDbBlockBegin
  2
*D315
 70
     1
 71
     0
 10
0.0
 20
0.0
 30
0.0
  3
*D315
  1

  0
LINE
  5
248
330
247
100
AcDbEntity
  8
1
  6
Continuous
 62
     2
100
AcDbLine
 10
498.2549551811785
 20
198.5186758375093
 30
0.0
 11
543.2549551811785
 21
198.5186758375093
 31
0.0
  0
LINE
  5
249
330
247
100
AcDbEntity
  8
1
  6
Continuous
 62
     2
100
AcDbLine
 10
498.2549551811785
 20
229.8142307952438
 30
0.0
 11
498.2549551811785
 21
195.5186758375093
 31
0.0
  0
LINE
  5
24A
330
247
100
AcDbEntity
  8
1
  6
Continuous
 62
     2
100
AcDbLine
 10
543.2549551811785
 20
223.8142307952438
 30
0.0
 11
543.2549551811785
 21
195.5186758375093
 31
0.0
  0
SOLID
  5
24B
330
247
100
AcDbEntity
  8
1
 62
     2
100
AcDbTrace
 10
508.7549551811785
 20
199.901027062177
 30
0.0
 11
508.7549551811785
 21
197.1363246128417
 31
0.0
 12
498.2549551811785
 22
198.5186758375093
 32
0.0
 13
498.2549551811785
 23
198.5186758375093
 33
0.0
  0
SOLID
  5
24C
330
247
100
AcDbEntity
  8
1
 62
     2
100
AcDbTrace
 10
532.7549551811785
 20
197.1363246128417
 30
0.0
 11
532.7549551811785
 21
199.901027062177
 31
0.0
 12
543.2549551811785
 22
198.5186758375093
 32
0.0
 13
543.2549551811785
 23
198.5186758375093
 33
0.0
  0
MTEXT
  5
24D
330
247
100
AcDbEntity
  8
1
 62
     7
100
AcDbMText
 10
512.8799551811784
 20
201.5186758375093
 30
0.0
 40
10.5
 41
0.0
 71
     7
 72
     1
  1
45
  7
CONVERTER_2
 11
0.9999999999970621
 21
2.424068405545307E-6
 31
0.0
 73
     1
 44
0.60024009603842
  0
ENDBLK
  5
24F
330
247
100
AcDbEntity
  8
0
100
AcDbBlockEnd
  0
BLOCK
  5
259
330
252
100
AcDbEntity
  8
0
100
AcDbBlockBegin
  2
*D416
 70
     1
 71
     0
 10
0.0
 20
0.0
 30
0.0
  3
*D416
  1

  0
LINE
  5
253
330
252
100
AcDbEntity
  8
1
  6
Continuous
 62
     2
100
AcDbLine
 10
258.2549551811784
 20
198.5186758375093
 30
0.0
 11
498.2549551811785
 21
198.5186758375093
 31
0.0
  0
LINE
  5
254
330
252
100
AcDbEntity
  8
1
  6
Continuous
 62
     2
100
AcDbLine
 10
258.2549551811784
 20
278.3142307952437
 30
0.0
 11
258.2549551811784
 21
195.5186758375093
 31
0.0
  0
LINE
  5
255
330
252
100
AcDbEntity
  8
1
  6
Continuous
 62
     2
100
AcDbLine
 10
498.2549551811785
 20
229.8142307952438
 30
0.0
 11
498.2549551811785
 21
195.5186758375093
 31
0.0
  0
SOLID
  5
256
330
252
100
AcDbEntity
  8
1
 62
     2
100
AcDbTrace
 10
268.7549551811784
 20
199.901027062177
 30
0.0
 11
268.7549551811784
 21
197.1363246128417
 31
0.0
 12
258.2549551811784
 22
198.5186758375093
 32
0.0
 13
258.2549551811784
 23
198.5186758375093
 33
0.0
  0
SOLID
  5
257
330
252
100
AcDbEntity
  8
1
 62
     2
100
AcDbTrace
 10
487.7549551811785
 20
197.1363246128417
 30
0.0
 11
487.7549551811785
 21
199.901027062177
 31
0.0
 12
498.2549551811785
 22
198.5186758375093
 32
0.0
 13
498.2549551811785
 23
198.5186758375093
 33
0.0
  0
MTEXT
  5
258
330
252
100
AcDbEntity
  8
1
 62
     7
100
AcDbMText
 10
365.6549551811784
 20
201.5186758375093
 30
0.0
 40
10.5
 41
0.0
 71
     7
 72
     1
  1
240
  7
CONVERTER_2
 11
0.9999999999970621
 21
2.424068405545307E-6
 31
0.0
 73
     1
 44
0.60024009603842
  0
ENDBLK
  5
25A
330
252
100
AcDbEntity
  8
0
100
AcDbBlockEnd
  0
BLOCK
  5
264
330
25D
100
AcDbEntity
  8
0
100
AcDbBlockBegin
  2
*D517
 70
     1
 71
     0
 10
0.0
 20
0.0
 30
0.0
  3
*D517
  1

  0
LINE
  5
25E
330
25D
100
AcDbEntity
  8
1
  6
Continuous
 62
     2
100
AcDbLine
 10
587.2549551811784
 20
269.8142307952436
 30
0.0
 11
587.2549551811784
 21
223.8142307952438
 31
0.0
  0
LINE
  5
25F
330
25D
100
AcDbEntity
  8
1
  6
Continuous
 62
     2
100
AcDbLine
 10
543.2549551811784
 20
269.8142307952436
 30
0.0
 11
590.2549551811784
 21
269.8142307952436
 31
0.0
  0
LINE
  5
260
330
25D
100
AcDbEntity
  8
1
  6
Continuous
 62
     2
100
AcDbLine
 10
543.2549551811784
 20
223.8142307952438
 30
0.0
 11
590.2549551811784
 21
223.8142307952438
 31
0.0
  0
SOLID
  5
261
330
25D
100
AcDbEntity
  8
1
 62
     2
100
AcDbTrace
 10
588.6373064058461
 20
259.3142307952436
 30
0.0
 11
585.8726039565107
 21
259.3142307952436
 31
0.0
 12
587.2549551811784
 22
269.8142307952436
 32
0.0
 13
587.2549551811784
 23
269.8142307952436
 33
0.0
  0
SOLID
  5
262
330
25D
100
AcDbEntity
  8
1
 62
     2
100
AcDbTrace
 10
585.8726039565107
 20
234.3142307952438
 30
0.0
 11
588.6373064058461
 21
234.3142307952438
 31
0.0
 12
587.2549551811784
 22
223.8142307952438
 32
0.0
 13
587.2549551811784
 23
223.8142307952438
 33
0.0
  0
MTEXT
  5
263
330
25D
100
AcDbEntity
  8
1
 62
     7
100
AcDbMText
 10
584.2549551811784
 20
228.0192307952438
 30
0.0
 40
10.5
 41
0.0
 71
     7
 72
     1
  1
\C7;{\Fgdt;n}\C7;46
  7
CONVERTER_2
 11
0.0
 21
1.0
 31
0.0
 73
     1
 44
0.60024009603842
  0
ENDBLK
  5
265
330
25D
100
AcDbEntity
  8
0
100
AcDbBlockEnd
  0
BLOCK
  5
26F
330
268
100
AcDbEntity
  8
0
100
AcDbBlockBegin
  2
*D618
 70
     1
 71
     0
 10
0.0
 20
0.0
 30
0.0
  3
*D618
  1

  0
LINE
  5
269
330
268
100
AcDbEntity
  8
1
  6
Continuous
 62
     2
100
AcDbLine
 10
557.2549551811784
 20
198.5186758375093
 30
0.0
 11
543.2549551811784
 21
198.5186758375093
 31
0.0
  0
LINE
  5
26A
330
268
100
AcDbEntity
  8
1
  6
Continuous
 62
     2
100
AcDbLine
 10
578.2549551811784
 20
198.5186758375093
 30
0.0
 11
557.2549551811784
 21
198.5186758375093
 31
0.0
  0
LINE
  5
26B
330
268
100
AcDbEntity
  8
1
  6
Continuous
 62
     2
100
AcDbLine
 10
557.2549551811784
 20
237.3142307952438
 30
0.0
 11
557.2549551811784
 21
195.5186758375093
 31
0.0
  0
LINE
  5
26C
330
268
100
AcDbEntity
  8
1
  6
Continuous
 62
     2
100
AcDbLine
 10
543.2549551811784
 20
223.8142307952438
 30
0.0
 11
543.2549551811784
 21
195.5186758375093
 31
0.0
  0
SOLID
  5
26D
330
268
100
AcDbEntity
  8
1
 62
     2
100
AcDbTrace
 10
567.7549551811784
 20
199.901027062177
 30
0.0
 11
567.7549551811784
 21
197.1363246128417
 31
0.0
 12
557.2549551811784
 22
198.5186758375093
 32
0.0
 13
557.2549551811784
 23
198.5186758375093
 33
0.0
  0
MTEXT
  5
26E
330
268
100
AcDbEntity
  8
1
 62
     7
100
AcDbMText
 10
565.0483622921761
 20
201.5186758375093
 30
0.0
 40
10.5
 41
0.0
 71
     7
 72
     1
  1
14
  7
CONVERTER_2
 11
0.9999999999970621
 21
2.424068405545307E-6
 31
0.0
 73
     1
 44
0.60024009603842
  0
ENDBLK
  5
270
330
268
100
AcDbEntity
  8
0
100
AcDbBlockEnd
  0
BLOCK
  5
272
330
271
100
AcDbEntity
  8
0
100
AcDbBlockBegin
  2
_None
 70
     0
 71
     0
 10
0.0
 20
0.0
 30
0.0
  3
_None
  1

  0
ENDBLK
  5
273
330
271
100
AcDbEntity
  8
0
100
AcDbBlockEnd
  0
ENDSEC
  0
SECTION
  2
ENTITIES
  0
INSERT
  5
5D
330
1F
100
AcDbEntity
  8
1
100
AcDbBlockReference
  2
_J__A4
 10
0.0
 20
0.0
 30
0.0
 41
3.0
 42
3.0
 43
3.0
  0
INSERT
  5
5E
330
1F
100
AcDbEntity
  8
1
100
AcDbBlockReference
  2
A20J-60X-16
 10
162.2231557767677
 20
264.3142307952435
 30
0.0
  0
INSERT
  5
5F
330
1F
100
AcDbEntity
  8
1
100
AcDbBlockReference
  2
A20-0-13
 10
238.1146331018699
 20
223.8142307952435
 30
0.0
  0
INSERT
  5
60
330
1F
100
AcDbEntity
  8
0
100
AcDbBlockReference
  2
R10A-13
 10
261.1146331018699
 20
201.8142307952435
 30
0.0
  0
INSERT
  5
61
330
1F
100
AcDbEntity
  8
0
100
AcDbBlockReference
  2
21-1A
 10
216.11463310187
 20
201.8142307952435
 30
0.0
  0
LINE
  5
20C
330
1F
100
AcDbEntity
  8
1
  6
DASH_CENTER
 62
     2
100
AcDbLine
 10
285.2549551811784
 20
314.3142307952438
 30
0.0
 11
471.2549551811784
 21
314.3142307952438
 31
0.0
  0
LINE
  5
20D
330
1F
100
AcDbEntity
  8
1
  6
DASH_CENTER
 62
     2
100
AcDbLine
 10
258.2549551811784
 20
278.3142307952436
 30
0.0
 11
258.2549551811784
 21
287.3142307952436
 31
0.0
  0
LINE
  5
20E
330
1F
100
AcDbEntity
  8
1
  6
DASH_CENTER
 62
     2
100
AcDbLine
 10
516.7663117930981
 20
257.5017675182008
 30
0.0
 11
466.2131728880875
 21
228.3148991630123
 31
0.0
  0
LINE
  5
20F
330
1F
100
AcDbEntity
  8
1
  6
DASH_CENTER
 62
     2
100
AcDbLine
 10
479.1089240517724
 20
257.8681970217193
 30
0.0
 11
530.2967374742693
 21
228.3148991630123
 31
0.0
  0
LINE
  5
210
330
1F
100
AcDbEntity
  8
1
  6
DASH_CENTER
 62
     2
100
AcDbLine
 10
178.592291827854
 20
246.8142307952435
 30
0.0
 11
194.5442568942257
 21
246.8142307952437
 31
0.0
  0
LINE
  5
211
330
1F
100
AcDbEntity
  8
1
  6
DASH_CENTER
 62
     2
100
AcDbLine
 10
135.1146331018699
 20
326.465711787964
 30
0.0
 11
135.1146331018699
 21
265.3142307952435
 31
0.0
  0
LINE
  5
212
330
1F
100
AcDbEntity
  8
1
  6
DASH_CENTER
 62
     2
100
AcDbLine
 10
124.6014126925109
 20
314.3142307952438
 30
0.0
 11
146.0073491102975
 21
314.3142307952438
 31
0.0
  0
LINE
  5
213
330
1F
100
AcDbEntity
  8
1
  6
DASH_CENTER
 62
     2
100
AcDbLine
 10
124.136681889649
 20
412.1559361776149
 30
0.0
 11
146.4888552957319
 21
412.1559361776149
 31
0.0
  0
LINE
  5
214
330
1F
100
AcDbEntity
  8
1
  6
DASH_CENTER
 62
     2
100
AcDbLine
 10
115.4551458518837
 20
652.1559361776152
 30
0.0
 11
197.4837686423716
 21
652.1559361776152
 31
0.0
  0
LINE
  5
215
330
1F
100
AcDbEntity
  8
1
  6
DASH_CENTER
 62
     2
100
AcDbLine
 10
135.1146331018699
 20
716.3795537761695
 30
0.0
 11
135.1146331018699
 21
400.1797389120605
 31
0.0
  0
LINE
  5
216
330
1F
100
AcDbEntity
  8
1
  6
DASH_CENTER
 62
     2
100
AcDbLine
 10
498.2549551811784
 20
229.8142307952438
 30
0.0
 11
498.2549551811784
 21
287.3142307952436
 31
0.0
  0
LINE
  5
217
330
1F
100
AcDbEntity
  8
1
  6
DASH_CENTER
 62
     2
100
AcDbLine
 10
560.2549551811784
 20
246.8142307952438
 30
0.0
 11
471.3144836829435
 21
246.8142307952433
 31
0.0
  0
LINE
  5
218
330
1F
100
AcDbEntity
  8
1
  6
DASH_CENTER
 62
     2
100
AcDbLine
 10
135.1146331018699
 20
265.3142307952435
 30
0.0
 11
135.1146331018699
 21
220.8142307952436
 31
0.0
  0
LINE
  5
219
330
1F
100
AcDbEntity
  8
0
  6
DASH_CENTER
 62
     2
100
AcDbLine
 10
178.4919700455406
 20
246.8142307952435
 30
0.0
 11
109.1146331018699
 21
246.8142307952435
 31
0.0
  0
ARC
  5
21A
330
1F
100
AcDbEntity
  8
1
  6
DASH_CENTER
 62
     2
100
AcDbCircle
 10
285.2549551811784
 20
287.3142307952436
 30
0.0
 40
27.00000000000023
100
AcDbArc
 50
90.0
 51
180.0
  0
ARC
  5
21B
330
1F
100
AcDbEntity
  8
1
  6
DASH_CENTER
 62
     2
100
AcDbCircle
 10
471.2549551811784
 20
287.3142307952438
 30
0.0
 40
27.0
100
AcDbArc
 50
-0.00000000000048
 51
90.0
  0
SOLID
  5
21C
330
1F
100
AcDbEntity
  8
1
 62
     2
100
AcDbTrace
 10
149.6674818243558
 20
713.440378529685
 30
0.0
 11
152.0617843793852
 21
712.0580273050173
 31
0.0
 12
145.6146331018704
 22
703.6559361776145
 32
0.0
 13
145.6146331018704
 23
703.6559361776145
 33
0.0
  0
LEADER
  5
21D
330
1F
100
AcDbEntity
  8
1
  6
Continuous
 62
     2
100
AcDbLeader
  3
Standard
 71
     0
 76
     3
 10
145.6146331018704
 20
703.6559361776145
 30
0.0
 10
158.1492234237838
 20
725.3664834672296
 30
0.0
 10
206.735349559972
 20
725.3664834672296
 30
0.0
  0
MTEXT
  5
21F
330
1F
100
AcDbEntity
  8
0
 62
     7
100
AcDbMText
 10
102.0
 20
102.0
 30
0.0
 40
10.5
 41
0.0
 71
     4
 72
     1
  1
JIS
  7
CONVERTER_2
 73
     1
 44
1.32052821128451
  0
MTEXT
  5
220
330
1F
100
AcDbEntity
  8
1
 62
     7
100
AcDbMText
 10
182.4422864918779
 20
734.3664834672296
 30
0.0
 40
10.5
 41
0.0
 71
     5
 72
     1
  1
PJ1/2
  7
CONVERTER_2
 73
     1
 44
1.32052821128451
  0
MTEXT
  5
221
330
1F
100
AcDbEntity
  8
0
 62
     7
100
AcDbMText
 10
255.75
 20
51.00000000000001
 30
0.0
 40
10.5
 41
0.0
 71
     5
 72
     1
  1
1
  7
CONVERTER_2
 73
     1
 44
1.32052821128451
  0
MTEXT
  5
222
330
1F
100
AcDbEntity
  8
0
 62
     7
100
AcDbMText
 10
281.25
 20
51.0
 30
0.0
 40
10.5
 41
0.0
 71
     5
 72
     1
  1
3
  7
CONVERTER_2
 73
     1
 44
1.32052821128451
  0
MTEXT
  5
223
330
1F
100
AcDbEntity
  8
0
 62
     7
100
AcDbMText
 10
171.0
 20
42.75
 30
0.0
 40
10.5
 41
0.0
 71
     5
 72
     1
  1
A20J-L2-13
  7
CONVERTER_2
 73
     1
 44
0.7202881152461
  0
MTEXT
  5
224
330
1F
100
AcDbEntity
  8
0
 62
     7
100
AcDbMText
 10
171.0
 20
68.25000000000003
 30
0.0
 40
10.5
 41
0.0
 71
     5
 72
     1
  1
横形自在水栓
  7
CONVERTER_1
 73
     1
 44
1.32052821128451
  0
DIMENSION
  5
230
330
1F
100
AcDbEntity
  8
0
100
AcDbDimension
  2
*D012
 10
135.1146331018699
 20
169.8142307952433
 30
0.0
 11
227.72328016087
 21
178.0642307952433
 31
0.0
  1
59リフト5
 71
     5
 42
0.0
 53
0.00013888888889
  3
ME10_DIM_0
100
AcDbAlignedDimension
 13
193.6109533036297
 23
246.8142307952437
 33
0.0
 14
135.1146331018699
 24
220.8142307952436
 34
0.0
100
AcDbRotatedDimension
  0
DIMENSION
  5
23B
330
1F
100
AcDbEntity
  8
0
100
AcDbDimension
  2
*D113
 10
219.6049551811784
 20
246.8142307952433
 30
0.0
 11
211.3549551811784
 21
280.5642307952436
 31
0.0
  1
68
 71
     5
 42
0.0
 53
90.0
  3
ME10_DIM_1
100
AcDbAlignedDimension
 13
285.2549551811784
 23
314.3142307952438
 33
0.0
 14
471.3144836829435
 24
246.8142307952433
 34
0.0
 50
90.0
100
AcDbRotatedDimension
  0
DIMENSION
  5
246
330
1F
100
AcDbEntity
  8
0
100
AcDbDimension
  2
*D214
 10
296.9049551811784
 20
246.8142307952433
 30
0.0
 11
288.6549551811784
 21
264.0642307952435
 31
0.0
  1
35
 71
     5
 42
0.0
 53
90.0
  3
ME10_DIM_2
100
AcDbAlignedDimension
 13
265.6413621871645
 23
281.3142307952436
 33
0.0
 14
471.3144836829435
 24
246.8142307952433
 34
0.0
 50
90.0
100
AcDbRotatedDimension
  0
DIMENSION
  5
251
330
1F
100
AcDbEntity
  8
1
100
AcDbDimension
  2
*D315
 10
498.2549551811785
 20
198.5186758375093
 30
0.0
 11
520.7549551811784
 21
206.7686758375093
 31
0.0
  1
<>
 71
     5
 42
0.0
 53
0.00013888888889
  3
ME10_DIM_3
100
AcDbAlignedDimension
 13
543.2549551811784
 23
223.8142307952438
 33
0.0
 14
498.2549551811784
 24
229.8142307952438
 34
0.0
100
AcDbRotatedDimension
  0
DIMENSION
  5
25C
330
1F
100
AcDbEntity
  8
1
100
AcDbDimension
  2
*D416
 10
258.2549551811784
 20
198.5186758375093
 30
0.0
 11
378.2549551811784
 21
206.7686758375093
 31
0.0
  1
<>
 71
     5
 42
0.0
 53
0.00013888888889
  3
ME10_DIM_4
100
AcDbAlignedDimension
 13
498.2549551811784
 23
229.8142307952438
 33
0.0
 14
258.2549551811784
 24
278.3142307952436
 34
0.0
100
AcDbRotatedDimension
  0
DIMENSION
  5
267
330
1F
100
AcDbEntity
  8
1
100
AcDbDimension
  2
*D517
 10
587.2549551811784
 20
269.8142307952436
 30
0.0
 11
579.0049551811784
 21
246.8142307952438
 31
0.0
  1
<>
 71
     5
 42
0.0
 53
90.0
  3
ME10_DIM_5
100
AcDbAlignedDimension
 13
543.2549551811784
 23
223.8142307952438
 33
0.0
 14
543.2549551811784
 24
269.8142307952436
 34
0.0
 50
90.0
100
AcDbRotatedDimension
  0
DIMENSION
  5
275
330
1F
100
AcDbEntity
  8
1
100
AcDbDimension
  2
*D618
 10
557.2549551811784
 20
198.5186758375093
 30
0.0
 11
571.348362292176
 21
206.7686758375093
 31
0.0
  1
<>
 71
     5
 42
0.0
 53
0.00013888888889
  3
ME10_DIM_6
100
AcDbAlignedDimension
 13
543.2549551811784
 23
223.8142307952438
 33
0.0
 14
557.2549551811784
 24
237.3142307952437
 34
0.0
100
AcDbRotatedDimension
  0
ENDSEC
  0
SECTION
  2
OBJECTS
  0
DICTIONARY
  5
C
330
0
100
AcDbDictionary
281
     1
  3
ACAD_GROUP
350
D
  3
ACAD_LAYOUT
350
1A
  3
ACAD_MLINESTYLE
350
17
  3
ACAD_PLOTSETTINGS
350
19
  3
ACAD_PLOTSTYLENAME
350
E
  3
ACAD_TABLESTYLE
350
2A
  3
AcDbVariableDictionary
350
2C
  0
DICTIONARY
  5
D
102
{ACAD_REACTORS
330
C
102
}
330
C
100
AcDbDictionary
281
     1
  0
DICTIONARY
  5
1A
102
{ACAD_REACTORS
330
C
102
}
330
C
100
AcDbDictionary
281
     1
  3
Layout1
350
1E
  3
Layout2
350
26
  3
Model
350
22
  0
DICTIONARY
  5
17
102
{ACAD_REACTORS
330
C
102
}
330
C
100
AcDbDictionary
281
     1
  3
Standard
350
18
  0
DICTIONARY
  5
19
102
{ACAD_REACTORS
330
C
102
}
330
C
100
AcDbDictionary
281
     1
  0
ACDBDICTIONARYWDFLT
  5
E
102
{ACAD_REACTORS
330
C
102
}
330
C
100
AcDbDictionary
281
     1
  3
Normal
350
F
100
AcDbDictionaryWithDefault
340
F
  0
DICTIONARY
  5
2A
102
{ACAD_REACTORS
330
C
102
}
330
C
100
AcDbDictionary
281
     1
  3
Standard
350
2B
  0
DICTIONARY
  5
2C
102
{ACAD_REACTORS
330
C
102
}
330
C
100
AcDbDictionary
281
     1
  3
CTABLESTYLE
350
2D
  0
LAYOUT
  5
1E
102
{ACAD_REACTORS
330
1A
102
}
330
1A
100
AcDbPlotSettings
  1

  2

  4

  6

 40
0.0
 41
0.0
 42
0.0
 43
0.0
 44
0.0
 45
0.0
 46
0.0
 47
0.0
 48
0.0
 49
0.0
140
0.0
141
0.0
142
1.0
143
1.0
 70
   688
 72
     0
 73
     0
 74
     5
  7

 75
    16
147
1.0
148
0.0
149
0.0
100
AcDbLayout
  1
Layout1
 70
     1
 71
     1
 10
0.0
 20
0.0
 11
12.0
 21
9.0
 12
0.0
 22
0.0
 32
0.0
 14
1.00000000000000E+20
 24
1.00000000000000E+20
 34
1.00000000000000E+20
 15
-1.00000000000000E+20
 25
-1.00000000000000E+20
 35
-1.00000000000000E+20
146
0.0
 13
0.0
 23
0.0
 33
0.0
 16
1.0
 26
0.0
 36
0.0
 17
0.0
 27
1.0
 37
0.0
 76
     0
330
1B
  0
LAYOUT
  5
26
102
{ACAD_REACTORS
330
1A
102
}
330
1A
100
AcDbPlotSettings
  1

  2

  4

  6

 40
0.0
 41
0.0
 42
0.0
 43
0.0
 44
0.0
 45
0.0
 46
0.0
 47
0.0
 48
0.0
 49
0.0
140
0.0
141
0.0
142
1.0
143
1.0
 70
   688
 72
     0
 73
     0
 74
     5
  7

 75
    16
147
1.0
148
0.0
149
0.0
100
AcDbLayout
  1
Layout2
 70
     1
 71
     2
 10
0.0
 20
0.0
 11
0.0
 21
0.0
 12
0.0
 22
0.0
 32
0.0
 14
0.0
 24
0.0
 34
0.0
 15
0.0
 25
0.0
 35
0.0
146
0.0
 13
0.0
 23
0.0
 33
0.0
 16
1.0
 26
0.0
 36
0.0
 17
0.0
 27
1.0
 37
0.0
 76
     0
330
23
  0
LAYOUT
  5
22
102
{ACAD_REACTORS
330
1A
102
}
330
1A
100
AcDbPlotSettings
  1

  2

  4

  6

 40
0.0
 41
0.0
 42
0.0
 43
0.0
 44
0.0
 45
0.0
 46
0.0
 47
0.0
 48
0.0
 49
0.0
140
0.0
141
0.0
142
1.0
143
1.0
 70
  1712
 72
     0
 73
     0
 74
     0
  7

 75
     0
147
1.0
148
0.0
149
0.0
100
AcDbLayout
  1
Model
 70
     1
 71
     0
 10
0.0
 20
0.0
 11
0.0
 21
0.0
 12
0.0
 22
0.0
 32
0.0
 14
0.0
 24
0.0
 34
0.0
 15
630.0
 25
891.0
 35
0.0
146
0.0
 13
0.0
 23
0.0
 33
0.0
 16
1.0
 26
0.0
 36
0.0
 17
0.0
 27
1.0
 37
0.0
 76
     0
330
1F
  0
MLINESTYLE
  5
18
102
{ACAD_REACTORS
330
17
102
}
330
17
100
AcDbMlineStyle
  2
Standard
 70
     0
  3

 62
   256
 51
90.0
 52
90.0
 71
     2
 49
0.5
 62
   256
  6
BYLAYER
 49
-0.5
 62
   256
  6
BYLAYER
  0
ACDBPLACEHOLDER
  5
F
102
{ACAD_REACTORS
330
E
102
}
330
E
  0
TABLESTYLE
  5
2B
102
{ACAD_REACTORS
330
2A
102
}
330
2A
100
AcDbTableStyle
  3
Standard
 70
     0
 71
     0
 40
0.06
 41
0.06
280
     0
281
     0
  7
Standard
140
0.18
170
     2
 62
     0
 63
     7
283
     0
274
    -2
284
     1
 64
     0
275
    -2
285
     1
 65
     0
276
    -2
286
     1
 66
     0
277
    -2
287
     1
 67
     0
278
    -2
288
     1
 68
     0
279
    -2
289
     1
 69
     0
  7
Standard
140
0.25
170
     5
 62
     0
 63
     7
283
     0
274
    -2
284
     1
 64
     0
275
    -2
285
     1
 65
     0
276
    -2
286
     1
 66
     0
277
    -2
287
     1
 67
     0
278
    -2
288
     1
 68
     0
279
    -2
289
     1
 69
     0
  7
Standard
140
0.18
170
     5
 62
     0
 63
     7
283
     0
274
    -2
284
     1
 64
     0
275
    -2
285
     1
 65
     0
276
    -2
286
     1
 66
     0
277
    -2
287
     1
 67
     0
278
    -2
288
     1
 68
     0
279
    -2
289
     1
 69
     0
  0
DICTIONARYVAR
  5
2D
102
{ACAD_REACTORS
330
2C
102
}
330
2C
100
DictionaryVariables
280
     0
  1
Standard
  0
ENDSEC
  0
EOF
